<?xml version="1.0" standalone="no"?>
<!DOCTYPE svg PUBLIC "-//W3C//DTD SVG 1.1//EN" "http://www.w3.org/Graphics/SVG/1.1/DTD/svg11.dtd" >
<svg>
<metadata>
Created by FontForge 20090622 at Tue Mar  8 14:18:22 2016
 By deploy user
Copyright (c) 2011 by Vernon Adams. All rights reserved.
</metadata>
<defs>
<font id="Bangers-Regular" horiz-adv-x="0" >
  <font-face 
    font-family="Bangers"
    font-weight="400"
    font-stretch="normal"
    units-per-em="1024"
    panose-1="2 11 6 3 5 3 2 2 2 4"
    ascent="819"
    descent="-205"
    x-height="724"
    cap-height="742"
    bbox="-72.9512 -245 1216 1133"
    underline-thickness="0"
    underline-position="0"
    unicode-range="U+0009-U+F000"
  />
<missing-glyph horiz-adv-x="198" 
 />
    <glyph glyph-name=".notdef" horiz-adv-x="198" 
 />
    <glyph glyph-name=".null" 
 />
    <glyph glyph-name="nonmarkingreturn" horiz-adv-x="198" 
 />
    <glyph glyph-name="uni0009" unicode="&#x9;" 
 />
    <glyph glyph-name="uni000A" unicode="&#xa;" 
 />
    <glyph glyph-name="uni000D" unicode="&#xd;" 
 />
    <glyph glyph-name="uni0010" 
 />
    <glyph glyph-name="uni0011" 
 />
    <glyph glyph-name="uni0012" 
 />
    <glyph glyph-name="uni0013" 
 />
    <glyph glyph-name="uni0014" 
 />
    <glyph glyph-name="uni001E" 
 />
    <glyph glyph-name="uni001F" 
 />
    <glyph glyph-name="space" unicode=" " horiz-adv-x="200" 
 />
    <glyph glyph-name="exclam" unicode="!" horiz-adv-x="269" 
d="M398 765q-55 -129 -100.5 -259.5l-90.5 -262.5q-30 0 -59.5 -2l-59.5 -4l62 250l63 251q19 3 44.5 6.5t51 7.5t49.5 7t40 6zM91 -24q-27 0 -44 8.5t-28 21.5q-23 29 -23 67q0 65 57 92q19 9 45 9q60 0 89.5 -28t29.5 -64q0 -43 -33 -73q-37 -33 -93 -33z" />
    <glyph glyph-name="quotedbl" unicode="&#x22;" horiz-adv-x="431" 
d="M345 802q-60 -139 -127 -332l-144 -19l30.5 113.5l20.5 75t15 58.5q15 53 26 101q9 -1 18 -1h16q38 0 71.5 2t73.5 2zM584 807q-46 -125 -136 -336l-156 -10q88 231 118 330q60 2 104 7.5z" />
    <glyph glyph-name="numbersign" unicode="#" horiz-adv-x="641" 
d="M63 310l78 4q2 8 4 20.5t5 25.5q4 26 7 48h-70q1 11 3 35q4 36 11 108l81 5q10 48 19 100.5t13 71.5l31 2.5t41 3.5q65 6 92 7q-8 -28 -19.5 -85l-19.5 -96l112 6q25 116 43 177q49 3 157 16q-6 -18 -14 -49l-16.5 -63t-17.5 -70l103 4q-21 -80 -33 -160l-107 -6
q-6 -28 -9 -44q-3 -23 -9 -49l112 7q-24 -149 -26 -167l-22 1l-51 -1l-39 -1q-7 -35 -12 -70t-12 -70q-84 3 -165 3l18 67.5t17 68.5l-112 -7q-14 -83 -29 -142q-99 -5 -167 -16q24 74 44 148q-11 0 -29.5 -1t-29.5 -1zM420 414l-108 -6l-21 -94l104 6q6 0 14.5 44t10.5 50z
" />
    <glyph glyph-name="dollar" unicode="$" horiz-adv-x="453" 
d="M145 -74q12 62 23 94q-82 9 -147 91l74 149q14 -28 37 -49q39 -37 65.5 -37t48 17t21.5 59q0 29 -45 74l-42 40t-42 44q-45 54 -45 103q0 60 52 113q45 47 119 78q11 52 30 114l140 16l-41 -103q94 -3 122 -69q10 -24 10 -47.5t-2 -37t-4 -28.5l-147 -33l4 23
q0 31 -12 44.5t-25 13.5t-24 -4.5t-21 -12.5q-21 -16 -21 -37t14 -35.5t34.5 -30l44.5 -34t44 -43.5q49 -57 49 -134q0 -82 -51 -144q-49 -60 -125 -85q-10 -73 -10 -97z" />
    <glyph glyph-name="percent" unicode="%" horiz-adv-x="818" 
d="M582 419q70 74 145 74q55 0 86 -47q27 -42 27 -103.5t-15.5 -117t-45 -101t-72 -75t-87 -29.5t-69.5 11.5t-41 30.5q-31 38 -31 103q0 78 39 158l-236 -353l-170 40q29 32 126 175l141.5 208.5l87 128.5l77.5 115q62 95 87 137q34 -8 64 -14q82 -16 104 -19zM312.5 340.5
q-42.5 -29.5 -87 -29.5t-69.5 11.5t-41 31.5q-31 37 -31 95.5t19.5 116.5t53.5 106.5t79 80t96 31.5q54 0 85 -48q27 -41 27 -102.5t-15.5 -117t-44.5 -101t-71.5 -75zM602 193q0 -48 37 -48q42 0 73 42q28 37 28 71q0 69 -48 69q-35 0 -63 -47q-27 -45 -27 -87zM207 484
q0 -48 37 -48q42 0 74 42q27 37 27 71q0 69 -48 69q-35 0 -63 -47q-27 -45 -27 -87z" />
    <glyph glyph-name="ampersand" unicode="&#x26;" horiz-adv-x="548" 
d="M203 136.5q20 -20.5 55.5 -20.5t57.5 24.5t34 59.5q19 50 25 140q-98 -8 -148 -53q-44 -40 -44 -98q0 -32 20 -52.5zM619 355q-70 -11 -81 -11q0 -254 -168 -330q-60 -27 -130 -27t-109 14.5t-63 38.5q-48 48 -48 125q0 79 49 151q50 74 130 97q-47 23 -71 65
q-12 21 -12 60.5t22.5 83t60.5 74.5q80 64 191 64q48 0 88.5 -22t63.5 -61l-84 -94l-16 14.5t-19 12.5q-25 13 -57 13t-47.5 -7.5t-25.5 -20.5q-20 -26 -20 -53t5.5 -43.5t15.5 -30.5q23 -29 65 -29h11q6 0 12 2q0 16 4 40q41 0 75.5 2t74.5 4q-2 -5 -2 -15v-26q13 0 73 14z
" />
    <glyph glyph-name="quotesingle" unicode="'" horiz-adv-x="207" 
d="M159 797q18 -3 45 -3h34q37 0 110 14l-100 -319l-168 -17q43 168 79 325z" />
    <glyph glyph-name="parenleft" unicode="(" horiz-adv-x="342" 
d="M491 776q-279 -235 -279 -511q0 -89 52 -176q46 -78 101 -107l-134 -122q-81 41 -131 140q-56 110 -56 257q0 276 180 502q59 75 137 139z" />
    <glyph glyph-name="parenright" unicode=")" horiz-adv-x="339" 
d="M259 898q142 -160 142 -388q0 -121 -35 -228t-89 -192.5t-118.5 -145t-123.5 -84.5l-93 142q126 56 200 202q69 136 69 288q0 143 -63 234q-21 31 -50 52z" />
    <glyph glyph-name="asterisk" unicode="*" horiz-adv-x="433" 
d="M192 229l-114 51l97 112l-97 -6l14 122l110 -11l-67 122l110 66l54 -149l83 148l95 -73l-99 -110l102 12l-8 -134l-122 17l75 -120l-129 -50l-31 131z" />
    <glyph glyph-name="plus" unicode="+" horiz-adv-x="318" 
d="M51 240q7 94 17 152h11q46 0 83 5q3 21 6.5 39.5t7 39t7.5 39.5q91 6 124 11q-5 -20 -10 -42.5l-10 -43.5l-10 -42q15 1 29 3t27.5 3t24.5 3q-19 -87 -33 -168l-51 1q-15 0 -30 1q-3 -56 -16 -119l-122 -7q12 44 27 125h-82z" />
    <glyph glyph-name="comma" unicode="," horiz-adv-x="202" 
d="M25 184l53 -1h37q23 0 46 1t49 2q-14 -69 -40.5 -156l-43.5 -144h-161q8 41 17.5 83.5t17.5 82l15 73.5t10 59z" />
    <glyph glyph-name="hyphen" unicode="-" horiz-adv-x="369" 
d="M374 244q-144 4 -176 4q-57 0 -93 -1.5t-63 -1.5l49 181q112 -4 140 -4q98 0 178 5z" />
    <glyph glyph-name="period" unicode="." horiz-adv-x="214" 
d="M87 -24q-27 0 -44 8.5t-28 21.5q-23 29 -23 67q0 65 57 92q19 9 45 9q60 0 89.5 -28t29.5 -64q0 -43 -33 -73q-37 -33 -93 -33z" />
    <glyph glyph-name="slash" unicode="/" horiz-adv-x="564" 
d="M508 774q24 -16 168 -33l-517 -771l-170 40q218 297 433 627z" />
    <glyph glyph-name="zero" unicode="0" horiz-adv-x="485" 
d="M248 173q38 0 69.5 25.5t54.5 63.5q47 82 47 171q0 44 -17 75t-50.5 31t-61 -28.5t-48.5 -70.5q-47 -96 -47 -181.5t53 -85.5zM312 23q-44 -22 -93 -22t-82.5 17.5t-54.5 47.5q-41 59 -41 158q0 113 48 236q49 125 127 205q84 88 173 88q73 0 113 -73q36 -67 36 -176
q0 -178 -84 -334q-56 -103 -142 -147z" />
    <glyph glyph-name="one" unicode="1" horiz-adv-x="328" 
d="M75 507l25 179q80 17 150 27.5l159 24.5q-57 -233 -105 -516l-29 -178q-66 -20 -182 -40q21 92 34.5 157.5l22.5 109l18 87.5l31 167q-27 -2 -68.5 -9t-55.5 -9z" />
    <glyph glyph-name="two" unicode="2" horiz-adv-x="478" 
d="M92 459q-2 16 -2 33q0 114 84 188q77 66 180 66q84 0 137 -49q60 -56 60 -155q0 -182 -352 -370q58 0 131.5 5.5l127.5 9.5l-17 -148q-39 -3 -98 -7q-109 -6 -180.5 -11.5t-161.5 -11.5l17 129q9 74 182 204q108 81 139.5 114t31.5 58.5t-12 42t-29.5 16.5t-30 -7.5
t-19.5 -19.5q-13 -22 -13 -55v-11q0 -3 1 -4q-1 0 -176 -17z" />
    <glyph glyph-name="three" unicode="3" horiz-adv-x="469" 
d="M199 188q0 -20 10 -29t24.5 -9t30 6.5t28.5 17.5q32 26 32 54t-24 48.5t-71 20.5t-86 -5.5t-65 -7.5l18 151q108 69 184 130l-165 -3l12 176l150 6.5l92 4t66 3.5q52 2 95 2l-24 -218l-205 -108q146 -26 181 -112q10 -26 10 -63.5t-26 -86.5t-69.5 -88.5t-100 -64.5
t-104.5 -25t-78.5 8t-53.5 25q-50 37 -50 105q0 23 9 52z" />
    <glyph glyph-name="four" unicode="4" horiz-adv-x="470" 
d="M23 241q133 408 161 488q83 0 164 11q-58 -145 -133 -387q-2 -13 -5 -24h73q1 7 4 23l7 37.5t8 46.5q13 72 35 183q84 13 175 21q-1 -10 -5.5 -34.5l-10 -55.5l-11.5 -65.5t-12 -65.5t-10 -55.5t-6 -34.5h58l-42 -164h-52l-9 -134l-189 -33l21 164l-176 -14z" />
    <glyph glyph-name="five" unicode="5" horiz-adv-x="461" 
d="M45 171q0 35 5 92l158 -12q-5 -15 -5 -30t12 -24.5t27 -9.5t29 6t25 18q27 28 27 74q0 29 -15 41q-31 22 -94 22q-38 0 -143 -18q23 161 67 402l390 15l-20 -167q-110 -4 -237 -10l-5 -36l-5 -50q185 0 228 -96q13 -30 13 -65.5t-12.5 -73.5t-33.5 -74.5t-49.5 -69
t-60.5 -57.5q-71 -53 -135 -53q-77 0 -122 51q-44 50 -44 125z" />
    <glyph glyph-name="six" unicode="6" horiz-adv-x="489" 
d="M404 512q0 73 -37 73q-24 0 -56 -55q-34 -57 -53 -138q45 13 86 13t73 -14.5t54 -38.5q44 -50 44 -123q0 -89 -61 -153q-70 -71 -187 -71q-92 0 -150 63q-64 70 -64 193t33.5 216.5t84 155.5t110 92.5t104.5 30.5t73.5 -14.5t47.5 -38.5q39 -47 39 -124zM363.5 269.5
q-17.5 12.5 -47.5 12.5q-45 0 -80 -11q-1 -6 -1 -12v-12q0 -48 15 -68t35 -20q39 0 68 25q28 25 28 57q0 16 -17.5 28.5z" />
    <glyph glyph-name="seven" unicode="7" horiz-adv-x="347" 
d="M473 758l-260 -732l-183 -17l203 560l-151 -22l32 180z" />
    <glyph glyph-name="eight" unicode="8" horiz-adv-x="530" 
d="M184 407q-63 52 -63 118q0 45 27 87.5t70.5 75.5t99 53.5t105.5 20.5t82.5 -13t54.5 -35q42 -42 42 -108q0 -88 -71 -152q-23 -20 -53 -33q68 -72 68 -162q0 -53 -24.5 -101.5t-67.5 -85.5q-93 -83 -222 -83q-151 0 -196 91q-16 33 -16 72.5t9 77t29 71.5q45 77 126 106z
M431.5 514q9.5 17 9.5 31t-6.5 23.5t-16.5 15.5q-20 11 -45.5 11t-42 -7.5t-27.5 -19.5q-21 -23 -21 -52t14.5 -46.5t36.5 -17.5t40.5 9t33.5 22.5t24.5 30.5zM370 314q-22 21 -49 21t-53.5 -11t-48.5 -29q-50 -41 -50 -85q0 -26 20.5 -45.5t64 -19.5t69 8.5t41.5 22.5
q28 24 28 70.5t-22 67.5z" />
    <glyph glyph-name="nine" unicode="9" horiz-adv-x="501" 
d="M356 349q-46 -28 -91 -28t-78 14t-59 40q-56 58 -56 147q0 108 76 176q70 63 166 63q100 0 167 -67q76 -78 76 -212q0 -104 -35 -191.5t-92 -150.5t-130 -98t-150 -35l15 170q69 0 121 46.5t70 125.5zM261.5 492.5q22.5 -15.5 48.5 -15.5t47.5 14.5t21.5 41.5
q0 48 -17 63.5t-35.5 15.5t-33.5 -5t-27 -14q-27 -20 -27 -52.5t22.5 -48z" />
    <glyph glyph-name="colon" unicode=":" horiz-adv-x="200" 
d="M261 590q-23 -97 -44 -242q-66 -4 -131 -4h-12q8 57 17 112l18 110q69 0 152 24zM204 271q-17 -94 -34 -205q-88 -5 -150 -23q18 87 38 227q46 2 76 2h43q13 0 27 -1z" />
    <glyph glyph-name="semicolon" unicode=";" horiz-adv-x="268" 
d="M135 566h62q44 0 100 4q-6 -67 -18 -129.5t-16 -92.5q-18 -1 -57 -2l-58.5 -1.5t-35.5 -0.5h-12q8 57 17 112zM79 271l53 -1h37q23 0 46 1t49 2q-14 -69 -40.5 -156l-43.5 -144h-161q8 41 17.5 83.5t17.5 82l15 73.5t10 59z" />
    <glyph glyph-name="less" unicode="&#x3c;" horiz-adv-x="296" 
d="M146 380l151 -136q-12 -54 -22.5 -107t-23.5 -107l-102.5 101t-100.5 104q15 78 43 276l151 115.5t145 127.5q-22 -78 -57 -240q-45 -36 -92 -68t-92 -66z" />
    <glyph glyph-name="equal" unicode="=" horiz-adv-x="309" 
d="M65 262q9 71 13 158q52 -4 98 -4q86 0 164 10q-27 -85 -42 -164l-110 -1q-31 0 -61.5 0.5t-61.5 0.5zM9 3q27 76 43 162h135.5t93.5 -2l-9 -154q-53 3 -99 3q-94 0 -164 -9z" />
    <glyph glyph-name="greater" unicode="&#x3e;" horiz-adv-x="302" 
d="M141 738l219 -217q-20 -103 -48 -286l-151.5 -112t-146.5 -122q24 90 49 245l97 67.5l97 66.5l-140 125q5 59 11.5 116.5t12.5 116.5z" />
    <glyph glyph-name="question" unicode="?" horiz-adv-x="449" 
d="M273 254l-120 -12q0 134 105 234l51.5 47t39 38t15.5 28t-8.5 22t-27.5 11q-30 0 -100 -51q-31 -23 -62 -51l-54 126q52 47 117.5 74.5t132.5 27.5q112 0 149 -71q13 -25 13 -68t-16 -78t-40.5 -62t-54.5 -49.5t-57 -45.5q-67 -57 -83 -120zM239 -13.5
q-27 -10.5 -64.5 -10.5t-57 25.5t-19.5 52.5t7.5 47t22.5 37q32 36 86.5 36t81 -24.5t26.5 -51t-9.5 -47t-28 -37.5t-45.5 -27.5z" />
    <glyph glyph-name="at" unicode="@" horiz-adv-x="1011" 
d="M575 139q-84 -53 -150 -53q-73 0 -114 38q-37 34 -37 84t24.5 94t67.5 82q93 86 222 105q24 4 56 4q84 0 163 -44q-18 -63 -34 -127l-32 -129q152 83 152 208q0 88 -76 138q-68 45 -180 45q-77 0 -153 -22t-137.5 -65t-99.5 -106t-38 -139t26 -147l-131 -129
q-58 128 -58 252q0 155 98 278q88 109 239 171q142 59 291 59q177 0 280 -104q47 -46 70.5 -106t23.5 -122.5t-24 -123t-71 -108t-118 -76.5t-165 -29q-66 0 -90 25q-9 8 -9 21t4 26zM652 399q-16 4 -39.5 4t-57.5 -12t-61 -33q-63 -48 -63 -111q0 -24 14.5 -39t46.5 -15
q54 0 104 24z" />
    <glyph glyph-name="A" unicode="A" horiz-adv-x="443" 
d="M195 175l-41 -147l-53.5 -7t-60.5 -7.5l-62 -7.5l69.5 230l46.5 154.5l35.5 120l34 115l29.5 101.5q185 13 282 32q-9 -99 -15 -234q-13 -269 -22 -496q-30 -5 -58.5 -9t-59 -9l-55.5 -9q11 96 19 173h-89zM219 277l74 5q0 6 1.5 20.5l3.5 33.5q8 107 17 199l7 89l-16 -1
z" />
    <glyph glyph-name="B" unicode="B" horiz-adv-x="438" 
d="M463 252q0 -37 -17.5 -73t-47 -65t-69 -51t-83.5 -37q-86 -30 -176 -30q-38 0 -71 6q49 179 78 361l56 366q140 29 229 29q105 0 146 -72q16 -27 16 -66.5t-12.5 -73.5t-32.5 -62q-41 -56 -98 -77q82 -50 82 -155zM200 203q91 10 128 51q16 18 16 40t-9.5 34.5
t-24.5 20.5q-30 16 -65 16h-9q-4 0 -8 -1q-4 -25 -7.5 -44l-6.5 -36.5l-6.5 -36.5t-7.5 -44zM252 490q125 28 125 69q0 39 -64 49q-16 3 -28 3h-11q-2 -11 -4.5 -26.5t-5.5 -32t-6.5 -33t-5.5 -29.5z" />
    <glyph glyph-name="C" unicode="C" horiz-adv-x="424" 
d="M231 170q25 0 53 31q28 32 36 66l117 -47q-45 -105 -118 -167q-65 -55 -133 -55q-64 0 -104 58q-42 62 -42 163t26.5 195t74.5 168.5t114.5 120.5t145.5 46q51 0 87 -39q35 -40 35 -105v-13q0 -6 -1 -13l-134 -36q-12 25 -28.5 25t-34.5 -19t-35.5 -49t-33.5 -67.5
t-28 -75.5q-28 -84 -28 -135.5t31 -51.5z" />
    <glyph glyph-name="D" unicode="D" horiz-adv-x="452" 
d="M183 124q70 45 129 187q33 79 44 133t11 85t-21 52.5t-66 21.5q-17 -86 -39 -185q-37 -168 -58 -294zM4 0q109 549 133 725l89 15.5t96.5 7.5t90 -17.5t62.5 -48.5q46 -59 46 -159q0 -110 -58 -232q-61 -127 -160 -207q-113 -89 -242 -89q-22 0 -57 5z" />
    <glyph glyph-name="E" unicode="E" horiz-adv-x="349" 
d="M8 -1l134 728l324 28q-7 -23 -12 -44.5l-10 -42.5t-8 -37q-30 -3 -82 -3h-69l-36 -184q55 3 92 4t48 2l-7.5 -56.5t-8.5 -56.5q-11 -1 -34 -1.5t-48 -1.5t-56 -2l-35 -189l149 24l-10 -117z" />
    <glyph glyph-name="F" unicode="F" horiz-adv-x="349" 
d="M389 336q-19 0 -147 4l-47 -302q-86 -15 -191 -39q30 109 55 253q47 265 79 484l343 18l-29 -126h-161l-32 -183q32 1 58 1h51q24 0 38 1z" />
    <glyph glyph-name="G" unicode="G" horiz-adv-x="511" 
d="M441 562q-17 76 -59 76q-26 0 -56.5 -36.5t-57.5 -93.5q-61 -133 -65 -261q0 -64 19 -91t44 -27t47 10.5t39 28.5q40 42 42 99l-109 -16l19 101q141 18 253 38q-7 -104 -41 -181.5t-81.5 -129.5t-102.5 -78t-98.5 -26t-77.5 16.5t-59 50.5q-54 72 -54 202.5t38 228.5
t95.5 163.5t124 97.5t115.5 32t79 -14.5t49 -38.5q38 -46 38 -124z" />
    <glyph glyph-name="H" unicode="H" horiz-adv-x="453" 
d="M9 -2q89 465 130 740l166 12q-40 -168 -65 -302l101 12q14 72 25.5 140.5t29.5 140.5q40 7 85 10.5t62 4.5l17 2q-49 -160 -96 -449q-23 -130 -42 -266l-160 -18q13 61 23.5 115l21 107l17.5 91l-100 -9q-23 -127 -57 -298z" />
    <glyph glyph-name="I" unicode="I" horiz-adv-x="205" 
d="M301 742q-114 -580 -139 -722q-28 0 -97 -9t-71 -10q32 116 59 253q62 313 88 463z" />
    <glyph glyph-name="J" unicode="J" horiz-adv-x="286" 
d="M43 211q5 -10 20 -18t30 -8t24.5 20.5t16.5 48t11 56t15 87l28.5 157t40.5 197.5q85 7 181 33q-30 -99 -55 -211q-46 -217 -58.5 -281.5t-26 -113t-35.5 -88.5q-51 -91 -127 -91q-62 0 -136 54z" />
    <glyph glyph-name="K" unicode="K" horiz-adv-x="473" 
d="M495 30q-48 2 -100.5 2t-110.5 -2q-20 129 -40 279l-19 -21q-7 -31 -15.5 -76l-17.5 -90.5l-19 -97.5l-166 -25q108 500 129 748q24 -3 53.5 -4.5t57.5 -3.5t59 -2q-1 -4 -3 -15l-5 -27l-6.5 -35.5t-10 -52t-16.5 -88.5l6 1l58 91l84 131q115 9 204 23
q-174 -236 -238 -339q22 -103 53 -199.5z" />
    <glyph glyph-name="L" unicode="L" horiz-adv-x="309" 
d="M194 144q38 3 106 3q2 -39 6 -63.5t5.5 -36t2.5 -15.5l-31 1q-105 0 -209 -19q-34 -7 -62 -16q24 185 63.5 389l67.5 343l180 24q-93 -394 -108.5 -484t-20.5 -126z" />
    <glyph glyph-name="M" unicode="M" horiz-adv-x="634" 
d="M363 358q115 309 152 387q51 6 83.5 11l55.5 8.5t50 8.5q-49 -290 -82 -731l-179 -32q0 36 9 116l14 120q10 91 19 141h-9q-14 -43 -31.5 -90.5l-35.5 -96.5l-35.5 -96.5t-30.5 -90.5q-36 -1 -61 -3l-60 -3l33 380h-15q-2 -13 -10.5 -44.5l-19 -72t-23 -84l-23.5 -80.5
q-18 -64 -26 -89l-169 -11q163 492 221 720q57 0 107 6t108 11l-6.5 -50t-8 -59l-9.5 -63.5l-12.5 -84l-19.5 -128.5h14z" />
    <glyph glyph-name="N" unicode="N" horiz-adv-x="464" 
d="M435 56q-12 0 -82.5 -17t-84.5 -22q-11 134 -18.5 195.5l-11.5 92.5q-4 43 -14 104q-3 -19 -8 -45.5t-10 -57.5q-16 -96 -50 -276l-150 -35q111 553 132 747q32 2 60 4.5t56 4t49 3.5l21 -130.5l13.5 -84.5l10.5 -64q10 -61 21 -108l9 49l11 59.5t13 64l17.5 84
l26.5 129.5l125 15q-110 -499 -136 -712z" />
    <glyph glyph-name="O" unicode="O" horiz-adv-x="505" 
d="M431 468q0 83 -48 83q-61 0 -110 -60q-39 -48 -67 -131q-22 -68 -22 -128q0 -40 34 -60q10 -7 23 -7q46 0 81.5 31.5t59.5 77.5t36.5 98.5t12.5 95.5zM573 531q0 -61 -17.5 -135t-47.5 -136t-69.5 -111t-82.5 -83q-89 -70 -171 -70q-69 0 -109 50q-44 55 -44 160
q0 114 53 246t139 220q93 94 195 94q84 0 123 -68q31 -55 31 -167z" />
    <glyph glyph-name="P" unicode="P" horiz-adv-x="388" 
d="M-3 -1q105 467 144 724q110 33 165 33t86.5 -15.5t51.5 -41.5q35 -47 35 -136q0 -57 -21 -110.5t-56 -95t-81 -66t-95 -24.5h-11q-19 -84 -41 -233zM283 632l-47 -257q36 9 67 58q34 54 34 122q0 38 -17 57.5t-37 19.5z" />
    <glyph glyph-name="Q" unicode="Q" horiz-adv-x="538" 
d="M372 78q-96 -82 -187 -82q-69 0 -109 50q-44 55 -44 160q0 114 53 246t139 220q93 94 195 94q84 0 123 -68q31 -55 31 -144q0 -184 -88 -337l98 -115l-43 -55l-78 -96l-43 59q-26 34 -47 68zM401 316q30 81 30 158t-48 77q-61 0 -110 -60q-39 -48 -67 -131
q-22 -68 -22 -128q0 -40 34 -60q10 -7 23 -7q35 0 65 19l-41 68q103 79 114 90z" />
    <glyph glyph-name="R" unicode="R" horiz-adv-x="455" 
d="M312 16q-77 272 -80 309l-13 -4l-49 -279l-166 -43q104 503 127 714q116 36 260 36q108 0 128 -75q6 -23 6 -57t-14 -73.5t-38 -75.5q-50 -73 -123 -112q39 -84 69.5 -158.5l51.5 -125.5zM322 607l-44 -1l-33 -163q40 4 101 51q63 48 63 79q0 29 -55 33q-16 1 -32 1z" />
    <glyph glyph-name="S" unicode="S" horiz-adv-x="440" 
d="M374 523q5 20 5 42t-11 35.5t-23.5 13.5t-24.5 -6t-24 -16q-28 -23 -28 -49.5t14 -43t34.5 -30.5l44.5 -29t45 -38q48 -56 48 -149q0 -112 -82 -185q-78 -70 -197 -70q-88 0 -161 92l76 149q14 -28 54 -51q40 -24 60 -24t33.5 4t24.5 12q25 18 25 43.5t-16 46.5t-39.5 40
t-51 38.5t-50.5 41.5q-56 50 -56 105t31.5 101t79 79.5t104 53t95.5 19.5t63.5 -7t42.5 -21q39 -32 39 -94q0 -15 -2.5 -29t-4.5 -31z" />
    <glyph glyph-name="T" unicode="T" horiz-adv-x="371" 
d="M105 602l5 131q52 -4 105 -4q140 0 273 17l-11 -55q-5 -23 -9.5 -47.5t-8.5 -42.5q-23 -6 -46 -8.5t-45 -6.5q-18 -77 -36 -191q-40 -252 -56 -367l-184 -29q81 380 109 595q-24 3 -48 2t-48 6z" />
    <glyph glyph-name="U" unicode="U" horiz-adv-x="429" 
d="M136 728q22 2 51.5 5t58 5.5t59.5 5.5l-41 -195l-24 -115l-16 -79l-21 -99q-15 -69 -15 -89t8.5 -30.5t23 -10.5t26 14t19 33t11.5 39l8.5 40.5l12 57l15 76l15.5 80.5q21 105 49 266l155 10l-5 -26l-26.5 -145.5t-26.5 -142.5q-31 -156 -46 -221.5t-41.5 -106.5
t-61.5 -68q-67 -50 -155 -50q-54 0 -93 30q-44 36 -44 95v8t2.5 27t11.5 82.5l19.5 124t22.5 129.5l22 118q22 114 26 132z" />
    <glyph glyph-name="V" unicode="V" horiz-adv-x="388" 
d="M60 -9q46 471 52 753q74 0 143 6l16 2q-11 -119 -19 -195.5t-12.5 -124l-8.5 -91.5q-7 -75 -15 -146h19l114 544q28 1 55 3t55 3.5t52 4.5q-43 -139 -74.5 -265.5l-55 -220.5l-55.5 -233z" />
    <glyph glyph-name="W" unicode="W" horiz-adv-x="615" 
d="M295 743q0 -2 -72 -452h16l56 197.5l37 125.5q20 76 32 115h9q50 0 108 13q-2 -9 -4.5 -37.5t-6.5 -69t-8 -89l-8 -95.5q-7 -85 -15 -160h19l97 440q35 5 67 9q84 11 119 18q-40 -116 -74 -250q-80 -316 -112 -459l-231 -39l45 395h-13l-101 -371l-213 -38l78 727
q48 2 90.5 9.5t84.5 10.5z" />
    <glyph glyph-name="X" unicode="X" horiz-adv-x="421" 
d="M226 194q-34 -88 -89 -200l-174 15l102.5 180.5t94.5 186.5q-14 107 -31 182.5t-26 120.5l164 68q5 -49 12 -107t12 -108q61 139 94 204l149 -40q-93 -155 -170 -323q12 -87 36.5 -184.5l35.5 -141.5q-2 -1 -14 -4l-30.5 -8l-40.5 -11.5l-43 -12.5q-54 -16 -68 -21
l-5.5 77l-5 70t-3.5 57z" />
    <glyph glyph-name="Y" unicode="Y" horiz-adv-x="393" 
d="M268 438q33 82 108 304l159 -35l-99 -203l-64 -132l-37.5 -78l-33.5 -71q-15 -76 -47 -186l-175 -22l47 206q0 124 -10 274t-12 173l-2 22l167 64v-178l-1 -100v-38z" />
    <glyph glyph-name="Z" unicode="Z" horiz-adv-x="441" 
d="M239 185q33 0 205 12l-3 -156q-89 0 -211 -9q-168 -14 -222 -23l1 150l291 396q-55 0 -169 -19l-24 -3l19 161l419 30l-27 -141z" />
    <glyph glyph-name="bracketleft" unicode="[" horiz-adv-x="327" 
d="M22 -5q81 367 155 776h6q22 0 42.5 1.5t47 2.5t59.5 3q87 7 133 18q-7 -30 -15 -60.5t-14 -60.5q-13 -1 -26 -1h-83l-32.5 -171.5l-19.5 -106l-14 -78.5l-15.5 -89.5l-18.5 -110.5q40 0 71 7t31 8l-26 -107q-60 -8 -131.5 -15t-149.5 -16z" />
    <glyph glyph-name="backslash" unicode="\" horiz-adv-x="522" 
d="M131 739q6 0 14 1q28 6 58 11q66 11 89 21l63.5 -231l48.5 -181l36 -132q40 -144 57 -195q-38 -11 -74.5 -16t-47 -7t-22 -4.5t-22.5 -4.5l-48.5 179.5l-49 179l-50.5 184.5l-53 195h1z" />
    <glyph glyph-name="bracketright" unicode="]" horiz-adv-x="320" 
d="M410 779q-106 -473 -150 -774l-24 -3q-16 -2 -38 -4q-102 -12 -218 -28q5 57 17 121q33 8 130 22l93 523l-117 -13l9 118z" />
    <glyph glyph-name="asciicircum" unicode="^" horiz-adv-x="373" 
d="M258 182q-38 -129 -44 -146q-14 1 -28 1h-25q-50 0 -101 -3q43 64 74 137t66 143q14 -1 27 -1h27q58 0 120 4q-4 -23 -4 -75q0 -115 36 -212q-83 9 -147 9q-1 20 -1 39v104z" />
    <glyph glyph-name="underscore" unicode="_" horiz-adv-x="411" 
d="M-54 -111q12 30 23 114q141 -3 171 -3h52q103 0 207 4q-16 -47 -22 -116l-238 3q-97 0 -193 -2z" />
    <glyph glyph-name="grave" unicode="`" horiz-adv-x="373" 
d="M338 13q-173 40 -260 66l14 72.5l16.5 86l17.5 92.5l77 -81l142 -153z" />
    <glyph glyph-name="a" unicode="a" horiz-adv-x="443" 
d="M195 175l-41 -147l-53.5 -7t-60.5 -7.5l-62 -7.5l69.5 230l46.5 154.5l35.5 120l34 115l29.5 101.5q185 13 282 32q-9 -99 -15 -234q-13 -269 -22 -496q-30 -5 -58.5 -9t-59 -9l-55.5 -9q11 96 19 173h-89zM219 277l74 5q0 6 1.5 20.5l3.5 33.5q8 107 17 199l7 89l-16 -1
z" />
    <glyph glyph-name="b" unicode="b" horiz-adv-x="438" 
d="M463 252q0 -37 -17.5 -73t-47 -65t-69 -51t-83.5 -37q-86 -30 -176 -30q-38 0 -71 6q49 179 78 361l56 366q140 29 229 29q105 0 146 -72q16 -27 16 -66.5t-12.5 -73.5t-32.5 -62q-41 -56 -98 -77q82 -50 82 -155zM200 203q91 10 128 51q16 18 16 40t-9.5 34.5
t-24.5 20.5q-30 16 -65 16h-9q-4 0 -8 -1q-4 -25 -7.5 -44l-6.5 -36.5l-6.5 -36.5t-7.5 -44zM252 490q125 28 125 69q0 39 -64 49q-16 3 -28 3h-11q-2 -11 -4.5 -26.5t-5.5 -32t-6.5 -33t-5.5 -29.5z" />
    <glyph glyph-name="c" unicode="c" horiz-adv-x="424" 
d="M231 170q25 0 53 31q28 32 36 66l117 -47q-45 -105 -118 -167q-65 -55 -133 -55q-64 0 -104 58q-42 62 -42 163t26.5 195t74.5 168.5t114.5 120.5t145.5 46q51 0 87 -39q35 -40 35 -105v-13q0 -6 -1 -13l-134 -36q-12 25 -28.5 25t-34.5 -19t-35.5 -49t-33.5 -67.5
t-28 -75.5q-28 -84 -28 -135.5t31 -51.5z" />
    <glyph glyph-name="d" unicode="d" horiz-adv-x="452" 
d="M183 124q70 45 129 187q33 79 44 133t11 85t-21 52.5t-66 21.5q-17 -86 -39 -185q-37 -168 -58 -294zM4 0q109 549 133 725l89 15.5t96.5 7.5t90 -17.5t62.5 -48.5q46 -59 46 -159q0 -110 -58 -232q-61 -127 -160 -207q-113 -89 -242 -89q-22 0 -57 5z" />
    <glyph glyph-name="e" unicode="e" horiz-adv-x="349" 
d="M8 -1l134 728l324 28q-7 -23 -12 -44.5l-10 -42.5t-8 -37q-30 -3 -82 -3h-69l-36 -184q55 3 92 4t48 2l-7.5 -56.5t-8.5 -56.5q-11 -1 -34 -1.5t-48 -1.5t-56 -2l-35 -189l149 24l-10 -117z" />
    <glyph glyph-name="f" unicode="f" horiz-adv-x="349" 
d="M389 336q-19 0 -147 4l-47 -302q-86 -15 -191 -39q30 109 55 253q47 265 79 484l343 18l-29 -126h-161l-32 -183q32 1 58 1h51q24 0 38 1z" />
    <glyph glyph-name="g" unicode="g" horiz-adv-x="511" 
d="M441 562q-17 76 -59 76q-26 0 -56.5 -36.5t-57.5 -93.5q-61 -133 -65 -261q0 -64 19 -91t44 -27t47 10.5t39 28.5q40 42 42 99l-109 -16l19 101q141 18 253 38q-7 -104 -41 -181.5t-81.5 -129.5t-102.5 -78t-98.5 -26t-77.5 16.5t-59 50.5q-54 72 -54 202.5t38 228.5
t95.5 163.5t124 97.5t115.5 32t79 -14.5t49 -38.5q38 -46 38 -124z" />
    <glyph glyph-name="h" unicode="h" horiz-adv-x="452" 
d="M8 -2q107 526 130 750q96 -8 166 -8q-49 -208 -65 -292l101 12q14 72 25.5 140.5t29.5 140.5q40 7 85 10.5t62 4.5l17 2q-49 -160 -96 -449q-23 -130 -42 -266l-160 -18q13 61 23.5 115l21 107l17.5 91l-100 -9q-23 -127 -57 -298z" />
    <glyph glyph-name="i" unicode="i" horiz-adv-x="205" 
d="M301 742q-114 -580 -139 -722q-28 0 -97 -9t-71 -10q32 116 59 253q62 313 88 463z" />
    <glyph glyph-name="j" unicode="j" horiz-adv-x="286" 
d="M43 211q5 -10 20 -18t30 -8t24.5 20.5t16.5 48t11 56t15 87l28.5 157t40.5 197.5q85 7 181 33q-30 -99 -55 -211q-46 -217 -58.5 -281.5t-26 -113t-35.5 -88.5q-51 -91 -127 -91q-62 0 -136 54z" />
    <glyph glyph-name="k" unicode="k" horiz-adv-x="473" 
d="M495 30q-48 2 -100.5 2t-110.5 -2q-20 129 -40 279l-19 -21q-7 -31 -15.5 -76l-17.5 -90.5l-19 -97.5l-166 -25q108 500 129 748q24 -3 53.5 -4.5t57.5 -3.5t59 -2q-1 -4 -3 -15l-5 -27l-6.5 -35.5t-10 -52t-16.5 -88.5l6 1l58 91l84 131q115 9 204 23
q-174 -236 -238 -339q22 -103 53 -199.5z" />
    <glyph glyph-name="l" unicode="l" horiz-adv-x="309" 
d="M194 144q38 3 106 3q2 -39 6 -63.5t5.5 -36t2.5 -15.5l-31 1q-105 0 -209 -19q-34 -7 -62 -16q24 185 63.5 389l67.5 343l180 24q-93 -394 -108.5 -484t-20.5 -126z" />
    <glyph glyph-name="m" unicode="m" horiz-adv-x="634" 
d="M363 358q115 309 152 387q51 6 83.5 11l55.5 8.5t50 8.5q-49 -290 -82 -731l-179 -32q0 36 9 116l14 120q10 91 19 141h-9q-14 -43 -31.5 -90.5l-35.5 -96.5l-35.5 -96.5t-30.5 -90.5q-36 -1 -61 -3l-60 -3l33 380h-15q-2 -13 -10.5 -44.5l-19 -72t-23 -84l-23.5 -80.5
q-18 -64 -26 -89l-169 -11q163 492 221 720q57 0 107 6t108 11l-6.5 -50t-8 -59l-9.5 -63.5l-12.5 -84l-19.5 -128.5h14z" />
    <glyph glyph-name="n" unicode="n" horiz-adv-x="463" 
d="M161 750h29q20 0 112 4l26 -134q32 -178 44 -229l9 48t11 56.5l12 60.5l41 197l125 15q-109 -505 -136 -725q-12 0 -82.5 -17t-84.5 -22q-20 274 -44 388q-3 -19 -8 -44.5t-10 -54.5q-19 -109 -50 -263l-150 -35q114 543 133 756q14 -1 23 -1z" />
    <glyph glyph-name="o" unicode="o" horiz-adv-x="505" 
d="M431 468q0 83 -48 83q-61 0 -110 -60q-39 -48 -67 -131q-22 -68 -22 -128q0 -40 34 -60q10 -7 23 -7q46 0 81.5 31.5t59.5 77.5t36.5 98.5t12.5 95.5zM573 531q0 -61 -17.5 -135t-47.5 -136t-69.5 -111t-82.5 -83q-89 -70 -171 -70q-69 0 -109 50q-44 55 -44 160
q0 114 53 246t139 220q93 94 195 94q84 0 123 -68q31 -55 31 -167z" />
    <glyph glyph-name="p" unicode="p" horiz-adv-x="388" 
d="M-3 -1q105 467 144 724q110 33 165 33t86.5 -15.5t51.5 -41.5q35 -47 35 -136q0 -57 -21 -110.5t-56 -95t-81 -66t-95 -24.5h-11q-19 -84 -41 -233zM283 632l-47 -257q36 9 67 58q34 54 34 122q0 38 -17 57.5t-37 19.5z" />
    <glyph glyph-name="q" unicode="q" horiz-adv-x="538" 
d="M372 78q-96 -82 -187 -82q-69 0 -109 50q-44 55 -44 160q0 114 53 246t139 220q93 94 195 94q84 0 123 -68q31 -55 31 -144q0 -184 -88 -337l98 -115l-43 -55l-78 -96l-43 59q-26 34 -47 68zM401 316q30 81 30 158t-48 77q-61 0 -110 -60q-39 -48 -67 -131
q-22 -68 -22 -128q0 -40 34 -60q10 -7 23 -7q35 0 65 19l-41 68q103 79 114 90z" />
    <glyph glyph-name="r" unicode="r" horiz-adv-x="455" 
d="M312 16q-77 253 -80 289l-13 -4q-8 -46 -24 -128l-25 -131l-166 -43q104 503 127 714q116 36 260 36q108 0 128 -75q6 -23 6 -57t-14 -73.5t-38 -75.5q-50 -73 -123 -112q39 -84 69.5 -158.5l51.5 -125.5zM322 607l-44 -1l-33 -163q40 4 101 51q63 48 63 79q0 29 -55 33
q-16 1 -32 1z" />
    <glyph glyph-name="s" unicode="s" horiz-adv-x="440" 
d="M374 523q5 20 5 42t-11 35.5t-23.5 13.5t-24.5 -6t-24 -16q-28 -23 -28 -49.5t14 -43t34.5 -30.5l44.5 -29t45 -38q48 -56 48 -149q0 -112 -82 -185q-78 -70 -197 -70q-88 0 -161 92l76 149q14 -28 54 -51q40 -24 60 -24t33.5 4t24.5 12q25 18 25 43.5t-16 46.5t-39.5 40
t-51 38.5t-50.5 41.5q-56 50 -56 105t31.5 101t79 79.5t104 53t95.5 19.5t63.5 -7t42.5 -21q39 -32 39 -94q0 -15 -2.5 -29t-4.5 -31z" />
    <glyph glyph-name="t" unicode="t" horiz-adv-x="371" 
d="M105 602l5 131q52 -4 105 -4q140 0 273 17l-11 -55q-5 -23 -9.5 -47.5t-8.5 -42.5q-23 -6 -46 -8.5t-45 -6.5q-18 -77 -36 -191q-40 -252 -56 -367l-184 -29q81 380 109 595q-24 3 -48 2t-48 6z" />
    <glyph glyph-name="u" unicode="u" horiz-adv-x="429" 
d="M136 728q22 2 51.5 5t58 5.5t59.5 5.5l-41 -195l-24 -115l-16 -79l-21 -99q-15 -69 -15 -89t8.5 -30.5t23 -10.5t26 14t19 33t11.5 39l8.5 40.5l12 57l15 76l15.5 80.5q21 105 49 266l155 10l-5 -26l-26.5 -145.5t-26.5 -142.5q-31 -156 -46 -221.5t-41.5 -106.5
t-61.5 -68q-67 -50 -155 -50q-54 0 -93 30q-44 36 -44 95v8t2.5 27t11.5 82.5l19.5 124t22.5 129.5l22 118q22 114 26 132z" />
    <glyph glyph-name="v" unicode="v" horiz-adv-x="388" 
d="M60 -9q46 471 52 753q74 0 143 6l16 2q-11 -119 -19 -195.5t-12.5 -124l-8.5 -91.5q-7 -75 -15 -146h19l114 544q28 1 55 3t55 3.5t52 4.5q-43 -139 -74.5 -265.5l-55 -220.5l-55.5 -233z" />
    <glyph glyph-name="w" unicode="w" horiz-adv-x="615" 
d="M295 743q0 -2 -72 -452h16l56 197.5l37 125.5q20 76 32 115h9q50 0 108 13q-2 -9 -4.5 -37.5t-6.5 -69t-8 -89l-8 -95.5q-7 -85 -15 -160h19l97 440q35 5 67 9q84 11 119 18q-40 -116 -74 -250q-80 -316 -112 -459l-231 -39l45 395h-13l-101 -371l-213 -38l78 727
q48 2 90.5 9.5t84.5 10.5z" />
    <glyph glyph-name="x" unicode="x" horiz-adv-x="421" 
d="M226 194q-34 -88 -89 -200l-174 15l102.5 180.5t94.5 186.5q-14 107 -31 182.5t-26 120.5l164 68q5 -49 12 -107t12 -108q61 139 94 204l149 -40q-93 -155 -170 -323q12 -87 36.5 -184.5l35.5 -141.5q-2 -1 -14 -4l-30.5 -8l-40.5 -11.5l-43 -12.5q-54 -16 -68 -21
l-5.5 77l-5 70t-3.5 57z" />
    <glyph glyph-name="y" unicode="y" horiz-adv-x="393" 
d="M268 438q33 82 108 304l159 -35l-99 -203l-64 -132l-37.5 -78l-33.5 -71q-15 -76 -47 -186l-175 -22l47 206q0 124 -10 274t-12 173l-2 22l167 64v-178l-1 -100v-38z" />
    <glyph glyph-name="z" unicode="z" horiz-adv-x="441" 
d="M239 185q33 0 205 12l-3 -156q-89 0 -211 -9q-168 -14 -222 -23l1 150l291 396q-55 0 -169 -19l-24 -3l19 161l419 30l-27 -141z" />
    <glyph glyph-name="braceleft" unicode="{" horiz-adv-x="288" 
d="M248 7q-133 67 -133 203q0 57 -9 81q-19 45 -71 51l18 118h8q36 0 53 15.5t26 40.5t15.5 56.5t22.5 63.5q36 76 131 113l59 -151q-60 -5 -86 -52q-11 -20 -17 -43.5t-15 -44.5q-20 -52 -69 -65q49 -18 55 -84q1 -19 1 -37v-36q0 -23 15 -42q24 -29 50 -38z" />
    <glyph glyph-name="bar" unicode="|" horiz-adv-x="254" 
d="M328 776q-91 -479 -136 -776q-29 0 -98 -9t-71 -10q45 197 83 411.5l65 371.5z" />
    <glyph glyph-name="braceright" unicode="}" horiz-adv-x="280" 
d="M281 578l-1 -52q0 -38 9 -52q16 -24 56 -24h8l-15 -118q-67 -8 -88 -82q-6 -23 -11 -54.5t-23.5 -64t-45.5 -57.5q-59 -55 -139 -67l-12 139q45 11 64 23q38 25 43 67q13 121 80 147q-42 17 -48 77q-2 26 -1 54t-4 52q-11 55 -66 62l91 121q89 -41 100 -125q3 -23 3 -46z
" />
    <glyph glyph-name="asciitilde" unicode="~" horiz-adv-x="416" 
d="M216 553q-36 0 -61 -91q-58 26 -85 45q1 0 5 14.5t12.5 36.5t22 47t32.5 47q46 51 107 51q43 0 85 -43q16 -15 28.5 -28.5t23.5 -13.5q25 0 53 89q68 -33 85 -45q-20 -113 -84 -167q-36 -31 -82 -31q-19 0 -37.5 14t-36.5 30.5t-35 30.5t-33 14z" />
    <glyph glyph-name="uni007F" 
 />
    <glyph glyph-name="uni00A0" unicode="&#xa0;" horiz-adv-x="200" 
 />
    <glyph glyph-name="exclamdown" unicode="&#xa1;" horiz-adv-x="270" 
d="M-72.9512 2.09375q54.9932 128.984 100.487 259.468l90.4893 262.468q29.9961 0 59.4922 2l59.4932 4l-61.9922 -249.97l-62.9922 -250.97q-18.998 -2.99902 -44.4951 -6.49902q-25.4971 -3.49902 -50.9932 -7.49902q-25.4971 -4 -49.4941 -6.99902
q-23.9971 -3 -39.9951 -5.99902zM234.011 790.997q26.9971 0 43.9951 -8.49902t27.9961 -21.4971q22.998 -28.9971 22.998 -66.9922q0 -64.9922 -56.9932 -91.9883q-18.998 -8.99902 -44.9951 -8.99902q-59.9922 0 -89.4893 27.9961q-29.4961 27.9971 -29.4961 63.9922
q0 42.9951 32.9961 72.9912q36.9951 32.9961 92.9883 32.9961z" />
    <glyph glyph-name="cent" unicode="&#xa2;" horiz-adv-x="457" 
d="M162 -88q10 42 17 88q-53 10 -88 66.5t-35 149t21 176t58.5 154t90.5 121.5t117 71q5 43 12 76l97 2q-9 -31 -16 -69q45 -7 74 -44.5t29 -97.5v-13q0 -6 -1 -13l-154 -46v12q0 39 -6 53t-11 14q-32 0 -70 -73q-52 -100 -75 -241q-6 -40 -6 -69q0 -52 19.5 -52t35 13
t27.5 32q20 32 38 85l117 -47q-65 -176 -170 -238q-7 -67 -12 -101q-13 0 -25 -1l-24.5 -2t-29.5 -3q-24 -3 -30 -3z" />
    <glyph glyph-name="sterling" unicode="&#xa3;" horiz-adv-x="411" 
d="M382 32l-51 1q-128 0 -254 -19q-42 -7 -77 -16q5 41 12.5 73.5l13.5 59.5l25 10q30 8 63 60q32 49 51 112q-11 -1 -23 -1h-47l31 133q9 -1 16.5 -1.5t13.5 -0.5h12q-20 78 -20 130t17 85t45 54q53 38 137 38q77 0 135 -30q-21 -81 -40 -143q-43 23 -78.5 23t-53.5 -14
t-18 -53q0 -17 7.5 -42t11.5 -48h39q20 0 65 3l-17 -135l-54 2q-16 0 -33 1q0 -68 -37 -130q-13 -23 -32 -40q15 1 34 1.5t39 1.5q40 2 72 2q-6 -96 -6 -107z" />
    <glyph glyph-name="currency" unicode="&#xa4;" horiz-adv-x="439" 
d="M229 660q57 46 112.5 46t87.5 -24l38 39q10 -14 26 -29.5l26 -25.5l-47 -45q9 -33 9 -66q0 -100 -67 -188q47 -67 49 -69l-65 -46q-2 1 -6.5 8.5l-12.5 20.5l-24 39q-55 -38 -109 -38t-89 23q-30 -28 -39 -37l-9 -9l-52 59l53 48q-8 32 -8 67t19 86t53 93l-49 72
q51 29 65 41q8 -14 13 -22l9 -15q6 -11 17 -28zM223.5 404.5q14.5 -20.5 42.5 -20.5t49.5 16t38.5 40q35 53 35 107q0 27 -12.5 45.5t-41.5 18.5t-52.5 -15t-40.5 -38q-33 -48 -33 -103q0 -30 14.5 -50.5z" />
    <glyph glyph-name="yen" unicode="&#xa5;" horiz-adv-x="457" 
d="M125 111l-55 -1h-22l24 85h72l6 26v33h-74l16 85q8 -1 17 -1l39 -1q-5 171 -22 353l167 64v-178l-1 -100v-38q33 82 108 304l159 -35l-90 -185l-89 -183q30 0 43 1.5t21 1.5l-33 -88h-72l-14 -31l-6 -29h81l-20 -83h-46t-35 1q-5 -16 -8.5 -29.5t-7 -24.5t-5.5 -21
l-175 -22z" />
    <glyph glyph-name="brokenbar" unicode="&#xa6;" horiz-adv-x="249" 
d="M242 320q-35 -197 -53 -320q-29 0 -98 -9t-71 -10q29 124 65 315zM111 436l22 126q20 120 35 202l157 12l-35.5 -193.5l-23.5 -128.5z" />
    <glyph glyph-name="section" unicode="&#xa7;" horiz-adv-x="450" 
d="M360 268q27 -58 27 -104.5t-16.5 -79.5t-44.5 -56q-58 -46 -143 -46q-84 0 -160 61l46 122q22 -23 54 -37.5t54.5 -14.5t35 10.5t12.5 29.5t-24.5 44.5t-54.5 54t-54.5 59.5t-24.5 62q0 51 34 93t106 62q-33 49 -33 89.5t20.5 69.5t52.5 49q67 42 150 42q97 0 131 -62
q11 -22 11 -42t-2 -30t-3 -21l-128 -9q0 29 -12 40t-29 11t-33.5 -12.5t-16.5 -27t12 -25t30.5 -22l40 -25t40.5 -31.5q42 -41 42 -95.5t-34.5 -93.5t-85.5 -65zM270 348q40 12 40 64q0 18 -30 44q-17 -2 -35 -18.5t-18 -36t12 -30.5t31 -23z" />
    <glyph glyph-name="dieresis" unicode="&#xa8;" horiz-adv-x="661" 
d="M319.5 13.5q-20.5 -8.5 -54 -8.5t-54 27t-20.5 52.5t5.5 42t17.5 29.5q26 28 72.5 28t71 -25.5t24.5 -50.5t-7 -42t-21 -30.5t-34.5 -22zM558 13.5q-20 -8.5 -54 -8.5t-54.5 27t-20.5 52.5t5.5 42t17.5 29.5q26 28 72.5 28t71 -25.5t24.5 -50.5t-7 -42t-21 -30.5t-34 -22
z" />
    <glyph glyph-name="copyright" unicode="&#xa9;" horiz-adv-x="589" 
d="M336 752q57 21 115.5 21t93 -17.5t57.5 -48.5q43 -60 43 -165t-36.5 -190t-92 -145t-122 -92.5t-119 -32.5t-90.5 11.5t-65 36.5q-59 53 -59 153q0 178 98 324q70 103 177 145zM265 169q65 0 119.5 35.5t94.5 89t62 114.5t22 123t-23.5 109t-73.5 47q-122 0 -198 -69
q-62 -56 -92 -154q-23 -77 -23 -166v-20q0 -71 69 -100q19 -9 43 -9zM311 310q34 0 61 80l72 -29q-30 -81 -72 -121.5t-81.5 -40.5t-65 36t-25.5 100.5t16.5 122t46.5 103t70.5 73.5t80 28t61.5 -23.5t22 -63.5v-9q0 -4 -1 -9l-94 -28v6q0 42 -10 42q-30 0 -62 -90
q-31 -84 -31 -145q0 -32 12 -32z" />
    <glyph glyph-name="ordfeminine" unicode="&#xaa;" horiz-adv-x="402" 
d="M335 765q80 0 159 -44q0 -5 -7 -56.5t-11 -70.5l-36 -193q-5 -29 -24.5 -41t-42.5 -12t-43.5 12t-20.5 37v7q0 3 1 7q-44 -52 -105 -52q-53 0 -89 39q-38 42 -38 98t20 102.5t54.5 83.5t81.5 60t101 23zM355 671q-16 4 -31.5 4t-32 -10.5t-29.5 -28.5q-31 -42 -31 -90
q0 -81 40 -81q23 0 50 24z" />
    <glyph glyph-name="guillemotleft" unicode="&#xab;" horiz-adv-x="476" 
d="M142 380l111 -136q-12 -54 -22.5 -107t-23.5 -107l-82.5 101t-80.5 104q15 78 43 276q46 40 118.5 86t116.5 70q-25 -96 -46 -199q-48 -32 -79 -50.5t-55 -37.5zM372 380l111 -136q-12 -54 -22.5 -107t-23.5 -107l-82.5 101t-80.5 104q15 78 43 276q46 40 118.5 86
t116.5 70q-25 -96 -46 -199q-48 -32 -79 -50.5t-55 -37.5z" />
    <glyph glyph-name="logicalnot" unicode="&#xac;" horiz-adv-x="409" 
d="M69 399l19 91l174.5 5t97.5 3q51 0 101 3q-38 -142 -58 -234l-160 -18q6 25 12.5 49l13.5 50l14 51h-214z" />
    <glyph glyph-name="uni00AD" unicode="&#xad;" horiz-adv-x="369" 
d="M423 244q-144 4 -176 4q-57 0 -93 -1.5t-63 -1.5l49 181q112 -4 140 -4q98 0 178 5z" />
    <glyph glyph-name="registered" unicode="&#xae;" horiz-adv-x="551" 
d="M323 753q52 20 106.5 20t87 -16.5t53.5 -45.5q41 -57 41 -154t-34 -176t-85.5 -135t-113.5 -86t-111 -30t-84.5 11t-60.5 33q-55 49 -55 143q0 103 40 205q68 174 216 231zM259 628q70 14 125.5 14t76.5 -5t33 -13q21 -14 21 -51.5t-33 -77t-83 -60.5q21 -55 43 -127
q44 52 68.5 114.5t24.5 105.5t-5.5 71.5t-16.5 49.5q-23 44 -69 44q-113 0 -185 -65zM176 247q32 -37 77 -37q80 0 146 55l-56 -15q-31 120 -34 155l-17 -3q-6 -22 -16.5 -67t-17.5 -71zM233 601q-80 -100 -80 -271v-27q0 -12 5 -25q49 182 75 323zM368 566l-36 -1l-22 -87
q26 2 52 18q50 28 50 54q0 16 -44 16z" />
    <glyph glyph-name="degree" unicode="&#xb0;" horiz-adv-x="244" 
d="M184.5 609q13.5 -18 43 -18t46 20t16.5 42t-15 38t-44.5 16t-44.5 -18t-15 -40t13.5 -40zM214 520q-30 0 -51 10t-35 27q-28 34 -28 83q0 51 30 86q35 39 96 39q59 0 92 -35q30 -30 30 -79q0 -52 -36 -89q-39 -42 -98 -42z" />
    <glyph glyph-name="plusminus" unicode="&#xb1;" horiz-adv-x="376" 
d="M66 291q8 91 18 130l14 -1q46 0 84 5l7 35q3 15 7 32.5t7 33.5q89 3 129 9q-5 -17 -10 -36q-12 -39 -21 -74q15 1 29.5 3t29 3t25.5 3q-19 -69 -34 -144l-53 1q-16 0 -32 1q-3 -50 -16 -102l-124 -2q12 39 18 68l7 35h-85zM156 44l-90 -1h-54l23 98q30 -1 55 -1.5
t50 -0.5h83t134 3l-8 -100q-38 0 -73 1z" />
    <glyph glyph-name="uni00B2" unicode="&#xb2;" horiz-adv-x="445" 
d="M101 524q-2 12 -2 25q0 89 76 145q69 52 161 52q128 0 175 -88q16 -29 16 -69t-23 -77t-64 -72q-73 -62 -215 -131q58 0 113 3t99 5l-17 -114q-20 -1 -46.5 -1.5t-57 -1.5t-62.5 -1.5t-82.5 -2t-128.5 -3.5l17 100q9 54 152 149q88 58 114 82t26 43t-11.5 32t-29 13
t-29 -6t-18.5 -15q-13 -17 -13 -42v-9q0 -2 1 -3q-138 -12 -151 -13z" />
    <glyph glyph-name="uni00B3" unicode="&#xb3;" horiz-adv-x="410" 
d="M221 306q0 -30 23 -30q20 0 34 14q27 27 27 48.5t-22 37.5t-65 16t-78.5 -4t-58.5 -6l16 120q62 33 208 123l-191 -3l11 120q78 3 125.5 5t77 3t54.5 2q52 2 80 2l-22 -172l-156 -86q127 -20 157 -92q9 -22 9 -52t-21 -68t-57 -68q-80 -70 -179 -70q-63 0 -103.5 25.5
t-40.5 85.5q0 21 8 41z" />
    <glyph glyph-name="acute" unicode="&#xb4;" horiz-adv-x="373" 
d="M84 52l1 69q70 70 131 125.5t115 113.5q5 -68 5.5 -127.5t8.5 -122.5q-60 -24 -130 -49l-130 -48q-1 11 -1 21v18z" />
    <glyph glyph-name="paragraph" unicode="&#xb6;" horiz-adv-x="459" 
d="M122 -1l80 378q-56 17 -82 56t-26 83.5t18.5 86.5t53.5 76q79 77 198 77q62 0 161 -33q-46 -193 -81.5 -377l-58.5 -312l-107 -11l64 333h-36l-74 -342z" />
    <glyph glyph-name="periodcentered" unicode="&#xb7;" horiz-adv-x="219" 
d="M198 287q-27 0 -44 8.5t-28 21.5q-23 29 -23 67q0 65 57 92q19 9 45 9q60 0 89.5 -28t29.5 -64q0 -43 -33 -73q-37 -33 -93 -33z" />
    <glyph glyph-name="cedilla" unicode="&#xb8;" horiz-adv-x="373" 
d="M212 19l62 -9q41 -40 41 -80q0 -42 -39 -70q-40 -29 -99 -29q-56 0 -86 38l20 90q26 -29 51 -29t40 16.5t15 35.5t-5 37z" />
    <glyph glyph-name="uni00B9" unicode="&#xb9;" horiz-adv-x="325" 
d="M82 545q5 30 20 150q53 12 296 43q-23 -115 -47.5 -256t-53.5 -287q-62 -17 -175 -34q55 259 79 399q-41 -3 -73 -8t-46 -7z" />
    <glyph glyph-name="ordmasculine" unicode="&#xba;" horiz-adv-x="393" 
d="M235.5 596.5q-8.5 -25.5 -8.5 -59.5t13 -51t31 -17t35.5 10.5t31.5 29.5q34 44 34 101q0 32 -14 51t-34 19t-36.5 -10.5t-30 -29t-22 -44zM487 605q0 -39 -17 -80.5t-42.5 -68.5t-58.5 -46q-69 -40 -144 -40q-99 0 -130 78q-11 28 -11 79t21 97t54 76q65 61 158 61
q71 0 119 -39q51 -43 51 -117z" />
    <glyph glyph-name="guillemotright" unicode="&#xbb;" horiz-adv-x="474" 
d="M424 337l-111 116q12 54 22.5 107t23.5 107l82.5 -101t80.5 -104q-15 -78 -43 -276q-40 -37 -115.5 -84.5t-119.5 -71.5q14 52 26.5 110l19.5 89l67 54q53 40 67 54zM194 337l-111 116q12 54 22.5 107t23.5 107l82.5 -101t80.5 -104q-15 -78 -43 -276
q-40 -37 -115.5 -84.5t-119.5 -71.5q14 52 26.5 110l19.5 89l67 54q53 40 67 54z" />
    <glyph glyph-name="onequarter" unicode="&#xbc;" horiz-adv-x="1110" 
d="M654 140l159 366q92 0 161 8q-59 -111 -131 -290q-2 -11 -5 -18h72q1 5 4 17l7 28.5l8.5 35.5l12.5 51l21 86q53 6 92.5 9.5l60.5 5.5q-2 -11 -10 -44.5l-17 -71.5l-17 -71.5t-10 -45.5h56l-41 -123h-51l-9 -101l-166 -25l20 124l-172 -11zM104 545q5 30 20 150
q53 12 296 43q-23 -115 -47.5 -256t-53.5 -287q-62 -17 -175 -34q55 259 79 399q-41 -3 -73 -8t-46 -7zM748 774q24 -16 168 -33l-517 -771l-170 40q218 297 433 627z" />
    <glyph glyph-name="onehalf" unicode="&#xbd;" horiz-adv-x="1128" 
d="M153 545q5 30 20 150q53 12 296 43q-23 -115 -47.5 -256t-53.5 -287q-62 -17 -175 -34q55 259 79 399q-41 -3 -73 -8t-46 -7zM792 774q24 -16 168 -33l-517 -771l-170 40q218 297 433 627zM790 325q-2 12 -2 25q0 89 76 145q69 52 161 52q128 0 175 -88q16 -29 16 -69
t-23 -77t-64 -72q-73 -62 -215 -131q58 0 113 3t99 5l-17 -114q-20 -1 -46.5 -1.5t-57 -1.5t-62.5 -1.5t-82.5 -2t-128.5 -3.5l17 100q9 54 152 149q88 58 114 82t26 43t-11.5 32t-29 13t-29 -6t-18.5 -15q-13 -17 -13 -42v-9q0 -2 1 -3q-138 -12 -151 -13z" />
    <glyph glyph-name="threequarters" unicode="&#xbe;" horiz-adv-x="1157" 
d="M701 140l159 366q92 0 161 8q-59 -111 -131 -290q-2 -11 -5 -18h72q1 5 4 17l7 28.5l8.5 35.5l12.5 51l21 86q53 6 92.5 9.5l60.5 5.5q-2 -11 -10 -44.5l-17 -71.5l-17 -71.5t-10 -45.5h56l-41 -123h-51l-9 -101l-166 -25l20 124l-172 -11zM237 306q0 -30 23 -30
q20 0 34 14q27 27 27 48.5t-22 37.5t-65 16t-78.5 -4t-58.5 -6l16 120q62 33 208 123l-191 -3l11 120q78 3 125.5 5t77 3t54.5 2q51 2 80 2l-22 -172l-156 -86q127 -20 157 -92q9 -22 9 -52t-21 -68t-57 -68q-80 -70 -179 -70q-63 0 -103.5 25.5t-40.5 85.5q0 21 8 41z
M812 774q24 -16 168 -33l-517 -771l-170 40q218 297 433 627z" />
    <glyph glyph-name="questiondown" unicode="&#xbf;" horiz-adv-x="450" 
d="M223.033 473.031l119.985 11.998q0 -133.983 -104.987 -233.971l-51.4932 -46.9951q-23.4971 -20.9971 -38.9951 -37.9951t-15.498 -27.9961q0 -10.999 8.49805 -21.998q8.49902 -10.998 27.4971 -10.998q29.9961 0 99.9873 50.9932q30.9971 22.9971 61.9932 50.9941
l53.9932 -125.984q-51.9941 -46.9941 -117.485 -74.4912q-65.4922 -27.4961 -132.484 -27.4961q-111.986 0 -148.981 70.9912q-12.998 24.9971 -12.998 67.9912q0 42.9951 15.998 77.9902q15.998 34.9961 40.4941 61.9932q24.4971 26.9961 54.4941 49.4932
q29.9961 22.498 56.9922 45.4951q66.9922 56.9932 82.9902 119.985zM257.029 740.498q26.9961 10.499 64.4922 10.499q37.4951 0 56.9932 -25.4971q19.4971 -25.4971 19.4971 -52.4932q0 -26.9971 -7.49902 -46.9941q-7.49902 -19.998 -22.4971 -36.9961
q-31.9961 -35.9951 -86.4893 -35.9951t-80.9902 24.4971t-26.4971 50.9932q0 26.4971 9.49902 46.9941q9.49902 20.498 27.9971 37.4961q18.4971 16.998 45.4941 27.4961z" />
    <glyph glyph-name="Agrave" unicode="&#xc0;" horiz-adv-x="443" 
d="M245 175l-41 -147l-53.5 -7t-60.5 -7.5l-62 -7.5l69.5 230l46.5 154.5l35.5 120l34 115l29.5 101.5q185 13 282 32q-9 -99 -15 -234q-13 -269 -22 -496q-30 -5 -58.5 -9t-59 -9l-55.5 -9q11 96 19 173h-89zM269 277l74 5q0 6 1.5 20.5l3.5 33.5q8 107 17 199l7 89l-16 -1
zM440 785q-173 40 -260 66l14 72.5l16.5 86l17.5 92.5l77 -81l142 -153z" />
    <glyph glyph-name="Aacute" unicode="&#xc1;" horiz-adv-x="443" 
d="M245 175l-41 -147l-53.5 -7t-60.5 -7.5l-62 -7.5l69.5 230l46.5 154.5l35.5 120l34 115l29.5 101.5q185 13 282 32q-9 -99 -15 -234q-13 -269 -22 -496q-30 -5 -58.5 -9t-59 -9l-55.5 -9q11 96 19 173h-89zM269 277l74 5q0 6 1.5 20.5l3.5 33.5q8 107 17 199l7 89l-16 -1
zM253 824l1 69q70 70 131 125.5t115 113.5q5 -68 5.5 -127.5t8.5 -122.5q-60 -24 -130 -49l-130 -48q-1 11 -1 21v18z" />
    <glyph glyph-name="Acircumflex" unicode="&#xc2;" horiz-adv-x="443" 
d="M245 175l-41 -147l-53.5 -7t-60.5 -7.5l-62 -7.5l69.5 230l46.5 154.5l35.5 120l34 115l29.5 101.5q185 13 282 32q-9 -99 -15 -234q-13 -269 -22 -496q-30 -5 -58.5 -9t-59 -9l-55.5 -9q11 96 19 173h-89zM269 277l74 5q0 6 1.5 20.5l3.5 33.5q8 107 17 199l7 89l-16 -1
zM235 835q104 150 172 216q40 -6 56 -5t18 -1l29 -102l30 -105q-48 -40 -74 -58l-62 121q-34 -34 -54 -56q-42 -48 -60 -66q-36 30 -55 56z" />
    <glyph glyph-name="Atilde" unicode="&#xc3;" horiz-adv-x="443" 
d="M245 175l-41 -147l-53.5 -7t-60.5 -7.5l-62 -7.5l69.5 230l46.5 154.5l35.5 120l34 115l29.5 101.5q185 13 282 32q-9 -99 -15 -234q-13 -269 -22 -496q-30 -5 -58.5 -9t-59 -9l-55.5 -9q11 96 19 173h-89zM269 277l74 5q0 6 1.5 20.5l3.5 33.5q8 107 17 199l7 89l-16 -1
zM571 1005q46 -35 55 -45q-60 -136 -140 -170q-18 -7 -40.5 -7t-35.5 11t-23 24t-21 24t-29 11t-32.5 -9t-27.5 -21t-25 -25.5t-23 -22.5q-13 9 -22.5 17t-18 14.5t-14.5 13.5l7 14q54 113 122 154q22 13 47.5 13t44.5 -14t33 -30.5t23 -30t14 -13.5q31 0 83 67q12 16 23 25
z" />
    <glyph glyph-name="Adieresis" unicode="&#xc4;" horiz-adv-x="443" 
d="M245 175l-41 -147l-53.5 -7t-60.5 -7.5l-62 -7.5l69.5 230l46.5 154.5l35.5 120l34 115l29.5 101.5q185 13 282 32q-9 -99 -15 -234q-13 -269 -22 -496q-30 -5 -58.5 -9t-59 -9l-55.5 -9q11 96 19 173h-89zM269 277l74 5q0 6 1.5 20.5l3.5 33.5q8 107 17 199l7 89l-16 -1
zM299.5 785.5q-20.5 -8.5 -54 -8.5t-54 27t-20.5 52.5t5.5 42t17.5 29.5q26 28 72.5 28t71 -25.5t24.5 -50.5t-7 -42t-21 -30.5t-34.5 -22zM538 785.5q-20 -8.5 -54 -8.5t-54.5 27t-20.5 52.5t5.5 42t17.5 29.5q26 28 72.5 28t71 -25.5t24.5 -50.5t-7 -42t-21 -30.5t-34 -22
z" />
    <glyph glyph-name="Aring" unicode="&#xc5;" horiz-adv-x="443" 
d="M245 175l-41 -147l-53.5 -7t-60.5 -7.5l-62 -7.5l69.5 230l46.5 154.5l35.5 120l34 115l29.5 101.5q185 13 282 32q-9 -99 -15 -234q-13 -269 -22 -496q-30 -5 -58.5 -9t-59 -9l-55.5 -9q11 96 19 173h-89zM269 277l74 5q0 6 1.5 20.5l3.5 33.5q8 107 17 199l7 89l-16 -1
zM357 844q14 -18 43 -18t46 20t17 42t-15 38.5t-45 16.5t-45 -18.5t-15 -40.5t14 -40zM389 772q-29 0 -48.5 9.5t-33.5 25.5q-26 31 -26 78q0 78 66 108q23 10 52.5 10t51 -9t36.5 -24q28 -28 28 -74q0 -49 -34 -84q-37 -40 -92 -40z" />
    <glyph glyph-name="AE" unicode="&#xc6;" horiz-adv-x="528" 
d="M580 624q-28 4 -68 4l-26 -184q25 4 45 4.5t31 1.5l-7.5 -56.5t-8.5 -56.5q-11 -1 -24 -1.5t-25 -1.5l-25 -2l-27 -188l86 7l-10 -117l-269 -35v3h-2l13 64.5l12 59.5t9 49h-75l-53 -147q-74 -10 -112 -14l-74 -8q139 349 199 512l77 209q50 4 103 5q109 2 164 7l107 9z
M354 623l-33 -88l-79 -258q4 1 22 2q34 2 38 3q2 15 17 100l23 122q16 87 23 120z" />
    <glyph glyph-name="Ccedilla" unicode="&#xc7;" horiz-adv-x="423" 
d="M280 170q25 0 53 31q28 32 36 66l117 -47q-45 -105 -118 -167q-65 -55 -133 -55q-64 0 -104 58q-42 62 -42 163t26.5 195t74.5 168.5t114.5 120.5t145.5 46q51 0 87 -39q35 -40 35 -105v-13q0 -6 -1 -13l-134 -36q-12 25 -28.5 25t-34.5 -19t-35.5 -49t-33.5 -67.5
t-28 -75.5q-28 -84 -28 -135.5t31 -51.5zM192 19l62 -9q41 -40 41 -80q0 -42 -39 -70q-40 -29 -99 -29q-56 0 -86 38l20 90q26 -29 51 -29t40 16.5t15 35.5t-5 37z" />
    <glyph glyph-name="Egrave" unicode="&#xc8;" horiz-adv-x="349" 
d="M58 -1l134 728l324 28q-7 -23 -12 -44.5l-10 -42.5t-8 -37q-30 -3 -82 -3h-69l-36 -184q55 3 92 4t48 2l-7.5 -56.5t-8.5 -56.5q-11 -1 -34 -1.5t-48 -1.5t-56 -2l-35 -189l149 24l-10 -117zM410 785q-173 40 -260 66l14 72.5l16.5 86l17.5 92.5l77 -81l142 -153z" />
    <glyph glyph-name="Eacute" unicode="&#xc9;" horiz-adv-x="349" 
d="M58 -1l134 728l324 28q-7 -23 -12 -44.5l-10 -42.5t-8 -37q-30 -3 -82 -3h-69l-36 -184q55 3 92 4t48 2l-7.5 -56.5t-8.5 -56.5q-11 -1 -34 -1.5t-48 -1.5t-56 -2l-35 -189l149 24l-10 -117zM223 824l1 69q70 70 131 125.5t115 113.5q5 -68 5.5 -127.5t8.5 -122.5
q-60 -24 -130 -49l-130 -48q-1 11 -1 21v18z" />
    <glyph glyph-name="Ecircumflex" unicode="&#xca;" horiz-adv-x="349" 
d="M58 -1l134 728l324 28q-7 -23 -12 -44.5l-10 -42.5t-8 -37q-30 -3 -82 -3h-69l-36 -184q55 3 92 4t48 2l-7.5 -56.5t-8.5 -56.5q-11 -1 -34 -1.5t-48 -1.5t-56 -2l-35 -189l149 24l-10 -117zM212 835q104 150 172 216q40 -6 56 -5t18 -1l29 -102l30 -105q-48 -40 -74 -58
l-62 121q-34 -34 -54 -56q-42 -48 -60 -66q-36 30 -55 56z" />
    <glyph glyph-name="Edieresis" unicode="&#xcb;" horiz-adv-x="349" 
d="M58 -1l134 728l324 28q-7 -23 -12 -44.5l-10 -42.5t-8 -37q-30 -3 -82 -3h-69l-36 -184q55 3 92 4t48 2l-7.5 -56.5t-8.5 -56.5q-11 -1 -34 -1.5t-48 -1.5t-56 -2l-35 -189l149 24l-10 -117zM276.5 785.5q-20.5 -8.5 -54 -8.5t-54 27t-20.5 52.5t5.5 42t17.5 29.5
q26 28 72.5 28t71 -25.5t24.5 -50.5t-7 -42t-21 -30.5t-34.5 -22zM515 785.5q-20 -8.5 -54 -8.5t-54.5 27t-20.5 52.5t5.5 42t17.5 29.5q26 28 72.5 28t71 -25.5t24.5 -50.5t-7 -42t-21 -30.5t-34 -22z" />
    <glyph glyph-name="Igrave" unicode="&#xcc;" horiz-adv-x="205" 
d="M351 742q-114 -580 -139 -722q-28 0 -97 -9t-71 -10q32 116 59 253q62 313 88 463zM343 785q-173 40 -260 66l14 72.5l16.5 86l17.5 92.5l77 -81l142 -153z" />
    <glyph glyph-name="Iacute" unicode="&#xcd;" horiz-adv-x="205" 
d="M351 742q-114 -580 -139 -722q-28 0 -97 -9t-71 -10q32 116 59 253q62 313 88 463zM155 824l1 69q70 70 131 125.5t115 113.5q5 -68 5.5 -127.5t8.5 -122.5q-60 -24 -130 -49l-130 -48q-1 11 -1 21v18z" />
    <glyph glyph-name="Icircumflex" unicode="&#xce;" horiz-adv-x="205" 
d="M351 742q-114 -580 -139 -722q-28 0 -97 -9t-71 -10q32 116 59 253q62 313 88 463zM128 835q104 150 172 216q40 -6 56 -5t18 -1l29 -102l30 -105q-48 -40 -74 -58l-62 121q-34 -34 -54 -56q-42 -48 -60 -66q-36 30 -55 56z" />
    <glyph glyph-name="Idieresis" unicode="&#xcf;" horiz-adv-x="205" 
d="M351 742q-114 -580 -139 -722q-28 0 -97 -9t-71 -10q32 116 59 253q62 313 88 463zM209.5 785.5q-20.5 -8.5 -54 -8.5t-54 27t-20.5 52.5t5.5 42t17.5 29.5q26 28 72.5 28t71 -25.5t24.5 -50.5t-7 -42t-21 -30.5t-34.5 -22zM448 785.5q-20 -8.5 -54 -8.5t-54.5 27
t-20.5 52.5t5.5 42t17.5 29.5q26 28 72.5 28t71 -25.5t24.5 -50.5t-7 -42t-21 -30.5t-34 -22z" />
    <glyph glyph-name="Eth" unicode="&#xd0;" horiz-adv-x="456" 
d="M69 446q3 -1 7 -1h16q34 186 47 280l89 15.5t95 7.5t87 -19t60 -53q43 -62 43 -173q0 -112 -47 -227q-76 -189 -220 -252q-50 -22 -94.5 -22t-76 9.5t-62.5 31.5l34.5 169t24.5 127q-8 -1 -14 -1h-23zM253 337l-35 1l-20 -101.5t-23 -112.5q71 42 129 162q55 117 55 216
q0 84 -49 112q-16 9 -38 9q-20 -96 -35 -178l39 1q9 0 17 1l-25 -110h-15z" />
    <glyph glyph-name="Ntilde" unicode="&#xd1;" horiz-adv-x="464" 
d="M485 56q-12 0 -82.5 -17t-84.5 -22q-11 134 -18.5 195.5l-11.5 92.5q-4 43 -14 104q-3 -19 -8 -45.5t-10 -57.5q-16 -96 -50 -276l-150 -35q111 553 132 747q32 2 60 4.5t56 4t49 3.5l21 -130.5l13.5 -84.5l10.5 -64q10 -61 21 -108l9 49l11 59.5t13 64l17.5 84
l26.5 129.5l125 15q-110 -499 -136 -712zM584 1005q46 -35 55 -45q-60 -136 -140 -170q-18 -7 -40.5 -7t-35.5 11t-23 24t-21 24t-29 11t-32.5 -9t-27.5 -21t-25 -25.5t-23 -22.5q-13 9 -22.5 17t-18 14.5t-14.5 13.5l7 14q54 113 122 154q22 13 47.5 13t44.5 -14t33 -30.5
t23 -30t14 -13.5q31 0 83 67q12 16 23 25z" />
    <glyph glyph-name="Ograve" unicode="&#xd2;" horiz-adv-x="505" 
d="M481 468q0 83 -48 83q-61 0 -110 -60q-39 -48 -67 -131q-22 -68 -22 -128q0 -40 34 -60q10 -7 23 -7q46 0 81.5 31.5t59.5 77.5t36.5 98.5t12.5 95.5zM623 531q0 -61 -17.5 -135t-47.5 -136t-69.5 -111t-82.5 -83q-89 -70 -171 -70q-69 0 -109 50q-44 55 -44 160
q0 114 53 246t139 220q93 94 195 94q84 0 123 -68q31 -55 31 -167zM587 785q-173 40 -260 66l14 72.5l16.5 86l17.5 92.5l77 -81l142 -153z" />
    <glyph glyph-name="Oacute" unicode="&#xd3;" horiz-adv-x="505" 
d="M481 468q0 83 -48 83q-61 0 -110 -60q-39 -48 -67 -131q-22 -68 -22 -128q0 -40 34 -60q10 -7 23 -7q46 0 81.5 31.5t59.5 77.5t36.5 98.5t12.5 95.5zM623 531q0 -61 -17.5 -135t-47.5 -136t-69.5 -111t-82.5 -83q-89 -70 -171 -70q-69 0 -109 50q-44 55 -44 160
q0 114 53 246t139 220q93 94 195 94q84 0 123 -68q31 -55 31 -167zM400 824l1 69q70 70 131 125.5t115 113.5q5 -68 5.5 -127.5t8.5 -122.5q-60 -24 -130 -49l-130 -48q-1 11 -1 21v18z" />
    <glyph glyph-name="Ocircumflex" unicode="&#xd4;" horiz-adv-x="505" 
d="M481 468q0 83 -48 83q-61 0 -110 -60q-39 -48 -67 -131q-22 -68 -22 -128q0 -40 34 -60q10 -7 23 -7q46 0 81.5 31.5t59.5 77.5t36.5 98.5t12.5 95.5zM623 531q0 -61 -17.5 -135t-47.5 -136t-69.5 -111t-82.5 -83q-89 -70 -171 -70q-69 0 -109 50q-44 55 -44 160
q0 114 53 246t139 220q93 94 195 94q84 0 123 -68q31 -55 31 -167zM338 835q104 150 172 216q40 -6 56 -5t18 -1l29 -102l30 -105q-48 -40 -74 -58l-62 121q-34 -34 -54 -56q-42 -48 -60 -66q-36 30 -55 56z" />
    <glyph glyph-name="Otilde" unicode="&#xd5;" horiz-adv-x="505" 
d="M481 468q0 83 -48 83q-61 0 -110 -60q-39 -48 -67 -131q-22 -68 -22 -128q0 -40 34 -60q10 -7 23 -7q46 0 81.5 31.5t59.5 77.5t36.5 98.5t12.5 95.5zM623 531q0 -61 -17.5 -135t-47.5 -136t-69.5 -111t-82.5 -83q-89 -70 -171 -70q-69 0 -109 50q-44 55 -44 160
q0 114 53 246t139 220q93 94 195 94q84 0 123 -68q31 -55 31 -167zM674 1005q46 -35 55 -45q-60 -136 -140 -170q-18 -7 -40.5 -7t-35.5 11t-23 24t-21 24t-29 11t-32.5 -9t-27.5 -21t-25 -25.5t-23 -22.5q-13 9 -22.5 17t-18 14.5t-14.5 13.5l7 14q54 113 122 154
q22 13 47.5 13t44.5 -14t33 -30.5t23 -30t14 -13.5q31 0 83 67q12 16 23 25z" />
    <glyph glyph-name="Odieresis" unicode="&#xd6;" horiz-adv-x="505" 
d="M481 468q0 83 -48 83q-61 0 -110 -60q-39 -48 -67 -131q-22 -68 -22 -128q0 -40 34 -60q10 -7 23 -7q46 0 81.5 31.5t59.5 77.5t36.5 98.5t12.5 95.5zM623 531q0 -61 -17.5 -135t-47.5 -136t-69.5 -111t-82.5 -83q-89 -70 -171 -70q-69 0 -109 50q-44 55 -44 160
q0 114 53 246t139 220q93 94 195 94q84 0 123 -68q31 -55 31 -167zM400.5 785.5q-20.5 -8.5 -54 -8.5t-54 27t-20.5 52.5t5.5 42t17.5 29.5q26 28 72.5 28t71 -25.5t24.5 -50.5t-7 -42t-21 -30.5t-34.5 -22zM639 785.5q-20 -8.5 -54 -8.5t-54.5 27t-20.5 52.5t5.5 42
t17.5 29.5q26 28 72.5 28t71 -25.5t24.5 -50.5t-7 -42t-21 -30.5t-34 -22z" />
    <glyph glyph-name="multiply" unicode="&#xd7;" horiz-adv-x="508" 
d="M14 139q42 48 197 237l-19 66l-38 127l164 68q6 -33 16.5 -72t17.5 -73q20 36 84 134l149 -30q-42 -46 -92 -113.5t-78 -109.5q36 -111 72 -196q-2 -1 -14 -4l-30.5 -8l-40.5 -11.5l-43 -12.5q-54 -16 -68 -21q-6 23 -10 43l-8 39.5t-6 31.5q-11 -19 -79 -110z" />
    <glyph glyph-name="Oslash" unicode="&#xd8;" horiz-adv-x="505" 
d="M419 766q73 0 113 -53l36 47l53 -39l17 20l-75 -96q10 -44 10 -109.5t-17.5 -139.5t-47.5 -136t-69.5 -111t-82.5 -83q-89 -70 -171 -70q-61 0 -101 40l-34 -44l-51 49l49 57q-16 46 -16 105.5t14 123t39 126t60.5 119t78.5 100.5q93 94 195 94zM201 185q26 -13 53.5 -13
t53.5 15.5t48 40t39 56.5t29 64q26 67 26 120q0 16 -3 28zM423 546q-26 44 -59.5 44t-66 -30.5t-59.5 -77t-44 -101.5t-17 -103q0 -14 2 -26z" />
    <glyph glyph-name="Ugrave" unicode="&#xd9;" horiz-adv-x="429" 
d="M186 728q22 2 51.5 5t58 5.5t59.5 5.5l-41 -195l-24 -115l-16 -79l-21 -99q-15 -69 -15 -89t8.5 -30.5t23 -10.5t26 14t19 33t11.5 39l8.5 40.5l12 57l15 76l15.5 80.5q21 105 49 266l155 10l-5 -26l-26.5 -145.5t-26.5 -142.5q-31 -156 -46 -221.5t-41.5 -106.5
t-61.5 -68q-67 -50 -155 -50q-54 0 -93 30q-44 36 -44 95v8t2.5 27t11.5 82.5l19.5 124t22.5 129.5l22 118q22 114 26 132zM519 786q-173 40 -260 66l14 72.5l16.5 86l17.5 92.5l77 -81l142 -153z" />
    <glyph glyph-name="Uacute" unicode="&#xda;" horiz-adv-x="429" 
d="M186 728q22 2 51.5 5t58 5.5t59.5 5.5l-41 -195l-24 -115l-16 -79l-21 -99q-15 -69 -15 -89t8.5 -30.5t23 -10.5t26 14t19 33t11.5 39l8.5 40.5l12 57l15 76l15.5 80.5q21 105 49 266l155 10l-5 -26l-26.5 -145.5t-26.5 -142.5q-31 -156 -46 -221.5t-41.5 -106.5
t-61.5 -68q-67 -50 -155 -50q-54 0 -93 30q-44 36 -44 95v8t2.5 27t11.5 82.5l19.5 124t22.5 129.5l22 118q22 114 26 132zM332 825l1 69q70 70 131 125.5t115 113.5q5 -68 5.5 -127.5t8.5 -122.5q-60 -24 -130 -49l-130 -48q-1 11 -1 21v18z" />
    <glyph glyph-name="Ucircumflex" unicode="&#xdb;" horiz-adv-x="429" 
d="M186 728q22 2 51.5 5t58 5.5t59.5 5.5l-41 -195l-24 -115l-16 -79l-21 -99q-15 -69 -15 -89t8.5 -30.5t23 -10.5t26 14t19 33t11.5 39l8.5 40.5l12 57l15 76l15.5 80.5q21 105 49 266l155 10l-5 -26l-26.5 -145.5t-26.5 -142.5q-31 -156 -46 -221.5t-41.5 -106.5
t-61.5 -68q-67 -50 -155 -50q-54 0 -93 30q-44 36 -44 95v8t2.5 27t11.5 82.5l19.5 124t22.5 129.5l22 118q22 114 26 132zM270 836q104 150 172 216q40 -6 56 -5t18 -1l29 -102l30 -105q-48 -40 -74 -58l-62 121q-34 -34 -54 -56q-42 -48 -60 -66q-36 30 -55 56z" />
    <glyph glyph-name="Udieresis" unicode="&#xdc;" horiz-adv-x="429" 
d="M186 728q22 2 51.5 5t58 5.5t59.5 5.5l-41 -195l-24 -115l-16 -79l-21 -99q-15 -69 -15 -89t8.5 -30.5t23 -10.5t26 14t19 33t11.5 39l8.5 40.5l12 57l15 76l15.5 80.5q21 105 49 266l155 10l-5 -26l-26.5 -145.5t-26.5 -142.5q-31 -156 -46 -221.5t-41.5 -106.5
t-61.5 -68q-67 -50 -155 -50q-54 0 -93 30q-44 36 -44 95v8t2.5 27t11.5 82.5l19.5 124t22.5 129.5l22 118q22 114 26 132zM333.5 786.5q-20.5 -8.5 -54 -8.5t-54 27t-20.5 52.5t5.5 42t17.5 29.5q26 28 72.5 28t71 -25.5t24.5 -50.5t-7 -42t-21 -30.5t-34.5 -22zM572 786.5
q-20 -8.5 -54 -8.5t-54.5 27t-20.5 52.5t5.5 42t17.5 29.5q26 28 72.5 28t71 -25.5t24.5 -50.5t-7 -42t-21 -30.5t-34 -22z" />
    <glyph glyph-name="Yacute" unicode="&#xdd;" horiz-adv-x="393" 
d="M318 438q33 82 108 304l159 -35l-99 -203l-64 -132l-37.5 -78l-33.5 -71q-15 -76 -47 -186l-175 -22l47 206q0 124 -10 274t-12 173l-2 22l167 64v-178l-1 -100v-38zM268 824l1 69q70 70 131 125.5t115 113.5q5 -68 5.5 -127.5t8.5 -122.5q-60 -24 -130 -49l-130 -48
q-1 11 -1 21v18z" />
    <glyph glyph-name="Thorn" unicode="&#xde;" horiz-adv-x="395" 
d="M1 -1q104 487 144 749q43 5 76.5 8.5l60.5 6.5t33 3l-21 -102q89 0 134 -59q39 -52 39 -139q0 -113 -79 -202q-35 -41 -80.5 -65t-93.5 -24h-11q-22 -96 -25 -141zM271 540l-47 -257q36 9 67 58q34 54 34 122q0 38 -17 57.5t-37 19.5z" />
    <glyph glyph-name="germandbls" unicode="&#xdf;" horiz-adv-x="449" 
d="M5 1q63 276 140 759q313 0 370 -78q17 -24 17 -63t-20 -73.5t-45 -60.5l-47 -47t-25 -44v-2q0 -9 9.5 -29t21.5 -48q31 -72 31 -123t-8 -85t-27 -60q-42 -57 -126 -57q-54 0 -92 51l30 149q8 -25 22 -40t27 -15q25 0 25 45q0 31 -9 51l-19 41q-28 55 -28 129q0 42 22 76
t48 60.5t48 46t22 30.5q0 23 -118 23q-74 -429 -100 -617q-29 0 -98 -9t-71 -10z" />
    <glyph glyph-name="agrave" unicode="&#xe0;" horiz-adv-x="443" 
d="M245 175l-41 -147l-53.5 -7t-60.5 -7.5l-62 -7.5l69.5 230l46.5 154.5l35.5 120l34 115l29.5 101.5q185 13 282 32q-9 -99 -15 -234q-13 -269 -22 -496q-30 -5 -58.5 -9t-59 -9l-55.5 -9q11 96 19 173h-89zM269 277l74 5q0 6 1.5 20.5l3.5 33.5q8 107 17 199l7 89l-16 -1
zM440 785q-173 40 -260 66l14 72.5l16.5 86l17.5 92.5l77 -81l142 -153z" />
    <glyph glyph-name="aacute" unicode="&#xe1;" horiz-adv-x="443" 
d="M245 175l-41 -147l-53.5 -7t-60.5 -7.5l-62 -7.5l69.5 230l46.5 154.5l35.5 120l34 115l29.5 101.5q185 13 282 32q-9 -99 -15 -234q-13 -269 -22 -496q-30 -5 -58.5 -9t-59 -9l-55.5 -9q11 96 19 173h-89zM269 277l74 5q0 6 1.5 20.5l3.5 33.5q8 107 17 199l7 89l-16 -1
zM253 824l1 69q70 70 131 125.5t115 113.5q5 -68 5.5 -127.5t8.5 -122.5q-60 -24 -130 -49l-130 -48q-1 11 -1 21v18z" />
    <glyph glyph-name="acircumflex" unicode="&#xe2;" horiz-adv-x="443" 
d="M245 175l-41 -147l-53.5 -7t-60.5 -7.5l-62 -7.5l69.5 230l46.5 154.5l35.5 120l34 115l29.5 101.5q185 13 282 32q-9 -99 -15 -234q-13 -269 -22 -496q-30 -5 -58.5 -9t-59 -9l-55.5 -9q11 96 19 173h-89zM269 277l74 5q0 6 1.5 20.5l3.5 33.5q8 107 17 199l7 89l-16 -1
zM235 835q104 150 172 216q40 -6 56 -5t18 -1l29 -102l30 -105q-48 -40 -74 -58l-62 121q-34 -34 -54 -56q-42 -48 -60 -66q-36 30 -55 56z" />
    <glyph glyph-name="atilde" unicode="&#xe3;" horiz-adv-x="443" 
d="M245 175l-41 -147l-53.5 -7t-60.5 -7.5l-62 -7.5l69.5 230l46.5 154.5l35.5 120l34 115l29.5 101.5q185 13 282 32q-9 -99 -15 -234q-13 -269 -22 -496q-30 -5 -58.5 -9t-59 -9l-55.5 -9q11 96 19 173h-89zM269 277l74 5q0 6 1.5 20.5l3.5 33.5q8 107 17 199l7 89l-16 -1
zM571 1005q46 -35 55 -45q-60 -136 -140 -170q-18 -7 -40.5 -7t-35.5 11t-23 24t-21 24t-29 11t-32.5 -9t-27.5 -21t-25 -25.5t-23 -22.5q-13 9 -22.5 17t-18 14.5t-14.5 13.5l7 14q54 113 122 154q22 13 47.5 13t44.5 -14t33 -30.5t23 -30t14 -13.5q31 0 83 67q12 16 23 25
z" />
    <glyph glyph-name="adieresis" unicode="&#xe4;" horiz-adv-x="443" 
d="M245 175l-41 -147l-53.5 -7t-60.5 -7.5l-62 -7.5l69.5 230l46.5 154.5l35.5 120l34 115l29.5 101.5q185 13 282 32q-9 -99 -15 -234q-13 -269 -22 -496q-30 -5 -58.5 -9t-59 -9l-55.5 -9q11 96 19 173h-89zM269 277l74 5q0 6 1.5 20.5l3.5 33.5q8 107 17 199l7 89l-16 -1
zM299.5 785.5q-20.5 -8.5 -54 -8.5t-54 27t-20.5 52.5t5.5 42t17.5 29.5q26 28 72.5 28t71 -25.5t24.5 -50.5t-7 -42t-21 -30.5t-34.5 -22zM538 785.5q-20 -8.5 -54 -8.5t-54.5 27t-20.5 52.5t5.5 42t17.5 29.5q26 28 72.5 28t71 -25.5t24.5 -50.5t-7 -42t-21 -30.5t-34 -22
z" />
    <glyph glyph-name="aring" unicode="&#xe5;" horiz-adv-x="443" 
d="M245 175l-41 -147l-53.5 -7t-60.5 -7.5l-62 -7.5l69.5 230l46.5 154.5l35.5 120l34 115l29.5 101.5q185 13 282 32q-9 -99 -15 -234q-13 -269 -22 -496q-30 -5 -58.5 -9t-59 -9l-55.5 -9q11 96 19 173h-89zM269 277l74 5q0 6 1.5 20.5l3.5 33.5q8 107 17 199l7 89l-16 -1
zM357 844q14 -18 43 -18t46 20t17 42t-15 38.5t-45 16.5t-45 -18.5t-15 -40.5t14 -40zM389 772q-29 0 -48.5 9.5t-33.5 25.5q-26 31 -26 78q0 78 66 108q23 10 52.5 10t51 -9t36.5 -24q28 -28 28 -74q0 -49 -34 -84q-37 -40 -92 -40z" />
    <glyph glyph-name="ae" unicode="&#xe6;" horiz-adv-x="528" 
d="M580 624q-28 4 -68 4l-26 -184q25 4 45 4.5t31 1.5l-7.5 -56.5t-8.5 -56.5q-11 -1 -24 -1.5t-25 -1.5l-25 -2l-27 -188l86 7l-10 -117l-269 -35v3h-2l13 64.5l12 59.5t9 49h-75l-53 -147q-74 -10 -112 -14l-74 -8q139 349 199 512l77 209q50 4 103 5q109 2 164 7l107 9z
M354 623l-33 -88l-79 -258q4 1 22 2q34 2 38 3q2 15 17 100l23 122q16 87 23 120z" />
    <glyph glyph-name="ccedilla" unicode="&#xe7;" horiz-adv-x="423" 
d="M280 170q25 0 53 31q28 32 36 66l117 -47q-45 -105 -118 -167q-65 -55 -133 -55q-64 0 -104 58q-42 62 -42 163t26.5 195t74.5 168.5t114.5 120.5t145.5 46q51 0 87 -39q35 -40 35 -105v-13q0 -6 -1 -13l-134 -36q-12 25 -28.5 25t-34.5 -19t-35.5 -49t-33.5 -67.5
t-28 -75.5q-28 -84 -28 -135.5t31 -51.5zM192 19l62 -9q41 -40 41 -80q0 -42 -39 -70q-40 -29 -99 -29q-56 0 -86 38l20 90q26 -29 51 -29t40 16.5t15 35.5t-5 37z" />
    <glyph glyph-name="egrave" unicode="&#xe8;" horiz-adv-x="349" 
d="M58 -1l134 728l324 28q-7 -23 -12 -44.5l-10 -42.5t-8 -37q-30 -3 -82 -3h-69l-36 -184q55 3 92 4t48 2l-7.5 -56.5t-8.5 -56.5q-11 -1 -34 -1.5t-48 -1.5t-56 -2l-35 -189l149 24l-10 -117zM410 785q-173 40 -260 66l14 72.5l16.5 86l17.5 92.5l77 -81l142 -153z" />
    <glyph glyph-name="eacute" unicode="&#xe9;" horiz-adv-x="349" 
d="M58 -1l134 728l324 28q-7 -23 -12 -44.5l-10 -42.5t-8 -37q-30 -3 -82 -3h-69l-36 -184q55 3 92 4t48 2l-7.5 -56.5t-8.5 -56.5q-11 -1 -34 -1.5t-48 -1.5t-56 -2l-35 -189l149 24l-10 -117zM223 824l1 69q70 70 131 125.5t115 113.5q5 -68 5.5 -127.5t8.5 -122.5
q-60 -24 -130 -49l-130 -48q-1 11 -1 21v18z" />
    <glyph glyph-name="ecircumflex" unicode="&#xea;" horiz-adv-x="349" 
d="M58 -1l134 728l324 28q-7 -23 -12 -44.5l-10 -42.5t-8 -37q-30 -3 -82 -3h-69l-36 -184q55 3 92 4t48 2l-7.5 -56.5t-8.5 -56.5q-11 -1 -34 -1.5t-48 -1.5t-56 -2l-35 -189l149 24l-10 -117zM211 835q104 150 172 216q40 -6 56 -5t18 -1l29 -102l30 -105q-48 -40 -74 -58
l-62 121q-34 -34 -54 -56q-42 -48 -60 -66q-36 30 -55 56z" />
    <glyph glyph-name="edieresis" unicode="&#xeb;" horiz-adv-x="349" 
d="M58 -1l134 728l324 28q-7 -23 -12 -44.5l-10 -42.5t-8 -37q-30 -3 -82 -3h-69l-36 -184q55 3 92 4t48 2l-7.5 -56.5t-8.5 -56.5q-11 -1 -34 -1.5t-48 -1.5t-56 -2l-35 -189l149 24l-10 -117zM275.5 785.5q-20.5 -8.5 -54 -8.5t-54 27t-20.5 52.5t5.5 42t17.5 29.5
q26 28 72.5 28t71 -25.5t24.5 -50.5t-7 -42t-21 -30.5t-34.5 -22zM514 785.5q-20 -8.5 -54 -8.5t-54.5 27t-20.5 52.5t5.5 42t17.5 29.5q26 28 72.5 28t71 -25.5t24.5 -50.5t-7 -42t-21 -30.5t-34 -22z" />
    <glyph glyph-name="igrave" unicode="&#xec;" horiz-adv-x="205" 
d="M351 742q-114 -580 -139 -722q-28 0 -97 -9t-71 -10q32 116 59 253q62 313 88 463zM343 785q-173 40 -260 66l14 72.5l16.5 86l17.5 92.5l77 -81l142 -153z" />
    <glyph glyph-name="iacute" unicode="&#xed;" horiz-adv-x="205" 
d="M351 742q-114 -580 -139 -722q-28 0 -97 -9t-71 -10q32 116 59 253q62 313 88 463zM155 824l1 69q70 70 131 125.5t115 113.5q5 -68 5.5 -127.5t8.5 -122.5q-60 -24 -130 -49l-130 -48q-1 11 -1 21v18z" />
    <glyph glyph-name="icircumflex" unicode="&#xee;" horiz-adv-x="205" 
d="M351 742q-114 -580 -139 -722q-28 0 -97 -9t-71 -10q32 116 59 253q62 313 88 463zM119 835q104 150 172 216q40 -6 56 -5t18 -1l29 -102l30 -105q-48 -40 -74 -58l-62 121q-34 -34 -54 -56q-42 -48 -60 -66q-36 30 -55 56z" />
    <glyph glyph-name="idieresis" unicode="&#xef;" horiz-adv-x="205" 
d="M351 742q-114 -580 -139 -722q-28 0 -97 -9t-71 -10q32 116 59 253q62 313 88 463zM192.5 785.5q-20.5 -8.5 -54 -8.5t-54 27t-20.5 52.5t5.5 42t17.5 29.5q26 28 72.5 28t71 -25.5t24.5 -50.5t-7 -42t-21 -30.5t-34.5 -22zM431 785.5q-20 -8.5 -54 -8.5t-54.5 27
t-20.5 52.5t5.5 42t17.5 29.5q26 28 72.5 28t71 -25.5t24.5 -50.5t-7 -42t-21 -30.5t-34 -22z" />
    <glyph glyph-name="eth" unicode="&#xf0;" horiz-adv-x="456" 
d="M69 446q3 -1 7 -1h16q34 186 47 280l89 15.5t95 7.5t87 -19t60 -53q43 -62 43 -173q0 -112 -47 -227q-76 -189 -220 -252q-50 -22 -94.5 -22t-76 9.5t-62.5 31.5l34.5 169t24.5 127q-8 -1 -14 -1h-23zM253 337l-35 1l-20 -101.5t-23 -112.5q71 42 129 162q55 117 55 216
q0 84 -49 112q-16 9 -38 9q-20 -96 -35 -178l39 1q9 0 17 1l-25 -110h-15z" />
    <glyph glyph-name="ntilde" unicode="&#xf1;" horiz-adv-x="463" 
d="M211 750h29q20 0 112 4l26 -134q32 -178 44 -229l9 48t11 56.5l12 60.5l41 197l125 15q-109 -505 -136 -725q-12 0 -82.5 -17t-84.5 -22q-20 274 -44 388q-3 -19 -8 -44.5t-10 -54.5q-19 -109 -50 -263l-150 -35q114 543 133 756q14 -1 23 -1zM583 1005q46 -35 55 -45
q-60 -136 -140 -170q-18 -7 -40.5 -7t-35.5 11t-23 24t-21 24t-29 11t-32.5 -9t-27.5 -21t-25 -25.5t-23 -22.5q-13 9 -22.5 17t-18 14.5t-14.5 13.5l7 14q54 113 122 154q22 13 47.5 13t44.5 -14t33 -30.5t23 -30t14 -13.5q31 0 83 67q12 16 23 25z" />
    <glyph glyph-name="ograve" unicode="&#xf2;" horiz-adv-x="505" 
d="M481 468q0 83 -48 83q-61 0 -110 -60q-39 -48 -67 -131q-22 -68 -22 -128q0 -40 34 -60q10 -7 23 -7q46 0 81.5 31.5t59.5 77.5t36.5 98.5t12.5 95.5zM623 531q0 -61 -17.5 -135t-47.5 -136t-69.5 -111t-82.5 -83q-89 -70 -171 -70q-69 0 -109 50q-44 55 -44 160
q0 114 53 246t139 220q93 94 195 94q84 0 123 -68q31 -55 31 -167zM587 785q-173 40 -260 66l14 72.5l16.5 86l17.5 92.5l77 -81l142 -153z" />
    <glyph glyph-name="oacute" unicode="&#xf3;" horiz-adv-x="505" 
d="M481 468q0 83 -48 83q-61 0 -110 -60q-39 -48 -67 -131q-22 -68 -22 -128q0 -40 34 -60q10 -7 23 -7q46 0 81.5 31.5t59.5 77.5t36.5 98.5t12.5 95.5zM623 531q0 -61 -17.5 -135t-47.5 -136t-69.5 -111t-82.5 -83q-89 -70 -171 -70q-69 0 -109 50q-44 55 -44 160
q0 114 53 246t139 220q93 94 195 94q84 0 123 -68q31 -55 31 -167zM400 824l1 69q70 70 131 125.5t115 113.5q5 -68 5.5 -127.5t8.5 -122.5q-60 -24 -130 -49l-130 -48q-1 11 -1 21v18z" />
    <glyph glyph-name="ocircumflex" unicode="&#xf4;" horiz-adv-x="505" 
d="M481 468q0 83 -48 83q-61 0 -110 -60q-39 -48 -67 -131q-22 -68 -22 -128q0 -40 34 -60q10 -7 23 -7q46 0 81.5 31.5t59.5 77.5t36.5 98.5t12.5 95.5zM623 531q0 -61 -17.5 -135t-47.5 -136t-69.5 -111t-82.5 -83q-89 -70 -171 -70q-69 0 -109 50q-44 55 -44 160
q0 114 53 246t139 220q93 94 195 94q84 0 123 -68q31 -55 31 -167zM338 835q104 150 172 216q40 -6 56 -5t18 -1l29 -102l30 -105q-48 -40 -74 -58l-62 121q-34 -34 -54 -56q-42 -48 -60 -66q-36 30 -55 56z" />
    <glyph glyph-name="otilde" unicode="&#xf5;" horiz-adv-x="505" 
d="M481 468q0 83 -48 83q-61 0 -110 -60q-39 -48 -67 -131q-22 -68 -22 -128q0 -40 34 -60q10 -7 23 -7q46 0 81.5 31.5t59.5 77.5t36.5 98.5t12.5 95.5zM623 531q0 -61 -17.5 -135t-47.5 -136t-69.5 -111t-82.5 -83q-89 -70 -171 -70q-69 0 -109 50q-44 55 -44 160
q0 114 53 246t139 220q93 94 195 94q84 0 123 -68q31 -55 31 -167zM674 1005q46 -35 55 -45q-60 -136 -140 -170q-18 -7 -40.5 -7t-35.5 11t-23 24t-21 24t-29 11t-32.5 -9t-27.5 -21t-25 -25.5t-23 -22.5q-13 9 -22.5 17t-18 14.5t-14.5 13.5l7 14q54 113 122 154
q22 13 47.5 13t44.5 -14t33 -30.5t23 -30t14 -13.5q31 0 83 67q12 16 23 25z" />
    <glyph glyph-name="odieresis" unicode="&#xf6;" horiz-adv-x="505" 
d="M481 468q0 83 -48 83q-61 0 -110 -60q-39 -48 -67 -131q-22 -68 -22 -128q0 -40 34 -60q10 -7 23 -7q46 0 81.5 31.5t59.5 77.5t36.5 98.5t12.5 95.5zM623 531q0 -61 -17.5 -135t-47.5 -136t-69.5 -111t-82.5 -83q-89 -70 -171 -70q-69 0 -109 50q-44 55 -44 160
q0 114 53 246t139 220q93 94 195 94q84 0 123 -68q31 -55 31 -167zM400.5 785.5q-20.5 -8.5 -54 -8.5t-54 27t-20.5 52.5t5.5 42t17.5 29.5q26 28 72.5 28t71 -25.5t24.5 -50.5t-7 -42t-21 -30.5t-34.5 -22zM639 785.5q-20 -8.5 -54 -8.5t-54.5 27t-20.5 52.5t5.5 42
t17.5 29.5q26 28 72.5 28t71 -25.5t24.5 -50.5t-7 -42t-21 -30.5t-34 -22z" />
    <glyph glyph-name="divide" unicode="&#xf7;" horiz-adv-x="350" 
d="M272 214q-5 -26 -8.5 -47t-7.5 -42l-14 -89q-40 -2 -92 -2h-54q12 62 18.5 106t11.5 73q46 2 75 2h43q14 0 28 -1zM166 435q13 90 26 161q47 0 83.5 1.5t65.5 2.5q-12 -41 -32 -161q-66 -4 -143 -4zM168 261l-81 -1q-23 -1 -45 -1l30 138q87 -3 110 -3h83.5t65.5 1t59 2
l-26 -139z" />
    <glyph glyph-name="oslash" unicode="&#xf8;" horiz-adv-x="505" 
d="M419 766q73 0 113 -53l36 47l53 -39l17 20l-75 -96q10 -44 10 -109.5t-17.5 -139.5t-47.5 -136t-69.5 -111t-82.5 -83q-89 -70 -171 -70q-61 0 -101 40l-34 -44l-51 49l49 57q-16 46 -16 105.5t14 123t39 126t60.5 119t78.5 100.5q93 94 195 94zM201 185q26 -13 53.5 -13
t53.5 15.5t48 40t39 56.5t29 64q26 67 26 120q0 16 -3 28zM423 546q-26 44 -59.5 44t-66 -30.5t-59.5 -77t-44 -101.5t-17 -103q0 -14 2 -26z" />
    <glyph glyph-name="ugrave" unicode="&#xf9;" horiz-adv-x="429" 
d="M186 728q22 2 51.5 5t58 5.5t59.5 5.5l-41 -195l-24 -115l-16 -79l-21 -99q-15 -69 -15 -89t8.5 -30.5t23 -10.5t26 14t19 33t11.5 39l8.5 40.5l12 57l15 76l15.5 80.5q21 105 49 266l155 10l-5 -26l-26.5 -145.5t-26.5 -142.5q-31 -156 -46 -221.5t-41.5 -106.5
t-61.5 -68q-67 -50 -155 -50q-54 0 -93 30q-44 36 -44 95v8t2.5 27t11.5 82.5l19.5 124t22.5 129.5l22 118q22 114 26 132zM519 786q-173 40 -260 66l14 72.5l16.5 86l17.5 92.5l77 -81l142 -153z" />
    <glyph glyph-name="uacute" unicode="&#xfa;" horiz-adv-x="429" 
d="M186 728q22 2 51.5 5t58 5.5t59.5 5.5l-41 -195l-24 -115l-16 -79l-21 -99q-15 -69 -15 -89t8.5 -30.5t23 -10.5t26 14t19 33t11.5 39l8.5 40.5l12 57l15 76l15.5 80.5q21 105 49 266l155 10l-5 -26l-26.5 -145.5t-26.5 -142.5q-31 -156 -46 -221.5t-41.5 -106.5
t-61.5 -68q-67 -50 -155 -50q-54 0 -93 30q-44 36 -44 95v8t2.5 27t11.5 82.5l19.5 124t22.5 129.5l22 118q22 114 26 132zM332 825l1 69q70 70 131 125.5t115 113.5q5 -68 5.5 -127.5t8.5 -122.5q-60 -24 -130 -49l-130 -48q-1 11 -1 21v18z" />
    <glyph glyph-name="ucircumflex" unicode="&#xfb;" horiz-adv-x="429" 
d="M186 728q22 2 51.5 5t58 5.5t59.5 5.5l-41 -195l-24 -115l-16 -79l-21 -99q-15 -69 -15 -89t8.5 -30.5t23 -10.5t26 14t19 33t11.5 39l8.5 40.5l12 57l15 76l15.5 80.5q21 105 49 266l155 10l-5 -26l-26.5 -145.5t-26.5 -142.5q-31 -156 -46 -221.5t-41.5 -106.5
t-61.5 -68q-67 -50 -155 -50q-54 0 -93 30q-44 36 -44 95v8t2.5 27t11.5 82.5l19.5 124t22.5 129.5l22 118q22 114 26 132zM270 836q104 150 172 216q40 -6 56 -5t18 -1l29 -102l30 -105q-48 -40 -74 -58l-62 121q-34 -34 -54 -56q-42 -48 -60 -66q-36 30 -55 56z" />
    <glyph glyph-name="udieresis" unicode="&#xfc;" horiz-adv-x="429" 
d="M186 728q22 2 51.5 5t58 5.5t59.5 5.5l-41 -195l-24 -115l-16 -79l-21 -99q-15 -69 -15 -89t8.5 -30.5t23 -10.5t26 14t19 33t11.5 39l8.5 40.5l12 57l15 76l15.5 80.5q21 105 49 266l155 10l-5 -26l-26.5 -145.5t-26.5 -142.5q-31 -156 -46 -221.5t-41.5 -106.5
t-61.5 -68q-67 -50 -155 -50q-54 0 -93 30q-44 36 -44 95v8t2.5 27t11.5 82.5l19.5 124t22.5 129.5l22 118q22 114 26 132zM333.5 786.5q-20.5 -8.5 -54 -8.5t-54 27t-20.5 52.5t5.5 42t17.5 29.5q26 28 72.5 28t71 -25.5t24.5 -50.5t-7 -42t-21 -30.5t-34.5 -22zM572 786.5
q-20 -8.5 -54 -8.5t-54.5 27t-20.5 52.5t5.5 42t17.5 29.5q26 28 72.5 28t71 -25.5t24.5 -50.5t-7 -42t-21 -30.5t-34 -22z" />
    <glyph glyph-name="yacute" unicode="&#xfd;" horiz-adv-x="393" 
d="M318 438q33 82 108 304l159 -35l-99 -203l-64 -132l-37.5 -78l-33.5 -71q-15 -76 -47 -186l-175 -22l47 206q0 124 -10 274t-12 173l-2 22l167 64v-178l-1 -100v-38zM284 824l1 69q70 70 131 125.5t115 113.5q5 -68 5.5 -127.5t8.5 -122.5q-60 -24 -130 -49l-130 -48
q-1 11 -1 21v18z" />
    <glyph glyph-name="thorn" unicode="&#xfe;" horiz-adv-x="395" 
d="M1 -1q104 487 144 749q43 5 76.5 8.5l60.5 6.5t33 3l-21 -102q89 0 134 -59q39 -52 39 -139q0 -113 -79 -202q-35 -41 -80.5 -65t-93.5 -24h-11q-22 -96 -25 -141zM271 540l-47 -257q36 9 67 58q34 54 34 122q0 38 -17 57.5t-37 19.5z" />
    <glyph glyph-name="ydieresis" unicode="&#xff;" horiz-adv-x="393" 
d="M318 438q33 82 108 304l159 -35l-99 -203l-64 -132l-37.5 -78l-33.5 -71q-15 -76 -47 -186l-175 -22l47 206q0 124 -10 274t-12 173l-2 22l167 64v-178l-1 -100v-38zM297.5 785.5q-20.5 -8.5 -54 -8.5t-54 27t-20.5 52.5t5.5 42t17.5 29.5q26 28 72.5 28t71 -25.5
t24.5 -50.5t-7 -42t-21 -30.5t-34.5 -22zM536 785.5q-20 -8.5 -54 -8.5t-54.5 27t-20.5 52.5t5.5 42t17.5 29.5q26 28 72.5 28t71 -25.5t24.5 -50.5t-7 -42t-21 -30.5t-34 -22z" />
    <glyph glyph-name="dotlessi" unicode="&#x131;" horiz-adv-x="207" 
d="M292 742q-62 -353 -118 -722q-29 0 -98 -9t-71 -10q42 185 74 381.5l53 334.5z" />
    <glyph glyph-name="Lslash" unicode="&#x141;" horiz-adv-x="316" 
d="M200 144q38 3 106 3q2 -39 6 -63.5t5.5 -36t2.5 -15.5l-31 1q-105 0 -209 -19q-34 -7 -62 -16q18 144 55 343q-9 -4 -17 -6.5t-14 -5l-11 -4.5l11 127q26 7 55 17q11 55 19.5 102.5t16.5 85.5l16 73l180 24q-7 -30 -15.5 -62.5t-17.5 -73l-20 -87.5l34.5 12.5l33 12
t30.5 12.5l3 -123l-129 -43q-37 -177 -48 -258z" />
    <glyph glyph-name="lslash" unicode="&#x142;" horiz-adv-x="316" 
d="M200 144q38 3 106 3q2 -39 6 -63.5t5.5 -36t2.5 -15.5l-31 1q-105 0 -209 -19q-34 -7 -62 -16q18 144 55 343q-9 -4 -17 -6.5t-14 -5l-11 -4.5l11 127q26 7 55 17q11 55 19.5 102.5t16.5 85.5l16 73l180 24q-7 -30 -15.5 -62.5t-17.5 -73l-20 -87.5l34.5 12.5l33 12
t30.5 12.5l3 -123l-129 -43q-37 -177 -48 -258z" />
    <glyph glyph-name="OE" unicode="&#x152;" horiz-adv-x="574" 
d="M580 338q-32 0 -96 4l-35 -189l125 16l-10 -117l-300 -42h-10q-110 0 -168 67q-50 59 -50 163t50 216q78 179 216 252q46 25 96 29l293 20q-18 -58 -30 -124h-12l-115 5l-36 -184q18 -1 34.5 -1.5t33.5 -0.5h48q-14 -101 -16 -113zM365 559q-33 -5 -65.5 -34t-59 -70.5
t-42.5 -89.5t-16 -90t22 -71t72 -29h9q4 0 9 1z" />
    <glyph glyph-name="oe" unicode="&#x153;" horiz-adv-x="574" 
d="M580 338q-32 0 -96 4l-35 -189l125 16l-10 -117l-300 -42h-10q-110 0 -168 67q-50 59 -50 163t50 216q78 179 216 252q46 25 96 29l293 20q-18 -58 -30 -124h-12l-115 5l-36 -184q18 -1 34.5 -1.5t33.5 -0.5h48q-14 -101 -16 -113zM365 559q-33 -5 -65.5 -34t-59 -70.5
t-42.5 -89.5t-16 -90t22 -71t72 -29h9q4 0 9 1z" />
    <glyph glyph-name="Scaron" unicode="&#x160;" horiz-adv-x="440" 
d="M424 523q5 20 5 42t-11 35.5t-23.5 13.5t-24.5 -6t-24 -16q-28 -23 -28 -49.5t14 -43t34.5 -30.5l44.5 -29t45 -38q48 -56 48 -149q0 -112 -82 -185q-78 -70 -197 -70q-88 0 -161 92l76 149q14 -28 54 -51q40 -24 60 -24t33.5 4t24.5 12q25 18 25 43.5t-16 46.5t-39.5 40
t-51 38.5t-50.5 41.5q-56 50 -56 105t31.5 101t79 79.5t104 53t95.5 19.5t63.5 -7t42.5 -21q39 -32 39 -94q0 -15 -2.5 -29t-4.5 -31zM388 777l-70 204l22.5 20l23.5 21t25 21l68 -118l108 128q33 -28 42 -37l16 -16q-88 -143 -161 -225q-28 2 -44 2l-26 -1q-4 0 -4 1z" />
    <glyph glyph-name="scaron" unicode="&#x161;" horiz-adv-x="440" 
d="M424 523q5 20 5 42t-11 35.5t-23.5 13.5t-24.5 -6t-24 -16q-28 -23 -28 -49.5t14 -43t34.5 -30.5l44.5 -29t45 -38q48 -56 48 -149q0 -112 -82 -185q-78 -70 -197 -70q-88 0 -161 92l76 149q14 -28 54 -51q40 -24 60 -24t33.5 4t24.5 12q25 18 25 43.5t-16 46.5t-39.5 40
t-51 38.5t-50.5 41.5q-56 50 -56 105t31.5 101t79 79.5t104 53t95.5 19.5t63.5 -7t42.5 -21q39 -32 39 -94q0 -15 -2.5 -29t-4.5 -31zM388 777l-70 204l22.5 20l23.5 21t25 21l68 -118l108 128q33 -28 42 -37l16 -16q-88 -143 -161 -225q-28 2 -44 2l-26 -1q-4 0 -4 1z" />
    <glyph glyph-name="Ydieresis" unicode="&#x178;" horiz-adv-x="393" 
d="M318 438q33 82 108 304l159 -35l-99 -203l-64 -132l-37.5 -78l-33.5 -71q-15 -76 -47 -186l-175 -22l47 206q0 124 -10 274t-12 173l-2 22l167 64v-178l-1 -100v-38zM288.5 785.5q-20.5 -8.5 -54 -8.5t-54 27t-20.5 52.5t5.5 42t17.5 29.5q26 28 72.5 28t71 -25.5
t24.5 -50.5t-7 -42t-21 -30.5t-34.5 -22zM527 785.5q-20 -8.5 -54 -8.5t-54.5 27t-20.5 52.5t5.5 42t17.5 29.5q26 28 72.5 28t71 -25.5t24.5 -50.5t-7 -42t-21 -30.5t-34 -22z" />
    <glyph glyph-name="Zcaron" unicode="&#x17d;" horiz-adv-x="441" 
d="M289 185q33 0 205 12l-3 -156q-89 0 -211 -9q-168 -14 -222 -23l1 150l291 396q-55 0 -169 -19l-24 -3l19 161l419 30l-27 -141zM364 736l-70 204l22.5 20l23.5 21t25 21l68 -118l108 128q33 -28 42 -37l16 -16q-88 -143 -161 -225q-28 2 -44 2l-26 -1q-4 0 -4 1z" />
    <glyph glyph-name="zcaron" unicode="&#x17e;" horiz-adv-x="441" 
d="M289 185q33 0 205 12l-3 -156q-89 0 -211 -9q-168 -14 -222 -23l1 150l291 396q-55 0 -169 -19l-24 -3l19 161l419 30l-27 -141zM364 736l-70 204l22.5 20l23.5 21t25 21l68 -118l108 128q33 -28 42 -37l16 -16q-88 -143 -161 -225q-28 2 -44 2l-26 -1q-4 0 -4 1z" />
    <glyph glyph-name="circumflex" unicode="&#x2c6;" horiz-adv-x="373" 
d="M89 63q104 150 172 216q40 -6 56 -5t18 -1l29 -102l30 -105q-48 -40 -74 -58l-62 121q-34 -34 -54 -56q-42 -48 -60 -66q-36 30 -55 56z" />
    <glyph glyph-name="caron" unicode="&#x2c7;" horiz-adv-x="373" 
d="M204 5l-70 204l22.5 20l23.5 21t25 21l68 -118l108 128q33 -28 42 -37l16 -16q-88 -143 -161 -225q-28 2 -44 2l-26 -1q-4 0 -4 1z" />
    <glyph glyph-name="ring" unicode="&#x2da;" horiz-adv-x="294" 
d="M178 72q14 -18 43 -18t46 20t17 42t-15 38.5t-45 16.5t-45 -18.5t-15 -40.5t14 -40zM210 0q-29 0 -48.5 9.5t-33.5 25.5q-26 31 -26 78q0 78 66 108q23 10 52.5 10t51 -9t36.5 -24q28 -28 28 -74q0 -49 -34 -84q-37 -40 -92 -40z" />
    <glyph glyph-name="tilde" unicode="&#x2dc;" horiz-adv-x="373" 
d="M406 233q46 -35 55 -45q-60 -136 -140 -170q-18 -7 -40.5 -7t-35.5 11t-23 24t-21 24t-29 11t-32.5 -9t-27.5 -21t-25 -25.5t-23 -22.5q-13 9 -22.5 17t-18 14.5t-14.5 13.5l7 14q54 113 122 154q22 13 47.5 13t44.5 -14t33 -30.5t23 -30t14 -13.5q31 0 83 67
q12 16 23 25z" />
    <glyph glyph-name="hungarumlaut" unicode="&#x2dd;" horiz-adv-x="492" 
d="M105 13q-7 24 -7 101v41q0 10 1 18l383 33l17 -166q-81 -5 -134 -8l-86 -5t-65 -5q-51 -4 -109 -9z" />
    <glyph glyph-name="endash" unicode="&#x2013;" horiz-adv-x="369" 
d="M424 244q-144 4 -176 4q-57 0 -93 -1.5t-63 -1.5l49 181q112 -4 140 -4q98 0 178 5z" />
    <glyph glyph-name="emdash" unicode="&#x2014;" horiz-adv-x="534" 
d="M268 422l159 2q68 1 147 3l-35 -183q-28 0 -75.5 1t-101.5 1.5l-110 1t-101.5 1t-75 1t-31.5 0.5l39 172q4 2 32 2l122 -2h31z" />
    <glyph glyph-name="quoteleft" unicode="&#x2018;" horiz-adv-x="207" 
d="M159 797q18 -3 45 -3h34q37 0 110 14l-100 -319l-168 -17q43 168 79 325z" />
    <glyph glyph-name="quoteright" unicode="&#x2019;" horiz-adv-x="207" 
d="M75 481l99 322l83 -2l92 2l-38.5 -115l-23.5 -71l-42 -126l-11 -1q-13 0 -31.5 -1.5t-41 -2.5t-41.5 -2.5t-32 -1.5z" />
    <glyph glyph-name="quotesinglbase" unicode="&#x201a;" horiz-adv-x="200" 
d="M72 157q18 -3 45 -3h34q37 0 110 14l-100 -319l-168 -17q43 168 79 325z" />
    <glyph glyph-name="quotedblleft" unicode="&#x201c;" horiz-adv-x="413" 
d="M513 771l-65 -389h-83l-79 -2q5 31 10.5 59.5l11 58l12.5 65t14 75.5l20 133h159zM303 773l-74 -393l-154 -9l34 193l34 209h160z" />
    <glyph glyph-name="quotedblright" unicode="&#x201d;" horiz-adv-x="410" 
d="M288 403l79 390l154 9l-74 -399h-159zM82 402l61 391h165l-72 -375z" />
    <glyph glyph-name="quotedblbase" unicode="&#x201e;" horiz-adv-x="417" 
d="M234 106q-60 -139 -127 -332l-144 -19l30.5 113.5l20.5 75t15 58.5q15 53 26 101q9 -1 18 -1h16q38 0 71.5 2t73.5 2zM473 111q-46 -125 -136 -336l-156 -10q88 231 118 330q60 2 104 7.5z" />
    <glyph glyph-name="dagger" unicode="&#x2020;" horiz-adv-x="319" 
d="M120 623q7 0 17.5 1t26.5 1.5t39 2.5q5 30 10 52q11 48 14 63l114 14q-15 -58 -27 -125q21 1 44 1h49q-2 -13 -4.5 -23.5l-5 -21t-5.5 -21.5t-6.5 -22t-6.5 -19.5t-5 -15.5l-85 -3l-19 -99l-19 -98q-21 -112 -31 -172q-31 0 -61.5 -8.5t-62.5 -8.5q31 119 52 227l31 158
h-88z" />
    <glyph glyph-name="daggerdbl" unicode="&#x2021;" horiz-adv-x="329" 
d="M355 358l-29 -117q-7 0 -18 -1q-22 -2 -65 -4q-12 -60 -17 -82.5t-7 -32.5l-114 -14q9 34 15 64.5l12 60.5q-21 -1 -44 -1h-49q2 13 4.5 23.5l5 21t5.5 21.5l6 22q5 19 12 35l85 3q1 6 4.5 22.5t9 46l15.5 80.5h-88l29 117q7 0 17.5 1t26.5 1.5t39 2.5q5 30 10 52
q11 48 14 63l114 14q-15 -58 -27 -125q21 1 44 1h49q-2 -13 -4.5 -23.5l-5 -21t-5.5 -21.5t-6.5 -22t-6.5 -19.5t-5 -15.5l-85 -3q-27 -135 -29 -149h88z" />
    <glyph glyph-name="bullet" unicode="&#x2022;" horiz-adv-x="291" 
d="M294 271q-58 -76 -158 -76q-46 0 -69.5 30t-23.5 68t11.5 82.5t36.5 82.5q59 90 160 90q50 0 75 -44q18 -33 18 -77q0 -92 -50 -156z" />
    <glyph glyph-name="perthousand" unicode="&#x2030;" horiz-adv-x="818" 
d="M632 419q70 74 145 74q55 0 86 -47q27 -42 27 -103.5t-15.5 -117t-45 -101t-72 -75t-87 -29.5t-69.5 11.5t-41 30.5q-31 38 -31 103q0 78 39 158l-236 -353l-170 40q29 32 126 175l141.5 208.5l87 128.5l77.5 115q62 95 87 137q34 -8 64 -14q82 -16 104 -19zM362.5 340.5
q-42.5 -29.5 -87 -29.5t-69.5 11.5t-41 31.5q-31 37 -31 95.5t19.5 116.5t53.5 106.5t79 80t96 31.5q54 0 85 -48q27 -41 27 -102.5t-15.5 -117t-44.5 -101t-71.5 -75zM652 193q0 -48 37 -48q42 0 73 42q28 37 28 71q0 69 -48 69q-35 0 -63 -47q-27 -45 -27 -87zM257 484
q0 -48 37 -48q42 0 74 42q27 37 27 71q0 69 -48 69q-35 0 -63 -47q-27 -45 -27 -87z" />
    <glyph glyph-name="guilsinglleft" unicode="&#x2039;" horiz-adv-x="271" 
d="M130 380l151 -136q-12 -54 -22.5 -107t-23.5 -107l-102.5 101t-100.5 104q15 78 43 276l151 115.5t145 127.5q-22 -78 -57 -240q-45 -36 -92 -68t-92 -66z" />
    <glyph glyph-name="guilsinglright" unicode="&#x203a;" horiz-adv-x="278" 
d="M131 738l219 -217q-20 -103 -48 -286l-151.5 -112t-146.5 -122q24 90 49 245l97 67.5l97 66.5l-140 125q5 59 11.5 116.5t12.5 116.5z" />
    <glyph glyph-name="fraction" unicode="&#x2044;" horiz-adv-x="478" 
d="M459 753q24 -16 168 -33l-517 -771l-170 40q218 297 432 627z" />
    <glyph glyph-name="uni2074" unicode="&#x2074;" horiz-adv-x="452" 
d="M48 398l159 366q92 0 161 8q-59 -111 -131 -290q-2 -11 -5 -18h72q1 5 4 17l7 28.5l8.5 35.5l12.5 51l21 86q53 6 92.5 9.5l60.5 5.5q-2 -11 -10 -44.5l-17 -71.5l-17 -71.5t-10 -45.5h56l-41 -123h-51l-9 -101l-166 -25l20 124l-172 -11z" />
    <glyph glyph-name="Euro" unicode="&#x20ac;" horiz-adv-x="485" 
d="M44 241q23 78 27 103h35l10 40h-33q-7 0 -13 1l10 34.5t9 34t9 32.5l53 -3q51 117 124 190q80 80 166 80q80 0 107 -127q9 -38 11 -82l-119 -47q-9 58 -39 58q-48 0 -96 -73h63q-6 -24 -12 -54t-9 -43q-11 -1 -20 -1h-67q-4 -11 -6.5 -20.5t-5.5 -19.5h44q22 0 44 -1
q-10 -48 -16 -99l-84 -1q4 -81 57 -81q42 0 77 53l88 -80q-80 -134 -189 -134q-89 0 -135 65q-41 59 -41 158v17h-49z" />
    <glyph glyph-name="trademark" unicode="&#x2122;" horiz-adv-x="960" 
d="M362 245q140 323 192 483q58 0 109 4t109 8q-12 -64 -48 -221h9q30 63 68.5 130t55.5 92q51 8 103 14.5t104 17.5q-52 -112 -83 -311q-15 -91 -23 -185l-182 -20q0 8 54 233h-9l-102 -231q-33 -1 -66.5 -1.5t-65.5 -2.5l34 235h-8q-5 -19 -20 -58l-25 -66l-19 -50
q-21 -52 -23 -54zM128 658q0 3 5 88q49 -3 99 -3q120 0 256 11l-9 -36l-8.5 -32t-8.5 -29q-21 -5 -43 -6.5t-43 -4.5q-36 -114 -87 -378l-173 -19q76 262 103 403q-23 2 -45.5 1.5t-45.5 4.5z" />
    <glyph glyph-name="product" unicode="&#x220f;" horiz-adv-x="498" 
d="M31 -2q107 526 130 750q8 -1 17 -1h22q83 0 162.5 3t130.5 4.5t89 3.5q-49 -160 -96 -449q-23 -130 -42 -266l-160 -18l66 349l28 144.5l16 85.5t10 56l-94 -4q-3 -20 -10 -57l-16 -85l-20 -102l-28.5 -144l-46.5 -237z" />
    <glyph glyph-name="minus" unicode="&#x2212;" horiz-adv-x="287" 
d="M24 126l31 158h136t93 -2l-9 -154l-30 1l-213 -3h-8z" />
    <glyph glyph-name="uni2215" unicode="&#x2215;" horiz-adv-x="478" 
d="M509 753q24 -16 168 -33l-517 -771l-170 40q218 297 432 627z" />
    <glyph glyph-name="radical" unicode="&#x221a;" horiz-adv-x="131" 
 />
    <glyph glyph-name="notequal" unicode="&#x2260;" horiz-adv-x="309" 
d="M115 262q9 71 13 158q52 -4 98 -4q86 0 164 10q-27 -85 -42 -164l-110 -1q-31 0 -61.5 0.5t-61.5 0.5zM59 3q27 76 43 162h135.5t93.5 -2l-9 -154q-53 3 -99 3q-94 0 -164 -9z" />
    <glyph glyph-name="uniE0FF" unicode="&#xe0ff;" 
 />
    <glyph glyph-name="uniEFFD" unicode="&#xeffd;" 
 />
    <glyph glyph-name="uniF000" unicode="&#xf000;" 
 />
    <glyph glyph-name="NULL" 
 />
    <glyph glyph-name="hungarumlaut.001" horiz-adv-x="746" 
d="M105 13q-27 63 -37 83l87 132.5t89 130.5l50 -124.5t51 -124.5zM478 13q-27 63 -37 83l87 132.5t89 130.5l50 -124.5t51 -124.5z" />
    </font>
</defs>
</svg>
