<?xml version="1.0" standalone="no"?>
<!DOCTYPE svg PUBLIC "-//W3C//DTD SVG 1.1//EN" "http://www.w3.org/Graphics/SVG/1.1/DTD/svg11.dtd" >
<svg xmlns="http://www.w3.org/2000/svg">
<metadata></metadata>
<defs>
<font id="BebasNeue-Bold" horiz-adv-x="600" >
<font-face units-per-em="2048" ascent="1536" descent="-512" />
<missing-glyph horiz-adv-x="234" />
<glyph horiz-adv-x="0" />
<glyph unicode="&#xd;" horiz-adv-x="234" />
<glyph horiz-adv-x="0" />
<glyph horiz-adv-x="0" />
<glyph unicode=" "  horiz-adv-x="234" />
<glyph unicode="&#x09;" horiz-adv-x="234" />
<glyph unicode="&#xa0;" horiz-adv-x="234" />
<glyph unicode="!" horiz-adv-x="287" d="M61 619v442h166v-442l-21 -384h-124zM64 0v161h160v-161h-160z" />
<glyph unicode="&#x22;" horiz-adv-x="492" d="M61 1061h160l-24 -312h-113zM272 1061h160l-24 -312h-114z" />
<glyph unicode="#" horiz-adv-x="620" d="M23 303l12 118h74l29 278h-76l12 118h76l26 244h136l-26 -244h99l26 244h136l-25 -244h77l-12 -118h-78l-29 -278h78l-13 -118h-77l-31 -303h-137l32 303h-99l-32 -303h-136l32 303h-74zM246 421h98l29 278h-98z" />
<glyph unicode="$" d="M52 270v73h157v-84q0 -58 23.5 -80.5t62.5 -22.5t63 22.5t24 80.5q0 55 -24 94t-61 73.5t-78 67t-78 73.5t-61 95t-24 129q0 107 44 173.5t132 85.5v79h137v-79q89 -18 133.5 -83.5t44.5 -175.5v-33h-158v43q0 58 -21.5 81.5t-61.5 23.5q-39 0 -61 -23.5t-22 -81.5 q0 -54 24.5 -93.5t60.5 -73.5t78 -66.5t78 -73.5t60 -94.5t24 -129.5q0 -109 -45.5 -176t-133.5 -85v-77h-137v77q-91 18 -135.5 85t-44.5 176z" />
<glyph unicode="%" horiz-adv-x="950" d="M52 550v348q0 82 40.5 126.5t119.5 44.5t120 -44.5t41 -126.5v-348q0 -82 -41 -126t-120 -44q-78 0 -119 44t-41 126zM158 542q0 -66 54 -66q26 0 40 16t14 50v364q0 35 -14 51t-40 16q-54 0 -54 -67v-364zM212 0l418 1061h99l-418 -1061h-99zM577 162v349q0 82 41 126 t120 44q78 0 119 -44t41 -126v-349q0 -82 -40.5 -125.5t-119.5 -43.5t-120 44t-41 125zM684 155q0 -67 54 -67q26 0 40.5 16t14.5 51v363q0 35 -14.5 51t-40.5 16q-55 0 -54 -67v-363z" />
<glyph unicode="&#x26;" horiz-adv-x="626" d="M62 230v108q0 82 26.5 139t89.5 84q-116 49 -116 218v19q0 129 61.5 196t187.5 67h191v-152h-188q-39 0 -62 -22.5t-23 -79.5v-66q0 -64 26.5 -88t73.5 -24h73v118h166v-118h44v-152h-44v-348q0 -39 3 -69t16 -60h-170q-6 17 -9 33t-6 51q-44 -96 -155 -96 q-92 0 -138.5 62t-46.5 180zM229 244q0 -58 23.5 -81.5t62.5 -23.5q38 0 61 21.5t26 71.5v245h-64q-58 0 -83.5 -30t-25.5 -104v-99z" />
<glyph unicode="'" horiz-adv-x="272" d="M56 1061h161l-25 -312h-114z" />
<glyph unicode="(" horiz-adv-x="380" d="M71 232v597q0 63 13 107t41 72.5t73 40.5t107 12h51v-137h-41q-39 0 -58 -18.5t-19 -76.5v-597q0 -58 19 -77t58 -19h41v-136h-51q-62 0 -107 12t-73 40.5t-41 72t-13 107.5z" />
<glyph unicode=")" horiz-adv-x="380" d="M24 0v136h41q39 0 58.5 19.5t19.5 76.5v597q0 58 -19.5 76.5t-58.5 18.5h-41v137h51q125 0 179.5 -52.5t54.5 -179.5v-597q0 -128 -54.5 -180t-179.5 -52h-51z" />
<glyph unicode="*" d="M3 796l42 128l227 -113l-40 250h137l-40 -250l226 113l42 -128l-248 -43l177 -177l-109 -80l-117 224l-116 -224l-110 80l178 177z" />
<glyph unicode="+" d="M38 471v119h203v204h118v-204h203v-119h-203v-208h-118v208h-203z" />
<glyph unicode="," horiz-adv-x="281" d="M61 0v161h160v-144l-72 -169h-68l43 152h-63z" />
<glyph unicode="-" horiz-adv-x="408" d="M53 454v152h303v-152h-303z" />
<glyph unicode="." horiz-adv-x="281" d="M61 0v161h160v-161h-160z" />
<glyph unicode="/" horiz-adv-x="577" d="M7 0l419 1061h144l-418 -1061h-145z" />
<glyph unicode="0" d="M47 255v552q0 128 65.5 197t187.5 69q123 0 188.5 -69t65.5 -197v-552q0 -129 -65.5 -198t-188.5 -69q-122 0 -187.5 69t-65.5 198zM214 244q0 -58 23 -81.5t63 -23.5t63 23.5t23 81.5v573q0 58 -23 81t-63 23q-39 0 -62.5 -23t-23.5 -81v-573z" />
<glyph unicode="1" d="M164 810v117q48 0 79.5 11t51 29t31.5 42.5t21 51.5h113v-1061h-168v810h-128z" />
<glyph unicode="2" d="M61 0v130q0 77 24 136.5t61.5 108.5t79.5 92.5t79.5 92t61.5 106t24 134.5q0 71 -23.5 96t-62.5 25t-63 -23t-24 -81v-114h-157v104q0 128 62.5 197t185.5 69t186 -69t63 -197q0 -84 -24.5 -151.5t-61.5 -123t-80 -102.5t-80 -89.5t-61.5 -82.5t-24.5 -83q0 -15 1 -23 h315v-152h-481z" />
<glyph unicode="3" d="M52 255v88h157v-99q0 -58 23.5 -81.5t62.5 -23.5t63 24.5t24 95.5v84q0 74 -26 104t-83 30h-56v152h65q47 0 73.5 24t26.5 88v59q0 71 -23.5 96t-63.5 25q-39 0 -62.5 -23t-23.5 -81v-68h-157v58q0 128 63 197t185 69q123 0 185.5 -69t62.5 -197v-28q0 -169 -116 -218 q64 -27 90 -84t26 -139v-83q0 -129 -62.5 -198t-185.5 -69q-122 0 -185 69t-63 198z" />
<glyph unicode="4" d="M21 192v152l303 717h182v-717h79v-152h-79v-192h-163v192h-322zM175 344h168v399z" />
<glyph unicode="5" d="M53 255v88h158v-99q0 -58 23.5 -80.5t62.5 -22.5t62.5 22.5t23.5 80.5v233q0 58 -23 81.5t-63 23.5q-39 0 -62.5 -23.5t-23.5 -81.5v-32h-158l31 616h439v-152h-290l-13 -253q46 77 146 77q92 0 138 -62t46 -180v-236q0 -129 -63 -198t-185 -69q-123 0 -186 69t-63 198z " />
<glyph unicode="6" d="M50 255v542q0 135 62.5 205.5t192.5 70.5q123 0 186 -69t63 -197v-28h-158v38q0 58 -23.5 81t-63.5 23q-43 0 -67.5 -27t-24.5 -103v-194q43 94 154 94q93 0 139 -62t46 -181v-193q0 -129 -65 -198t-188 -69q-122 0 -187.5 69t-65.5 198zM217 244q0 -58 23 -80.5 t63 -22.5t63 22.5t23 80.5v191q0 58 -23 81t-63 23q-39 0 -62.5 -23t-23.5 -81v-191z" />
<glyph unicode="7" d="M50 909v152h500v-146l-245 -915h-167l244 909h-332z" />
<glyph unicode="8" d="M39 255v83q0 77 24.5 134t79.5 87q-103 57 -104 214v34q0 128 66.5 197t194.5 69t194.5 -69t66.5 -197v-34q0 -157 -104 -214q55 -30 79.5 -87t24.5 -134v-83q0 -129 -66.5 -198t-194.5 -69q-127 0 -194 69t-67 198zM206 259q0 -71 27 -95.5t67 -24.5t66 24.5t28 95.5v98 q0 64 -25 92t-69 28q-43 0 -68.5 -28t-25.5 -92v-98zM206 741q0 -64 26.5 -88t67.5 -24q40 0 67 24t27 88v59q0 71 -27 96t-67 25q-39 0 -66.5 -24.5t-27.5 -96.5v-59z" />
<glyph unicode="9" d="M44 612v195q0 128 65.5 197t187.5 69q123 0 188 -69t65 -197v-544q0 -134 -62 -204.5t-193 -70.5q-123 0 -185.5 69t-62.5 198v27h157v-38q0 -58 24 -81.5t63 -23.5q43 0 67.5 27.5t24.5 103.5v194q-43 -94 -154 -94q-93 0 -139 62t-46 180zM211 626q0 -58 23.5 -81 t62.5 -23t62.5 23t23.5 81v191q0 58 -23 80.5t-63 22.5q-39 0 -62.5 -22.5t-23.5 -80.5v-191z" />
<glyph unicode=":" horiz-adv-x="281" d="M61 0v161h160v-161h-160zM61 577v161h160v-161h-160z" />
<glyph unicode=";" horiz-adv-x="281" d="M61 0v161h160v-144l-72 -169h-68l43 152h-63zM61 577v161h160v-161h-160z" />
<glyph unicode="&#x3c;" d="M45 471v119l494 181v-119l-339 -121l339 -122v-120z" />
<glyph unicode="=" d="M53 349v118h494v-118h-494zM53 594v119h494v-119h-494z" />
<glyph unicode="&#x3e;" d="M61 289v120l339 122l-339 121v119l494 -181v-119z" />
<glyph unicode="?" horiz-adv-x="545" d="M30 702v105q0 128 61.5 197t184.5 69t184.5 -69t61.5 -197q0 -70 -14.5 -121t-37 -91.5t-48 -75t-47.5 -68t-36.5 -71t-14.5 -86.5q0 -34 6 -59h-148q-9 27 -10 65q0 58 14 100.5t34 78t44 68t43.5 70.5t33 85.5t13.5 114.5q0 58 -21.5 81t-60.5 23q-40 0 -62 -23 t-22 -81v-115h-158zM175 0v161h160v-161h-160z" />
<glyph unicode="@" horiz-adv-x="1044" d="M36 440q0 140 35 263.5t105 217t174 147.5t246 54q120 0 201 -35t129.5 -96t69.5 -142t21 -173q0 -140 -29.5 -233t-74 -149t-96.5 -79t-95 -23q-58 0 -93.5 24t-40.5 76q-46 -95 -147 -91q-81 3 -115 63t-21 171l16 153q12 113 58.5 170t126.5 55q94 -2 124 -94l9 88 h146l-46 -438q-4 -38 31 -39q31 0 54 32t38.5 82t22 110.5t6.5 118.5q0 71 -17.5 130t-54.5 101t-94 65t-135 23q-102 0 -178.5 -39t-128 -112t-78 -176.5t-26.5 -232.5q0 -183 86.5 -289.5t266.5 -106.5q42 0 81.5 4.5t77.5 16t77 32t78 50.5l-13 -145q-75 -50 -150 -67.5 t-160 -17.5q-127 0 -219.5 39t-152 109t-87.5 167t-28 216zM451 443q-6 -54 12.5 -76.5t53.5 -23.5q34 -2 56.5 20t28.5 75l15 144q5 43 -15 64t-51 21q-34 1 -57 -20.5t-29 -75.5z" />
<glyph unicode="A" horiz-adv-x="616" d="M17 0l169 1061h245l169 -1061h-168l-29 192h-205l-29 -192h-152zM220 337h160l-80 536z" />
<glyph unicode="B" horiz-adv-x="614" d="M61 0v1061h251q131 0 189 -60.5t58 -183.5v-38q0 -82 -25.5 -135t-82.5 -79q68 -26 96.5 -84t28.5 -143v-86q0 -123 -64 -187.5t-189 -64.5h-262zM227 152h96q42 0 64 22.5t22 81.5v93q0 74 -25 101t-82 27h-75v-325zM227 629h65q47 0 73.5 24t26.5 88v59q0 58 -20 83.5 t-64 25.5h-81v-280z" />
<glyph unicode="C" horiz-adv-x="584" d="M47 255v552q0 128 62.5 197t185.5 69t186 -69t63 -197v-104h-158v114q0 58 -23 81t-63 23q-39 0 -62.5 -23t-23.5 -81v-573q0 -58 23 -80.5t63 -22.5t63 22.5t23 80.5v152h158v-141q0 -129 -63 -198t-186 -69t-185.5 69t-62.5 198z" />
<glyph unicode="D" horiz-adv-x="617" d="M61 0v1061h263q126 0 187.5 -67t61.5 -196v-536q0 -129 -61.5 -195.5t-187.5 -66.5h-263zM227 152h94q39 0 62 22.5t23 80.5v552q0 57 -23 79.5t-62 22.5h-94v-757z" />
<glyph unicode="E" horiz-adv-x="557" d="M61 0v1061h454v-152h-288v-296h229v-151h-229v-310h288v-152h-454z" />
<glyph unicode="F" horiz-adv-x="520" d="M61 0v1061h441v-152h-275v-319h216v-152h-216v-438h-166z" />
<glyph unicode="G" horiz-adv-x="590" d="M47 255v552q0 128 62.5 197t185.5 69t186 -69t63 -197v-104h-158v114q0 58 -23 81t-63 23q-39 0 -62.5 -23t-23.5 -81v-573q0 -58 23 -80.5t63 -22.5t63 22.5t23 80.5v196h-75v151h233v-336q0 -129 -63 -198t-186 -69t-185.5 69t-62.5 198z" />
<glyph unicode="H" horiz-adv-x="646" d="M61 0v1061h166v-455h190v455h170v-1061h-170v454h-190v-454h-166z" />
<glyph unicode="I" horiz-adv-x="287" d="M61 0v1061h166v-1061h-166z" />
<glyph unicode="J" horiz-adv-x="387" d="M15 0v152q13 -2 28.5 -2h29.5q39 0 67 19.5t28 82.5v809h167v-798q0 -80 -20 -131t-53 -81t-76 -42t-91 -12h-40.5t-39.5 3z" />
<glyph unicode="K" horiz-adv-x="626" d="M61 0v1061h166v-462l218 462h167l-232 -473l232 -588h-171l-162 423l-52 -97v-326h-166z" />
<glyph unicode="L" horiz-adv-x="513" d="M61 0v1061h166v-909h275v-152h-441z" />
<glyph unicode="M" horiz-adv-x="819" d="M59 0v1061h232l123 -753l114 753h231v-1061h-157v761l-116 -761h-157l-125 750v-750h-145z" />
<glyph unicode="N" horiz-adv-x="646" d="M59 0v1061h209l172 -635v635h148v-1061h-171l-208 768v-768h-150z" />
<glyph unicode="O" d="M47 255v552q0 128 65.5 197t187.5 69q123 0 188.5 -69t65.5 -197v-552q0 -129 -65.5 -198t-188.5 -69q-122 0 -187.5 69t-65.5 198zM214 244q0 -58 23 -81.5t63 -23.5t63 23.5t23 81.5v573q0 58 -23 81t-63 23q-39 0 -62.5 -23t-23.5 -81v-573z" />
<glyph unicode="P" horiz-adv-x="578" d="M61 0v1061h245q126 0 187.5 -67t61.5 -196v-137q0 -129 -61.5 -195.5t-187.5 -66.5h-79v-399h-166zM227 550h79q40 0 61 21.5t21 78.5v160q0 57 -21 78t-61 21h-79v-359z" />
<glyph unicode="Q" d="M47 255v552q0 128 65.5 197t187.5 69q123 0 188.5 -69t65.5 -197v-552q0 -90 -32 -149q6 -15 15.5 -18.5t30.5 -3.5h15v-149h-22q-56 0 -91.5 19t-52.5 53q-26 -8 -54.5 -13.5t-62.5 -5.5q-122 0 -187.5 69t-65.5 198zM214 244q0 -58 23 -81.5t63 -23.5t63 23.5t23 81.5 v573q0 58 -23 81t-63 23q-39 0 -62.5 -23t-23.5 -81v-573z" />
<glyph unicode="R" horiz-adv-x="609" d="M61 0v1061h251q131 0 189 -60.5t58 -183.5v-84q0 -163 -109 -215q64 -26 87.5 -84t23.5 -142v-163q0 -39 3 -69t15 -60h-170q-3 10 -6 19.5t-5 23t-3 34.5t-1 53v167q0 74 -25.5 104.5t-83.5 30.5h-58v-432h-166zM227 583h65q47 0 73.5 24.5t26.5 88.5v104q0 58 -20 83.5 t-64 25.5h-81v-326z" />
<glyph unicode="S" horiz-adv-x="566" d="M35 255v65h157v-76q0 -58 24 -80.5t63 -22.5t63 22.5t24 80.5q0 55 -24.5 96.5t-61 78.5t-78 74.5t-78 81.5t-61 100t-24.5 132q0 128 61.5 197t184.5 69t184.5 -69t61.5 -197v-34h-158v44q0 58 -22 81t-62 23q-39 0 -61 -23t-22 -81q0 -55 24.5 -96.5t60.5 -78.5t78 -74 t78 -81t60.5 -100.5t24.5 -131.5q0 -129 -63 -198t-186 -69q-122 0 -185 69t-63 198z" />
<glyph unicode="T" horiz-adv-x="539" d="M12 909v152h516v-152h-175v-909h-167v909h-174z" />
<glyph unicode="U" horiz-adv-x="603" d="M53 253v808h167v-818q0 -58 23 -81t63 -23t63 23t23 81v818h158v-808q0 -129 -63 -197.5t-185 -68.5q-123 0 -186 68.5t-63 197.5z" />
<glyph unicode="V" horiz-adv-x="609" d="M17 1061h168l127 -866l128 866h153l-164 -1061h-248z" />
<glyph unicode="W" horiz-adv-x="853" d="M23 1061h162l90 -837l79 837h161l84 -843l86 843h145l-117 -1061h-222l-60 565l-61 -565h-229z" />
<glyph unicode="X" horiz-adv-x="651" d="M23 0l186 545l-174 516h173l126 -391l128 391h155l-174 -516l186 -545h-176l-136 420l-138 -420h-156z" />
<glyph unicode="Y" d="M6 1061h175l127 -484l127 484h159l-211 -709v-352h-166v352z" />
<glyph unicode="Z" horiz-adv-x="560" d="M35 0v149l317 760h-302v152h473v-149l-317 -760h317v-152h-488z" />
<glyph unicode="[" horiz-adv-x="380" d="M71 0v1061h276v-137h-109v-788h109v-136h-276z" />
<glyph unicode="\" horiz-adv-x="577" d="M7 1061h145l418 -1061h-144z" />
<glyph unicode="]" horiz-adv-x="380" d="M33 0v136h110v788h-110v137h276v-1061h-276z" />
<glyph unicode="^" d="M30 591l211 470h118l211 -470h-133l-137 318l-136 -318h-134z" />
<glyph unicode="_" horiz-adv-x="757" d="M0 -15h758v-121h-758v121z" />
<glyph unicode="`" horiz-adv-x="378" d="M67 1285h171l103 -168h-120z" />
<glyph unicode="a" horiz-adv-x="616" d="M17 0l169 1061h245l169 -1061h-168l-29 192h-205l-29 -192h-152zM220 337h160l-80 536z" />
<glyph unicode="b" horiz-adv-x="614" d="M61 0v1061h251q131 0 189 -60.5t58 -183.5v-38q0 -82 -25.5 -135t-82.5 -79q68 -26 96.5 -84t28.5 -143v-86q0 -123 -64 -187.5t-189 -64.5h-262zM227 152h96q42 0 64 22.5t22 81.5v93q0 74 -25 101t-82 27h-75v-325zM227 629h65q47 0 73.5 24t26.5 88v59q0 58 -20 83.5 t-64 25.5h-81v-280z" />
<glyph unicode="c" horiz-adv-x="584" d="M47 255v552q0 128 62.5 197t185.5 69t186 -69t63 -197v-104h-158v114q0 58 -23 81t-63 23q-39 0 -62.5 -23t-23.5 -81v-573q0 -58 23 -80.5t63 -22.5t63 22.5t23 80.5v152h158v-141q0 -129 -63 -198t-186 -69t-185.5 69t-62.5 198z" />
<glyph unicode="d" horiz-adv-x="617" d="M61 0v1061h263q126 0 187.5 -67t61.5 -196v-536q0 -129 -61.5 -195.5t-187.5 -66.5h-263zM227 152h94q39 0 62 22.5t23 80.5v552q0 57 -23 79.5t-62 22.5h-94v-757z" />
<glyph unicode="e" horiz-adv-x="557" d="M61 0v1061h454v-152h-288v-296h229v-151h-229v-310h288v-152h-454z" />
<glyph unicode="f" horiz-adv-x="520" d="M61 0v1061h441v-152h-275v-319h216v-152h-216v-438h-166z" />
<glyph unicode="g" horiz-adv-x="590" d="M47 255v552q0 128 62.5 197t185.5 69t186 -69t63 -197v-104h-158v114q0 58 -23 81t-63 23q-39 0 -62.5 -23t-23.5 -81v-573q0 -58 23 -80.5t63 -22.5t63 22.5t23 80.5v196h-75v151h233v-336q0 -129 -63 -198t-186 -69t-185.5 69t-62.5 198z" />
<glyph unicode="h" horiz-adv-x="646" d="M61 0v1061h166v-455h190v455h170v-1061h-170v454h-190v-454h-166z" />
<glyph unicode="i" horiz-adv-x="287" d="M61 0v1061h166v-1061h-166z" />
<glyph unicode="j" horiz-adv-x="387" d="M15 0v152q13 -2 28.5 -2h29.5q39 0 67 19.5t28 82.5v809h167v-798q0 -80 -20 -131t-53 -81t-76 -42t-91 -12h-40.5t-39.5 3z" />
<glyph unicode="k" horiz-adv-x="626" d="M61 0v1061h166v-462l218 462h167l-232 -473l232 -588h-171l-162 423l-52 -97v-326h-166z" />
<glyph unicode="l" horiz-adv-x="513" d="M61 0v1061h166v-909h275v-152h-441z" />
<glyph unicode="m" horiz-adv-x="819" d="M59 0v1061h232l123 -753l114 753h231v-1061h-157v761l-116 -761h-157l-125 750v-750h-145z" />
<glyph unicode="n" horiz-adv-x="646" d="M59 0v1061h209l172 -635v635h148v-1061h-171l-208 768v-768h-150z" />
<glyph unicode="o" d="M47 255v552q0 128 65.5 197t187.5 69q123 0 188.5 -69t65.5 -197v-552q0 -129 -65.5 -198t-188.5 -69q-122 0 -187.5 69t-65.5 198zM214 244q0 -58 23 -81.5t63 -23.5t63 23.5t23 81.5v573q0 58 -23 81t-63 23q-39 0 -62.5 -23t-23.5 -81v-573z" />
<glyph unicode="p" horiz-adv-x="571" d="M61 0v1061h245q126 0 187.5 -67t61.5 -196v-137q0 -129 -61.5 -195.5t-187.5 -66.5h-79v-399h-166zM227 550h79q40 0 61 21.5t21 78.5v160q0 57 -21 78t-61 21h-79v-359z" />
<glyph unicode="q" d="M47 255v552q0 128 65.5 197t187.5 69q123 0 188.5 -69t65.5 -197v-552q0 -90 -32 -149q6 -15 15.5 -18.5t30.5 -3.5h15v-149h-22q-56 0 -91.5 19t-52.5 53q-26 -8 -54.5 -13.5t-62.5 -5.5q-122 0 -187.5 69t-65.5 198zM214 244q0 -58 23 -81.5t63 -23.5t63 23.5t23 81.5 v573q0 58 -23 81t-63 23q-39 0 -62.5 -23t-23.5 -81v-573z" />
<glyph unicode="r" horiz-adv-x="609" d="M61 0v1061h251q131 0 189 -60.5t58 -183.5v-84q0 -163 -109 -215q64 -26 87.5 -84t23.5 -142v-163q0 -39 3 -69t15 -60h-170q-3 10 -6 19.5t-5 23t-3 34.5t-1 53v167q0 74 -25.5 104.5t-83.5 30.5h-58v-432h-166zM227 583h65q47 0 73.5 24.5t26.5 88.5v104q0 58 -20 83.5 t-64 25.5h-81v-326z" />
<glyph unicode="s" horiz-adv-x="566" d="M35 255v65h157v-76q0 -58 24 -80.5t63 -22.5t63 22.5t24 80.5q0 55 -24.5 96.5t-61 78.5t-78 74.5t-78 81.5t-61 100t-24.5 132q0 128 61.5 197t184.5 69t184.5 -69t61.5 -197v-34h-158v44q0 58 -22 81t-62 23q-39 0 -61 -23t-22 -81q0 -55 24.5 -96.5t60.5 -78.5t78 -74 t78 -81t60.5 -100.5t24.5 -131.5q0 -129 -63 -198t-186 -69q-122 0 -185 69t-63 198z" />
<glyph unicode="t" horiz-adv-x="539" d="M12 909v152h516v-152h-175v-909h-167v909h-174z" />
<glyph unicode="u" horiz-adv-x="603" d="M53 253v808h167v-818q0 -58 23 -81t63 -23t63 23t23 81v818h158v-808q0 -129 -63 -197.5t-185 -68.5q-123 0 -186 68.5t-63 197.5z" />
<glyph unicode="v" horiz-adv-x="609" d="M17 1061h168l127 -866l128 866h153l-164 -1061h-248z" />
<glyph unicode="w" horiz-adv-x="853" d="M23 1061h162l90 -837l79 837h161l84 -843l86 843h145l-117 -1061h-222l-60 565l-61 -565h-229z" />
<glyph unicode="x" horiz-adv-x="651" d="M23 0l186 545l-174 516h173l126 -391l128 391h155l-174 -516l186 -545h-176l-136 420l-138 -420h-156z" />
<glyph unicode="y" d="M6 1061h175l127 -484l127 484h159l-211 -709v-352h-166v352z" />
<glyph unicode="z" horiz-adv-x="560" d="M35 0v149l317 760h-302v152h473v-149l-317 -760h317v-152h-488z" />
<glyph unicode="{" horiz-adv-x="389" d="M17 462v137q49 0 64.5 18.5t18.5 72.5l12 202q6 87 51.5 128t116.5 41h86v-137h-25q-39 0 -58.5 -21.5t-22.5 -85.5l-7 -152q-1 -21 -5.5 -42t-15.5 -39.5t-29.5 -32t-47.5 -20.5q29 -8 47.5 -22.5t29.5 -33t15.5 -38.5t5.5 -41l7 -152q3 -63 22.5 -85.5t58.5 -22.5h25 v-136h-86q-71 0 -116.5 41t-51.5 127l-12 203q-3 54 -19 72.5t-64 18.5z" />
<glyph unicode="|" horiz-adv-x="757" d="M318 -98v1258h136v-1258h-136z" />
<glyph unicode="}" horiz-adv-x="389" d="M24 0v136h25q39 0 58 22.5t22 85.5l7 152q2 42 21.5 81t77.5 54q-58 14 -77.5 53t-21.5 81l-7 152q-3 64 -22 85.5t-58 21.5h-25v137h85q71 0 117 -41t52 -128l11 -202q3 -54 19 -72.5t65 -18.5v-137q-49 0 -65 -19t-19 -72l-11 -203q-6 -87 -51.5 -127.5t-117.5 -40.5 h-85z" />
<glyph unicode="~" d="M12 503q27 41 51 67t45 42t42 21.5t42 5.5q31 0 59.5 -14.5t56 -31.5t52.5 -31.5t49 -14.5q26 0 45.5 19t54.5 67l79 -82q-54 -80 -96 -105t-84 -25q-31 0 -59.5 14.5t-56 32t-52.5 32t-49 14.5q-26 0 -45.5 -19t-54.5 -67z" />
<glyph unicode="&#xa1;" horiz-adv-x="287" d="M61 0v443l21 383h124l21 -383v-443h-166zM64 901v160h160v-160h-160z" />
<glyph unicode="&#xa2;" d="M55 315v431q0 107 44.5 173t132.5 86v78h137v-77q91 -18 136.5 -84.5t45.5 -175.5v-73h-157v83q0 58 -23.5 81.5t-62.5 23.5t-63 -23.5t-24 -81.5v-451q0 -58 23.5 -81t63.5 -23q39 0 62.5 23t23.5 81v121h157v-111q0 -109 -45.5 -176.5t-136.5 -83.5v-78h-137v79 q-88 19 -132.5 84.5t-44.5 174.5z" />
<glyph unicode="&#xa3;" d="M45 0v146q59 0 100 45t44 127h-122v129h101q-13 39 -31.5 74t-35.5 75t-28.5 90t-11.5 121q0 128 61.5 197t183.5 69q123 0 184 -69t61 -197v-105h-157v115q0 58 -22 81t-61 23t-61.5 -23t-22.5 -81q0 -71 12.5 -121.5t28 -91t33 -77.5t28.5 -80h183v-129h-172 q-6 -58 -28.5 -98.5t-56.5 -67.5h286v-152h-496z" />
<glyph unicode="&#xa5;" d="M10 1061h175l123 -468l123 468h159l-194 -650h126v-84h-139v-68h139v-83h-139v-176h-166v176h-139v83h139v68h-139v84h125z" />
<glyph unicode="&#xa8;" horiz-adv-x="378" d="M1 1117v145h146v-145h-146zM232 1117v145h145v-145h-145z" />
<glyph unicode="&#xa9;" horiz-adv-x="1115" d="M30 531q0 118 40.5 217t111 171.5t167 113t209.5 40.5q112 0 209 -40.5t167.5 -113t110.5 -171.5t40 -217q0 -119 -40 -218t-110.5 -172t-167.5 -113t-209 -40q-113 0 -209.5 40t-167 113t-111 172t-40.5 218zM139 531q0 -96 32 -175.5t88 -138t132.5 -91t166.5 -32.5 t166 32.5t132 91t88 138t32 175.5q0 95 -32 174.5t-88 138t-132.5 91t-165.5 32.5q-90 0 -166.5 -32.5t-132.5 -91t-88 -138t-32 -174.5zM380 382v294q0 91 42.5 139.5t128.5 48.5q87 0 129.5 -48.5t42.5 -139.5v-54h-110v63q0 39 -15.5 56t-42.5 17t-43 -17t-16 -56v-309 q0 -39 16 -55t43 -16t42.5 16t15.5 55v91h110v-85q0 -90 -42.5 -137.5t-129.5 -47.5q-86 0 -128.5 47.5t-42.5 137.5z" />
<glyph unicode="&#xab;" horiz-adv-x="537" d="M24 532l94 389h150l-92 -389l92 -414h-150zM270 532l94 389h150l-93 -389l93 -414h-150z" />
<glyph unicode="&#xad;" horiz-adv-x="408" d="M53 454v152h303v-152h-303z" />
<glyph unicode="&#xae;" horiz-adv-x="1115" d="M30 531q0 118 40.5 217t111 171.5t167 113t209.5 40.5q112 0 209 -40.5t167.5 -113t110.5 -171.5t40 -217q0 -119 -40 -218t-110.5 -172t-167.5 -113t-209 -40q-113 0 -209.5 40t-167 113t-111 172t-40.5 218zM139 531q0 -96 32 -175.5t88 -138t132.5 -91t166.5 -32.5 t166 32.5t132 91t88 138t32 175.5q0 95 -32 174.5t-88 138t-132.5 91t-165.5 32.5q-90 0 -166.5 -32.5t-132.5 -91t-88 -138t-32 -174.5zM391 206v649h176q89 0 130 -42t41 -128v-14q0 -115 -79 -149q44 -19 61.5 -59t17.5 -97v-71q0 -26 2.5 -47t11.5 -42h-119 q-3 8 -5 14.5t-2.5 16t-1.5 24t-1 36.5v70q0 53 -19 73.5t-59 20.5h-39v-255h-115zM506 567h48q31 0 50 16.5t19 60.5v27q0 77 -62 78h-55v-182z" />
<glyph unicode="&#xb4;" horiz-adv-x="378" d="M41 1117l103 168h164l-155 -168h-112z" />
<glyph unicode="&#xb8;" horiz-adv-x="378" d="M39 -120h113v-12q0 -17 10 -23.5t23 -6.5q38 0 38 36q0 39 -55 39h-15v108h73v-80q56 0 84 -16t28 -55q0 -31 -11.5 -49t-31.5 -28t-48.5 -13t-61.5 -3q-62 0 -104 17.5t-42 70.5v15z" />
<glyph unicode="&#xbb;" horiz-adv-x="537" d="M24 118l93 414l-93 389h151l93 -389l-93 -414h-151zM270 118l92 414l-92 389h150l94 -389l-94 -414h-150z" />
<glyph unicode="&#xbf;" horiz-adv-x="545" d="M24 255q0 68 14.5 119.5t36.5 92.5t48 75t47.5 67t36 71.5t14.5 86.5q0 33 -6 59h149q9 -28 9 -65q0 -58 -13.5 -100t-33.5 -78t-44 -68.5t-44 -70.5t-33.5 -86.5t-13.5 -113.5q0 -58 22 -81.5t62 -23.5q39 0 60.5 23.5t21.5 81.5v115h158v-104q0 -129 -61.5 -198 t-183.5 -69q-123 0 -184.5 69t-61.5 198zM211 901v160h160v-160h-160z" />
<glyph unicode="&#xc0;" horiz-adv-x="616" d="M17 0l169 1061h245l169 -1061h-168l-29 192h-205l-29 -192h-152zM126 1285h171l103 -168h-120zM220 337h160l-80 536z" />
<glyph unicode="&#xc1;" horiz-adv-x="616" d="M17 0l169 1061h245l169 -1061h-168l-29 192h-205l-29 -192h-152zM220 337h160l-80 536zM220 1117l103 168h163l-154 -168h-112z" />
<glyph unicode="&#xc2;" horiz-adv-x="616" d="M17 0l169 1061h245l169 -1061h-168l-29 192h-205l-29 -192h-152zM98 1117l135 168h150l135 -168h-142l-68 83l-67 -83h-143zM220 337h160l-80 536z" />
<glyph unicode="&#xc3;" horiz-adv-x="616" d="M17 0l169 1061h245l169 -1061h-168l-29 192h-205l-29 -192h-152zM103 1167q21 58 55 80.5t74 22.5q24 0 41.5 -6t33.5 -13t30.5 -13t31.5 -6q21 0 36 8t29 36l80 -56q-22 -57 -56 -80t-73 -23q-25 0 -42 6t-33 13t-30.5 13t-30.5 6q-22 0 -37 -7.5t-28 -36.5zM220 337 h160l-80 536z" />
<glyph unicode="&#xc7;" horiz-adv-x="584" d="M47 255v552q0 128 62.5 197t185.5 69t186 -69t63 -197v-104h-158v114q0 58 -23 81t-63 23q-39 0 -62.5 -23t-23.5 -81v-573q0 -58 23 -80.5t63 -22.5t63 22.5t23 80.5v152h158v-141q0 -119 -54.5 -187.5t-160.5 -77.5v-49q56 0 84 -16t28 -55q0 -31 -11.5 -49t-32 -28 t-48.5 -13t-61 -3q-62 0 -103.5 17.5t-41.5 70.5v15h112v-12q0 -17 10.5 -23.5t22.5 -6.5q38 0 38 36q0 39 -54 39h-16v78q-104 10 -156.5 77.5t-52.5 186.5z" />
<glyph unicode="&#xc8;" horiz-adv-x="557" d="M61 0v1061h454v-152h-288v-296h229v-151h-229v-310h288v-152h-454zM103 1285h172l102 -168h-119z" />
<glyph unicode="&#xc9;" horiz-adv-x="557" d="M61 0v1061h454v-152h-288v-296h229v-151h-229v-310h288v-152h-454zM198 1117l104 168h163l-154 -168h-113z" />
<glyph unicode="&#xca;" horiz-adv-x="557" d="M61 0v1061h454v-152h-288v-296h229v-151h-229v-310h288v-152h-454zM75 1117l136 168h149l136 -168h-143l-68 83l-67 -83h-143z" />
<glyph unicode="&#xcd;" horiz-adv-x="287" d="M56 1117l103 168h164l-155 -168h-112zM61 0v1061h166v-1061h-166z" />
<glyph unicode="&#xcf;" horiz-adv-x="287" d="M-44 1117v145h145v-145h-145zM61 0v1061h166v-1061h-166zM186 1117v145h146v-145h-146z" />
<glyph unicode="&#xd1;" horiz-adv-x="646" d="M59 0v1061h209l172 -635v635h148v-1061h-171l-208 768v-768h-150zM118 1167q22 58 56 80.5t73 22.5q25 0 42 -6t33 -13t30 -13t31 -6q22 0 37 8t28 36l81 -56q-21 -57 -55 -80t-74 -23q-24 0 -41.5 6t-33.5 13t-30.5 13t-31.5 6q-21 0 -36 -7.5t-29 -36.5z" />
<glyph unicode="&#xd2;" d="M47 255v552q0 128 65.5 197t187.5 69q123 0 188.5 -69t65.5 -197v-552q0 -129 -65.5 -198t-188.5 -69q-122 0 -187.5 69t-65.5 198zM117 1285h171l103 -168h-119zM214 244q0 -58 23 -81.5t63 -23.5t63 23.5t23 81.5v573q0 58 -23 81t-63 23q-39 0 -62.5 -23t-23.5 -81 v-573z" />
<glyph unicode="&#xd3;" d="M47 255v552q0 128 65.5 197t187.5 69q123 0 188.5 -69t65.5 -197v-552q0 -129 -65.5 -198t-188.5 -69q-122 0 -187.5 69t-65.5 198zM212 1117l103 168h164l-155 -168h-112zM214 244q0 -58 23 -81.5t63 -23.5t63 23.5t23 81.5v573q0 58 -23 81t-63 23q-39 0 -62.5 -23 t-23.5 -81v-573z" />
<glyph unicode="&#xd4;" d="M47 255v552q0 128 65.5 197t187.5 69q123 0 188.5 -69t65.5 -197v-552q0 -129 -65.5 -198t-188.5 -69q-122 0 -187.5 69t-65.5 198zM90 1117l134 168h150l135 -168h-142l-69 83l-66 -83h-142zM214 244q0 -58 23 -81.5t63 -23.5t63 23.5t23 81.5v573q0 58 -23 81t-63 23 q-39 0 -62.5 -23t-23.5 -81v-573z" />
<glyph unicode="&#xd5;" d="M47 255v552q0 128 65.5 197t187.5 69q123 0 188.5 -69t65.5 -197v-552q0 -129 -65.5 -198t-188.5 -69q-122 0 -187.5 69t-65.5 198zM95 1167q22 58 56 80.5t73 22.5q25 0 42 -6t33 -13t30 -13t31 -6q22 0 37 8t29 36l80 -56q-21 -57 -55 -80t-74 -23q-24 0 -41.5 6 t-33.5 13t-30 13t-31 6q-21 0 -36.5 -7.5t-28.5 -36.5zM214 244q0 -58 23 -81.5t63 -23.5t63 23.5t23 81.5v573q0 58 -23 81t-63 23q-39 0 -62.5 -23t-23.5 -81v-573z" />
<glyph unicode="&#xda;" horiz-adv-x="603" d="M53 253v808h167v-818q0 -58 23 -81t63 -23t63 23t23 81v818h158v-808q0 -129 -63 -197.5t-185 -68.5q-123 0 -186 68.5t-63 197.5zM215 1117l103 168h164l-155 -168h-112z" />
<glyph unicode="&#xdc;" horiz-adv-x="603" d="M53 253v808h167v-818q0 -58 23 -81t63 -23t63 23t23 81v818h158v-808q0 -129 -63 -197.5t-185 -68.5q-123 0 -186 68.5t-63 197.5zM117 1117v145h145v-145h-145zM347 1117v145h146v-145h-146z" />
<glyph unicode="&#xe0;" horiz-adv-x="616" d="M17 0l169 1061h245l169 -1061h-168l-29 192h-205l-29 -192h-152zM126 1285h171l103 -168h-120zM220 337h160l-80 536z" />
<glyph unicode="&#xe1;" horiz-adv-x="616" d="M17 0l169 1061h245l169 -1061h-168l-29 192h-205l-29 -192h-152zM220 337h160l-80 536zM220 1117l103 168h163l-154 -168h-112z" />
<glyph unicode="&#xe2;" horiz-adv-x="616" d="M17 0l169 1061h245l169 -1061h-168l-29 192h-205l-29 -192h-152zM98 1117l135 168h150l135 -168h-142l-68 83l-67 -83h-143zM220 337h160l-80 536z" />
<glyph unicode="&#xe3;" horiz-adv-x="616" d="M17 0l169 1061h245l169 -1061h-168l-29 192h-205l-29 -192h-152zM103 1167q21 58 55 80.5t74 22.5q24 0 41.5 -6t33.5 -13t30.5 -13t31.5 -6q21 0 36 8t29 36l80 -56q-22 -57 -56 -80t-73 -23q-25 0 -42 6t-33 13t-30.5 13t-30.5 6q-22 0 -37 -7.5t-28 -36.5zM220 337 h160l-80 536z" />
<glyph unicode="&#xe7;" horiz-adv-x="584" d="M47 255v552q0 128 62.5 197t185.5 69t186 -69t63 -197v-104h-158v114q0 58 -23 81t-63 23q-39 0 -62.5 -23t-23.5 -81v-573q0 -58 23 -80.5t63 -22.5t63 22.5t23 80.5v152h158v-141q0 -119 -54.5 -187.5t-160.5 -77.5v-49q56 0 84 -16t28 -55q0 -31 -11.5 -49t-32 -28 t-48.5 -13t-61 -3q-62 0 -103.5 17.5t-41.5 70.5v15h112v-12q0 -17 10.5 -23.5t22.5 -6.5q38 0 38 36q0 39 -54 39h-16v78q-104 10 -156.5 77.5t-52.5 186.5z" />
<glyph unicode="&#xe8;" horiz-adv-x="557" d="M61 0v1061h454v-152h-288v-296h229v-151h-229v-310h288v-152h-454zM103 1285h172l102 -168h-119z" />
<glyph unicode="&#xe9;" horiz-adv-x="557" d="M61 0v1061h454v-152h-288v-296h229v-151h-229v-310h288v-152h-454zM198 1117l104 168h163l-154 -168h-113z" />
<glyph unicode="&#xea;" horiz-adv-x="557" d="M61 0v1061h454v-152h-288v-296h229v-151h-229v-310h288v-152h-454zM75 1117l136 168h149l136 -168h-143l-68 83l-67 -83h-143z" />
<glyph unicode="&#xed;" horiz-adv-x="287" d="M56 1117l103 168h164l-155 -168h-112zM61 0v1061h166v-1061h-166z" />
<glyph unicode="&#xef;" horiz-adv-x="287" d="M-44 1117v145h145v-145h-145zM61 0v1061h166v-1061h-166zM186 1117v145h146v-145h-146z" />
<glyph unicode="&#xf1;" horiz-adv-x="646" d="M59 0v1061h209l172 -635v635h148v-1061h-171l-208 768v-768h-150zM118 1167q22 58 56 80.5t73 22.5q25 0 42 -6t33 -13t30 -13t31 -6q22 0 37 8t28 36l81 -56q-21 -57 -55 -80t-74 -23q-24 0 -41.5 6t-33.5 13t-30.5 13t-31.5 6q-21 0 -36 -7.5t-29 -36.5z" />
<glyph unicode="&#xf2;" d="M47 255v552q0 128 65.5 197t187.5 69q123 0 188.5 -69t65.5 -197v-552q0 -129 -65.5 -198t-188.5 -69q-122 0 -187.5 69t-65.5 198zM117 1285h171l103 -168h-119zM214 244q0 -58 23 -81.5t63 -23.5t63 23.5t23 81.5v573q0 58 -23 81t-63 23q-39 0 -62.5 -23t-23.5 -81 v-573z" />
<glyph unicode="&#xf3;" d="M47 255v552q0 128 65.5 197t187.5 69q123 0 188.5 -69t65.5 -197v-552q0 -129 -65.5 -198t-188.5 -69q-122 0 -187.5 69t-65.5 198zM212 1117l103 168h164l-155 -168h-112zM214 244q0 -58 23 -81.5t63 -23.5t63 23.5t23 81.5v573q0 58 -23 81t-63 23q-39 0 -62.5 -23 t-23.5 -81v-573z" />
<glyph unicode="&#xf4;" d="M47 255v552q0 128 65.5 197t187.5 69q123 0 188.5 -69t65.5 -197v-552q0 -129 -65.5 -198t-188.5 -69q-122 0 -187.5 69t-65.5 198zM90 1117l134 168h150l135 -168h-142l-69 83l-66 -83h-142zM214 244q0 -58 23 -81.5t63 -23.5t63 23.5t23 81.5v573q0 58 -23 81t-63 23 q-39 0 -62.5 -23t-23.5 -81v-573z" />
<glyph unicode="&#xf5;" d="M47 255v552q0 128 65.5 197t187.5 69q123 0 188.5 -69t65.5 -197v-552q0 -129 -65.5 -198t-188.5 -69q-122 0 -187.5 69t-65.5 198zM95 1167q22 58 56 80.5t73 22.5q25 0 42 -6t33 -13t30 -13t31 -6q22 0 37 8t29 36l80 -56q-21 -57 -55 -80t-74 -23q-24 0 -41.5 6 t-33.5 13t-30 13t-31 6q-21 0 -36.5 -7.5t-28.5 -36.5zM214 244q0 -58 23 -81.5t63 -23.5t63 23.5t23 81.5v573q0 58 -23 81t-63 23q-39 0 -62.5 -23t-23.5 -81v-573z" />
<glyph unicode="&#xfa;" horiz-adv-x="603" d="M53 253v808h167v-818q0 -58 23 -81t63 -23t63 23t23 81v818h158v-808q0 -129 -63 -197.5t-185 -68.5q-123 0 -186 68.5t-63 197.5zM215 1117l103 168h164l-155 -168h-112z" />
<glyph unicode="&#xfc;" horiz-adv-x="603" d="M53 253v808h167v-818q0 -58 23 -81t63 -23t63 23t23 81v818h158v-808q0 -129 -63 -197.5t-185 -68.5q-123 0 -186 68.5t-63 197.5zM117 1117v145h145v-145h-145zM347 1117v145h146v-145h-146z" />
<glyph unicode="&#x13f;" horiz-adv-x="513" d="M61 0v1061h166v-909h275v-152h-441zM318 450v160h161v-160h-161z" />
<glyph unicode="&#x140;" horiz-adv-x="513" d="M61 0v1061h166v-909h275v-152h-441zM318 450v160h161v-160h-161z" />
<glyph unicode="&#x2c6;" horiz-adv-x="378" d="M-20 1117l135 168h150l135 -168h-142l-69 83l-66 -83h-143z" />
<glyph unicode="&#x2da;" horiz-adv-x="378" d="M68 1234q0 51 35 86t86 35q52 0 87 -35t35 -86q0 -52 -35 -87t-87 -35q-51 0 -86 35t-35 87zM144 1234q0 -20 12.5 -33t32.5 -13t33 13t13 33t-13 32.5t-33 12.5t-32.5 -12.5t-12.5 -32.5z" />
<glyph unicode="&#x2dc;" horiz-adv-x="378" d="M-15 1167q22 58 55.5 80.5t73.5 22.5q24 0 41 -6t33 -13t30.5 -13t31.5 -6q22 0 37 8t28 36l81 -56q-22 -57 -56 -80t-74 -23q-24 0 -41 6t-33 13t-30.5 13t-31.5 6q-21 0 -36.5 -7.5t-28.5 -36.5z" />
<glyph unicode="&#x2000;" horiz-adv-x="682" />
<glyph unicode="&#x2001;" horiz-adv-x="1365" />
<glyph unicode="&#x2002;" horiz-adv-x="682" />
<glyph unicode="&#x2003;" horiz-adv-x="1365" />
<glyph unicode="&#x2004;" horiz-adv-x="455" />
<glyph unicode="&#x2005;" horiz-adv-x="341" />
<glyph unicode="&#x2006;" horiz-adv-x="227" />
<glyph unicode="&#x2007;" horiz-adv-x="227" />
<glyph unicode="&#x2008;" horiz-adv-x="170" />
<glyph unicode="&#x2009;" horiz-adv-x="273" />
<glyph unicode="&#x200a;" horiz-adv-x="75" />
<glyph unicode="&#x2010;" horiz-adv-x="408" d="M53 454v152h303v-152h-303z" />
<glyph unicode="&#x2011;" horiz-adv-x="408" d="M53 454v152h303v-152h-303z" />
<glyph unicode="&#x2012;" horiz-adv-x="408" d="M53 454v152h303v-152h-303z" />
<glyph unicode="&#x2013;" horiz-adv-x="757" d="M0 462v137h758v-137h-758z" />
<glyph unicode="&#x2014;" horiz-adv-x="1515" d="M0 462v137h1516v-137h-1516z" />
<glyph unicode="&#x2018;" horiz-adv-x="281" d="M61 749v143l72 169h68l-43 -152h63v-160h-160z" />
<glyph unicode="&#x2019;" horiz-adv-x="281" d="M61 901v160h160v-144l-72 -168h-68l43 152h-63z" />
<glyph unicode="&#x201a;" horiz-adv-x="281" d="M61 0v161h160v-144l-72 -169h-68l43 152h-63z" />
<glyph unicode="&#x201c;" horiz-adv-x="502" d="M61 749v143l72 169h68l-43 -152h63v-160h-160zM282 749v143l72 169h69l-44 -152h64v-160h-161z" />
<glyph unicode="&#x201d;" horiz-adv-x="502" d="M61 901v160h160v-144l-72 -168h-68l43 152h-63zM282 901v160h161v-144l-73 -168h-68l44 152h-64z" />
<glyph unicode="&#x201e;" horiz-adv-x="502" d="M61 0v161h160v-144l-72 -169h-68l43 152h-63zM282 0v161h161v-144l-73 -169h-68l44 152h-64z" />
<glyph unicode="&#x2022;" d="M90 531q0 43 16.5 82t44.5 66.5t66.5 44.5t82.5 17t82.5 -17t66.5 -44.5t45 -66.5t17 -82q0 -44 -17 -83t-45 -67t-66.5 -44.5t-82.5 -16.5q-43 0 -82 16.5t-67 44.5t-44.5 67t-16.5 83z" />
<glyph unicode="&#x2026;" horiz-adv-x="723" d="M61 0v161h160v-161h-160zM282 0v161h161v-161h-161zM503 0v161h161v-161h-161z" />
<glyph unicode="&#x202f;" horiz-adv-x="273" />
<glyph unicode="&#x2039;" horiz-adv-x="296" d="M24 532l91 403h158l-89 -403l89 -428h-158z" />
<glyph unicode="&#x203a;" horiz-adv-x="296" d="M24 104l90 428l-90 403h158l91 -403l-91 -428h-158z" />
<glyph unicode="&#x205f;" horiz-adv-x="341" />
<glyph unicode="&#x20ac;" d="M29 409v84h42v83h-42v83h42v148q0 128 60.5 197t183.5 69t183.5 -69t60.5 -197v-78h-157v88q0 58 -21.5 81t-60.5 23q-40 0 -61 -23t-21 -81v-158h233v-83h-233v-83h233v-84h-233v-165q0 -58 21 -80.5t61 -22.5q39 0 60.5 22.5t21.5 80.5v96h157v-85q0 -129 -60.5 -198 t-183.5 -69t-183.5 69t-60.5 198v154h-42z" />
<glyph unicode="&#x2122;" horiz-adv-x="888" d="M15 964v97h328v-97h-111v-442h-106v442h-111zM406 522v539h148l78 -379l71 379h147v-539h-100v383l-71 -383h-100l-80 380v-380h-93z" />
<glyph unicode="&#x25fc;" horiz-adv-x="1060" d="M0 0v1061h1061v-1061h-1061z" />
<glyph d="M47 255v552q0 128 65.5 197t187.5 69q123 0 188.5 -69t65.5 -197v-552q0 -129 -65.5 -198t-188.5 -69q-122 0 -187.5 69t-65.5 198zM214 244q0 -58 23 -81.5t63 -23.5t63 23.5t23 81.5v573q0 58 -23 81t-63 23q-39 0 -62.5 -23t-23.5 -81v-573z" />
<glyph horiz-adv-x="378" d="M23 810v117q49 0 79.5 11t50 29t32 42.5t21.5 51.5h112v-1061h-166v810h-129z" />
<glyph horiz-adv-x="558" d="M39 0v130q0 77 24.5 136.5t61.5 108.5t79.5 92.5t79.5 92t61.5 106t24.5 134.5q0 71 -23.5 96t-63.5 25q-39 0 -62.5 -23t-23.5 -81v-114h-158v104q0 128 63 197t186 69t185.5 -69t62.5 -197q0 -87 -26.5 -157t-65.5 -127.5t-84.5 -105t-82 -91t-58 -86t-13.5 -88.5h316 v-152h-483z" />
<glyph horiz-adv-x="578" d="M41 255v88h157v-99q0 -58 24 -81.5t63 -23.5t62.5 24.5t23.5 95.5v84q0 74 -25.5 104t-83.5 30h-56v152h66q46 0 72.5 24t26.5 88v59q0 71 -23.5 96t-62.5 25t-63 -23t-24 -81v-68h-157v58q0 128 62.5 197t185.5 69t186 -69t63 -197v-28q0 -169 -117 -218 q64 -27 90.5 -84t26.5 -139v-83q0 -129 -63 -198t-186 -69t-185.5 69t-62.5 198z" />
<glyph horiz-adv-x="601" d="M21 192v152l303 717h182v-717h79v-152h-79v-192h-166v192h-319zM175 344h165v392z" />
<glyph horiz-adv-x="580" d="M42 255v88h158v-99q0 -58 23.5 -80.5t62.5 -22.5q40 0 63.5 22.5t23.5 80.5v233q0 58 -23.5 81.5t-63.5 23.5q-39 0 -62.5 -23.5t-23.5 -81.5v-32h-158l31 616h439v-152h-289l-14 -253q47 77 145 77q93 0 139 -62t46 -180v-236q0 -129 -62.5 -198t-185.5 -69t-186 69 t-63 198z" />
<glyph horiz-adv-x="593" d="M47 255v542q0 135 62 205.5t193 70.5q123 0 185.5 -69t62.5 -197v-28h-158v38q0 58 -23 81t-63 23q-43 0 -67.5 -27t-24.5 -103v-194q44 94 155 94q92 0 138.5 -62t46.5 -181v-193q0 -129 -65.5 -198t-188.5 -69q-122 0 -187.5 69t-65.5 198zM214 244q0 -58 23 -80.5 t63 -22.5t63 22.5t23 80.5v191q0 58 -23 81t-63 23q-39 0 -62.5 -23t-23.5 -81v-191z" />
<glyph horiz-adv-x="515" d="M15 909v152h485v-146l-230 -915h-167l231 915v-6h-319z" />
<glyph horiz-adv-x="603" d="M41 255v83q0 77 24.5 134t78.5 87q-103 57 -103 214v34q0 128 67 197t194 69t193.5 -69t66.5 -197v-34q0 -157 -102 -214q54 -30 78 -87t24 -134v-83q0 -129 -66.5 -198t-193.5 -69t-194 69t-67 198zM208 259q0 -71 27 -95.5t67 -24.5q39 0 65.5 24.5t28.5 95.5v98 q0 64 -25 92t-69 28t-69 -28t-25 -92v-98zM208 741q0 -64 26 -88t68 -24q39 0 66.5 24t27.5 88v59q0 71 -27.5 96t-66.5 25t-66.5 -24.5t-27.5 -96.5v-59z" />
<glyph horiz-adv-x="593" d="M41 612v195q0 128 65 197t188 69t188 -69t65 -197v-544q0 -134 -62 -204.5t-193 -70.5q-123 0 -185.5 69t-62.5 198v27h157v-38q0 -58 24 -81.5t63 -23.5q44 0 68 27.5t24 103.5v194q-43 -94 -154 -94q-93 0 -139 62t-46 180zM208 626q0 -58 23.5 -81t62.5 -23t62.5 23 t23.5 81v191q0 58 -23 80.5t-63 22.5q-39 0 -62.5 -22.5t-23.5 -80.5v-191z" />
</font>
</defs>
</svg>
