<?xml version="1.0" standalone="no"?>
<!DOCTYPE svg PUBLIC "-//W3C//DTD SVG 1.1//EN" "http://www.w3.org/Graphics/SVG/1.1/DTD/svg11.dtd" >
<svg xmlns="http://www.w3.org/2000/svg">
<metadata></metadata>
<defs>
<font id="BebasNeue" horiz-adv-x="589" >
<font-face units-per-em="2048" ascent="1536" descent="-512" />
<missing-glyph horiz-adv-x="234" />
<glyph horiz-adv-x="0" />
<glyph unicode="&#xd;" horiz-adv-x="234" />
<glyph horiz-adv-x="0" />
<glyph horiz-adv-x="0" />
<glyph unicode=" "  horiz-adv-x="234" />
<glyph unicode="&#x09;" horiz-adv-x="234" />
<glyph unicode="&#xa0;" horiz-adv-x="234" />
<glyph unicode="!" horiz-adv-x="239" d="M61 562v499h118v-499l-15 -327h-89zM62 0v147h114v-147h-114z" />
<glyph unicode="&#x22;" horiz-adv-x="401" d="M61 1061h114l-17 -286h-83zM227 1061h114l-17 -286h-81z" />
<glyph unicode="#" horiz-adv-x="623" d="M35 320l9 85h86l34 311h-90l10 84h87l27 261h97l-27 -261h140l27 261h97l-27 -261h85l-10 -84h-84l-32 -311h84l-9 -85h-85l-33 -320h-97l33 320h-137l-35 -320h-97l35 320h-88zM227 405h140l32 311h-139z" />
<glyph unicode="$" horiz-adv-x="586" d="M55 265v65h110v-72q0 -73 30.5 -112t93.5 -39q65 0 95 39t30 112q0 59 -27 101.5t-66 77t-84.5 67t-85 73t-66 93t-26.5 126.5q0 108 45.5 176.5t141.5 83.5v85h97v-85q97 -13 142.5 -82.5t45.5 -177.5v-29h-111v36q0 71 -30 111.5t-93 40.5q-64 0 -92.5 -40t-28.5 -112 q0 -59 26.5 -101.5t66 -77t85.5 -67t85.5 -73t66 -92.5t26.5 -127q0 -107 -46 -177.5t-143 -84.5v-80h-97v80q-100 13 -145.5 83t-45.5 179z" />
<glyph unicode="%" horiz-adv-x="933" d="M55 561v334q0 77 37.5 124.5t113.5 47.5q77 0 114 -47t37 -125v-334q0 -77 -37 -124.5t-114 -47.5q-76 0 -113.5 47t-37.5 125zM130 555q0 -44 17.5 -69.5t58.5 -25.5q40 0 58 25.5t18 69.5v346q0 43 -18 70t-58 27t-58 -27t-18 -70v-346zM218 0l418 1061h71l-418 -1061 h-71zM576 166v334q0 77 37 123.5t114 46.5q79 0 115.5 -46.5t36.5 -123.5v-334q0 -76 -36 -123t-116 -47q-77 0 -114 47t-37 123zM652 161q0 -44 18 -70.5t57 -26.5q40 0 58 26.5t18 70.5v344q0 43 -18 69t-58 26q-39 0 -57 -26t-18 -69v-344z" />
<glyph unicode="&#x26;" horiz-adv-x="617" d="M62 233v104q0 78 29.5 136.5t96.5 84.5q-65 23 -95.5 79.5t-30.5 137.5v23q0 128 61.5 195.5t188.5 67.5h171v-108h-168q-68 0 -102 -36t-34 -114v-53q0 -68 32.5 -104.5t90.5 -39.5h119v118h117v-118h52v-106h-52v-365q0 -40 3 -72.5t20 -62.5h-120q-9 20 -13.5 39 t-6.5 53q-23 -51 -66 -76.5t-100 -25.5q-100 0 -146.5 65t-46.5 178zM179 243q0 -71 30.5 -108.5t92.5 -37.5q52 0 84 29.5t35 91.5v282h-110q-132 -4 -132 -160v-97z" />
<glyph unicode="'" horiz-adv-x="228" d="M58 1061h113l-16 -286h-82z" />
<glyph unicode="(" horiz-adv-x="364" d="M68 233v594q0 120 48.5 177t169.5 57h43v-97h-35q-62 0 -85.5 -33.5t-23.5 -103.5v-594q0 -69 22.5 -102.5t86.5 -33.5h35v-97h-43q-121 0 -169.5 57t-48.5 176z" />
<glyph unicode=")" horiz-adv-x="364" d="M36 0v97h35q64 0 87 33.5t23 102.5v594q0 70 -24 103.5t-86 33.5h-35v97h42q122 0 170.5 -57t48.5 -177v-594q0 -120 -48.5 -176.5t-170.5 -56.5h-42z" />
<glyph unicode="*" horiz-adv-x="597" d="M27 821l29 93l222 -97l-28 239h97l-26 -239l221 95l29 -92l-236 -47l161 -177l-78 -58l-120 211l-117 -211l-78 58l159 177z" />
<glyph unicode="+" horiz-adv-x="593" d="M45 488v85h210v211h85v-211h208v-85h-208v-213h-85v213h-210z" />
<glyph unicode="," horiz-adv-x="241" d="M68 0v147h114v-137l-59 -143h-49l38 133h-44z" />
<glyph unicode="-" horiz-adv-x="401" d="M56 477v106h290v-106h-290z" />
<glyph unicode="." horiz-adv-x="234" d="M61 0v147h114v-147h-114z" />
<glyph unicode="/" horiz-adv-x="569" d="M24 0l419 1061h102l-418 -1061h-103z" />
<glyph unicode="0" d="M52 258v546q0 123 59.5 195.5t182.5 72.5t183.5 -72.5t60.5 -195.5v-546q0 -123 -60.5 -195.5t-183.5 -72.5t-182.5 72.5t-59.5 195.5zM168 250q0 -72 31 -112.5t95 -40.5q65 0 95.5 40.5t30.5 112.5v561q0 73 -30.5 114t-95.5 41q-64 0 -95 -41t-31 -114v-561z" />
<glyph unicode="1" horiz-adv-x="512" d="M130 823v97q42 1 72.5 13.5t51.5 31t34.5 44t23.5 52.5h82v-1061h-116v869q-31 -19 -68.5 -31t-79.5 -15z" />
<glyph unicode="2" horiz-adv-x="586" d="M61 0v91q0 85 26.5 150t66.5 119t86 101.5t86.5 97.5t67 107.5t26.5 131.5q0 83 -29 125.5t-96 42.5q-65 0 -94.5 -42.5t-29.5 -113.5v-94h-110v85q0 123 57 197t180 74q125 0 182.5 -73t57.5 -196q0 -81 -26.5 -145t-66.5 -119.5t-86.5 -104t-86.5 -97t-67 -100.5 t-27 -113v-17h348v-107h-465z" />
<glyph unicode="3" horiz-adv-x="586" d="M55 258v72h110v-80q0 -72 30.5 -112.5t93.5 -40.5q65 0 95 41t30 122v83q0 153 -134 157h-63v106h69q60 3 94 39.5t34 106.5v48q0 82 -30 124t-95 42q-63 0 -93.5 -41t-30.5 -114v-55h-110v48q0 123 57 195.5t180 72.5t181.5 -72.5t58.5 -195.5v-26q0 -82 -32.5 -138.5 t-96.5 -80.5q68 -25 98.5 -82t30.5 -137v-82q0 -123 -58.5 -195.5t-181.5 -72.5q-121 0 -179 73t-58 195z" />
<glyph unicode="4" horiz-adv-x="606" d="M33 214v107l329 740h129v-740h85v-107h-85v-214h-115v214h-343zM143 321h233v519z" />
<glyph unicode="5" horiz-adv-x="586" d="M56 258v71h110v-79q0 -72 30.5 -112.5t94.5 -40.5q63 0 93.5 40.5t30.5 112.5v206q0 72 -30.5 112.5t-93.5 40.5q-49 0 -80.5 -27.5t-39.5 -85.5v-25h-110l29 590h418v-106h-313l-16 -326q52 88 158 88q103 0 150 -69t47 -183v-207q0 -122 -59.5 -195t-180.5 -73 q-122 0 -180 73t-58 195z" />
<glyph unicode="6" d="M53 258v540q0 128 58 201t186 73q123 0 181 -71.5t58 -193.5v-20h-110v27q0 73 -30 112.5t-96 39.5q-68 0 -98.5 -42.5t-30.5 -129.5v-238q21 55 64.5 84.5t107.5 29.5q102 0 149 -68t47 -184v-160q0 -123 -59.5 -195.5t-182.5 -72.5t-183.5 72.5t-60.5 195.5zM171 250 q0 -72 30.5 -112.5t95.5 -40.5q63 0 94.5 40.5t31.5 112.5v159q0 73 -31.5 113t-94.5 40q-65 0 -95.5 -40t-30.5 -113v-159z" />
<glyph unicode="7" horiz-adv-x="586" d="M53 955v106h481v-103l-274 -958h-117l271 955h-361z" />
<glyph unicode="8" horiz-adv-x="593" d="M47 255v79q0 82 27 139.5t95 84.5q-65 26 -93.5 81t-28.5 137v34q0 122 63.5 192t186.5 70t186.5 -70t63.5 -192v-34q0 -82 -28.5 -138t-92.5 -80q66 -26 93.5 -85t27.5 -139v-79q0 -123 -63 -194t-187 -71q-125 0 -187.5 71t-62.5 194zM164 258q0 -83 34.5 -122 t98.5 -39q63 0 97.5 39.5t36.5 121.5v89q-1 153 -134 153t-133 -153v-89zM164 755q0 -77 34.5 -113t98.5 -36q63 0 98.5 35.5t35.5 113.5v52q0 82 -35.5 120.5t-98.5 38.5q-64 0 -98.5 -39t-34.5 -120v-52z" />
<glyph unicode="9" d="M50 642v162q0 123 59.5 195.5t182.5 72.5t183.5 -72.5t60.5 -195.5v-541q0 -125 -59 -199t-186 -74q-123 0 -181 71.5t-58 194.5v20h110v-27q0 -73 31 -112.5t95 -39.5q68 0 99 42.5t31 126.5v239q-44 -113 -171 -113q-103 0 -150 68t-47 182zM166 652q0 -73 31.5 -113 t94.5 -40q65 0 95.5 40t30.5 113v159q0 73 -30.5 113t-95.5 40q-63 0 -94.5 -40t-31.5 -113v-159z" />
<glyph unicode=":" horiz-adv-x="234" d="M61 0v147h114v-147h-114zM61 577v147h114v-147h-114z" />
<glyph unicode=";" horiz-adv-x="241" d="M68 0v147h114v-137l-59 -143h-49l38 133h-44zM68 577v147h114v-147h-114z" />
<glyph unicode="&#x3c;" horiz-adv-x="580" d="M50 488v85l469 192v-86l-358 -148l358 -149v-87z" />
<glyph unicode="=" horiz-adv-x="529" d="M56 391v85h418v-85h-418zM56 606v85h418v-85h-418z" />
<glyph unicode="&#x3e;" horiz-adv-x="580" d="M61 295v87l359 149l-359 148v86l470 -192v-85z" />
<glyph unicode="?" horiz-adv-x="546" d="M41 716v85q0 61 13.5 110.5t42.5 85t73.5 55.5t105.5 20q123 0 179.5 -73t56.5 -196q0 -64 -16 -112.5t-38.5 -88.5t-50.5 -74t-50.5 -69t-38.5 -75t-16 -90q0 -28 7 -58h-106q-3 13 -5.5 28t-2.5 33q0 57 14.5 101.5t37.5 80.5t48 69.5t48 70.5t37 82.5t14 108.5 q0 72 -28 114t-93 42t-93 -42.5t-28 -113.5v-94h-111zM198 0v147h113v-147h-113z" />
<glyph unicode="@" horiz-adv-x="1044" d="M44 437q0 134 32.5 257t101 216t171.5 148.5t244 55.5q114 0 193 -33.5t127.5 -92t70.5 -138t22 -173.5q0 -112 -23.5 -200t-62 -148.5t-88.5 -92.5t-103 -32q-113 0 -120 104q-23 -50 -61.5 -77.5t-94.5 -26.5q-85 2 -117.5 66.5t-21.5 166.5l16 151q10 105 57 165 t131 57q52 0 84.5 -26t46.5 -75l10 94h103l-45 -434q-3 -26 6 -46t38 -20q43 0 73 37t48.5 92.5t25.5 121t7 120.5q0 79 -18.5 143.5t-59 110t-102 69.5t-145.5 24q-114 0 -197.5 -44.5t-139 -123t-81.5 -187t-26 -235.5q0 -99 22.5 -177t69.5 -132t120 -83t171 -29 q81 0 153.5 20t144.5 76l-9 -105q-69 -48 -142 -65t-153 -17q-126 0 -216 37.5t-148.5 105t-86.5 163t-28 212.5zM418 441q-7 -59 13 -97t74 -39q53 -2 80.5 35t36.5 100l14 145q6 54 -15.5 87.5t-72.5 33.5q-53 1 -80.5 -33t-35.5 -96z" />
<glyph unicode="A" horiz-adv-x="639" d="M30 0l203 1061h172l203 -1061h-118l-42 214h-267l-42 -214h-109zM195 315h237l-120 612z" />
<glyph unicode="B" horiz-adv-x="593" d="M61 0v1061h237q125 0 178 -58.5t53 -176.5v-50q0 -85 -27.5 -137t-96.5 -74q77 -21 109.5 -80t32.5 -147v-89q0 -120 -59 -184.5t-183 -64.5h-244zM179 107h126q126 0 126 145v94q0 89 -36 123t-113 34h-103v-396zM179 610h91q71 0 106.5 29t35.5 113v62q0 71 -26.5 105 t-90.5 34h-116v-343z" />
<glyph unicode="C" horiz-adv-x="575" d="M52 256v548q0 61 14.5 110.5t43.5 84.5t74 54t105 19q123 0 181.5 -73t58.5 -195v-95h-112v102q0 73 -30 113t-95 40q-63 0 -93.5 -40t-30.5 -113v-561q0 -72 30.5 -112.5t93.5 -40.5q65 0 95 40.5t30 112.5v138h112v-132q0 -121 -58.5 -193.5t-181.5 -72.5 q-121 0 -179 72.5t-58 193.5z" />
<glyph unicode="D" horiz-adv-x="600" d="M61 0v1061h248q125 0 183 -70.5t58 -193.5v-535q0 -123 -58 -192.5t-183 -69.5h-248zM179 107h129q63 0 94.5 39t31.5 112v545q0 72 -31.5 111t-96.5 39h-127v-846z" />
<glyph unicode="E" horiz-adv-x="545" d="M61 0v1061h436v-108h-318v-362h259v-106h-259v-378h318v-107h-436z" />
<glyph unicode="F" horiz-adv-x="515" d="M61 0v1061h421v-108h-303v-386h244v-107h-244v-460h-118z" />
<glyph unicode="G" horiz-adv-x="580" d="M52 256v548q0 61 14.5 110.5t43.5 84.5t74 54t105 19q123 0 181.5 -73t58.5 -195v-90h-112v97q0 73 -30 113t-95 40q-63 0 -93.5 -40t-30.5 -113v-561q0 -72 30.5 -112.5t93.5 -40.5q65 0 95 40.5t30 112.5v212h-109v106h221v-312q0 -121 -58.5 -193.5t-181.5 -72.5 q-121 0 -179 72.5t-58 193.5z" />
<glyph unicode="H" horiz-adv-x="617" d="M61 0v1061h118v-478h261v478h118v-1061h-118v477h-261v-477h-118z" />
<glyph unicode="I" horiz-adv-x="239" d="M61 0v1061h118v-1061h-118z" />
<glyph unicode="J" horiz-adv-x="386" d="M30 0v107q15 -1 30 -1h30q57 3 90.5 36t33.5 113v806h116v-799q0 -74 -17.5 -124t-47.5 -81t-71.5 -44t-89.5 -14q-21 0 -38 -1h-8q-13 0 -28 2z" />
<glyph unicode="K" horiz-adv-x="619" d="M61 0v1061h118v-513l282 513h119l-268 -484l278 -577h-122l-227 461l-62 -105v-356h-118z" />
<glyph unicode="L" horiz-adv-x="510" d="M61 0v1061h118v-954h303v-107h-421z" />
<glyph unicode="M" horiz-adv-x="792" d="M59 0v1061h165l175 -847l168 847h165v-1061h-112v853l-169 -852h-113l-176 845v-846h-103z" />
<glyph unicode="N" horiz-adv-x="619" d="M59 0v1061h150l245 -767v767h105v-1061h-122l-272 858v-858h-106z" />
<glyph unicode="O" d="M52 256v548q0 123 59.5 195.5t182.5 72.5t183.5 -72.5t60.5 -195.5v-548q0 -121 -60.5 -193.5t-183.5 -72.5t-182.5 72.5t-59.5 193.5zM168 250q0 -72 31 -112.5t95 -40.5q65 0 95.5 40.5t30.5 112.5v561q0 73 -30.5 113t-95.5 40q-64 0 -95 -40t-31 -113v-561z" />
<glyph unicode="P" horiz-adv-x="566" d="M61 0v1061h231q126 0 182.5 -69t56.5 -191v-127q0 -127 -60 -191.5t-188 -64.5h-104v-418h-118zM179 525h104q67 0 99 32.5t32 109.5v141q0 73 -28.5 109t-93.5 36h-113v-428z" />
<glyph unicode="Q" horiz-adv-x="609" d="M52 256v548q0 123 59.5 195.5t182.5 72.5t183.5 -72.5t60.5 -195.5v-548q0 -101 -41 -165q9 -20 24 -26.5t41 -6.5h15v-105h-19q-97 0 -135 68q-26 -14 -57.5 -22.5t-71.5 -8.5q-123 0 -182.5 72.5t-59.5 193.5zM168 250q0 -72 31 -112.5t95 -40.5q65 0 95.5 40.5 t30.5 112.5v561q0 73 -30.5 113t-95.5 40q-64 0 -95 -40t-31 -113v-561z" />
<glyph unicode="R" horiz-adv-x="596" d="M61 0v1061h236q126 0 181.5 -62t55.5 -181v-86q0 -88 -32 -142.5t-100 -75.5q72 -22 102.5 -78.5t30.5 -143.5v-165q0 -35 3 -67.5t18 -59.5h-119q-11 23 -15.5 49t-4.5 80v166q0 90 -40 124t-115 34h-83v-453h-118zM179 561h87q71 0 111 29.5t40 115.5v102 q0 73 -28.5 109t-94.5 36h-115v-392z" />
<glyph unicode="S" horiz-adv-x="563" d="M44 255v60h111v-66q0 -73 30 -112.5t94 -39.5t94 39.5t30 112.5q0 59 -26.5 102t-65.5 80t-84.5 72.5t-85.5 78.5t-66 96.5t-26 128.5q0 122 57.5 193.5t176.5 71.5q122 0 179 -72.5t57 -192.5v-29h-111v35q0 72 -29 111.5t-93 39.5q-63 0 -92 -39.5t-29 -110.5 q0 -59 26.5 -103t66 -81t85.5 -72.5t85.5 -78t66.5 -96.5t27 -128q0 -122 -58.5 -193.5t-181.5 -71.5t-180.5 71.5t-57.5 193.5z" />
<glyph unicode="T" horiz-adv-x="549" d="M20 953v108h509v-108h-195v-953h-119v953h-195z" />
<glyph unicode="U" horiz-adv-x="586" d="M56 256v805h116v-811q0 -72 30 -112.5t95 -40.5q63 0 93 40.5t30 112.5v811h111v-805q0 -121 -58 -194.5t-181 -73.5q-121 0 -178.5 73.5t-57.5 194.5z" />
<glyph unicode="V" horiz-adv-x="633" d="M30 1061h120l173 -923l171 923h109l-198 -1061h-175z" />
<glyph unicode="W" horiz-adv-x="882" d="M35 1061h115l125 -903l117 902h117l117 -904l120 905h103l-145 -1061h-156l-101 720l-104 -720h-162z" />
<glyph unicode="X" horiz-adv-x="658" d="M35 0l214 547l-200 514h122l164 -425l165 425h110l-198 -514l213 -547h-125l-176 457l-177 -457h-112z" />
<glyph unicode="Y" horiz-adv-x="614" d="M24 1061h123l165 -522l167 522h112l-225 -681v-380h-117v380z" />
<glyph unicode="Z" horiz-adv-x="574" d="M44 0v106l364 847h-347v108h468v-106l-365 -848h362v-107h-482z" />
<glyph unicode="[" horiz-adv-x="366" d="M68 0v1061h256v-97h-139v-867h139v-97h-256z" />
<glyph unicode="\" horiz-adv-x="569" d="M24 1061h103l418 -1061h-102z" />
<glyph unicode="]" horiz-adv-x="366" d="M42 0v97h139v867h-139v97h256v-1061h-256z" />
<glyph unicode="^" horiz-adv-x="610" d="M41 591l221 470h87l221 -470h-96l-169 362l-169 -362h-95z" />
<glyph unicode="_" horiz-adv-x="768" d="M20 -15h723v-86h-723v86z" />
<glyph unicode="`" horiz-adv-x="337" d="M65 1285h123l104 -156h-86z" />
<glyph unicode="a" horiz-adv-x="639" d="M30 0l203 1061h172l203 -1061h-118l-42 214h-267l-42 -214h-109zM195 315h237l-120 612z" />
<glyph unicode="b" horiz-adv-x="593" d="M61 0v1061h237q125 0 178 -58.5t53 -176.5v-50q0 -85 -27.5 -137t-96.5 -74q77 -21 109.5 -80t32.5 -147v-89q0 -120 -59 -184.5t-183 -64.5h-244zM179 107h126q126 0 126 145v94q0 89 -36 123t-113 34h-103v-396zM179 610h91q71 0 106.5 29t35.5 113v62q0 71 -26.5 105 t-90.5 34h-116v-343z" />
<glyph unicode="c" horiz-adv-x="575" d="M52 256v548q0 61 14.5 110.5t43.5 84.5t74 54t105 19q123 0 181.5 -73t58.5 -195v-95h-112v102q0 73 -30 113t-95 40q-63 0 -93.5 -40t-30.5 -113v-561q0 -72 30.5 -112.5t93.5 -40.5q65 0 95 40.5t30 112.5v138h112v-132q0 -121 -58.5 -193.5t-181.5 -72.5 q-121 0 -179 72.5t-58 193.5z" />
<glyph unicode="d" horiz-adv-x="600" d="M61 0v1061h248q125 0 183 -70.5t58 -193.5v-535q0 -123 -58 -192.5t-183 -69.5h-248zM179 107h129q63 0 94.5 39t31.5 112v545q0 72 -31.5 111t-96.5 39h-127v-846z" />
<glyph unicode="e" horiz-adv-x="545" d="M61 0v1061h436v-108h-318v-362h259v-106h-259v-378h318v-107h-436z" />
<glyph unicode="f" horiz-adv-x="515" d="M61 0v1061h421v-108h-303v-386h244v-107h-244v-460h-118z" />
<glyph unicode="g" horiz-adv-x="580" d="M52 256v548q0 61 14.5 110.5t43.5 84.5t74 54t105 19q123 0 181.5 -73t58.5 -195v-90h-112v97q0 73 -30 113t-95 40q-63 0 -93.5 -40t-30.5 -113v-561q0 -72 30.5 -112.5t93.5 -40.5q65 0 95 40.5t30 112.5v212h-109v106h221v-312q0 -121 -58.5 -193.5t-181.5 -72.5 q-121 0 -179 72.5t-58 193.5z" />
<glyph unicode="h" horiz-adv-x="617" d="M61 0v1061h118v-478h261v478h118v-1061h-118v477h-261v-477h-118z" />
<glyph unicode="i" horiz-adv-x="239" d="M61 0v1061h118v-1061h-118z" />
<glyph unicode="j" horiz-adv-x="386" d="M30 0v107q15 -1 30 -1h30q57 3 90.5 36t33.5 113v806h116v-799q0 -74 -17.5 -124t-47.5 -81t-71.5 -44t-89.5 -14q-21 0 -38 -1h-8q-13 0 -28 2z" />
<glyph unicode="k" horiz-adv-x="619" d="M61 0v1061h118v-513l282 513h119l-268 -484l278 -577h-122l-227 461l-62 -105v-356h-118z" />
<glyph unicode="l" horiz-adv-x="510" d="M61 0v1061h118v-954h303v-107h-421z" />
<glyph unicode="m" horiz-adv-x="792" d="M59 0v1061h165l175 -847l168 847h165v-1061h-112v853l-169 -852h-113l-176 845v-846h-103z" />
<glyph unicode="n" horiz-adv-x="619" d="M59 0v1061h150l245 -767v767h105v-1061h-122l-272 858v-858h-106z" />
<glyph unicode="o" d="M52 256v548q0 123 59.5 195.5t182.5 72.5t183.5 -72.5t60.5 -195.5v-548q0 -121 -60.5 -193.5t-183.5 -72.5t-182.5 72.5t-59.5 193.5zM168 250q0 -72 31 -112.5t95 -40.5q65 0 95.5 40.5t30.5 112.5v561q0 73 -30.5 113t-95.5 40q-64 0 -95 -40t-31 -113v-561z" />
<glyph unicode="p" horiz-adv-x="561" d="M61 0v1061h231q126 0 182.5 -69t56.5 -191v-127q0 -127 -60 -191.5t-188 -64.5h-104v-418h-118zM179 525h104q67 0 99 32.5t32 109.5v141q0 73 -28.5 109t-93.5 36h-113v-428z" />
<glyph unicode="q" horiz-adv-x="593" d="M52 256v548q0 123 59.5 195.5t182.5 72.5t183.5 -72.5t60.5 -195.5v-548q0 -101 -41 -165q9 -20 24 -26.5t41 -6.5h15v-105h-19q-97 0 -135 68q-26 -14 -57.5 -22.5t-71.5 -8.5q-123 0 -182.5 72.5t-59.5 193.5zM168 250q0 -72 31 -112.5t95 -40.5q65 0 95.5 40.5 t30.5 112.5v561q0 73 -30.5 113t-95.5 40q-64 0 -95 -40t-31 -113v-561z" />
<glyph unicode="r" horiz-adv-x="596" d="M61 0v1061h236q126 0 181.5 -62t55.5 -181v-86q0 -88 -32 -142.5t-100 -75.5q72 -22 102.5 -78.5t30.5 -143.5v-165q0 -35 3 -67.5t18 -59.5h-119q-11 23 -15.5 49t-4.5 80v166q0 90 -40 124t-115 34h-83v-453h-118zM179 561h87q71 0 111 29.5t40 115.5v102 q0 73 -28.5 109t-94.5 36h-115v-392z" />
<glyph unicode="s" horiz-adv-x="563" d="M44 255v60h111v-66q0 -73 30 -112.5t94 -39.5t94 39.5t30 112.5q0 59 -26.5 102t-65.5 80t-84.5 72.5t-85.5 78.5t-66 96.5t-26 128.5q0 122 57.5 193.5t176.5 71.5q122 0 179 -72.5t57 -192.5v-29h-111v35q0 72 -29 111.5t-93 39.5q-63 0 -92 -39.5t-29 -110.5 q0 -59 26.5 -103t66 -81t85.5 -72.5t85.5 -78t66.5 -96.5t27 -128q0 -122 -58.5 -193.5t-181.5 -71.5t-180.5 71.5t-57.5 193.5z" />
<glyph unicode="t" horiz-adv-x="545" d="M18 953v108h508v-108h-196v-953h-116v953h-196z" />
<glyph unicode="u" horiz-adv-x="586" d="M56 256v805h116v-811q0 -72 30 -112.5t95 -40.5q63 0 93 40.5t30 112.5v811h111v-805q0 -121 -58 -194.5t-181 -73.5q-121 0 -178.5 73.5t-57.5 194.5z" />
<glyph unicode="v" horiz-adv-x="633" d="M30 1061h120l173 -923l171 923h109l-198 -1061h-175z" />
<glyph unicode="w" horiz-adv-x="882" d="M35 1061h115l125 -903l117 902h117l117 -904l120 905h103l-145 -1061h-156l-101 720l-104 -720h-162z" />
<glyph unicode="x" horiz-adv-x="658" d="M35 0l214 547l-200 514h122l164 -425l165 425h110l-198 -514l213 -547h-125l-176 457l-177 -457h-112z" />
<glyph unicode="y" horiz-adv-x="614" d="M24 1061h123l165 -522l167 522h112l-225 -681v-380h-117v380z" />
<glyph unicode="z" horiz-adv-x="574" d="M44 0v106l364 847h-347v108h468v-106l-365 -848h362v-107h-482z" />
<glyph unicode="{" horiz-adv-x="389" d="M30 480v100q57 5 72.5 30.5t18.5 82.5l11 205q6 77 42.5 120t108.5 43h70v-97h-29q-49 0 -66 -28t-20 -89l-9 -171q-2 -25 -5.5 -47.5t-14.5 -41.5t-29.5 -34t-49.5 -22q31 -8 49.5 -23t29.5 -34.5t14.5 -42t5.5 -46.5l9 -171q3 -61 20.5 -89t65.5 -28h29v-97h-70 q-72 0 -108.5 42.5t-42.5 119.5l-11 207q-3 56 -18.5 81.5t-72.5 29.5z" />
<glyph unicode="|" horiz-adv-x="564" d="M240 -67v1195h97v-1195h-97z" />
<glyph unicode="}" horiz-adv-x="389" d="M36 0v97h29q49 0 66.5 28t20.5 89l9 171q1 24 4.5 46.5t14.5 42t30 34.5t49 23q-30 7 -49 22t-30 34t-14.5 42t-4.5 47l-9 171q-3 61 -20.5 89t-66.5 28h-29v97h70q71 0 108.5 -42.5t41.5 -120.5l12 -205q1 -28 5.5 -48t13 -34t26 -21.5t44.5 -9.5v-100 q-27 -3 -44.5 -9.5t-26 -20t-12.5 -34t-6 -47.5l-12 -207q-4 -77 -41 -119.5t-109 -42.5h-70z" />
<glyph unicode="~" horiz-adv-x="600" d="M27 502q44 66 81.5 93t80.5 27q32 0 62.5 -14.5t58.5 -32t54.5 -32t52.5 -14.5q28 0 48.5 20.5t49.5 62.5l58 -57q-42 -65 -77.5 -90t-78.5 -27q-32 0 -61.5 14.5t-57.5 32t-54.5 32.5t-54.5 15q-30 0 -52 -20.5t-52 -64.5z" />
<glyph unicode="&#xa1;" horiz-adv-x="239" d="M61 0v468l14 358h89l15 -358v-468h-118zM62 915v146h114v-146h-114z" />
<glyph unicode="&#xa2;" horiz-adv-x="586" d="M56 323v415q0 107 45.5 177.5t142.5 84.5v76h97v-74q100 -12 146.5 -81t46.5 -178v-61h-111v67q0 72 -30.5 110.5t-94.5 38.5q-65 0 -94 -40t-29 -112v-431q0 -71 29 -111t94 -40q64 0 94.5 39.5t30.5 111.5v102h111v-94q0 -109 -46.5 -179.5t-146.5 -82.5v-76h-97v76 q-97 13 -142.5 83.5t-45.5 178.5z" />
<glyph unicode="&#xa3;" horiz-adv-x="592" d="M50 0v103q31 12 58.5 34t48.5 52.5t32 68t8 83.5h-126v93h111q-13 43 -33 81.5t-38.5 79t-31 90.5t-12.5 118q0 123 57 196t179 73q61 0 105.5 -20t73.5 -55.5t42.5 -85t13.5 -110.5v-84h-112v91q0 73 -27.5 114.5t-92.5 41.5t-93 -41t-28 -113q0 -70 13 -120.5t30.5 -91 t36 -79.5t30.5 -85h204v-93h-196q2 -62 -22.5 -117.5t-82.5 -116.5h336v-107h-484z" />
<glyph unicode="&#xa5;" horiz-adv-x="626" d="M27 1061h123l168 -519l170 519h112l-220 -647h145v-62h-152v-90h152v-61h-152v-201h-118v201h-152v61h152v90h-152v62h143z" />
<glyph unicode="&#xa8;" horiz-adv-x="331" d="M53 1123v136h103v-136h-103zM176 1123v136h103v-136h-103z" />
<glyph unicode="&#xa9;" horiz-adv-x="1124" d="M41 531q0 115 39.5 213.5t109 170t165 112t207.5 40.5q113 0 208 -40.5t165 -112t109 -170.5t39 -213q0 -117 -39 -215t-109 -170t-165.5 -112t-207.5 -40t-207.5 40t-165 112t-109 170t-39.5 215zM118 531q0 -99 33.5 -184t92.5 -146.5t141 -96t177 -34.5 q96 0 177.5 34.5t141 96t92.5 146.5t33 184q0 98 -33 182.5t-92.5 146t-141 96.5t-177.5 35q-95 0 -177 -35t-141 -96.5t-92.5 -146t-33.5 -182.5zM391 383v293q0 86 39.5 137t125.5 51t126 -51t40 -137v-46h-80v52q0 49 -20 77t-64 28t-64.5 -28.5t-20.5 -76.5v-303 q0 -49 20.5 -76.5t64.5 -27.5t64 27.5t20 76.5v74h80v-70q0 -85 -40.5 -135.5t-125.5 -50.5q-86 0 -125.5 50.5t-39.5 135.5z" />
<glyph unicode="&#xab;" horiz-adv-x="484" d="M36 532l96 380h108l-96 -380l96 -396h-108zM246 532l97 380h105l-95 -380l95 -396h-105z" />
<glyph unicode="&#xad;" horiz-adv-x="401" d="M56 477v106h290v-106h-290z" />
<glyph unicode="&#xae;" horiz-adv-x="1124" d="M41 531q0 115 39.5 213.5t109 170t165 112t207.5 40.5q113 0 208 -40.5t165 -112t109 -170.5t39 -213q0 -117 -39 -215t-109 -170t-165.5 -112t-207.5 -40t-207.5 40t-165 112t-109 170t-39.5 215zM118 531q0 -99 33.5 -184t92.5 -146.5t141 -96t177 -34.5 q96 0 177.5 34.5t141 96t92.5 146.5t33 184q0 98 -33 182.5t-92.5 146t-141 96.5t-177.5 35q-95 0 -177 -35t-141 -96.5t-92.5 -146t-33.5 -182.5zM405 206v649h165q86 0 125.5 -43.5t39.5 -126.5v-15q0 -60 -20.5 -98t-67.5 -55q49 -17 68.5 -55.5t19.5 -95.5v-71 q0 -26 2 -47.5t15 -41.5h-87q-7 17 -9.5 34.5t-2.5 54.5v71q0 63 -28.5 85.5t-82.5 22.5h-56v-268h-81zM486 551h69q47 0 72 21.5t25 79.5v24q0 50 -19.5 76.5t-67.5 26.5h-79v-228z" />
<glyph unicode="&#xb4;" horiz-adv-x="337" d="M47 1129l106 156h117l-141 -156h-82z" />
<glyph unicode="&#xb8;" horiz-adv-x="376" d="M47 -124h80v-11q0 -26 19 -35t40 -11q25 0 43 11.5t18 39.5q0 30 -20.5 39t-50.5 9h-12v95h53v-72q52 0 82 -15.5t30 -58.5q0 -29 -11.5 -47t-31.5 -28t-45.5 -14t-54.5 -4q-27 0 -53 4.5t-44.5 14.5t-30 27.5t-11.5 43.5v12z" />
<glyph unicode="&#xbb;" horiz-adv-x="484" d="M36 136l96 396l-96 380h107l97 -380l-97 -396h-107zM246 136l95 396l-95 380h106l96 -380l-96 -396h-106z" />
<glyph unicode="&#xbf;" horiz-adv-x="546" d="M36 258q0 63 15.5 111.5t39 89t50.5 74.5t50.5 68.5t39 74.5t15.5 91q0 33 -6 57h104q9 -27 9 -60q0 -58 -15 -101.5t-37 -80.5t-48 -70t-48.5 -70t-37 -83.5t-14.5 -106.5q0 -73 28 -115t94 -42q65 0 93 43t28 114v94h112v-87q0 -121 -57 -195t-179 -74 q-123 0 -179.5 72.5t-56.5 195.5zM236 914v147h114v-147h-114z" />
<glyph unicode="&#xc0;" horiz-adv-x="639" d="M30 0l203 1061h172l203 -1061h-118l-42 214h-267l-42 -214h-109zM166 1273h122l106 -156h-86zM195 315h237l-120 612z" />
<glyph unicode="&#xc1;" horiz-adv-x="639" d="M30 0l203 1061h172l203 -1061h-118l-42 214h-267l-42 -214h-109zM195 315h237l-120 612zM240 1117l106 156h116l-139 -156h-83z" />
<glyph unicode="&#xc2;" horiz-adv-x="639" d="M30 0l203 1061h172l203 -1061h-118l-42 214h-267l-42 -214h-109zM135 1117l130 151h106l131 -151h-103l-81 89l-80 -89h-103zM195 315h237l-120 612z" />
<glyph unicode="&#xc3;" horiz-adv-x="639" d="M30 0l203 1061h172l203 -1061h-118l-42 214h-267l-42 -214h-109zM133 1164q19 47 47.5 67t63.5 21q23 0 42 -7t35 -16t31 -16t31 -7q20 2 34.5 12t26.5 34l59 -41q-18 -44 -45 -65t-62 -21q-23 0 -41 6.5t-34 15t-31 15t-34 6.5q-21 0 -36.5 -10t-27.5 -35zM195 315h237 l-120 612z" />
<glyph unicode="&#xc7;" horiz-adv-x="575" d="M52 256v548q0 61 14.5 110.5t43.5 84.5t74 54t105 19q123 0 181.5 -73t58.5 -195v-95h-112v102q0 73 -30 113t-95 40q-63 0 -93.5 -40t-30.5 -113v-561q0 -72 30.5 -112.5t93.5 -40.5q65 0 95 40.5t30 112.5v138h112v-132q0 -114 -52.5 -185.5t-161.5 -79.5v-47 q54 0 83.5 -20.5t29.5 -56.5q0 -45 -38 -71t-107 -26q-66 0 -102.5 24.5t-36.5 69.5v12h77v-11q0 -39 62 -44q66 0 66 49q0 45 -74 45h-15v76q-107 8 -157.5 80.5t-50.5 184.5z" />
<glyph unicode="&#xc8;" horiz-adv-x="545" d="M61 0v1061h436v-108h-318v-362h259v-106h-259v-378h318v-107h-436zM130 1281h123l104 -156h-85z" />
<glyph unicode="&#xc9;" horiz-adv-x="545" d="M61 0v1061h436v-108h-318v-362h259v-106h-259v-378h318v-107h-436zM206 1120l106 156h117l-141 -156h-82z" />
<glyph unicode="&#xca;" horiz-adv-x="545" d="M61 0v1061h436v-108h-318v-362h259v-106h-259v-378h318v-107h-436zM94 1120l130 153h105l132 -153h-104l-81 91l-79 -91h-103z" />
<glyph unicode="&#xcd;" horiz-adv-x="239" d="M47 1120l105 156h118l-141 -156h-82zM61 0v1061h118v-1061h-118z" />
<glyph unicode="&#xcf;" horiz-adv-x="239" d="M-26 1120v137h103v-137h-103zM61 0v1061h118v-1061h-118zM162 1120v137h103v-137h-103z" />
<glyph unicode="&#xd1;" horiz-adv-x="619" d="M59 0v1061h150l245 -767v767h105v-1061h-122l-272 858v-858h-106zM126 1170q18 47 46.5 67.5t65.5 20.5q23 0 41 -7t34 -15t31 -15t32 -7q39 0 61 44l59 -39q-19 -45 -46 -66.5t-62 -21.5q-23 0 -41 6.5t-34 15t-31.5 15t-32.5 6.5q-22 0 -37 -8.5t-27 -34.5z" />
<glyph unicode="&#xd2;" d="M52 256v548q0 123 59.5 195.5t182.5 72.5t183.5 -72.5t60.5 -195.5v-548q0 -121 -60.5 -193.5t-183.5 -72.5t-182.5 72.5t-59.5 193.5zM141 1281h122l106 -156h-87zM168 250q0 -72 31 -112.5t95 -40.5q65 0 95.5 40.5t30.5 112.5v561q0 73 -30.5 113t-95.5 40 q-64 0 -95 -40t-31 -113v-561z" />
<glyph unicode="&#xd3;" d="M52 256v548q0 123 59.5 195.5t182.5 72.5t183.5 -72.5t60.5 -195.5v-548q0 -121 -60.5 -193.5t-183.5 -72.5t-182.5 72.5t-59.5 193.5zM168 250q0 -72 31 -112.5t95 -40.5q65 0 95.5 40.5t30.5 112.5v561q0 73 -30.5 113t-95.5 40q-64 0 -95 -40t-31 -113v-561zM221 1125 l106 156h117l-141 -156h-82z" />
<glyph unicode="&#xd4;" d="M52 256v548q0 123 59.5 195.5t182.5 72.5t183.5 -72.5t60.5 -195.5v-548q0 -121 -60.5 -193.5t-183.5 -72.5t-182.5 72.5t-59.5 193.5zM111 1123l130 153h105l131 -153h-103l-82 89l-78 -89h-103zM168 250q0 -72 31 -112.5t95 -40.5q65 0 95.5 40.5t30.5 112.5v561 q0 73 -30.5 113t-95.5 40q-64 0 -95 -40t-31 -113v-561z" />
<glyph unicode="&#xd5;" d="M52 256v548q0 123 59.5 195.5t182.5 72.5t183.5 -72.5t60.5 -195.5v-548q0 -121 -60.5 -193.5t-183.5 -72.5t-182.5 72.5t-59.5 193.5zM112 1168q20 47 48.5 67t63.5 22q23 0 41 -7.5t34 -16t32 -15.5t33 -7q20 1 34 11t26 35l58 -42q-17 -45 -45 -65.5t-63 -20.5 q-22 0 -39.5 7t-34.5 15.5t-32 15t-33 6.5q-22 0 -36.5 -9.5t-27.5 -35.5zM168 250q0 -72 31 -112.5t95 -40.5q65 0 95.5 40.5t30.5 112.5v561q0 73 -30.5 113t-95.5 40q-64 0 -95 -40t-31 -113v-561z" />
<glyph unicode="&#xda;" horiz-adv-x="586" d="M56 256v805h116v-811q0 -72 30 -112.5t95 -40.5q63 0 93 40.5t30 112.5v811h111v-805q0 -121 -58 -194.5t-181 -73.5q-121 0 -178.5 73.5t-57.5 194.5zM226 1125l106 156h116l-140 -156h-82z" />
<glyph unicode="&#xdc;" horiz-adv-x="586" d="M56 256v805h116v-811q0 -72 30 -112.5t95 -40.5q63 0 93 40.5t30 112.5v811h111v-805q0 -121 -58 -194.5t-181 -73.5q-121 0 -178.5 73.5t-57.5 194.5zM149 1122v136h104v-136h-104zM338 1122v136h103v-136h-103z" />
<glyph unicode="&#xe0;" horiz-adv-x="639" d="M30 0l203 1061h172l203 -1061h-118l-42 214h-267l-42 -214h-109zM166 1273h122l106 -156h-86zM195 315h237l-120 612z" />
<glyph unicode="&#xe1;" horiz-adv-x="639" d="M30 0l203 1061h172l203 -1061h-118l-42 214h-267l-42 -214h-109zM195 315h237l-120 612zM240 1117l106 156h116l-139 -156h-83z" />
<glyph unicode="&#xe2;" horiz-adv-x="639" d="M30 0l203 1061h172l203 -1061h-118l-42 214h-267l-42 -214h-109zM135 1117l130 151h106l131 -151h-103l-81 89l-80 -89h-103zM195 315h237l-120 612z" />
<glyph unicode="&#xe3;" horiz-adv-x="639" d="M30 0l203 1061h172l203 -1061h-118l-42 214h-267l-42 -214h-109zM133 1164q19 47 47.5 67t63.5 21q23 0 42 -7t35 -16t31 -16t31 -7q20 2 34.5 12t26.5 34l59 -41q-18 -44 -45 -65t-62 -21q-23 0 -41 6.5t-34 15t-31 15t-34 6.5q-21 0 -36.5 -10t-27.5 -35zM195 315h237 l-120 612z" />
<glyph unicode="&#xe7;" horiz-adv-x="575" d="M52 256v548q0 61 14.5 110.5t43.5 84.5t74 54t105 19q123 0 181.5 -73t58.5 -195v-95h-112v102q0 73 -30 113t-95 40q-63 0 -93.5 -40t-30.5 -113v-561q0 -72 30.5 -112.5t93.5 -40.5q65 0 95 40.5t30 112.5v138h112v-132q0 -114 -52.5 -185.5t-161.5 -79.5v-47 q54 0 83.5 -20.5t29.5 -56.5q0 -45 -38 -71t-107 -26q-66 0 -102.5 24.5t-36.5 69.5v12h77v-11q0 -39 62 -44q66 0 66 49q0 45 -74 45h-15v76q-107 8 -157.5 80.5t-50.5 184.5z" />
<glyph unicode="&#xe8;" horiz-adv-x="545" d="M61 0v1061h436v-108h-318v-362h259v-106h-259v-378h318v-107h-436zM130 1281h123l104 -156h-85z" />
<glyph unicode="&#xe9;" horiz-adv-x="545" d="M61 0v1061h436v-108h-318v-362h259v-106h-259v-378h318v-107h-436zM206 1120l106 156h117l-141 -156h-82z" />
<glyph unicode="&#xea;" horiz-adv-x="545" d="M61 0v1061h436v-108h-318v-362h259v-106h-259v-378h318v-107h-436zM94 1120l130 153h105l132 -153h-104l-81 91l-79 -91h-103z" />
<glyph unicode="&#xed;" horiz-adv-x="239" d="M47 1120l105 156h118l-141 -156h-82zM61 0v1061h118v-1061h-118z" />
<glyph unicode="&#xef;" horiz-adv-x="239" d="M-26 1120v137h103v-137h-103zM61 0v1061h118v-1061h-118zM162 1120v137h103v-137h-103z" />
<glyph unicode="&#xf1;" horiz-adv-x="619" d="M59 0v1061h150l245 -767v767h105v-1061h-122l-272 858v-858h-106zM126 1170q18 47 46.5 67.5t65.5 20.5q23 0 41 -7t34 -15t31 -15t32 -7q39 0 61 44l59 -39q-19 -45 -46 -66.5t-62 -21.5q-23 0 -41 6.5t-34 15t-31.5 15t-32.5 6.5q-22 0 -37 -8.5t-27 -34.5z" />
<glyph unicode="&#xf2;" d="M52 256v548q0 123 59.5 195.5t182.5 72.5t183.5 -72.5t60.5 -195.5v-548q0 -121 -60.5 -193.5t-183.5 -72.5t-182.5 72.5t-59.5 193.5zM141 1281h122l106 -156h-87zM168 250q0 -72 31 -112.5t95 -40.5q65 0 95.5 40.5t30.5 112.5v561q0 73 -30.5 113t-95.5 40 q-64 0 -95 -40t-31 -113v-561z" />
<glyph unicode="&#xf3;" d="M52 256v548q0 123 59.5 195.5t182.5 72.5t183.5 -72.5t60.5 -195.5v-548q0 -121 -60.5 -193.5t-183.5 -72.5t-182.5 72.5t-59.5 193.5zM168 250q0 -72 31 -112.5t95 -40.5q65 0 95.5 40.5t30.5 112.5v561q0 73 -30.5 113t-95.5 40q-64 0 -95 -40t-31 -113v-561zM221 1125 l106 156h117l-141 -156h-82z" />
<glyph unicode="&#xf4;" d="M52 256v548q0 123 59.5 195.5t182.5 72.5t183.5 -72.5t60.5 -195.5v-548q0 -121 -60.5 -193.5t-183.5 -72.5t-182.5 72.5t-59.5 193.5zM111 1123l130 153h105l131 -153h-103l-82 89l-78 -89h-103zM168 250q0 -72 31 -112.5t95 -40.5q65 0 95.5 40.5t30.5 112.5v561 q0 73 -30.5 113t-95.5 40q-64 0 -95 -40t-31 -113v-561z" />
<glyph unicode="&#xf5;" d="M52 256v548q0 123 59.5 195.5t182.5 72.5t183.5 -72.5t60.5 -195.5v-548q0 -121 -60.5 -193.5t-183.5 -72.5t-182.5 72.5t-59.5 193.5zM112 1168q20 47 48.5 67t63.5 22q23 0 41 -7.5t34 -16t32 -15.5t33 -7q20 1 34 11t26 35l58 -42q-17 -45 -45 -65.5t-63 -20.5 q-22 0 -39.5 7t-34.5 15.5t-32 15t-33 6.5q-22 0 -36.5 -9.5t-27.5 -35.5zM168 250q0 -72 31 -112.5t95 -40.5q65 0 95.5 40.5t30.5 112.5v561q0 73 -30.5 113t-95.5 40q-64 0 -95 -40t-31 -113v-561z" />
<glyph unicode="&#xfa;" horiz-adv-x="586" d="M56 256v805h116v-811q0 -72 30 -112.5t95 -40.5q63 0 93 40.5t30 112.5v811h111v-805q0 -121 -58 -194.5t-181 -73.5q-121 0 -178.5 73.5t-57.5 194.5zM226 1125l106 156h116l-140 -156h-82z" />
<glyph unicode="&#xfc;" horiz-adv-x="586" d="M56 256v805h116v-811q0 -72 30 -112.5t95 -40.5q63 0 93 40.5t30 112.5v811h111v-805q0 -121 -58 -194.5t-181 -73.5q-121 0 -178.5 73.5t-57.5 194.5zM149 1122v136h104v-136h-104zM338 1122v136h103v-136h-103z" />
<glyph unicode="&#x13f;" horiz-adv-x="510" d="M61 0v1061h118v-954h303v-107h-421zM298 460v146h114v-146h-114z" />
<glyph unicode="&#x140;" horiz-adv-x="510" d="M61 0v1061h118v-954h303v-107h-421zM298 460v146h114v-146h-114z" />
<glyph unicode="&#x2c6;" horiz-adv-x="378" d="M6 1134l132 151h105l130 -151h-103l-81 89l-80 -89h-103z" />
<glyph unicode="&#x2da;" horiz-adv-x="354" d="M65 1234q0 46 33 78.5t80 32.5q46 0 78 -32t32 -79t-32 -79t-78 -32q-47 0 -80 32t-33 79zM121 1234q0 -25 16 -40t41 -15q23 0 38.5 15t15.5 40q0 24 -15.5 39t-38.5 15q-25 0 -41 -15t-16 -39z" />
<glyph unicode="&#x2dc;" horiz-adv-x="387" d="M9 1167q20 47 49 67.5t63 20.5q23 0 41.5 -7t34 -15t31.5 -15t32 -7q20 0 34.5 10t26.5 34l58 -40q-17 -45 -45 -66t-62 -21q-23 0 -40.5 6.5t-34 15t-32 15t-33.5 6.5q-22 0 -36.5 -8.5t-27.5 -34.5z" />
<glyph unicode="&#x2000;" horiz-adv-x="682" />
<glyph unicode="&#x2001;" horiz-adv-x="1365" />
<glyph unicode="&#x2002;" horiz-adv-x="682" />
<glyph unicode="&#x2003;" horiz-adv-x="1365" />
<glyph unicode="&#x2004;" horiz-adv-x="455" />
<glyph unicode="&#x2005;" horiz-adv-x="341" />
<glyph unicode="&#x2006;" horiz-adv-x="227" />
<glyph unicode="&#x2007;" horiz-adv-x="227" />
<glyph unicode="&#x2008;" horiz-adv-x="170" />
<glyph unicode="&#x2009;" horiz-adv-x="273" />
<glyph unicode="&#x200a;" horiz-adv-x="75" />
<glyph unicode="&#x2010;" horiz-adv-x="401" d="M56 477v106h290v-106h-290z" />
<glyph unicode="&#x2011;" horiz-adv-x="401" d="M56 477v106h290v-106h-290z" />
<glyph unicode="&#x2012;" horiz-adv-x="401" d="M56 477v106h290v-106h-290z" />
<glyph unicode="&#x2013;" horiz-adv-x="693" d="M20 482v97h654v-97h-654z" />
<glyph unicode="&#x2014;" horiz-adv-x="1261" d="M20 482v97h1222v-97h-1222z" />
<glyph unicode="&#x2018;" horiz-adv-x="241" d="M61 781v136l57 144h50l-38 -134h45v-146h-114z" />
<glyph unicode="&#x2019;" horiz-adv-x="241" d="M68 914v147h114v-135l-59 -145h-49l38 133h-44z" />
<glyph unicode="&#x201a;" horiz-adv-x="241" d="M68 0v147h114v-137l-59 -143h-49l38 133h-44z" />
<glyph unicode="&#x201c;" horiz-adv-x="410" d="M61 781v136l57 144h50l-38 -134h45v-146h-114zM230 781v136l58 144h49l-37 -134h43v-146h-113z" />
<glyph unicode="&#x201d;" horiz-adv-x="410" d="M61 914v147h111v-137l-57 -143h-48l36 133h-42zM229 914v147h114v-137l-58 -143h-50l38 133h-44z" />
<glyph unicode="&#x201e;" horiz-adv-x="415" d="M68 0v147h114v-137l-59 -143h-49l38 133h-44zM241 0v147h113v-137l-57 -143h-50l38 133h-44z" />
<glyph unicode="&#x2022;" horiz-adv-x="496" d="M90 531q0 33 12 62t34 50t50.5 34t62.5 13q33 0 62 -13t50 -34t34 -50t13 -62q0 -34 -13 -62.5t-34 -50.5t-50 -34.5t-62 -12.5q-34 0 -62.5 12.5t-50.5 34.5t-34 50.5t-12 62.5z" />
<glyph unicode="&#x2026;" horiz-adv-x="574" d="M61 0v147h114v-147h-114zM230 0v147h114v-147h-114zM400 0v147h114v-147h-114z" />
<glyph unicode="&#x202f;" horiz-adv-x="273" />
<glyph unicode="&#x2039;" horiz-adv-x="276" d="M36 532l94 389h113l-94 -389l94 -406h-113z" />
<glyph unicode="&#x203a;" horiz-adv-x="276" d="M36 127l93 405l-93 389h111l96 -389l-96 -405h-111z" />
<glyph unicode="&#x205f;" horiz-adv-x="341" />
<glyph unicode="&#x20ac;" horiz-adv-x="601" d="M20 420v62h67v105h-67v60h67v157q0 61 13.5 110.5t42 84.5t72.5 54t105 19q60 0 104 -19t73 -54t43 -84.5t14 -110.5v-68h-111v75q0 71 -28.5 112t-91.5 41q-64 0 -92 -41t-28 -112v-164h264v-60h-264v-105h264v-62h-264v-170q0 -71 28 -112t92 -41q63 0 91.5 41 t28.5 112v82h111v-76q0 -120 -56.5 -193t-177.5 -73q-122 0 -177.5 73t-55.5 193v164h-67z" />
<glyph unicode="&#x2122;" horiz-adv-x="882" d="M18 991v70h323v-70h-123v-469h-75v469h-125zM409 522v539h106l111 -422l106 422h106v-539h-73v425l-104 -422h-73l-111 419v-422h-68z" />
<glyph unicode="&#x25fc;" horiz-adv-x="1060" d="M0 0v1061h1061v-1061h-1061z" />
<glyph d="M52 258v546q0 123 59.5 195.5t182.5 72.5t183.5 -72.5t60.5 -195.5v-546q0 -123 -60.5 -195.5t-183.5 -72.5t-182.5 72.5t-59.5 195.5zM168 250q0 -72 31 -112.5t95 -40.5q65 0 95.5 40.5t30.5 112.5v561q0 73 -30.5 114t-95.5 41q-64 0 -95 -41t-31 -114v-561z" />
<glyph horiz-adv-x="386" d="M39 823v97q42 1 73 13.5t51.5 31t34 44t23.5 52.5h82v-1061h-117v869q-30 -19 -67 -31t-80 -15z" />
<glyph horiz-adv-x="557" d="M47 0v91q0 85 26.5 150t67 119t86.5 101.5t86 97.5t66.5 107.5t26.5 131.5q0 83 -29.5 125.5t-94.5 42.5t-94.5 -42.5t-29.5 -113.5v-94h-111v85q0 123 57.5 197t180.5 74q124 0 181 -73t57 -196q0 -82 -26.5 -146t-67 -119.5t-86.5 -104t-86 -98t-67.5 -102 t-27.5 -115.5v-11h350v-107h-465z" />
<glyph horiz-adv-x="571" d="M47 258v72h112v-80q0 -72 29.5 -112.5t94.5 -40.5q125 0 125 163v83q0 153 -135 157h-64v106h71q60 3 94 39.5t34 106.5v48q0 165 -125 166q-65 0 -94.5 -41t-29.5 -114v-55h-112v48q0 123 58.5 195.5t180.5 72.5q123 0 181 -72.5t58 -195.5v-26q0 -82 -32.5 -138.5 t-96.5 -80.5q68 -25 98.5 -82t30.5 -137v-82q0 -122 -58.5 -195t-180.5 -73t-180.5 72.5t-58.5 195.5z" />
<glyph horiz-adv-x="606" d="M33 214v107l329 740h129v-740h85v-107h-85v-214h-117v214h-341zM143 321h231v514z" />
<glyph horiz-adv-x="572" d="M49 258v71h110v-79q0 -72 30.5 -112.5t93.5 -40.5q66 0 95.5 40.5t29.5 112.5v206q0 72 -29.5 112.5t-95.5 40.5q-48 0 -79.5 -27.5t-38.5 -85.5v-25h-112l31 590h418v-106h-314l-17 -326q52 88 159 88q101 0 148.5 -69t47.5 -183v-207q0 -123 -58.5 -195.5t-181.5 -72.5 q-121 0 -179 73t-58 195z" />
<glyph horiz-adv-x="584" d="M52 258v540q0 126 58 200t185 74q123 0 181.5 -71.5t58.5 -193.5v-20h-112v27q0 73 -29.5 112.5t-95.5 39.5q-130 0 -130 -172v-238q23 55 66.5 84.5t106.5 29.5q102 0 149.5 -68t47.5 -184v-160q0 -123 -60.5 -195.5t-183.5 -72.5t-182.5 72.5t-59.5 195.5zM168 250 q0 -72 31 -112.5t95 -40.5q65 0 95.5 40.5t30.5 112.5v159q0 73 -30.5 113t-95.5 40q-64 0 -95 -40t-31 -113v-159z" />
<glyph horiz-adv-x="528" d="M30 955v106h469v-103l-261 -958h-118l262 955h-352z" />
<glyph horiz-adv-x="594" d="M47 255v79q0 82 28 139.5t94 84.5q-63 26 -92.5 81t-29.5 137v34q0 122 63.5 192t186.5 70q124 0 187.5 -70t63.5 -192v-34q0 -82 -28.5 -138t-91.5 -80q66 -26 93 -85t27 -139v-79q0 -123 -62.5 -194t-188.5 -71q-125 0 -187.5 71t-62.5 194zM165 258q0 -83 34 -122 t98 -39q133 0 134 161v89q-1 153 -134 153q-132 0 -132 -153v-89zM165 755q0 -77 34 -113t98 -36q63 0 98.5 35.5t35.5 113.5v52q0 82 -35.5 120.5t-98.5 38.5q-62 0 -97 -39t-35 -120v-52z" />
<glyph horiz-adv-x="584" d="M47 642v162q0 123 60.5 195.5t183.5 72.5t183 -72.5t60 -195.5v-541q0 -125 -58.5 -199t-186.5 -74q-123 0 -181 71.5t-58 194.5v20h111v-27q0 -73 31 -112.5t94 -39.5q131 0 131 169v239q-47 -113 -173 -113q-101 0 -149 68t-48 182zM165 652q0 -73 30.5 -113t95.5 -40 q63 0 94.5 40t31.5 113v159q0 73 -31.5 113t-94.5 40q-65 0 -95.5 -40t-30.5 -113v-159z" />
</font>
</defs>
</svg>
