<?xml version="1.0" standalone="no"?>
<!DOCTYPE svg PUBLIC "-//W3C//DTD SVG 1.1//EN" "http://www.w3.org/Graphics/SVG/1.1/DTD/svg11.dtd" >
<svg xmlns="http://www.w3.org/2000/svg" xmlns:xlink="http://www.w3.org/1999/xlink" version="1.1">
<metadata>
Created by FontForge 20190801 at Fri Nov 28 12:15:57 2014
 By Jimmy Wärting
(c) 2014 Sergiy S. Tkachenko / 4th february
(c) 2014 FirstSiteGuide.com
http://creativecommons.org/licenses/by-nd/4.0/
</metadata>
<defs>
<font id="BloggerSans-Bold" horiz-adv-x="270" >
  <font-face 
    font-family="Blogger Sans"
    font-weight="700"
    font-stretch="squinchy"
    units-per-em="1000"
    panose-1="2 0 5 6 3 0 0 2 0 4"
    ascent="760"
    descent="-240"
    x-height="505"
    cap-height="706"
    bbox="-69.8483 -242 953 953"
    underline-thickness="20"
    underline-position="-143"
    stemh="75"
    stemv="78"
    unicode-range="U+0020-F0434"
  />
<missing-glyph horiz-adv-x="760" 
 />
    <glyph glyph-name="fi" unicode="fi" horiz-adv-x="644" 
d="M64 56v471c0 132 93 193 204 195c26 0 122 -1 122 -67c0 -38 -32 -60 -68 -60c-19 0 -40 6 -59 6c-42 0 -61 -31 -61 -67v-49h74c37 0 66 -26 66 -60s-29 -59 -66 -59h-74v-310c0 -34 -25 -60 -69 -60s-69 26 -69 60zM579 644c0 -39 -34 -70 -78 -70s-78 32 -78 70
c0 39 34 70 78 70s78 -32 78 -70zM570 449v-394c0 -35 -30 -62 -69 -62s-69 27 -69 62v394c0 33 30 61 69 61s69 -28 69 -61z" />
    <glyph glyph-name="fl" unicode="fl" horiz-adv-x="627" 
d="M64 56v471c0 132 93 193 204 195c26 0 122 -1 122 -67c0 -38 -32 -60 -68 -60c-19 0 -40 6 -59 6c-42 0 -61 -31 -61 -67v-49h74c37 0 66 -26 66 -60s-29 -59 -66 -59h-74v-310c0 -34 -25 -60 -69 -60s-69 26 -69 60zM519 -7c-40 0 -96 13 -96 118v549c0 33 30 62 69 62
s69 -27 69 -62v-537c0 -21 1 -26 15 -41c10 -11 18 -16 18 -35c0 -36 -28 -54 -75 -54z" />
    <glyph glyph-name="ff" unicode="ff" horiz-adv-x="728" 
d="M64 56v471c0 132 93 193 204 195c26 0 122 -1 122 -67c0 -38 -32 -60 -68 -60c-19 0 -40 6 -59 6c-42 0 -61 -31 -61 -67v-49h74c37 0 66 -26 66 -60s-29 -59 -66 -59h-74v-310c0 -34 -25 -60 -69 -60s-69 26 -69 60zM423 56v471c0 132 93 193 204 195
c26 0 122 -1 122 -67c0 -38 -32 -60 -68 -60c-19 0 -40 6 -59 6c-42 0 -61 -31 -61 -67v-49h74c37 0 66 -26 66 -60s-29 -59 -66 -59h-74v-310c0 -34 -25 -60 -69 -60s-69 26 -69 60z" />
    <glyph glyph-name="ffi" unicode="ffi" horiz-adv-x="1003" 
d="M64 56v471c0 132 93 193 204 195c26 0 122 -1 122 -67c0 -38 -32 -60 -68 -60c-19 0 -40 6 -59 6c-42 0 -61 -31 -61 -67v-49h74c37 0 66 -26 66 -60s-29 -59 -66 -59h-74v-310c0 -34 -25 -60 -69 -60s-69 26 -69 60zM423 56v471c0 132 93 193 204 195
c26 0 122 -1 122 -67c0 -38 -32 -60 -68 -60c-19 0 -40 6 -59 6c-42 0 -61 -31 -61 -67v-49h74c37 0 66 -26 66 -60s-29 -59 -66 -59h-74v-310c0 -34 -25 -60 -69 -60s-69 26 -69 60zM938 644c0 -39 -34 -70 -78 -70s-78 32 -78 70c0 39 34 70 78 70s78 -32 78 -70zM929 449
v-394c0 -35 -30 -62 -69 -62s-69 27 -69 62v394c0 33 30 61 69 61s69 -28 69 -61z" />
    <glyph glyph-name="ffl" unicode="ffl" horiz-adv-x="986" 
d="M64 56v471c0 132 93 193 204 195c26 0 122 -1 122 -67c0 -38 -32 -60 -68 -60c-19 0 -40 6 -59 6c-42 0 -61 -31 -61 -67v-49h74c37 0 66 -26 66 -60s-29 -59 -66 -59h-74v-310c0 -34 -25 -60 -69 -60s-69 26 -69 60zM423 56v471c0 132 93 193 204 195
c26 0 122 -1 122 -67c0 -38 -32 -60 -68 -60c-19 0 -40 6 -59 6c-42 0 -61 -31 -61 -67v-49h74c37 0 66 -26 66 -60s-29 -59 -66 -59h-74v-310c0 -34 -25 -60 -69 -60s-69 26 -69 60zM878 -7c-40 0 -96 13 -96 118v549c0 33 30 62 69 62s69 -27 69 -62v-537
c0 -21 1 -26 15 -41c10 -11 18 -16 18 -35c0 -36 -28 -54 -75 -54z" />
    <glyph glyph-name="uni0457_uni0457" unicode="&#x457;&#x457;" horiz-adv-x="560" 
d="M345 630c0 -35 -30 -63 -65 -63c-37 0 -66 29 -66 63c0 33 30 61 66 61s65 -27 65 -61zM211 55c0 -35 -30 -62 -69 -62s-69 27 -69 62v394c0 33 30 61 69 61s69 -28 69 -61v-394zM118 630c0 -35 -29 -63 -66 -63c-36 0 -64 29 -64 63c0 33 28 61 64 61
c37 0 66 -27 66 -61zM486 55c0 -35 -30 -62 -69 -62s-69 27 -69 62v394c0 33 30 61 69 61s69 -28 69 -61v-394zM572 630c0 -35 -29 -63 -65 -63s-66 29 -66 63c0 33 30 61 66 61s65 -27 65 -61z" />
    <glyph glyph-name=".notdef" horiz-adv-x="760" 
 />
    <glyph glyph-name="space" unicode=" " horiz-adv-x="300" 
 />
    <glyph glyph-name="exclam" unicode="!" horiz-adv-x="267" 
d="M73 228l-10 421c0 34 31 65 70 65c38 0 70 -31 70 -65l-10 -421c-1 -30 -29 -56 -60 -56c-34 0 -60 25 -60 56zM218 69c0 -42 -38 -78 -83 -78c-47 0 -84 36 -84 78s37 77 84 77c45 0 83 -35 83 -77z" />
    <glyph glyph-name="quotedbl" unicode="&#x22;" horiz-adv-x="383" 
d="M56 503l20 209c5 29 39 50 71 46c34 -5 57 -35 49 -63c-18 -74 -28 -137 -47 -211c-6 -22 -31 -36 -56 -33c-24 4 -39 30 -37 52zM203 503l20 209c5 29 39 50 71 46c34 -5 57 -35 49 -63c-18 -74 -28 -137 -47 -211c-6 -22 -31 -36 -56 -33c-24 4 -39 30 -37 52z" />
    <glyph glyph-name="numbersign" unicode="#" horiz-adv-x="581" 
d="M131 500h36l40 164c9 31 35 47 69 47c31 -3 61 -29 60 -61c0 -2 0 -8 -2 -13l-33 -137h46l40 164c9 31 35 47 69 47c34 -3 62 -30 60 -63c0 -3 -1 -7 -2 -11l-33 -137c34 -1 67 -28 67 -63c0 -36 -30 -64 -69 -64h-28l-10 -38h8c35 0 69 -28 69 -64s-30 -64 -69 -64h-38
l-40 -166c-9 -31 -35 -47 -69 -47c-34 2 -61 29 -61 62l2 9l34 142h-46l-40 -166c-9 -31 -35 -47 -69 -47c-32 3 -61 29 -61 62l2 9l34 142c-37 2 -65 29 -65 64c0 36 34 64 69 64h26l10 38h-6c-39 0 -69 28 -69 64s34 63 69 63zM271 373l-10 -38h46l10 38h-46z" />
    <glyph glyph-name="dollar" unicode="$" horiz-adv-x="526" 
d="M237 -28v49c-84 2 -206 30 -206 96c0 27 21 63 70 63c42 0 75 -28 136 -32v149c-97 31 -205 64 -205 197c0 114 79 182 205 189v50c0 14 12 26 26 26s26 -12 26 -26v-50c69 -4 176 -23 176 -90c0 -34 -29 -62 -69 -62c-36 0 -51 21 -107 25v-140
c104 -35 205 -62 205 -191c0 -120 -87 -190 -205 -202v-51c0 -14 -11 -26 -26 -26s-26 12 -26 26zM350 216c0 36 -23 48 -41 56l-20 8v-129c38 8 61 30 61 65zM217 444l20 -9v120c-35 -5 -62 -20 -62 -56c0 -34 24 -47 42 -55z" />
    <glyph glyph-name="percent" unicode="%" horiz-adv-x="743" 
d="M557 -9c-105 0 -161 76 -161 175c0 98 57 175 161 175s161 -77 161 -175c0 -99 -56 -175 -161 -175zM599 627l-337 -597c-16 -27 -48 -37 -81 -30c-32 11 -49 45 -40 77l5 11l337 596c17 27 48 37 79 28c30 -9 51 -37 43 -67c-1 -6 -4 -14 -6 -18zM557 103
c29 0 43 23 43 65c0 38 -14 61 -43 61s-43 -23 -43 -61c0 -42 14 -65 43 -65zM186 477c29 0 43 23 43 65c0 38 -14 61 -43 61s-43 -23 -43 -61c0 -42 14 -65 43 -65zM186 365c-104 0 -161 76 -161 175s56 175 161 175s161 -76 161 -175s-57 -175 -161 -175z" />
    <glyph glyph-name="ampersand" unicode="&#x26;" horiz-adv-x="682" 
d="M645 54c0 -32 -27 -63 -70 -63c-26 0 -40 11 -56 29l-43 47c-51 -43 -114 -76 -201 -76c-142 0 -238 87 -238 202c0 96 68 161 134 203c-42 50 -66 97 -66 148c0 102 96 168 198 168c108 0 194 -74 194 -143c0 -43 -34 -67 -70 -67c-71 0 -50 90 -119 90
c-34 0 -65 -22 -65 -51c0 -30 31 -65 61 -96l169 -177l37 70c19 36 41 42 62 40c34 -3 67 -27 67 -63c0 -38 -38 -102 -73 -150l63 -70c7 -8 16 -22 16 -41zM388 162l-132 140c-43 -25 -82 -54 -82 -102c0 -44 33 -88 97 -88c46 0 86 22 117 50z" />
    <glyph glyph-name="quotesingle" unicode="'" horiz-adv-x="263" 
d="M71 503l20 209c5 29 39 50 71 46c34 -5 57 -35 49 -63c-18 -74 -28 -137 -47 -211c-6 -22 -31 -36 -56 -33c-24 4 -39 30 -37 52z" />
    <glyph glyph-name="parenleft" unicode="(" horiz-adv-x="316" 
d="M194 231c0 -121 28 -242 92 -347c7 -12 14 -23 14 -39c0 -33 -21 -66 -68 -66c-24 0 -45 10 -59 30c-83 126 -118 279 -118 422s35 296 118 422c14 21 35 31 59 31c47 0 68 -33 68 -67c0 -15 -7 -27 -14 -38c-64 -105 -92 -226 -92 -348z" />
    <glyph glyph-name="parenright" unicode=")" horiz-adv-x="315" 
d="M121 231c0 122 -28 243 -92 348c-7 11 -14 23 -14 38c0 34 21 67 68 67c24 0 45 -10 59 -31c83 -126 118 -279 118 -422s-35 -296 -118 -422c-14 -20 -35 -30 -59 -30c-47 0 -68 33 -68 66c0 16 7 27 14 39c64 105 92 226 92 347z" />
    <glyph glyph-name="asterisk" unicode="*" horiz-adv-x="536" 
d="M320 586l109 40c3 1 6 1 10 1c24 0 52 -24 52 -62c0 -28 -22 -50 -50 -57l-83 -9l56 -64c10 -12 17 -27 17 -42c0 -27 -33 -58 -67 -58c-23 0 -43 12 -54 28l-42 70l-41 -70c-11 -16 -31 -28 -54 -28c-34 0 -67 31 -67 58c0 15 7 30 17 42l56 64l-83 9
c-28 7 -50 29 -50 57c0 38 28 62 52 62c4 0 7 0 10 -1l108 -40l-13 81c-5 30 19 63 65 63s70 -33 65 -63z" />
    <glyph glyph-name="plus" unicode="+" horiz-adv-x="540" 
d="M201 161v129h-120c-39 0 -69 28 -69 64s34 63 69 63h120v129c0 33 30 64 69 64s69 -28 69 -64v-129h120c35 0 69 -27 69 -63s-30 -64 -69 -64h-120v-129c0 -36 -30 -63 -69 -63s-69 31 -69 63z" />
    <glyph glyph-name="comma" unicode="," 
d="M83 -95c3 33 25 45 33 89c-38 8 -65 39 -65 75c0 42 37 77 84 77c44 0 83 -32 83 -81c0 -60 -44 -205 -94 -205c-16 0 -46 6 -41 45z" />
    <glyph glyph-name="hyphen" unicode="-" horiz-adv-x="439" 
d="M410 300c0 -35 -29 -61 -66 -61h-249c-38 0 -67 26 -67 61c0 33 29 61 67 61h249c37 0 66 -28 66 -61z" />
    <glyph glyph-name="period" unicode="." 
d="M218 69c0 -42 -38 -78 -83 -78c-47 0 -84 36 -84 78s37 77 84 77c45 0 83 -35 83 -77z" />
    <glyph glyph-name="slash" unicode="/" horiz-adv-x="360" 
d="M370 672l-256 -674c-12 -31 -44 -47 -76 -42c-36 7 -65 40 -54 72l261 688c12 31 43 47 75 41c34 -6 58 -39 55 -70c-1 -6 -3 -11 -5 -15z" />
    <glyph glyph-name="zero" unicode="0" horiz-adv-x="540" 
d="M270 601c-66 0 -92 -45 -92 -109v-282c0 -57 32 -96 92 -96s92 39 92 96v282c0 64 -26 109 -92 109zM270 723c161 0 231 -106 231 -238v-275c0 -122 -82 -219 -231 -219s-231 97 -231 219v275c0 132 70 238 231 238z" />
    <glyph glyph-name="one" unicode="1" horiz-adv-x="540" 
d="M261 56v486l-79 -48c-19 -12 -36 -21 -59 -21c-30 0 -64 15 -64 58c0 26 12 45 31 56l198 116c14 8 25 11 39 11c42 0 74 -29 74 -67v-591c0 -34 -32 -64 -70 -64c-39 0 -70 30 -70 64z" />
    <glyph glyph-name="two" unicode="2" horiz-adv-x="540" 
d="M504 63c0 -35 -30 -63 -69 -63h-329c-42 0 -71 29 -71 66c0 14 1 32 8 47c40 88 113 152 184 216c55 50 135 107 135 181c0 51 -32 91 -94 91c-34 0 -60 -6 -84 -16c-22 -9 -42 -27 -71 -27c-34 0 -68 24 -68 61c0 73 143 104 224 104c146 0 231 -90 231 -203
c0 -85 -33 -141 -79 -189c-67 -70 -155 -132 -209 -206h223c39 0 69 -27 69 -62z" />
    <glyph glyph-name="three" unicode="3" horiz-adv-x="540" 
d="M460 593l-136 -162c104 -19 174 -92 174 -200s-75 -239 -249 -239c-47 0 -207 13 -207 96c0 33 29 62 66 62c42 0 68 -37 136 -37c87 0 115 60 115 112c0 66 -44 92 -114 92c-26 0 -26 -11 -51 -11c-36 0 -65 29 -65 66c0 10 2 18 7 24l149 181h-161c-39 0 -69 28 -69 63
c0 36 30 66 69 66h279c43 0 73 -29 73 -68c0 -17 -6 -33 -16 -45z" />
    <glyph glyph-name="four" unicode="4" horiz-adv-x="540" 
d="M454 137v-82c0 -36 -30 -63 -69 -63s-69 27 -69 63v82h-220c-42 0 -71 32 -71 68c0 4 4 22 10 35l192 443c10 24 36 39 62 39c34 0 69 -30 69 -65c0 -6 0 -13 -4 -22c-58 -134 -105 -239 -163 -373h125v153c0 36 30 63 69 63c37 0 69 -27 69 -63v-153h13
c38 0 67 -29 67 -62c0 -35 -29 -63 -67 -63h-13z" />
    <glyph glyph-name="five" unicode="5" horiz-adv-x="540" 
d="M498 235c0 -116 -68 -243 -232 -243c-47 0 -224 13 -224 96c0 33 29 62 67 62c39 0 67 -37 134 -37c89 0 116 59 116 118c0 74 -42 108 -96 108c-22 0 -38 -4 -55 -13c0 0 -40 -31 -72 -31c-40 0 -71 28 -70 68l10 276c1 42 39 67 76 67h241c36 0 76 -17 76 -63
c0 -45 -40 -61 -76 -61h-187l-6 -130c20 6 43 8 65 8c137 0 233 -84 233 -225z" />
    <glyph glyph-name="six" unicode="6" horiz-adv-x="540" 
d="M294 593c-95 2 -113 -71 -120 -165c38 23 71 30 108 30c122 0 227 -76 227 -228c0 -130 -78 -239 -239 -239c-185 0 -239 145 -239 344c0 243 81 379 251 379c41 0 175 -8 183 -78c4 -31 -20 -62 -62 -62c-33 0 -62 18 -109 19zM171 299v-12c0 -88 18 -169 104 -169
c71 0 95 53 95 111c0 71 -37 104 -98 104c-39 0 -78 -13 -101 -34z" />
    <glyph glyph-name="seven" unicode="7" horiz-adv-x="540" 
d="M500 639c0 -7 -1 -20 -6 -29l-249 -578c-8 -18 -24 -40 -62 -40c-37 0 -72 21 -72 59c0 6 1 18 5 27l219 500h-227c-36 0 -68 28 -68 64c0 35 30 64 68 64h320c39 0 72 -29 72 -67z" />
    <glyph glyph-name="eight" unicode="8" horiz-adv-x="540" 
d="M521 207c0 -124 -103 -216 -251 -216c-145 0 -252 89 -252 212c0 77 42 132 99 169c-46 35 -74 83 -74 146c0 122 103 195 226 195c127 0 226 -78 226 -191c0 -58 -26 -106 -74 -143c58 -38 100 -93 100 -172zM358 519c0 43 -39 74 -88 74c-50 0 -89 -31 -89 -74
c0 -46 42 -76 91 -86c49 11 86 43 86 86zM382 207c0 56 -54 91 -115 104c-62 -13 -110 -50 -110 -104s49 -94 113 -94c65 0 112 42 112 94z" />
    <glyph glyph-name="nine" unicode="9" horiz-adv-x="540" 
d="M246 112c95 -2 113 71 120 165c-38 -23 -71 -30 -108 -30c-122 0 -227 76 -227 228c0 130 78 239 239 239c185 0 239 -145 239 -344c0 -243 -81 -379 -251 -379c-41 0 -175 8 -183 78c-4 31 20 62 62 62c33 0 62 -18 109 -19zM369 406v12c0 88 -18 169 -104 169
c-71 0 -95 -53 -95 -111c0 -71 37 -104 98 -104c39 0 78 13 101 34z" />
    <glyph glyph-name="colon" unicode=":" 
d="M218 69c0 -42 -38 -78 -83 -78c-47 0 -84 36 -84 78s37 77 84 77c45 0 83 -35 83 -77zM218 369c0 -42 -38 -78 -83 -78c-47 0 -84 36 -84 78s37 77 84 77c45 0 83 -35 83 -77z" />
    <glyph glyph-name="semicolon" unicode=";" 
d="M83 -95c3 33 25 45 33 89c-38 8 -65 39 -65 75c0 42 37 77 84 77c44 0 83 -32 83 -81c0 -60 -44 -205 -94 -205c-16 0 -46 6 -41 45zM218 369c0 -42 -38 -78 -83 -78c-47 0 -84 36 -84 78s37 77 84 77c45 0 83 -35 83 -77z" />
    <glyph glyph-name="less" unicode="&#x3c;" horiz-adv-x="665" 
d="M258 352l305 -141c26 -12 44 -36 44 -58c0 -36 -27 -65 -68 -65c-4 0 -22 2 -32 7l-398 191c-28 14 -51 27 -51 66c0 40 22 52 50 66l399 192c9 5 26 7 32 7c41 0 68 -30 68 -65c0 -23 -19 -47 -44 -59z" />
    <glyph glyph-name="equal" unicode="=" horiz-adv-x="540" 
d="M121 325h298c35 0 69 -28 69 -64s-30 -64 -69 -64h-298c-39 0 -69 28 -69 64s34 64 69 64zM121 510h298c35 0 69 -27 69 -63s-30 -64 -69 -64h-298c-39 0 -69 28 -69 64s34 63 69 63z" />
    <glyph glyph-name="greater" unicode="&#x3e;" horiz-adv-x="665" 
d="M102 211l305 141l-305 141c-25 12 -44 36 -44 59c0 35 27 65 68 65c6 0 23 -2 32 -7l399 -192c28 -14 50 -26 50 -66c0 -39 -23 -52 -51 -66l-398 -191c-10 -5 -28 -7 -32 -7c-41 0 -68 29 -68 65c0 22 18 46 44 58z" />
    <glyph glyph-name="question" unicode="?" horiz-adv-x="502" 
d="M325 264c-6 -6 -8 -22 -8 -31c-2 -39 -35 -64 -70 -64c-31 0 -70 20 -70 70c0 51 42 102 78 139c29 30 79 78 79 138c0 47 -31 87 -99 87c-22 0 -54 -4 -79 -16c-21 -10 -35 -27 -62 -27c-32 0 -67 24 -67 61c0 73 135 104 218 104c137 0 227 -84 227 -210
c0 -79 -36 -134 -79 -181c-33 -36 -50 -51 -68 -70zM330 68c0 -42 -38 -78 -84 -78s-83 36 -83 78s37 77 83 77s84 -35 84 -77z" />
    <glyph glyph-name="at" unicode="@" horiz-adv-x="784" 
d="M543 15c-36 -15 -104 -27 -161 -27c-205 0 -328 133 -328 328c0 191 117 324 335 324c224 0 341 -142 341 -314c0 -99 -41 -170 -148 -170c-49 0 -79 15 -102 39c-32 -36 -55 -49 -93 -49c-96 0 -163 71 -163 175c0 94 55 165 167 165c124 0 149 -87 159 -163
c5 -33 7 -66 32 -66c27 0 35 27 35 63c0 125 -77 224 -226 224c-146 0 -224 -95 -224 -228c0 -131 75 -221 233 -221c46 0 72 9 115 25c33 8 69 4 83 -25c17 -43 -23 -68 -55 -80zM388 246c17 0 32 8 50 20c-8 46 -4 24 -6 54c-2 29 -4 64 -41 64c-35 0 -49 -27 -49 -69
c0 -45 16 -69 46 -69z" />
    <glyph glyph-name="A" unicode="A" horiz-adv-x="589" 
d="M186 139l-33 -101c-10 -29 -42 -47 -66 -47c-39 0 -72 26 -72 64c0 5 1 17 3 22l195 569c13 39 33 68 81 68s68 -28 82 -68l195 -569c2 -5 3 -17 3 -22c0 -38 -31 -64 -72 -64c-26 0 -58 19 -68 47l-35 101h-213zM363 253l-51 171c-9 29 -14 67 -18 98
c-4 -31 -9 -69 -18 -98l-53 -171h140z" />
    <glyph glyph-name="B" unicode="B" horiz-adv-x="582" 
d="M203 429h115c35 0 77 24 77 78c0 38 -18 72 -70 72h-122v-150zM321 301h-118v-174h112c66 0 99 33 99 85c0 57 -40 89 -93 89zM306 0h-165c-44 0 -78 33 -78 72v561c0 41 36 72 78 72h169c150 0 225 -96 225 -196c0 -70 -45 -113 -105 -142c62 -25 124 -70 124 -157
c0 -117 -94 -210 -248 -210z" />
    <glyph glyph-name="C" unicode="C" horiz-adv-x="522" 
d="M175 452v-198c0 -86 30 -140 120 -140c32 0 58 8 83 24l10 6c13 8 20 15 43 15c38 0 66 -28 66 -60c0 -58 -101 -107 -207 -107c-175 0 -255 104 -255 262v198c0 158 80 262 255 262c106 0 207 -49 207 -107c0 -32 -28 -60 -66 -60c-23 0 -30 7 -43 15l-10 6
c-25 16 -51 24 -83 24c-90 0 -120 -54 -120 -140z" />
    <glyph glyph-name="D" unicode="D" horiz-adv-x="594" 
d="M558 271c0 -141 -77 -271 -304 -271h-113c-42 0 -78 33 -78 72v562c0 39 36 72 78 72h113c226 0 304 -124 304 -263v-172zM418 271v172c0 76 -39 136 -147 136h-68v-452h68c110 0 147 65 147 144z" />
    <glyph glyph-name="E" unicode="E" horiz-adv-x="514" 
d="M491 65c0 -36 -32 -65 -70 -65h-265c-49 0 -93 17 -93 71v563c0 35 33 71 77 71h271c38 0 70 -30 70 -65c0 -36 -32 -62 -70 -62h-208v-161h189c35 0 69 -27 69 -63s-30 -64 -69 -64h-189v-163h218c37 0 70 -28 70 -62z" />
    <glyph glyph-name="F" unicode="F" horiz-adv-x="514" 
d="M203 290v-235c0 -34 -32 -64 -70 -64c-39 0 -70 30 -70 64v580c0 35 33 71 77 71h271c38 0 70 -30 70 -65c0 -36 -32 -62 -70 -62h-208v-162h189c35 0 69 -27 69 -63s-30 -64 -69 -64h-189z" />
    <glyph glyph-name="G" unicode="G" horiz-adv-x="560" 
d="M175 452v-198c0 -86 30 -140 120 -140c35 0 60 9 83 21v156h-52c-33 0 -63 28 -63 63s30 63 63 63h109c46 0 82 -22 82 -70v-221c0 -94 -124 -134 -227 -134c-175 0 -255 104 -255 262v198c0 158 80 262 255 262c106 0 207 -49 207 -107c0 -32 -28 -60 -66 -60
c-23 0 -30 7 -43 15l-10 6c-25 15 -51 24 -83 24c-90 0 -120 -54 -120 -140z" />
    <glyph glyph-name="H" unicode="H" horiz-adv-x="620" 
d="M556 56c0 -35 -32 -65 -70 -65c-37 0 -70 30 -70 65v233h-213v-233c0 -35 -32 -65 -70 -65c-39 0 -70 30 -70 65v594c0 34 31 64 70 64c38 0 70 -30 70 -64v-233h213v233c0 34 33 64 70 64s70 -30 70 -64v-594z" />
    <glyph glyph-name="I" unicode="I" horiz-adv-x="267" 
d="M63 55v595c0 34 31 64 70 64c38 0 70 -30 70 -64v-595c0 -34 -32 -64 -70 -64c-39 0 -70 30 -70 64z" />
    <glyph glyph-name="J" unicode="J" horiz-adv-x="425" 
d="M362 650v-415c0 -152 -54 -244 -232 -244c-38 0 -115 4 -115 69c0 40 37 63 65 63c23 0 36 -6 61 -6c67 0 81 45 81 118v415c0 35 30 64 70 64c37 0 70 -30 70 -64z" />
    <glyph glyph-name="K" unicode="K" horiz-adv-x="556" 
d="M510 607l-199 -225l219 -290c10 -13 11 -24 11 -34c0 -29 -25 -67 -68 -67c-23 0 -43 9 -58 29l-194 260l-18 -20v-204c0 -35 -32 -65 -70 -65c-39 0 -70 30 -70 65v594c0 34 31 64 70 64c38 0 70 -30 70 -64v-190l198 225c12 15 35 29 57 29c30 0 69 -29 69 -64
c0 -15 -1 -25 -17 -43z" />
    <glyph glyph-name="L" unicode="L" horiz-adv-x="503" 
d="M488 64c0 -36 -30 -64 -68 -64h-282c-40 0 -75 30 -75 69v581c0 34 31 64 70 64c38 0 70 -30 70 -64v-524h217c36 0 68 -27 68 -62z" />
    <glyph glyph-name="M" unicode="M" horiz-adv-x="759" 
d="M698 648v-594c0 -34 -32 -63 -69 -63c-38 0 -71 29 -71 63v344l-114 -224c-13 -26 -38 -38 -66 -38c-27 0 -52 12 -65 38l-114 224v-344c0 -34 -33 -63 -72 -63c-38 0 -68 29 -68 63v594c0 38 31 66 72 66c32 0 57 -13 70 -39l178 -353l178 354c14 29 41 38 69 38
c41 0 72 -30 72 -66z" />
    <glyph glyph-name="N" unicode="N" horiz-adv-x="640" 
d="M502 -9c-26 0 -54 14 -67 35l-232 404v-374c0 -35 -33 -65 -71 -65c-39 0 -69 30 -69 65v590c0 39 31 68 73 68c27 0 54 -15 68 -37c89 -154 140 -245 232 -406v378c0 35 33 65 71 65c39 0 69 -30 69 -65v-590c0 -37 -30 -68 -74 -68z" />
    <glyph glyph-name="O" unicode="O" horiz-adv-x="610" 
d="M305 -9c-173 0 -260 117 -260 263v198c0 142 73 262 260 262s260 -120 260 -262v-198c0 -146 -87 -263 -260 -263zM305 587c-88 0 -120 -54 -120 -135v-198c0 -80 38 -136 120 -136s120 56 120 136v198c0 81 -32 135 -120 135z" />
    <glyph glyph-name="P" unicode="P" horiz-adv-x="570" 
d="M288 240h-85v-183c0 -35 -32 -66 -70 -66c-37 0 -70 30 -70 66v576c0 39 36 72 78 72h147c188 0 255 -112 255 -234c0 -148 -100 -231 -255 -231zM203 578v-211h85c75 0 115 33 115 105c0 52 -21 106 -115 106h-85z" />
    <glyph glyph-name="Q" unicode="Q" horiz-adv-x="610" 
d="M413 -173c-92 0 -151 67 -169 169c-133 25 -199 130 -199 258v198c0 142 73 262 260 262s260 -120 260 -262v-198c0 -122 -61 -225 -183 -254c8 -36 22 -51 44 -51h29c41 0 69 -23 69 -61c0 -59 -48 -61 -111 -61zM305 587c-88 0 -120 -54 -120 -135v-198
c0 -80 38 -136 120 -136s120 56 120 136v198c0 81 -32 135 -120 135z" />
    <glyph glyph-name="R" unicode="R" horiz-adv-x="615" 
d="M561 493c0 -99 -53 -164 -139 -192l137 -206c33 -50 -16 -103 -61 -103c-25 0 -46 11 -59 31l-168 263h-68v-229c0 -35 -33 -66 -71 -66c-37 0 -69 30 -69 66v576c0 39 35 72 76 72h174c188 0 248 -107 248 -212zM421 493c0 42 -21 85 -112 85h-106v-166h112
c69 0 106 29 106 81z" />
    <glyph glyph-name="S" unicode="S" horiz-adv-x="526" 
d="M350 204c0 45 -23 60 -41 68c-21 9 -46 18 -73 27c-98 30 -204 63 -204 208c0 129 90 207 232 207c59 0 201 -15 201 -90c0 -33 -26 -63 -70 -63c-18 0 -32 6 -49 11c-19 7 -41 15 -76 15c-49 0 -95 -17 -95 -76c0 -44 25 -59 42 -67c26 -13 50 -21 72 -27
c98 -31 205 -65 205 -207c0 -139 -106 -219 -249 -219c-74 0 -214 26 -214 96c0 32 29 63 66 63c15 0 31 -5 50 -12c24 -8 56 -20 99 -20c69 0 104 31 104 86z" />
    <glyph glyph-name="T" unicode="T" horiz-adv-x="523" 
d="M191 55v523h-106c-40 0 -70 29 -70 63c0 28 31 64 70 64h352c36 0 71 -28 71 -64c0 -34 -33 -63 -71 -63h-106v-523c0 -34 -32 -64 -70 -64c-39 0 -70 30 -70 64z" />
    <glyph glyph-name="U" unicode="U" horiz-adv-x="612" 
d="M557 240c0 -144 -93 -249 -251 -249c-161 0 -251 106 -251 249v408c0 38 31 66 71 66c37 0 69 -30 69 -66v-408c0 -72 35 -122 111 -122c75 0 110 51 110 122v408c0 35 30 66 69 66c41 0 72 -31 72 -66v-408z" />
    <glyph glyph-name="V" unicode="V" horiz-adv-x="583" 
d="M309 281l122 386c10 28 42 47 68 47c41 0 72 -26 72 -64c0 -5 -1 -17 -3 -22l-195 -569c-14 -40 -34 -68 -82 -68s-68 29 -81 68l-195 569c-2 5 -3 17 -3 22c0 38 33 64 72 64c24 0 56 -18 66 -47l123 -386c9 -29 14 -67 18 -98c4 31 9 69 18 98z" />
    <glyph glyph-name="W" unicode="W" horiz-adv-x="830" 
d="M495 640l58 -235c14 -55 19 -111 29 -167c10 56 16 112 30 167l64 255c8 32 33 51 64 51c34 0 78 -19 78 -61c0 -2 0 -7 -2 -13l-150 -583c-10 -33 -34 -63 -82 -63s-73 31 -83 64l-59 245c-13 52 -18 107 -27 160c-9 -53 -14 -108 -27 -160l-60 -247
c-9 -29 -29 -62 -82 -62c-41 0 -74 33 -83 63l-147 578c-2 10 -4 19 -4 19c0 37 40 60 75 60c29 0 57 -15 65 -48l66 -258c14 -54 19 -111 29 -166c10 53 15 113 28 166l59 235c12 47 26 74 81 74c51 0 69 -29 80 -74z" />
    <glyph glyph-name="X" unicode="X" horiz-adv-x="554" 
d="M277 251l-133 -220v1c-11 -18 -29 -41 -64 -41c-36 0 -68 32 -68 65c0 11 5 26 10 34l173 276l-159 251c-5 10 -8 23 -8 34c0 32 31 63 67 63c31 0 55 -22 69 -46l113 -186l113 186c13 19 35 46 70 46s66 -29 66 -64c0 -10 -4 -22 -9 -33l-158 -251l173 -276
c5 -8 10 -23 10 -34c0 -33 -33 -65 -67 -65c-35 0 -53 21 -65 40z" />
    <glyph glyph-name="Y" unicode="Y" horiz-adv-x="530" 
d="M265 -9c-40 0 -71 30 -71 66v219l-176 344c-3 7 -6 19 -6 29c0 35 35 65 71 65c21 0 45 -9 57 -30l125 -248l124 248c12 21 36 30 58 30c36 0 71 -30 71 -65c0 -9 -4 -20 -7 -29l-175 -344v-219c0 -35 -31 -66 -71 -66z" />
    <glyph glyph-name="Z" unicode="Z" horiz-adv-x="524" 
d="M504 65c0 -36 -32 -65 -70 -65h-343c-41 0 -72 31 -72 68c0 13 9 34 14 44c98 162 184 300 283 464h-226c-39 0 -69 28 -69 64c0 35 30 65 69 65h339c42 0 73 -30 73 -67c0 -18 -7 -32 -14 -43l-285 -466h231c37 0 70 -28 70 -64z" />
    <glyph glyph-name="bracketleft" unicode="[" horiz-adv-x="334" 
d="M318 -49c0 -48 -43 -63 -81 -63h-102c-36 0 -68 30 -68 63v780c0 46 38 62 82 62h102c33 0 67 -28 67 -61c0 -48 -42 -63 -80 -63h-32v-656h32c42 0 80 -15 80 -62z" />
    <glyph glyph-name="backslash" unicode="\" horiz-adv-x="360" 
d="M237 -2l-256 674c-2 4 -4 9 -5 15c-3 31 21 64 55 70c32 6 63 -10 75 -41l261 -688c11 -32 -18 -65 -54 -72c-32 -5 -64 11 -76 42z" />
    <glyph glyph-name="bracketright" unicode="]" horiz-adv-x="334" 
d="M266 -49c0 -35 -30 -63 -68 -63h-102c-39 0 -82 15 -82 63c0 49 41 62 81 62h32v656h-32c-38 0 -81 13 -81 63c0 47 43 61 82 61h102c34 0 68 -31 68 -62v-780z" />
    <glyph glyph-name="asciicircum" unicode="^" horiz-adv-x="366" 
d="M182 583l-80 -92c-10 -13 -32 -24 -50 -24c-36 0 -60 22 -60 55c1 17 11 35 26 50l110 125c12 14 30 25 54 25s42 -11 54 -25c37 -41 73 -84 110 -125c15 -15 25 -33 26 -50c0 -33 -24 -55 -60 -55c-19 0 -41 10 -50 24c-34 39 -45 54 -80 92z" />
    <glyph glyph-name="underscore" unicode="_" horiz-adv-x="640" 
d="M25 -93h590c35 0 69 -28 69 -64s-30 -63 -69 -63h-590c-39 0 -69 27 -69 63s34 64 69 64z" />
    <glyph glyph-name="grave" unicode="`" horiz-adv-x="237" 
d="M149 710l81 -79c8 -7 8 -15 8 -25c0 -29 -23 -49 -51 -49c-22 0 -30 8 -45 21l-82 82c-7 10 -9 20 -9 28c0 28 26 49 49 49c22 0 29 -7 41 -19z" />
    <glyph glyph-name="a" unicode="a" horiz-adv-x="522" 
d="M450 306v-186c0 -30 15 -27 32 -34c15 -6 23 -17 23 -38c0 -32 -19 -52 -72 -52c-37 0 -62 10 -85 42c-37 -30 -79 -45 -135 -45c-116 0 -178 63 -178 158v3c0 102 66 153 198 153c27 0 53 -2 79 -10v32c0 47 -25 69 -76 69c-28 0 -45 -7 -65 -16c-8 -3 -19 -10 -38 -10
c-42 0 -58 33 -58 58c0 59 88 83 171 83c145 0 204 -72 204 -207zM241 210c-58 0 -69 -27 -69 -57v-3c0 -33 19 -46 62 -46c26 0 52 6 78 26v72c-25 5 -51 8 -71 8z" />
    <glyph glyph-name="b" unicode="b" horiz-adv-x="535" 
d="M202 381v-220c0 -37 29 -60 76 -60c50 0 74 26 74 68v183c0 36 -20 57 -69 57c-32 0 -60 -9 -81 -28zM64 161v500c0 32 25 61 69 61s69 -29 69 -61v-176c32 18 62 28 109 28c127 0 179 -72 179 -166v-168c0 -105 -71 -186 -213 -186c-135 0 -213 74 -213 168z" />
    <glyph glyph-name="c" unicode="c" horiz-adv-x="443" 
d="M45 184v135c0 107 64 191 207 191c59 0 171 -14 171 -87c0 -24 -12 -51 -62 -51c-10 0 -19 1 -33 6c-21 8 -37 17 -68 17c-55 0 -77 -29 -77 -76v-135c0 -47 22 -76 77 -76c31 0 48 9 68 17c10 4 17 6 31 6c52 0 64 -28 64 -51c0 -72 -112 -87 -172 -87
c-141 0 -206 84 -206 191z" />
    <glyph glyph-name="d" unicode="d" horiz-adv-x="538" 
d="M235 509c31 0 52 -4 88 -19v171c0 34 25 61 69 61s69 -28 69 -61v-532c0 -15 6 -22 19 -35c10 -10 14 -20 14 -34c0 -40 -34 -61 -65 -61c-25 0 -45 16 -60 38c-49 -27 -90 -44 -141 -44c-116 0 -183 79 -183 196v113c0 119 47 207 190 207zM323 149v233
c-31 9 -56 13 -73 13c-49 0 -67 -31 -67 -93v-113c0 -52 22 -80 65 -80c21 0 46 7 77 21c-1 7 -2 13 -2 19z" />
    <glyph glyph-name="e" unicode="e" horiz-adv-x="485" 
d="M260 191c-26 0 -48 2 -77 6v-33c0 -34 26 -56 80 -56c32 0 58 8 90 22c4 2 13 6 30 6c48 0 62 -32 62 -55c0 -70 -128 -88 -192 -88c-132 0 -208 76 -208 175v167c0 101 74 178 213 178c131 0 196 -69 196 -170c0 -96 -59 -152 -194 -152zM317 350c0 40 -21 56 -60 56
c-48 0 -74 -25 -74 -65v-43c32 -3 62 -4 72 -4c38 0 62 13 62 56z" />
    <glyph glyph-name="f" unicode="f" horiz-adv-x="369" 
d="M64 56v471c0 132 93 193 204 195c26 0 122 -1 122 -67c0 -38 -32 -60 -68 -60c-19 0 -40 6 -59 6c-42 0 -61 -31 -61 -67v-49h74c37 0 66 -26 66 -60s-29 -59 -66 -59h-74v-310c0 -34 -25 -60 -69 -60s-69 26 -69 60z" />
    <glyph glyph-name="g" unicode="g" horiz-adv-x="533" 
d="M35 -80c0 39 17 72 64 110c-16 28 -21 61 -21 82c0 23 7 47 28 73c-43 36 -64 83 -64 138c0 108 72 190 200 190c51 0 91 -13 134 -34c27 37 60 55 88 55c34 0 65 -25 65 -58c0 -17 -9 -30 -16 -36c-35 -31 -45 -40 -45 -68v-56c0 -103 -69 -182 -215 -182
c-16 0 -37 1 -55 5c-5 -13 -6 -16 -6 -23c0 -28 16 -32 28 -32h42c130 0 230 -48 230 -154s-99 -172 -235 -172c-131 0 -222 62 -222 162zM330 385c-26 11 -48 17 -71 17c-51 0 -79 -29 -79 -81c0 -48 23 -79 77 -79c50 0 73 28 73 73v70zM264 -29l-73 1
c-12 -15 -18 -26 -18 -42c0 -37 28 -59 86 -59c57 0 95 21 95 56c0 30 -28 44 -90 44z" />
    <glyph glyph-name="h" unicode="h" horiz-adv-x="547" 
d="M201 371v-316c0 -35 -29 -62 -68 -62s-69 27 -69 62v610c0 32 29 62 68 62s69 -27 69 -62v-179c28 17 61 27 95 27c128 0 186 -72 186 -175v-283c0 -35 -32 -62 -69 -62c-39 0 -69 27 -69 62v292c0 38 -16 57 -57 57c-28 0 -63 -11 -86 -33z" />
    <glyph glyph-name="i" unicode="i" horiz-adv-x="285" 
d="M220 644c0 -39 -34 -70 -78 -70s-78 32 -78 70c0 39 34 70 78 70s78 -32 78 -70zM211 449v-394c0 -35 -30 -62 -69 -62s-69 27 -69 62v394c0 33 30 61 69 61s69 -28 69 -61z" />
    <glyph glyph-name="j" unicode="j" horiz-adv-x="285" 
d="M220 644c0 -39 -34 -70 -78 -70s-78 32 -78 70c0 39 34 70 78 70s78 -32 78 -70zM211 449v-456c0 -115 -73 -194 -190 -194c-31 0 -55 17 -62 42c-13 45 25 67 52 72c37 7 62 29 62 77v459c0 33 30 61 69 61s69 -28 69 -61z" />
    <glyph glyph-name="k" unicode="k" horiz-adv-x="487" 
d="M202 343l138 149c12 12 31 17 47 17c38 0 67 -25 67 -59c0 -16 -6 -30 -19 -42h1l-122 -129l147 -194c7 -10 11 -26 11 -37c-2 -34 -31 -55 -67 -55c-25 0 -44 10 -57 28l-135 183l-11 -10v-139c0 -35 -30 -62 -69 -62s-69 27 -69 62v605c0 35 30 62 69 62s69 -27 69 -62
v-317z" />
    <glyph glyph-name="l" unicode="l" horiz-adv-x="268" 
d="M160 -7c-40 0 -96 13 -96 118v549c0 33 30 62 69 62s69 -27 69 -62v-537c0 -21 1 -26 15 -41c10 -11 18 -16 18 -35c0 -36 -28 -54 -75 -54z" />
    <glyph glyph-name="m" unicode="m" horiz-adv-x="818" 
d="M615 55v277c0 35 -21 63 -58 63c-26 0 -53 -13 -80 -35c1 -9 2 -17 2 -26v-279c0 -34 -23 -61 -69 -61s-69 27 -69 61v259c0 46 -8 81 -52 81c-25 0 -55 -11 -85 -26c1 -3 1 -8 1 -11v-303c0 -34 -23 -61 -69 -61s-69 27 -69 61v303c0 33 -4 36 -8 42
c-14 19 -17 27 -17 38c0 36 31 59 65 59c23 0 40 -11 53 -28c45 28 92 44 135 44c42 0 80 -15 116 -44c54 29 97 44 151 44c118 0 191 -72 191 -179v-279c0 -34 -23 -61 -69 -61s-69 27 -69 61z" />
    <glyph glyph-name="n" unicode="n" horiz-adv-x="549" 
d="M205 357v-302c0 -34 -23 -61 -69 -61s-69 27 -69 61v303c0 33 -4 36 -8 42c-14 19 -17 26 -17 39c0 33 29 58 67 58c21 0 39 -11 53 -29c45 30 92 43 132 43c126 0 189 -78 189 -195v-261c0 -34 -25 -61 -69 -61s-69 27 -69 61v261c0 50 -25 81 -65 81
c-21 0 -46 -7 -77 -21c1 -7 2 -13 2 -19z" />
    <glyph glyph-name="o" unicode="o" horiz-adv-x="524" 
d="M262 -7c-142 0 -217 81 -217 186v149c0 105 75 186 217 186s217 -81 217 -186v-149c0 -105 -75 -186 -217 -186zM262 111c52 0 79 26 79 68v150c0 41 -27 67 -79 67s-79 -26 -79 -67v-150c0 -42 27 -68 79 -68z" />
    <glyph glyph-name="p" unicode="p" horiz-adv-x="528" 
d="M292 -6c-27 0 -51 3 -87 20v-165c0 -34 -25 -61 -69 -61s-69 28 -69 61v508c0 23 -3 35 -11 47c-8 10 -14 18 -14 32c0 37 34 61 66 61c21 0 38 -11 52 -28c48 27 88 44 141 44c115 0 182 -80 182 -196v-116c0 -118 -47 -207 -191 -207zM205 357v-236
c30 -9 55 -13 73 -13c49 0 67 30 67 93v116c0 52 -22 80 -65 80c-21 0 -46 -7 -77 -21c1 -7 2 -13 2 -19z" />
    <glyph glyph-name="q" unicode="q" horiz-adv-x="535" 
d="M333 134v208c0 33 -29 53 -74 53c-52 0 -76 -27 -76 -71v-141c0 -47 19 -75 71 -75c26 0 56 7 79 26zM471 342v-473c0 -34 -23 -61 -69 -61s-69 27 -69 61v151c-30 -18 -59 -26 -102 -26c-138 0 -186 81 -186 189v141c0 107 71 189 213 189c135 0 213 -75 213 -171z" />
    <glyph glyph-name="r" unicode="r" horiz-adv-x="377" 
d="M299 386c-43 2 -61 4 -96 -10c1 -7 2 -13 2 -19v-302c0 -35 -30 -62 -69 -62s-69 27 -69 62v302c0 23 -3 35 -11 47c-8 10 -14 18 -14 33c0 36 32 60 68 60c21 0 39 -13 53 -31c46 27 92 43 124 43c63 0 82 -26 82 -60c0 -39 -32 -65 -70 -63z" />
    <glyph glyph-name="s" unicode="s" horiz-adv-x="446" 
d="M43 358c0 92 65 155 193 155c65 0 162 -16 162 -85c0 -43 -38 -51 -59 -51c-35 0 -53 21 -102 21c-38 0 -58 -13 -58 -36c0 -14 8 -24 30 -33c72 -31 203 -45 203 -178c0 -97 -69 -158 -195 -158c-64 0 -180 16 -180 78c0 29 26 59 65 59c33 0 64 -22 113 -22
c36 0 61 12 61 40c0 18 -10 26 -21 32c-65 36 -212 39 -212 178z" />
    <glyph glyph-name="t" unicode="t" horiz-adv-x="361" 
d="M64 208v388c0 34 25 61 69 61s69 -28 69 -61v-111h74c37 0 66 -26 66 -60s-29 -59 -66 -59h-74v-151c0 -74 6 -100 54 -100c9 0 15 1 17 1c63 0 82 -17 82 -54c0 -58 -46 -66 -96 -66c-155 0 -195 76 -195 212z" />
    <glyph glyph-name="u" unicode="u" horiz-adv-x="549" 
d="M388 37c-47 -33 -93 -44 -138 -44c-121 0 -186 79 -186 196v261c0 34 25 60 69 60s69 -26 69 -60v-261c0 -51 21 -80 65 -80c21 0 46 7 77 21c-1 7 -2 13 -2 19v301c0 34 23 60 69 60s69 -26 69 -60v-321c0 -15 6 -22 19 -35c10 -10 14 -20 14 -34c0 -40 -34 -61 -64 -61
c-26 0 -46 16 -61 38z" />
    <glyph glyph-name="v" unicode="v" horiz-adv-x="470" 
d="M148 468l55 -168c17 -54 23 -110 34 -165c11 55 17 111 33 165l52 167c9 26 38 43 65 43c36 0 68 -24 68 -60c0 -5 0 -10 -2 -17l-137 -379c-16 -43 -37 -61 -79 -61c-44 0 -65 18 -80 59l-139 382c-2 7 -2 12 -2 17c0 36 32 60 68 60c27 0 55 -17 64 -43z" />
    <glyph glyph-name="w" unicode="w" horiz-adv-x="695" 
d="M409 43l-42 160c-11 40 -13 81 -19 122c-6 -41 -9 -82 -19 -122l-41 -160c-10 -36 -35 -50 -76 -50c-44 0 -67 22 -79 60l-116 384c-2 5 -2 9 -2 13c0 31 30 60 69 60c29 0 57 -16 65 -45l43 -165c13 -50 13 -101 20 -152c8 51 10 102 23 152l40 159c8 29 34 51 74 51
c39 0 65 -22 72 -51l39 -159c12 -50 16 -102 24 -153c7 51 7 103 20 153l43 165c7 25 36 45 65 45c36 0 68 -26 68 -61c0 -1 -1 -7 -1 -10l-116 -387c-12 -39 -31 -59 -79 -59c-34 0 -66 18 -75 50z" />
    <glyph glyph-name="x" unicode="x" horiz-adv-x="471" 
d="M317 257l129 -170c8 -10 10 -21 10 -31c0 -34 -28 -63 -70 -63c-32 0 -45 11 -63 36c-35 50 -52 70 -88 121c-31 -42 -63 -85 -93 -127c-15 -20 -33 -30 -57 -30c-39 0 -70 25 -70 62c0 10 3 21 10 30c45 61 85 111 130 172c-40 53 -80 104 -120 159c-8 9 -12 23 -12 32
c0 33 30 62 69 62s55 -24 69 -43l76 -103l80 111c15 21 30 35 62 35s68 -26 68 -60c0 -9 -2 -22 -10 -32z" />
    <glyph glyph-name="y" unicode="y" horiz-adv-x="474" 
d="M271 300l54 168c9 29 38 42 65 42c35 0 69 -25 69 -61c0 -7 -1 -13 -3 -18l-122 -356c-55 -162 -93 -278 -245 -278c-40 0 -70 25 -70 60c0 30 25 58 66 60c44 2 66 34 90 112l-154 397c-4 10 -5 19 -5 25c0 34 30 59 69 59c27 0 52 -14 63 -42l63 -168
c14 -36 21 -78 32 -115c9 37 16 79 28 115z" />
    <glyph glyph-name="z" unicode="z" horiz-adv-x="434" 
d="M422 443c0 -13 -4 -28 -14 -41l-216 -284h165c38 0 67 -26 67 -59s-29 -59 -67 -59h-277c-37 0 -70 28 -70 64c0 12 2 24 12 37l217 286h-153c-37 0 -66 26 -66 59c0 34 29 59 66 59h265c38 0 71 -23 71 -62z" />
    <glyph glyph-name="braceleft" unicode="{" horiz-adv-x="437" 
d="M80 182c-24 2 -59 8 -59 61c0 55 39 59 59 61c26 3 45 6 49 57c3 42 2 49 11 177c6 88 82 139 190 139c40 0 86 -7 86 -68s-45 -58 -76 -54c-8 1 -19 2 -24 2c-19 0 -39 -12 -40 -33c-1 -14 -5 -125 -9 -161c-6 -50 -32 -89 -96 -120c59 -29 92 -68 95 -121l10 -161
c1 -19 23 -33 39 -32c2 0 23 2 26 2c28 2 75 7 75 -54s-46 -69 -86 -69c-105 0 -185 55 -190 139l-11 179c-3 53 -33 55 -49 56z" />
    <glyph glyph-name="bar" unicode="|" horiz-adv-x="267" 
d="M67 -160v854c0 32 29 61 66 61s66 -29 66 -61v-854c0 -33 -29 -61 -66 -61s-66 28 -66 61z" />
    <glyph glyph-name="braceright" unicode="}" horiz-adv-x="437" 
d="M362 182c-23 -2 -46 -7 -49 -56l-11 -179c-5 -82 -83 -139 -190 -139c-40 0 -86 8 -86 70c0 53 34 54 76 54c0 0 14 -2 24 -2c28 0 39 15 40 31l10 161c3 53 36 92 95 121c-59 27 -93 73 -96 120c-10 135 -7 149 -9 161c-3 22 -20 33 -39 33c-6 0 -17 -1 -25 -2
c-31 -4 -76 -7 -76 54s46 68 86 68c108 0 184 -51 190 -139c11 -159 9 -154 11 -177c4 -51 23 -54 49 -57c20 -2 59 -6 59 -61s-38 -59 -59 -61z" />
    <glyph glyph-name="asciitilde" unicode="~" horiz-adv-x="496" 
d="M435 345c0 -50 -61 -88 -108 -88c-63 0 -97 44 -133 48c-36 5 -38 -43 -78 -43c-24 0 -53 19 -55 49c0 56 51 96 105 96c68 0 98 -48 135 -48s36 44 75 44c30 0 59 -24 59 -58z" />
    <glyph glyph-name="exclamdown" unicode="&#xa1;" horiz-adv-x="267" 
d="M63 -150l10 421c0 31 26 56 60 56c31 0 59 -26 60 -56l10 -421c0 -34 -32 -65 -70 -65c-39 0 -70 31 -70 65zM218 430c0 -42 -38 -77 -83 -77c-47 0 -84 35 -84 77s37 78 84 78c45 0 83 -36 83 -78z" />
    <glyph glyph-name="cent" unicode="&#xa2;" horiz-adv-x="443" 
d="M45 214v85c0 103 59 185 192 191v43c0 14 11 26 26 26s26 -12 26 -26v-45c56 -6 124 -26 124 -85c0 -24 -12 -51 -62 -51c-10 0 -19 1 -33 6l-29 12v-228c10 3 19 8 29 13c10 4 18 6 31 6c52 0 64 -29 64 -51c0 -58 -68 -79 -124 -85v-53c0 -14 -11 -26 -26 -26
s-26 12 -26 26v51c-132 5 -192 87 -192 191zM183 214c0 -40 16 -67 54 -74v233c-38 -8 -54 -34 -54 -74v-85z" />
    <glyph glyph-name="yen" unicode="&#xa5;" horiz-adv-x="540" 
d="M100 369h51l-128 251c-3 7 -6 19 -6 29c0 35 35 65 71 65c21 0 45 -9 57 -30l125 -248l124 248c12 21 36 30 58 30c36 0 71 -30 71 -65c0 -9 -4 -20 -7 -29l-128 -251h50c20 0 39 -16 39 -37s-17 -37 -39 -37h-88l-9 -19v-37h97c20 0 39 -16 39 -37s-17 -37 -39 -37h-97
v-108c0 -32 -25 -60 -60 -65c-4 -1 -8 -2 -12 -2c-6 0 -11 1 -15 3c-32 6 -55 33 -55 64v108h-99c-22 0 -39 16 -39 37s19 37 39 37h99v37l-10 19h-89c-22 0 -39 16 -39 37s19 37 39 37z" />
    <glyph glyph-name="dieresis" unicode="&#xa8;" horiz-adv-x="443" 
d="M389 630c0 -35 -29 -63 -65 -63s-66 29 -66 63c0 33 30 61 66 61s65 -27 65 -61zM210 630c0 -35 -29 -63 -66 -63c-36 0 -64 29 -64 63c0 33 28 61 64 61c37 0 66 -27 66 -61z" />
    <glyph glyph-name="copyright" unicode="&#xa9;" horiz-adv-x="740" 
d="M676 313c0 -189 -108 -322 -306 -322s-306 133 -306 322s108 322 306 322s306 -133 306 -322zM616 313c0 154 -87 262 -246 262s-246 -108 -246 -262s87 -262 246 -262s246 108 246 262zM226 283v61c0 82 46 147 153 147c41 0 121 -13 121 -59c0 -19 -16 -37 -37 -37
c-4 0 -8 1 -13 2c-19 11 -36 19 -64 19c-49 0 -68 -26 -68 -72v-61c0 -47 19 -72 68 -72c28 0 45 9 64 18c5 2 9 3 13 3c21 0 37 -18 37 -38c0 -45 -80 -58 -121 -58c-107 0 -153 64 -153 147z" />
    <glyph glyph-name="guillemotleft" unicode="&#xab;" horiz-adv-x="431" 
d="M132 258l140 -208c4 -6 5 -12 5 -17c0 -22 -16 -41 -40 -41c-18 0 -26 8 -38 27l-158 237l152 229c10 16 19 26 37 26s38 -16 38 -37c0 -6 -1 -13 -5 -19zM292 256l93 -142c4 -6 5 -13 5 -19c0 -21 -20 -37 -38 -37s-27 10 -37 26l-114 172l114 172c10 16 19 26 37 26
s38 -16 38 -37c0 -6 -1 -13 -5 -19z" />
    <glyph glyph-name="registered" unicode="&#xae;" horiz-adv-x="700" 
d="M636 423c0 -171 -100 -292 -286 -292s-286 121 -286 292c0 177 100 302 286 302s286 -125 286 -302zM576 423c0 142 -79 242 -226 242s-226 -100 -226 -242c0 -136 79 -232 226 -232s226 96 226 232zM471 486c0 -42 -20 -70 -53 -85l59 -90c11 -16 7 -40 -23 -40
c-33 0 -48 16 -54 24l-61 94h-17v-83c0 -18 -20 -35 -41 -35c-20 0 -39 15 -39 35v235c0 23 21 44 43 44h67c88 0 119 -50 119 -99zM391 486c0 14 -5 30 -31 30h-38v-59h41c18 0 28 10 28 29z" />
    <glyph glyph-name="acute" unicode="&#xb4;" horiz-adv-x="316" 
d="M96 631l81 79l8 8c12 12 19 19 41 19c23 0 49 -21 49 -49c0 -8 -2 -18 -9 -28l-82 -82c-15 -13 -23 -21 -45 -21c-28 0 -51 20 -51 49c0 10 2 17 8 25z" />
    <glyph glyph-name="periodcentered" unicode="&#xb7;" horiz-adv-x="295" 
d="M228 280c0 -43 -37 -77 -84 -77c-45 0 -83 34 -83 77c0 42 38 77 83 77c47 0 84 -35 84 -77z" />
    <glyph glyph-name="cedilla" unicode="&#xb8;" horiz-adv-x="341" 
d="M276 -118c0 -57 -46 -98 -114 -98c-55 0 -120 19 -120 59c0 18 14 29 34 29c19 0 47 -9 73 -9c32 0 47 8 47 22c0 15 -15 21 -57 28c-31 6 -47 5 -45 47l14 84h78l-10 -77c72 -6 100 -39 100 -85z" />
    <glyph glyph-name="ordmasculine" unicode="&#xba;" horiz-adv-x="424" 
d="M212 319c-114 0 -172 69 -172 160v74c0 91 58 161 172 161s172 -70 172 -161v-74c0 -91 -58 -160 -172 -160zM212 601c-33 0 -45 -19 -45 -52v-72c0 -28 14 -46 45 -46s45 18 45 46v72c0 33 -12 52 -45 52z" />
    <glyph glyph-name="guillemotright" unicode="&#xbb;" horiz-adv-x="431" 
d="M159 50l140 208l-131 197c-4 6 -5 13 -5 19c0 21 20 37 38 37s27 -10 37 -26l152 -229l-158 -237c-12 -19 -20 -27 -38 -27c-24 0 -40 19 -40 41c0 5 1 11 5 17zM46 114l93 142l-93 142c-4 6 -5 13 -5 19c0 21 20 37 38 37s27 -10 37 -26l114 -172l-114 -172
c-10 -16 -19 -26 -37 -26s-38 16 -38 37c0 6 1 13 5 19z" />
    <glyph glyph-name="questiondown" unicode="&#xbf;" horiz-adv-x="502" 
d="M174 236c6 6 8 22 8 31c2 39 35 64 70 64c31 0 70 -20 70 -70c0 -51 -42 -102 -78 -139c-29 -30 -79 -78 -79 -138c0 -47 31 -87 99 -87c22 0 54 4 79 16c21 10 35 27 62 27c32 0 67 -24 67 -61c0 -73 -135 -104 -218 -104c-137 0 -227 84 -227 210c0 79 36 134 79 181
c33 36 50 51 68 70zM169 432c0 42 38 78 84 78s83 -36 83 -78s-37 -77 -83 -77s-84 35 -84 77z" />
    <glyph glyph-name="Agrave" unicode="&#xc0;" horiz-adv-x="589" 
d="M186 139l-33 -101c-10 -29 -42 -47 -66 -47c-39 0 -72 26 -72 64c0 5 1 17 3 22l195 569c13 39 33 68 81 68s68 -28 82 -68l195 -569c2 -5 3 -17 3 -22c0 -38 -31 -64 -72 -64c-26 0 -58 19 -68 47l-35 101h-213zM363 253l-51 171c-9 29 -14 67 -18 98
c-4 -31 -9 -69 -18 -98l-53 -171h140zM266 910l81 -79c8 -7 8 -15 8 -25c0 -29 -23 -49 -51 -49c-22 0 -30 8 -45 21l-82 82c-7 10 -9 20 -9 28c0 28 26 49 49 49c22 0 29 -7 41 -19z" />
    <glyph glyph-name="Aacute" unicode="&#xc1;" horiz-adv-x="589" 
d="M186 139l-33 -101c-10 -29 -42 -47 -66 -47c-39 0 -72 26 -72 64c0 5 1 17 3 22l195 569c13 39 33 68 81 68s68 -28 82 -68l195 -569c2 -5 3 -17 3 -22c0 -38 -31 -64 -72 -64c-26 0 -58 19 -68 47l-35 101h-213zM363 253l-51 171c-9 29 -14 67 -18 98
c-4 -31 -9 -69 -18 -98l-53 -171h140zM251 831l81 79l8 8c12 12 19 19 41 19c23 0 49 -21 49 -49c0 -8 -2 -18 -9 -28l-82 -82c-15 -13 -23 -21 -45 -21c-28 0 -51 20 -51 49c0 10 2 17 8 25z" />
    <glyph glyph-name="Acircumflex" unicode="&#xc2;" horiz-adv-x="589" 
d="M186 139l-33 -101c-10 -29 -42 -47 -66 -47c-39 0 -72 26 -72 64c0 5 1 17 3 22l195 569c13 39 33 68 81 68s68 -28 82 -68l195 -569c2 -5 3 -17 3 -22c0 -38 -31 -64 -72 -64c-26 0 -58 19 -68 47l-35 101h-213zM363 253l-51 171c-9 29 -14 67 -18 98
c-4 -31 -9 -69 -18 -98l-53 -171h140zM294 916c16 0 28 -6 37 -13l79 -61c15 -13 26 -28 27 -45c0 -25 -23 -46 -50 -46c-33 0 -65 38 -93 64c-28 -26 -60 -64 -93 -64c-27 0 -50 21 -50 46c1 17 12 32 27 45l79 61c9 7 21 13 37 13z" />
    <glyph glyph-name="Atilde" unicode="&#xc3;" horiz-adv-x="589" 
d="M186 139l-33 -101c-10 -29 -42 -47 -66 -47c-39 0 -72 26 -72 64c0 5 1 17 3 22l195 569c13 39 33 68 81 68s68 -28 82 -68l195 -569c2 -5 3 -17 3 -22c0 -38 -31 -64 -72 -64c-26 0 -58 19 -68 47l-35 101h-213zM363 253l-51 171c-9 29 -14 67 -18 98
c-4 -31 -9 -69 -18 -98l-53 -171h140zM450 843c0 -42 -51 -73 -90 -73c-53 0 -81 36 -111 40s-32 -36 -65 -36c-21 0 -43 16 -46 41c0 46 43 80 88 80c56 0 81 -40 112 -40s30 36 63 36c25 0 49 -20 49 -48z" />
    <glyph glyph-name="Adieresis" unicode="&#xc4;" horiz-adv-x="589" 
d="M186 139l-33 -101c-10 -29 -42 -47 -66 -47c-39 0 -72 26 -72 64c0 5 1 17 3 22l195 569c13 39 33 68 81 68s68 -28 82 -68l195 -569c2 -5 3 -17 3 -22c0 -38 -31 -64 -72 -64c-26 0 -58 19 -68 47l-35 101h-213zM363 253l-51 171c-9 29 -14 67 -18 98
c-4 -31 -9 -69 -18 -98l-53 -171h140zM449 830c0 -35 -29 -63 -65 -63s-66 29 -66 63c0 33 30 61 66 61s65 -27 65 -61zM270 830c0 -35 -29 -63 -66 -63c-36 0 -64 29 -64 63c0 33 28 61 64 61c37 0 66 -27 66 -61z" />
    <glyph glyph-name="Aring" unicode="&#xc5;" horiz-adv-x="589" 
d="M186 139l-33 -101c-10 -29 -42 -47 -66 -47c-39 0 -72 26 -72 64c0 5 1 17 3 22l196 572c-18 20 -29 46 -29 75c0 59 48 109 110 109c61 0 109 -50 109 -109c0 -29 -11 -56 -29 -75l196 -572c2 -5 3 -17 3 -22c0 -38 -31 -64 -72 -64c-26 0 -58 19 -68 47l-35 101h-213z
M363 253l-51 171c-9 29 -14 67 -18 98c-4 -31 -9 -69 -18 -98l-53 -171h140zM339 724c0 24 -20 45 -44 45s-44 -21 -44 -45c0 -25 20 -44 44 -44s44 19 44 44z" />
    <glyph glyph-name="AE" unicode="&#xc6;" horiz-adv-x="772" 
d="M454 0c-49 0 -93 17 -93 71v68h-174l-33 -100c-10 -29 -42 -48 -67 -48c-41 0 -72 26 -72 64c0 5 1 17 3 22l193 560c13 34 39 68 81 68h377c38 0 70 -29 70 -65c0 -35 -32 -62 -70 -62h-168v-161h149c35 0 69 -27 69 -63s-30 -64 -69 -64h-149v-163h178
c37 0 70 -28 70 -62c0 -36 -32 -65 -70 -65h-225zM361 578h-8c-14 0 -22 -6 -26 -19l-102 -306h136v325z" />
    <glyph glyph-name="Ccedilla" unicode="&#xc7;" horiz-adv-x="522" 
d="M419 -118c0 -57 -46 -98 -114 -98c-55 0 -120 19 -120 59c0 18 14 29 34 29c19 0 47 -9 73 -9c32 0 47 8 47 22c0 15 -15 21 -57 28c-31 6 -47 5 -45 47l6 35c-143 17 -208 116 -208 259v198c0 158 80 262 255 262c106 0 207 -49 207 -107c0 -32 -28 -60 -66 -60
c-23 0 -30 7 -43 15l-10 6c-25 16 -51 24 -83 24c-90 0 -120 -54 -120 -140v-198c0 -86 30 -140 120 -140c32 0 58 8 83 24l10 6c13 8 20 15 43 15c38 0 66 -28 66 -60c0 -52 -81 -97 -175 -105l-3 -27c72 -6 100 -39 100 -85z" />
    <glyph glyph-name="Egrave" unicode="&#xc8;" horiz-adv-x="514" 
d="M491 65c0 -36 -32 -65 -70 -65h-265c-49 0 -93 17 -93 71v563c0 35 33 71 77 71h271c38 0 70 -30 70 -65c0 -36 -32 -62 -70 -62h-208v-161h189c35 0 69 -27 69 -63s-30 -64 -69 -64h-189v-163h218c37 0 70 -28 70 -62zM261 910l81 -79c8 -7 8 -15 8 -25
c0 -29 -23 -49 -51 -49c-22 0 -30 8 -45 21l-82 82c-7 10 -9 20 -9 28c0 28 26 49 49 49c22 0 29 -7 41 -19z" />
    <glyph glyph-name="Eacute" unicode="&#xc9;" horiz-adv-x="514" 
d="M491 65c0 -36 -32 -65 -70 -65h-265c-49 0 -93 17 -93 71v563c0 35 33 71 77 71h271c38 0 70 -30 70 -65c0 -36 -32 -62 -70 -62h-208v-161h189c35 0 69 -27 69 -63s-30 -64 -69 -64h-189v-163h218c37 0 70 -28 70 -62zM237 831l81 79l8 8c12 12 19 19 41 19
c23 0 49 -21 49 -49c0 -8 -2 -18 -9 -28l-82 -82c-15 -13 -23 -21 -45 -21c-28 0 -51 20 -51 49c0 10 2 17 8 25z" />
    <glyph glyph-name="Ecircumflex" unicode="&#xca;" horiz-adv-x="514" 
d="M491 65c0 -36 -32 -65 -70 -65h-265c-49 0 -93 17 -93 71v563c0 35 33 71 77 71h271c38 0 70 -30 70 -65c0 -36 -32 -62 -70 -62h-208v-161h189c35 0 69 -27 69 -63s-30 -64 -69 -64h-189v-163h218c37 0 70 -28 70 -62zM285 916c16 0 28 -6 37 -13l79 -61
c15 -13 26 -28 27 -45c0 -25 -23 -46 -50 -46c-33 0 -65 38 -93 64c-28 -26 -60 -64 -93 -64c-27 0 -50 21 -50 46c1 17 12 32 27 45l79 61c9 7 21 13 37 13z" />
    <glyph glyph-name="Edieresis" unicode="&#xcb;" horiz-adv-x="514" 
d="M491 65c0 -36 -32 -65 -70 -65h-265c-49 0 -93 17 -93 71v563c0 35 33 71 77 71h271c38 0 70 -30 70 -65c0 -36 -32 -62 -70 -62h-208v-161h189c35 0 69 -27 69 -63s-30 -64 -69 -64h-189v-163h218c37 0 70 -28 70 -62zM436 830c0 -35 -29 -63 -65 -63s-66 29 -66 63
c0 33 30 61 66 61s65 -27 65 -61zM257 830c0 -35 -29 -63 -66 -63c-36 0 -64 29 -64 63c0 33 28 61 64 61c37 0 66 -27 66 -61z" />
    <glyph glyph-name="Igrave" unicode="&#xcc;" horiz-adv-x="267" 
d="M63 55v595c0 34 31 64 70 64c38 0 70 -30 70 -64v-595c0 -34 -32 -64 -70 -64c-39 0 -70 30 -70 64zM105 910l81 -79c8 -7 8 -15 8 -25c0 -29 -23 -49 -51 -49c-22 0 -30 8 -45 21l-82 82c-7 10 -9 20 -9 28c0 28 26 49 49 49c22 0 29 -7 41 -19z" />
    <glyph glyph-name="Iacute" unicode="&#xcd;" horiz-adv-x="267" 
d="M63 55v595c0 34 31 64 70 64c38 0 70 -30 70 -64v-595c0 -34 -32 -64 -70 -64c-39 0 -70 30 -70 64zM82 831l81 79l8 8c12 12 19 19 41 19c23 0 49 -21 49 -49c0 -8 -2 -18 -9 -28l-82 -82c-15 -13 -23 -21 -45 -21c-28 0 -51 20 -51 49c0 10 2 17 8 25z" />
    <glyph glyph-name="Icircumflex" unicode="&#xce;" horiz-adv-x="267" 
d="M63 55v595c0 34 31 64 70 64c38 0 70 -30 70 -64v-595c0 -34 -32 -64 -70 -64c-39 0 -70 30 -70 64zM134 916c16 0 28 -6 37 -13l79 -61c15 -13 26 -28 27 -45c0 -25 -23 -46 -50 -46c-33 0 -65 38 -93 64c-28 -26 -60 -64 -93 -64c-27 0 -50 21 -50 46c1 17 12 32 27 45
l79 61c9 7 21 13 37 13z" />
    <glyph glyph-name="Idieresis" unicode="&#xcf;" horiz-adv-x="267" 
d="M63 55v595c0 34 31 64 70 64c38 0 70 -30 70 -64v-595c0 -34 -32 -64 -70 -64c-39 0 -70 30 -70 64zM288 830c0 -35 -29 -63 -65 -63s-66 29 -66 63c0 33 30 61 66 61s65 -27 65 -61zM109 830c0 -35 -29 -63 -66 -63c-36 0 -64 29 -64 63c0 33 28 61 64 61
c37 0 66 -27 66 -61z" />
    <glyph glyph-name="Eth" unicode="&#xd0;" horiz-adv-x="616" 
d="M581 271c0 -141 -77 -271 -304 -271h-113c-42 0 -78 33 -78 72v220h-9c-38 0 -67 27 -67 61c0 33 29 62 67 62h9v218c0 39 36 72 78 72h113c226 0 304 -123 304 -262v-172zM392 353c0 -34 -29 -61 -66 -61h-100v-165h68c110 0 147 65 147 144v172c0 76 -39 135 -147 135
h-68v-163h100c37 0 66 -29 66 -62z" />
    <glyph glyph-name="Ntilde" unicode="&#xd1;" horiz-adv-x="640" 
d="M502 -9c-26 0 -54 14 -67 35l-232 404v-374c0 -35 -33 -65 -71 -65c-39 0 -69 30 -69 65v590c0 39 31 68 73 68c27 0 54 -15 68 -37c89 -154 140 -245 232 -406v378c0 35 33 65 71 65c39 0 69 -30 69 -65v-590c0 -37 -30 -68 -74 -68zM476 843c0 -42 -51 -73 -90 -73
c-53 0 -81 36 -111 40s-32 -36 -65 -36c-21 0 -43 16 -46 41c0 46 43 80 88 80c56 0 81 -40 112 -40s30 36 63 36c25 0 49 -20 49 -48z" />
    <glyph glyph-name="Ograve" unicode="&#xd2;" horiz-adv-x="610" 
d="M305 -9c-173 0 -260 117 -260 263v198c0 142 73 262 260 262s260 -120 260 -262v-198c0 -146 -87 -263 -260 -263zM305 587c-88 0 -120 -54 -120 -135v-198c0 -80 38 -136 120 -136s120 56 120 136v198c0 81 -32 135 -120 135zM270 910l81 -79c8 -7 8 -15 8 -25
c0 -29 -23 -49 -51 -49c-22 0 -30 8 -45 21l-82 82c-7 10 -9 20 -9 28c0 28 26 49 49 49c22 0 29 -7 41 -19z" />
    <glyph glyph-name="Oacute" unicode="&#xd3;" horiz-adv-x="610" 
d="M305 -9c-173 0 -260 117 -260 263v198c0 142 73 262 260 262s260 -120 260 -262v-198c0 -146 -87 -263 -260 -263zM305 587c-88 0 -120 -54 -120 -135v-198c0 -80 38 -136 120 -136s120 56 120 136v198c0 81 -32 135 -120 135zM247 831l81 79l8 8c12 12 19 19 41 19
c23 0 49 -21 49 -49c0 -8 -2 -18 -9 -28l-82 -82c-15 -13 -23 -21 -45 -21c-28 0 -51 20 -51 49c0 10 2 17 8 25z" />
    <glyph glyph-name="Ocircumflex" unicode="&#xd4;" horiz-adv-x="610" 
d="M305 -9c-173 0 -260 117 -260 263v198c0 142 73 262 260 262s260 -120 260 -262v-198c0 -146 -87 -263 -260 -263zM305 587c-88 0 -120 -54 -120 -135v-198c0 -80 38 -136 120 -136s120 56 120 136v198c0 81 -32 135 -120 135zM305 916c16 0 28 -6 37 -13l79 -61
c15 -13 26 -28 27 -45c0 -25 -23 -46 -50 -46c-33 0 -65 38 -93 64c-28 -26 -60 -64 -93 -64c-27 0 -50 21 -50 46c1 17 12 32 27 45l79 61c9 7 21 13 37 13z" />
    <glyph glyph-name="Otilde" unicode="&#xd5;" horiz-adv-x="610" 
d="M305 -9c-173 0 -260 117 -260 263v198c0 142 73 262 260 262s260 -120 260 -262v-198c0 -146 -87 -263 -260 -263zM305 587c-88 0 -120 -54 -120 -135v-198c0 -80 38 -136 120 -136s120 56 120 136v198c0 81 -32 135 -120 135zM461 843c0 -42 -51 -73 -90 -73
c-53 0 -81 36 -111 40s-32 -36 -65 -36c-21 0 -43 16 -46 41c0 46 43 80 88 80c56 0 81 -40 112 -40s30 36 63 36c25 0 49 -20 49 -48z" />
    <glyph glyph-name="Odieresis" unicode="&#xd6;" horiz-adv-x="610" 
d="M305 -9c-173 0 -260 117 -260 263v198c0 142 73 262 260 262s260 -120 260 -262v-198c0 -146 -87 -263 -260 -263zM305 587c-88 0 -120 -54 -120 -135v-198c0 -80 38 -136 120 -136s120 56 120 136v198c0 81 -32 135 -120 135zM460 830c0 -35 -29 -63 -65 -63
s-66 29 -66 63c0 33 30 61 66 61s65 -27 65 -61zM281 830c0 -35 -29 -63 -66 -63c-36 0 -64 29 -64 63c0 33 28 61 64 61c37 0 66 -27 66 -61z" />
    <glyph glyph-name="multiply" unicode="&#xd7;" horiz-adv-x="500" 
d="M425 474l-120 -120l120 -120c16 -16 16 -40 0 -55c-15 -16 -41 -15 -55 0l-120 120l-120 -120c-14 -15 -40 -16 -55 0c-16 15 -16 39 0 55l120 120l-120 120c-15 14 -16 40 0 55c15 16 39 16 55 0l120 -120l120 120c16 16 40 16 55 0c16 -15 15 -41 0 -55z" />
    <glyph glyph-name="Oslash" unicode="&#xd8;" horiz-adv-x="591" 
d="M45 39l36 52c-31 44 -46 101 -46 163v198c0 142 73 262 260 262c80 0 140 -22 181 -59l28 40c8 12 25 15 37 7c11 -8 15 -24 6 -36l-36 -51c30 -45 44 -102 44 -163v-198c0 -146 -87 -263 -260 -263c-76 0 -136 22 -178 60l-29 -41c-8 -12 -25 -15 -37 -7
c-11 8 -15 24 -6 36zM295 587c-88 0 -120 -54 -120 -135v-198c0 -10 0 -19 1 -27l219 312c-18 30 -50 48 -100 48zM415 452c0 8 -1 16 -1 24l-217 -310c19 -30 51 -48 98 -48c82 0 120 56 120 136v198z" />
    <glyph glyph-name="Ugrave" unicode="&#xd9;" horiz-adv-x="612" 
d="M557 240c0 -144 -93 -249 -251 -249c-161 0 -251 106 -251 249v408c0 38 31 66 71 66c37 0 69 -30 69 -66v-408c0 -72 35 -122 111 -122c75 0 110 51 110 122v408c0 35 30 66 69 66c41 0 72 -31 72 -66v-408zM280 910l81 -79c8 -7 8 -15 8 -25c0 -29 -23 -49 -51 -49
c-22 0 -30 8 -45 21l-82 82c-7 10 -9 20 -9 28c0 28 26 49 49 49c22 0 29 -7 41 -19z" />
    <glyph glyph-name="Uacute" unicode="&#xda;" horiz-adv-x="612" 
d="M557 240c0 -144 -93 -249 -251 -249c-161 0 -251 106 -251 249v408c0 38 31 66 71 66c37 0 69 -30 69 -66v-408c0 -72 35 -122 111 -122c75 0 110 51 110 122v408c0 35 30 66 69 66c41 0 72 -31 72 -66v-408zM260 831l81 79l8 8c12 12 19 19 41 19c23 0 49 -21 49 -49
c0 -8 -2 -18 -9 -28l-82 -82c-15 -13 -23 -21 -45 -21c-28 0 -51 20 -51 49c0 10 2 17 8 25z" />
    <glyph glyph-name="Ucircumflex" unicode="&#xdb;" horiz-adv-x="612" 
d="M557 240c0 -144 -93 -249 -251 -249c-161 0 -251 106 -251 249v408c0 38 31 66 71 66c37 0 69 -30 69 -66v-408c0 -72 35 -122 111 -122c75 0 110 51 110 122v408c0 35 30 66 69 66c41 0 72 -31 72 -66v-408zM306 916c16 0 28 -6 37 -13l79 -61c15 -13 26 -28 27 -45
c0 -25 -23 -46 -50 -46c-33 0 -65 38 -93 64c-28 -26 -60 -64 -93 -64c-27 0 -50 21 -50 46c1 17 12 32 27 45l79 61c9 7 21 13 37 13z" />
    <glyph glyph-name="Udieresis" unicode="&#xdc;" horiz-adv-x="612" 
d="M557 240c0 -144 -93 -249 -251 -249c-161 0 -251 106 -251 249v408c0 38 31 66 71 66c37 0 69 -30 69 -66v-408c0 -72 35 -122 111 -122c75 0 110 51 110 122v408c0 35 30 66 69 66c41 0 72 -31 72 -66v-408zM460 830c0 -35 -29 -63 -65 -63s-66 29 -66 63
c0 33 30 61 66 61s65 -27 65 -61zM281 830c0 -35 -29 -63 -66 -63c-36 0 -64 29 -64 63c0 33 28 61 64 61c37 0 66 -27 66 -61z" />
    <glyph glyph-name="Yacute" unicode="&#xdd;" horiz-adv-x="530" 
d="M265 -9c-40 0 -71 30 -71 66v219l-176 344c-3 7 -6 19 -6 29c0 35 35 65 71 65c21 0 45 -9 57 -30l125 -248l124 248c12 21 36 30 58 30c36 0 71 -30 71 -65c0 -9 -4 -20 -7 -29l-175 -344v-219c0 -35 -31 -66 -71 -66zM222 831l81 79l8 8c12 12 19 19 41 19
c23 0 49 -21 49 -49c0 -8 -2 -18 -9 -28l-82 -82c-15 -13 -23 -21 -45 -21c-28 0 -51 20 -51 49c0 10 2 17 8 25z" />
    <glyph glyph-name="Thorn" unicode="&#xde;" horiz-adv-x="570" 
d="M63 57v592c0 37 33 66 70 66c38 0 70 -31 70 -66v-63h85c188 0 255 -108 255 -225c0 -142 -100 -221 -255 -221h-85v-83c0 -35 -32 -66 -70 -66c-37 0 -70 30 -70 66zM203 459v-192h85c75 0 115 30 115 95c0 47 -21 97 -115 97h-85z" />
    <glyph glyph-name="germandbls" unicode="&#xdf;" horiz-adv-x="610" 
d="M202 4c0 -33 -30 -62 -69 -62s-69 29 -69 62v484c0 142 80 228 225 228c122 0 214 -60 214 -178c0 -98 -69 -143 -114 -167c-5 -3 -13 -6 -2 -11c93 -43 177 -82 177 -186c0 -119 -105 -178 -221 -178c-90 0 -114 36 -114 69c0 30 21 58 61 58c23 0 38 -9 64 -9
c36 0 72 17 72 59c0 48 -49 78 -101 96c-35 13 -81 27 -81 87c0 38 20 60 43 73c24 15 80 35 80 100c0 49 -36 69 -82 69c-58 0 -83 -33 -83 -107v-487z" />
    <glyph glyph-name="agrave" unicode="&#xe0;" horiz-adv-x="522" 
d="M450 306v-186c0 -30 15 -27 32 -34c15 -6 23 -17 23 -38c0 -32 -19 -52 -72 -52c-37 0 -62 10 -85 42c-37 -30 -79 -45 -135 -45c-116 0 -178 63 -178 158v3c0 102 66 153 198 153c27 0 53 -2 79 -10v32c0 47 -25 69 -76 69c-28 0 -45 -7 -65 -16c-8 -3 -19 -10 -38 -10
c-42 0 -58 33 -58 58c0 59 88 83 171 83c145 0 204 -72 204 -207zM241 210c-58 0 -69 -27 -69 -57v-3c0 -33 19 -46 62 -46c26 0 52 6 78 26v72c-25 5 -51 8 -71 8zM265 710l81 -79c8 -7 8 -15 8 -25c0 -29 -23 -49 -51 -49c-22 0 -30 8 -45 21l-82 82c-7 10 -9 20 -9 28
c0 28 26 49 49 49c22 0 29 -7 41 -19z" />
    <glyph glyph-name="aacute" unicode="&#xe1;" horiz-adv-x="522" 
d="M450 306v-186c0 -30 15 -27 32 -34c15 -6 23 -17 23 -38c0 -32 -19 -52 -72 -52c-37 0 -62 10 -85 42c-37 -30 -79 -45 -135 -45c-116 0 -178 63 -178 158v3c0 102 66 153 198 153c27 0 53 -2 79 -10v32c0 47 -25 69 -76 69c-28 0 -45 -7 -65 -16c-8 -3 -19 -10 -38 -10
c-42 0 -58 33 -58 58c0 59 88 83 171 83c145 0 204 -72 204 -207zM241 210c-58 0 -69 -27 -69 -57v-3c0 -33 19 -46 62 -46c26 0 52 6 78 26v72c-25 5 -51 8 -71 8zM175 631l81 79l8 8c12 12 19 19 41 19c23 0 49 -21 49 -49c0 -8 -2 -18 -9 -28l-82 -82
c-15 -13 -23 -21 -45 -21c-28 0 -51 20 -51 49c0 10 2 17 8 25z" />
    <glyph glyph-name="acircumflex" unicode="&#xe2;" horiz-adv-x="522" 
d="M450 306v-186c0 -30 15 -27 32 -34c15 -6 23 -17 23 -38c0 -32 -19 -52 -72 -52c-37 0 -62 10 -85 42c-37 -30 -79 -45 -135 -45c-116 0 -178 63 -178 158v3c0 102 66 153 198 153c27 0 53 -2 79 -10v32c0 47 -25 69 -76 69c-28 0 -45 -7 -65 -16c-8 -3 -19 -10 -38 -10
c-42 0 -58 33 -58 58c0 59 88 83 171 83c145 0 204 -72 204 -207zM241 210c-58 0 -69 -27 -69 -57v-3c0 -33 19 -46 62 -46c26 0 52 6 78 26v72c-25 5 -51 8 -71 8zM261 716c16 0 28 -6 37 -13l79 -61c15 -13 26 -28 27 -45c0 -25 -23 -46 -50 -46c-33 0 -65 38 -93 64
c-28 -26 -60 -64 -93 -64c-27 0 -50 21 -50 46c1 17 12 32 27 45l79 61c9 7 21 13 37 13z" />
    <glyph glyph-name="atilde" unicode="&#xe3;" horiz-adv-x="522" 
d="M450 306v-186c0 -30 15 -27 32 -34c15 -6 23 -17 23 -38c0 -32 -19 -52 -72 -52c-37 0 -62 10 -85 42c-37 -30 -79 -45 -135 -45c-116 0 -178 63 -178 158v3c0 102 66 153 198 153c27 0 53 -2 79 -10v32c0 47 -25 69 -76 69c-28 0 -45 -7 -65 -16c-8 -3 -19 -10 -38 -10
c-42 0 -58 33 -58 58c0 59 88 83 171 83c145 0 204 -72 204 -207zM241 210c-58 0 -69 -27 -69 -57v-3c0 -33 19 -46 62 -46c26 0 52 6 78 26v72c-25 5 -51 8 -71 8zM417 643c0 -42 -51 -73 -90 -73c-53 0 -81 36 -111 40s-32 -36 -65 -36c-21 0 -43 16 -46 41
c0 46 43 80 88 80c56 0 81 -40 112 -40s30 36 63 36c25 0 49 -20 49 -48z" />
    <glyph glyph-name="adieresis" unicode="&#xe4;" horiz-adv-x="522" 
d="M450 306v-186c0 -30 15 -27 32 -34c15 -6 23 -17 23 -38c0 -32 -19 -52 -72 -52c-37 0 -62 10 -85 42c-37 -30 -79 -45 -135 -45c-116 0 -178 63 -178 158v3c0 102 66 153 198 153c27 0 53 -2 79 -10v32c0 47 -25 69 -76 69c-28 0 -45 -7 -65 -16c-8 -3 -19 -10 -38 -10
c-42 0 -58 33 -58 58c0 59 88 83 171 83c145 0 204 -72 204 -207zM241 210c-58 0 -69 -27 -69 -57v-3c0 -33 19 -46 62 -46c26 0 52 6 78 26v72c-25 5 -51 8 -71 8zM415 630c0 -35 -29 -63 -65 -63s-66 29 -66 63c0 33 30 61 66 61s65 -27 65 -61zM236 630
c0 -35 -29 -63 -66 -63c-36 0 -64 29 -64 63c0 33 28 61 64 61c37 0 66 -27 66 -61z" />
    <glyph glyph-name="aring" unicode="&#xe5;" horiz-adv-x="522" 
d="M450 306v-186c0 -30 15 -27 32 -34c15 -6 23 -17 23 -38c0 -32 -19 -52 -72 -52c-37 0 -62 10 -85 42c-37 -30 -79 -45 -135 -45c-116 0 -178 63 -178 158v3c0 102 66 153 198 153c27 0 53 -2 79 -10v32c0 47 -25 69 -76 69c-28 0 -45 -7 -65 -16c-8 -3 -19 -10 -38 -10
c-42 0 -58 33 -58 58c0 59 88 83 171 83c145 0 204 -72 204 -207zM241 210c-58 0 -69 -27 -69 -57v-3c0 -33 19 -46 62 -46c26 0 52 6 78 26v72c-25 5 -51 8 -71 8zM371 644c0 -61 -48 -109 -109 -109c-62 0 -110 48 -110 109c0 60 48 109 110 109c61 0 109 -49 109 -109z
M306 644c0 24 -20 45 -44 45s-44 -21 -44 -45s20 -44 44 -44s44 20 44 44z" />
    <glyph glyph-name="ae" unicode="&#xe6;" horiz-adv-x="712" 
d="M502 181c-21 0 -48 1 -72 4v-21c0 -34 27 -56 79 -56c35 0 58 10 90 22c9 3 18 6 28 6c37 0 65 -29 65 -58c0 -65 -130 -85 -189 -85c-63 0 -109 18 -142 51c-46 -34 -100 -51 -163 -51c-123 0 -183 65 -183 162v3c0 106 68 159 206 159c25 0 48 -1 71 -5v17
c0 47 -25 69 -77 69c-27 0 -44 -7 -64 -16c-8 -3 -19 -10 -38 -10c-39 0 -56 28 -58 53c-6 62 85 88 170 88c64 0 108 -16 138 -50c33 31 82 50 146 50c126 0 192 -68 192 -172c0 -100 -59 -160 -199 -160zM564 341c0 39 -22 55 -61 55c-46 0 -73 -21 -73 -55v-43
c28 -2 61 -4 75 -4c50 0 59 23 59 47zM292 135v62c-25 5 -51 8 -72 8c-57 0 -68 -22 -68 -48v-3c0 -26 14 -45 58 -45c32 0 56 7 82 26z" />
    <glyph glyph-name="ccedilla" unicode="&#xe7;" horiz-adv-x="443" 
d="M372 -118c0 -57 -46 -98 -114 -98c-55 0 -120 19 -120 59c0 18 14 29 34 29c19 0 47 -9 73 -9c32 0 47 8 47 22c0 15 -15 21 -57 28c-31 6 -47 5 -45 47l6 38c-103 19 -151 94 -151 186v135c0 107 64 191 207 191c59 0 171 -14 171 -87c0 -24 -12 -51 -62 -51
c-10 0 -19 1 -33 6c-21 8 -37 17 -68 17c-55 0 -77 -29 -77 -76v-135c0 -47 22 -76 77 -76c31 0 48 9 68 17c10 4 17 6 31 6c52 0 64 -28 64 -51c0 -63 -86 -82 -148 -86l-3 -27c72 -6 100 -39 100 -85z" />
    <glyph glyph-name="egrave" unicode="&#xe8;" horiz-adv-x="485" 
d="M260 191c-26 0 -48 2 -77 6v-33c0 -34 26 -56 80 -56c32 0 58 8 90 22c4 2 13 6 30 6c48 0 62 -32 62 -55c0 -70 -128 -88 -192 -88c-132 0 -208 76 -208 175v167c0 101 74 178 213 178c131 0 196 -69 196 -170c0 -96 -59 -152 -194 -152zM317 350c0 40 -21 56 -60 56
c-48 0 -74 -25 -74 -65v-43c32 -3 62 -4 72 -4c38 0 62 13 62 56zM247 710l81 -79c8 -7 8 -15 8 -25c0 -29 -23 -49 -51 -49c-22 0 -30 8 -45 21l-82 82c-7 10 -9 20 -9 28c0 28 26 49 49 49c22 0 29 -7 41 -19z" />
    <glyph glyph-name="eacute" unicode="&#xe9;" horiz-adv-x="485" 
d="M260 191c-26 0 -48 2 -77 6v-33c0 -34 26 -56 80 -56c32 0 58 8 90 22c4 2 13 6 30 6c48 0 62 -32 62 -55c0 -70 -128 -88 -192 -88c-132 0 -208 76 -208 175v167c0 101 74 178 213 178c131 0 196 -69 196 -170c0 -96 -59 -152 -194 -152zM317 350c0 40 -21 56 -60 56
c-48 0 -74 -25 -74 -65v-43c32 -3 62 -4 72 -4c38 0 62 13 62 56zM203 631l81 79l8 8c12 12 19 19 41 19c23 0 49 -21 49 -49c0 -8 -2 -18 -9 -28l-82 -82c-15 -13 -23 -21 -45 -21c-28 0 -51 20 -51 49c0 10 2 17 8 25z" />
    <glyph glyph-name="ecircumflex" unicode="&#xea;" horiz-adv-x="485" 
d="M260 191c-26 0 -48 2 -77 6v-33c0 -34 26 -56 80 -56c32 0 58 8 90 22c4 2 13 6 30 6c48 0 62 -32 62 -55c0 -70 -128 -88 -192 -88c-132 0 -208 76 -208 175v167c0 101 74 178 213 178c131 0 196 -69 196 -170c0 -96 -59 -152 -194 -152zM317 350c0 40 -21 56 -60 56
c-48 0 -74 -25 -74 -65v-43c32 -3 62 -4 72 -4c38 0 62 13 62 56zM253 716c16 0 28 -6 37 -13l79 -61c15 -13 26 -28 27 -45c0 -25 -23 -46 -50 -46c-33 0 -65 38 -93 64c-28 -26 -60 -64 -93 -64c-27 0 -50 21 -50 46c1 17 12 32 27 45l79 61c9 7 21 13 37 13z" />
    <glyph glyph-name="edieresis" unicode="&#xeb;" horiz-adv-x="485" 
d="M260 191c-26 0 -48 2 -77 6v-33c0 -34 26 -56 80 -56c32 0 58 8 90 22c4 2 13 6 30 6c48 0 62 -32 62 -55c0 -70 -128 -88 -192 -88c-132 0 -208 76 -208 175v167c0 101 74 178 213 178c131 0 196 -69 196 -170c0 -96 -59 -152 -194 -152zM317 350c0 40 -21 56 -60 56
c-48 0 -74 -25 -74 -65v-43c32 -3 62 -4 72 -4c38 0 62 13 62 56zM397 630c0 -35 -29 -63 -65 -63s-66 29 -66 63c0 33 30 61 66 61s65 -27 65 -61zM218 630c0 -35 -29 -63 -66 -63c-36 0 -64 29 -64 63c0 33 28 61 64 61c37 0 66 -27 66 -61z" />
    <glyph glyph-name="igrave" unicode="&#xec;" horiz-adv-x="285" 
d="M211 55c0 -35 -30 -62 -69 -62s-69 27 -69 62v394c0 33 30 61 69 61s69 -28 69 -61v-394zM106 710l81 -79c8 -7 8 -15 8 -25c0 -29 -23 -49 -51 -49c-22 0 -30 8 -45 21l-82 82c-7 10 -9 20 -9 28c0 28 26 49 49 49c22 0 29 -7 41 -19z" />
    <glyph glyph-name="iacute" unicode="&#xed;" horiz-adv-x="285" 
d="M211 55c0 -35 -30 -62 -69 -62s-69 27 -69 62v394c0 33 30 61 69 61s69 -28 69 -61v-394zM100 631l81 79l8 8c12 12 19 19 41 19c23 0 49 -21 49 -49c0 -8 -2 -18 -9 -28l-82 -82c-15 -13 -23 -21 -45 -21c-28 0 -51 20 -51 49c0 10 2 17 8 25z" />
    <glyph glyph-name="icircumflex" unicode="&#xee;" horiz-adv-x="285" 
d="M211 55c0 -35 -30 -62 -69 -62s-69 27 -69 62v394c0 33 30 61 69 61s69 -28 69 -61v-394zM143 716c16 0 28 -6 37 -13l79 -61c15 -13 26 -28 27 -45c0 -25 -23 -46 -50 -46c-33 0 -65 38 -93 64c-28 -26 -60 -64 -93 -64c-27 0 -50 21 -50 46c1 17 12 32 27 45l79 61
c9 7 21 13 37 13z" />
    <glyph glyph-name="idieresis" unicode="&#xef;" horiz-adv-x="285" 
d="M211 55c0 -35 -30 -62 -69 -62s-69 27 -69 62v394c0 33 30 61 69 61s69 -28 69 -61v-394zM297 630c0 -35 -29 -63 -65 -63s-66 29 -66 63c0 33 30 61 66 61s65 -27 65 -61zM118 630c0 -35 -29 -63 -66 -63c-36 0 -64 29 -64 63c0 33 28 61 64 61c37 0 66 -27 66 -61z" />
    <glyph glyph-name="eth" unicode="&#xf0;" horiz-adv-x="575" 
d="M536 684c0 0 5 -1 5 -10c1 -12 -2 -24 -13 -31l-58 -46c34 -64 53 -157 53 -280c0 -262 -88 -326 -231 -326c-172 0 -247 97 -247 224s74 229 216 229c31 0 75 -6 118 -30c-3 41 -9 73 -17 97l-36 -28c-12 -9 -20 -12 -25 -13c-17 -3 -38 13 -38 34c-1 12 2 24 13 31
l47 38c-20 16 -44 20 -66 22c-26 2 -59 6 -55 59c3 36 19 53 85 53c56 0 103 -18 140 -53l51 41c7 6 14 10 25 12c27 4 33 -23 33 -23zM383 278v12c-29 21 -80 36 -115 36c-53 0 -85 -40 -85 -106c0 -62 29 -109 104 -109c73 0 96 50 96 167z" />
    <glyph glyph-name="ntilde" unicode="&#xf1;" horiz-adv-x="549" 
d="M205 357v-302c0 -34 -23 -61 -69 -61s-69 27 -69 61v303c0 33 -4 36 -8 42c-14 19 -17 26 -17 39c0 33 29 58 67 58c21 0 39 -11 53 -29c45 30 92 43 132 43c126 0 189 -78 189 -195v-261c0 -34 -25 -61 -69 -61s-69 27 -69 61v261c0 50 -25 81 -65 81
c-21 0 -46 -7 -77 -21c1 -7 2 -13 2 -19zM418 643c0 -42 -51 -73 -90 -73c-53 0 -81 36 -111 40s-32 -36 -65 -36c-21 0 -43 16 -46 41c0 46 43 80 88 80c56 0 81 -40 112 -40s30 36 63 36c25 0 49 -20 49 -48z" />
    <glyph glyph-name="ograve" unicode="&#xf2;" horiz-adv-x="524" 
d="M262 -7c-142 0 -217 81 -217 186v149c0 105 75 186 217 186s217 -81 217 -186v-149c0 -105 -75 -186 -217 -186zM262 111c52 0 79 26 79 68v150c0 41 -27 67 -79 67s-79 -26 -79 -67v-150c0 -42 27 -68 79 -68zM233 710l81 -79c8 -7 8 -15 8 -25c0 -29 -23 -49 -51 -49
c-22 0 -30 8 -45 21l-82 82c-7 10 -9 20 -9 28c0 28 26 49 49 49c22 0 29 -7 41 -19z" />
    <glyph glyph-name="oacute" unicode="&#xf3;" horiz-adv-x="524" 
d="M262 -7c-142 0 -217 81 -217 186v149c0 105 75 186 217 186s217 -81 217 -186v-149c0 -105 -75 -186 -217 -186zM262 111c52 0 79 26 79 68v150c0 41 -27 67 -79 67s-79 -26 -79 -67v-150c0 -42 27 -68 79 -68zM216 631l81 79l8 8c12 12 19 19 41 19c23 0 49 -21 49 -49
c0 -8 -2 -18 -9 -28l-82 -82c-15 -13 -23 -21 -45 -21c-28 0 -51 20 -51 49c0 10 2 17 8 25z" />
    <glyph glyph-name="ocircumflex" unicode="&#xf4;" horiz-adv-x="524" 
d="M262 -7c-142 0 -217 81 -217 186v149c0 105 75 186 217 186s217 -81 217 -186v-149c0 -105 -75 -186 -217 -186zM262 111c52 0 79 26 79 68v150c0 41 -27 67 -79 67s-79 -26 -79 -67v-150c0 -42 27 -68 79 -68zM262 716c16 0 28 -6 37 -13l79 -61c15 -13 26 -28 27 -45
c0 -25 -23 -46 -50 -46c-33 0 -65 38 -93 64c-28 -26 -60 -64 -93 -64c-27 0 -50 21 -50 46c1 17 12 32 27 45l79 61c9 7 21 13 37 13z" />
    <glyph glyph-name="otilde" unicode="&#xf5;" horiz-adv-x="524" 
d="M262 -7c-142 0 -217 81 -217 186v149c0 105 75 186 217 186s217 -81 217 -186v-149c0 -105 -75 -186 -217 -186zM262 111c52 0 79 26 79 68v150c0 41 -27 67 -79 67s-79 -26 -79 -67v-150c0 -42 27 -68 79 -68zM418 643c0 -42 -51 -73 -90 -73c-53 0 -81 36 -111 40
s-32 -36 -65 -36c-21 0 -43 16 -46 41c0 46 43 80 88 80c56 0 81 -40 112 -40s30 36 63 36c25 0 49 -20 49 -48z" />
    <glyph glyph-name="odieresis" unicode="&#xf6;" horiz-adv-x="524" 
d="M262 -7c-142 0 -217 81 -217 186v149c0 105 75 186 217 186s217 -81 217 -186v-149c0 -105 -75 -186 -217 -186zM262 111c52 0 79 26 79 68v150c0 41 -27 67 -79 67s-79 -26 -79 -67v-150c0 -42 27 -68 79 -68zM416 630c0 -35 -29 -63 -65 -63s-66 29 -66 63
c0 33 30 61 66 61s65 -27 65 -61zM237 630c0 -35 -29 -63 -66 -63c-36 0 -64 29 -64 63c0 33 28 61 64 61c37 0 66 -27 66 -61z" />
    <glyph glyph-name="oslash" unicode="&#xf8;" horiz-adv-x="524" 
d="M262 -7c-52 0 -94 10 -128 29l-21 -31c-8 -11 -25 -14 -36 -6c-12 8 -14 24 -7 36l23 33c-32 32 -48 76 -48 125v149c0 105 75 186 217 186c53 0 97 -11 131 -31l22 31c8 11 24 15 36 6c13 -9 15 -24 7 -36l-24 -34c29 -33 45 -75 45 -122v-149
c0 -105 -75 -186 -217 -186zM183 329v-147l137 196c-13 11 -33 18 -58 18c-52 0 -79 -26 -79 -67zM262 111c52 0 79 26 79 68v138l-134 -191c13 -10 31 -15 55 -15z" />
    <glyph glyph-name="ugrave" unicode="&#xf9;" horiz-adv-x="549" 
d="M388 37c-47 -33 -93 -44 -138 -44c-121 0 -186 79 -186 196v261c0 34 25 60 69 60s69 -26 69 -60v-261c0 -51 21 -80 65 -80c21 0 46 7 77 21c-1 7 -2 13 -2 19v301c0 34 23 60 69 60s69 -26 69 -60v-321c0 -15 6 -22 19 -35c10 -10 14 -20 14 -34c0 -40 -34 -61 -64 -61
c-26 0 -46 16 -61 38zM242 710l81 -79c8 -7 8 -15 8 -25c0 -29 -23 -49 -51 -49c-22 0 -30 8 -45 21l-82 82c-7 10 -9 20 -9 28c0 28 26 49 49 49c22 0 29 -7 41 -19z" />
    <glyph glyph-name="uacute" unicode="&#xfa;" horiz-adv-x="549" 
d="M388 37c-47 -33 -93 -44 -138 -44c-121 0 -186 79 -186 196v261c0 34 25 60 69 60s69 -26 69 -60v-261c0 -51 21 -80 65 -80c21 0 46 7 77 21c-1 7 -2 13 -2 19v301c0 34 23 60 69 60s69 -26 69 -60v-321c0 -15 6 -22 19 -35c10 -10 14 -20 14 -34c0 -40 -34 -61 -64 -61
c-26 0 -46 16 -61 38zM232 631l81 79l8 8c12 12 19 19 41 19c23 0 49 -21 49 -49c0 -8 -2 -18 -9 -28l-82 -82c-15 -13 -23 -21 -45 -21c-28 0 -51 20 -51 49c0 10 2 17 8 25z" />
    <glyph glyph-name="ucircumflex" unicode="&#xfb;" horiz-adv-x="549" 
d="M388 37c-47 -33 -93 -44 -138 -44c-121 0 -186 79 -186 196v261c0 34 25 60 69 60s69 -26 69 -60v-261c0 -51 21 -80 65 -80c21 0 46 7 77 21c-1 7 -2 13 -2 19v301c0 34 23 60 69 60s69 -26 69 -60v-321c0 -15 6 -22 19 -35c10 -10 14 -20 14 -34c0 -40 -34 -61 -64 -61
c-26 0 -46 16 -61 38zM274 716c16 0 28 -6 37 -13l79 -61c15 -13 26 -28 27 -45c0 -25 -23 -46 -50 -46c-33 0 -65 38 -93 64c-28 -26 -60 -64 -93 -64c-27 0 -50 21 -50 46c1 17 12 32 27 45l79 61c9 7 21 13 37 13z" />
    <glyph glyph-name="udieresis" unicode="&#xfc;" horiz-adv-x="549" 
d="M388 37c-47 -33 -93 -44 -138 -44c-121 0 -186 79 -186 196v261c0 34 25 60 69 60s69 -26 69 -60v-261c0 -51 21 -80 65 -80c21 0 46 7 77 21c-1 7 -2 13 -2 19v301c0 34 23 60 69 60s69 -26 69 -60v-321c0 -15 6 -22 19 -35c10 -10 14 -20 14 -34c0 -40 -34 -61 -64 -61
c-26 0 -46 16 -61 38zM429 630c0 -35 -29 -63 -65 -63s-66 29 -66 63c0 33 30 61 66 61s65 -27 65 -61zM250 630c0 -35 -29 -63 -66 -63c-36 0 -64 29 -64 63c0 33 28 61 64 61c37 0 66 -27 66 -61z" />
    <glyph glyph-name="yacute" unicode="&#xfd;" horiz-adv-x="474" 
d="M271 300l54 168c9 29 38 42 65 42c35 0 69 -25 69 -61c0 -7 -1 -13 -3 -18l-122 -356c-55 -162 -93 -278 -245 -278c-40 0 -70 25 -70 60c0 30 25 58 66 60c44 2 66 34 90 112l-154 397c-4 10 -5 19 -5 25c0 34 30 59 69 59c27 0 52 -14 63 -42l63 -168
c14 -36 21 -78 32 -115c9 37 16 79 28 115zM192 631l81 79l8 8c12 12 19 19 41 19c23 0 49 -21 49 -49c0 -8 -2 -18 -9 -28l-82 -82c-15 -13 -23 -21 -45 -21c-28 0 -51 20 -51 49c0 10 2 17 8 25z" />
    <glyph glyph-name="thorn" unicode="&#xfe;" horiz-adv-x="535" 
d="M202 381v-236c21 -19 49 -28 81 -28c49 0 69 21 69 57v178c0 36 -20 57 -69 57c-32 0 -60 -9 -81 -28zM64 -155v816c0 32 25 61 69 61s69 -29 69 -61v-176c32 18 62 28 109 28c127 0 179 -72 179 -166v-168c0 -94 -52 -166 -179 -166c-47 0 -77 10 -109 28v-196
c0 -32 -25 -61 -69 -61s-69 29 -69 61z" />
    <glyph glyph-name="ydieresis" unicode="&#xff;" horiz-adv-x="474" 
d="M271 300l54 168c9 29 38 42 65 42c35 0 69 -25 69 -61c0 -7 -1 -13 -3 -18l-122 -356c-55 -162 -93 -278 -245 -278c-40 0 -70 25 -70 60c0 30 25 58 66 60c44 2 66 34 90 112l-154 397c-4 10 -5 19 -5 25c0 34 30 59 69 59c27 0 52 -14 63 -42l63 -168
c14 -36 21 -78 32 -115c9 37 16 79 28 115zM391 630c0 -35 -29 -63 -65 -63s-66 29 -66 63c0 33 30 61 66 61s65 -27 65 -61zM212 630c0 -35 -29 -63 -66 -63c-36 0 -64 29 -64 63c0 33 28 61 64 61c37 0 66 -27 66 -61z" />
    <glyph glyph-name="dotlessi" unicode="&#x131;" horiz-adv-x="285" 
d="M211 55c0 -35 -30 -62 -69 -62s-69 27 -69 62v394c0 33 30 61 69 61s69 -28 69 -61v-394z" />
    <glyph glyph-name="Lslash" unicode="&#x141;" horiz-adv-x="545" 
d="M514 64c0 -36 -30 -64 -68 -64h-282c-40 0 -75 30 -75 69v187l-6 -4c-9 -6 -18 -13 -28 -13c-25 0 -49 14 -49 45c0 13 7 28 20 36l63 41v289c0 34 31 64 70 64c38 0 70 -30 70 -64v-197l62 41c11 7 20 12 35 12c17 0 34 -12 40 -30c1 -5 2 -9 2 -14
c0 -13 -7 -27 -19 -35l-120 -79v-222h217c36 0 68 -27 68 -62z" />
    <glyph glyph-name="lslash" unicode="&#x142;" horiz-adv-x="377" 
d="M366 476c1 -5 2 -9 2 -14c0 -13 -7 -27 -19 -35l-101 -67v-237c0 -21 1 -26 15 -41c10 -11 18 -16 18 -35c0 -36 -28 -54 -75 -54c-40 0 -96 13 -96 118v159l-27 -18c-9 -6 -18 -13 -28 -13c-25 0 -49 14 -49 45c0 13 7 28 20 36l84 55v285c0 33 30 62 69 62
s69 -27 69 -62v-195l43 29c11 7 20 12 35 12c17 0 34 -12 40 -30z" />
    <glyph glyph-name="OE" unicode="&#x152;" horiz-adv-x="756" 
d="M753 65c0 -36 -32 -65 -70 -65h-235c-30 0 -57 6 -75 23c-32 -20 -71 -32 -118 -32c-159 0 -240 109 -240 245v234c0 134 67 244 240 244c50 0 90 -12 122 -31c14 13 33 22 55 22h241c38 0 70 -29 70 -65c0 -35 -32 -62 -70 -62h-178v-161h159c35 0 69 -27 69 -63
s-30 -64 -69 -64h-159v-163h188c37 0 70 -28 70 -62zM255 587c-74 0 -100 -47 -100 -117v-234c0 -69 32 -118 100 -118s100 49 100 118v234c0 70 -26 117 -100 117z" />
    <glyph glyph-name="oe" unicode="&#x153;" horiz-adv-x="731" 
d="M521 181c-19 0 -43 2 -72 6v-23c0 -34 27 -56 79 -56c36 0 60 10 92 22h-1c4 2 14 6 27 6c37 0 65 -29 65 -58c0 -65 -130 -85 -189 -85c-65 0 -113 20 -145 52c-33 -32 -83 -52 -149 -52c-135 0 -213 82 -213 186v149c0 104 78 186 213 186c67 0 117 -21 151 -54
c32 33 82 53 149 53c124 0 192 -68 192 -172c0 -100 -59 -160 -199 -160zM232 111c52 0 79 26 79 68v150c0 41 -27 67 -79 67s-79 -26 -79 -67v-150c0 -42 27 -68 79 -68zM583 341c0 39 -22 55 -61 55c-46 0 -73 -21 -73 -55v-43c32 -3 61 -4 75 -4c50 0 59 23 59 47z" />
    <glyph glyph-name="Scedilla" unicode="&#x15e;" horiz-adv-x="526" 
d="M377 -118c0 -57 -46 -98 -114 -98c-55 0 -120 19 -120 59c0 18 14 29 34 29c19 0 47 -9 73 -9c32 0 47 8 47 22c0 15 -15 21 -57 28c-31 6 -47 5 -45 47l5 34c-75 7 -169 35 -169 93c0 32 29 63 66 63c15 0 31 -5 50 -12c24 -8 56 -20 99 -20c69 0 104 31 104 86
c0 45 -23 60 -41 68c-21 9 -46 18 -73 27c-98 30 -204 63 -204 208c0 129 90 207 232 207c59 0 201 -15 201 -90c0 -33 -26 -63 -70 -63c-18 0 -32 6 -49 11c-19 7 -41 15 -76 15c-49 0 -95 -17 -95 -76c0 -44 25 -59 42 -67c26 -13 50 -21 72 -27c98 -31 205 -65 205 -207
c0 -127 -89 -205 -214 -217l-3 -26c72 -6 100 -39 100 -85z" />
    <glyph glyph-name="scedilla" unicode="&#x15f;" horiz-adv-x="446" 
d="M337 -118c0 -57 -46 -98 -114 -98c-55 0 -120 19 -120 59c0 18 14 29 34 29c19 0 47 -9 73 -9c32 0 47 8 47 22c0 15 -15 21 -57 28c-31 6 -47 5 -45 47l6 37c-60 7 -124 28 -124 74c0 29 26 59 65 59c33 0 64 -22 113 -22c36 0 61 12 61 40c0 18 -10 26 -21 32
c-65 36 -212 39 -212 178c0 92 65 155 193 155c65 0 162 -16 162 -85c0 -43 -38 -51 -59 -51c-35 0 -53 21 -102 21c-38 0 -58 -13 -58 -36c0 -14 8 -24 30 -33c72 -31 203 -45 203 -178c0 -91 -61 -150 -172 -157l-3 -27c72 -6 100 -39 100 -85z" />
    <glyph glyph-name="Scaron" unicode="&#x160;" horiz-adv-x="526" 
d="M350 204c0 45 -23 60 -41 68c-21 9 -46 18 -73 27c-98 30 -204 63 -204 208c0 129 90 207 232 207c59 0 201 -15 201 -90c0 -33 -26 -63 -70 -63c-18 0 -32 6 -49 11c-19 7 -41 15 -76 15c-49 0 -95 -17 -95 -76c0 -44 25 -59 42 -67c26 -13 50 -21 72 -27
c98 -31 205 -65 205 -207c0 -139 -106 -219 -249 -219c-74 0 -214 26 -214 96c0 32 29 63 66 63c15 0 31 -5 50 -12c24 -8 56 -20 99 -20c69 0 104 31 104 86zM205 903l58 -52l58 52c9 8 28 12 36 12c26 0 49 -21 49 -46c0 -17 -12 -32 -27 -45l-79 -61
c-8 -7 -21 -13 -37 -13s-29 6 -37 13l-79 61c-15 13 -27 28 -27 45c0 25 23 46 49 46c8 0 27 -4 36 -12z" />
    <glyph glyph-name="scaron" unicode="&#x161;" horiz-adv-x="446" 
d="M43 358c0 92 65 155 193 155c65 0 162 -16 162 -85c0 -43 -38 -51 -59 -51c-35 0 -53 21 -102 21c-38 0 -58 -13 -58 -36c0 -14 8 -24 30 -33c72 -31 203 -45 203 -178c0 -97 -69 -158 -195 -158c-64 0 -180 16 -180 78c0 29 26 59 65 59c33 0 64 -22 113 -22
c36 0 61 12 61 40c0 18 -10 26 -21 32c-65 36 -212 39 -212 178zM179 703l58 -52l58 52c9 8 28 12 36 12c26 0 49 -21 49 -46c0 -17 -12 -32 -27 -45l-79 -61c-8 -7 -21 -13 -37 -13s-29 6 -37 13l-79 61c-15 13 -27 28 -27 45c0 25 23 46 49 46c8 0 27 -4 36 -12z" />
    <glyph glyph-name="uni0162" unicode="&#x162;" horiz-adv-x="523" 
d="M398 -118c0 -57 -46 -98 -114 -98c-55 0 -120 19 -120 59c0 18 14 29 34 29c19 0 47 -9 73 -9c32 0 47 8 47 22c0 15 -15 21 -57 28c-31 6 -47 5 -45 47l7 41c-19 12 -32 32 -32 54v523h-106c-40 0 -70 29 -70 63c0 28 31 64 70 64h352c36 0 71 -28 71 -64
c0 -34 -33 -63 -71 -63h-106v-523c0 -20 -11 -39 -28 -51l-5 -37c72 -6 100 -39 100 -85z" />
    <glyph glyph-name="uni0163" unicode="&#x163;" horiz-adv-x="361" 
d="M337 -118c0 -57 -46 -98 -114 -98c-55 0 -120 19 -120 59c0 18 14 29 34 29c19 0 47 -9 73 -9c32 0 47 8 47 22c0 15 -15 21 -57 28c-31 6 -47 5 -45 47l8 50c-77 27 -99 96 -99 198v388c0 34 25 61 69 61s69 -28 69 -61v-111h74c37 0 66 -26 66 -60s-29 -59 -66 -59h-74
v-151c0 -74 6 -100 54 -100c9 0 15 1 17 1c63 0 82 -17 82 -54c0 -58 -46 -66 -96 -66c-6 0 -12 1 -18 1l-4 -30c72 -6 100 -39 100 -85z" />
    <glyph glyph-name="ycircumflex" unicode="&#x177;" horiz-adv-x="474" 
d="M271 300l54 168c9 29 38 42 65 42c35 0 69 -25 69 -61c0 -7 -1 -13 -3 -18l-122 -356c-55 -162 -93 -278 -245 -278c-40 0 -70 25 -70 60c0 30 25 58 66 60c44 2 66 34 90 112l-154 397c-4 10 -5 19 -5 25c0 34 30 59 69 59c27 0 52 -14 63 -42l63 -168
c14 -36 21 -78 32 -115c9 37 16 79 28 115zM244 716c16 0 28 -6 37 -13l79 -61c15 -13 26 -28 27 -45c0 -25 -23 -46 -50 -46c-33 0 -65 38 -93 64c-28 -26 -60 -64 -93 -64c-27 0 -50 21 -50 46c1 17 12 32 27 45l79 61c9 7 21 13 37 13z" />
    <glyph glyph-name="Ydieresis" unicode="&#x178;" horiz-adv-x="530" 
d="M265 -9c-40 0 -71 30 -71 66v219l-176 344c-3 7 -6 19 -6 29c0 35 35 65 71 65c21 0 45 -9 57 -30l125 -248l124 248c12 21 36 30 58 30c36 0 71 -30 71 -65c0 -9 -4 -20 -7 -29l-175 -344v-219c0 -35 -31 -66 -71 -66zM419 830c0 -35 -29 -63 -65 -63s-66 29 -66 63
c0 33 30 61 66 61s65 -27 65 -61zM240 830c0 -35 -29 -63 -66 -63c-36 0 -64 29 -64 63c0 33 28 61 64 61c37 0 66 -27 66 -61z" />
    <glyph glyph-name="Zcaron" unicode="&#x17d;" horiz-adv-x="524" 
d="M504 65c0 -36 -32 -65 -70 -65h-343c-41 0 -72 31 -72 68c0 13 9 34 14 44c98 162 184 300 283 464h-226c-39 0 -69 28 -69 64c0 35 30 65 69 65h339c42 0 73 -30 73 -67c0 -18 -7 -32 -14 -43l-285 -466h231c37 0 70 -28 70 -64zM204 903l58 -52l58 52c9 8 28 12 36 12
c26 0 49 -21 49 -46c0 -17 -12 -32 -27 -45l-79 -61c-8 -7 -21 -13 -37 -13s-29 6 -37 13l-79 61c-15 13 -27 28 -27 45c0 25 23 46 49 46c8 0 27 -4 36 -12z" />
    <glyph glyph-name="zcaron" unicode="&#x17e;" horiz-adv-x="424" 
d="M417 443c0 -13 -4 -28 -14 -41l-216 -284h165c38 0 67 -26 67 -59s-29 -59 -67 -59h-277c-37 0 -70 28 -70 64c0 12 2 24 12 37l217 286h-153c-37 0 -66 26 -66 59c0 34 29 59 66 59h265c38 0 71 -23 71 -62zM154 703l58 -52l58 52c9 8 28 12 36 12c26 0 49 -21 49 -46
c0 -17 -12 -32 -27 -45l-79 -61c-8 -7 -21 -13 -37 -13s-29 6 -37 13l-79 61c-15 13 -27 28 -27 45c0 25 23 46 49 46c8 0 27 -4 36 -12z" />
    <glyph glyph-name="florin" unicode="&#x192;" horiz-adv-x="532" 
d="M528 627c0 -62 -47 -57 -76 -53c-8 1 -19 2 -23 2c-20 0 -37 -15 -41 -35l-17 -86h49c34 0 64 -17 64 -58c0 -42 -30 -57 -64 -57h-71c-23 -117 -48 -238 -70 -355c-21 -103 -62 -173 -175 -173c-63 0 -111 2 -111 59c0 38 28 60 69 60h11c6 0 12 -1 18 -1
c29 0 41 21 49 58c24 120 44 229 68 352h-47c-34 0 -64 17 -64 58c0 42 30 57 64 57h70c7 34 15 72 21 105c16 81 83 133 187 133c42 0 89 -7 89 -66z" />
    <glyph glyph-name="uni0218" unicode="&#x218;" horiz-adv-x="526" 
d="M337 -104c0 -55 -60 -134 -97 -134c-9 0 -18 5 -18 17c0 21 25 34 37 62c-40 2 -69 9 -69 53c0 32 16 55 73 55c58 0 74 -24 74 -53zM350 204c0 45 -23 60 -41 68c-21 9 -46 18 -73 27c-98 30 -204 63 -204 208c0 129 90 207 232 207c59 0 201 -15 201 -90
c0 -33 -26 -63 -70 -63c-18 0 -32 6 -49 11c-19 7 -41 15 -76 15c-49 0 -95 -17 -95 -76c0 -44 25 -59 42 -67c26 -13 50 -21 72 -27c98 -31 205 -65 205 -207c0 -139 -106 -219 -249 -219c-74 0 -214 26 -214 96c0 32 29 63 66 63c15 0 31 -5 50 -12c24 -8 56 -20 99 -20
c69 0 104 31 104 86z" />
    <glyph glyph-name="uni0219" unicode="&#x219;" horiz-adv-x="446" 
d="M43 358c0 92 65 155 193 155c65 0 162 -16 162 -85c0 -43 -38 -51 -59 -51c-35 0 -53 21 -102 21c-38 0 -58 -13 -58 -36c0 -14 8 -24 30 -33c72 -31 203 -45 203 -178c0 -97 -69 -158 -195 -158c-64 0 -180 16 -180 78c0 29 26 59 65 59c33 0 64 -22 113 -22
c36 0 61 12 61 40c0 18 -10 26 -21 32c-65 36 -212 39 -212 178zM297 -104c0 -55 -60 -134 -97 -134c-9 0 -18 5 -18 17c0 21 25 34 37 62c-40 2 -69 9 -69 53c0 32 16 55 73 55c58 0 74 -24 74 -53z" />
    <glyph glyph-name="uni021A" unicode="&#x21a;" horiz-adv-x="523" 
d="M191 55v523h-106c-40 0 -70 29 -70 63c0 28 31 64 70 64h352c36 0 71 -28 71 -64c0 -34 -33 -63 -71 -63h-106v-523c0 -34 -32 -64 -70 -64c-39 0 -70 30 -70 64zM335 -104c0 -55 -60 -134 -97 -134c-9 0 -18 5 -18 17c0 21 25 34 37 62c-40 2 -69 9 -69 53
c0 32 16 55 73 55c58 0 74 -24 74 -53z" />
    <glyph glyph-name="uni021B" unicode="&#x21b;" horiz-adv-x="361" 
d="M64 208v388c0 34 25 61 69 61s69 -28 69 -61v-111h74c37 0 66 -26 66 -60s-29 -59 -66 -59h-74v-151c0 -74 6 -100 54 -100c9 0 15 1 17 1c63 0 82 -17 82 -54c0 -58 -46 -66 -96 -66c-155 0 -195 76 -195 212zM298 -104c0 -55 -60 -134 -97 -134c-9 0 -18 5 -18 17
c0 21 25 34 37 62c-40 2 -69 9 -69 53c0 32 16 55 73 55c58 0 74 -24 74 -53z" />
    <glyph glyph-name="dotlessj" unicode="&#x237;" horiz-adv-x="285" 
d="M211 463v-449c0 -112 -60 -186 -167 -200c-8 -1 -15 -1 -23 -1c-31 0 -55 17 -62 45v-1c-13 46 25 69 52 74c37 8 62 29 62 79v453c0 34 30 63 69 63s69 -29 69 -63z" />
    <glyph glyph-name="circumflex" unicode="&#x2c6;" horiz-adv-x="436" 
d="M227 716c16 0 28 -6 37 -13l79 -61c15 -13 26 -28 27 -45c0 -25 -23 -46 -50 -46c-33 0 -65 38 -93 64c-28 -26 -60 -64 -93 -64c-27 0 -50 21 -50 46c1 17 12 32 27 45l79 61c9 7 21 13 37 13z" />
    <glyph glyph-name="caron" unicode="&#x2c7;" horiz-adv-x="431" 
d="M169 703l58 -52l58 52c9 8 28 12 36 12c26 0 49 -21 49 -46c0 -17 -12 -32 -27 -45l-79 -61c-8 -7 -21 -13 -37 -13s-29 6 -37 13l-79 61c-15 13 -27 28 -27 45c0 25 23 46 49 46c8 0 27 -4 36 -12z" />
    <glyph glyph-name="breve" unicode="&#x2d8;" horiz-adv-x="407" 
d="M203 645c18 0 40 11 59 31c11 15 28 23 46 23c27 0 54 -18 44 -56c-16 -58 -95 -90 -149 -90s-131 32 -149 90c-10 38 17 56 44 56c17 0 35 -8 45 -23c20 -20 42 -31 60 -31z" />
    <glyph glyph-name="dotaccent" unicode="&#x2d9;" horiz-adv-x="290" 
d="M210 615c0 -35 -29 -63 -66 -63c-36 0 -64 29 -64 63c0 33 28 61 64 61c37 0 66 -27 66 -61z" />
    <glyph glyph-name="ring" unicode="&#x2da;" horiz-adv-x="611" 
d="M391 644c0 -61 -48 -109 -109 -109c-62 0 -110 48 -110 109c0 60 48 109 110 109c61 0 109 -49 109 -109zM326 644c0 24 -20 45 -44 45s-44 -21 -44 -45s20 -44 44 -44s44 20 44 44z" />
    <glyph glyph-name="ogonek" unicode="&#x2db;" horiz-adv-x="362" 
d="M291 -166c0 -46 -57 -53 -95 -53c-72 0 -121 32 -121 102c0 36 19 78 47 117h101l-19 -31c-13 -22 -26 -50 -26 -71c0 -14 8 -25 26 -25c11 0 23 3 33 4h9c25 0 45 -20 45 -43z" />
    <glyph glyph-name="tilde" unicode="&#x2dc;" horiz-adv-x="415" 
d="M351 643c0 -42 -51 -73 -90 -73c-53 0 -81 36 -111 40s-32 -36 -65 -36c-21 0 -43 16 -46 41c0 46 43 80 88 80c56 0 81 -40 112 -40s30 36 63 36c25 0 49 -20 49 -48z" />
    <glyph glyph-name="hungarumlaut" unicode="&#x2dd;" horiz-adv-x="450" 
d="M72 619l63 89c12 17 24 36 51 35c33 0 69 -36 47 -68l-65 -96c-12 -18 -24 -29 -50 -29c-33 0 -69 37 -46 69zM242 619l63 89c12 17 24 36 51 35c33 0 69 -36 47 -68l-65 -96c-12 -18 -24 -29 -50 -29c-33 0 -69 37 -46 69z" />
    <glyph glyph-name="uni0400" unicode="&#x400;" horiz-adv-x="514" 
d="M491 65c0 -36 -32 -65 -70 -65h-265c-49 0 -93 17 -93 71v563c0 35 33 71 77 71h271c38 0 70 -30 70 -65c0 -36 -32 -62 -70 -62h-208v-161h189c35 0 69 -27 69 -63s-30 -64 -69 -64h-189v-163h218c37 0 70 -28 70 -62zM261 910l81 -79c8 -7 8 -15 8 -25
c0 -29 -23 -49 -51 -49c-22 0 -30 8 -45 21l-82 82c-7 10 -9 20 -9 28c0 28 26 49 49 49c22 0 29 -7 41 -19z" />
    <glyph glyph-name="uni0401" unicode="&#x401;" horiz-adv-x="514" 
d="M436 830c0 -35 -29 -63 -65 -63s-66 29 -66 63c0 33 30 61 66 61s65 -27 65 -61zM257 830c0 -35 -29 -63 -66 -63c-36 0 -64 29 -64 63c0 33 28 61 64 61c37 0 66 -27 66 -61zM491 65c0 -36 -32 -65 -70 -65h-265c-49 0 -93 17 -93 71v563c0 35 33 71 77 71h271
c38 0 70 -30 70 -65c0 -36 -32 -62 -70 -62h-208v-161h189c35 0 69 -27 69 -63s-30 -64 -69 -64h-189v-163h218c37 0 70 -28 70 -62z" />
    <glyph glyph-name="uni0402" unicode="&#x402;" horiz-adv-x="684" 
d="M151 55v523h-66c-40 0 -70 31 -70 62s31 65 70 65h352c36 0 71 -28 71 -64c0 -34 -33 -63 -71 -63h-146v-132c34 13 69 19 100 19c152 0 240 -79 240 -236c0 -145 -70 -238 -185 -238c-64 0 -112 34 -112 74c0 34 30 60 65 60c21 0 22 -7 39 -7c34 0 53 34 53 110
c0 81 -34 110 -106 110c-28 0 -61 -8 -94 -26v-257c0 -34 -32 -64 -70 -64c-39 0 -70 30 -70 64z" />
    <glyph glyph-name="uni0403" unicode="&#x403;" horiz-adv-x="503" 
d="M205 831l81 79l8 8c12 12 19 19 41 19c23 0 49 -21 49 -49c0 -8 -2 -18 -9 -28l-82 -82c-15 -13 -23 -21 -45 -21c-28 0 -51 20 -51 49c0 10 2 17 8 25zM203 578v-522c0 -34 -32 -64 -70 -64c-39 0 -70 30 -70 64v580c0 34 32 69 75 69h272c39 0 69 -30 69 -64
c0 -36 -30 -63 -69 -63h-207z" />
    <glyph glyph-name="uni0404" unicode="&#x404;" horiz-adv-x="522" 
d="M175 452v-35h156c36 0 68 -27 68 -63s-29 -65 -68 -65h-156v-35c0 -86 30 -140 120 -140c32 0 58 8 83 24l10 6c13 8 20 15 43 15c38 0 66 -28 66 -60c0 -58 -101 -107 -207 -107c-175 0 -255 104 -255 262v198c0 158 80 262 255 262c106 0 207 -49 207 -107
c0 -32 -28 -60 -66 -60c-23 0 -30 7 -43 15l-10 6c-25 16 -51 24 -83 24c-90 0 -120 -54 -120 -140z" />
    <glyph glyph-name="uni0405" unicode="&#x405;" horiz-adv-x="526" 
d="M350 204c0 45 -23 60 -41 68c-21 9 -46 18 -73 27c-98 30 -204 63 -204 208c0 129 90 207 232 207c59 0 201 -15 201 -90c0 -33 -26 -63 -70 -63c-18 0 -32 6 -49 11c-19 7 -41 15 -76 15c-49 0 -95 -17 -95 -76c0 -44 25 -59 42 -67c26 -13 50 -21 72 -27
c98 -31 205 -65 205 -207c0 -139 -106 -219 -249 -219c-74 0 -214 26 -214 96c0 32 29 63 66 63c15 0 31 -5 50 -12c24 -8 56 -20 99 -20c69 0 104 31 104 86z" />
    <glyph glyph-name="uni0406" unicode="&#x406;" horiz-adv-x="267" 
d="M63 55v595c0 34 31 64 70 64c38 0 70 -30 70 -64v-595c0 -34 -32 -64 -70 -64c-39 0 -70 30 -70 64z" />
    <glyph glyph-name="uni0407" unicode="&#x407;" horiz-adv-x="267" 
d="M63 55v595c0 34 31 64 70 64c38 0 70 -30 70 -64v-595c0 -34 -32 -64 -70 -64c-39 0 -70 30 -70 64zM288 830c0 -35 -29 -63 -65 -63s-66 29 -66 63c0 33 30 61 66 61s65 -27 65 -61zM109 830c0 -35 -29 -63 -66 -63c-36 0 -64 29 -64 63c0 33 28 61 64 61
c37 0 66 -27 66 -61z" />
    <glyph glyph-name="uni0408" unicode="&#x408;" horiz-adv-x="425" 
d="M362 650v-415c0 -152 -54 -244 -232 -244c-38 0 -115 4 -115 69c0 40 37 63 65 63c23 0 36 -6 61 -6c67 0 81 45 81 118v415c0 35 30 64 70 64c37 0 70 -30 70 -64z" />
    <glyph glyph-name="uni0409" unicode="&#x409;" horiz-adv-x="932" 
d="M645 339h-64v-212h64c94 0 115 55 115 107c0 72 -40 105 -115 105zM250 705h253c42 0 78 -33 78 -72v-167h64c155 0 255 -83 255 -231c0 -123 -67 -235 -255 -235h-127c-42 0 -78 33 -78 72v507h-135l-29 -397c-10 -110 -55 -189 -155 -189c-54 0 -106 1 -106 64
c0 46 33 66 67 66c8 0 13 -3 22 -3h6c16 0 24 20 27 60l35 453c0 39 36 72 78 72z" />
    <glyph glyph-name="uni040A" unicode="&#x40a;" horiz-adv-x="888" 
d="M536 648v-182h65c155 0 255 -83 255 -231c0 -123 -67 -235 -255 -235h-127c-42 0 -78 33 -78 72v217h-193v-233c0 -35 -32 -65 -70 -65c-39 0 -70 30 -70 65v594c0 34 31 64 70 64c38 0 70 -30 70 -64v-233h193v231c0 36 33 66 70 66c38 0 70 -31 70 -66zM601 339h-65
v-212h65c94 0 115 55 115 107c0 72 -40 105 -115 105z" />
    <glyph glyph-name="uni040B" unicode="&#x40b;" horiz-adv-x="684" 
d="M508 641c0 -34 -33 -63 -71 -63h-146v-136c35 16 65 23 106 23c143 0 234 -83 234 -231v-177c0 -35 -32 -66 -70 -66c-37 0 -70 30 -70 66v176c0 74 -35 105 -103 105c-34 0 -64 -8 -97 -26v-257c0 -34 -32 -64 -70 -64c-39 0 -70 30 -70 64v523h-66c-40 0 -70 30 -70 61
s31 66 70 66h352c36 0 71 -28 71 -64z" />
    <glyph glyph-name="uni040C" unicode="&#x40c;" horiz-adv-x="556" 
d="M203 650v-233h12l200 268c15 20 35 29 58 29c43 0 68 -38 68 -67c0 -10 -2 -20 -11 -34l-197 -260l197 -261c9 -14 11 -24 11 -34c0 -29 -25 -67 -68 -67c-23 0 -43 9 -58 29l-201 269h-11v-233c0 -35 -32 -65 -70 -65c-39 0 -70 30 -70 65v594c0 34 31 64 70 64
c38 0 70 -30 70 -64zM248 831l81 79l8 8c12 12 19 19 41 19c23 0 49 -21 49 -49c0 -8 -2 -18 -9 -28l-82 -82c-15 -13 -23 -21 -45 -21c-28 0 -51 20 -51 49c0 10 2 17 8 25z" />
    <glyph glyph-name="uni040D" unicode="&#x40d;" horiz-adv-x="629" 
d="M137 -9c26 0 54 14 67 35l232 404v-374c0 -35 33 -65 71 -65c39 0 69 30 69 65v590c0 39 -31 68 -73 68c-27 0 -54 -15 -68 -37c-89 -154 -140 -245 -232 -406v378c0 35 -33 65 -71 65c-39 0 -69 -30 -69 -65v-590c0 -37 30 -68 74 -68zM269 910l81 -79c8 -7 8 -15 8 -25
c0 -29 -23 -49 -51 -49c-22 0 -30 8 -45 21l-82 82c-7 10 -9 20 -9 28c0 28 26 49 49 49c22 0 29 -7 41 -19z" />
    <glyph glyph-name="uni040E" unicode="&#x40e;" horiz-adv-x="543" 
d="M311 455l84 217c10 27 37 42 64 42c35 0 69 -26 69 -63c0 -8 -3 -19 -5 -23l-161 -399c-51 -126 -102 -233 -244 -236c-40 0 -70 26 -70 62c0 31 25 60 66 62c44 2 66 19 89 65l-184 448c-4 9 -4 17 -4 23c0 35 30 61 69 61c26 0 52 -15 63 -42l87 -216
c18 -44 26 -92 39 -138c13 46 21 92 38 137zM271 845c18 0 40 11 59 31c11 15 28 23 46 23c27 0 54 -18 44 -56c-16 -58 -95 -90 -149 -90s-131 32 -149 90c-10 38 17 56 44 56c17 0 35 -8 45 -23c20 -20 42 -31 60 -31z" />
    <glyph glyph-name="uni040F" unicode="&#x40f;" horiz-adv-x="619" 
d="M239 -103v103h-106c-39 0 -70 30 -70 65v585c0 35 31 65 70 65c38 0 70 -30 70 -65v-523h213v523c0 35 33 65 70 65c38 0 70 -30 70 -65v-585c0 -35 -33 -65 -70 -65h-107v-103c0 -34 -32 -64 -70 -64c-39 0 -70 30 -70 64z" />
    <glyph glyph-name="uni0410" unicode="&#x410;" horiz-adv-x="589" 
d="M186 139l-33 -101c-10 -29 -42 -47 -66 -47c-39 0 -72 26 -72 64c0 5 1 17 3 22l195 569c13 39 33 68 81 68s68 -28 82 -68l195 -569c2 -5 3 -17 3 -22c0 -38 -31 -64 -72 -64c-26 0 -58 19 -68 47l-35 101h-213zM363 253l-51 171c-9 29 -14 67 -18 98
c-4 -31 -9 -69 -18 -98l-53 -171h140z" />
    <glyph glyph-name="uni0411" unicode="&#x411;" horiz-adv-x="571" 
d="M430 578h-227v-130h85c155 0 255 -79 255 -222c0 -118 -67 -226 -255 -226h-147c-42 0 -78 33 -78 72v564c0 34 32 69 75 69h292c39 0 69 -30 69 -64c0 -36 -30 -63 -69 -63zM288 321h-85v-194h85c94 0 115 50 115 98c0 65 -40 96 -115 96z" />
    <glyph glyph-name="uni0412" unicode="&#x412;" horiz-adv-x="582" 
d="M203 429h115c35 0 77 24 77 78c0 38 -18 72 -70 72h-122v-150zM321 301h-118v-174h112c66 0 99 33 99 85c0 57 -40 89 -93 89zM306 0h-165c-44 0 -78 33 -78 72v561c0 41 36 72 78 72h169c150 0 225 -96 225 -196c0 -70 -45 -113 -105 -142c62 -25 124 -70 124 -157
c0 -117 -94 -210 -248 -210z" />
    <glyph glyph-name="uni0413" unicode="&#x413;" horiz-adv-x="503" 
d="M203 578v-522c0 -34 -32 -64 -70 -64c-39 0 -70 30 -70 64v580c0 34 32 69 75 69h272c39 0 69 -30 69 -64c0 -36 -30 -63 -69 -63h-207z" />
    <glyph glyph-name="uni0414" unicode="&#x414;" horiz-adv-x="668" 
d="M282 343c-4 -86 -18 -160 -45 -216h208v452h-154zM86 127c33 39 51 115 56 218l15 288c2 39 36 72 78 72h272c42 0 78 -33 78 -72v-506c42 0 66 -35 66 -74v-128c0 -36 -31 -64 -71 -64c-39 0 -69 28 -69 64v75h-356v-75c0 -36 -30 -64 -69 -64s-69 28 -69 64v128
c0 39 27 74 69 74z" />
    <glyph glyph-name="uni0415" unicode="&#x415;" horiz-adv-x="514" 
d="M491 65c0 -36 -32 -65 -70 -65h-265c-49 0 -93 17 -93 71v563c0 35 33 71 77 71h271c38 0 70 -30 70 -65c0 -36 -32 -62 -70 -62h-208v-161h189c35 0 69 -27 69 -63s-30 -64 -69 -64h-189v-163h218c37 0 70 -28 70 -62z" />
    <glyph glyph-name="uni0416" unicode="&#x416;" horiz-adv-x="786" 
d="M463 650v-233l182 267c16 21 35 30 58 30c43 0 68 -38 68 -67c0 -10 -2 -20 -9 -32l-175 -262l175 -264c7 -12 9 -21 9 -31c0 -29 -25 -67 -68 -67c-23 0 -43 9 -58 29l-182 268v-232c0 -35 -32 -65 -70 -65c-39 0 -70 30 -70 65v232l-182 -268c-15 -20 -35 -29 -58 -29
c-43 0 -68 38 -68 67c0 10 2 19 9 31l175 263l-175 263c-7 12 -9 22 -9 32c0 29 25 67 68 67c23 0 42 -9 58 -30l182 -267v233c0 34 31 64 70 64c38 0 70 -30 70 -64z" />
    <glyph glyph-name="uni0417" unicode="&#x417;" horiz-adv-x="525" 
d="M494 203c0 -111 -95 -212 -245 -212c-88 0 -229 35 -229 106c0 33 31 60 65 60c43 0 77 -45 154 -45c75 0 116 42 116 94c0 67 -68 85 -145 90c-38 2 -77 6 -77 64c0 57 39 59 69 60c67 2 138 31 138 94c0 37 -24 79 -95 79c-27 0 -55 -6 -77 -16
c-23 -10 -45 -29 -73 -29c-32 0 -64 25 -64 58c0 66 129 108 222 108c148 0 223 -106 223 -198c0 -67 -39 -114 -112 -151c80 -32 130 -81 130 -162z" />
    <glyph glyph-name="uni0418" unicode="&#x418;" horiz-adv-x="640" 
d="M137 -9c-44 0 -74 31 -74 68v590c0 35 30 65 69 65c38 0 71 -30 71 -65v-378c92 161 143 252 232 406c14 22 41 37 68 37c42 0 73 -29 73 -68v-590c0 -35 -30 -65 -69 -65c-38 0 -71 30 -71 65v374l-232 -404c-13 -21 -41 -35 -67 -35z" />
    <glyph glyph-name="uni0419" unicode="&#x419;" horiz-adv-x="629" 
d="M314 845c18 0 40 11 59 31c11 15 28 23 46 23c27 0 54 -18 44 -56c-16 -58 -95 -90 -149 -90s-131 32 -149 90c-10 38 17 56 44 56c17 0 35 -8 45 -23c20 -20 42 -31 60 -31zM137 -9c26 0 54 14 67 35l232 404v-374c0 -35 33 -65 71 -65c39 0 69 30 69 65v590
c0 39 -31 68 -73 68c-27 0 -54 -15 -68 -37c-89 -154 -140 -245 -232 -406v378c0 35 -33 65 -71 65c-39 0 -69 -30 -69 -65v-590c0 -37 30 -68 74 -68z" />
    <glyph glyph-name="uni041A" unicode="&#x41a;" horiz-adv-x="556" 
d="M203 650v-233h12l200 268c15 20 35 29 58 29c43 0 68 -38 68 -67c0 -10 -2 -20 -11 -34l-197 -260l197 -261c9 -14 11 -24 11 -34c0 -29 -25 -67 -68 -67c-23 0 -43 9 -58 29l-201 269h-11v-233c0 -35 -32 -65 -70 -65c-39 0 -70 30 -70 65v594c0 34 31 64 70 64
c38 0 70 -30 70 -64z" />
    <glyph glyph-name="uni041B" unicode="&#x41b;" horiz-adv-x="665" 
d="M137 180l35 453c3 39 36 72 78 72h273c42 0 78 -33 78 -72v-578c-2 -35 -33 -62 -70 -62c-40 0 -70 27 -70 63v523h-156l-29 -397c-10 -110 -55 -189 -155 -189c-54 0 -106 1 -106 64c0 46 33 66 67 66c8 0 13 -3 22 -3h6c16 0 24 20 27 60z" />
    <glyph glyph-name="uni041C" unicode="&#x41c;" horiz-adv-x="759" 
d="M698 648v-594c0 -34 -32 -63 -69 -63c-38 0 -71 29 -71 63v344l-114 -224c-13 -26 -38 -38 -66 -38c-27 0 -52 12 -65 38l-114 224v-344c0 -34 -33 -63 -72 -63c-38 0 -68 29 -68 63v594c0 38 31 66 72 66c32 0 57 -13 70 -39l178 -353l178 354c14 29 41 38 69 38
c41 0 72 -30 72 -66z" />
    <glyph glyph-name="uni041D" unicode="&#x41d;" horiz-adv-x="620" 
d="M556 56c0 -35 -32 -65 -70 -65c-37 0 -70 30 -70 65v233h-213v-233c0 -35 -32 -65 -70 -65c-39 0 -70 30 -70 65v594c0 34 31 64 70 64c38 0 70 -30 70 -64v-233h213v233c0 34 33 64 70 64s70 -30 70 -64v-594z" />
    <glyph glyph-name="uni041E" unicode="&#x41e;" horiz-adv-x="610" 
d="M305 -9c-173 0 -260 117 -260 263v198c0 142 73 262 260 262s260 -120 260 -262v-198c0 -146 -87 -263 -260 -263zM305 587c-88 0 -120 -54 -120 -135v-198c0 -80 38 -136 120 -136s120 56 120 136v198c0 81 -32 135 -120 135z" />
    <glyph glyph-name="uni041F" unicode="&#x41f;" horiz-adv-x="619" 
d="M556 56c0 -35 -32 -65 -70 -65c-37 0 -70 30 -70 65v523h-213v-523c0 -35 -32 -65 -70 -65c-39 0 -70 30 -70 65v585c0 35 31 65 70 65h353c37 0 70 -30 70 -65v-585z" />
    <glyph glyph-name="uni0420" unicode="&#x420;" horiz-adv-x="570" 
d="M288 240h-85v-183c0 -35 -32 -66 -70 -66c-37 0 -70 30 -70 66v576c0 39 36 72 78 72h147c188 0 255 -112 255 -234c0 -148 -100 -231 -255 -231zM203 578v-211h85c75 0 115 33 115 105c0 52 -21 106 -115 106h-85z" />
    <glyph glyph-name="uni0421" unicode="&#x421;" horiz-adv-x="522" 
d="M175 452v-198c0 -86 30 -140 120 -140c32 0 58 8 83 24l10 6c13 8 20 15 43 15c38 0 66 -28 66 -60c0 -58 -101 -107 -207 -107c-175 0 -255 104 -255 262v198c0 158 80 262 255 262c106 0 207 -49 207 -107c0 -32 -28 -60 -66 -60c-23 0 -30 7 -43 15l-10 6
c-25 16 -51 24 -83 24c-90 0 -120 -54 -120 -140z" />
    <glyph glyph-name="uni0422" unicode="&#x422;" horiz-adv-x="523" 
d="M191 55v523h-106c-40 0 -70 29 -70 63c0 28 31 64 70 64h352c36 0 71 -28 71 -64c0 -34 -33 -63 -71 -63h-106v-523c0 -34 -32 -64 -70 -64c-39 0 -70 30 -70 64z" />
    <glyph glyph-name="uni0423" unicode="&#x423;" horiz-adv-x="543" 
d="M311 455l84 217c10 27 37 42 64 42c35 0 69 -26 69 -63c0 -8 -3 -19 -5 -23l-161 -399c-51 -126 -102 -233 -244 -236c-40 0 -70 26 -70 62c0 31 25 60 66 62c44 2 66 19 89 65l-184 448c-4 9 -4 17 -4 23c0 35 30 61 69 61c26 0 52 -15 63 -42l87 -216
c18 -44 26 -92 39 -138c13 46 21 92 38 137z" />
    <glyph glyph-name="uni0424" unicode="&#x424;" horiz-adv-x="790" 
d="M325 55v92h-35c-155 0 -255 83 -255 232c0 122 67 235 255 235h35v36c0 34 35 64 70 64c42 0 70 -30 70 -64v-36h35c188 0 255 -113 255 -235c0 -149 -100 -232 -255 -232h-35v-92c0 -34 -32 -64 -70 -64c-39 0 -70 30 -70 64zM500 487h-35v-212h35c75 0 115 33 115 105
c0 52 -21 107 -115 107zM290 275h35v212h-35c-94 0 -115 -55 -115 -107c0 -72 40 -105 115 -105z" />
    <glyph glyph-name="uni0425" unicode="&#x425;" horiz-adv-x="554" 
d="M277 251l-133 -220v1c-11 -18 -29 -41 -64 -41c-36 0 -68 32 -68 65c0 11 5 26 10 34l173 276l-159 251c-5 10 -8 23 -8 34c0 32 31 63 67 63c31 0 55 -22 69 -46l113 -186l113 186c13 19 35 46 70 46s66 -29 66 -64c0 -10 -4 -22 -9 -33l-158 -251l173 -276
c5 -8 10 -23 10 -34c0 -33 -33 -65 -67 -65c-35 0 -53 21 -65 40z" />
    <glyph glyph-name="uni0426" unicode="&#x426;" horiz-adv-x="644" 
d="M556 649v-522h10c37 0 70 -30 70 -64v-155c0 -35 -33 -65 -70 -65s-70 30 -70 65v92h-363c-39 0 -70 30 -70 65v584c0 35 31 65 70 65c38 0 70 -30 70 -65v-522h213v522c0 35 33 65 70 65c38 0 70 -30 70 -65z" />
    <glyph glyph-name="uni0427" unicode="&#x427;" horiz-adv-x="587" 
d="M383 57v206c-35 -18 -68 -23 -104 -23c-147 0 -236 83 -236 231v177c0 35 31 66 70 66c37 0 70 -30 70 -66v-176c0 -74 35 -105 102 -105c34 0 65 8 98 25v256c0 35 31 66 70 66c37 0 70 -30 70 -66v-591c0 -36 -33 -66 -70 -66c-39 0 -70 31 -70 66z" />
    <glyph glyph-name="uni0428" unicode="&#x428;" horiz-adv-x="800" 
d="M736 649v-584c0 -35 -33 -65 -70 -65h-533c-39 0 -70 30 -70 65v584c0 35 31 65 70 65c38 0 70 -30 70 -65v-522h126v523c0 34 31 64 70 64c38 0 70 -30 70 -64v-523h127v522c0 35 33 65 70 65c38 0 70 -30 70 -65z" />
    <glyph glyph-name="uni0429" unicode="&#x429;" horiz-adv-x="824" 
d="M133 0c-39 0 -70 30 -70 65v584c0 35 31 65 70 65c38 0 70 -30 70 -65v-522h126v523c0 34 31 64 70 64c38 0 70 -30 70 -64v-523h127v522c0 35 33 65 70 65c38 0 70 -30 70 -65v-522h10c37 0 70 -30 70 -64v-145c0 -35 -32 -65 -70 -65c-37 0 -70 30 -70 65v82h-543z" />
    <glyph glyph-name="uni042A" unicode="&#x42a;" horiz-adv-x="704" 
d="M182 72v506h-97c-39 0 -69 27 -69 63c0 34 30 64 69 64h162c43 0 75 -35 75 -69v-170h85c155 0 255 -83 255 -231c0 -123 -67 -235 -255 -235h-147c-42 0 -78 33 -78 72zM407 339h-85v-212h85c94 0 115 55 115 107c0 72 -40 105 -115 105z" />
    <glyph glyph-name="uni042B" unicode="&#x42b;" horiz-adv-x="785" 
d="M581 55v595c0 34 31 64 70 64c38 0 70 -30 70 -64v-595c0 -34 -32 -64 -70 -64c-39 0 -70 30 -70 64zM203 648v-182h75c155 0 255 -83 255 -231c0 -123 -67 -235 -255 -235h-137c-42 0 -78 33 -78 72v576c0 36 33 66 70 66c38 0 70 -31 70 -66zM278 339h-75v-212h75
c94 0 115 55 115 107c0 72 -40 105 -115 105z" />
    <glyph glyph-name="uni042C" unicode="&#x42c;" horiz-adv-x="585" 
d="M203 648v-182h85c155 0 255 -83 255 -231c0 -123 -67 -235 -255 -235h-147c-42 0 -78 33 -78 72v576c0 36 33 66 70 66c38 0 70 -31 70 -66zM288 339h-85v-212h85c94 0 115 55 115 107c0 72 -40 105 -115 105z" />
    <glyph glyph-name="uni042D" unicode="&#x42d;" horiz-adv-x="538" 
d="M357 417v35c0 86 -30 140 -120 140c-32 0 -58 -8 -83 -24l-10 -6c-13 -8 -20 -15 -43 -15c-38 0 -66 28 -66 60c0 58 101 107 207 107c175 0 255 -104 255 -262v-198c0 -158 -80 -262 -255 -262c-106 0 -207 49 -207 107c0 32 28 60 66 60c23 0 30 -7 43 -15l10 -6
c25 -16 51 -24 83 -24c90 0 120 54 120 140v35h-156c-39 0 -68 29 -68 65s32 63 68 63h156z" />
    <glyph glyph-name="uni042E" unicode="&#x42e;" horiz-adv-x="838" 
d="M543 -9c-166 0 -250 113 -250 254v45h-90v-234c0 -35 -32 -65 -70 -65c-39 0 -70 30 -70 65v594c0 34 31 64 70 64c38 0 70 -30 70 -64v-233h90v44c0 138 70 253 250 253s250 -115 250 -253v-216c0 -141 -84 -254 -250 -254zM543 587c-81 0 -110 -51 -110 -126v-216
c0 -75 35 -127 110 -127s110 52 110 127v216c0 75 -29 126 -110 126z" />
    <glyph glyph-name="uni042F" unicode="&#x42f;" horiz-adv-x="601" 
d="M60 493c0 105 60 212 248 212h154c41 0 76 -33 76 -72v-576c0 -36 -30 -66 -69 -66c-38 0 -71 31 -71 66v229h-49l-167 -263c-13 -20 -34 -31 -59 -31c-27 0 -73 27 -73 62c0 11 4 29 12 41l136 206c-86 28 -138 93 -138 192zM200 493c0 -52 34 -81 96 -81h102v166h-96
c-83 0 -102 -43 -102 -85z" />
    <glyph glyph-name="uni0430" unicode="&#x430;" horiz-adv-x="522" 
d="M450 306v-186c0 -30 15 -27 32 -34c15 -6 23 -17 23 -38c0 -32 -19 -52 -72 -52c-37 0 -62 10 -85 42c-37 -30 -79 -45 -135 -45c-116 0 -178 63 -178 158v3c0 102 66 153 198 153c27 0 53 -2 79 -10v32c0 47 -25 69 -76 69c-28 0 -45 -7 -65 -16c-8 -3 -19 -10 -38 -10
c-42 0 -58 33 -58 58c0 59 88 83 171 83c145 0 204 -72 204 -207zM241 210c-58 0 -69 -27 -69 -57v-3c0 -33 19 -46 62 -46c26 0 52 6 78 26v72c-25 5 -51 8 -71 8z" />
    <glyph glyph-name="uni0431" unicode="&#x431;" horiz-adv-x="505" 
d="M35 179v274c0 129 67 228 224 244c6 1 54 4 95 22c4 2 14 6 28 6c36 0 64 -26 64 -60c0 -76 -142 -79 -180 -83c-31 -3 -93 -17 -93 -122c26 19 58 28 93 28c129 0 203 -81 203 -186v-123c0 -105 -75 -186 -217 -186s-217 81 -217 186zM252 111c52 0 79 26 79 68v124
c0 41 -23 67 -75 67c-48 0 -80 -22 -83 -61v-130c0 -42 27 -68 79 -68z" />
    <glyph glyph-name="uni0432" unicode="&#x432;" horiz-adv-x="508" 
d="M462 365c0 -47 -24 -82 -92 -109c72 -28 102 -63 102 -116c0 -79 -65 -140 -196 -140h-144c-39 0 -69 29 -69 62v381c0 33 30 62 69 62h134c132 0 196 -62 196 -140zM335 156c0 25 -11 53 -70 53h-64v-105h73c40 0 61 16 61 52zM201 401v-99h65c50 0 59 24 59 47
c0 36 -21 52 -61 52h-63z" />
    <glyph glyph-name="uni0433" unicode="&#x433;" horiz-adv-x="432" 
d="M201 389v-334c0 -35 -30 -62 -69 -62s-69 27 -69 62v392c0 33 29 58 66 58h225c35 0 66 -25 66 -58s-29 -58 -66 -58h-153z" />
    <glyph glyph-name="uni0434" unicode="&#x434;" horiz-adv-x="578" 
d="M190 505h250c46 0 59 -40 59 -62v-330h7c46 0 59 -40 59 -62v-129c0 -35 -30 -62 -69 -62s-69 27 -69 62v78h-276v-78c0 -35 -30 -62 -69 -62s-69 27 -69 62v129c0 20 11 62 59 62c31 25 47 77 51 150l9 182c1 30 25 60 58 60zM256 261c-3 -57 -13 -108 -31 -148h136v279
h-100z" />
    <glyph glyph-name="uni0435" unicode="&#x435;" horiz-adv-x="485" 
d="M260 191c-26 0 -48 2 -77 6v-33c0 -34 26 -56 80 -56c32 0 58 8 90 22c4 2 13 6 30 6c48 0 62 -32 62 -55c0 -70 -128 -88 -192 -88c-132 0 -208 76 -208 175v167c0 101 74 178 213 178c131 0 196 -69 196 -170c0 -96 -59 -152 -194 -152zM317 350c0 40 -21 56 -60 56
c-48 0 -74 -25 -74 -65v-43c32 -3 62 -4 72 -4c38 0 62 13 62 56z" />
    <glyph glyph-name="uni0436" unicode="&#x436;" horiz-adv-x="648" 
d="M393 55c0 -35 -30 -62 -69 -62s-69 27 -69 62v134l-116 -168c-14 -20 -33 -28 -57 -28c-38 0 -65 21 -67 55c0 11 4 27 11 37l114 166l-115 167c-9 12 -10 25 -10 35c2 34 30 56 67 56c25 0 44 -9 58 -29l112 -164h3v133c0 33 30 61 69 61s69 -28 69 -61v-133h2l113 162
c15 21 35 31 58 31c38 0 65 -22 67 -56c0 -11 -4 -26 -11 -36l-115 -166l115 -166c7 -10 11 -26 11 -37c-2 -34 -30 -55 -67 -55c-25 0 -44 10 -58 29l-115 167v-134z" />
    <glyph glyph-name="uni0437" unicode="&#x437;" horiz-adv-x="448" 
d="M404 370c0 -50 -24 -85 -83 -112c66 -24 93 -59 93 -114c0 -87 -67 -151 -200 -151c-62 0 -185 14 -185 82c0 27 20 59 53 59c15 0 35 -6 41 -9c27 -13 47 -22 88 -22c40 0 67 9 67 50c0 18 -5 45 -89 50c-35 2 -77 5 -77 53s43 48 74 51c78 8 82 41 82 54
c0 27 -19 42 -61 42c-55 0 -69 -26 -104 -26c-37 0 -64 29 -64 59c0 58 103 77 173 77c127 0 192 -62 192 -143z" />
    <glyph glyph-name="uni0438" unicode="&#x438;" horiz-adv-x="570" 
d="M137 -9c-44 0 -74 30 -74 66v391c0 34 29 63 68 63c38 0 70 -29 70 -63v-229l167 258c13 22 39 34 66 34c43 0 72 -28 72 -66v-390c0 -34 -30 -64 -69 -64s-69 30 -69 64v225l-166 -256c-15 -20 -39 -33 -65 -33z" />
    <glyph glyph-name="uni0439" unicode="&#x439;" horiz-adv-x="570" 
d="M137 -9c-44 0 -74 30 -74 66v391c0 34 29 63 68 63c38 0 70 -29 70 -63v-229l167 258c13 22 39 34 66 34c43 0 72 -28 72 -66v-390c0 -34 -30 -64 -69 -64s-69 30 -69 64v225l-166 -256c-15 -20 -39 -33 -65 -33zM285 645c18 0 40 11 59 31c11 15 28 23 46 23
c27 0 54 -18 44 -56c-16 -58 -95 -90 -149 -90s-131 32 -149 90c-10 38 17 56 44 56c17 0 35 -8 45 -23c20 -20 42 -31 60 -31z" />
    <glyph glyph-name="uni043A" unicode="&#x43a;" horiz-adv-x="476" 
d="M215 186h-14v-131c0 -35 -30 -62 -69 -62s-69 27 -69 62v394c0 33 30 61 69 61s69 -28 69 -61v-133h14l122 165c14 19 32 28 57 28c37 0 65 -22 67 -56c0 -11 -4 -26 -11 -36l-126 -166l126 -166c7 -10 11 -25 11 -36c-2 -34 -30 -56 -67 -56c-25 0 -43 9 -57 28z" />
    <glyph glyph-name="uni043B" unicode="&#x43b;" horiz-adv-x="578" 
d="M122 169l26 276c3 30 25 60 58 60h250c46 0 59 -40 59 -62v-388c0 -35 -30 -62 -69 -62s-69 27 -69 62v337h-102l-19 -221c-10 -106 -51 -175 -150 -175c-46 0 -91 11 -91 58c0 43 35 66 67 60c5 -1 9 -2 13 -2c16 0 24 19 27 57z" />
    <glyph glyph-name="uni043C" unicode="&#x43c;" horiz-adv-x="680" 
d="M340 74h-2c-28 0 -51 14 -64 36l-74 139v-194c0 -34 -32 -62 -69 -62c-38 0 -68 28 -68 62v391c0 37 31 64 72 64c32 0 52 -14 66 -37l138 -235l138 235c14 23 34 37 66 37c41 0 72 -27 72 -64v-391c0 -34 -32 -62 -68 -62c-39 0 -69 28 -69 62v194l-74 -139
c-13 -22 -36 -36 -64 -36z" />
    <glyph glyph-name="uni043D" unicode="&#x43d;" horiz-adv-x="554" 
d="M201 55c0 -35 -30 -62 -69 -62s-69 27 -69 62v394c0 33 30 61 69 61s69 -28 69 -61v-133h152v133c0 33 30 61 69 61s69 -28 69 -61v-394c0 -35 -30 -62 -69 -62s-69 27 -69 62v149h-152v-149z" />
    <glyph glyph-name="uni043E" unicode="&#x43e;" horiz-adv-x="524" 
d="M262 -7c-142 0 -217 81 -217 186v149c0 105 75 186 217 186s217 -81 217 -186v-149c0 -105 -75 -186 -217 -186zM262 111c52 0 79 26 79 68v150c0 41 -27 67 -79 67s-79 -26 -79 -67v-150c0 -42 27 -68 79 -68z" />
    <glyph glyph-name="uni043F" unicode="&#x43f;" horiz-adv-x="544" 
d="M132 505h280c39 0 69 -27 69 -62v-388c0 -35 -30 -62 -69 -62s-69 27 -69 62v337h-142v-337c0 -35 -30 -62 -69 -62s-69 27 -69 62v388c0 35 30 62 69 62z" />
    <glyph glyph-name="uni0440" unicode="&#x440;" horiz-adv-x="528" 
d="M292 -6c-27 0 -51 3 -87 20v-165c0 -34 -25 -61 -69 -61s-69 28 -69 61v508c0 23 -3 35 -11 47c-8 10 -14 18 -14 32c0 37 34 61 66 61c21 0 38 -11 52 -28c48 27 88 44 141 44c115 0 182 -80 182 -196v-116c0 -118 -47 -207 -191 -207zM205 357v-236
c30 -9 55 -13 73 -13c49 0 67 30 67 93v116c0 52 -22 80 -65 80c-21 0 -46 -7 -77 -21c1 -7 2 -13 2 -19z" />
    <glyph glyph-name="uni0441" unicode="&#x441;" horiz-adv-x="443" 
d="M45 184v135c0 107 64 191 207 191c59 0 171 -14 171 -87c0 -24 -12 -51 -62 -51c-10 0 -19 1 -33 6c-21 8 -37 17 -68 17c-55 0 -77 -29 -77 -76v-135c0 -47 22 -76 77 -76c31 0 48 9 68 17c10 4 17 6 31 6c52 0 64 -28 64 -51c0 -72 -112 -87 -172 -87
c-141 0 -206 84 -206 191z" />
    <glyph glyph-name="uni0442" unicode="&#x442;" horiz-adv-x="448" 
d="M293 385v-330c0 -35 -30 -62 -69 -62s-69 27 -69 62v330h-74c-37 0 -66 26 -66 60s29 60 66 60h286c37 0 66 -26 66 -60s-29 -60 -66 -60h-74z" />
    <glyph glyph-name="uni0443" unicode="&#x443;" horiz-adv-x="474" 
d="M271 300l54 168c9 29 38 42 65 42c35 0 69 -25 69 -61c0 -7 -1 -13 -3 -18l-122 -356c-55 -162 -93 -278 -245 -278c-40 0 -70 25 -70 60c0 30 25 58 66 60c44 2 66 34 90 112l-154 397c-4 10 -5 19 -5 25c0 34 30 59 69 59c27 0 52 -14 63 -42l63 -168
c14 -36 21 -78 32 -115c9 37 16 79 28 115z" />
    <glyph glyph-name="uni0444" unicode="&#x444;" horiz-adv-x="664" 
d="M262 -150v145c-144 11 -217 105 -217 228v68c0 117 73 209 217 220v149c0 33 30 62 69 62s69 -27 69 -62v-149c145 -10 219 -102 219 -220v-68c0 -123 -74 -218 -219 -228v-145c0 -35 -30 -62 -69 -62s-69 27 -69 62zM491 292c0 54 -30 91 -91 100v-278
c61 10 91 50 91 109v69zM173 223c0 -58 29 -97 89 -109v277c-60 -10 -89 -46 -89 -99v-69z" />
    <glyph glyph-name="uni0445" unicode="&#x445;" horiz-adv-x="471" 
d="M317 257l129 -170c8 -10 10 -21 10 -31c0 -34 -28 -63 -70 -63c-32 0 -45 11 -63 36c-35 50 -52 70 -88 121c-31 -42 -63 -85 -93 -127c-15 -20 -33 -30 -57 -30c-39 0 -70 25 -70 62c0 10 3 21 10 30c45 61 85 111 130 172c-40 53 -80 104 -120 159c-8 9 -12 23 -12 32
c0 33 30 62 69 62s55 -24 69 -43l76 -103l80 111c15 21 30 35 62 35s68 -26 68 -60c0 -9 -2 -22 -10 -32z" />
    <glyph glyph-name="uni0446" unicode="&#x446;" horiz-adv-x="569" 
d="M491 113c37 -2 66 -28 66 -62v-134c0 -35 -30 -62 -69 -62s-69 27 -69 62v83h-287c-39 0 -69 27 -69 62v387c0 35 30 61 69 61s69 -26 69 -61v-336h152v336c0 35 30 61 69 61s69 -26 69 -61v-336z" />
    <glyph glyph-name="uni0447" unicode="&#x447;" horiz-adv-x="518" 
d="M183 449v-126c0 -24 8 -47 58 -47c13 0 42 3 75 8v165c0 33 30 61 69 61s69 -28 69 -61v-394c0 -35 -30 -62 -69 -62s-69 27 -69 62v120c-28 -10 -53 -11 -72 -11c-140 0 -199 59 -199 159v126c0 33 30 61 69 61s69 -28 69 -61z" />
    <glyph glyph-name="uni0448" unicode="&#x448;" horiz-adv-x="745" 
d="M612 0h-480c-39 0 -69 27 -69 62v387c0 35 30 61 69 61s69 -26 69 -61v-336h102v336c0 33 30 61 69 61s69 -28 69 -61v-336h102v336c0 35 30 61 69 61s69 -26 69 -61v-387c0 -35 -30 -62 -69 -62z" />
    <glyph glyph-name="uni0449" unicode="&#x449;" horiz-adv-x="758" 
d="M609 0h-477c-39 0 -69 27 -69 62v387c0 35 30 61 69 61s69 -26 69 -61v-336h102v336c0 33 30 61 69 61s69 -28 69 -61v-336h102v336c0 35 30 61 69 61s69 -26 69 -61v-336c36 -1 66 -27 66 -62v-134c0 -35 -30 -62 -69 -62s-69 27 -69 62v83z" />
    <glyph glyph-name="uni044A" unicode="&#x44a;" horiz-adv-x="583" 
d="M134 389h-53c-37 0 -66 25 -66 58s31 58 66 58h125c37 0 66 -25 66 -58v-126h82c141 0 199 -59 199 -163c0 -94 -62 -158 -186 -158h-164c-39 0 -69 29 -69 62v327zM354 208h-82v-94h93c33 0 51 15 51 47c0 23 -9 47 -62 47z" />
    <glyph glyph-name="uni044B" unicode="&#x44b;" horiz-adv-x="724" 
d="M660 55c0 -35 -30 -62 -69 -62s-69 27 -69 62v394c0 33 30 61 69 61s69 -28 69 -61v-394zM201 449v-128h82c141 0 199 -59 199 -163c0 -94 -62 -158 -186 -158h-164c-39 0 -69 29 -69 62v387c0 33 30 61 69 61s69 -28 69 -61zM283 208h-82v-94h93c33 0 51 15 51 47
c0 23 -9 47 -62 47z" />
    <glyph glyph-name="uni044C" unicode="&#x44c;" horiz-adv-x="512" 
d="M201 449v-128h82c141 0 199 -59 199 -163c0 -94 -62 -158 -186 -158h-164c-39 0 -69 29 -69 62v387c0 33 30 61 69 61s69 -28 69 -61zM283 208h-82v-94h93c33 0 51 15 51 47c0 23 -9 47 -62 47z" />
    <glyph glyph-name="uni044D" unicode="&#x44d;" horiz-adv-x="433" 
d="M397 310v-117c0 -113 -60 -200 -199 -200c-60 0 -179 19 -179 81c0 31 28 57 64 57c7 0 16 -1 28 -5c23 -9 45 -18 79 -18c49 0 69 31 69 85v3h-123c-37 0 -66 25 -66 58s29 58 66 58h123c-1 53 -21 83 -69 83c-34 0 -56 -9 -79 -18c-12 -3 -21 -5 -28 -5
c-36 0 -64 27 -64 57c0 63 119 81 179 81c139 0 199 -87 199 -200z" />
    <glyph glyph-name="uni044E" unicode="&#x44e;" horiz-adv-x="741" 
d="M201 55c0 -35 -30 -62 -69 -62s-69 27 -69 62v394c0 33 30 61 69 61s69 -28 69 -61v-133h80v11c0 105 73 186 212 186s212 -81 212 -186v-148c0 -105 -73 -186 -212 -186s-212 81 -212 186v25h-80v-149zM493 111c49 0 74 26 74 68v149c0 41 -25 67 -74 67
s-74 -26 -74 -67v-149c0 -42 25 -68 74 -68z" />
    <glyph glyph-name="uni044F" unicode="&#x44f;" horiz-adv-x="527" 
d="M394 -7c-39 0 -69 28 -69 62v129h-42l-119 -163c-15 -19 -33 -28 -57 -28c-38 0 -65 21 -67 55c0 11 4 27 11 37l87 116c-66 24 -94 74 -94 146c0 94 65 158 196 158h154c39 0 69 -29 69 -62v-388c0 -34 -30 -62 -69 -62zM181 344c0 -23 11 -47 72 -47h72v94h-83
c-40 0 -61 -15 -61 -47z" />
    <glyph glyph-name="uni0450" unicode="&#x450;" horiz-adv-x="485" 
d="M260 191c-26 0 -48 2 -77 6v-33c0 -34 26 -56 80 -56c32 0 58 8 90 22c4 2 13 6 30 6c48 0 62 -32 62 -55c0 -70 -128 -88 -192 -88c-132 0 -208 76 -208 175v167c0 101 74 178 213 178c131 0 196 -69 196 -170c0 -96 -59 -152 -194 -152zM317 350c0 40 -21 56 -60 56
c-48 0 -74 -25 -74 -65v-43c32 -3 62 -4 72 -4c38 0 62 13 62 56zM241 710l81 -79c8 -7 8 -15 8 -25c0 -29 -23 -49 -51 -49c-22 0 -30 8 -45 21l-82 82c-7 10 -9 20 -9 28c0 28 26 49 49 49c22 0 29 -7 41 -19z" />
    <glyph glyph-name="uni0451" unicode="&#x451;" horiz-adv-x="485" 
d="M260 191c-26 0 -48 2 -77 6v-33c0 -34 26 -56 80 -56c32 0 58 8 90 22c4 2 13 6 30 6c48 0 62 -32 62 -55c0 -70 -128 -88 -192 -88c-132 0 -208 76 -208 175v167c0 101 74 178 213 178c131 0 196 -69 196 -170c0 -96 -59 -152 -194 -152zM317 350c0 40 -21 56 -60 56
c-48 0 -74 -25 -74 -65v-43c32 -3 62 -4 72 -4c38 0 62 13 62 56zM397 630c0 -35 -29 -63 -65 -63s-66 29 -66 63c0 33 30 61 66 61s65 -27 65 -61zM218 630c0 -35 -29 -63 -66 -63c-36 0 -64 29 -64 63c0 33 28 61 64 61c37 0 66 -27 66 -61z" />
    <glyph glyph-name="uni0452" unicode="&#x452;" horiz-adv-x="622" 
d="M419 40v240c0 59 -16 87 -57 87c-28 0 -63 -12 -86 -33v-279c0 -35 -29 -62 -68 -62s-69 27 -69 62v494h-67c-32 0 -57 22 -57 49s25 50 57 50h67v17c0 32 29 62 68 62s69 -27 69 -62v-17h65c31 0 56 -23 56 -50c0 -26 -25 -49 -56 -49h-65v-86c28 15 61 23 95 23
c128 0 186 -84 186 -205v-208c0 -156 -60 -252 -190 -274c-31 0 -55 17 -62 42c-13 45 25 65 52 72c38 10 62 49 62 127z" />
    <glyph glyph-name="uni0453" unicode="&#x453;" horiz-adv-x="432" 
d="M201 389v-334c0 -35 -30 -62 -69 -62s-69 27 -69 62v392c0 33 29 58 66 58h225c35 0 66 -25 66 -58s-29 -58 -66 -58h-153zM184 631l81 79l8 8c12 12 19 19 41 19c23 0 49 -21 49 -49c0 -8 -2 -18 -9 -28l-82 -82c-15 -13 -23 -21 -45 -21c-28 0 -51 20 -51 49
c0 10 2 17 8 25z" />
    <glyph glyph-name="uni0454" unicode="&#x454;" horiz-adv-x="443" 
d="M45 184v135c0 107 64 191 207 191c59 0 171 -14 171 -87c0 -24 -12 -51 -62 -51c-10 0 -19 1 -33 6c-21 8 -37 17 -68 17c-55 0 -77 -29 -77 -76v-7h123c37 0 66 -25 66 -58s-29 -58 -66 -58h-123v-12c0 -47 22 -76 77 -76c31 0 48 9 68 17c10 4 17 6 31 6
c52 0 64 -28 64 -51c0 -72 -112 -87 -172 -87c-141 0 -206 84 -206 191z" />
    <glyph glyph-name="uni0455" unicode="&#x455;" horiz-adv-x="446" 
d="M43 358c0 92 65 155 193 155c65 0 162 -16 162 -85c0 -43 -38 -51 -59 -51c-35 0 -53 21 -102 21c-38 0 -58 -13 -58 -36c0 -14 8 -24 30 -33c72 -31 203 -45 203 -178c0 -97 -69 -158 -195 -158c-64 0 -180 16 -180 78c0 29 26 59 65 59c33 0 64 -22 113 -22
c36 0 61 12 61 40c0 18 -10 26 -21 32c-65 36 -212 39 -212 178z" />
    <glyph glyph-name="uni0456" unicode="&#x456;" horiz-adv-x="285" 
d="M220 644c0 -39 -34 -70 -78 -70s-78 32 -78 70c0 39 34 70 78 70s78 -32 78 -70zM211 449v-394c0 -35 -30 -62 -69 -62s-69 27 -69 62v394c0 33 30 61 69 61s69 -28 69 -61z" />
    <glyph glyph-name="uni0457" unicode="&#x457;" horiz-adv-x="285" 
d="M211 55c0 -35 -30 -62 -69 -62s-69 27 -69 62v394c0 33 30 61 69 61s69 -28 69 -61v-394zM297 630c0 -35 -29 -63 -65 -63s-66 29 -66 63c0 33 30 61 66 61s65 -27 65 -61zM118 630c0 -35 -29 -63 -66 -63c-36 0 -64 29 -64 63c0 33 28 61 64 61c37 0 66 -27 66 -61z" />
    <glyph glyph-name="uni0458" unicode="&#x458;" horiz-adv-x="285" 
d="M220 644c0 -39 -34 -70 -78 -70s-78 32 -78 70c0 39 34 70 78 70s78 -32 78 -70zM211 449v-456c0 -115 -73 -194 -190 -194c-31 0 -55 17 -62 42c-13 45 25 67 52 72c37 7 62 29 62 77v459c0 33 30 61 69 61s69 -28 69 -61z" />
    <glyph glyph-name="uni0459" unicode="&#x459;" horiz-adv-x="786" 
d="M557 208h-62v-94h73c33 0 51 15 51 47c0 23 -9 47 -62 47zM495 443v-122h62c141 0 199 -59 199 -163c0 -94 -62 -158 -186 -158h-144c-39 0 -69 29 -69 62v330h-82l-19 -221c-10 -106 -51 -175 -150 -175c-46 0 -91 1 -91 58c0 43 34 60 67 60c4 0 9 -1 13 -1
c16 0 24 19 27 56l26 276c3 30 25 60 58 60h230c46 0 59 -40 59 -62z" />
    <glyph glyph-name="uni045A" unicode="&#x45a;" horiz-adv-x="762" 
d="M201 55c0 -35 -30 -62 -69 -62s-69 27 -69 62v394c0 33 30 61 69 61s69 -28 69 -61v-133h132v133c0 33 30 61 69 61s69 -28 69 -61v-133h62c141 0 199 -57 199 -158c0 -94 -62 -158 -186 -158h-144c-39 0 -69 29 -69 62v142h-132v-149zM533 204h-62v-90h73
c33 0 51 15 51 47c0 20 -9 43 -62 43z" />
    <glyph glyph-name="uni045B" unicode="&#x45b;" horiz-adv-x="622" 
d="M397 598c0 -26 -25 -49 -56 -49h-65v-80c28 11 61 17 95 17c128 0 186 -72 186 -175v-256c0 -35 -32 -62 -69 -62c-39 0 -69 27 -69 62v255c0 38 -16 57 -57 57c-28 0 -63 -12 -86 -33v-279c0 -35 -29 -62 -68 -62s-69 27 -69 62v494h-67c-32 0 -57 22 -57 49
s25 50 57 50h67v17c0 32 29 62 68 62s69 -27 69 -62v-17h65c31 0 56 -23 56 -50z" />
    <glyph glyph-name="uni045C" unicode="&#x45c;" horiz-adv-x="476" 
d="M201 186h14l122 -165c14 -19 32 -28 57 -28c37 0 65 22 67 56c0 11 -4 26 -11 36l-126 166l126 166c7 10 11 25 11 36c-2 34 -30 56 -67 56c-25 0 -43 -9 -57 -28l-122 -165h-14v133c0 33 -30 61 -69 61s-69 -28 -69 -61v-394c0 -35 30 -62 69 -62s69 27 69 62v131z
M203 631l81 79l8 8c12 12 19 19 41 19c23 0 49 -21 49 -49c0 -8 -2 -18 -9 -28l-82 -82c-15 -13 -23 -21 -45 -21c-28 0 -51 20 -51 49c0 10 2 17 8 25z" />
    <glyph glyph-name="uni045D" unicode="&#x45d;" horiz-adv-x="570" 
d="M137 -9c-44 0 -74 30 -74 66v391c0 34 29 63 68 63c38 0 70 -29 70 -63v-229l167 258c13 22 39 34 66 34c43 0 72 -28 72 -66v-390c0 -34 -30 -64 -69 -64s-69 30 -69 64v225l-166 -256c-15 -20 -39 -33 -65 -33zM259 710l81 -79c8 -7 8 -15 8 -25c0 -29 -23 -49 -51 -49
c-22 0 -30 8 -45 21l-82 82c-7 10 -9 20 -9 28c0 28 26 49 49 49c22 0 29 -7 41 -19z" />
    <glyph glyph-name="uni045E" unicode="&#x45e;" horiz-adv-x="474" 
d="M271 300l54 168c9 29 38 42 65 42c35 0 69 -25 69 -61c0 -7 -1 -13 -3 -18l-122 -356c-55 -162 -93 -278 -245 -278c-40 0 -70 25 -70 60c0 30 25 58 66 60c44 2 66 34 90 112l-154 397c-4 10 -5 19 -5 25c0 34 30 59 69 59c27 0 52 -14 63 -42l63 -168
c14 -36 21 -78 32 -115c9 37 16 79 28 115zM237 645c18 0 40 11 59 31c11 15 28 23 46 23c27 0 54 -18 44 -56c-16 -58 -95 -90 -149 -90s-131 32 -149 90c-10 38 17 56 44 56c17 0 35 -8 45 -23c20 -20 42 -31 60 -31z" />
    <glyph glyph-name="uni045F" unicode="&#x45f;" horiz-adv-x="544" 
d="M412 0h-71v-83c0 -35 -30 -62 -69 -62s-69 27 -69 62v83h-71c-39 0 -69 27 -69 62v388c0 35 30 62 69 62s69 -27 69 -62v-337h142v337c0 35 30 62 69 62s69 -27 69 -62v-388c0 -35 -30 -62 -69 -62z" />
    <glyph glyph-name="uni0462" unicode="&#x462;" horiz-adv-x="684" 
d="M291 696v-36h156c31 0 61 -24 61 -54s-28 -53 -61 -53h-156v-105h85c155 0 255 -79 255 -222c0 -118 -67 -226 -255 -226h-147c-42 0 -78 33 -78 72v481h-76c-34 0 -60 26 -60 52s27 55 60 55h76v36c0 34 31 64 70 64c38 0 70 -30 70 -64zM291 127h85c94 0 115 50 115 98
c0 65 -40 96 -115 96h-85v-194z" />
    <glyph glyph-name="uni0463" unicode="&#x463;" horiz-adv-x="622" 
d="M277 656v-52h64c31 0 56 -23 56 -50c0 -26 -25 -49 -56 -49h-64v-139h72c147 0 209 -67 209 -179c0 -113 -65 -187 -196 -187h-154c-39 0 -69 29 -69 62v443h-67c-32 0 -57 22 -57 50c0 27 25 49 57 49h67v52c0 35 30 62 69 62s69 -27 69 -62zM349 253h-72v-139h83
c40 0 61 23 61 72c0 32 -11 67 -72 67z" />
    <glyph glyph-name="uni0490" unicode="&#x490;" horiz-adv-x="503" 
d="M63 636c0 34 32 69 75 69h201v67c0 34 31 65 70 65c38 0 70 -31 70 -65v-130c0 -36 -30 -63 -69 -63h-207v-523c0 -34 -32 -64 -70 -64c-39 0 -70 30 -70 64v580z" />
    <glyph glyph-name="uni0491" unicode="&#x491;" horiz-adv-x="450" 
d="M423 575v-125c0 -34 -30 -61 -69 -61h-153v-334c0 -35 -30 -62 -69 -62s-69 27 -69 62v392c0 33 29 58 66 58h156v70c0 35 30 62 69 62s69 -27 69 -62z" />
    <glyph glyph-name="endash" unicode="&#x2013;" horiz-adv-x="471" 
d="M442 292c0 -34 -31 -61 -67 -61h-280c-38 0 -67 27 -67 61c0 33 29 62 67 62h280c38 0 67 -29 67 -62z" />
    <glyph glyph-name="quoteleft" unicode="&#x2018;" horiz-adv-x="269" 
d="M186 680c-3 -33 -25 -45 -33 -89c38 -8 65 -39 65 -75c0 -42 -37 -77 -84 -77c-44 0 -83 32 -83 81c0 60 44 205 94 205c16 0 46 -6 41 -45z" />
    <glyph glyph-name="quoteright" unicode="&#x2019;" 
d="M83 484c3 33 25 45 33 89c-38 8 -65 39 -65 75c0 42 37 77 84 77c44 0 83 -32 83 -81c0 -60 -44 -205 -94 -205c-16 0 -46 6 -41 45z" />
    <glyph glyph-name="quotesinglbase" unicode="&#x201a;" 
d="M83 -95c3 33 25 45 33 89c-38 8 -65 39 -65 75c0 42 37 77 84 77c44 0 83 -32 83 -81c0 -60 -44 -205 -94 -205c-16 0 -46 6 -41 45z" />
    <glyph glyph-name="quotedblleft" unicode="&#x201c;" horiz-adv-x="470" 
d="M186 680c-3 -33 -25 -45 -33 -89c38 -8 65 -39 65 -75c0 -42 -37 -77 -84 -77c-44 0 -83 32 -83 81c0 60 44 205 94 205c16 0 46 -6 41 -45zM387 680c-3 -33 -25 -45 -33 -89c38 -8 65 -39 65 -75c0 -42 -37 -77 -84 -77c-44 0 -83 32 -83 81c0 60 44 205 94 205
c16 0 46 -6 41 -45z" />
    <glyph glyph-name="quotedblright" unicode="&#x201d;" horiz-adv-x="470" 
d="M284 484c3 33 25 45 33 89c-38 8 -65 39 -65 75c0 42 37 77 84 77c44 0 83 -32 83 -81c0 -60 -44 -205 -94 -205c-16 0 -46 6 -41 45zM83 484c3 33 25 45 33 89c-38 8 -65 39 -65 75c0 42 37 77 84 77c44 0 83 -32 83 -81c0 -60 -44 -205 -94 -205c-16 0 -46 6 -41 45z
" />
    <glyph glyph-name="quotedblbase" unicode="&#x201e;" horiz-adv-x="470" 
d="M284 -96c3 33 25 45 33 89c-38 8 -65 39 -65 75c0 42 37 77 84 77c44 0 83 -32 83 -81c0 -60 -44 -205 -94 -205c-16 0 -46 6 -41 45zM83 -96c3 33 25 45 33 89c-38 8 -65 39 -65 75c0 42 37 77 84 77c44 0 83 -32 83 -81c0 -60 -44 -205 -94 -205c-16 0 -46 6 -41 45z
" />
    <glyph glyph-name="dagger" unicode="&#x2020;" horiz-adv-x="472" 
d="M491 464c0 -34 -31 -60 -66 -60h-120v-434c0 -11 -1 -19 -2 -25c-5 -29 -35 -52 -68 -52c-31 0 -60 25 -68 55c-1 7 -1 15 -1 22v434h-120c-7 0 -13 1 -19 3l1 -1c-28 7 -48 30 -48 58c0 35 29 61 66 61h120v122c0 8 0 17 1 24c7 29 36 52 68 52c33 0 62 -23 68 -53
c1 -6 2 -13 2 -23v-122h120c9 0 14 -1 20 -4c26 -7 46 -30 46 -57z" />
    <glyph glyph-name="daggerdbl" unicode="&#x2021;" horiz-adv-x="614" 
d="M559 65c0 -35 -31 -61 -67 -61h-119v-130c0 -6 -2 -15 -3 -23c-7 -28 -36 -51 -67 -51c-33 0 -63 23 -68 52c-1 5 -2 13 -2 22v130h-119c-38 0 -67 26 -67 61s29 60 67 60h119v279h-119c-38 0 -67 26 -67 60s29 62 67 62h119v133c0 5 1 10 2 14c7 26 36 50 68 50
c38 0 70 -29 70 -64v-133h119c36 0 67 -28 67 -62s-31 -60 -67 -60h-119v-279h119c36 0 67 -25 67 -60z" />
    <glyph glyph-name="bullet" unicode="&#x2022;" horiz-adv-x="303" 
d="M246 274c0 -52 -43 -95 -95 -95c-51 0 -94 43 -94 95c0 51 43 94 94 94c52 0 95 -43 95 -94z" />
    <glyph glyph-name="ellipsis" unicode="&#x2026;" horiz-adv-x="790" 
d="M218 69c0 -42 -38 -78 -83 -78c-47 0 -84 36 -84 78s37 77 84 77c45 0 83 -35 83 -77zM478 69c0 -42 -38 -78 -83 -78c-47 0 -84 36 -84 78s37 77 84 77c45 0 83 -35 83 -77zM738 69c0 -42 -38 -78 -83 -78c-47 0 -84 36 -84 78s37 77 84 77c45 0 83 -35 83 -77z" />
    <glyph glyph-name="guilsinglleft" unicode="&#x2039;" horiz-adv-x="318" 
d="M142 258l130 -188c4 -5 5 -12 5 -17c0 -32 -20 -61 -50 -61c-18 0 -26 8 -38 27l-158 237l152 229c10 16 19 26 37 26c23 0 48 -24 48 -57c0 -6 -1 -13 -5 -19z" />
    <glyph glyph-name="guilsinglright" unicode="&#x203a;" horiz-adv-x="318" 
d="M46 70l130 188l-121 177c-4 6 -5 13 -5 19c0 33 25 57 48 57c18 0 27 -10 37 -26l152 -229l-158 -237c-12 -19 -20 -27 -38 -27c-30 0 -50 29 -50 61c0 5 1 12 5 17z" />
    <glyph glyph-name="fraction" unicode="&#x2044;" horiz-adv-x="186" 
d="M245 640l-231 -606c-10 -27 -27 -48 -58 -38c-32 10 -29 38 -19 65l235 619c8 28 34 46 58 37c40 -16 22 -51 15 -77z" />
    <glyph glyph-name="Euro" unicode="&#x20ac;" horiz-adv-x="540" 
d="M49 454h36v38c0 134 74 222 235 222c101 0 197 -49 197 -107c0 -32 -28 -60 -66 -60c-23 0 -30 7 -43 15c-31 22 -53 30 -83 30c-77 0 -100 -38 -100 -100v-38h152c20 0 39 -16 39 -37s-17 -37 -39 -37h-152v-56h112c20 0 39 -16 39 -37s-17 -37 -39 -37h-112v-36
c0 -62 24 -100 100 -100c29 0 52 8 87 33c12 7 19 12 39 12c38 0 66 -28 66 -60c0 -58 -96 -107 -197 -107c-161 0 -235 88 -235 222v36h-36c-22 0 -39 16 -39 37s19 37 39 37h36v56h-36c-22 0 -39 16 -39 37s19 37 39 37z" />
    <glyph glyph-name="trademark" unicode="&#x2122;" horiz-adv-x="793" 
d="M746 664v-335c0 -24 -23 -45 -46 -45c-26 0 -47 21 -47 45v191c-17 -34 -35 -70 -51 -104c-9 -19 -26 -28 -44 -28s-37 12 -45 28c-29 58 -23 44 -51 104v-191c0 -24 -23 -45 -46 -45c-26 0 -46 21 -46 45v335c0 29 20 49 48 49c20 0 37 -10 46 -28l94 -193l94 193v-1
c10 21 28 29 46 29c24 0 48 -24 48 -49zM339 661c0 -27 -21 -46 -47 -46h-70v-285c0 -26 -21 -46 -48 -46c-26 0 -47 21 -47 46v285h-70c-27 0 -47 19 -47 46c0 26 20 47 47 47h235c25 0 47 -21 47 -47z" />
    <glyph glyph-name="arrowleft" unicode="&#x2190;" horiz-adv-x="600" 
d="M63 316c-23 24 -24 49 0 75l175 192c16 18 28 32 58 32c32 0 68 -27 68 -62c0 -10 -1 -25 -12 -36l-107 -102h244c37 0 66 -29 66 -62c0 -34 -31 -61 -66 -61h-244l107 -102c11 -11 12 -26 12 -36c0 -35 -36 -62 -68 -62c-30 0 -42 14 -58 32z" />
    <glyph glyph-name="arrowup" unicode="&#x2191;" horiz-adv-x="669" 
d="M329 75c-36 0 -67 26 -67 60v298l-111 -98c-13 -11 -28 -11 -39 -11c-38 0 -67 34 -67 63c0 28 15 39 34 54l209 161c14 10 28 16 42 16c13 0 28 -5 42 -16l219 -168c21 -16 33 -26 33 -53c0 -39 -33 -65 -71 -65c-10 0 -24 0 -37 11l-121 106v-298
c0 -32 -29 -60 -66 -60z" />
    <glyph glyph-name="arrowright" unicode="&#x2192;" horiz-adv-x="600" 
d="M531 316l-175 -192c-16 -18 -28 -32 -58 -32c-32 0 -68 27 -68 62c0 10 1 25 12 36l107 102h-244c-35 0 -66 27 -66 61c0 33 29 62 66 62h244l-107 102c-11 11 -12 26 -12 36c0 35 36 62 68 62c30 0 42 -14 58 -32l175 -192c24 -26 23 -51 0 -75z" />
    <glyph glyph-name="arrowdown" unicode="&#x2193;" horiz-adv-x="669" 
d="M329 618c37 0 66 -28 66 -60v-298l121 106c13 11 27 11 37 11c38 0 71 -26 71 -65c0 -27 -12 -37 -33 -53l-219 -168c-14 -11 -29 -16 -42 -16c-14 0 -28 6 -42 16l-209 161c-19 15 -34 26 -34 54c0 29 29 63 67 63c11 0 26 0 39 -11l111 -98v298c0 34 31 60 67 60z" />
    <glyph glyph-name="uni2196" unicode="&#x2196;" horiz-adv-x="569" 
d="M477 149c-26 -26 -66 -26 -89 -4l-210 211l-11 -161c-1 -17 -11 -26 -18 -34c-27 -26 -69 -31 -97 -4c-19 19 -17 35 -14 61l36 274c2 17 10 31 19 41c10 10 24 15 41 18l261 34c24 3 43 6 63 -14c20 -21 24 -65 -3 -92c-8 -8 -19 -18 -36 -20l-147 -9l210 -211
c24 -24 21 -64 -5 -90z" />
    <glyph glyph-name="uni2197" unicode="&#x2197;" horiz-adv-x="573" 
d="M72 149c-26 26 -29 66 -5 90l210 211l-147 9c-17 2 -28 12 -36 20c-27 27 -23 71 -3 92c20 20 39 17 63 14l261 -34c17 -3 31 -8 41 -18c9 -10 17 -24 19 -41l36 -274c3 -26 3 -42 -14 -61c-28 -27 -70 -22 -97 4c-7 8 -18 17 -18 34l-11 161l-210 -211
c-23 -22 -63 -22 -89 4z" />
    <glyph glyph-name="uni2198" unicode="&#x2198;" horiz-adv-x="569" 
d="M90 540c26 26 66 26 89 4l210 -211l11 161c1 17 11 26 18 34c27 26 69 31 97 4c19 -19 17 -35 14 -61l-36 -274c-2 -17 -10 -31 -19 -41c-10 -10 -24 -15 -41 -18l-261 -34c-24 -3 -43 -6 -63 14c-20 21 -24 65 3 92c8 8 19 18 36 20l147 9l-210 211c-24 24 -21 64 5 90z
" />
    <glyph glyph-name="uni2199" unicode="&#x2199;" horiz-adv-x="572" 
d="M495 540c26 -26 29 -66 5 -90l-210 -211l147 -9c17 -2 28 -12 36 -20c27 -27 23 -71 3 -92c-20 -20 -39 -17 -63 -14l-261 34c-17 3 -31 8 -41 18c-9 10 -17 24 -19 41l-36 274c-4 26 -4 42 14 61c28 27 70 22 97 -4c7 -8 18 -17 18 -34l11 -161l210 211
c23 22 63 22 89 -4z" />
    <glyph glyph-name="minus" unicode="&#x2212;" horiz-adv-x="540" 
d="M409 290h-278c-39 0 -69 28 -69 64s34 63 69 63h278c35 0 69 -27 69 -63s-30 -64 -69 -64z" />
    <glyph glyph-name="triagup" unicode="&#x25b2;" horiz-adv-x="758" 
d="M646 0h-534c-56 0 -69 21 -44 72l275 549c25 51 47 51 72 0l275 -549c25 -51 12 -72 -44 -72z" />
    <glyph glyph-name="triagrt" unicode="&#x25ba;" horiz-adv-x="785" 
d="M55 65v547c0 56 21 69 72 44l564 -282c51 -25 51 -47 0 -72l-564 -281c-51 -25 -72 -12 -72 44z" />
    <glyph glyph-name="triagdn" unicode="&#x25bc;" horiz-adv-x="758" 
d="M112 678h534c56 0 69 -21 44 -72l-275 -549c-25 -51 -47 -51 -72 0l-275 549c-25 51 -12 72 44 72z" />
    <glyph glyph-name="triaglf" unicode="&#x25c4;" horiz-adv-x="785" 
d="M94 374l564 282c51 25 72 12 72 -44v-547c0 -56 -21 -69 -72 -44l-564 281c-51 25 -51 47 0 72z" />
    <glyph glyph-name="uni2639" unicode="&#x2639;" horiz-adv-x="733" 
d="M678 253c0 -168 -139 -311 -311 -311c-171 0 -312 141 -312 311c0 171 141 311 312 311s311 -141 311 -311zM633 253c0 146 -121 266 -266 266s-266 -118 -266 -266c0 -147 120 -266 266 -266c145 0 266 120 266 266zM287 317c0 -21 -18 -39 -40 -39c-21 0 -39 18 -39 39
c0 22 18 40 39 40c22 0 40 -18 40 -40zM525 317c0 -21 -17 -39 -39 -39s-40 18 -40 39c0 22 18 40 40 40s39 -18 39 -40zM253 78l-30 17c33 61 80 95 144 95c63 0 111 -33 143 -95l-30 -17c-26 45 -63 70 -113 70s-88 -24 -114 -70z" />
    <glyph glyph-name="uni263A" unicode="&#x263a;" horiz-adv-x="733" 
d="M678 253c0 -168 -139 -311 -311 -311c-171 0 -312 141 -312 311c0 171 141 311 312 311s311 -141 311 -311zM633 253c0 146 -121 266 -266 266s-266 -118 -266 -266c0 -147 120 -266 266 -266c145 0 266 120 266 266zM287 317c0 -21 -18 -39 -40 -39c-21 0 -39 18 -39 39
c0 22 18 40 39 40c22 0 40 -18 40 -40zM525 317c0 -21 -17 -39 -39 -39s-40 18 -40 39c0 22 18 40 40 40s39 -18 39 -40zM223 153l30 17c26 -46 64 -70 114 -70s87 24 113 70l30 -17c-32 -62 -80 -95 -143 -95c-64 0 -111 33 -144 95z" />
    <glyph glyph-name="uni263B" unicode="&#x263b;" horiz-adv-x="732" 
d="M677 253c0 -170 -139 -311 -311 -311c-171 0 -311 140 -311 311c0 172 141 311 311 311c171 0 311 -140 311 -311zM286 317c0 22 -17 40 -39 40s-40 -18 -40 -40c0 -21 18 -39 40 -39s39 18 39 39zM525 317c0 22 -18 40 -39 40c-22 0 -40 -18 -40 -40
c0 -21 18 -39 40 -39c21 0 39 18 39 39zM253 170l-30 -17c33 -62 79 -95 143 -95c63 0 111 33 144 95l-31 17c-25 -46 -63 -70 -113 -70c-49 0 -87 24 -113 70z" />
    <glyph glyph-name="uni2661" unicode="&#x2661;" horiz-adv-x="642" 
d="M312 393c2 -11 5 -17 9 -18c4 2 6 8 9 18c28 91 76 123 131 123c59 0 126 -37 126 -142c0 -57 -20 -80 -115 -206c-56 -74 -62 -83 -113 -164c-10 -16 -19 -29 -38 -29s-28 13 -38 29c-53 84 -55 87 -113 164c-95 126 -115 149 -115 206c0 105 68 142 125 142
s108 -37 132 -123zM317 25c1 -3 2 -5 4 -5s2 2 4 5l131 187c72 103 91 120 91 165c0 70 -46 99 -85 99c-52 0 -75 -52 -93 -94c-12 -28 -26 -49 -48 -49c-20 0 -33 16 -48 49c-20 46 -42 94 -93 94c-39 0 -85 -29 -85 -99c0 -45 19 -62 91 -165z" />
    <glyph glyph-name="uni2665" unicode="&#x2665;" horiz-adv-x="642" 
d="M312 393c7 -25 13 -23 20 0c25 87 73 123 127 123c69 0 128 -50 128 -130c0 -69 -44 -130 -105 -209c-72 -93 -72 -92 -121 -173c-9 -15 -19 -29 -39 -29s-29 13 -39 29c-51 81 -55 87 -113 164c-95 126 -115 149 -115 206c0 105 67 142 126 142c54 0 107 -36 131 -123z
" />
    <glyph glyph-name="uni266A" unicode="&#x266a;" horiz-adv-x="510" 
d="M242 189v477c188 0 245 -33 245 -190c0 -39 -8 -49 -24 -50c-16 1 -23 9 -24 25c0 68 -55 103 -135 103h-13v-408c0 -103 -46 -164 -153 -164c-70 0 -115 43 -115 109c0 68 55 121 134 121c26 0 54 -7 85 -23z" />
    <glyph glyph-name="uni266B" unicode="&#x266b;" horiz-adv-x="760" 
d="M266 145v396c0 56 23 87 76 104l236 73c53 17 76 0 76 -56v-461c0 -109 -50 -162 -150 -162c-72 0 -117 45 -117 109c0 65 56 120 135 120c28 0 35 -2 83 -21v323c0 21 -9 27 -29 21l-233 -72c-20 -6 -29 -18 -29 -39v-378c0 -109 -51 -165 -152 -165
c-70 0 -115 44 -115 109c0 68 55 121 134 121c25 0 53 -7 85 -22z" />
    <glyph glyph-name="commaaccent" unicode="&#xf6c3;" horiz-adv-x="350" 
d="M258 -104c0 -55 -60 -134 -97 -134c-9 0 -18 5 -18 17c0 21 25 34 37 62c-40 2 -69 9 -69 53c0 32 16 55 73 55c58 0 74 -24 74 -53z" />
    <glyph glyph-name="R.salt" unicode="&#xe0052;" horiz-adv-x="598" 
d="M203 392h105c41 0 87 33 87 99c0 46 -23 87 -90 87h-102v-186zM203 55c0 -34 -32 -64 -70 -64c-39 0 -70 30 -70 64v578c0 41 36 72 78 72h169c150 0 225 -106 225 -211c0 -87 -52 -134 -127 -169c58 -28 89 -77 96 -132l3 -25c4 -34 13 -49 32 -58c24 -11 52 -25 52 -60
c0 -36 -30 -57 -81 -57c-123 0 -137 102 -146 168c-3 39 -10 103 -103 103h-58v-209z" />
    <glyph glyph-name="uni0414.BUL" unicode="&#xe0414;" horiz-adv-x="708" 
d="M86 117h5l182 529c13 39 33 68 81 68s68 -28 82 -68l181 -529h5c39 0 69 -28 69 -64v-128c0 -36 -31 -64 -71 -64c-39 0 -69 28 -69 64v75h-396v-75c0 -36 -30 -64 -69 -64s-69 28 -69 64v128c0 36 30 64 69 64zM336 424l-98 -307h231l-97 307c-9 29 -14 67 -18 98
c-4 -31 -9 -69 -18 -98z" />
    <glyph glyph-name="uni0416.BUL" unicode="&#xe0416;" horiz-adv-x="806" 
d="M403 -9c-38 0 -70 30 -70 65v204l-18 20l-174 -260c-15 -20 -35 -29 -58 -29c-43 0 -68 38 -68 67c0 10 1 21 11 34l199 290l-179 225c-17 18 -17 28 -17 43c0 35 39 64 69 64c22 0 44 -15 57 -29l178 -235v200c0 34 32 64 70 64s70 -30 70 -64v-200l178 235
c12 15 35 29 57 29c30 0 69 -29 69 -64c0 -15 -1 -25 -17 -43l-179 -225l199 -290c11 -13 11 -24 11 -34c0 -29 -25 -67 -68 -67c-23 0 -43 9 -58 29l-174 260l-18 -20v-204c0 -35 -32 -65 -70 -65z" />
    <glyph glyph-name="uni041B.BUL" unicode="&#xe041b;" horiz-adv-x="589" 
d="M434 38l-122 386c-9 29 -14 67 -18 98c-4 -31 -9 -69 -18 -98l-123 -386c-10 -29 -42 -47 -66 -47c-39 0 -72 26 -72 64c0 5 1 17 3 22l195 569c13 39 33 68 81 68s68 -28 82 -68l195 -569c2 -5 3 -17 3 -22c0 -38 -31 -64 -72 -64c-26 0 -58 19 -68 47z" />
    <glyph glyph-name="uni0432.BUL" unicode="&#xe0432;" horiz-adv-x="508" 
d="M53 183v314c0 125 72 201 201 201c112 0 195 -59 195 -177c0 -78 -40 -127 -93 -160c82 -31 116 -87 116 -158c0 -123 -68 -210 -212 -210c-131 0 -207 71 -207 190zM335 203c0 42 -18 92 -85 92h-59v-114c0 -46 24 -70 69 -70c51 0 75 33 75 92zM191 500v-92h55
c22 0 67 28 67 104c0 47 -27 68 -64 68c-40 0 -58 -27 -58 -80z" />
    <glyph glyph-name="uni0433.BUL" unicode="&#xe0433;" horiz-adv-x="446" 
d="M406 358c0 -139 -147 -142 -212 -178c-11 -6 -21 -14 -21 -32c0 -28 25 -40 61 -40c49 0 80 22 113 22c39 0 65 -30 65 -59c0 -62 -116 -78 -180 -78c-126 0 -195 61 -195 158c0 133 131 147 203 178c22 9 30 19 30 33c0 23 -20 36 -58 36c-49 0 -67 -21 -102 -21
c-21 0 -59 8 -59 51c0 69 97 85 162 85c128 0 193 -63 193 -155z" />
    <glyph glyph-name="uni0434.BUL" unicode="&#xe0434;" horiz-adv-x="535" 
d="M333 134v208c0 33 -29 53 -75 53c-51 0 -75 -27 -75 -71v-141c0 -46 19 -75 68 -75c30 0 59 7 82 26zM471 342v-375c0 -107 -63 -191 -209 -191c-57 0 -169 19 -169 81c0 32 28 57 64 57c7 0 17 -1 31 -6c20 -9 38 -17 66 -17c57 0 79 28 79 76v43
c-30 -11 -61 -16 -98 -16c-144 0 -190 81 -190 189v141c0 107 71 189 213 189c135 0 213 -75 213 -171z" />
    <glyph glyph-name="uni0436.BUL" unicode="&#xe0436;" horiz-adv-x="688" 
d="M413 660v-286l129 119c12 11 30 16 46 16c38 0 67 -25 67 -59c0 -16 -6 -30 -18 -42l-130 -118l155 -205c7 -10 11 -26 11 -37c-2 -34 -30 -55 -67 -55c-25 0 -44 10 -57 28l-135 183l-1 -1v-148c0 -35 -30 -62 -69 -62s-69 27 -69 62v148l-1 1l-134 -182
c-14 -19 -33 -29 -58 -29c-37 0 -65 21 -67 55c0 11 4 27 11 37l154 205l-128 118c-13 12 -19 26 -19 42c0 34 29 59 67 59c17 0 35 -5 46 -16l129 -119v286c0 35 30 62 69 62s69 -27 69 -62z" />
    <glyph glyph-name="uni0437.BUL" unicode="&#xe0437;" horiz-adv-x="448" 
d="M198 -107c52 0 80 34 80 97c0 37 -10 113 -92 121c-26 2 -74 1 -74 57c0 57 48 54 74 56c75 6 82 68 82 98c0 48 -18 76 -67 76c-25 0 -47 -7 -65 -14c-10 -4 -18 -7 -31 -7c-39 0 -66 29 -66 58c0 59 105 78 170 78c131 0 195 -76 195 -180c0 -72 -30 -127 -111 -162
c86 -36 121 -90 121 -178c0 -122 -66 -215 -212 -215c-66 0 -171 19 -171 78c0 29 27 58 66 58c13 0 21 -3 31 -7c17 -7 47 -14 70 -14z" />
    <glyph glyph-name="uni0438.BUL" unicode="&#xe0438;" horiz-adv-x="549" 
d="M388 37c-47 -33 -93 -44 -138 -44c-121 0 -186 79 -186 196v261c0 34 25 60 69 60s69 -26 69 -60v-261c0 -51 21 -80 65 -80c21 0 46 7 77 21c-1 7 -2 13 -2 19v301c0 34 23 60 69 60s69 -26 69 -60v-321c0 -15 6 -22 19 -35c10 -10 14 -20 14 -34c0 -40 -34 -61 -64 -61
c-26 0 -46 16 -61 38z" />
    <glyph glyph-name="uni0439.BUL" unicode="&#xe0439;" horiz-adv-x="549" 
d="M388 37c-47 -33 -93 -44 -138 -44c-121 0 -186 79 -186 196v261c0 34 25 60 69 60s69 -26 69 -60v-261c0 -51 21 -80 65 -80c21 0 46 7 77 21c-1 7 -2 13 -2 19v301c0 34 23 60 69 60s69 -26 69 -60v-321c0 -15 6 -22 19 -35c10 -10 14 -20 14 -34c0 -40 -34 -61 -64 -61
c-26 0 -46 16 -61 38zM274 645c18 0 40 11 59 31c11 15 28 23 46 23c27 0 54 -18 44 -56c-16 -58 -95 -90 -149 -90s-131 32 -149 90c-10 38 17 56 44 56c17 0 35 -8 45 -23c20 -20 42 -31 60 -31z" />
    <glyph glyph-name="uni043A.BUL" unicode="&#xe043a;" horiz-adv-x="487" 
d="M202 343l138 149c12 12 31 17 47 17c38 0 67 -25 67 -59c0 -16 -6 -30 -19 -42h1l-122 -129l147 -194c7 -10 11 -26 11 -37c-2 -34 -31 -55 -67 -55c-25 0 -44 10 -57 28l-135 183l-11 -10v-139c0 -35 -30 -62 -69 -62s-69 27 -69 62v605c0 35 30 62 69 62s69 -27 69 -62
v-317z" />
    <glyph glyph-name="uni043B.BUL" unicode="&#xe043b;" horiz-adv-x="470" 
d="M203 204l-55 -168c-9 -26 -37 -43 -64 -43c-36 0 -68 24 -68 60c0 5 0 10 2 17l139 382c15 41 36 59 80 59c42 0 63 -18 79 -61l137 -379c2 -7 2 -12 2 -17c0 -36 -32 -60 -68 -60c-27 0 -56 17 -65 43l-52 167c-16 54 -22 110 -33 165c-11 -55 -17 -111 -34 -165z" />
    <glyph glyph-name="uni043F.BUL" unicode="&#xe043f;" horiz-adv-x="549" 
d="M205 357v-302c0 -34 -23 -61 -69 -61s-69 27 -69 61v303c0 33 -4 36 -8 42c-14 19 -17 26 -17 39c0 33 29 58 67 58c21 0 39 -11 53 -29c45 30 92 43 132 43c126 0 189 -78 189 -195v-261c0 -34 -25 -61 -69 -61s-69 27 -69 61v261c0 50 -25 81 -65 81
c-21 0 -46 -7 -77 -21c1 -7 2 -13 2 -19z" />
    <glyph glyph-name="uni0442.BUL" unicode="&#xe0442;" horiz-adv-x="818" 
d="M615 55v277c0 35 -21 63 -58 63c-26 0 -53 -13 -80 -35c1 -9 2 -17 2 -26v-279c0 -34 -23 -61 -69 -61s-69 27 -69 61v259c0 46 -8 81 -52 81c-25 0 -55 -11 -85 -26c1 -3 1 -8 1 -11v-303c0 -34 -23 -61 -69 -61s-69 27 -69 61v303c0 33 -4 36 -8 42
c-14 19 -17 27 -17 38c0 36 31 59 65 59c23 0 40 -11 53 -28c45 28 92 44 135 44c42 0 80 -15 116 -44c54 29 97 44 151 44c118 0 191 -72 191 -179v-279c0 -34 -23 -61 -69 -61s-69 27 -69 61z" />
    <glyph glyph-name="uni0446.BUL" unicode="&#xe0446;" horiz-adv-x="587" 
d="M502 -149c-39 0 -69 27 -69 62v94c-12 4 -22 11 -32 18c-57 -23 -107 -32 -148 -32c-126 0 -189 79 -189 196v261c0 34 25 60 69 60s69 -26 69 -60v-261c0 -51 22 -80 62 -80c23 0 51 7 82 21c-3 13 -4 26 -4 41v279c0 34 23 60 69 60s69 -26 69 -60v-279
c0 -41 8 -62 22 -62c39 0 69 -27 69 -62v-134c0 -35 -30 -62 -69 -62z" />
    <glyph glyph-name="uni0448.BUL" unicode="&#xe0448;" horiz-adv-x="812" 
d="M201 450v-279c0 -35 20 -63 61 -63c21 0 49 14 77 35c-2 8 -2 17 -2 26v281c0 34 25 60 69 60s69 -26 69 -60v-261c0 -47 8 -81 53 -81c23 0 53 11 83 26v316c0 34 25 60 69 60s69 -26 69 -60v-321c0 -16 6 -24 17 -35c11 -10 16 -22 16 -37c0 -35 -33 -58 -65 -58
c-25 0 -45 14 -60 33c-46 -25 -92 -42 -136 -42c-42 0 -80 15 -116 43c-52 -27 -101 -43 -145 -43c-127 0 -197 73 -197 179v281c0 34 25 60 69 60s69 -26 69 -60z" />
    <glyph glyph-name="uni0449.BUL" unicode="&#xe0449;" horiz-adv-x="852" 
d="M771 -149c-39 0 -69 27 -69 62v94c-12 4 -22 10 -32 18c-42 -18 -95 -35 -149 -35c-42 0 -80 15 -116 43c-52 -27 -101 -43 -145 -43c-127 0 -197 73 -197 179v281c0 34 25 60 69 60s69 -26 69 -60v-279c0 -35 20 -63 61 -63c21 0 48 12 77 31c-2 9 -2 20 -2 30v281
c0 34 25 60 69 60s69 -26 69 -60v-261c0 -47 8 -81 53 -81c25 0 56 11 86 27c-2 12 -3 23 -3 36v279c0 34 23 60 69 60s69 -26 69 -60v-279c0 -41 8 -62 22 -62c39 0 69 -27 69 -62v-134c0 -35 -30 -62 -69 -62z" />
    <glyph glyph-name="uni044A.BUL" unicode="&#xe044a;" horiz-adv-x="581" 
d="M345 -7c-140 0 -210 81 -210 186v210h-56c-37 0 -66 25 -66 58s31 58 66 58h125c39 0 69 -29 69 -62v-111c22 7 47 11 72 11c134 0 211 -78 210 -178c-1 -98 -78 -172 -210 -172zM339 225c-39 0 -66 -19 -66 -53c0 -38 25 -61 72 -61c46 0 72 22 72 58
c0 35 -25 56 -78 56z" />
    <glyph glyph-name="uni044C.BUL" unicode="&#xe044c;" horiz-adv-x="512" 
d="M201 449v-117c22 7 47 11 72 11c134 0 211 -78 210 -178c-1 -98 -78 -172 -210 -172c-140 0 -210 81 -210 186v270c0 33 30 61 69 61s69 -28 69 -61zM267 225c-39 0 -66 -19 -66 -53c0 -38 25 -61 72 -61c46 0 72 22 72 58c0 35 -25 56 -78 56z" />
    <glyph glyph-name="uni044E.BUL" unicode="&#xe044e;" horiz-adv-x="750" 
d="M201 665v-349h90v11c0 105 72 186 207 186s207 -81 207 -186v-148c0 -105 -72 -186 -207 -186s-207 81 -207 186v25h-90v-149c0 -35 -29 -62 -68 -62s-69 27 -69 62v610c0 32 29 62 68 62s69 -27 69 -62zM498 111c45 0 69 26 69 68v149c0 41 -24 67 -69 67
s-69 -26 -69 -67v-149c0 -42 24 -68 69 -68z" />
    <glyph glyph-name="uni0431.SRB" unicode="&#xf0431;" horiz-adv-x="504" 
d="M35 298c0 59 28 112 86 147c-46 31 -70 63 -70 114c0 85 67 132 197 139c33 2 65 4 102 30c7 5 20 15 41 15c34 0 61 -27 61 -61c0 -67 -107 -91 -201 -100c-22 -2 -62 -7 -62 -46c0 -42 46 -50 93 -57c133 -21 187 -92 187 -181v-119c0 -105 -75 -186 -217 -186
s-217 81 -217 186v119zM252 111c52 0 79 26 79 68v120c0 41 -27 67 -79 67s-79 -26 -79 -67v-120c0 -42 27 -68 79 -68z" />
    <glyph glyph-name="uni0434.tri" unicode="&#xf0434;" horiz-adv-x="578" 
d="M82 113h5l124 339c15 41 36 59 80 59c42 0 63 -18 79 -61l122 -337h4c39 0 69 -27 69 -62v-134c0 -35 -30 -62 -69 -62s-69 27 -69 62v83h-276v-83c0 -35 -30 -62 -69 -62s-69 27 -69 62v134c0 35 30 62 69 62zM257 204l-30 -91h125l-28 91c-16 54 -22 110 -33 165
c-11 -55 -17 -111 -34 -165z" />
    <glyph glyph-name="typography.com.ua" horiz-adv-x="885" 
d="M840 471c-5 -32 -26 -32 -42 -30c-8 1 -21 2 -28 2c-34 0 -63 -24 -70 -64l-27 -155h83c21 0 37 -17 37 -37c0 -21 -16 -38 -37 -38h-97l-37 -213c-18 -100 -52 -168 -145 -168c-46 0 -81 1 -81 36c0 23 16 37 39 37c6 0 19 -1 29 -1c51 0 68 29 79 90l38 219h-128v-119
c0 -22 -17 -39 -39 -39s-39 17 -39 39v119h-250c-24 0 -41 20 -41 43c0 3 3 17 8 27l192 481c6 14 20 23 34 23c17 0 39 -15 39 -43c0 -2 0 -5 -2 -10l-179 -446h199v251c0 22 17 39 39 39c21 0 39 -17 39 -39v-251h141l30 167c13 75 68 123 159 123c39 0 62 -9 57 -43z" />
    <glyph glyph-name="parenleft.caps" horiz-adv-x="316" 
d="M194 332c0 -118 28 -235 92 -337c7 -12 14 -23 14 -38c0 -32 -21 -64 -68 -64c-24 0 -45 10 -59 29c-83 123 -118 271 -118 410c0 138 35 287 118 409c14 20 35 29 59 29c47 0 68 -32 68 -64c0 -15 -7 -27 -14 -37c-64 -102 -92 -219 -92 -337z" />
    <glyph glyph-name="parenright.caps" horiz-adv-x="315" 
d="M121 332c0 118 -28 235 -92 337c-7 10 -14 22 -14 37c0 32 21 64 68 64c24 0 45 -9 59 -29c83 -122 118 -271 118 -409c0 -139 -35 -287 -118 -410c-14 -19 -35 -29 -59 -29c-47 0 -68 32 -68 64c0 15 7 26 14 38c64 102 92 219 92 337z" />
    <glyph glyph-name="emdash" unicode="&#x2014;" horiz-adv-x="570" 
d="M542 292c0 -34 -31 -61 -67 -61h-380c-38 0 -67 27 -67 61c0 33 29 62 67 62h380c38 0 67 -29 67 -62z" />
    <glyph glyph-name="plusminus" unicode="&#xb1;" horiz-adv-x="540" 
d="M201 201v129h-120c-39 0 -69 28 -69 64s34 63 69 63h120v129c0 33 30 64 69 64s69 -28 69 -64v-129h120c35 0 69 -27 69 -63s-30 -64 -69 -64h-120v-129c0 -36 -30 -63 -69 -63s-69 31 -69 63zM459 0h-378c-39 0 -69 28 -69 64s34 63 69 63h378c35 0 69 -27 69 -63
s-30 -64 -69 -64z" />
    <glyph glyph-name="degree" unicode="&#xb0;" horiz-adv-x="392" 
d="M196 436c-91 0 -141 62 -141 140s49 140 141 140s141 -62 141 -140s-49 -140 -141 -140zM196 506c45 0 66 25 66 72c0 43 -21 68 -66 68s-66 -25 -66 -68c0 -48 21 -72 66 -72z" />
    <glyph glyph-name="macron" unicode="&#xaf;" horiz-adv-x="443" 
d="M412 630c0 -29 -25 -51 -56 -51h-269c-32 0 -57 22 -57 51c0 28 25 51 57 51h269c31 0 56 -23 56 -51z" />
    <glyph glyph-name="Sacute" unicode="&#x15a;" horiz-adv-x="526" 
d="M350 204c0 45 -23 60 -41 68c-21 9 -46 18 -73 27c-98 30 -204 63 -204 208c0 129 90 207 232 207c59 0 201 -15 201 -90c0 -33 -26 -63 -70 -63c-18 0 -32 6 -49 11c-19 7 -41 15 -76 15c-49 0 -95 -17 -95 -76c0 -44 25 -59 42 -67c26 -13 50 -21 72 -27
c98 -31 205 -65 205 -207c0 -139 -106 -219 -249 -219c-74 0 -214 26 -214 96c0 32 29 63 66 63c15 0 31 -5 50 -12c24 -8 56 -20 99 -20c69 0 104 31 104 86zM213 831l81 79l8 8c12 12 19 19 41 19c23 0 49 -21 49 -49c0 -8 -2 -18 -9 -28l-82 -82c-15 -13 -23 -21 -45 -21
c-28 0 -51 20 -51 49c0 10 2 17 8 25z" />
    <glyph glyph-name="Tcaron" unicode="&#x164;" horiz-adv-x="523" 
d="M191 55v523h-106c-40 0 -70 29 -70 63c0 28 31 64 70 64h352c36 0 71 -28 71 -64c0 -34 -33 -63 -71 -63h-106v-523c0 -34 -32 -64 -70 -64c-39 0 -70 30 -70 64zM203 903l58 -52l58 52c9 8 28 12 36 12c26 0 49 -21 49 -46c0 -17 -12 -32 -27 -45l-79 -61
c-8 -7 -21 -13 -37 -13s-29 6 -37 13l-79 61c-15 13 -27 28 -27 45c0 25 23 46 49 46c8 0 27 -4 36 -12z" />
    <glyph glyph-name="Zacute" unicode="&#x179;" horiz-adv-x="524" 
d="M504 65c0 -36 -32 -65 -70 -65h-343c-41 0 -72 31 -72 68c0 13 9 34 14 44c98 162 184 300 283 464h-226c-39 0 -69 28 -69 64c0 35 30 65 69 65h339c42 0 73 -30 73 -67c0 -18 -7 -32 -14 -43l-285 -466h231c37 0 70 -28 70 -64zM226 831l81 79l8 8c12 12 19 19 41 19
c23 0 49 -21 49 -49c0 -8 -2 -18 -9 -28l-82 -82c-15 -13 -23 -21 -45 -21c-28 0 -51 20 -51 49c0 10 2 17 8 25z" />
    <glyph glyph-name="sacute" unicode="&#x15b;" horiz-adv-x="446" 
d="M43 358c0 92 65 155 193 155c65 0 162 -16 162 -85c0 -43 -38 -51 -59 -51c-35 0 -53 21 -102 21c-38 0 -58 -13 -58 -36c0 -14 8 -24 30 -33c72 -31 203 -45 203 -178c0 -97 -69 -158 -195 -158c-64 0 -180 16 -180 78c0 29 26 59 65 59c33 0 64 -22 113 -22
c36 0 61 12 61 40c0 18 -10 26 -21 32c-65 36 -212 39 -212 178zM167 631l81 79l8 8c12 12 19 19 41 19c23 0 49 -21 49 -49c0 -8 -2 -18 -9 -28l-82 -82c-15 -13 -23 -21 -45 -21c-28 0 -51 20 -51 49c0 10 2 17 8 25z" />
    <glyph glyph-name="zacute" unicode="&#x17a;" horiz-adv-x="434" 
d="M422 443c0 -13 -4 -28 -14 -41l-216 -284h165c38 0 67 -26 67 -59s-29 -59 -67 -59h-277c-37 0 -70 28 -70 64c0 12 2 24 12 37l217 286h-153c-37 0 -66 26 -66 59c0 34 29 59 66 59h265c38 0 71 -23 71 -62zM164 631l81 79l8 8c12 12 19 19 41 19c23 0 49 -21 49 -49
c0 -8 -2 -18 -9 -28l-82 -82c-15 -13 -23 -21 -45 -21c-28 0 -51 20 -51 49c0 10 2 17 8 25z" />
    <glyph glyph-name="zdotaccent" unicode="&#x17c;" horiz-adv-x="434" 
d="M422 443c0 -13 -4 -28 -14 -41l-216 -284h165c38 0 67 -26 67 -59s-29 -59 -67 -59h-277c-37 0 -70 28 -70 64c0 12 2 24 12 37l217 286h-153c-37 0 -66 26 -66 59c0 34 29 59 66 59h265c38 0 71 -23 71 -62zM282 615c0 -35 -29 -63 -66 -63c-36 0 -64 29 -64 63
c0 33 28 61 64 61c37 0 66 -27 66 -61z" />
    <glyph glyph-name="Racute" unicode="&#x154;" horiz-adv-x="615" 
d="M561 493c0 -99 -53 -164 -139 -192l137 -206c33 -50 -16 -103 -61 -103c-25 0 -46 11 -59 31l-168 263h-68v-229c0 -35 -33 -66 -71 -66c-37 0 -69 30 -69 66v576c0 39 35 72 76 72h174c188 0 248 -107 248 -212zM421 493c0 42 -21 85 -112 85h-106v-166h112
c69 0 106 29 106 81zM222 831l81 79l8 8c12 12 19 19 41 19c23 0 49 -21 49 -49c0 -8 -2 -18 -9 -28l-82 -82c-15 -13 -23 -21 -45 -21c-28 0 -51 20 -51 49c0 10 2 17 8 25z" />
    <glyph glyph-name="tcaron" unicode="&#x165;" horiz-adv-x="567" 
d="M64 208v388c0 34 25 61 69 61s69 -28 69 -61v-111h74c37 0 66 -26 66 -60s-29 -59 -66 -59h-74v-151c0 -74 6 -100 54 -100c9 0 15 1 17 1c63 0 82 -17 82 -54c0 -58 -46 -66 -96 -66c-155 0 -195 76 -195 212zM403 484c3 33 25 45 33 89c-38 8 -65 39 -65 75
c0 42 37 77 84 77c44 0 83 -32 83 -81c0 -60 -44 -205 -94 -205c-16 0 -46 6 -41 45z" />
    <glyph glyph-name="Zdotaccent" unicode="&#x17b;" horiz-adv-x="524" 
d="M504 65c0 -36 -32 -65 -70 -65h-343c-41 0 -72 31 -72 68c0 13 9 34 14 44c98 162 184 300 283 464h-226c-39 0 -69 28 -69 64c0 35 30 65 69 65h339c42 0 73 -30 73 -67c0 -18 -7 -32 -14 -43l-285 -466h231c37 0 70 -28 70 -64zM327 815c0 -35 -29 -63 -66 -63
c-36 0 -64 29 -64 63c0 33 28 61 64 61c37 0 66 -27 66 -61z" />
    <glyph glyph-name="Abreve" unicode="&#x102;" horiz-adv-x="589" 
d="M186 139l-33 -101c-10 -29 -42 -47 -66 -47c-39 0 -72 26 -72 64c0 5 1 17 3 22l195 569c13 39 33 68 81 68s68 -28 82 -68l195 -569c2 -5 3 -17 3 -22c0 -38 -31 -64 -72 -64c-26 0 -58 19 -68 47l-35 101h-213zM363 253l-51 171c-9 29 -14 67 -18 98
c-4 -31 -9 -69 -18 -98l-53 -171h140zM294 845c18 0 40 11 59 31c11 15 28 23 46 23c27 0 54 -18 44 -56c-16 -58 -95 -90 -149 -90s-131 32 -149 90c-10 38 17 56 44 56c17 0 35 -8 45 -23c20 -20 42 -31 60 -31z" />
    <glyph glyph-name="Aogonek" unicode="&#x104;" horiz-adv-x="589" 
d="M625 -166c0 -46 -57 -53 -95 -53c-72 0 -121 32 -121 102c0 39 19 85 46 126c-9 8 -17 17 -21 29l-35 101h-213l-33 -101c-10 -29 -42 -47 -66 -47c-39 0 -72 26 -72 64c0 5 1 17 3 22l195 569c13 39 33 68 81 68s68 -28 82 -68l195 -569c2 -5 3 -17 3 -22
c0 -17 -8 -31 -17 -43c-23 -30 -45 -77 -45 -114c0 -14 8 -25 26 -25c11 0 23 3 33 4h9c25 0 45 -20 45 -43zM363 253l-51 171c-9 29 -14 67 -18 98c-4 -31 -9 -69 -18 -98l-53 -171h140z" />
    <glyph glyph-name="Lacute" unicode="&#x139;" horiz-adv-x="503" 
d="M488 64c0 -36 -30 -64 -68 -64h-282c-40 0 -75 30 -75 69v581c0 34 31 64 70 64c38 0 70 -30 70 -64v-524h217c36 0 68 -27 68 -62zM114 831l81 79l8 8c12 12 19 19 41 19c23 0 49 -21 49 -49c0 -8 -2 -18 -9 -28l-82 -82c-15 -13 -23 -21 -45 -21c-28 0 -51 20 -51 49
c0 10 2 17 8 25z" />
    <glyph glyph-name="Lcaron" unicode="&#x13d;" horiz-adv-x="503" 
d="M488 64c0 -36 -30 -64 -68 -64h-282c-40 0 -75 30 -75 69v581c0 34 31 64 70 64c38 0 70 -30 70 -64v-524h217c36 0 68 -27 68 -62zM322 484c3 33 25 45 33 89c-38 8 -65 39 -65 75c0 42 37 77 84 77c44 0 83 -32 83 -81c0 -60 -44 -205 -94 -205c-16 0 -46 6 -41 45z
" />
    <glyph glyph-name="lcaron" unicode="&#x13e;" horiz-adv-x="455" 
d="M160 -7c-40 0 -96 13 -96 118v549c0 33 30 62 69 62s69 -27 69 -62v-537c0 -21 1 -26 15 -41c10 -11 18 -16 18 -35c0 -36 -28 -54 -75 -54zM299 484c3 33 25 45 33 89c-38 8 -65 39 -65 75c0 42 37 77 84 77c44 0 83 -32 83 -81c0 -60 -44 -205 -94 -205
c-16 0 -46 6 -41 45z" />
    <glyph glyph-name="aogonek" unicode="&#x105;" horiz-adv-x="522" 
d="M552 -166c0 -46 -57 -53 -95 -53c-72 0 -121 32 -121 102c0 37 21 81 52 120c-15 7 -28 18 -40 35c-37 -30 -79 -45 -135 -45c-116 0 -178 63 -178 158v3c0 102 66 153 198 153c27 0 53 -2 79 -10v32c0 47 -25 69 -76 69c-28 0 -45 -7 -65 -16c-8 -3 -19 -10 -38 -10
c-42 0 -58 33 -58 58c0 59 88 83 171 83c145 0 204 -72 204 -207v-186c0 -30 15 -27 32 -34c15 -6 23 -17 23 -38c0 -16 -6 -28 -15 -38c-25 -29 -51 -76 -51 -112c0 -14 8 -25 26 -25c11 0 23 3 33 4h9c25 0 45 -20 45 -43zM241 210c-58 0 -69 -27 -69 -57v-3
c0 -33 19 -46 62 -46c26 0 52 6 78 26v72c-25 5 -51 8 -71 8z" />
    <glyph glyph-name="ncaron" unicode="&#x148;" horiz-adv-x="549" 
d="M205 357v-302c0 -34 -23 -61 -69 -61s-69 27 -69 61v303c0 33 -4 36 -8 42c-14 19 -17 26 -17 39c0 33 29 58 67 58c21 0 39 -11 53 -29c45 30 92 43 132 43c126 0 189 -78 189 -195v-261c0 -34 -25 -61 -69 -61s-69 27 -69 61v261c0 50 -25 81 -65 81
c-21 0 -46 -7 -77 -21c1 -7 2 -13 2 -19zM216 703l58 -52l58 52c9 8 28 12 36 12c26 0 49 -21 49 -46c0 -17 -12 -32 -27 -45l-79 -61c-8 -7 -21 -13 -37 -13s-29 6 -37 13l-79 61c-15 13 -27 28 -27 45c0 25 23 46 49 46c8 0 27 -4 36 -12z" />
    <glyph glyph-name="ohungarumlaut" unicode="&#x151;" horiz-adv-x="524" 
d="M262 -7c-142 0 -217 81 -217 186v149c0 105 75 186 217 186s217 -81 217 -186v-149c0 -105 -75 -186 -217 -186zM262 111c52 0 79 26 79 68v150c0 41 -27 67 -79 67s-79 -26 -79 -67v-150c0 -42 27 -68 79 -68zM129 619l63 89c12 17 24 36 51 35c33 0 69 -36 47 -68
l-65 -96c-12 -18 -24 -29 -50 -29c-33 0 -69 37 -46 69zM299 619l63 89c12 17 24 36 51 35c33 0 69 -36 47 -68l-65 -96c-12 -18 -24 -29 -50 -29c-33 0 -69 37 -46 69z" />
    <glyph glyph-name="rcaron" unicode="&#x159;" horiz-adv-x="377" 
d="M299 386c-43 2 -61 4 -96 -10c1 -7 2 -13 2 -19v-302c0 -35 -30 -62 -69 -62s-69 27 -69 62v302c0 23 -3 35 -11 47c-8 10 -14 18 -14 33c0 36 32 60 68 60c21 0 39 -13 53 -31c46 27 92 43 124 43c63 0 82 -26 82 -60c0 -39 -32 -65 -70 -63zM131 703l58 -52l58 52
c9 8 28 12 36 12c26 0 49 -21 49 -46c0 -17 -12 -32 -27 -45l-79 -61c-8 -7 -21 -13 -37 -13s-29 6 -37 13l-79 61c-15 13 -27 28 -27 45c0 25 23 46 49 46c8 0 27 -4 36 -12z" />
    <glyph glyph-name="uring" unicode="&#x16f;" horiz-adv-x="549" 
d="M388 37c-47 -33 -93 -44 -138 -44c-121 0 -186 79 -186 196v261c0 34 25 60 69 60s69 -26 69 -60v-261c0 -51 21 -80 65 -80c21 0 46 7 77 21c-1 7 -2 13 -2 19v301c0 34 23 60 69 60s69 -26 69 -60v-321c0 -15 6 -22 19 -35c10 -10 14 -20 14 -34c0 -40 -34 -61 -64 -61
c-26 0 -46 16 -61 38zM384 644c0 -61 -48 -109 -109 -109c-62 0 -110 48 -110 109c0 60 48 109 110 109c61 0 109 -49 109 -109zM319 644c0 24 -20 45 -44 45s-44 -21 -44 -45s20 -44 44 -44s44 20 44 44z" />
    <glyph glyph-name="uhungarumlaut" unicode="&#x171;" horiz-adv-x="549" 
d="M388 37c-47 -33 -93 -44 -138 -44c-121 0 -186 79 -186 196v261c0 34 25 60 69 60s69 -26 69 -60v-261c0 -51 21 -80 65 -80c21 0 46 7 77 21c-1 7 -2 13 -2 19v301c0 34 23 60 69 60s69 -26 69 -60v-321c0 -15 6 -22 19 -35c10 -10 14 -20 14 -34c0 -40 -34 -61 -64 -61
c-26 0 -46 16 -61 38zM138 619l63 89c12 17 24 36 51 35c33 0 69 -36 47 -68l-65 -96c-12 -18 -24 -29 -50 -29c-33 0 -69 37 -46 69zM308 619l63 89c12 17 24 36 51 35c33 0 69 -36 47 -68l-65 -96c-12 -18 -24 -29 -50 -29c-33 0 -69 37 -46 69z" />
    <glyph glyph-name="abreve" unicode="&#x103;" horiz-adv-x="522" 
d="M450 306v-186c0 -30 15 -27 32 -34c15 -6 23 -17 23 -38c0 -32 -19 -52 -72 -52c-37 0 -62 10 -85 42c-37 -30 -79 -45 -135 -45c-116 0 -178 63 -178 158v3c0 102 66 153 198 153c27 0 53 -2 79 -10v32c0 47 -25 69 -76 69c-28 0 -45 -7 -65 -16c-8 -3 -19 -10 -38 -10
c-42 0 -58 33 -58 58c0 59 88 83 171 83c145 0 204 -72 204 -207zM241 210c-58 0 -69 -27 -69 -57v-3c0 -33 19 -46 62 -46c26 0 52 6 78 26v72c-25 5 -51 8 -71 8zM261 645c18 0 40 11 59 31c11 15 28 23 46 23c27 0 54 -18 44 -56c-16 -58 -95 -90 -149 -90
s-131 32 -149 90c-10 38 17 56 44 56c17 0 35 -8 45 -23c20 -20 42 -31 60 -31z" />
    <glyph glyph-name="racute" unicode="&#x155;" horiz-adv-x="377" 
d="M299 386c-43 2 -61 4 -96 -10c1 -7 2 -13 2 -19v-302c0 -35 -30 -62 -69 -62s-69 27 -69 62v302c0 23 -3 35 -11 47c-8 10 -14 18 -14 33c0 36 32 60 68 60c21 0 39 -13 53 -31c46 27 92 43 124 43c63 0 82 -26 82 -60c0 -39 -32 -65 -70 -63zM158 631l81 79l8 8
c12 12 19 19 41 19c23 0 49 -21 49 -49c0 -8 -2 -18 -9 -28l-82 -82c-15 -13 -23 -21 -45 -21c-28 0 -51 20 -51 49c0 10 2 17 8 25z" />
    <glyph glyph-name="lacute" unicode="&#x13a;" horiz-adv-x="268" 
d="M160 -7c-40 0 -96 13 -96 118v549c0 33 30 62 69 62s69 -27 69 -62v-537c0 -21 1 -26 15 -41c10 -11 18 -16 18 -35c0 -36 -28 -54 -75 -54zM84 838l81 79l8 8c12 12 19 19 41 19c23 0 49 -21 49 -49c0 -8 -2 -18 -9 -28l-82 -82c-15 -13 -23 -21 -45 -21
c-28 0 -51 20 -51 49c0 10 2 17 8 25z" />
    <glyph glyph-name="cacute" unicode="&#x107;" horiz-adv-x="443" 
d="M45 184v135c0 107 64 191 207 191c59 0 171 -14 171 -87c0 -24 -12 -51 -62 -51c-10 0 -19 1 -33 6c-21 8 -37 17 -68 17c-55 0 -77 -29 -77 -76v-135c0 -47 22 -76 77 -76c31 0 48 9 68 17c10 4 17 6 31 6c52 0 64 -28 64 -51c0 -72 -112 -87 -172 -87
c-141 0 -206 84 -206 191zM181 631l81 79l8 8c12 12 19 19 41 19c23 0 49 -21 49 -49c0 -8 -2 -18 -9 -28l-82 -82c-15 -13 -23 -21 -45 -21c-28 0 -51 20 -51 49c0 10 2 17 8 25z" />
    <glyph glyph-name="ccaron" unicode="&#x10d;" horiz-adv-x="443" 
d="M45 184v135c0 107 64 191 207 191c59 0 171 -14 171 -87c0 -24 -12 -51 -62 -51c-10 0 -19 1 -33 6c-21 8 -37 17 -68 17c-55 0 -77 -29 -77 -76v-135c0 -47 22 -76 77 -76c31 0 48 9 68 17c10 4 17 6 31 6c52 0 64 -28 64 -51c0 -72 -112 -87 -172 -87
c-141 0 -206 84 -206 191zM194 703l58 -52l58 52c9 8 28 12 36 12c26 0 49 -21 49 -46c0 -17 -12 -32 -27 -45l-79 -61c-8 -7 -21 -13 -37 -13s-29 6 -37 13l-79 61c-15 13 -27 28 -27 45c0 25 23 46 49 46c8 0 27 -4 36 -12z" />
    <glyph glyph-name="ecaron" unicode="&#x11b;" horiz-adv-x="485" 
d="M260 191c-26 0 -48 2 -77 6v-33c0 -34 26 -56 80 -56c32 0 58 8 90 22c4 2 13 6 30 6c48 0 62 -32 62 -55c0 -70 -128 -88 -192 -88c-132 0 -208 76 -208 175v167c0 101 74 178 213 178c131 0 196 -69 196 -170c0 -96 -59 -152 -194 -152zM317 350c0 40 -21 56 -60 56
c-48 0 -74 -25 -74 -65v-43c32 -3 62 -4 72 -4c38 0 62 13 62 56zM184 703l58 -52l58 52c9 8 28 12 36 12c26 0 49 -21 49 -46c0 -17 -12 -32 -27 -45l-79 -61c-8 -7 -21 -13 -37 -13s-29 6 -37 13l-79 61c-15 13 -27 28 -27 45c0 25 23 46 49 46c8 0 27 -4 36 -12z" />
    <glyph glyph-name="Rcaron" unicode="&#x158;" horiz-adv-x="615" 
d="M561 493c0 -99 -53 -164 -139 -192l137 -206c33 -50 -16 -103 -61 -103c-25 0 -46 11 -59 31l-168 263h-68v-229c0 -35 -33 -66 -71 -66c-37 0 -69 30 -69 66v576c0 39 35 72 76 72h174c188 0 248 -107 248 -212zM421 493c0 42 -21 85 -112 85h-106v-166h112
c69 0 106 29 106 81zM232 903l58 -52l58 52c9 8 28 12 36 12c26 0 49 -21 49 -46c0 -17 -12 -32 -27 -45l-79 -61c-8 -7 -21 -13 -37 -13s-29 6 -37 13l-79 61c-15 13 -27 28 -27 45c0 25 23 46 49 46c8 0 27 -4 36 -12z" />
    <glyph glyph-name="Uring" unicode="&#x16e;" horiz-adv-x="612" 
d="M557 240c0 -144 -93 -249 -251 -249c-161 0 -251 106 -251 249v408c0 38 31 66 71 66c37 0 69 -30 69 -66v-408c0 -72 35 -122 111 -122c75 0 110 51 110 122v408c0 35 30 66 69 66c41 0 72 -31 72 -66v-408zM415 844c0 -61 -48 -109 -109 -109c-62 0 -110 48 -110 109
c0 60 48 109 110 109c61 0 109 -49 109 -109zM350 844c0 24 -20 45 -44 45s-44 -21 -44 -45s20 -44 44 -44s44 20 44 44z" />
    <glyph glyph-name="Uhungarumlaut" unicode="&#x170;" horiz-adv-x="612" 
d="M557 240c0 -144 -93 -249 -251 -249c-161 0 -251 106 -251 249v408c0 38 31 66 71 66c37 0 69 -30 69 -66v-408c0 -72 35 -122 111 -122c75 0 110 51 110 122v408c0 35 30 66 69 66c41 0 72 -31 72 -66v-408zM177 819l63 89c12 17 24 36 51 35c33 0 69 -36 47 -68
l-65 -96c-12 -18 -24 -29 -50 -29c-33 0 -69 37 -46 69zM347 819l63 89c12 17 24 36 51 35c33 0 69 -36 47 -68l-65 -96c-12 -18 -24 -29 -50 -29c-33 0 -69 37 -46 69z" />
    <glyph glyph-name="Ohungarumlaut" unicode="&#x150;" horiz-adv-x="610" 
d="M305 -9c-173 0 -260 117 -260 263v198c0 142 73 262 260 262s260 -120 260 -262v-198c0 -146 -87 -263 -260 -263zM305 587c-88 0 -120 -54 -120 -135v-198c0 -80 38 -136 120 -136s120 56 120 136v198c0 81 -32 135 -120 135zM175 819l63 89c12 17 24 36 51 35
c33 0 69 -36 47 -68l-65 -96c-12 -18 -24 -29 -50 -29c-33 0 -69 37 -46 69zM345 819l63 89c12 17 24 36 51 35c33 0 69 -36 47 -68l-65 -96c-12 -18 -24 -29 -50 -29c-33 0 -69 37 -46 69z" />
    <glyph glyph-name="Ncaron" unicode="&#x147;" horiz-adv-x="640" 
d="M502 -9c-26 0 -54 14 -67 35l-232 404v-374c0 -35 -33 -65 -71 -65c-39 0 -69 30 -69 65v590c0 39 31 68 73 68c27 0 54 -15 68 -37c89 -154 140 -245 232 -406v378c0 35 33 65 71 65c39 0 69 -30 69 -65v-590c0 -37 -30 -68 -74 -68zM262 903l58 -52l58 52
c9 8 28 12 36 12c26 0 49 -21 49 -46c0 -17 -12 -32 -27 -45l-79 -61c-8 -7 -21 -13 -37 -13s-29 6 -37 13l-79 61c-15 13 -27 28 -27 45c0 25 23 46 49 46c8 0 27 -4 36 -12z" />
    <glyph glyph-name="Nacute" unicode="&#x143;" horiz-adv-x="640" 
d="M502 -9c-26 0 -54 14 -67 35l-232 404v-374c0 -35 -33 -65 -71 -65c-39 0 -69 30 -69 65v590c0 39 31 68 73 68c27 0 54 -15 68 -37c89 -154 140 -245 232 -406v378c0 35 33 65 71 65c39 0 69 -30 69 -65v-590c0 -37 -30 -68 -74 -68zM274 831l81 79l8 8
c12 12 19 19 41 19c23 0 49 -21 49 -49c0 -8 -2 -18 -9 -28l-82 -82c-15 -13 -23 -21 -45 -21c-28 0 -51 20 -51 49c0 10 2 17 8 25z" />
    <glyph glyph-name="Dcaron" unicode="&#x10e;" horiz-adv-x="594" 
d="M558 271c0 -141 -77 -271 -304 -271h-113c-42 0 -78 33 -78 72v562c0 39 36 72 78 72h113c226 0 304 -124 304 -263v-172zM418 271v172c0 76 -39 136 -147 136h-68v-452h68c110 0 147 65 147 144zM239 903l58 -52l58 52c9 8 28 12 36 12c26 0 49 -21 49 -46
c0 -17 -12 -32 -27 -45l-79 -61c-8 -7 -21 -13 -37 -13s-29 6 -37 13l-79 61c-15 13 -27 28 -27 45c0 25 23 46 49 46c8 0 27 -4 36 -12z" />
    <glyph glyph-name="Dcroat" unicode="&#x110;" horiz-adv-x="616" 
d="M581 271c0 -141 -77 -271 -304 -271h-113c-42 0 -78 33 -78 72v220h-9c-38 0 -67 27 -67 61c0 33 29 62 67 62h9v218c0 39 36 72 78 72h113c226 0 304 -123 304 -262v-172zM392 353c0 -34 -29 -61 -66 -61h-100v-165h68c110 0 147 65 147 144v172c0 76 -39 135 -147 135
h-68v-163h100c37 0 66 -29 66 -62z" />
    <glyph glyph-name="Ecaron" unicode="&#x11a;" horiz-adv-x="514" 
d="M491 65c0 -36 -32 -65 -70 -65h-265c-49 0 -93 17 -93 71v563c0 35 33 71 77 71h271c38 0 70 -30 70 -65c0 -36 -32 -62 -70 -62h-208v-161h189c35 0 69 -27 69 -63s-30 -64 -69 -64h-189v-163h218c37 0 70 -28 70 -62zM223 903l58 -52l58 52c9 8 28 12 36 12
c26 0 49 -21 49 -46c0 -17 -12 -32 -27 -45l-79 -61c-8 -7 -21 -13 -37 -13s-29 6 -37 13l-79 61c-15 13 -27 28 -27 45c0 25 23 46 49 46c8 0 27 -4 36 -12z" />
    <glyph glyph-name="Ccaron" unicode="&#x10c;" horiz-adv-x="522" 
d="M175 452v-198c0 -86 30 -140 120 -140c32 0 58 8 83 24l10 6c13 8 20 15 43 15c38 0 66 -28 66 -60c0 -58 -101 -107 -207 -107c-175 0 -255 104 -255 262v198c0 158 80 262 255 262c106 0 207 -49 207 -107c0 -32 -28 -60 -66 -60c-23 0 -30 7 -43 15l-10 6
c-25 16 -51 24 -83 24c-90 0 -120 -54 -120 -140zM231 903l58 -52l58 52c9 8 28 12 36 12c26 0 49 -21 49 -46c0 -17 -12 -32 -27 -45l-79 -61c-8 -7 -21 -13 -37 -13s-29 6 -37 13l-79 61c-15 13 -27 28 -27 45c0 25 23 46 49 46c8 0 27 -4 36 -12z" />
    <glyph glyph-name="Cacute" unicode="&#x106;" horiz-adv-x="522" 
d="M175 452v-198c0 -86 30 -140 120 -140c32 0 58 8 83 24l10 6c13 8 20 15 43 15c38 0 66 -28 66 -60c0 -58 -101 -107 -207 -107c-175 0 -255 104 -255 262v198c0 158 80 262 255 262c106 0 207 -49 207 -107c0 -32 -28 -60 -66 -60c-23 0 -30 7 -43 15l-10 6
c-25 16 -51 24 -83 24c-90 0 -120 -54 -120 -140zM228 831l81 79l8 8c12 12 19 19 41 19c23 0 49 -21 49 -49c0 -8 -2 -18 -9 -28l-82 -82c-15 -13 -23 -21 -45 -21c-28 0 -51 20 -51 49c0 10 2 17 8 25z" />
    <glyph glyph-name="nacute" unicode="&#x144;" horiz-adv-x="549" 
d="M205 357v-302c0 -34 -23 -61 -69 -61s-69 27 -69 61v303c0 33 -4 36 -8 42c-14 19 -17 26 -17 39c0 33 29 58 67 58c21 0 39 -11 53 -29c45 30 92 43 132 43c126 0 189 -78 189 -195v-261c0 -34 -25 -61 -69 -61s-69 27 -69 61v261c0 50 -25 81 -65 81
c-21 0 -46 -7 -77 -21c1 -7 2 -13 2 -19zM189 631l81 79l8 8c12 12 19 19 41 19c23 0 49 -21 49 -49c0 -8 -2 -18 -9 -28l-82 -82c-15 -13 -23 -21 -45 -21c-28 0 -51 20 -51 49c0 10 2 17 8 25z" />
    <glyph glyph-name="Eogonek" unicode="&#x118;" horiz-adv-x="514" 
d="M489 -166c0 -46 -57 -53 -95 -53c-72 0 -121 32 -121 102c0 36 19 78 47 117h-164c-49 0 -93 17 -93 71v563c0 35 33 71 77 71h271c38 0 70 -30 70 -65c0 -36 -32 -62 -70 -62h-208v-161h189c35 0 69 -27 69 -63s-30 -64 -69 -64h-189v-163h218c37 0 70 -28 70 -62
c0 -36 -32 -65 -70 -65l-19 -31c-13 -22 -26 -50 -26 -71c0 -14 8 -25 26 -25c11 0 23 3 33 4h9c25 0 45 -20 45 -43z" />
    <glyph glyph-name="dcaron" unicode="&#x10f;" horiz-adv-x="710" 
d="M235 509c31 0 52 -4 88 -19v171c0 34 25 61 69 61s69 -28 69 -61v-532c0 -15 6 -22 19 -35c10 -10 14 -20 14 -34c0 -40 -34 -61 -65 -61c-25 0 -45 16 -60 38c-49 -27 -90 -44 -141 -44c-116 0 -183 79 -183 196v113c0 119 47 207 190 207zM323 149v233
c-31 9 -56 13 -73 13c-49 0 -67 -31 -67 -93v-113c0 -52 22 -80 65 -80c21 0 46 7 77 21c-1 7 -2 13 -2 19zM546 484c3 33 25 45 33 89c-38 8 -65 39 -65 75c0 42 37 77 84 77c44 0 83 -32 83 -81c0 -60 -44 -205 -94 -205c-16 0 -46 6 -41 45z" />
    <glyph glyph-name="dcroat" unicode="&#x111;" horiz-adv-x="592" 
d="M235 509c31 0 52 -4 88 -19v59h-76c-26 0 -47 22 -47 49s21 50 47 50h76v13c0 34 25 61 69 61s69 -28 69 -61v-13h65c25 0 46 -23 46 -50c0 -26 -21 -49 -46 -49h-65v-420c0 -15 6 -22 19 -35c10 -10 14 -20 14 -34c0 -40 -34 -61 -65 -61c-25 0 -45 16 -60 38
c-49 -27 -90 -44 -141 -44c-116 0 -183 79 -183 196v113c0 119 47 207 190 207zM323 149v233c-31 9 -56 13 -73 13c-49 0 -67 -31 -67 -93v-113c0 -52 22 -80 65 -80c21 0 46 7 77 21c-1 7 -2 13 -2 19z" />
    <glyph glyph-name="eogonek" unicode="&#x119;" horiz-adv-x="485" 
d="M454 -166c0 -46 -57 -53 -95 -53c-72 0 -121 32 -121 102c0 34 17 74 43 111c-10 0 -20 -1 -28 -1c-132 0 -208 76 -208 175v167c0 101 74 178 213 178c131 0 196 -69 196 -170c0 -96 -59 -152 -194 -152c-26 0 -48 2 -77 6v-33c0 -34 26 -56 80 -56c32 0 58 8 90 22
c4 2 13 6 30 6c48 0 62 -32 62 -55c0 -28 -26 -41 -49 -61c-31 -27 -55 -83 -55 -122c0 -14 8 -25 26 -25c11 0 23 3 33 4h9c25 0 45 -20 45 -43zM317 350c0 40 -21 56 -60 56c-48 0 -74 -25 -74 -65v-43c32 -3 62 -4 72 -4c38 0 62 13 62 56z" />
    <glyph glyph-name="Idotaccent" unicode="&#x130;" horiz-adv-x="267" 
d="M63 55v595c0 34 31 64 70 64c38 0 70 -30 70 -64v-595c0 -34 -32 -64 -70 -64c-39 0 -70 30 -70 64zM199 815c0 -35 -29 -63 -66 -63c-36 0 -64 29 -64 63c0 33 28 61 64 61c37 0 66 -27 66 -61z" />
    <glyph glyph-name="Gbreve" unicode="&#x11e;" horiz-adv-x="560" 
d="M175 452v-198c0 -86 30 -140 120 -140c35 0 60 9 83 21v156h-52c-33 0 -63 28 -63 63s30 63 63 63h109c46 0 82 -22 82 -70v-221c0 -94 -124 -134 -227 -134c-175 0 -255 104 -255 262v198c0 158 80 262 255 262c106 0 207 -49 207 -107c0 -32 -28 -60 -66 -60
c-23 0 -30 7 -43 15l-10 6c-25 15 -51 24 -83 24c-90 0 -120 -54 -120 -140zM280 845c18 0 40 11 59 31c11 15 28 23 46 23c27 0 54 -18 44 -56c-16 -58 -95 -90 -149 -90s-131 32 -149 90c-10 38 17 56 44 56c17 0 35 -8 45 -23c20 -20 42 -31 60 -31z" />
    <glyph glyph-name="gbreve" unicode="&#x11f;" horiz-adv-x="533" 
d="M35 -80c0 39 17 72 64 110c-16 28 -21 61 -21 82c0 23 7 47 28 73c-43 36 -64 83 -64 138c0 108 72 190 200 190c51 0 91 -13 134 -34c27 37 60 55 88 55c34 0 65 -25 65 -58c0 -17 -9 -30 -16 -36c-35 -31 -45 -40 -45 -68v-56c0 -103 -69 -182 -215 -182
c-16 0 -37 1 -55 5c-5 -13 -6 -16 -6 -23c0 -28 16 -32 28 -32h42c130 0 230 -48 230 -154s-99 -172 -235 -172c-131 0 -222 62 -222 162zM330 385c-26 11 -48 17 -71 17c-51 0 -79 -29 -79 -81c0 -48 23 -79 77 -79c50 0 73 28 73 73v70zM264 -29l-73 1
c-12 -15 -18 -26 -18 -42c0 -37 28 -59 86 -59c57 0 95 21 95 56c0 30 -28 44 -90 44zM266 645c18 0 40 11 59 31c11 15 28 23 46 23c27 0 54 -18 44 -56c-16 -58 -95 -90 -149 -90s-131 32 -149 90c-10 38 17 56 44 56c17 0 35 -8 45 -23c20 -20 42 -31 60 -31z" />
    <glyph glyph-name="Emacron" unicode="&#x112;" horiz-adv-x="514" 
d="M491 65c0 -36 -32 -65 -70 -65h-265c-49 0 -93 17 -93 71v563c0 35 33 71 77 71h271c38 0 70 -30 70 -65c0 -36 -32 -62 -70 -62h-208v-161h189c35 0 69 -27 69 -63s-30 -64 -69 -64h-189v-163h218c37 0 70 -28 70 -62zM448 830c0 -29 -25 -51 -56 -51h-269
c-32 0 -57 22 -57 51c0 28 25 51 57 51h269c31 0 56 -23 56 -51z" />
    <glyph glyph-name="Edotaccent" unicode="&#x116;" horiz-adv-x="514" 
d="M491 65c0 -36 -32 -65 -70 -65h-265c-49 0 -93 17 -93 71v563c0 35 33 71 77 71h271c38 0 70 -30 70 -65c0 -36 -32 -62 -70 -62h-208v-161h189c35 0 69 -27 69 -63s-30 -64 -69 -64h-189v-163h218c37 0 70 -28 70 -62zM322 815c0 -35 -29 -63 -66 -63
c-36 0 -64 29 -64 63c0 33 28 61 64 61c37 0 66 -27 66 -61z" />
    <glyph glyph-name="uni0122" unicode="&#x122;" horiz-adv-x="560" 
d="M175 452v-198c0 -86 30 -140 120 -140c35 0 60 9 83 21v156h-52c-33 0 -63 28 -63 63s30 63 63 63h109c46 0 82 -22 82 -70v-221c0 -94 -124 -134 -227 -134c-175 0 -255 104 -255 262v198c0 158 80 262 255 262c106 0 207 -49 207 -107c0 -32 -28 -60 -66 -60
c-23 0 -30 7 -43 15l-10 6c-25 15 -51 24 -83 24c-90 0 -120 -54 -120 -140zM354 -104c0 -55 -60 -134 -97 -134c-9 0 -18 5 -18 17c0 21 25 34 37 62c-40 2 -69 9 -69 53c0 32 16 55 73 55c58 0 74 -24 74 -53z" />
    <glyph glyph-name="uni0136" unicode="&#x136;" horiz-adv-x="556" 
d="M510 607l-199 -225l219 -290c10 -13 11 -24 11 -34c0 -29 -25 -67 -68 -67c-23 0 -43 9 -58 29l-194 260l-18 -20v-204c0 -35 -32 -65 -70 -65c-39 0 -70 30 -70 65v594c0 34 31 64 70 64c38 0 70 -30 70 -64v-190l198 225c12 15 35 29 57 29c30 0 69 -29 69 -64
c0 -15 -1 -25 -17 -43zM379 -104c0 -55 -60 -134 -97 -134c-9 0 -18 5 -18 17c0 21 25 34 37 62c-40 2 -69 9 -69 53c0 32 16 55 73 55c58 0 74 -24 74 -53z" />
    <glyph glyph-name="Imacron" unicode="&#x12a;" horiz-adv-x="267" 
d="M63 55v595c0 34 31 64 70 64c38 0 70 -30 70 -64v-595c0 -34 -32 -64 -70 -64c-39 0 -70 30 -70 64zM325 830c0 -29 -25 -51 -56 -51h-269c-32 0 -57 22 -57 51c0 28 25 51 57 51h269c31 0 56 -23 56 -51z" />
    <glyph glyph-name="uni013B" unicode="&#x13b;" horiz-adv-x="503" 
d="M488 64c0 -36 -30 -64 -68 -64h-282c-40 0 -75 30 -75 69v581c0 34 31 64 70 64c38 0 70 -30 70 -64v-524h217c36 0 68 -27 68 -62zM325 -104c0 -55 -60 -134 -97 -134c-9 0 -18 5 -18 17c0 21 25 34 37 62c-40 2 -69 9 -69 53c0 32 16 55 73 55c58 0 74 -24 74 -53z" />
    <glyph glyph-name="uni0145" unicode="&#x145;" horiz-adv-x="640" 
d="M502 -9c-26 0 -54 14 -67 35l-232 404v-374c0 -35 -33 -65 -71 -65c-39 0 -69 30 -69 65v590c0 39 31 68 73 68c27 0 54 -15 68 -37c89 -154 140 -245 232 -406v378c0 35 33 65 71 65c39 0 69 -30 69 -65v-590c0 -37 -30 -68 -74 -68zM394 -104c0 -55 -60 -134 -97 -134
c-9 0 -18 5 -18 17c0 21 25 34 37 62c-40 2 -69 9 -69 53c0 32 16 55 73 55c58 0 74 -24 74 -53z" />
    <glyph glyph-name="uni0156" unicode="&#x156;" horiz-adv-x="615" 
d="M561 493c0 -99 -53 -164 -139 -192l137 -206c33 -50 -16 -103 -61 -103c-25 0 -46 11 -59 31l-168 263h-68v-229c0 -35 -33 -66 -71 -66c-37 0 -69 30 -69 66v576c0 39 35 72 76 72h174c188 0 248 -107 248 -212zM421 493c0 42 -21 85 -112 85h-106v-166h112
c69 0 106 29 106 81zM381 -104c0 -55 -60 -134 -97 -134c-9 0 -18 5 -18 17c0 21 25 34 37 62c-40 2 -69 9 -69 53c0 32 16 55 73 55c58 0 74 -24 74 -53z" />
    <glyph glyph-name="uni0157" unicode="&#x157;" horiz-adv-x="377" 
d="M299 386c-43 2 -61 4 -96 -10c1 -7 2 -13 2 -19v-302c0 -35 -30 -62 -69 -62s-69 27 -69 62v302c0 23 -3 35 -11 47c-8 10 -14 18 -14 33c0 36 32 60 68 60c21 0 39 -13 53 -31c46 27 92 43 124 43c63 0 82 -26 82 -60c0 -39 -32 -65 -70 -63zM209 -104
c0 -55 -60 -134 -97 -134c-9 0 -18 5 -18 17c0 21 25 34 37 62c-40 2 -69 9 -69 53c0 32 16 55 73 55c58 0 74 -24 74 -53z" />
    <glyph glyph-name="Amacron" unicode="&#x100;" horiz-adv-x="589" 
d="M186 139l-33 -101c-10 -29 -42 -47 -66 -47c-39 0 -72 26 -72 64c0 5 1 17 3 22l195 569c13 39 33 68 81 68s68 -28 82 -68l195 -569c2 -5 3 -17 3 -22c0 -38 -31 -64 -72 -64c-26 0 -58 19 -68 47l-35 101h-213zM363 253l-51 171c-9 29 -14 67 -18 98
c-4 -31 -9 -69 -18 -98l-53 -171h140zM485 830c0 -29 -25 -51 -56 -51h-269c-32 0 -57 22 -57 51c0 28 25 51 57 51h269c31 0 56 -23 56 -51z" />
    <glyph glyph-name="Iogonek" unicode="&#x12e;" horiz-adv-x="267" 
d="M63 55v595c0 34 31 64 70 64c38 0 70 -30 70 -64v-595c0 -17 -10 -31 -21 -45c-24 -29 -49 -76 -49 -112c0 -14 8 -25 26 -25c11 0 23 3 33 4h9c25 0 45 -20 45 -43c0 -46 -57 -53 -95 -53c-72 0 -121 32 -121 102c0 39 22 84 55 125c-14 12 -22 29 -22 47z" />
    <glyph glyph-name="Omacron" unicode="&#x14c;" horiz-adv-x="610" 
d="M305 -9c-173 0 -260 117 -260 263v198c0 142 73 262 260 262s260 -120 260 -262v-198c0 -146 -87 -263 -260 -263zM305 587c-88 0 -120 -54 -120 -135v-198c0 -80 38 -136 120 -136s120 56 120 136v198c0 81 -32 135 -120 135zM496 830c0 -29 -25 -51 -56 -51h-269
c-32 0 -57 22 -57 51c0 28 25 51 57 51h269c31 0 56 -23 56 -51z" />
    <glyph glyph-name="Umacron" unicode="&#x16a;" horiz-adv-x="612" 
d="M557 240c0 -144 -93 -249 -251 -249c-161 0 -251 106 -251 249v408c0 38 31 66 71 66c37 0 69 -30 69 -66v-408c0 -72 35 -122 111 -122c75 0 110 51 110 122v408c0 35 30 66 69 66c41 0 72 -31 72 -66v-408zM497 830c0 -29 -25 -51 -56 -51h-269c-32 0 -57 22 -57 51
c0 28 25 51 57 51h269c31 0 56 -23 56 -51z" />
    <glyph glyph-name="uni013C" unicode="&#x13c;" horiz-adv-x="268" 
d="M160 -7c-40 0 -96 13 -96 118v549c0 33 30 62 69 62s69 -27 69 -62v-537c0 -21 1 -26 15 -41c10 -11 18 -16 18 -35c0 -36 -28 -54 -75 -54zM208 -104c0 -55 -60 -134 -97 -134c-9 0 -18 5 -18 17c0 21 25 34 37 62c-40 2 -69 9 -69 53c0 32 16 55 73 55
c58 0 74 -24 74 -53z" />
    <glyph glyph-name="imacron" unicode="&#x12b;" horiz-adv-x="285" 
d="M211 55c0 -35 -30 -62 -69 -62s-69 27 -69 62v394c0 33 30 61 69 61s69 -28 69 -61v-394zM334 630c0 -29 -25 -51 -56 -51h-269c-32 0 -57 22 -57 51c0 28 25 51 57 51h269c31 0 56 -23 56 -51z" />
    <glyph glyph-name="uni0137" unicode="&#x137;" horiz-adv-x="487" 
d="M202 343l138 149c12 12 31 17 47 17c38 0 67 -25 67 -59c0 -16 -6 -30 -19 -42h1l-122 -129l147 -194c7 -10 11 -26 11 -37c-2 -34 -31 -55 -67 -55c-25 0 -44 10 -57 28l-135 183l-11 -10v-139c0 -35 -30 -62 -69 -62s-69 27 -69 62v605c0 35 30 62 69 62s69 -27 69 -62
v-317zM346 -104c0 -55 -60 -134 -97 -134c-9 0 -18 5 -18 17c0 21 25 34 37 62c-40 2 -69 9 -69 53c0 32 16 55 73 55c58 0 74 -24 74 -53z" />
    <glyph glyph-name="amacron" unicode="&#x101;" horiz-adv-x="522" 
d="M450 306v-186c0 -30 15 -27 32 -34c15 -6 23 -17 23 -38c0 -32 -19 -52 -72 -52c-37 0 -62 10 -85 42c-37 -30 -79 -45 -135 -45c-116 0 -178 63 -178 158v3c0 102 66 153 198 153c27 0 53 -2 79 -10v32c0 47 -25 69 -76 69c-28 0 -45 -7 -65 -16c-8 -3 -19 -10 -38 -10
c-42 0 -58 33 -58 58c0 59 88 83 171 83c145 0 204 -72 204 -207zM241 210c-58 0 -69 -27 -69 -57v-3c0 -33 19 -46 62 -46c26 0 52 6 78 26v72c-25 5 -51 8 -71 8zM452 630c0 -29 -25 -51 -56 -51h-269c-32 0 -57 22 -57 51c0 28 25 51 57 51h269c31 0 56 -23 56 -51z" />
    <glyph glyph-name="emacron" unicode="&#x113;" horiz-adv-x="485" 
d="M260 191c-26 0 -48 2 -77 6v-33c0 -34 26 -56 80 -56c32 0 58 8 90 22c4 2 13 6 30 6c48 0 62 -32 62 -55c0 -70 -128 -88 -192 -88c-132 0 -208 76 -208 175v167c0 101 74 178 213 178c131 0 196 -69 196 -170c0 -96 -59 -152 -194 -152zM317 350c0 40 -21 56 -60 56
c-48 0 -74 -25 -74 -65v-43c32 -3 62 -4 72 -4c38 0 62 13 62 56zM433 630c0 -29 -25 -51 -56 -51h-269c-32 0 -57 22 -57 51c0 28 25 51 57 51h269c31 0 56 -23 56 -51z" />
    <glyph glyph-name="edotaccent" unicode="&#x117;" horiz-adv-x="485" 
d="M260 191c-26 0 -48 2 -77 6v-33c0 -34 26 -56 80 -56c32 0 58 8 90 22c4 2 13 6 30 6c48 0 62 -32 62 -55c0 -70 -128 -88 -192 -88c-132 0 -208 76 -208 175v167c0 101 74 178 213 178c131 0 196 -69 196 -170c0 -96 -59 -152 -194 -152zM317 350c0 40 -21 56 -60 56
c-48 0 -74 -25 -74 -65v-43c32 -3 62 -4 72 -4c38 0 62 13 62 56zM307 615c0 -35 -29 -63 -66 -63c-36 0 -64 29 -64 63c0 33 28 61 64 61c37 0 66 -27 66 -61z" />
    <glyph glyph-name="umacron" unicode="&#x16b;" horiz-adv-x="549" 
d="M388 37c-47 -33 -93 -44 -138 -44c-121 0 -186 79 -186 196v261c0 34 25 60 69 60s69 -26 69 -60v-261c0 -51 21 -80 65 -80c21 0 46 7 77 21c-1 7 -2 13 -2 19v301c0 34 23 60 69 60s69 -26 69 -60v-321c0 -15 6 -22 19 -35c10 -10 14 -20 14 -34c0 -40 -34 -61 -64 -61
c-26 0 -46 16 -61 38zM465 630c0 -29 -25 -51 -56 -51h-269c-32 0 -57 22 -57 51c0 28 25 51 57 51h269c31 0 56 -23 56 -51z" />
    <glyph glyph-name="omacron" unicode="&#x14d;" horiz-adv-x="524" 
d="M262 -7c-142 0 -217 81 -217 186v149c0 105 75 186 217 186s217 -81 217 -186v-149c0 -105 -75 -186 -217 -186zM262 111c52 0 79 26 79 68v150c0 41 -27 67 -79 67s-79 -26 -79 -67v-150c0 -42 27 -68 79 -68zM453 630c0 -29 -25 -51 -56 -51h-269c-32 0 -57 22 -57 51
c0 28 25 51 57 51h269c31 0 56 -23 56 -51z" />
    <glyph glyph-name="uni0146" unicode="&#x146;" horiz-adv-x="549" 
d="M205 357v-302c0 -34 -23 -61 -69 -61s-69 27 -69 61v303c0 33 -4 36 -8 42c-14 19 -17 26 -17 39c0 33 29 58 67 58c21 0 39 -11 53 -29c45 30 92 43 132 43c126 0 189 -78 189 -195v-261c0 -34 -25 -61 -69 -61s-69 27 -69 61v261c0 50 -25 81 -65 81
c-21 0 -46 -7 -77 -21c1 -7 2 -13 2 -19zM348 -104c0 -55 -60 -134 -97 -134c-9 0 -18 5 -18 17c0 21 25 34 37 62c-40 2 -69 9 -69 53c0 32 16 55 73 55c58 0 74 -24 74 -53z" />
    <glyph glyph-name="iogonek" unicode="&#x12f;" horiz-adv-x="285" 
d="M251 -166c0 -46 -57 -53 -95 -53c-72 0 -121 32 -121 102c0 39 24 85 59 127c-13 11 -21 27 -21 45v394c0 33 30 61 69 61s69 -28 69 -61v-394c0 -18 -9 -33 -20 -45c-25 -29 -53 -76 -53 -112c0 -14 8 -25 26 -25c11 0 23 3 33 4h9c25 0 45 -20 45 -43zM220 644
c0 -39 -34 -70 -78 -70s-78 32 -78 70c0 39 34 70 78 70s78 -32 78 -70z" />
    <glyph glyph-name="uni0123" unicode="&#x123;" horiz-adv-x="533" 
d="M35 -80c0 39 17 72 64 110c-16 28 -21 61 -21 82c0 23 7 47 28 73c-43 36 -64 83 -64 138c0 108 72 190 200 190c51 0 91 -13 134 -34c27 37 60 55 88 55c34 0 65 -25 65 -58c0 -17 -9 -30 -16 -36c-35 -31 -45 -40 -45 -68v-56c0 -103 -69 -182 -215 -182
c-16 0 -37 1 -55 5c-5 -13 -6 -16 -6 -23c0 -28 16 -32 28 -32h42c130 0 230 -48 230 -154s-99 -172 -235 -172c-131 0 -222 62 -222 162zM330 385c-26 11 -48 17 -71 17c-51 0 -79 -29 -79 -81c0 -48 23 -79 77 -79c50 0 73 28 73 73v70zM264 -29l-73 1
c-12 -15 -18 -26 -18 -42c0 -37 28 -59 86 -59c57 0 95 21 95 56c0 30 -28 44 -90 44zM173 635c0 55 60 134 97 134c9 0 18 -5 18 -17c0 -21 -25 -35 -37 -62c40 -2 69 -9 69 -53c0 -32 -16 -55 -73 -55c-58 0 -74 24 -74 53z" />
    <glyph glyph-name="uogonek" unicode="&#x173;" horiz-adv-x="549" 
d="M558 -166c0 -46 -57 -53 -95 -53c-72 0 -121 32 -121 102c0 41 25 90 63 133c-6 6 -12 13 -17 21c-47 -33 -93 -44 -138 -44c-121 0 -186 79 -186 196v261c0 34 25 60 69 60s69 -26 69 -60v-261c0 -51 21 -80 65 -80c21 0 46 7 77 21c-1 7 -2 13 -2 19v301
c0 34 23 60 69 60s69 -26 69 -60v-321c0 -15 6 -22 19 -35c10 -10 14 -20 14 -34c0 -16 -7 -29 -13 -38c-24 -36 -55 -77 -55 -124c0 -14 8 -25 26 -25c11 0 23 3 33 4h9c25 0 45 -20 45 -43z" />
    <glyph glyph-name="Uogonek" unicode="&#x172;" horiz-adv-x="612" 
d="M493 -166c0 -46 -57 -53 -95 -53c-72 0 -121 32 -121 102c0 33 16 72 41 108h-12c-161 0 -251 106 -251 249v408c0 38 31 66 71 66c37 0 69 -30 69 -66v-408c0 -72 35 -122 111 -122c75 0 110 51 110 122v408c0 35 30 66 69 66c41 0 72 -31 72 -66v-408
c0 -99 -44 -180 -122 -220c-22 -35 -55 -83 -55 -122c0 -14 8 -25 26 -25c11 0 23 3 33 4h9c25 0 45 -20 45 -43z" />
    <glyph glyph-name="estimated" unicode="&#x212e;" horiz-adv-x="903" 
d="M825 317h-605c-3 0 -5 -1 -5 -4v-183c0 -8 4 -15 9 -21c57 -61 139 -99 229 -99c96 0 182 43 240 111h55c-68 -79 -176 -131 -296 -131c-206 0 -374 150 -374 336s168 336 374 336s373 -150 373 -336v-9zM689 341v184c0 9 -4 16 -10 22c-58 58 -138 95 -226 95
c-90 0 -170 -38 -228 -98c-6 -6 -10 -14 -10 -23v-180c0 -3 2 -5 5 -5h464c3 0 5 2 5 5z" />
    <glyph glyph-name="obreve" unicode="&#x14f;" horiz-adv-x="524" 
d="M262 -7c-142 0 -217 81 -217 186v149c0 105 75 186 217 186s217 -81 217 -186v-149c0 -105 -75 -186 -217 -186zM262 111c52 0 79 26 79 68v150c0 41 -27 67 -79 67s-79 -26 -79 -67v-150c0 -42 27 -68 79 -68zM262 645c18 0 40 11 59 31c11 15 28 23 46 23
c27 0 54 -18 44 -56c-16 -58 -95 -90 -149 -90s-131 32 -149 90c-10 38 17 56 44 56c17 0 35 -8 45 -23c20 -20 42 -31 60 -31z" />
    <glyph glyph-name="ubreve" unicode="&#x16d;" horiz-adv-x="549" 
d="M388 37c-47 -33 -93 -44 -138 -44c-121 0 -186 79 -186 196v261c0 34 25 60 69 60s69 -26 69 -60v-261c0 -51 21 -80 65 -80c21 0 46 7 77 21c-1 7 -2 13 -2 19v301c0 34 23 60 69 60s69 -26 69 -60v-321c0 -15 6 -22 19 -35c10 -10 14 -20 14 -34c0 -40 -34 -61 -64 -61
c-26 0 -46 16 -61 38zM274 645c18 0 40 11 59 31c11 15 28 23 46 23c27 0 54 -18 44 -56c-16 -58 -95 -90 -149 -90s-131 32 -149 90c-10 38 17 56 44 56c17 0 35 -8 45 -23c20 -20 42 -31 60 -31z" />
    <glyph glyph-name="utilde" unicode="&#x169;" horiz-adv-x="549" 
d="M388 37c-47 -33 -93 -44 -138 -44c-121 0 -186 79 -186 196v261c0 34 25 60 69 60s69 -26 69 -60v-261c0 -51 21 -80 65 -80c21 0 46 7 77 21c-1 7 -2 13 -2 19v301c0 34 23 60 69 60s69 -26 69 -60v-321c0 -15 6 -22 19 -35c10 -10 14 -20 14 -34c0 -40 -34 -61 -64 -61
c-26 0 -46 16 -61 38zM430 643c0 -42 -51 -73 -90 -73c-53 0 -81 36 -111 40s-32 -36 -65 -36c-21 0 -43 16 -46 41c0 46 43 80 88 80c56 0 81 -40 112 -40s30 36 63 36c25 0 49 -20 49 -48z" />
    <glyph glyph-name="scircumflex" unicode="&#x15d;" horiz-adv-x="446" 
d="M43 358c0 92 65 155 193 155c65 0 162 -16 162 -85c0 -43 -38 -51 -59 -51c-35 0 -53 21 -102 21c-38 0 -58 -13 -58 -36c0 -14 8 -24 30 -33c72 -31 203 -45 203 -178c0 -97 -69 -158 -195 -158c-64 0 -180 16 -180 78c0 29 26 59 65 59c33 0 64 -22 113 -22
c36 0 61 12 61 40c0 18 -10 26 -21 32c-65 36 -212 39 -212 178zM223 716c16 0 28 -6 37 -13l79 -61c15 -13 26 -28 27 -45c0 -25 -23 -46 -50 -46c-33 0 -65 38 -93 64c-28 -26 -60 -64 -93 -64c-27 0 -50 21 -50 46c1 17 12 32 27 45l79 61c9 7 21 13 37 13z" />
    <glyph glyph-name="itilde" unicode="&#x129;" horiz-adv-x="285" 
d="M211 55c0 -35 -30 -62 -69 -62s-69 27 -69 62v394c0 33 30 61 69 61s69 -28 69 -61v-394zM299 643c0 -42 -51 -73 -90 -73c-53 0 -81 36 -111 40s-32 -36 -65 -36c-21 0 -43 16 -46 41c0 46 43 80 88 80c56 0 81 -40 112 -40s30 36 63 36c25 0 49 -20 49 -48z" />
    <glyph glyph-name="Scircumflex" unicode="&#x15c;" horiz-adv-x="526" 
d="M350 204c0 45 -23 60 -41 68c-21 9 -46 18 -73 27c-98 30 -204 63 -204 208c0 129 90 207 232 207c59 0 201 -15 201 -90c0 -33 -26 -63 -70 -63c-18 0 -32 6 -49 11c-19 7 -41 15 -76 15c-49 0 -95 -17 -95 -76c0 -44 25 -59 42 -67c26 -13 50 -21 72 -27
c98 -31 205 -65 205 -207c0 -139 -106 -219 -249 -219c-74 0 -214 26 -214 96c0 32 29 63 66 63c15 0 31 -5 50 -12c24 -8 56 -20 99 -20c69 0 104 31 104 86zM263 916c16 0 28 -6 37 -13l79 -61c15 -13 26 -28 27 -45c0 -25 -23 -46 -50 -46c-33 0 -65 38 -93 64
c-28 -26 -60 -64 -93 -64c-27 0 -50 21 -50 46c1 17 12 32 27 45l79 61c9 7 21 13 37 13z" />
    <glyph glyph-name="Obreve" unicode="&#x14e;" horiz-adv-x="610" 
d="M305 -9c-173 0 -260 117 -260 263v198c0 142 73 262 260 262s260 -120 260 -262v-198c0 -146 -87 -263 -260 -263zM305 587c-88 0 -120 -54 -120 -135v-198c0 -80 38 -136 120 -136s120 56 120 136v198c0 81 -32 135 -120 135zM305 845c18 0 40 11 59 31
c11 15 28 23 46 23c27 0 54 -18 44 -56c-16 -58 -95 -90 -149 -90s-131 32 -149 90c-10 38 17 56 44 56c17 0 35 -8 45 -23c20 -20 42 -31 60 -31z" />
    <glyph glyph-name="Utilde" unicode="&#x168;" horiz-adv-x="612" 
d="M557 240c0 -144 -93 -249 -251 -249c-161 0 -251 106 -251 249v408c0 38 31 66 71 66c37 0 69 -30 69 -66v-408c0 -72 35 -122 111 -122c75 0 110 51 110 122v408c0 35 30 66 69 66c41 0 72 -31 72 -66v-408zM462 843c0 -42 -51 -73 -90 -73c-53 0 -81 36 -111 40
s-32 -36 -65 -36c-21 0 -43 16 -46 41c0 46 43 80 88 80c56 0 81 -40 112 -40s30 36 63 36c25 0 49 -20 49 -48z" />
    <glyph glyph-name="Ubreve" unicode="&#x16c;" horiz-adv-x="612" 
d="M557 240c0 -144 -93 -249 -251 -249c-161 0 -251 106 -251 249v408c0 38 31 66 71 66c37 0 69 -30 69 -66v-408c0 -72 35 -122 111 -122c75 0 110 51 110 122v408c0 35 30 66 69 66c41 0 72 -31 72 -66v-408zM306 845c18 0 40 11 59 31c11 15 28 23 46 23
c27 0 54 -18 44 -56c-16 -58 -95 -90 -149 -90s-131 32 -149 90c-10 38 17 56 44 56c17 0 35 -8 45 -23c20 -20 42 -31 60 -31z" />
    <glyph glyph-name="Ibreve" unicode="&#x12c;" horiz-adv-x="267" 
d="M63 55v595c0 34 31 64 70 64c38 0 70 -30 70 -64v-595c0 -34 -32 -64 -70 -64c-39 0 -70 30 -70 64zM134 845c18 0 40 11 59 31c11 15 28 23 46 23c27 0 54 -18 44 -56c-16 -58 -95 -90 -149 -90s-131 32 -149 90c-10 38 17 56 44 56c17 0 35 -8 45 -23
c20 -20 42 -31 60 -31z" />
    <glyph glyph-name="Itilde" unicode="&#x128;" horiz-adv-x="267" 
d="M63 55v595c0 34 31 64 70 64c38 0 70 -30 70 -64v-595c0 -34 -32 -64 -70 -64c-39 0 -70 30 -70 64zM290 843c0 -42 -51 -73 -90 -73c-53 0 -81 36 -111 40s-32 -36 -65 -36c-21 0 -43 16 -46 41c0 46 43 80 88 80c56 0 81 -40 112 -40s30 36 63 36c25 0 49 -20 49 -48z
" />
    <glyph glyph-name="Gcircumflex" unicode="&#x11c;" horiz-adv-x="560" 
d="M175 452v-198c0 -86 30 -140 120 -140c35 0 60 9 83 21v156h-52c-33 0 -63 28 -63 63s30 63 63 63h109c46 0 82 -22 82 -70v-221c0 -94 -124 -134 -227 -134c-175 0 -255 104 -255 262v198c0 158 80 262 255 262c106 0 207 -49 207 -107c0 -32 -28 -60 -66 -60
c-23 0 -30 7 -43 15l-10 6c-25 15 -51 24 -83 24c-90 0 -120 -54 -120 -140zM280 916c16 0 28 -6 37 -13l79 -61c15 -13 26 -28 27 -45c0 -25 -23 -46 -50 -46c-33 0 -65 38 -93 64c-28 -26 -60 -64 -93 -64c-27 0 -50 21 -50 46c1 17 12 32 27 45l79 61c9 7 21 13 37 13z
" />
    <glyph glyph-name="Ccircumflex" unicode="&#x108;" horiz-adv-x="522" 
d="M175 452v-198c0 -86 30 -140 120 -140c32 0 58 8 83 24l10 6c13 8 20 15 43 15c38 0 66 -28 66 -60c0 -58 -101 -107 -207 -107c-175 0 -255 104 -255 262v198c0 158 80 262 255 262c106 0 207 -49 207 -107c0 -32 -28 -60 -66 -60c-23 0 -30 7 -43 15l-10 6
c-25 16 -51 24 -83 24c-90 0 -120 -54 -120 -140zM261 916c16 0 28 -6 37 -13l79 -61c15 -13 26 -28 27 -45c0 -25 -23 -46 -50 -46c-33 0 -65 38 -93 64c-28 -26 -60 -64 -93 -64c-27 0 -50 21 -50 46c1 17 12 32 27 45l79 61c9 7 21 13 37 13z" />
    <glyph glyph-name="Cdotaccent" unicode="&#x10a;" horiz-adv-x="522" 
d="M175 452v-198c0 -86 30 -140 120 -140c32 0 58 8 83 24l10 6c13 8 20 15 43 15c38 0 66 -28 66 -60c0 -58 -101 -107 -207 -107c-175 0 -255 104 -255 262v198c0 158 80 262 255 262c106 0 207 -49 207 -107c0 -32 -28 -60 -66 -60c-23 0 -30 7 -43 15l-10 6
c-25 16 -51 24 -83 24c-90 0 -120 -54 -120 -140zM326 815c0 -35 -29 -63 -66 -63c-36 0 -64 29 -64 63c0 33 28 61 64 61c37 0 66 -27 66 -61z" />
    <glyph glyph-name="Ebreve" unicode="&#x114;" horiz-adv-x="514" 
d="M491 65c0 -36 -32 -65 -70 -65h-265c-49 0 -93 17 -93 71v563c0 35 33 71 77 71h271c38 0 70 -30 70 -65c0 -36 -32 -62 -70 -62h-208v-161h189c35 0 69 -27 69 -63s-30 -64 -69 -64h-189v-163h218c37 0 70 -28 70 -62zM257 845c18 0 40 11 59 31c11 15 28 23 46 23
c27 0 54 -18 44 -56c-16 -58 -95 -90 -149 -90s-131 32 -149 90c-10 38 17 56 44 56c17 0 35 -8 45 -23c20 -20 42 -31 60 -31z" />
    <glyph glyph-name="Ycircumflex" unicode="&#x176;" horiz-adv-x="530" 
d="M265 -9c-40 0 -71 30 -71 66v219l-176 344c-3 7 -6 19 -6 29c0 35 35 65 71 65c21 0 45 -9 57 -30l125 -248l124 248c12 21 36 30 58 30c36 0 71 -30 71 -65c0 -9 -4 -20 -7 -29l-175 -344v-219c0 -35 -31 -66 -71 -66zM265 916c16 0 28 -6 37 -13l79 -61
c15 -13 26 -28 27 -45c0 -25 -23 -46 -50 -46c-33 0 -65 38 -93 64c-28 -26 -60 -64 -93 -64c-27 0 -50 21 -50 46c1 17 12 32 27 45l79 61c9 7 21 13 37 13z" />
    <glyph glyph-name="Hcircumflex" unicode="&#x124;" horiz-adv-x="620" 
d="M556 56c0 -35 -32 -65 -70 -65c-37 0 -70 30 -70 65v233h-213v-233c0 -35 -32 -65 -70 -65c-39 0 -70 30 -70 65v594c0 34 31 64 70 64c38 0 70 -30 70 -64v-233h213v233c0 34 33 64 70 64s70 -30 70 -64v-594zM310 916c16 0 28 -6 37 -13l79 -61c15 -13 26 -28 27 -45
c0 -25 -23 -46 -50 -46c-33 0 -65 38 -93 64c-28 -26 -60 -64 -93 -64c-27 0 -50 21 -50 46c1 17 12 32 27 45l79 61c9 7 21 13 37 13z" />
    <glyph glyph-name="Gdotaccent" unicode="&#x120;" horiz-adv-x="560" 
d="M175 452v-198c0 -86 30 -140 120 -140c35 0 60 9 83 21v156h-52c-33 0 -63 28 -63 63s30 63 63 63h109c46 0 82 -22 82 -70v-221c0 -94 -124 -134 -227 -134c-175 0 -255 104 -255 262v198c0 158 80 262 255 262c106 0 207 -49 207 -107c0 -32 -28 -60 -66 -60
c-23 0 -30 7 -43 15l-10 6c-25 15 -51 24 -83 24c-90 0 -120 -54 -120 -140zM345 815c0 -35 -29 -63 -66 -63c-36 0 -64 29 -64 63c0 33 28 61 64 61c37 0 66 -27 66 -61z" />
    <glyph glyph-name="Ygrave" unicode="&#x1ef2;" horiz-adv-x="530" 
d="M265 -9c-40 0 -71 30 -71 66v219l-176 344c-3 7 -6 19 -6 29c0 35 35 65 71 65c21 0 45 -9 57 -30l125 -248l124 248c12 21 36 30 58 30c36 0 71 -30 71 -65c0 -9 -4 -20 -7 -29l-175 -344v-219c0 -35 -31 -66 -71 -66zM239 910l81 -79c8 -7 8 -15 8 -25
c0 -29 -23 -49 -51 -49c-22 0 -30 8 -45 21l-82 82c-7 10 -9 20 -9 28c0 28 26 49 49 49c22 0 29 -7 41 -19z" />
    <glyph glyph-name="Wacute" unicode="&#x1e82;" horiz-adv-x="830" 
d="M495 640l58 -235c14 -55 19 -111 29 -167c10 56 16 112 30 167l64 255c8 32 33 51 64 51c34 0 78 -19 78 -61c0 -2 0 -7 -2 -13l-150 -583c-10 -33 -34 -63 -82 -63s-73 31 -83 64l-59 245c-13 52 -18 107 -27 160c-9 -53 -14 -108 -27 -160l-60 -247
c-9 -29 -29 -62 -82 -62c-41 0 -74 33 -83 63l-147 578c-2 10 -4 19 -4 19c0 37 40 60 75 60c29 0 57 -15 65 -48l66 -258c14 -54 19 -111 29 -166c10 53 15 113 28 166l59 235c12 47 26 74 81 74c51 0 69 -29 80 -74zM329 831l81 79l8 8c12 12 19 19 41 19
c23 0 49 -21 49 -49c0 -8 -2 -18 -9 -28l-82 -82c-15 -13 -23 -21 -45 -21c-28 0 -51 20 -51 49c0 10 2 17 8 25z" />
    <glyph glyph-name="Wcircumflex" unicode="&#x174;" horiz-adv-x="830" 
d="M495 640l58 -235c14 -55 19 -111 29 -167c10 56 16 112 30 167l64 255c8 32 33 51 64 51c34 0 78 -19 78 -61c0 -2 0 -7 -2 -13l-150 -583c-10 -33 -34 -63 -82 -63s-73 31 -83 64l-59 245c-13 52 -18 107 -27 160c-9 -53 -14 -108 -27 -160l-60 -247
c-9 -29 -29 -62 -82 -62c-41 0 -74 33 -83 63l-147 578c-2 10 -4 19 -4 19c0 37 40 60 75 60c29 0 57 -15 65 -48l66 -258c14 -54 19 -111 29 -166c10 53 15 113 28 166l59 235c12 47 26 74 81 74c51 0 69 -29 80 -74zM415 916c16 0 28 -6 37 -13l79 -61
c15 -13 26 -28 27 -45c0 -25 -23 -46 -50 -46c-33 0 -65 38 -93 64c-28 -26 -60 -64 -93 -64c-27 0 -50 21 -50 46c1 17 12 32 27 45l79 61c9 7 21 13 37 13z" />
    <glyph glyph-name="Wdieresis" unicode="&#x1e84;" horiz-adv-x="830" 
d="M495 640l58 -235c14 -55 19 -111 29 -167c10 56 16 112 30 167l64 255c8 32 33 51 64 51c34 0 78 -19 78 -61c0 -2 0 -7 -2 -13l-150 -583c-10 -33 -34 -63 -82 -63s-73 31 -83 64l-59 245c-13 52 -18 107 -27 160c-9 -53 -14 -108 -27 -160l-60 -247
c-9 -29 -29 -62 -82 -62c-41 0 -74 33 -83 63l-147 578c-2 10 -4 19 -4 19c0 37 40 60 75 60c29 0 57 -15 65 -48l66 -258c14 -54 19 -111 29 -166c10 53 15 113 28 166l59 235c12 47 26 74 81 74c51 0 69 -29 80 -74zM569 830c0 -35 -29 -63 -65 -63s-66 29 -66 63
c0 33 30 61 66 61s65 -27 65 -61zM390 830c0 -35 -29 -63 -66 -63c-36 0 -64 29 -64 63c0 33 28 61 64 61c37 0 66 -27 66 -61z" />
    <glyph glyph-name="Wgrave" unicode="&#x1e80;" horiz-adv-x="830" 
d="M495 640l58 -235c14 -55 19 -111 29 -167c10 56 16 112 30 167l64 255c8 32 33 51 64 51c34 0 78 -19 78 -61c0 -2 0 -7 -2 -13l-150 -583c-10 -33 -34 -63 -82 -63s-73 31 -83 64l-59 245c-13 52 -18 107 -27 160c-9 -53 -14 -108 -27 -160l-60 -247
c-9 -29 -29 -62 -82 -62c-41 0 -74 33 -83 63l-147 578c-2 10 -4 19 -4 19c0 37 40 60 75 60c29 0 57 -15 65 -48l66 -258c14 -54 19 -111 29 -166c10 53 15 113 28 166l59 235c12 47 26 74 81 74c51 0 69 -29 80 -74zM419 910l81 -79c8 -7 8 -15 8 -25
c0 -29 -23 -49 -51 -49c-22 0 -30 8 -45 21l-82 82c-7 10 -9 20 -9 28c0 28 26 49 49 49c22 0 29 -7 41 -19z" />
    <glyph glyph-name="Jcircumflex" unicode="&#x134;" horiz-adv-x="425" 
d="M362 650v-415c0 -152 -54 -244 -232 -244c-38 0 -115 4 -115 69c0 40 37 63 65 63c23 0 36 -6 61 -6c67 0 81 45 81 118v415c0 35 30 64 70 64c37 0 70 -30 70 -64zM292 916c16 0 28 -6 37 -13l79 -61c15 -13 26 -28 27 -45c0 -25 -23 -46 -50 -46c-33 0 -65 38 -93 64
c-28 -26 -60 -64 -93 -64c-27 0 -50 21 -50 46c1 17 12 32 27 45l79 61c9 7 21 13 37 13z" />
    <glyph glyph-name="ccircumflex" unicode="&#x109;" horiz-adv-x="443" 
d="M45 184v135c0 107 64 191 207 191c59 0 171 -14 171 -87c0 -24 -12 -51 -62 -51c-10 0 -19 1 -33 6c-21 8 -37 17 -68 17c-55 0 -77 -29 -77 -76v-135c0 -47 22 -76 77 -76c31 0 48 9 68 17c10 4 17 6 31 6c52 0 64 -28 64 -51c0 -72 -112 -87 -172 -87
c-141 0 -206 84 -206 191zM255 716c16 0 28 -6 37 -13l79 -61c15 -13 26 -28 27 -45c0 -25 -23 -46 -50 -46c-33 0 -65 38 -93 64c-28 -26 -60 -64 -93 -64c-27 0 -50 21 -50 46c1 17 12 32 27 45l79 61c9 7 21 13 37 13z" />
    <glyph glyph-name="cdotaccent" unicode="&#x10b;" horiz-adv-x="443" 
d="M45 184v135c0 107 64 191 207 191c59 0 171 -14 171 -87c0 -24 -12 -51 -62 -51c-10 0 -19 1 -33 6c-21 8 -37 17 -68 17c-55 0 -77 -29 -77 -76v-135c0 -47 22 -76 77 -76c31 0 48 9 68 17c10 4 17 6 31 6c52 0 64 -28 64 -51c0 -72 -112 -87 -172 -87
c-141 0 -206 84 -206 191zM286 615c0 -35 -29 -63 -66 -63c-36 0 -64 29 -64 63c0 33 28 61 64 61c37 0 66 -27 66 -61z" />
    <glyph glyph-name="ebreve" unicode="&#x115;" horiz-adv-x="485" 
d="M260 191c-26 0 -48 2 -77 6v-33c0 -34 26 -56 80 -56c32 0 58 8 90 22c4 2 13 6 30 6c48 0 62 -32 62 -55c0 -70 -128 -88 -192 -88c-132 0 -208 76 -208 175v167c0 101 74 178 213 178c131 0 196 -69 196 -170c0 -96 -59 -152 -194 -152zM317 350c0 40 -21 56 -60 56
c-48 0 -74 -25 -74 -65v-43c32 -3 62 -4 72 -4c38 0 62 13 62 56zM242 645c18 0 40 11 59 31c11 15 28 23 46 23c27 0 54 -18 44 -56c-16 -58 -95 -90 -149 -90s-131 32 -149 90c-10 38 17 56 44 56c17 0 35 -8 45 -23c20 -20 42 -31 60 -31z" />
    <glyph glyph-name="gcircumflex" unicode="&#x11d;" horiz-adv-x="533" 
d="M35 -80c0 39 17 72 64 110c-16 28 -21 61 -21 82c0 23 7 47 28 73c-43 36 -64 83 -64 138c0 108 72 190 200 190c51 0 91 -13 134 -34c27 37 60 55 88 55c34 0 65 -25 65 -58c0 -17 -9 -30 -16 -36c-35 -31 -45 -40 -45 -68v-56c0 -103 -69 -182 -215 -182
c-16 0 -37 1 -55 5c-5 -13 -6 -16 -6 -23c0 -28 16 -32 28 -32h42c130 0 230 -48 230 -154s-99 -172 -235 -172c-131 0 -222 62 -222 162zM330 385c-26 11 -48 17 -71 17c-51 0 -79 -29 -79 -81c0 -48 23 -79 77 -79c50 0 73 28 73 73v70zM264 -29l-73 1
c-12 -15 -18 -26 -18 -42c0 -37 28 -59 86 -59c57 0 95 21 95 56c0 30 -28 44 -90 44zM266 716c16 0 28 -6 37 -13l79 -61c15 -13 26 -28 27 -45c0 -25 -23 -46 -50 -46c-33 0 -65 38 -93 64c-28 -26 -60 -64 -93 -64c-27 0 -50 21 -50 46c1 17 12 32 27 45l79 61
c9 7 21 13 37 13z" />
    <glyph glyph-name="gdotaccent" unicode="&#x121;" horiz-adv-x="533" 
d="M35 -80c0 39 17 72 64 110c-16 28 -21 61 -21 82c0 23 7 47 28 73c-43 36 -64 83 -64 138c0 108 72 190 200 190c51 0 91 -13 134 -34c27 37 60 55 88 55c34 0 65 -25 65 -58c0 -17 -9 -30 -16 -36c-35 -31 -45 -40 -45 -68v-56c0 -103 -69 -182 -215 -182
c-16 0 -37 1 -55 5c-5 -13 -6 -16 -6 -23c0 -28 16 -32 28 -32h42c130 0 230 -48 230 -154s-99 -172 -235 -172c-131 0 -222 62 -222 162zM330 385c-26 11 -48 17 -71 17c-51 0 -79 -29 -79 -81c0 -48 23 -79 77 -79c50 0 73 28 73 73v70zM264 -29l-73 1
c-12 -15 -18 -26 -18 -42c0 -37 28 -59 86 -59c57 0 95 21 95 56c0 30 -28 44 -90 44zM331 615c0 -35 -29 -63 -66 -63c-36 0 -64 29 -64 63c0 33 28 61 64 61c37 0 66 -27 66 -61z" />
    <glyph glyph-name="jcircumflex" unicode="&#x135;" horiz-adv-x="285" 
d="M211 463v-449c0 -112 -60 -186 -167 -200c-8 -1 -15 -1 -23 -1c-31 0 -55 17 -62 45v-1c-13 46 25 69 52 74c37 8 62 29 62 79v453c0 34 30 63 69 63s69 -29 69 -63zM143 716c16 0 28 -6 37 -13l79 -61c15 -13 26 -28 27 -45c0 -25 -23 -46 -50 -46c-33 0 -65 38 -93 64
c-28 -26 -60 -64 -93 -64c-27 0 -50 21 -50 46c1 17 12 32 27 45l79 61c9 7 21 13 37 13z" />
    <glyph glyph-name="wacute" unicode="&#x1e83;" horiz-adv-x="695" 
d="M409 43l-42 160c-11 40 -13 81 -19 122c-6 -41 -9 -82 -19 -122l-41 -160c-10 -36 -35 -50 -76 -50c-44 0 -67 22 -79 60l-116 384c-2 5 -2 9 -2 13c0 31 30 60 69 60c29 0 57 -16 65 -45l43 -165c13 -50 13 -101 20 -152c8 51 10 102 23 152l40 159c8 29 34 51 74 51
c39 0 65 -22 72 -51l39 -159c12 -50 16 -102 24 -153c7 51 7 103 20 153l43 165c7 25 36 45 65 45c36 0 68 -26 68 -61c0 -1 -1 -7 -1 -10l-116 -387c-12 -39 -31 -59 -79 -59c-34 0 -66 18 -75 50zM262 631l81 79l8 8c12 12 19 19 41 19c23 0 49 -21 49 -49
c0 -8 -2 -18 -9 -28l-82 -82c-15 -13 -23 -21 -45 -21c-28 0 -51 20 -51 49c0 10 2 17 8 25z" />
    <glyph glyph-name="wcircumflex" unicode="&#x175;" horiz-adv-x="695" 
d="M409 43l-42 160c-11 40 -13 81 -19 122c-6 -41 -9 -82 -19 -122l-41 -160c-10 -36 -35 -50 -76 -50c-44 0 -67 22 -79 60l-116 384c-2 5 -2 9 -2 13c0 31 30 60 69 60c29 0 57 -16 65 -45l43 -165c13 -50 13 -101 20 -152c8 51 10 102 23 152l40 159c8 29 34 51 74 51
c39 0 65 -22 72 -51l39 -159c12 -50 16 -102 24 -153c7 51 7 103 20 153l43 165c7 25 36 45 65 45c36 0 68 -26 68 -61c0 -1 -1 -7 -1 -10l-116 -387c-12 -39 -31 -59 -79 -59c-34 0 -66 18 -75 50zM347 716c16 0 28 -6 37 -13l79 -61c15 -13 26 -28 27 -45
c0 -25 -23 -46 -50 -46c-33 0 -65 38 -93 64c-28 -26 -60 -64 -93 -64c-27 0 -50 21 -50 46c1 17 12 32 27 45l79 61c9 7 21 13 37 13z" />
    <glyph glyph-name="wdieresis" unicode="&#x1e85;" horiz-adv-x="695" 
d="M409 43l-42 160c-11 40 -13 81 -19 122c-6 -41 -9 -82 -19 -122l-41 -160c-10 -36 -35 -50 -76 -50c-44 0 -67 22 -79 60l-116 384c-2 5 -2 9 -2 13c0 31 30 60 69 60c29 0 57 -16 65 -45l43 -165c13 -50 13 -101 20 -152c8 51 10 102 23 152l40 159c8 29 34 51 74 51
c39 0 65 -22 72 -51l39 -159c12 -50 16 -102 24 -153c7 51 7 103 20 153l43 165c7 25 36 45 65 45c36 0 68 -26 68 -61c0 -1 -1 -7 -1 -10l-116 -387c-12 -39 -31 -59 -79 -59c-34 0 -66 18 -75 50zM502 630c0 -35 -29 -63 -65 -63s-66 29 -66 63c0 33 30 61 66 61
s65 -27 65 -61zM323 630c0 -35 -29 -63 -66 -63c-36 0 -64 29 -64 63c0 33 28 61 64 61c37 0 66 -27 66 -61z" />
    <glyph glyph-name="wgrave" unicode="&#x1e81;" horiz-adv-x="695" 
d="M409 43l-42 160c-11 40 -13 81 -19 122c-6 -41 -9 -82 -19 -122l-41 -160c-10 -36 -35 -50 -76 -50c-44 0 -67 22 -79 60l-116 384c-2 5 -2 9 -2 13c0 31 30 60 69 60c29 0 57 -16 65 -45l43 -165c13 -50 13 -101 20 -152c8 51 10 102 23 152l40 159c8 29 34 51 74 51
c39 0 65 -22 72 -51l39 -159c12 -50 16 -102 24 -153c7 51 7 103 20 153l43 165c7 25 36 45 65 45c36 0 68 -26 68 -61c0 -1 -1 -7 -1 -10l-116 -387c-12 -39 -31 -59 -79 -59c-34 0 -66 18 -75 50zM352 710l81 -79c8 -7 8 -15 8 -25c0 -29 -23 -49 -51 -49
c-22 0 -30 8 -45 21l-82 82c-7 10 -9 20 -9 28c0 28 26 49 49 49c22 0 29 -7 41 -19z" />
    <glyph glyph-name="ygrave" unicode="&#x1ef3;" horiz-adv-x="474" 
d="M271 300l54 168c9 29 38 42 65 42c35 0 69 -25 69 -61c0 -7 -1 -13 -3 -18l-122 -356c-55 -162 -93 -278 -245 -278c-40 0 -70 25 -70 60c0 30 25 58 66 60c44 2 66 34 90 112l-154 397c-4 10 -5 19 -5 25c0 34 30 59 69 59c27 0 52 -14 63 -42l63 -168
c14 -36 21 -78 32 -115c9 37 16 79 28 115zM241 710l81 -79c8 -7 8 -15 8 -25c0 -29 -23 -49 -51 -49c-22 0 -30 8 -45 21l-82 82c-7 10 -9 20 -9 28c0 28 26 49 49 49c22 0 29 -7 41 -19z" />
    <glyph glyph-name="ibreve" unicode="&#x12d;" horiz-adv-x="285" 
d="M211 55c0 -35 -30 -62 -69 -62s-69 27 -69 62v394c0 33 30 61 69 61s69 -28 69 -61v-394zM143 645c18 0 40 11 59 31c11 15 28 23 46 23c27 0 54 -18 44 -56c-16 -58 -95 -90 -149 -90s-131 32 -149 90c-10 38 17 56 44 56c17 0 35 -8 45 -23c20 -20 42 -31 60 -31z" />
    <glyph glyph-name="uni20B4" unicode="&#x20b4;" horiz-adv-x="540" 
d="M56 454h250c31 26 44 41 44 72c0 46 -27 61 -74 61c-35 0 -58 -8 -77 -15c-21 -7 -36 -11 -51 -11c-42 0 -68 30 -68 63c0 75 139 90 206 90c119 0 184 -46 184 -160c0 -37 -7 -68 -25 -100h39c20 0 39 -16 39 -37s-17 -37 -39 -37h-97c-16 -17 -35 -36 -57 -56h154
c20 0 39 -16 39 -37s-17 -37 -39 -37h-238c-30 -29 -41 -45 -41 -73c0 -49 33 -62 75 -62c59 0 81 26 124 26c48 0 71 -32 71 -63c0 -75 -140 -90 -206 -90c-114 0 -184 44 -184 156c0 36 7 69 26 106h-55c-22 0 -39 16 -39 37s19 37 39 37h109c15 17 34 36 55 56h-164
c-22 0 -39 16 -39 37s19 37 39 37z" />
    <glyph glyph-name="uni20BD" unicode="&#x20bd;" horiz-adv-x="540" 
d="M258 260h-45v-52h104c20 0 39 -16 39 -37s-17 -37 -39 -37h-104v-77c0 -35 -32 -66 -70 -66c-37 0 -70 30 -70 66v77h-24c-22 0 -39 16 -39 37s19 37 39 37h24v56h-24c-22 0 -39 16 -39 37s19 37 39 37h24v295c0 39 36 72 78 72h107c188 0 255 -112 255 -234
c0 -136 -100 -211 -255 -211zM213 578v-211h45c74 0 115 33 115 105c0 52 -21 106 -115 106h-45z" />
    <glyph glyph-name="zero.numerator" 
d="M135 652c-33 0 -46 -22 -46 -54v-141c0 -29 16 -48 46 -48s46 19 46 48v141c0 32 -13 54 -46 54zM135 713c80 0 115 -53 115 -119v-137c0 -61 -41 -110 -115 -110c-75 0 -116 49 -116 110v137c0 66 35 119 116 119z" />
    <glyph glyph-name="one.numerator" 
d="M130 380v243l-39 -24c-10 -6 -18 -11 -30 -11c-15 0 -32 8 -32 29c0 13 6 23 16 28l99 58c7 4 12 6 19 6c21 0 37 -15 37 -34v-295c0 -17 -16 -32 -35 -32s-35 15 -35 32z" />
    <glyph glyph-name="two.numerator" 
d="M252 383c0 -17 -15 -31 -35 -31h-164c-21 0 -36 14 -36 33c0 7 1 16 4 23c20 44 57 76 92 108c28 25 68 54 68 91c0 25 -16 45 -47 45c-17 0 -30 -3 -42 -8c-11 -4 -21 -13 -36 -13c-17 0 -34 12 -34 30c0 37 72 52 112 52c73 0 116 -45 116 -101c0 -43 -17 -71 -40 -95
c-33 -35 -77 -66 -104 -103h111c20 0 35 -13 35 -31z" />
    <glyph glyph-name="three.numerator" 
d="M230 648l-68 -81c52 -9 87 -46 87 -100s-38 -119 -125 -119c-23 0 -103 6 -103 48c0 16 14 31 33 31c21 0 34 -19 68 -19c43 0 57 30 57 56c0 33 -22 46 -57 46c-13 0 -13 -5 -25 -5c-18 0 -33 14 -33 33c0 5 1 9 4 12l74 90h-80c-20 0 -35 14 -35 32s15 33 35 33h139
c22 0 37 -15 37 -34c0 -9 -3 -17 -8 -23z" />
    <glyph glyph-name="four.numerator" 
d="M227 420v-41c0 -18 -15 -31 -35 -31c-19 0 -34 13 -34 31v41h-110c-21 0 -36 16 -36 34c0 2 2 11 5 18l96 221c5 12 18 20 31 20c17 0 35 -15 35 -33c0 -3 0 -6 -2 -11c-29 -67 -53 -119 -82 -186h63v76c0 18 15 32 34 32s35 -14 35 -32v-76h6c19 0 34 -15 34 -31
c0 -18 -15 -32 -34 -32h-6z" />
    <glyph glyph-name="five.numerator" 
d="M249 469c0 -58 -34 -121 -116 -121c-24 0 -112 6 -112 48c0 16 14 31 33 31c20 0 34 -19 67 -19c45 0 58 30 58 59c0 37 -21 54 -48 54c-11 0 -19 -2 -27 -6c0 0 -20 -16 -36 -16c-20 0 -36 14 -35 34l5 138c0 21 19 34 38 34h120c18 0 38 -9 38 -32
c0 -22 -20 -30 -38 -30h-93l-3 -65c10 3 21 4 32 4c69 0 117 -42 117 -113z" />
    <glyph glyph-name="six.numerator" 
d="M147 648c-48 1 -57 -35 -60 -82c19 11 35 15 54 15c61 0 113 -38 113 -114c0 -65 -39 -120 -119 -120c-93 0 -120 73 -120 172c0 122 41 190 126 190c20 0 87 -4 91 -39c2 -16 -10 -31 -31 -31c-16 0 -31 9 -54 9zM85 501v-6c0 -44 9 -84 52 -84c36 0 48 26 48 55
c0 36 -19 52 -49 52c-20 0 -39 -6 -51 -17z" />
    <glyph glyph-name="seven.numerator" 
d="M250 671c0 -3 -1 -10 -3 -14l-125 -289c-4 -9 -12 -20 -31 -20c-18 0 -36 10 -36 29c0 3 1 9 3 14l109 250h-113c-18 0 -34 14 -34 32c0 17 15 32 34 32h160c19 0 36 -15 36 -34z" />
    <glyph glyph-name="eight.numerator" 
d="M260 455c0 -62 -51 -108 -125 -108c-73 0 -126 45 -126 106c0 39 21 66 49 85c-23 17 -37 41 -37 73c0 61 52 97 113 97c64 0 113 -39 113 -95c0 -29 -13 -53 -37 -72c29 -19 50 -46 50 -86zM179 611c0 22 -20 37 -44 37c-25 0 -45 -15 -45 -37c0 -23 21 -38 46 -43
c24 6 43 22 43 43zM191 455c0 28 -27 46 -58 52c-31 -6 -55 -25 -55 -52s25 -47 57 -47s56 21 56 47z" />
    <glyph glyph-name="nine.numerator" 
d="M123 408c47 -1 56 35 60 82c-19 -11 -36 -15 -54 -15c-61 0 -114 38 -114 114c0 65 39 120 120 120c92 0 119 -73 119 -172c0 -122 -40 -190 -125 -190c-21 0 -88 4 -92 39c-2 16 10 31 31 31c17 0 31 -9 55 -9zM184 555v6c0 44 -9 84 -52 84c-35 0 -47 -26 -47 -55
c0 -36 18 -52 49 -52c19 0 39 6 50 17z" />
    <glyph glyph-name="parenleft.numerator" horiz-adv-x="158" 
d="M97 527c0 -60 14 -121 46 -173c3 -6 7 -12 7 -20c0 -16 -11 -33 -34 -33c-12 0 -23 5 -30 15c-41 63 -59 140 -59 211c0 72 18 148 59 211c7 11 18 16 30 16c23 0 34 -17 34 -34c0 -7 -4 -13 -7 -19c-32 -52 -46 -113 -46 -174z" />
    <glyph glyph-name="parenright.numerator" horiz-adv-x="157" 
d="M60 527c0 61 -14 122 -46 174c-3 6 -7 12 -7 19c0 17 11 34 34 34c12 0 23 -5 30 -16c41 -63 59 -139 59 -211c0 -71 -18 -148 -59 -211c-7 -10 -18 -15 -30 -15c-23 0 -34 17 -34 33c0 8 4 14 7 20c32 52 46 113 46 173z" />
    <glyph glyph-name="hyphen.numerator" horiz-adv-x="219" 
d="M205 502c0 -18 -15 -31 -33 -31h-125c-19 0 -33 13 -33 31c0 16 14 30 33 30h125c18 0 33 -14 33 -30z" />
    <glyph glyph-name="comma.numerator" horiz-adv-x="135" 
d="M41 304c2 17 13 23 17 45c-19 4 -33 19 -33 37c0 21 19 39 42 39c22 0 42 -16 42 -41c0 -30 -22 -102 -47 -102c-8 0 -23 3 -21 22z" />
    <glyph glyph-name="period.numerator" horiz-adv-x="135" 
d="M109 386c0 -21 -19 -39 -42 -39s-42 18 -42 39s19 39 42 39s42 -18 42 -39z" />
    <glyph glyph-name="zero.denominator" 
d="M135 300c-33 0 -46 -22 -46 -54v-141c0 -29 16 -48 46 -48s46 19 46 48v141c0 32 -13 54 -46 54zM135 361c80 0 115 -53 115 -119v-137c0 -61 -41 -110 -115 -110c-75 0 -116 49 -116 110v137c0 66 35 119 116 119z" />
    <glyph glyph-name="one.denominator" 
d="M130 28v243l-39 -24c-10 -6 -18 -11 -30 -11c-15 0 -32 8 -32 29c0 13 6 23 16 28l99 58c7 4 12 6 19 6c21 0 37 -15 37 -34v-295c0 -17 -16 -32 -35 -32s-35 15 -35 32z" />
    <glyph glyph-name="two.denominator" 
d="M252 31c0 -17 -15 -31 -35 -31h-164c-21 0 -36 14 -36 33c0 7 1 16 4 23c20 44 57 76 92 108c28 25 68 54 68 91c0 25 -16 45 -47 45c-17 0 -30 -3 -42 -8c-11 -4 -21 -13 -36 -13c-17 0 -34 12 -34 30c0 37 72 52 112 52c73 0 116 -45 116 -101c0 -43 -17 -71 -40 -95
c-33 -35 -77 -66 -104 -103h111c20 0 35 -13 35 -31z" />
    <glyph glyph-name="three.denominator" 
d="M230 296l-68 -81c52 -9 87 -46 87 -100s-38 -119 -125 -119c-23 0 -103 6 -103 48c0 16 14 31 33 31c21 0 34 -19 68 -19c43 0 57 30 57 56c0 33 -22 46 -57 46c-13 0 -13 -5 -25 -5c-18 0 -33 14 -33 33c0 5 1 9 4 12l74 90h-80c-20 0 -35 14 -35 32s15 33 35 33h139
c22 0 37 -15 37 -34c0 -9 -3 -17 -8 -23z" />
    <glyph glyph-name="four.denominator" 
d="M227 68v-41c0 -18 -15 -31 -35 -31c-19 0 -34 13 -34 31v41h-110c-21 0 -36 16 -36 34c0 2 2 11 5 18l96 221c5 12 18 20 31 20c17 0 35 -15 35 -33c0 -3 0 -6 -2 -11c-29 -67 -53 -119 -82 -186h63v76c0 18 15 32 34 32s35 -14 35 -32v-76h6c19 0 34 -15 34 -31
c0 -18 -15 -32 -34 -32h-6z" />
    <glyph glyph-name="five.denominator" 
d="M249 117c0 -58 -34 -121 -116 -121c-24 0 -112 6 -112 48c0 16 14 31 33 31c20 0 34 -19 67 -19c45 0 58 30 58 59c0 37 -21 54 -48 54c-11 0 -19 -2 -27 -6c0 0 -20 -16 -36 -16c-20 0 -36 14 -35 34l5 138c0 21 19 34 38 34h120c18 0 38 -9 38 -32
c0 -22 -20 -30 -38 -30h-93l-3 -65c10 3 21 4 32 4c69 0 117 -42 117 -113z" />
    <glyph glyph-name="six.denominator" 
d="M147 296c-48 1 -57 -35 -60 -82c19 11 35 15 54 15c61 0 113 -38 113 -114c0 -65 -39 -120 -119 -120c-93 0 -120 73 -120 172c0 122 41 190 126 190c20 0 87 -4 91 -39c2 -16 -10 -31 -31 -31c-16 0 -31 9 -54 9zM85 149v-6c0 -44 9 -84 52 -84c36 0 48 26 48 55
c0 36 -19 52 -49 52c-20 0 -39 -6 -51 -17z" />
    <glyph glyph-name="seven.denominator" 
d="M250 319c0 -3 -1 -10 -3 -14l-125 -289c-4 -9 -12 -20 -31 -20c-18 0 -36 10 -36 29c0 3 1 9 3 14l109 250h-113c-18 0 -34 14 -34 32c0 17 15 32 34 32h160c19 0 36 -15 36 -34z" />
    <glyph glyph-name="eight.denominator" 
d="M260 103c0 -62 -51 -108 -125 -108c-73 0 -126 45 -126 106c0 39 21 66 49 85c-23 17 -37 41 -37 73c0 61 52 97 113 97c64 0 113 -39 113 -95c0 -29 -13 -53 -37 -72c29 -19 50 -46 50 -86zM179 259c0 22 -20 37 -44 37c-25 0 -45 -15 -45 -37c0 -23 21 -38 46 -43
c24 6 43 22 43 43zM191 103c0 28 -27 46 -58 52c-31 -6 -55 -25 -55 -52s25 -47 57 -47s56 21 56 47z" />
    <glyph glyph-name="nine.denominator" 
d="M123 56c47 -1 56 35 60 82c-19 -11 -36 -15 -54 -15c-61 0 -114 38 -114 114c0 65 39 120 120 120c92 0 119 -73 119 -172c0 -122 -40 -190 -125 -190c-21 0 -88 4 -92 39c-2 16 10 31 31 31c17 0 31 -9 55 -9zM184 203v6c0 44 -9 84 -52 84c-35 0 -47 -26 -47 -55
c0 -36 18 -52 49 -52c19 0 39 6 50 17z" />
    <glyph glyph-name="parenleft.denominator" horiz-adv-x="158" 
d="M97 175c0 -60 14 -121 46 -173c3 -6 7 -12 7 -20c0 -16 -11 -33 -34 -33c-12 0 -23 5 -30 15c-41 63 -59 140 -59 211c0 72 18 148 59 211c7 11 18 16 30 16c23 0 34 -17 34 -34c0 -7 -4 -13 -7 -19c-32 -52 -46 -113 -46 -174z" />
    <glyph glyph-name="parenright.denominator" horiz-adv-x="157" 
d="M60 175c0 61 -14 122 -46 174c-3 6 -7 12 -7 19c0 17 11 34 34 34c12 0 23 -5 30 -16c41 -63 59 -139 59 -211c0 -71 -18 -148 -59 -211c-7 -10 -18 -15 -30 -15c-23 0 -34 17 -34 33c0 8 4 14 7 20c32 52 46 113 46 173z" />
    <glyph glyph-name="hyphen.denominator" horiz-adv-x="219" 
d="M205 150c0 -18 -15 -31 -33 -31h-125c-19 0 -33 13 -33 31c0 16 14 30 33 30h125c18 0 33 -14 33 -30z" />
    <glyph glyph-name="comma.denominator" horiz-adv-x="135" 
d="M41 -48c2 17 13 23 17 45c-19 4 -33 19 -33 37c0 21 19 39 42 39c22 0 42 -16 42 -41c0 -30 -22 -102 -47 -102c-8 0 -23 3 -21 22z" />
    <glyph glyph-name="period.denominator" horiz-adv-x="135" 
d="M109 34c0 -21 -19 -39 -42 -39s-42 18 -42 39s19 39 42 39s42 -18 42 -39z" />
    <glyph glyph-name="zerosuperior" unicode="&#x2070;" 
d="M135 692c-33 0 -46 -22 -46 -54v-141c0 -29 16 -48 46 -48s46 19 46 48v141c0 32 -13 54 -46 54zM135 753c80 0 115 -53 115 -119v-137c0 -61 -41 -110 -115 -110c-75 0 -116 49 -116 110v137c0 66 35 119 116 119z" />
    <glyph glyph-name="onesuperior" unicode="&#xb9;" 
d="M130 420v243l-39 -24c-10 -6 -18 -11 -30 -11c-15 0 -32 8 -32 29c0 13 6 23 16 28l99 58c7 4 12 6 19 6c21 0 37 -15 37 -34v-295c0 -17 -16 -32 -35 -32s-35 15 -35 32z" />
    <glyph glyph-name="twosuperior" unicode="&#xb2;" 
d="M252 423c0 -17 -15 -31 -35 -31h-164c-21 0 -36 14 -36 33c0 7 1 16 4 23c20 44 57 76 92 108c28 25 68 54 68 91c0 25 -16 45 -47 45c-17 0 -30 -3 -42 -8c-11 -4 -21 -13 -36 -13c-17 0 -34 12 -34 30c0 37 72 52 112 52c73 0 116 -45 116 -101c0 -43 -17 -71 -40 -95
c-33 -35 -77 -66 -104 -103h111c20 0 35 -13 35 -31z" />
    <glyph glyph-name="threesuperior" unicode="&#xb3;" 
d="M230 688l-68 -81c52 -9 87 -46 87 -100s-38 -119 -125 -119c-23 0 -103 6 -103 48c0 16 14 31 33 31c21 0 34 -19 68 -19c43 0 57 30 57 56c0 33 -22 46 -57 46c-13 0 -13 -5 -25 -5c-18 0 -33 14 -33 33c0 5 1 9 4 12l74 90h-80c-20 0 -35 14 -35 32s15 33 35 33h139
c22 0 37 -15 37 -34c0 -9 -3 -17 -8 -23z" />
    <glyph glyph-name="foursuperior" unicode="&#x2074;" 
d="M227 460v-41c0 -18 -15 -31 -35 -31c-19 0 -34 13 -34 31v41h-110c-21 0 -36 16 -36 34c0 2 2 11 5 18l96 221c5 12 18 20 31 20c17 0 35 -15 35 -33c0 -3 0 -6 -2 -11c-29 -67 -53 -119 -82 -186h63v76c0 18 15 32 34 32s35 -14 35 -32v-76h6c19 0 34 -15 34 -31
c0 -18 -15 -32 -34 -32h-6z" />
    <glyph glyph-name="fivesuperior" unicode="&#x2075;" 
d="M249 509c0 -58 -34 -121 -116 -121c-24 0 -112 6 -112 48c0 16 14 31 33 31c20 0 34 -19 67 -19c45 0 58 30 58 59c0 37 -21 54 -48 54c-11 0 -19 -2 -27 -6c0 0 -20 -16 -36 -16c-20 0 -36 14 -35 34l5 138c0 21 19 34 38 34h120c18 0 38 -9 38 -32
c0 -22 -20 -30 -38 -30h-93l-3 -65c10 3 21 4 32 4c69 0 117 -42 117 -113z" />
    </font>
</defs>
</svg>
