<?xml version="1.0" standalone="no"?>
<!DOCTYPE svg PUBLIC "-//W3C//DTD SVG 1.1//EN" "http://www.w3.org/Graphics/SVG/1.1/DTD/svg11.dtd" >
<svg xmlns="http://www.w3.org/2000/svg" xmlns:xlink="http://www.w3.org/1999/xlink" version="1.1">
<metadata>
Created by FontForge 20190801 at Fri Nov 28 12:15:36 2014
 By Jimmy Wärting
(c) 2014 Sergiy S. Tkachenko / 4th february
(c) 2014 FirstSiteGuide.com
http://creativecommons.org/licenses/by-nd/4.0/
</metadata>
<defs>
<font id="BloggerSans-BoldItalic" horiz-adv-x="270" >
  <font-face 
    font-family="Blogger Sans"
    font-weight="700"
    font-style="italic"
    font-stretch="squinchy"
    units-per-em="1000"
    panose-1="2 0 5 6 3 0 0 2 0 4"
    ascent="760"
    descent="-240"
    x-height="505"
    cap-height="706"
    bbox="-65.8939 -238 1029 953"
    underline-thickness="20"
    underline-position="-143"
    stemh="75"
    stemv="78"
    unicode-range="U+0020-F0434"
  />
<missing-glyph horiz-adv-x="760" 
 />
    <glyph glyph-name="uni0457_uni0457" unicode="&#x457;&#x457;" horiz-adv-x="560" 
d="M434 637c0 -38 -36 -70 -74 -70c-34 0 -58 26 -58 56c0 37 36 68 75 68c33 0 57 -24 57 -54zM207 637c0 -38 -35 -70 -75 -70c-33 0 -56 25 -56 56c0 36 34 68 73 68c34 0 58 -24 58 -54zM88 111l48 338c5 33 39 61 78 61s65 -28 60 -61l-46 -326c-3 -21 -3 -26 9 -41
c7 -9 13 -15 13 -29c0 -39 -31 -60 -83 -60c-40 0 -94 13 -79 118zM661 637c0 -38 -35 -70 -74 -70c-33 0 -58 26 -58 56c0 37 36 68 75 68c33 0 57 -24 57 -54zM363 111l48 338c5 33 39 61 78 61s65 -28 60 -61l-46 -326c-3 -21 -3 -26 9 -41c7 -9 13 -15 13 -29
c0 -39 -31 -60 -83 -60c-40 0 -94 13 -79 118z" />
    <glyph glyph-name="ff" unicode="ff" horiz-adv-x="728" 
d="M43 -152l95 679c19 132 121 194 232 194c25 0 113 0 113 -59c0 -42 -38 -67 -77 -67c-19 0 -39 6 -58 6c-42 0 -66 -31 -71 -67l-7 -49h74c34 0 58 -23 58 -53c0 -38 -34 -66 -74 -66h-74l-73 -518c-5 -34 -34 -60 -78 -60s-65 26 -60 60zM402 -152l95 679
c19 132 121 194 232 194c25 0 113 0 113 -59c0 -42 -38 -67 -77 -67c-19 0 -39 6 -58 6c-42 0 -66 -31 -71 -67l-7 -49h74c34 0 58 -23 58 -53c0 -38 -34 -66 -74 -66h-74l-73 -518c-5 -34 -34 -60 -78 -60s-65 26 -60 60z" />
    <glyph glyph-name="fi" unicode="fi" horiz-adv-x="644" 
d="M43 -152l95 679c19 132 121 194 232 194c25 0 113 0 113 -59c0 -42 -38 -67 -77 -67c-19 0 -39 6 -58 6c-42 0 -66 -31 -71 -67l-7 -49h74c34 0 58 -23 58 -53c0 -38 -34 -66 -74 -66h-74l-73 -518c-5 -34 -34 -60 -78 -60s-65 26 -60 60zM670 651c0 -42 -40 -77 -88 -77
c-41 0 -69 28 -69 63c0 42 41 77 89 77c40 0 68 -28 68 -63zM447 111l48 338c5 33 39 61 78 61s65 -28 60 -61l-46 -326c-3 -21 -3 -26 9 -41c7 -9 13 -15 13 -29c0 -39 -31 -60 -83 -60c-40 0 -94 13 -79 118z" />
    <glyph glyph-name="fl" unicode="fl" horiz-adv-x="627" 
d="M43 -152l95 679c19 132 121 194 232 194c25 0 113 0 113 -59c0 -42 -38 -67 -77 -67c-19 0 -39 6 -58 6c-42 0 -66 -31 -71 -67l-7 -49h74c34 0 58 -23 58 -53c0 -38 -34 -66 -74 -66h-74l-73 -518c-5 -34 -34 -60 -78 -60s-65 26 -60 60zM518 -7c-40 0 -94 13 -79 118
l77 549c5 33 39 62 78 62s65 -27 60 -62l-76 -537c-3 -21 -2 -26 10 -41c7 -9 13 -15 13 -29c0 -39 -31 -60 -83 -60z" />
    <glyph glyph-name="ffi" unicode="ffi" horiz-adv-x="1003" 
d="M43 -152l95 679c19 132 121 194 232 194c25 0 113 0 113 -59c0 -42 -38 -67 -77 -67c-19 0 -39 6 -58 6c-42 0 -66 -31 -71 -67l-7 -49h74c34 0 58 -23 58 -53c0 -38 -34 -66 -74 -66h-74l-73 -518c-5 -34 -34 -60 -78 -60s-65 26 -60 60zM402 -152l95 679
c19 132 121 194 232 194c25 0 113 0 113 -59c0 -42 -38 -67 -77 -67c-19 0 -39 6 -58 6c-42 0 -66 -31 -71 -67l-7 -49h74c34 0 58 -23 58 -53c0 -38 -34 -66 -74 -66h-74l-73 -518c-5 -34 -34 -60 -78 -60s-65 26 -60 60zM1029 651c0 -42 -40 -77 -88 -77
c-41 0 -69 28 -69 63c0 42 41 77 89 77c40 0 68 -28 68 -63zM806 111l48 338c5 33 39 61 78 61s65 -28 60 -61l-46 -326c-3 -21 -3 -26 9 -41c7 -9 13 -15 13 -29c0 -39 -31 -60 -83 -60c-40 0 -94 13 -79 118z" />
    <glyph glyph-name="ffl" unicode="ffl" horiz-adv-x="986" 
d="M43 -152l95 679c19 132 121 194 232 194c25 0 113 0 113 -59c0 -42 -38 -67 -77 -67c-19 0 -39 6 -58 6c-42 0 -66 -31 -71 -67l-7 -49h74c34 0 58 -23 58 -53c0 -38 -34 -66 -74 -66h-74l-73 -518c-5 -34 -34 -60 -78 -60s-65 26 -60 60zM402 -152l95 679
c19 132 121 194 232 194c25 0 113 0 113 -59c0 -42 -38 -67 -77 -67c-19 0 -39 6 -58 6c-42 0 -66 -31 -71 -67l-7 -49h74c34 0 58 -23 58 -53c0 -38 -34 -66 -74 -66h-74l-73 -518c-5 -34 -34 -60 -78 -60s-65 26 -60 60zM877 -7c-40 0 -94 13 -79 118l77 549
c5 33 39 62 78 62s65 -27 60 -62l-76 -537c-3 -21 -2 -26 10 -41c7 -9 13 -15 13 -29c0 -39 -31 -60 -83 -60z" />
    <glyph glyph-name=".notdef" horiz-adv-x="760" 
 />
    <glyph glyph-name="space" unicode=" " horiz-adv-x="300" 
 />
    <glyph glyph-name="exclam" unicode="!" horiz-adv-x="267" 
d="M105 228l49 421c5 34 40 65 79 65c38 0 66 -31 61 -65l-69 -421c-5 -30 -37 -56 -68 -56c-34 0 -56 25 -52 56zM228 77c0 -46 -46 -86 -94 -86c-43 0 -74 32 -74 70c0 46 45 85 96 85c41 0 72 -31 72 -69z" />
    <glyph glyph-name="quotedbl" unicode="&#x22;" horiz-adv-x="383" 
d="M127 503l51 209c7 29 45 50 76 46c33 -5 51 -35 40 -63c-29 -74 -47 -137 -77 -211c-9 -22 -36 -36 -60 -33c-24 4 -35 30 -30 52zM274 503l51 209c7 29 45 50 76 46c33 -5 51 -35 40 -63c-29 -74 -47 -137 -77 -211c-9 -22 -36 -36 -60 -33c-24 4 -35 30 -30 52z" />
    <glyph glyph-name="numbersign" unicode="#" horiz-adv-x="581" 
d="M201 500h36l63 164c13 31 42 47 76 47c28 -3 52 -26 52 -54c0 -9 -2 -15 -5 -20l-52 -137h46l63 164c13 31 42 47 76 47c30 -3 52 -26 52 -54c0 -11 -3 -15 -5 -20l-52 -137c31 -1 59 -25 59 -57c0 -38 -37 -70 -79 -70h-28l-15 -38h8c32 0 60 -25 60 -58
c0 -38 -36 -70 -78 -70h-38l-63 -166c-14 -31 -42 -47 -76 -47c-34 2 -57 29 -52 62l3 9l54 142h-46l-63 -166c-14 -31 -42 -47 -76 -47c-32 3 -57 29 -52 62l3 9l54 142c-34 2 -57 26 -57 57c0 40 41 71 79 71h26l15 38h-6c-36 0 -60 25 -60 57c0 40 40 70 78 70zM323 373
l-15 -38h46l15 38h-46z" />
    <glyph glyph-name="dollar" unicode="$" horiz-adv-x="526" 
d="M233 -28l7 49c-81 2 -193 28 -193 90c0 28 26 69 79 69c42 0 71 -28 132 -32l21 149c-85 29 -180 60 -180 172c0 127 93 206 234 214l7 50c2 14 16 26 30 26s24 -12 22 -26l-7 -50c66 -4 164 -22 164 -83c0 -37 -35 -69 -78 -69c-36 0 -48 21 -104 25l-19 -140
c91 -32 180 -59 180 -167c0 -133 -104 -213 -236 -226l-7 -51c-2 -14 -15 -26 -30 -26s-24 12 -22 26zM381 224c0 30 -19 41 -34 48l-19 8l-18 -129c44 9 71 34 71 73zM279 444l19 -9l17 120c-39 -6 -70 -22 -70 -63c0 -29 19 -41 34 -48z" />
    <glyph glyph-name="percent" unicode="%" horiz-adv-x="743" 
d="M555 -9c-92 0 -139 63 -139 147c0 110 71 203 188 203c92 0 139 -64 139 -148c0 -110 -69 -202 -188 -202zM686 627l-420 -597c-20 -27 -53 -37 -85 -30c-31 11 -43 45 -30 77l7 11l421 596c20 27 53 37 83 28c29 -9 45 -37 33 -67c-2 -6 -6 -14 -9 -18zM571 103
c37 0 53 33 53 79c0 29 -11 47 -35 47c-36 0 -53 -32 -53 -78c0 -31 11 -48 35 -48zM253 477c36 0 53 33 53 79c0 29 -12 47 -36 47c-36 0 -53 -32 -53 -78c0 -31 12 -48 36 -48zM237 365c-92 0 -139 63 -139 148c0 110 69 202 188 202c93 0 139 -63 139 -147
c0 -111 -71 -203 -188 -203z" />
    <glyph glyph-name="ampersand" unicode="&#x26;" horiz-adv-x="682" 
d="M653 61c0 -35 -33 -70 -79 -70c-26 0 -38 11 -52 29l-36 47c-58 -43 -125 -76 -212 -76c-131 0 -212 77 -212 179c0 109 85 180 165 226c-30 43 -47 86 -47 129c0 113 113 187 223 187c102 0 175 -68 175 -133c0 -49 -42 -77 -81 -77c-71 0 -37 90 -106 90
c-36 0 -73 -24 -73 -56c0 -29 24 -62 48 -91l144 -177l47 70c24 36 47 42 68 40c31 -3 59 -24 59 -56c0 -39 -51 -106 -95 -157l53 -70c5 -7 11 -19 11 -34zM411 162l-113 140c-50 -27 -97 -58 -97 -112c0 -40 28 -78 86 -78c46 0 89 22 124 50z" />
    <glyph glyph-name="quotesingle" unicode="'" horiz-adv-x="263" 
d="M142 503l51 209c7 29 45 50 76 46c33 -5 51 -35 40 -63c-29 -74 -47 -137 -77 -211c-9 -22 -36 -36 -60 -33c-24 4 -35 30 -30 52z" />
    <glyph glyph-name="parenleft" unicode="(" horiz-adv-x="316" 
d="M219 145c0 -87 16 -186 51 -261c5 -10 9 -20 9 -33c0 -33 -26 -72 -78 -72c-24 0 -44 10 -55 30c-48 91 -67 216 -67 323c0 174 57 359 186 521c17 21 39 31 63 31c42 0 60 -28 60 -58c0 -21 -10 -34 -20 -47c-104 -138 -149 -286 -149 -434z" />
    <glyph glyph-name="parenright" unicode=")" horiz-adv-x="315" 
d="M161 317c0 88 -16 187 -51 262c-4 9 -9 20 -9 33c0 33 26 72 78 72c24 0 43 -10 54 -31c47 -91 68 -216 68 -323c0 -174 -56 -359 -186 -521c-16 -20 -40 -30 -64 -30c-41 0 -59 28 -59 57c0 22 10 34 20 48c103 138 149 285 149 433z" />
    <glyph glyph-name="asterisk" unicode="*" horiz-adv-x="536" 
d="M360 586l109 40c3 1 6 1 10 1c24 0 52 -24 52 -62c0 -28 -22 -50 -50 -57l-83 -9l56 -64c10 -12 17 -27 17 -42c0 -27 -33 -58 -67 -58c-23 0 -43 12 -54 28l-42 70l-41 -70c-11 -16 -31 -28 -54 -28c-34 0 -67 31 -67 58c0 15 7 30 17 42l56 64l-83 9
c-28 7 -50 29 -50 57c0 38 28 62 52 62c4 0 7 0 10 -1l108 -40l-13 81c-5 30 19 63 65 63s70 -33 65 -63z" />
    <glyph glyph-name="plus" unicode="+" horiz-adv-x="540" 
d="M241 161v129h-120c-39 0 -69 28 -69 64s34 63 69 63h120v129c0 33 30 64 69 64s69 -28 69 -64v-129h120c35 0 69 -27 69 -63s-30 -64 -69 -64h-120v-129c0 -36 -30 -63 -69 -63s-69 31 -69 63z" />
    <glyph glyph-name="comma" unicode="," 
d="M69 -95c8 33 32 45 46 89c-33 7 -55 35 -55 67c0 46 45 85 95 85c41 0 73 -28 73 -71c0 -54 -70 -215 -124 -215c-16 0 -45 6 -35 45z" />
    <glyph glyph-name="hyphen" unicode="-" horiz-adv-x="439" 
d="M450 300c0 -35 -29 -61 -66 -61h-249c-38 0 -67 26 -67 61c0 33 29 61 67 61h249c37 0 66 -28 66 -61z" />
    <glyph glyph-name="period" unicode="." 
d="M228 77c0 -46 -46 -86 -94 -86c-43 0 -74 32 -74 70c0 46 45 85 96 85c41 0 72 -31 72 -69z" />
    <glyph glyph-name="slash" unicode="/" horiz-adv-x="360" 
d="M464 672l-351 -674c-16 -31 -51 -48 -82 -42c-35 6 -59 40 -43 72l357 688c16 31 50 47 81 41c33 -6 53 -39 45 -70c-2 -6 -4 -11 -7 -15z" />
    <glyph glyph-name="zero" unicode="0" horiz-adv-x="540" 
d="M354 601c-66 0 -98 -45 -107 -109l-40 -282c-8 -57 19 -96 79 -96s97 39 105 96l40 282c9 64 -11 109 -77 109zM371 723c161 0 216 -106 198 -238l-39 -275c-17 -122 -113 -219 -262 -219s-217 97 -200 219l39 275c18 132 103 238 264 238z" />
    <glyph glyph-name="one" unicode="1" horiz-adv-x="540" 
d="M269 56l68 486l-85 -48c-21 -12 -39 -21 -62 -21c-28 0 -57 13 -57 50c0 29 16 51 39 64l215 116c15 8 26 11 40 11c42 0 70 -29 65 -67l-83 -591c-5 -34 -41 -64 -79 -64c-39 0 -66 30 -61 64z" />
    <glyph glyph-name="two" unicode="2" horiz-adv-x="540" 
d="M514 70c0 -38 -36 -70 -79 -70h-329c-38 0 -62 25 -62 58c0 22 6 40 15 55c52 88 135 152 215 216c66 53 161 113 161 194c0 44 -27 78 -82 78c-34 0 -61 -6 -86 -16c-23 -9 -46 -27 -75 -27c-32 0 -60 21 -60 54c0 78 155 111 239 111c133 0 205 -78 205 -178
c0 -93 -45 -157 -108 -214c-77 -70 -174 -132 -238 -206h223c36 0 61 -24 61 -55z" />
    <glyph glyph-name="three" unicode="3" horiz-adv-x="540" 
d="M544 593l-159 -162c91 -17 148 -81 148 -173c0 -115 -94 -266 -285 -266c-45 0 -194 12 -194 89c0 36 35 69 75 69c42 0 63 -37 131 -37c98 0 132 73 132 127c0 55 -39 77 -102 77c-26 0 -28 -11 -53 -11c-33 0 -56 25 -56 58c0 12 3 23 11 32l175 181h-162
c-35 0 -60 25 -60 56c0 39 36 73 78 73h279c40 0 65 -25 65 -60c0 -20 -9 -39 -23 -53z" />
    <glyph glyph-name="four" unicode="4" horiz-adv-x="540" 
d="M474 137l-12 -82c-5 -36 -39 -63 -78 -63s-65 27 -60 63l12 82h-221c-38 0 -62 28 -62 60c0 11 8 29 16 43l254 443c14 24 41 39 67 39c32 0 61 -27 61 -59c0 -12 -3 -19 -8 -28c-77 -134 -138 -239 -215 -373h124l22 153c5 36 39 63 78 63c37 0 65 -27 60 -63l-22 -153
h14c35 0 59 -26 59 -56c0 -37 -36 -69 -77 -69h-12z" />
    <glyph glyph-name="five" unicode="5" horiz-adv-x="540" 
d="M534 267c0 -124 -86 -275 -269 -275c-45 0 -211 12 -211 90c0 35 35 68 76 68c39 0 62 -37 129 -37c104 0 134 75 134 137c0 61 -34 89 -82 89c-22 0 -39 -9 -57 -9c0 0 -44 -35 -76 -35c-40 0 -68 28 -61 68l49 276c7 42 48 67 85 67h241c34 0 68 -15 68 -55
c0 -51 -46 -69 -85 -69h-187l-24 -130c21 6 44 8 66 8c123 0 204 -72 204 -193z" />
    <glyph glyph-name="six" unicode="6" horiz-adv-x="540" 
d="M377 593c-95 2 -123 -71 -143 -165c41 23 75 30 112 30c110 0 198 -65 198 -194c0 -143 -95 -273 -276 -273c-148 0 -199 106 -199 253c0 273 99 470 313 470c41 0 172 -8 172 -77c0 -32 -29 -63 -71 -63c-33 0 -59 18 -106 19zM213 299l-2 -12c-12 -88 -6 -169 80 -169
c84 0 113 69 113 131c0 57 -32 84 -86 84c-39 0 -79 -13 -105 -34z" />
    <glyph glyph-name="seven" unicode="7" horiz-adv-x="540" 
d="M591 646c0 -8 -3 -24 -11 -36l-330 -578c-10 -18 -30 -40 -68 -40c-34 0 -64 19 -64 52c0 8 2 23 9 34l289 500h-226c-34 0 -60 25 -60 57c0 38 37 71 78 71h320c36 0 63 -26 63 -60z" />
    <glyph glyph-name="eight" unicode="8" horiz-adv-x="540" 
d="M552 231c0 -135 -123 -240 -284 -240c-133 0 -224 79 -224 189c0 89 54 150 125 192c-35 30 -56 72 -56 123c0 135 122 218 256 218c117 0 201 -69 201 -170c0 -67 -34 -121 -96 -164c46 -33 78 -83 78 -148zM431 527c0 38 -33 66 -78 66c-54 0 -100 -35 -100 -82
c0 -41 35 -69 79 -78c55 12 99 47 99 94zM411 217c0 50 -46 82 -101 94c-69 -14 -125 -55 -125 -114c0 -48 41 -84 100 -84c70 0 126 47 126 104z" />
    <glyph glyph-name="nine" unicode="9" horiz-adv-x="540" 
d="M262 112c95 -2 123 71 143 165c-41 -23 -75 -30 -112 -30c-110 0 -198 65 -198 194c0 143 95 273 276 273c148 0 199 -106 199 -253c0 -273 -99 -470 -313 -470c-41 0 -172 8 -172 77c0 32 29 63 71 63c33 0 59 -18 106 -19zM426 406l2 12c12 88 6 169 -80 169
c-84 0 -113 -69 -113 -131c0 -57 32 -84 86 -84c39 0 79 13 105 34z" />
    <glyph glyph-name="colon" unicode=":" 
d="M228 77c0 -46 -46 -86 -94 -86c-43 0 -74 32 -74 70c0 46 45 85 96 85c41 0 72 -31 72 -69zM270 377c0 -46 -46 -86 -94 -86c-43 0 -74 32 -74 70c0 46 45 85 96 85c41 0 72 -31 72 -69z" />
    <glyph glyph-name="semicolon" unicode=";" 
d="M69 -95c8 33 32 45 46 89c-33 7 -55 35 -55 67c0 46 45 85 95 85c41 0 73 -28 73 -71c0 -54 -70 -215 -124 -215c-16 0 -45 6 -35 45zM270 377c0 -46 -46 -86 -94 -86c-43 0 -74 32 -74 70c0 46 45 85 96 85c41 0 72 -31 72 -69z" />
    <glyph glyph-name="less" unicode="&#x3c;" horiz-adv-x="665" 
d="M308 352l285 -141c22 -11 36 -33 36 -53c0 -37 -32 -70 -77 -70c-4 0 -22 2 -31 7l-371 191c-24 12 -43 25 -43 56c0 47 26 60 60 76l426 192c10 5 27 7 33 7c37 0 60 -26 60 -57c0 -28 -24 -54 -53 -67z" />
    <glyph glyph-name="equal" unicode="=" horiz-adv-x="540" 
d="M161 325h298c35 0 69 -28 69 -64s-30 -64 -69 -64h-298c-39 0 -69 28 -69 64s34 64 69 64zM161 510h298c35 0 69 -27 69 -63s-30 -64 -69 -64h-298c-39 0 -69 28 -69 64s34 63 69 63z" />
    <glyph glyph-name="greater" unicode="&#x3e;" horiz-adv-x="665" 
d="M132 211l325 141l-286 141c-21 11 -36 33 -36 54c0 36 33 70 78 70c6 0 23 -2 31 -7l372 -192c23 -12 42 -24 42 -56c0 -46 -28 -60 -62 -76l-424 -191c-11 -5 -29 -7 -33 -7c-38 0 -60 25 -60 57c0 27 23 53 53 66z" />
    <glyph glyph-name="question" unicode="?" horiz-adv-x="502" 
d="M362 264c-7 -6 -10 -22 -12 -31c-7 -39 -44 -64 -79 -64c-28 0 -61 18 -61 60c0 55 53 109 98 149c36 32 100 84 100 150c0 41 -27 75 -88 75c-22 0 -54 -4 -81 -16c-22 -10 -39 -27 -66 -27c-30 0 -59 21 -59 55c0 77 147 110 233 110c124 0 200 -73 200 -182
c0 -93 -49 -155 -107 -209c-38 -36 -57 -51 -78 -70zM341 76c0 -46 -46 -86 -96 -86c-42 0 -73 32 -73 70c0 46 45 85 95 85c42 0 74 -31 74 -69z" />
    <glyph glyph-name="at" unicode="@" horiz-adv-x="784" 
d="M545 15c-38 -14 -108 -27 -165 -27c-183 0 -286 113 -286 279c0 214 140 373 385 373c202 0 300 -122 300 -273c0 -117 -47 -211 -175 -211c-49 0 -77 15 -97 39c-37 -36 -62 -49 -100 -49c-86 0 -140 60 -140 149c0 105 66 191 192 191c124 0 136 -87 136 -163
c0 -33 -2 -66 23 -66c43 0 47 60 47 96c0 107 -65 191 -198 191c-164 0 -259 -114 -259 -263c0 -111 65 -186 205 -186c46 0 73 10 119 24c33 10 70 5 79 -24c12 -43 -33 -67 -66 -80zM422 246c17 0 34 8 53 20c0 16 3 24 3 72c0 23 -5 46 -33 46c-44 0 -60 -39 -60 -86
c0 -34 12 -52 37 -52z" />
    <glyph glyph-name="A" unicode="A" horiz-adv-x="589" 
d="M206 139l-48 -101c-14 -29 -48 -47 -72 -47c-36 0 -64 23 -64 57c0 9 4 23 7 29l275 569c19 39 42 68 90 68s65 -28 73 -68l115 -569v-11c0 -45 -37 -75 -81 -75c-26 0 -56 19 -62 47l-21 101h-212zM398 253l-27 171c-5 29 -4 67 -4 98c-8 -31 -19 -69 -32 -98l-77 -171
h140z" />
    <glyph glyph-name="B" unicode="B" horiz-adv-x="582" 
d="M264 429h115c38 0 89 28 89 90c0 32 -16 60 -61 60h-122zM364 301h-118l-25 -174h112c74 0 112 39 112 98c0 48 -33 76 -81 76zM306 0h-165c-44 0 -73 33 -68 72l79 561c6 41 46 72 88 72h169c137 0 200 -83 200 -173c0 -85 -56 -133 -127 -165c53 -23 104 -64 104 -138
c0 -123 -112 -229 -280 -229z" />
    <glyph glyph-name="C" unicode="C" horiz-adv-x="522" 
d="M238 452l-28 -198c-12 -86 11 -140 101 -140c32 0 58 10 85 24l12 6c14 7 22 15 45 15c35 0 58 -25 58 -54c0 -61 -112 -113 -223 -113c-175 0 -240 104 -218 262l28 198c22 158 117 262 292 262c102 0 192 -46 192 -101c0 -34 -34 -66 -75 -66c-23 0 -29 7 -41 15l-9 6
c-23 15 -47 24 -79 24c-90 0 -128 -54 -140 -140z" />
    <glyph glyph-name="D" unicode="D" horiz-adv-x="594" 
d="M596 271c-19 -141 -115 -271 -342 -271h-113c-42 0 -73 33 -68 72l79 562c5 39 47 72 89 72h113c226 0 287 -124 267 -263zM456 271l25 172c11 76 -20 136 -128 136h-68l-64 -452h68c110 0 156 65 167 144z" />
    <glyph glyph-name="E" unicode="E" horiz-adv-x="514" 
d="M500 71c0 -38 -38 -71 -79 -71h-265c-49 0 -91 17 -83 71l79 563c5 35 43 71 87 71h271c35 0 61 -27 61 -58c0 -40 -38 -69 -79 -69h-208l-23 -161h189c33 0 61 -24 61 -57c0 -38 -37 -70 -79 -70h-189l-23 -163h218c35 0 62 -25 62 -56z" />
    <glyph glyph-name="F" unicode="F" horiz-adv-x="514" 
d="M244 290l-33 -235c-5 -34 -41 -64 -79 -64c-39 0 -66 30 -61 64l81 580c5 35 43 71 87 71h271c35 0 62 -27 62 -58c0 -40 -39 -69 -80 -69h-208l-22 -162h189c32 0 60 -24 60 -57c0 -38 -36 -70 -78 -70h-189z" />
    <glyph glyph-name="G" unicode="G" horiz-adv-x="560" 
d="M238 452l-28 -198c-12 -86 11 -140 101 -140c35 0 61 9 85 21l22 156h-52c-30 0 -54 25 -54 56c0 38 36 70 72 70h109c46 0 79 -22 72 -70l-31 -221c-13 -94 -143 -134 -246 -134c-175 0 -240 104 -218 262l28 198c22 158 117 262 292 262c102 0 192 -46 192 -101
c0 -34 -34 -66 -75 -66c-23 0 -28 8 -40 15l-10 6c-23 14 -47 24 -79 24c-90 0 -128 -54 -140 -140z" />
    <glyph glyph-name="H" unicode="H" horiz-adv-x="620" 
d="M564 56c-5 -35 -41 -65 -79 -65c-37 0 -66 30 -61 65l33 233h-213l-33 -233c-5 -35 -41 -65 -79 -65c-39 0 -66 30 -61 65l83 594c5 34 40 64 79 64c38 0 66 -30 61 -64l-32 -233h213l32 233c5 34 42 64 79 64s66 -30 61 -64z" />
    <glyph glyph-name="I" unicode="I" horiz-adv-x="267" 
d="M71 55l83 595c5 34 40 64 79 64c38 0 66 -30 61 -64l-83 -595c-5 -34 -41 -64 -79 -64c-39 0 -66 30 -61 64z" />
    <glyph glyph-name="J" unicode="J" horiz-adv-x="425" 
d="M454 650l-59 -415c-21 -152 -88 -244 -266 -244c-36 0 -106 4 -106 61c0 45 44 71 75 71c23 0 35 -6 60 -6c67 0 87 45 97 118l59 415c5 35 39 64 79 64c37 0 66 -30 61 -64z" />
    <glyph glyph-name="K" unicode="K" horiz-adv-x="556" 
d="M595 607l-230 -225l178 -290c5 -9 7 -18 7 -26c0 -32 -32 -75 -78 -75c-23 0 -42 9 -54 29l-158 260l-20 -20l-29 -204c-5 -35 -41 -65 -79 -65c-39 0 -66 30 -61 65l83 594c5 34 40 64 79 64c38 0 66 -30 61 -64l-26 -190l229 225c15 15 39 29 61 29c28 0 61 -26 61 -59
c0 -20 -5 -30 -24 -48z" />
    <glyph glyph-name="L" unicode="L" horiz-adv-x="503" 
d="M497 70c0 -38 -36 -70 -77 -70h-282c-40 0 -71 30 -66 69l82 581c5 34 40 64 79 64c38 0 66 -30 61 -64l-74 -524h217c34 0 60 -24 60 -56z" />
    <glyph glyph-name="M" unicode="M" horiz-adv-x="759" 
d="M789 648l-83 -594c-5 -34 -41 -63 -78 -63c-38 0 -67 29 -62 63l48 344l-145 -224c-17 -26 -44 -38 -72 -38c-27 0 -50 12 -59 38l-83 224l-48 -344c-5 -34 -42 -63 -81 -63c-38 0 -64 29 -59 63l83 594c5 38 41 66 82 66c32 0 55 -13 64 -39l129 -353l227 354
c19 29 47 38 75 38c41 0 67 -30 62 -66z" />
    <glyph glyph-name="N" unicode="N" horiz-adv-x="640" 
d="M501 -9c-26 0 -52 14 -62 35l-176 404l-52 -374c-5 -35 -42 -65 -80 -65c-39 0 -65 30 -60 65l83 590c5 39 40 68 82 68c27 0 52 -15 63 -37c68 -154 106 -245 175 -406l53 378c5 35 42 65 80 65c39 0 65 -30 60 -65l-83 -590c-5 -37 -39 -68 -83 -68z" />
    <glyph glyph-name="O" unicode="O" horiz-adv-x="610" 
d="M304 -9c-173 0 -244 117 -223 263l27 198c20 142 110 262 297 262s243 -120 223 -262l-27 -198c-21 -146 -124 -263 -297 -263zM387 587c-88 0 -127 -54 -139 -135l-27 -198c-12 -80 18 -136 100 -136s128 56 140 136l27 198c12 81 -13 135 -101 135z" />
    <glyph glyph-name="P" unicode="P" horiz-adv-x="570" 
d="M322 240h-85l-26 -183c-5 -35 -41 -66 -79 -66c-37 0 -66 30 -61 66l81 576c5 39 46 72 88 72h147c166 0 225 -93 225 -199c0 -168 -118 -266 -290 -266zM284 578l-29 -211h85c86 0 131 41 131 124c0 44 -21 87 -102 87h-85z" />
    <glyph glyph-name="Q" unicode="Q" horiz-adv-x="610" 
d="M389 -173c-92 0 -142 67 -145 169c-130 25 -181 130 -163 258l28 198c20 142 110 262 297 262s243 -120 223 -262l-28 -198c-17 -122 -93 -225 -219 -254c3 -36 15 -51 37 -51h29c37 0 61 -20 61 -53c0 -67 -51 -69 -120 -69zM388 587c-88 0 -128 -54 -139 -135l-28 -198
c-11 -80 19 -136 101 -136s128 56 139 136l28 198c11 81 -13 135 -101 135z" />
    <glyph glyph-name="R" unicode="R" horiz-adv-x="615" 
d="M633 522c0 -114 -66 -189 -169 -221l108 -206c26 -50 -30 -103 -75 -103c-25 0 -45 11 -55 31l-131 263h-68l-32 -229c-5 -35 -42 -66 -80 -66c-37 0 -65 30 -60 66l81 576c5 39 45 72 86 72h174c166 0 221 -89 221 -183zM491 506c0 36 -21 72 -101 72h-106l-23 -166h112
c76 0 118 34 118 94z" />
    <glyph glyph-name="S" unicode="S" horiz-adv-x="526" 
d="M380 217c0 35 -18 48 -33 55c-20 9 -43 19 -69 27c-85 28 -177 59 -177 179c0 145 106 236 264 236c56 0 189 -14 189 -84c0 -35 -32 -69 -80 -69c-18 0 -31 5 -47 11c-18 6 -39 15 -74 15c-54 0 -107 -20 -107 -87c0 -36 20 -49 34 -56c24 -13 47 -20 68 -27
c86 -28 178 -61 178 -179c0 -155 -125 -247 -282 -247c-71 0 -201 25 -201 90c0 34 36 69 75 69c15 0 31 -5 49 -12c23 -8 53 -20 96 -20c77 0 117 37 117 99z" />
    <glyph glyph-name="T" unicode="T" horiz-adv-x="523" 
d="M199 55l74 523h-106c-37 0 -62 26 -62 56c0 32 38 71 80 71h352c33 0 62 -25 62 -58c0 -37 -40 -69 -80 -69h-106l-74 -523c-5 -34 -41 -64 -79 -64c-39 0 -66 30 -61 64z" />
    <glyph glyph-name="U" unicode="U" horiz-adv-x="612" 
d="M591 240c-20 -144 -128 -249 -286 -249c-161 0 -236 106 -216 249l57 408c6 38 41 66 81 66c37 0 64 -30 59 -66l-57 -408c-10 -72 18 -122 94 -122c75 0 117 51 127 122l57 408c5 35 40 66 79 66c41 0 67 -31 62 -66z" />
    <glyph glyph-name="V" unicode="V" horiz-adv-x="583" 
d="M349 281l176 386c14 28 49 47 75 47c37 0 63 -23 63 -56c0 -10 -3 -24 -6 -30l-275 -569c-19 -40 -44 -68 -92 -68s-63 29 -71 68l-115 569c0 2 -1 8 -1 11c0 46 40 75 82 75c24 0 53 -18 59 -47l69 -386c5 -29 5 -67 4 -98c9 31 19 69 32 98z" />
    <glyph glyph-name="W" unicode="W" horiz-adv-x="830" 
d="M584 640l26 -235c6 -55 3 -111 5 -167c18 56 31 112 53 167l100 255c13 32 40 51 71 51c32 0 70 -17 70 -55c0 -8 -1 -13 -4 -19l-232 -583c-14 -33 -43 -63 -91 -63s-69 31 -73 64l-25 245c-5 52 -3 107 -5 160c-16 -53 -29 -108 -49 -160l-96 -247
c-12 -30 -37 -62 -90 -62c-41 0 -69 33 -73 63l-66 578c-1 10 -2 19 -2 19c5 37 48 60 83 60c29 0 55 -15 59 -48l29 -258c6 -54 4 -111 6 -166c18 53 31 113 52 166l92 235c18 47 36 74 91 74c51 0 65 -29 69 -74z" />
    <glyph glyph-name="X" unicode="X" horiz-adv-x="554" 
d="M312 251l-164 -220v1c-13 -18 -35 -41 -70 -41c-33 0 -59 29 -59 59c0 14 8 31 15 40l212 276l-124 251c-2 7 -4 17 -4 26c0 37 38 71 77 71c31 0 52 -22 63 -46l86 -186l140 186c15 19 41 46 76 46c32 0 58 -26 58 -57c0 -14 -7 -27 -15 -40l-193 -251l134 -276
c3 -6 6 -19 6 -29c0 -35 -41 -70 -77 -70c-35 0 -50 21 -59 40z" />
    <glyph glyph-name="Y" unicode="Y" horiz-adv-x="530" 
d="M264 -9c-40 0 -67 30 -62 66l31 219l-127 344c-2 5 -3 14 -3 22c0 39 42 72 81 72c21 0 43 -9 53 -30l90 -248l159 248c14 21 40 30 62 30c33 0 62 -27 62 -59c0 -13 -7 -25 -11 -35l-224 -344l-31 -219c-5 -35 -40 -66 -80 -66z" />
    <glyph glyph-name="Z" unicode="Z" horiz-adv-x="524" 
d="M514 72c0 -39 -39 -72 -80 -72h-343c-37 0 -63 27 -63 61c0 17 13 41 21 51c120 163 226 300 348 464h-226c-36 0 -61 25 -61 57c0 38 37 72 79 72h339c39 0 64 -26 64 -60c0 -21 -10 -37 -20 -50l-351 -466h231c34 0 62 -25 62 -57z" />
    <glyph glyph-name="bracketleft" unicode="[" horiz-adv-x="334" 
d="M311 -40c0 -55 -49 -72 -90 -72h-102c-36 0 -64 30 -59 63l109 780c7 46 47 62 91 62h102c31 0 59 -25 59 -55c0 -52 -48 -69 -89 -69h-32l-93 -656h32c39 0 72 -13 72 -53z" />
    <glyph glyph-name="backslash" unicode="\" horiz-adv-x="360" 
d="M237 -2l-161 674c-2 4 -3 9 -3 15c1 31 30 64 65 70c33 6 62 -10 69 -41l164 -688c7 -32 -27 -66 -64 -72c-33 -6 -62 11 -70 42z" />
    <glyph glyph-name="bracketright" unicode="]" horiz-adv-x="334" 
d="M259 -49c-5 -35 -39 -63 -77 -63h-102c-36 0 -74 13 -74 55c0 55 47 70 90 70h32l93 656h-32c-35 0 -73 12 -73 54c0 54 49 70 91 70h102c34 0 64 -31 59 -62z" />
    <glyph glyph-name="asciicircum" unicode="^" horiz-adv-x="366" 
d="M264 583l-93 -92c-12 -13 -35 -24 -53 -24c-36 0 -57 22 -52 55c3 17 16 35 33 50l127 125c14 14 34 25 58 25s40 -11 50 -25c31 -41 61 -85 93 -125c12 -16 20 -33 19 -50c-5 -33 -32 -55 -68 -55c-19 0 -40 10 -47 24c-28 39 -37 54 -67 92z" />
    <glyph glyph-name="underscore" unicode="_" horiz-adv-x="640" 
d="M25 -93h590c35 0 69 -28 69 -64s-30 -63 -69 -63h-590c-39 0 -69 27 -69 63s34 64 69 64z" />
    <glyph glyph-name="grave" unicode="`" horiz-adv-x="237" 
d="M248 710l71 -79c4 -5 5 -10 5 -16c0 -35 -28 -58 -59 -58c-22 0 -29 8 -42 21l-70 82c-5 7 -6 16 -6 23c0 31 32 54 56 54c22 0 28 -7 39 -19z" />
    <glyph glyph-name="a" unicode="a" horiz-adv-x="533" 
d="M344 149l25 180c7 47 -13 66 -64 66c-49 0 -71 -31 -80 -93l-16 -113c-7 -52 11 -80 54 -80c21 0 47 7 80 21c0 7 0 13 1 19zM227 -7c-116 0 -172 79 -156 196l16 113c17 119 99 211 242 211c145 0 194 -72 175 -207l-26 -186c-4 -30 11 -27 27 -34c12 -5 18 -14 18 -30
c0 -36 -20 -60 -80 -60c-37 0 -60 10 -79 42c-41 -30 -81 -45 -137 -45z" />
    <glyph glyph-name="b" unicode="b" horiz-adv-x="535" 
d="M255 381l-31 -220c-5 -37 21 -60 68 -60c50 0 77 26 83 68l26 183c5 36 -12 57 -61 57c-32 0 -61 -9 -85 -28zM86 161l70 500c5 32 34 61 78 61s65 -29 60 -61l-24 -176c34 18 66 28 113 28c127 0 168 -72 155 -166l-23 -168c-15 -105 -97 -186 -239 -186
c-135 0 -203 74 -190 168z" />
    <glyph glyph-name="c" unicode="c" horiz-adv-x="443" 
d="M71 184l19 135c15 107 91 191 234 191c56 0 159 -13 159 -79c0 -25 -12 -59 -70 -59c-10 0 -19 1 -32 6c-20 8 -34 17 -65 17c-55 0 -81 -29 -88 -76l-19 -135c-7 -47 11 -76 66 -76c31 0 50 9 71 17c11 4 18 6 32 6c45 0 57 -23 57 -44c0 -78 -122 -94 -185 -94
c-141 0 -194 84 -179 191z" />
    <glyph glyph-name="d" unicode="d" horiz-adv-x="538" 
d="M306 509c31 0 52 -4 86 -19l24 171c5 34 33 61 77 61s66 -28 61 -61l-75 -532c-2 -15 3 -22 14 -35c7 -8 10 -17 10 -27c0 -44 -41 -68 -74 -68c-25 0 -43 16 -55 38c-53 -27 -96 -44 -147 -44c-116 0 -172 79 -156 196l16 113c17 119 76 207 219 207zM344 149l33 233
c-30 9 -55 13 -72 13c-49 0 -71 -31 -80 -93l-16 -113c-7 -52 11 -80 54 -80c21 0 47 7 80 21c0 7 0 13 1 19z" />
    <glyph glyph-name="e" unicode="e" horiz-adv-x="485" 
d="M287 191c-26 0 -48 2 -76 6l-5 -33c-5 -34 18 -56 72 -56c32 0 60 8 94 22c4 2 13 6 30 6c43 0 55 -27 55 -48c0 -76 -138 -95 -205 -95c-132 0 -197 76 -183 175l23 167c14 101 99 178 238 178c118 0 175 -59 175 -146c0 -108 -65 -176 -218 -176zM367 361
c0 32 -18 45 -53 45c-48 0 -77 -25 -83 -65l-6 -43c32 -3 62 -4 72 -4c43 0 70 16 70 67z" />
    <glyph glyph-name="f" unicode="f" horiz-adv-x="369" 
d="M43 -152l95 679c19 132 121 194 232 194c25 0 113 0 113 -59c0 -42 -38 -67 -77 -67c-19 0 -39 6 -58 6c-42 0 -66 -31 -71 -67l-7 -49h74c34 0 58 -23 58 -53c0 -38 -34 -66 -74 -66h-74l-73 -518c-5 -34 -34 -60 -78 -60s-65 26 -60 60z" />
    <glyph glyph-name="g" unicode="g" horiz-adv-x="549" 
d="M361 134l30 208c4 33 -22 53 -68 53c-51 0 -79 -27 -85 -71l-20 -141c-6 -46 9 -75 58 -75c30 0 60 7 85 26zM529 342l-53 -375c-15 -107 -90 -191 -236 -191c-55 0 -158 18 -158 75c0 35 33 63 72 63c7 0 17 -1 31 -6c18 -9 35 -17 63 -17c57 0 83 28 90 76l6 43
c-32 -11 -63 -16 -100 -16c-144 0 -179 81 -164 189l20 141c15 107 98 189 240 189c135 0 202 -75 189 -171z" />
    <glyph glyph-name="h" unicode="h" horiz-adv-x="547" 
d="M360 111l33 236c5 38 -8 57 -49 57c-28 0 -65 -11 -91 -33l-44 -316c-5 -35 -38 -62 -77 -62s-65 27 -60 62l86 610c4 32 37 62 76 62s66 -27 61 -62l-25 -179c30 17 64 27 98 27c128 0 177 -72 162 -175l-31 -215c-2 -21 -2 -26 10 -41c7 -9 13 -15 13 -29
c0 -39 -31 -60 -83 -60c-40 0 -94 13 -79 118z" />
    <glyph glyph-name="i" unicode="i" horiz-adv-x="285" 
d="M311 651c0 -42 -40 -77 -88 -77c-41 0 -69 28 -69 63c0 42 41 77 89 77c40 0 68 -28 68 -63zM88 111l48 338c5 33 39 61 78 61s65 -28 60 -61l-46 -326c-3 -21 -3 -26 9 -41c7 -9 13 -15 13 -29c0 -39 -31 -60 -83 -60c-40 0 -94 13 -79 118z" />
    <glyph glyph-name="j" unicode="j" horiz-adv-x="285" 
d="M311 651c0 -42 -40 -77 -88 -77c-41 0 -69 28 -69 63c0 42 41 77 88 77c41 0 69 -28 69 -63zM274 449l-64 -456c-16 -115 -100 -194 -217 -194c-31 0 -52 17 -56 42c-7 45 34 67 62 72c38 7 66 29 73 77l64 459c5 33 39 61 78 61s65 -28 60 -61z" />
    <glyph glyph-name="k" unicode="k" horiz-adv-x="487" 
d="M250 343l159 149c13 12 34 17 50 17c35 0 59 -22 59 -52c0 -19 -8 -35 -25 -49h1l-140 -129l119 -194c6 -10 8 -26 6 -37c-6 -34 -39 -55 -75 -55c-25 0 -42 10 -53 28l-109 183l-12 -10l-20 -139c-5 -35 -39 -62 -78 -62s-65 27 -60 62l85 605c5 35 39 62 78 62
s65 -27 60 -62z" />
    <glyph glyph-name="l" unicode="l" horiz-adv-x="268" 
d="M159 -7c-40 0 -94 13 -79 118l77 549c5 33 39 62 78 62s65 -27 60 -62l-76 -537c-3 -21 -2 -26 10 -41c7 -9 13 -15 13 -29c0 -39 -31 -60 -83 -60z" />
    <glyph glyph-name="m" unicode="m" horiz-adv-x="818" 
d="M631 111l31 221c5 35 -12 63 -49 63c-26 0 -55 -13 -85 -35c-1 -9 -1 -17 -2 -26l-39 -279c-5 -34 -32 -61 -78 -61s-65 27 -60 61l36 259c7 46 4 81 -40 81c-25 0 -57 -11 -89 -26c0 -3 0 -8 -1 -11l-42 -303c-5 -34 -32 -61 -78 -61s-65 27 -60 61l42 303
c5 33 1 36 -2 42c-9 15 -12 24 -12 33c0 38 37 64 74 64c23 0 38 -11 49 -28c49 28 98 44 141 44c42 0 78 -15 110 -44c58 29 103 44 157 44c118 0 181 -72 166 -179l-30 -211c-3 -21 -2 -26 10 -41c7 -9 13 -15 13 -29c0 -39 -31 -60 -83 -60c-40 0 -94 13 -79 118z" />
    <glyph glyph-name="n" unicode="n" horiz-adv-x="549" 
d="M361 111l28 205c7 50 -13 81 -53 81c-21 0 -47 -7 -80 -21c0 -7 0 -13 -1 -19l-42 -302c-5 -34 -32 -61 -78 -61s-65 27 -60 61l42 303c5 33 1 36 -2 42c-9 15 -12 23 -12 33c0 36 35 64 76 64c21 0 37 -11 49 -29c49 30 98 43 138 43c126 0 178 -78 161 -195l-27 -193
c-3 -21 -2 -26 10 -41c7 -9 13 -15 13 -29c0 -39 -31 -60 -83 -60c-40 0 -94 13 -79 118z" />
    <glyph glyph-name="o" unicode="o" horiz-adv-x="524" 
d="M261 -7c-142 0 -206 81 -191 186l21 149c14 105 101 186 243 186s205 -81 191 -186l-21 -149c-15 -105 -101 -186 -243 -186zM277 111c52 0 83 26 89 68l21 150c6 41 -18 67 -70 67s-82 -26 -88 -67l-21 -150c-6 -42 17 -68 69 -68z" />
    <glyph glyph-name="p" unicode="p" horiz-adv-x="528" 
d="M291 -6c-27 0 -51 3 -84 20l-23 -165c-5 -34 -34 -61 -78 -61s-65 28 -60 61l71 508c3 23 2 35 -5 47c-5 9 -9 16 -9 27c0 39 40 66 75 66c21 0 36 -11 48 -28c52 27 94 44 147 44c115 0 170 -80 154 -196l-16 -116c-16 -118 -76 -207 -220 -207zM255 357l-33 -236
c29 -9 53 -13 71 -13c49 0 71 30 80 93l16 116c7 52 -10 80 -53 80c-21 0 -47 -7 -80 -21c0 -7 0 -13 -1 -19z" />
    <glyph glyph-name="q" unicode="q" horiz-adv-x="535" 
d="M352 134l30 208c4 33 -22 53 -67 53c-52 0 -80 -27 -86 -71l-20 -141c-7 -47 9 -75 61 -75c26 0 57 7 82 26zM520 342l-67 -473c-5 -34 -32 -61 -78 -61s-65 27 -60 61l21 151c-32 -18 -62 -26 -105 -26c-138 0 -175 81 -160 189l20 141c15 107 98 189 240 189
c135 0 202 -75 189 -171z" />
    <glyph glyph-name="r" unicode="r" horiz-adv-x="377" 
d="M353 386c-43 2 -60 4 -97 -10c0 -7 0 -13 -1 -19l-42 -302c-5 -35 -39 -62 -78 -62s-65 27 -60 62l42 302c3 23 3 35 -4 47c-5 9 -10 16 -10 27c0 39 38 66 77 66c21 0 37 -13 49 -31c49 27 98 43 130 43c56 0 74 -22 74 -51c0 -44 -39 -74 -80 -72z" />
    <glyph glyph-name="s" unicode="s" horiz-adv-x="446" 
d="M92 338c0 101 74 175 216 175c62 0 151 -15 151 -77c0 -50 -44 -59 -67 -59c-35 0 -50 21 -99 21c-41 0 -63 -15 -63 -40c0 -12 7 -21 25 -29c63 -29 180 -44 180 -158c0 -107 -80 -178 -219 -178c-62 0 -169 15 -169 73c0 30 31 64 73 64c33 0 61 -22 110 -22
c39 0 67 14 67 45c0 14 -8 22 -17 27c-56 34 -188 39 -188 158z" />
    <glyph glyph-name="t" unicode="t" horiz-adv-x="361" 
d="M93 208l55 388c5 34 33 61 77 61s66 -28 61 -61l-16 -111h74c34 0 58 -23 58 -53c0 -38 -35 -66 -75 -66h-74l-21 -151c-10 -74 -8 -100 40 -100c9 0 15 1 17 1c56 0 75 -14 75 -44c0 -67 -51 -76 -106 -76c-155 0 -184 76 -165 212z" />
    <glyph glyph-name="u" unicode="u" horiz-adv-x="549" 
d="M393 37c-52 -33 -99 -44 -144 -44c-121 0 -175 79 -159 196l37 261c5 34 34 60 78 60s65 -26 60 -60l-37 -261c-7 -51 10 -80 54 -80c21 0 47 7 80 21c0 7 0 13 1 19l42 301c5 34 32 60 78 60s65 -26 60 -60l-45 -321c-2 -15 3 -22 14 -35c7 -8 10 -17 10 -27
c0 -44 -40 -68 -73 -68c-26 0 -44 16 -56 38z" />
    <glyph glyph-name="v" unicode="v" horiz-adv-x="470" 
d="M213 468l31 -168c10 -54 8 -110 11 -165c19 55 33 111 57 165l75 167c13 26 44 43 71 43c33 0 60 -21 60 -53c0 -12 -2 -17 -5 -24l-190 -379c-22 -43 -45 -61 -87 -61c-44 0 -63 18 -72 59l-85 382c-1 2 -1 7 -1 9c0 41 38 68 77 68c27 0 53 -17 58 -43z" />
    <glyph glyph-name="w" unicode="w" horiz-adv-x="695" 
d="M415 43l-19 160c-5 40 -2 81 -2 122c-12 -41 -20 -82 -36 -122l-63 -160c-16 -36 -43 -50 -84 -50c-44 0 -64 22 -70 60l-62 384c0 2 -1 5 -1 7c0 34 36 66 78 66c29 0 55 -16 59 -45l20 -165c6 -50 -2 -101 -2 -152c15 51 24 102 44 152l63 159c12 29 41 51 81 51
c39 0 62 -22 65 -51l16 -159c5 -50 2 -102 3 -153c14 51 22 103 42 153l66 165c10 25 42 45 71 45c33 0 60 -23 60 -55c0 -7 -2 -13 -3 -16l-170 -387c-17 -39 -40 -59 -88 -59c-34 0 -63 18 -68 50z" />
    <glyph glyph-name="x" unicode="x" horiz-adv-x="471" 
d="M353 257l105 -170c5 -7 6 -16 6 -24c0 -37 -34 -70 -79 -70c-32 0 -44 11 -58 36c-28 50 -42 70 -71 121c-37 -42 -75 -85 -111 -127c-18 -20 -37 -30 -61 -30c-36 0 -62 22 -62 55c0 13 5 26 15 37c54 61 100 111 154 172c-33 53 -65 104 -98 159c-5 8 -7 19 -7 28
c0 34 36 66 78 66c39 0 52 -24 63 -43l61 -103l96 111c18 21 35 35 67 35c29 0 60 -23 60 -55c0 -8 -3 -24 -15 -37z" />
    <glyph glyph-name="y" unicode="y" horiz-adv-x="549" 
d="M256 450l-38 -267c-6 -46 9 -75 58 -75c30 0 60 7 85 26l45 316c4 34 31 60 77 60s65 -26 61 -60l-68 -483c-15 -107 -90 -191 -236 -191c-55 0 -158 18 -158 75c0 35 33 63 72 63c7 0 17 -1 31 -6c18 -9 35 -17 63 -17c57 0 83 28 90 76l6 43c-32 -11 -63 -16 -100 -16
c-144 0 -179 81 -164 189l38 267c4 34 33 60 77 60s66 -26 61 -60z" />
    <glyph glyph-name="z" unicode="z" horiz-adv-x="434" 
d="M484 450c0 -15 -6 -32 -20 -48l-256 -284h165c35 0 59 -23 59 -53c0 -36 -34 -65 -75 -65h-277c-35 0 -62 25 -62 57c0 19 6 31 18 44l257 286h-153c-34 0 -58 23 -58 53c0 37 34 65 75 65h265c35 0 62 -20 62 -55z" />
    <glyph glyph-name="braceleft" unicode="{" horiz-adv-x="437" 
d="M105 182c-21 2 -51 7 -51 50c0 65 46 70 69 72c26 3 46 6 57 57c9 42 8 49 35 177c18 88 102 139 210 139c37 0 78 -6 78 -56c0 -73 -51 -70 -85 -66c-8 1 -19 2 -24 2c-19 0 -41 -12 -45 -33c-3 -14 -22 -125 -31 -161c-13 -50 -45 -89 -113 -120c55 -29 82 -68 78 -121
l-13 -161c-1 -19 19 -32 35 -32c2 0 23 2 26 2c26 2 69 6 69 -43c0 -71 -53 -80 -97 -80c-105 0 -178 55 -171 139l15 179c4 53 -26 55 -42 56z" />
    <glyph glyph-name="bar" unicode="|" horiz-adv-x="267" 
d="M45 -160l120 854c4 32 37 61 74 61s62 -29 58 -61l-120 -854c-5 -33 -38 -61 -75 -61s-62 28 -57 61z" />
    <glyph glyph-name="braceright" unicode="}" horiz-adv-x="437" 
d="M388 182c-23 -2 -47 -7 -57 -56l-36 -179c-17 -82 -103 -139 -210 -139c-36 0 -77 7 -77 58c0 65 37 66 85 66c0 0 13 -2 23 -2c28 0 42 15 45 31l32 161c11 53 49 92 112 121c-52 25 -79 69 -79 113c0 2 14 57 14 168c0 22 -16 33 -34 33c-6 0 -18 -1 -26 -2
c-29 -4 -69 -7 -69 43c0 71 52 79 96 79c104 0 171 -48 171 -130c0 -168 -14 -163 -14 -195c0 -42 17 -45 41 -48c18 -2 51 -5 51 -50c0 -65 -44 -70 -68 -72z" />
    <glyph glyph-name="asciitilde" unicode="~" horiz-adv-x="496" 
d="M484 352c0 -54 -72 -95 -121 -95c-63 0 -92 43 -127 48c-35 4 -44 -43 -84 -43c-24 0 -50 19 -48 49c8 56 65 96 119 96c68 0 91 -48 128 -48s42 44 81 44c28 0 52 -21 52 -51z" />
    <glyph glyph-name="exclamdown" unicode="&#xa1;" horiz-adv-x="267" 
d="M42 -150l69 421c4 31 34 56 68 56c31 0 55 -26 52 -56l-49 -421c-5 -34 -41 -65 -79 -65c-39 0 -66 31 -61 65zM279 438c0 -46 -47 -85 -95 -85c-43 0 -73 31 -73 69c0 46 44 86 95 86c41 0 73 -32 73 -70z" />
    <glyph glyph-name="cent" unicode="&#xa2;" horiz-adv-x="443" 
d="M75 214l12 85c14 103 85 185 218 191l6 43c2 14 15 26 30 26s24 -12 22 -26l-6 -45c52 -6 113 -24 113 -77c0 -25 -12 -59 -70 -59c-10 0 -19 1 -32 6l-28 12l-32 -228c11 3 20 8 31 13c10 4 19 6 32 6c46 0 58 -24 58 -44c0 -63 -77 -86 -137 -92l-7 -53
c-2 -14 -15 -26 -30 -26s-24 12 -22 26l7 51c-132 5 -180 87 -165 191zM213 214c-6 -40 6 -67 43 -74l33 233c-39 -8 -58 -34 -64 -74z" />
    <glyph glyph-name="yen" unicode="&#xa5;" horiz-adv-x="540" 
d="M152 369h50l-92 251c-2 5 -2 14 -2 22c0 39 42 72 80 72c21 0 44 -9 53 -30l90 -248l159 248c15 21 40 30 62 30c34 0 63 -27 63 -59c0 -13 -7 -25 -12 -35l-163 -251h50c18 0 34 -14 34 -33c0 -23 -21 -41 -45 -41h-88l-11 -19l-5 -37h97c18 0 34 -14 34 -33
c0 -23 -21 -41 -45 -41h-97l-15 -108c-5 -32 -33 -60 -69 -65c-4 -1 -8 -2 -12 -2c-6 0 -11 1 -15 3c-31 6 -50 33 -46 64l15 108h-99c-20 0 -34 14 -34 33c0 23 23 41 45 41h99l5 37l-8 19h-89c-20 0 -34 14 -34 33c0 23 23 41 45 41z" />
    <glyph glyph-name="dieresis" unicode="&#xa8;" horiz-adv-x="443" 
d="M478 637c0 -38 -35 -70 -74 -70c-33 0 -58 26 -58 56c0 37 36 68 75 68c33 0 57 -24 57 -54zM299 637c0 -38 -35 -70 -75 -70c-33 0 -56 25 -56 56c0 36 34 68 73 68c34 0 58 -24 58 -54z" />
    <glyph glyph-name="copyright" unicode="&#xa9;" horiz-adv-x="740" 
d="M724 365c0 -213 -132 -374 -356 -374c-175 0 -265 111 -265 270c0 213 132 374 356 374c175 0 265 -111 265 -270zM663 355c0 130 -72 220 -213 220c-180 0 -286 -131 -286 -304c0 -130 72 -220 213 -220c180 0 286 131 286 304zM265 283l9 61c12 82 67 147 174 147
c39 0 113 -12 113 -55c0 -21 -20 -41 -43 -41c-4 0 -8 1 -12 3c-18 10 -34 18 -62 18c-49 0 -71 -26 -78 -72l-9 -61c-7 -47 9 -72 58 -72c28 0 47 9 67 18c5 2 9 3 13 3c19 0 32 -16 32 -34c0 -48 -87 -62 -129 -62c-107 0 -144 64 -133 147z" />
    <glyph glyph-name="guillemotleft" unicode="&#xab;" horiz-adv-x="431" 
d="M168 258l111 -208c2 -4 3 -9 3 -13c0 -23 -20 -45 -46 -45c-18 0 -25 8 -35 27l-124 237l184 229c13 16 23 26 41 26c17 0 33 -14 33 -33c0 -10 -3 -17 -8 -23zM328 256l73 -142c2 -4 3 -9 3 -14c0 -24 -25 -42 -44 -42c-18 0 -25 10 -33 26l-90 172l138 172
c13 16 23 26 41 26c16 0 33 -14 33 -33c0 -10 -3 -17 -8 -23z" />
    <glyph glyph-name="registered" unicode="&#xae;" horiz-adv-x="700" 
d="M699 472c0 -195 -121 -341 -331 -341c-165 0 -249 101 -249 246c0 196 122 348 332 348c165 0 248 -104 248 -253zM639 463c0 119 -66 202 -196 202c-167 0 -263 -122 -263 -279c0 -115 66 -195 196 -195c166 0 263 116 263 272zM540 499c0 -48 -25 -81 -66 -98l46 -90
c9 -16 2 -40 -28 -40c-33 0 -47 16 -51 24l-48 94h-16l-12 -83c-2 -18 -25 -35 -46 -35c-20 0 -37 15 -34 35l33 235c3 23 27 44 49 44h67c79 0 106 -42 106 -86zM459 492c0 12 -5 24 -27 24h-38l-8 -59h41c21 0 32 12 32 35z" />
    <glyph glyph-name="macron" unicode="&#xaf;" horiz-adv-x="443" 
d="M501 635c0 -31 -30 -56 -64 -56h-269c-29 0 -50 19 -50 45c0 31 30 57 65 57h269c28 0 49 -20 49 -46z" />
    <glyph glyph-name="degree" unicode="&#xb0;" horiz-adv-x="392" 
d="M257 436c-81 0 -123 53 -123 120c0 86 60 160 162 160c83 0 123 -52 123 -120c0 -86 -59 -160 -162 -160zM267 506c53 0 77 33 77 85c0 35 -18 55 -57 55c-52 0 -77 -32 -77 -83c0 -38 18 -57 57 -57z" />
    <glyph glyph-name="plusminus" unicode="&#xb1;" horiz-adv-x="540" 
d="M241 201v129h-120c-39 0 -69 28 -69 64s34 63 69 63h120v129c0 33 30 64 69 64s69 -28 69 -64v-129h120c35 0 69 -27 69 -63s-30 -64 -69 -64h-120v-129c0 -36 -30 -63 -69 -63s-69 31 -69 63zM499 0h-378c-39 0 -69 28 -69 64s34 63 69 63h378c35 0 69 -27 69 -63
s-30 -64 -69 -64z" />
    <glyph glyph-name="acute" unicode="&#xb4;" horiz-adv-x="316" 
d="M185 631l92 79l9 8c14 12 22 19 44 19c21 0 42 -19 42 -44c0 -8 -2 -20 -13 -33l-93 -82c-17 -13 -26 -21 -48 -21c-26 0 -45 17 -45 43c0 16 5 23 12 31z" />
    <glyph glyph-name="periodcentered" unicode="&#xb7;" horiz-adv-x="295" 
d="M268 288c0 -47 -44 -85 -95 -85c-42 0 -73 30 -73 69c0 46 47 85 95 85c43 0 73 -31 73 -69z" />
    <glyph glyph-name="cedilla" unicode="&#xb8;" horiz-adv-x="341" 
d="M261 -106c0 -63 -55 -110 -129 -110c-53 0 -112 18 -112 55c0 20 17 33 38 33c19 0 46 -9 72 -9c34 0 50 9 50 24c0 14 -15 19 -53 26c-30 6 -48 6 -36 47l23 84h79l-21 -77c63 -5 89 -34 89 -73z" />
    <glyph glyph-name="ordmasculine" unicode="&#xba;" horiz-adv-x="424" 
d="M257 319c-114 0 -162 69 -149 160l10 74c13 91 81 161 195 161s162 -70 149 -161l-10 -74c-13 -91 -81 -160 -195 -160zM297 601c-33 0 -48 -19 -52 -52l-10 -72c-4 -28 7 -46 38 -46s48 18 52 46l10 72c4 33 -5 52 -38 52z" />
    <glyph glyph-name="guillemotright" unicode="&#xbb;" horiz-adv-x="431" 
d="M166 50l169 208l-103 197c-2 4 -3 9 -3 14c0 24 25 42 44 42c18 0 25 -10 33 -26l120 -229l-191 -237c-15 -19 -24 -27 -42 -27c-22 0 -35 16 -35 36c0 10 3 16 8 22zM62 114l113 142l-73 142c-2 4 -3 9 -3 14c0 24 25 42 44 42c18 0 25 -10 33 -26l90 -172l-138 -172
c-13 -16 -23 -26 -41 -26c-17 0 -33 14 -33 33c0 10 3 17 8 23z" />
    <glyph glyph-name="questiondown" unicode="&#xbf;" horiz-adv-x="502" 
d="M207 236c7 6 10 22 12 31c7 39 44 64 79 64c28 0 61 -18 61 -60c0 -55 -53 -109 -98 -149c-36 -32 -100 -84 -100 -150c0 -41 27 -75 88 -75c22 0 54 4 81 16c22 10 39 27 66 27c30 0 59 -21 59 -55c0 -77 -147 -110 -233 -110c-124 0 -200 73 -200 182
c0 93 49 155 107 209c38 36 57 51 78 70zM229 424c0 46 45 86 95 86c42 0 73 -32 73 -70c0 -46 -45 -85 -95 -85c-42 0 -73 31 -73 69z" />
    <glyph glyph-name="Agrave" unicode="&#xc0;" horiz-adv-x="589" 
d="M206 139l-48 -101c-14 -29 -48 -47 -72 -47c-36 0 -64 23 -64 57c0 9 4 23 7 29l275 569c19 39 42 68 90 68s65 -28 73 -68l115 -569v-11c0 -45 -37 -75 -81 -75c-26 0 -56 19 -62 47l-21 101h-212zM398 253l-27 171c-5 29 -4 67 -4 98c-8 -31 -19 -69 -32 -98l-77 -171
h140zM393 910l71 -79c4 -5 5 -10 5 -16c0 -35 -28 -58 -59 -58c-22 0 -29 8 -42 21l-70 82c-5 7 -6 16 -6 23c0 31 32 54 56 54c22 0 28 -7 39 -19z" />
    <glyph glyph-name="Aacute" unicode="&#xc1;" horiz-adv-x="589" 
d="M206 139l-48 -101c-14 -29 -48 -47 -72 -47c-36 0 -64 23 -64 57c0 9 4 23 7 29l275 569c19 39 42 68 90 68s65 -28 73 -68l115 -569v-11c0 -45 -37 -75 -81 -75c-26 0 -56 19 -62 47l-21 101h-212zM398 253l-27 171c-5 29 -4 67 -4 98c-8 -31 -19 -69 -32 -98l-77 -171
h140zM368 831l92 79l9 8c14 12 22 19 44 19c21 0 42 -19 42 -44c0 -8 -2 -20 -13 -33l-93 -82c-17 -13 -26 -21 -48 -21c-26 0 -45 17 -45 43c0 16 5 23 12 31z" />
    <glyph glyph-name="Acircumflex" unicode="&#xc2;" horiz-adv-x="589" 
d="M206 139l-48 -101c-14 -29 -48 -47 -72 -47c-36 0 -64 23 -64 57c0 9 4 23 7 29l275 569c19 39 42 68 90 68s65 -28 73 -68l115 -569v-11c0 -45 -37 -75 -81 -75c-26 0 -56 19 -62 47l-21 101h-212zM398 253l-27 171c-5 29 -4 67 -4 98c-8 -31 -19 -69 -32 -98l-77 -171
h140zM422 916c16 0 27 -6 35 -13l71 -61c13 -13 22 -28 21 -45c-4 -25 -30 -46 -57 -46c-33 0 -60 38 -84 64c-32 -26 -69 -64 -102 -64c-27 0 -47 21 -43 46c3 17 16 32 33 45l87 61c10 7 23 13 39 13z" />
    <glyph glyph-name="Atilde" unicode="&#xc3;" horiz-adv-x="589" 
d="M206 139l-48 -101c-14 -29 -48 -47 -72 -47c-36 0 -64 23 -64 57c0 9 4 23 7 29l275 569c19 39 42 68 90 68s65 -28 73 -68l115 -569v-11c0 -45 -37 -75 -81 -75c-26 0 -56 19 -62 47l-21 101h-212zM398 253l-27 171c-5 29 -4 67 -4 98c-8 -31 -19 -69 -32 -98l-77 -171
h140zM569 848c0 -44 -60 -78 -101 -78c-53 0 -76 36 -105 40s-37 -36 -70 -36c-21 0 -41 16 -40 41c6 46 54 80 99 80c56 0 75 -40 106 -40s35 36 68 36c23 0 43 -18 43 -43z" />
    <glyph glyph-name="Adieresis" unicode="&#xc4;" horiz-adv-x="589" 
d="M206 139l-48 -101c-14 -29 -48 -47 -72 -47c-36 0 -64 23 -64 57c0 9 4 23 7 29l275 569c19 39 42 68 90 68s65 -28 73 -68l115 -569v-11c0 -45 -37 -75 -81 -75c-26 0 -56 19 -62 47l-21 101h-212zM398 253l-27 171c-5 29 -4 67 -4 98c-8 -31 -19 -69 -32 -98l-77 -171
h140zM566 837c0 -38 -35 -70 -74 -70c-33 0 -58 26 -58 56c0 37 36 68 75 68c33 0 57 -24 57 -54zM387 837c0 -38 -35 -70 -75 -70c-33 0 -56 25 -56 56c0 36 34 68 73 68c34 0 58 -24 58 -54z" />
    <glyph glyph-name="Aring" unicode="&#xc5;" horiz-adv-x="589" 
d="M206 139l-48 -101c-14 -29 -48 -47 -72 -47c-36 0 -64 23 -64 57c0 9 4 23 7 29l276 572c-12 16 -19 39 -19 62c0 65 59 122 126 122c56 0 95 -44 95 -97c0 -33 -16 -65 -41 -87l116 -572v-11c0 -45 -37 -75 -81 -75c-26 0 -56 19 -62 47l-21 101h-212zM398 253l-27 171
c-5 29 -4 67 -4 98c-8 -31 -19 -69 -32 -98l-77 -171h140zM441 729c0 22 -16 40 -38 40c-26 0 -51 -24 -51 -50c0 -22 17 -39 38 -39c27 0 51 22 51 49z" />
    <glyph glyph-name="AE" unicode="&#xc6;" horiz-adv-x="772" 
d="M454 0c-49 0 -91 17 -83 71l10 68h-175l-47 -100c-14 -29 -48 -48 -73 -48c-38 0 -64 23 -64 56c0 10 4 24 7 30l272 560c17 34 48 68 90 68h377c35 0 61 -26 61 -58c0 -39 -38 -69 -79 -69h-168l-22 -161h149c32 0 60 -24 60 -57c0 -38 -36 -70 -78 -70h-149l-23 -163
h178c34 0 62 -25 62 -56c0 -38 -39 -71 -80 -71h-225zM442 578h-8c-14 0 -23 -6 -29 -19l-145 -306h136z" />
    <glyph glyph-name="Ccedilla" unicode="&#xc7;" horiz-adv-x="522" 
d="M404 -106c0 -63 -55 -110 -129 -110c-53 0 -112 18 -112 55c0 20 17 33 38 33c19 0 46 -9 72 -9c34 0 50 9 50 24c0 14 -15 19 -53 26c-30 6 -46 5 -38 47l11 35c-141 17 -192 116 -172 259l28 198c22 158 117 262 292 262c101 0 192 -46 192 -101c0 -34 -34 -66 -75 -66
c-23 0 -29 7 -41 15l-9 6c-23 15 -47 24 -79 24c-90 0 -128 -54 -140 -140l-28 -198c-12 -86 10 -140 100 -140c32 0 59 10 86 24l12 6c14 7 22 15 45 15c35 0 58 -25 58 -54c0 -55 -91 -103 -190 -111l-7 -27c63 -5 89 -34 89 -73z" />
    <glyph glyph-name="Egrave" unicode="&#xc8;" horiz-adv-x="514" 
d="M500 71c0 -38 -38 -71 -79 -71h-265c-49 0 -91 17 -83 71l79 563c5 35 43 71 87 71h271c35 0 61 -27 61 -58c0 -40 -38 -69 -79 -69h-208l-23 -161h189c33 0 61 -24 61 -57c0 -38 -37 -70 -79 -70h-189l-23 -163h218c35 0 62 -25 62 -56zM388 910l71 -79
c4 -5 5 -10 5 -16c0 -35 -28 -58 -59 -58c-22 0 -29 8 -42 21l-70 82c-5 7 -6 16 -6 23c0 31 32 54 56 54c22 0 28 -7 39 -19z" />
    <glyph glyph-name="Eacute" unicode="&#xc9;" horiz-adv-x="514" 
d="M500 71c0 -38 -38 -71 -79 -71h-265c-49 0 -91 17 -83 71l79 563c5 35 43 71 87 71h271c35 0 61 -27 61 -58c0 -40 -38 -69 -79 -69h-208l-23 -161h189c33 0 61 -24 61 -57c0 -38 -37 -70 -79 -70h-189l-23 -163h218c35 0 62 -25 62 -56zM354 831l92 79l9 8
c14 12 22 19 44 19c21 0 42 -19 42 -44c0 -8 -2 -20 -13 -33l-93 -82c-17 -13 -26 -21 -48 -21c-26 0 -45 17 -45 43c0 16 5 23 12 31z" />
    <glyph glyph-name="Ecircumflex" unicode="&#xca;" horiz-adv-x="514" 
d="M500 71c0 -38 -38 -71 -79 -71h-265c-49 0 -91 17 -83 71l79 563c5 35 43 71 87 71h271c35 0 61 -27 61 -58c0 -40 -38 -69 -79 -69h-208l-23 -161h189c33 0 61 -24 61 -57c0 -38 -37 -70 -79 -70h-189l-23 -163h218c35 0 62 -25 62 -56zM413 916c16 0 27 -6 35 -13
l71 -61c13 -13 22 -28 21 -45c-4 -25 -30 -46 -57 -46c-33 0 -60 38 -84 64c-32 -26 -69 -64 -102 -64c-27 0 -47 21 -43 46c3 17 16 32 33 45l87 61c10 7 23 13 39 13z" />
    <glyph glyph-name="Edieresis" unicode="&#xcb;" horiz-adv-x="514" 
d="M500 71c0 -38 -38 -71 -79 -71h-265c-49 0 -91 17 -83 71l79 563c5 35 43 71 87 71h271c35 0 61 -27 61 -58c0 -40 -38 -69 -79 -69h-208l-23 -161h189c33 0 61 -24 61 -57c0 -38 -37 -70 -79 -70h-189l-23 -163h218c35 0 62 -25 62 -56zM553 837c0 -38 -35 -70 -74 -70
c-33 0 -58 26 -58 56c0 37 36 68 75 68c33 0 57 -24 57 -54zM374 837c0 -38 -35 -70 -75 -70c-33 0 -56 25 -56 56c0 36 34 68 73 68c34 0 58 -24 58 -54z" />
    <glyph glyph-name="Igrave" unicode="&#xcc;" horiz-adv-x="267" 
d="M71 55l83 595c5 34 40 64 79 64c38 0 66 -30 61 -64l-83 -595c-5 -34 -41 -64 -79 -64c-39 0 -66 30 -61 64zM232 910l71 -79c4 -5 5 -10 5 -16c0 -35 -28 -58 -59 -58c-22 0 -29 8 -42 21l-70 82c-5 7 -6 16 -6 23c0 31 32 54 56 54c22 0 28 -7 39 -19z" />
    <glyph glyph-name="Iacute" unicode="&#xcd;" horiz-adv-x="267" 
d="M71 55l83 595c5 34 40 64 79 64c38 0 66 -30 61 -64l-83 -595c-5 -34 -41 -64 -79 -64c-39 0 -66 30 -61 64zM199 831l92 79l9 8c14 12 22 19 44 19c21 0 42 -19 42 -44c0 -8 -2 -20 -13 -33l-93 -82c-17 -13 -26 -21 -48 -21c-26 0 -45 17 -45 43c0 16 5 23 12 31z" />
    <glyph glyph-name="Icircumflex" unicode="&#xce;" horiz-adv-x="267" 
d="M71 55l83 595c5 34 40 64 79 64c38 0 66 -30 61 -64l-83 -595c-5 -34 -41 -64 -79 -64c-39 0 -66 30 -61 64zM262 916c16 0 27 -6 35 -13l71 -61c13 -13 22 -28 21 -45c-4 -25 -30 -46 -57 -46c-33 0 -60 38 -84 64c-32 -26 -69 -64 -102 -64c-27 0 -47 21 -43 46
c3 17 16 32 33 45l87 61c10 7 23 13 39 13z" />
    <glyph glyph-name="Idieresis" unicode="&#xcf;" horiz-adv-x="267" 
d="M71 55l83 595c5 34 40 64 79 64c38 0 66 -30 61 -64l-83 -595c-5 -34 -41 -64 -79 -64c-39 0 -66 30 -61 64zM405 837c0 -38 -35 -70 -74 -70c-33 0 -58 26 -58 56c0 37 36 68 75 68c33 0 57 -24 57 -54zM226 837c0 -38 -35 -70 -75 -70c-33 0 -56 25 -56 56
c0 36 34 68 73 68c34 0 58 -24 58 -54z" />
    <glyph glyph-name="Eth" unicode="&#xd0;" horiz-adv-x="616" 
d="M619 271c-20 -141 -115 -271 -342 -271h-113c-42 0 -73 33 -68 72l31 220h-9c-35 0 -59 24 -59 54c0 36 35 69 76 69h9l31 218c5 39 46 72 88 72h113c226 0 286 -123 267 -262zM442 359c0 -36 -35 -67 -75 -67h-100l-23 -165h68c110 0 156 65 167 144l24 172
c11 76 -20 135 -128 135h-68l-23 -163h100c34 0 58 -26 58 -56z" />
    <glyph glyph-name="Ntilde" unicode="&#xd1;" horiz-adv-x="640" 
d="M501 -9c-26 0 -52 14 -62 35l-176 404l-52 -374c-5 -35 -42 -65 -80 -65c-39 0 -65 30 -60 65l83 590c5 39 40 68 82 68c27 0 52 -15 63 -37c68 -154 106 -245 175 -406l53 378c5 35 42 65 80 65c39 0 65 -30 60 -65l-83 -590c-5 -37 -39 -68 -83 -68zM595 848
c0 -44 -60 -78 -101 -78c-53 0 -76 36 -105 40s-37 -36 -70 -36c-21 0 -41 16 -40 41c6 46 54 80 99 80c56 0 75 -40 106 -40s35 36 68 36c23 0 43 -18 43 -43z" />
    <glyph glyph-name="Ograve" unicode="&#xd2;" horiz-adv-x="610" 
d="M304 -9c-173 0 -244 117 -223 263l27 198c20 142 110 262 297 262s243 -120 223 -262l-27 -198c-21 -146 -124 -263 -297 -263zM387 587c-88 0 -127 -54 -139 -135l-27 -198c-12 -80 18 -136 100 -136s128 56 140 136l27 198c12 81 -13 135 -101 135zM397 910l71 -79
c4 -5 5 -10 5 -16c0 -35 -28 -58 -59 -58c-22 0 -29 8 -42 21l-70 82c-5 7 -6 16 -6 23c0 31 32 54 56 54c22 0 28 -7 39 -19z" />
    <glyph glyph-name="Oacute" unicode="&#xd3;" horiz-adv-x="610" 
d="M304 -9c-173 0 -244 117 -223 263l27 198c20 142 110 262 297 262s243 -120 223 -262l-27 -198c-21 -146 -124 -263 -297 -263zM387 587c-88 0 -127 -54 -139 -135l-27 -198c-12 -80 18 -136 100 -136s128 56 140 136l27 198c12 81 -13 135 -101 135zM364 831l92 79l9 8
c14 12 22 19 44 19c21 0 42 -19 42 -44c0 -8 -2 -20 -13 -33l-93 -82c-17 -13 -26 -21 -48 -21c-26 0 -45 17 -45 43c0 16 5 23 12 31z" />
    <glyph glyph-name="Ocircumflex" unicode="&#xd4;" horiz-adv-x="610" 
d="M304 -9c-173 0 -244 117 -223 263l27 198c20 142 110 262 297 262s243 -120 223 -262l-27 -198c-21 -146 -124 -263 -297 -263zM387 587c-88 0 -127 -54 -139 -135l-27 -198c-12 -80 18 -136 100 -136s128 56 140 136l27 198c12 81 -13 135 -101 135zM433 916
c16 0 27 -6 35 -13l71 -61c13 -13 22 -28 21 -45c-4 -25 -30 -46 -57 -46c-33 0 -60 38 -84 64c-32 -26 -69 -64 -102 -64c-27 0 -47 21 -43 46c3 17 16 32 33 45l87 61c10 7 23 13 39 13z" />
    <glyph glyph-name="Otilde" unicode="&#xd5;" horiz-adv-x="610" 
d="M304 -9c-173 0 -244 117 -223 263l27 198c20 142 110 262 297 262s243 -120 223 -262l-27 -198c-21 -146 -124 -263 -297 -263zM387 587c-88 0 -127 -54 -139 -135l-27 -198c-12 -80 18 -136 100 -136s128 56 140 136l27 198c12 81 -13 135 -101 135zM580 848
c0 -44 -60 -78 -101 -78c-53 0 -76 36 -105 40s-37 -36 -70 -36c-21 0 -41 16 -40 41c6 46 54 80 99 80c56 0 75 -40 106 -40s35 36 68 36c23 0 43 -18 43 -43z" />
    <glyph glyph-name="Odieresis" unicode="&#xd6;" horiz-adv-x="610" 
d="M304 -9c-173 0 -244 117 -223 263l27 198c20 142 110 262 297 262s243 -120 223 -262l-27 -198c-21 -146 -124 -263 -297 -263zM387 587c-88 0 -127 -54 -139 -135l-27 -198c-12 -80 18 -136 100 -136s128 56 140 136l27 198c12 81 -13 135 -101 135zM577 837
c0 -38 -35 -70 -74 -70c-33 0 -58 26 -58 56c0 37 36 68 75 68c33 0 57 -24 57 -54zM398 837c0 -38 -35 -70 -75 -70c-33 0 -56 25 -56 56c0 36 34 68 73 68c34 0 58 -24 58 -54z" />
    <glyph glyph-name="multiply" unicode="&#xd7;" horiz-adv-x="500" 
d="M465 474l-120 -120l120 -120c16 -16 16 -40 0 -55c-15 -16 -41 -15 -55 0l-120 120l-120 -120c-14 -15 -40 -16 -55 0c-16 15 -16 39 0 55l120 120l-120 120c-15 14 -16 40 0 55c15 16 39 16 55 0l120 -120l120 120c16 16 40 16 55 0c16 -15 15 -41 0 -55z" />
    <glyph glyph-name="Oslash" unicode="&#xd8;" horiz-adv-x="591" 
d="M51 39l43 52c-25 44 -32 101 -23 163l28 198c20 142 110 262 297 262c80 0 136 -22 172 -59l34 40c10 12 27 15 38 7c10 -8 11 -24 1 -36l-43 -51c23 -45 30 -102 21 -163l-28 -198c-21 -146 -124 -263 -297 -263c-76 0 -133 22 -170 60l-34 -41c-10 -12 -27 -15 -38 -7
c-10 8 -11 24 -1 36zM378 587c-88 0 -128 -54 -139 -135l-28 -198c-1 -10 -3 -19 -3 -27l263 312c-14 30 -43 48 -93 48zM479 452c1 8 1 16 2 24l-260 -310c14 -30 44 -48 91 -48c82 0 128 56 139 136z" />
    <glyph glyph-name="Ugrave" unicode="&#xd9;" horiz-adv-x="612" 
d="M591 240c-20 -144 -128 -249 -286 -249c-161 0 -236 106 -216 249l57 408c6 38 41 66 81 66c37 0 64 -30 59 -66l-57 -408c-10 -72 18 -122 94 -122c75 0 117 51 127 122l57 408c5 35 40 66 79 66c41 0 67 -31 62 -66zM407 910l71 -79c4 -5 5 -10 5 -16
c0 -35 -28 -58 -59 -58c-22 0 -29 8 -42 21l-70 82c-5 7 -6 16 -6 23c0 31 32 54 56 54c22 0 28 -7 39 -19z" />
    <glyph glyph-name="Uacute" unicode="&#xda;" horiz-adv-x="612" 
d="M591 240c-20 -144 -128 -249 -286 -249c-161 0 -236 106 -216 249l57 408c6 38 41 66 81 66c37 0 64 -30 59 -66l-57 -408c-10 -72 18 -122 94 -122c75 0 117 51 127 122l57 408c5 35 40 66 79 66c41 0 67 -31 62 -66zM377 831l92 79l9 8c14 12 22 19 44 19
c21 0 42 -19 42 -44c0 -8 -2 -20 -13 -33l-93 -82c-17 -13 -26 -21 -48 -21c-26 0 -45 17 -45 43c0 16 5 23 12 31z" />
    <glyph glyph-name="Ucircumflex" unicode="&#xdb;" horiz-adv-x="612" 
d="M591 240c-20 -144 -128 -249 -286 -249c-161 0 -236 106 -216 249l57 408c6 38 41 66 81 66c37 0 64 -30 59 -66l-57 -408c-10 -72 18 -122 94 -122c75 0 117 51 127 122l57 408c5 35 40 66 79 66c41 0 67 -31 62 -66zM434 916c16 0 27 -6 35 -13l71 -61
c13 -13 22 -28 21 -45c-4 -25 -30 -46 -57 -46c-33 0 -60 38 -84 64c-32 -26 -69 -64 -102 -64c-27 0 -47 21 -43 46c3 17 16 32 33 45l87 61c10 7 23 13 39 13z" />
    <glyph glyph-name="Udieresis" unicode="&#xdc;" horiz-adv-x="612" 
d="M591 240c-20 -144 -128 -249 -286 -249c-161 0 -236 106 -216 249l57 408c6 38 41 66 81 66c37 0 64 -30 59 -66l-57 -408c-10 -72 18 -122 94 -122c75 0 117 51 127 122l57 408c5 35 40 66 79 66c41 0 67 -31 62 -66zM577 837c0 -38 -35 -70 -74 -70
c-33 0 -58 26 -58 56c0 37 36 68 75 68c33 0 57 -24 57 -54zM398 837c0 -38 -35 -70 -75 -70c-33 0 -56 25 -56 56c0 36 34 68 73 68c34 0 58 -24 58 -54z" />
    <glyph glyph-name="Yacute" unicode="&#xdd;" horiz-adv-x="530" 
d="M264 -9c-40 0 -67 30 -62 66l31 219l-127 344c-2 5 -3 14 -3 22c0 39 42 72 81 72c21 0 43 -9 53 -30l90 -248l159 248c14 21 40 30 62 30c33 0 62 -27 62 -59c0 -13 -7 -25 -11 -35l-224 -344l-31 -219c-5 -35 -40 -66 -80 -66zM339 831l92 79l9 8c14 12 22 19 44 19
c21 0 42 -19 42 -44c0 -8 -2 -20 -13 -33l-93 -82c-17 -13 -26 -21 -48 -21c-26 0 -45 17 -45 43c0 16 5 23 12 31z" />
    <glyph glyph-name="Thorn" unicode="&#xde;" horiz-adv-x="570" 
d="M71 57l83 592c5 37 43 66 80 66c38 0 65 -31 60 -66l-9 -63h85c167 0 227 -90 227 -193c0 -161 -118 -253 -289 -253h-85l-12 -83c-5 -35 -41 -66 -79 -66c-37 0 -66 30 -61 66zM268 459l-27 -192h85c84 0 129 36 129 111c0 41 -21 81 -102 81h-85z" />
    <glyph glyph-name="germandbls" unicode="&#xdf;" horiz-adv-x="610" 
d="M203 4c-5 -33 -39 -62 -78 -62s-65 29 -60 62l68 484c20 142 112 228 257 228c111 0 191 -53 191 -154c0 -115 -87 -164 -140 -191c-6 -3 -13 -6 -3 -11c80 -39 152 -77 152 -166c0 -131 -122 -198 -247 -198c-82 0 -105 31 -105 62c0 33 25 65 69 65c23 0 37 -9 63 -9
c39 0 81 19 81 67c0 43 -42 71 -88 88c-31 11 -70 25 -70 75c0 45 26 70 54 85c29 16 95 38 95 110c0 42 -31 59 -73 59c-58 0 -87 -33 -98 -107z" />
    <glyph glyph-name="agrave" unicode="&#xe0;" horiz-adv-x="533" 
d="M344 149l25 180c7 47 -13 66 -64 66c-49 0 -71 -31 -80 -93l-16 -113c-7 -52 11 -80 54 -80c21 0 47 7 80 21c0 7 0 13 1 19zM227 -7c-116 0 -172 79 -156 196l16 113c17 119 99 211 242 211c145 0 194 -72 175 -207l-26 -186c-4 -30 11 -27 27 -34c12 -5 18 -14 18 -30
c0 -36 -20 -60 -80 -60c-37 0 -60 10 -79 42c-41 -30 -81 -45 -137 -45zM375 710l71 -79c4 -5 5 -10 5 -16c0 -35 -28 -58 -59 -58c-22 0 -29 8 -42 21l-70 82c-5 7 -6 16 -6 23c0 31 32 54 56 54c22 0 28 -7 39 -19z" />
    <glyph glyph-name="aacute" unicode="&#xe1;" horiz-adv-x="533" 
d="M344 149l25 180c7 47 -13 66 -64 66c-49 0 -71 -31 -80 -93l-16 -113c-7 -52 11 -80 54 -80c21 0 47 7 80 21c0 7 0 13 1 19zM227 -7c-116 0 -172 79 -156 196l16 113c17 119 99 211 242 211c145 0 194 -72 175 -207l-26 -186c-4 -30 11 -27 27 -34c12 -5 18 -14 18 -30
c0 -36 -20 -60 -80 -60c-37 0 -60 10 -79 42c-41 -30 -81 -45 -137 -45zM275 631l92 79l9 8c14 12 22 19 44 19c21 0 42 -19 42 -44c0 -8 -2 -20 -13 -33l-93 -82c-17 -13 -26 -21 -48 -21c-26 0 -45 17 -45 43c0 16 5 23 12 31z" />
    <glyph glyph-name="acircumflex" unicode="&#xe2;" horiz-adv-x="533" 
d="M344 149l25 180c7 47 -13 66 -64 66c-49 0 -71 -31 -80 -93l-16 -113c-7 -52 11 -80 54 -80c21 0 47 7 80 21c0 7 0 13 1 19zM227 -7c-116 0 -172 79 -156 196l16 113c17 119 99 211 242 211c145 0 194 -72 175 -207l-26 -186c-4 -30 11 -27 27 -34c12 -5 18 -14 18 -30
c0 -36 -20 -60 -80 -60c-37 0 -60 10 -79 42c-41 -30 -81 -45 -137 -45zM372 716c16 0 27 -6 35 -13l71 -61c13 -13 22 -28 21 -45c-4 -25 -30 -46 -57 -46c-33 0 -60 38 -84 64c-32 -26 -69 -64 -102 -64c-27 0 -47 21 -43 46c3 17 16 32 33 45l87 61c10 7 23 13 39 13z
" />
    <glyph glyph-name="atilde" unicode="&#xe3;" horiz-adv-x="533" 
d="M344 149l25 180c7 47 -13 66 -64 66c-49 0 -71 -31 -80 -93l-16 -113c-7 -52 11 -80 54 -80c21 0 47 7 80 21c0 7 0 13 1 19zM227 -7c-116 0 -172 79 -156 196l16 113c17 119 99 211 242 211c145 0 194 -72 175 -207l-26 -186c-4 -30 11 -27 27 -34c12 -5 18 -14 18 -30
c0 -36 -20 -60 -80 -60c-37 0 -60 10 -79 42c-41 -30 -81 -45 -137 -45zM519 648c0 -44 -60 -78 -101 -78c-53 0 -76 36 -105 40s-37 -36 -70 -36c-21 0 -41 16 -40 41c6 46 54 80 99 80c56 0 75 -40 106 -40s35 36 68 36c23 0 43 -18 43 -43z" />
    <glyph glyph-name="adieresis" unicode="&#xe4;" horiz-adv-x="533" 
d="M344 149l25 180c7 47 -13 66 -64 66c-49 0 -71 -31 -80 -93l-16 -113c-7 -52 11 -80 54 -80c21 0 47 7 80 21c0 7 0 13 1 19zM227 -7c-116 0 -172 79 -156 196l16 113c17 119 99 211 242 211c145 0 194 -72 175 -207l-26 -186c-4 -30 11 -27 27 -34c12 -5 18 -14 18 -30
c0 -36 -20 -60 -80 -60c-37 0 -60 10 -79 42c-41 -30 -81 -45 -137 -45zM515 637c0 -38 -35 -70 -74 -70c-33 0 -58 26 -58 56c0 37 36 68 75 68c33 0 57 -24 57 -54zM336 637c0 -38 -35 -70 -75 -70c-33 0 -56 25 -56 56c0 36 34 68 73 68c34 0 58 -24 58 -54z" />
    <glyph glyph-name="aring" unicode="&#xe5;" horiz-adv-x="533" 
d="M344 149l25 180c7 47 -13 66 -64 66c-49 0 -71 -31 -80 -93l-16 -113c-7 -52 11 -80 54 -80c21 0 47 7 80 21c0 7 0 13 1 19zM227 -7c-116 0 -172 79 -156 196l16 113c17 119 99 211 242 211c145 0 194 -72 175 -207l-26 -186c-4 -30 11 -27 27 -34c12 -5 18 -14 18 -30
c0 -36 -20 -60 -80 -60c-37 0 -60 10 -79 42c-41 -30 -81 -45 -137 -45zM473 657c0 -67 -59 -122 -125 -122c-57 0 -96 42 -96 96c0 66 59 122 126 122c56 0 95 -43 95 -96zM408 649c0 22 -17 40 -39 40c-26 0 -50 -24 -50 -50c0 -21 16 -39 38 -39c26 0 51 23 51 49z" />
    <glyph glyph-name="ae" unicode="&#xe6;" horiz-adv-x="712" 
d="M527 181c-21 0 -48 1 -71 4l-3 -21c-5 -34 19 -56 71 -56c35 0 59 9 93 22c10 3 19 6 29 6c34 0 57 -26 57 -53c0 -69 -140 -90 -201 -90c-63 0 -107 18 -135 51c-51 -34 -107 -51 -170 -51c-123 0 -174 65 -160 162v3c15 106 90 159 228 159c25 0 48 -1 71 -5l2 17
c7 47 -15 69 -67 69c-27 0 -46 -7 -67 -16c-8 -3 -20 -10 -39 -10c-37 0 -51 26 -51 50c0 64 97 91 183 91c64 0 106 -16 131 -50c37 31 89 50 153 50c113 0 170 -58 170 -147c0 -112 -65 -185 -224 -185zM206 382h-1l-6 -3c1 0 3 0 7 3zM613 351c0 32 -19 45 -54 45
c-46 0 -76 -21 -81 -55l-6 -43c27 -2 60 -4 74 -4c50 0 67 23 67 57zM311 135l9 62c-25 5 -50 8 -71 8c-57 0 -71 -22 -75 -48l-1 -3c-3 -26 8 -45 52 -45c32 0 57 7 86 26z" />
    <glyph glyph-name="ccedilla" unicode="&#xe7;" horiz-adv-x="443" 
d="M357 -106c0 -63 -55 -110 -129 -110c-53 0 -112 18 -112 55c0 20 16 33 38 33c19 0 46 -9 72 -9c34 0 50 9 50 24c0 14 -15 19 -53 26c-30 6 -46 5 -39 47l12 38c-101 19 -138 94 -125 186l19 135c15 107 91 191 234 191c56 0 159 -13 159 -79c0 -25 -12 -59 -70 -59
c-10 0 -19 1 -32 6c-20 8 -34 17 -65 17c-55 0 -81 -29 -88 -76l-19 -135c-7 -47 11 -76 66 -76c31 0 50 9 71 17c11 4 17 6 31 6c46 0 58 -23 58 -44c0 -68 -95 -89 -161 -93l-7 -27c64 -5 90 -34 90 -73z" />
    <glyph glyph-name="egrave" unicode="&#xe8;" horiz-adv-x="485" 
d="M287 191c-26 0 -48 2 -76 6l-5 -33c-5 -34 18 -56 72 -56c32 0 60 8 94 22c4 2 13 6 30 6c43 0 55 -27 55 -48c0 -76 -138 -95 -205 -95c-132 0 -197 76 -183 175l23 167c14 101 99 178 238 178c118 0 175 -59 175 -146c0 -108 -65 -176 -218 -176zM367 361
c0 32 -18 45 -53 45c-48 0 -77 -25 -83 -65l-6 -43c32 -3 62 -4 72 -4c43 0 70 16 70 67zM346 710l71 -79c4 -5 5 -10 5 -16c0 -35 -28 -58 -59 -58c-22 0 -29 8 -42 21l-70 82c-5 7 -6 16 -6 23c0 31 32 54 56 54c22 0 28 -7 39 -19z" />
    <glyph glyph-name="eacute" unicode="&#xe9;" horiz-adv-x="485" 
d="M287 191c-26 0 -48 2 -76 6l-5 -33c-5 -34 18 -56 72 -56c32 0 60 8 94 22c4 2 13 6 30 6c43 0 55 -27 55 -48c0 -76 -138 -95 -205 -95c-132 0 -197 76 -183 175l23 167c14 101 99 178 238 178c118 0 175 -59 175 -146c0 -108 -65 -176 -218 -176zM367 361
c0 32 -18 45 -53 45c-48 0 -77 -25 -83 -65l-6 -43c32 -3 62 -4 72 -4c43 0 70 16 70 67zM292 631l92 79l9 8c14 12 22 19 44 19c21 0 42 -19 42 -44c0 -8 -2 -20 -13 -33l-93 -82c-17 -13 -26 -21 -48 -21c-26 0 -45 17 -45 43c0 16 5 23 12 31z" />
    <glyph glyph-name="ecircumflex" unicode="&#xea;" horiz-adv-x="485" 
d="M287 191c-26 0 -48 2 -76 6l-5 -33c-5 -34 18 -56 72 -56c32 0 60 8 94 22c4 2 13 6 30 6c43 0 55 -27 55 -48c0 -76 -138 -95 -205 -95c-132 0 -197 76 -183 175l23 167c14 101 99 178 238 178c118 0 175 -59 175 -146c0 -108 -65 -176 -218 -176zM367 361
c0 32 -18 45 -53 45c-48 0 -77 -25 -83 -65l-6 -43c32 -3 62 -4 72 -4c43 0 70 16 70 67zM353 716c16 0 27 -6 35 -13l71 -61c13 -13 22 -28 21 -45c-4 -25 -30 -46 -57 -46c-33 0 -60 38 -84 64c-32 -26 -69 -64 -102 -64c-27 0 -47 21 -43 46c3 17 16 32 33 45l87 61
c10 7 23 13 39 13z" />
    <glyph glyph-name="edieresis" unicode="&#xeb;" horiz-adv-x="485" 
d="M287 191c-26 0 -48 2 -76 6l-5 -33c-5 -34 18 -56 72 -56c32 0 60 8 94 22c4 2 13 6 30 6c43 0 55 -27 55 -48c0 -76 -138 -95 -205 -95c-132 0 -197 76 -183 175l23 167c14 101 99 178 238 178c118 0 175 -59 175 -146c0 -108 -65 -176 -218 -176zM367 361
c0 32 -18 45 -53 45c-48 0 -77 -25 -83 -65l-6 -43c32 -3 62 -4 72 -4c43 0 70 16 70 67zM486 637c0 -38 -35 -70 -74 -70c-33 0 -58 26 -58 56c0 37 36 68 75 68c33 0 57 -24 57 -54zM307 637c0 -38 -35 -70 -75 -70c-33 0 -56 25 -56 56c0 36 34 68 73 68
c34 0 58 -24 58 -54z" />
    <glyph glyph-name="igrave" unicode="&#xec;" horiz-adv-x="285" 
d="M88 111l48 338c5 33 39 61 78 61s65 -28 60 -61l-46 -326c-3 -21 -3 -26 9 -41c7 -9 13 -15 13 -29c0 -39 -31 -60 -83 -60c-40 0 -94 13 -79 118zM205 710l71 -79c4 -5 5 -10 5 -16c0 -35 -28 -58 -59 -58c-22 0 -29 8 -42 21l-70 82c-5 7 -6 16 -6 23c0 31 32 54 56 54
c22 0 28 -7 39 -19z" />
    <glyph glyph-name="iacute" unicode="&#xed;" horiz-adv-x="285" 
d="M88 111l48 338c5 33 39 61 78 61s65 -28 60 -61l-46 -326c-3 -21 -3 -26 9 -41c7 -9 13 -15 13 -29c0 -39 -31 -60 -83 -60c-40 0 -94 13 -79 118zM189 631l92 79l9 8c14 12 22 19 44 19c21 0 42 -19 42 -44c0 -8 -2 -20 -13 -33l-93 -82c-17 -13 -26 -21 -48 -21
c-26 0 -45 17 -45 43c0 16 5 23 12 31z" />
    <glyph glyph-name="icircumflex" unicode="&#xee;" horiz-adv-x="285" 
d="M88 111l48 338c5 33 39 61 78 61s65 -28 60 -61l-46 -326c-3 -21 -3 -26 9 -41c7 -9 13 -15 13 -29c0 -39 -31 -60 -83 -60c-40 0 -94 13 -79 118zM243 716c16 0 27 -6 35 -13l71 -61c13 -13 22 -28 21 -45c-4 -25 -30 -46 -57 -46c-33 0 -60 38 -84 64
c-32 -26 -69 -64 -102 -64c-27 0 -47 21 -43 46c3 17 16 32 33 45l87 61c10 7 23 13 39 13z" />
    <glyph glyph-name="idieresis" unicode="&#xef;" horiz-adv-x="285" 
d="M88 111l48 338c5 33 39 61 78 61s65 -28 60 -61l-46 -326c-3 -21 -3 -26 9 -41c7 -9 13 -15 13 -29c0 -39 -31 -60 -83 -60c-40 0 -94 13 -79 118zM386 637c0 -38 -35 -70 -74 -70c-33 0 -58 26 -58 56c0 37 36 68 75 68c33 0 57 -24 57 -54zM207 637
c0 -38 -35 -70 -75 -70c-33 0 -56 25 -56 56c0 36 34 68 73 68c34 0 58 -24 58 -54z" />
    <glyph glyph-name="eth" unicode="&#xf0;" horiz-adv-x="575" 
d="M632 684c0 0 4 -1 4 -8c0 -12 -5 -25 -18 -33l-64 -46c15 -39 23 -106 23 -174c0 -335 -101 -432 -287 -432c-153 0 -218 82 -218 191c0 139 91 262 251 262c31 0 74 -6 114 -30c3 41 1 73 -3 97l-40 -28c-13 -9 -22 -12 -27 -13c-17 -3 -36 13 -33 34c0 12 5 24 17 31
l52 38c-17 16 -41 20 -63 22c-26 2 -58 6 -46 59c8 36 26 53 92 53c56 0 101 -18 133 -53l56 41c8 6 16 10 27 12c28 4 30 -23 30 -23zM422 278l2 12c-27 21 -75 36 -110 36c-61 0 -102 -50 -102 -126c0 -51 25 -89 90 -89c73 0 101 50 120 167z" />
    <glyph glyph-name="ntilde" unicode="&#xf1;" horiz-adv-x="549" 
d="M361 111l28 205c7 50 -13 81 -53 81c-21 0 -47 -7 -80 -21c0 -7 0 -13 -1 -19l-42 -302c-5 -34 -32 -61 -78 -61s-65 27 -60 61l42 303c5 33 1 36 -2 42c-9 15 -12 23 -12 33c0 36 35 64 76 64c21 0 37 -11 49 -29c49 30 98 43 138 43c126 0 178 -78 161 -195l-27 -193
c-3 -21 -2 -26 10 -41c7 -9 13 -15 13 -29c0 -39 -31 -60 -83 -60c-40 0 -94 13 -79 118zM509 648c0 -44 -60 -78 -101 -78c-53 0 -76 36 -105 40s-37 -36 -70 -36c-21 0 -41 16 -40 41c6 46 54 80 99 80c56 0 75 -40 106 -40s35 36 68 36c23 0 43 -18 43 -43z" />
    <glyph glyph-name="ograve" unicode="&#xf2;" horiz-adv-x="524" 
d="M261 -7c-142 0 -206 81 -191 186l21 149c14 105 101 186 243 186s205 -81 191 -186l-21 -149c-15 -105 -101 -186 -243 -186zM277 111c52 0 83 26 89 68l21 150c6 41 -18 67 -70 67s-82 -26 -88 -67l-21 -150c-6 -42 17 -68 69 -68zM332 710l71 -79c4 -5 5 -10 5 -16
c0 -35 -28 -58 -59 -58c-22 0 -29 8 -42 21l-70 82c-5 7 -6 16 -6 23c0 31 32 54 56 54c22 0 28 -7 39 -19z" />
    <glyph glyph-name="oacute" unicode="&#xf3;" horiz-adv-x="524" 
d="M261 -7c-142 0 -206 81 -191 186l21 149c14 105 101 186 243 186s205 -81 191 -186l-21 -149c-15 -105 -101 -186 -243 -186zM277 111c52 0 83 26 89 68l21 150c6 41 -18 67 -70 67s-82 -26 -88 -67l-21 -150c-6 -42 17 -68 69 -68zM305 631l92 79l9 8c14 12 22 19 44 19
c21 0 42 -19 42 -44c0 -8 -2 -20 -13 -33l-93 -82c-17 -13 -26 -21 -48 -21c-26 0 -45 17 -45 43c0 16 5 23 12 31z" />
    <glyph glyph-name="ocircumflex" unicode="&#xf4;" horiz-adv-x="524" 
d="M261 -7c-142 0 -206 81 -191 186l21 149c14 105 101 186 243 186s205 -81 191 -186l-21 -149c-15 -105 -101 -186 -243 -186zM277 111c52 0 83 26 89 68l21 150c6 41 -18 67 -70 67s-82 -26 -88 -67l-21 -150c-6 -42 17 -68 69 -68zM362 716c16 0 27 -6 35 -13l71 -61
c13 -13 22 -28 21 -45c-4 -25 -30 -46 -57 -46c-33 0 -60 38 -84 64c-32 -26 -69 -64 -102 -64c-27 0 -47 21 -43 46c3 17 16 32 33 45l87 61c10 7 23 13 39 13z" />
    <glyph glyph-name="otilde" unicode="&#xf5;" horiz-adv-x="524" 
d="M261 -7c-142 0 -206 81 -191 186l21 149c14 105 101 186 243 186s205 -81 191 -186l-21 -149c-15 -105 -101 -186 -243 -186zM277 111c52 0 83 26 89 68l21 150c6 41 -18 67 -70 67s-82 -26 -88 -67l-21 -150c-6 -42 17 -68 69 -68zM509 648c0 -44 -60 -78 -101 -78
c-53 0 -76 36 -105 40s-37 -36 -70 -36c-21 0 -41 16 -40 41c6 46 54 80 99 80c56 0 75 -40 106 -40s35 36 68 36c23 0 43 -18 43 -43z" />
    <glyph glyph-name="odieresis" unicode="&#xf6;" horiz-adv-x="524" 
d="M261 -7c-142 0 -206 81 -191 186l21 149c14 105 101 186 243 186s205 -81 191 -186l-21 -149c-15 -105 -101 -186 -243 -186zM277 111c52 0 83 26 89 68l21 150c6 41 -18 67 -70 67s-82 -26 -88 -67l-21 -150c-6 -42 17 -68 69 -68zM505 637c0 -38 -35 -70 -74 -70
c-33 0 -58 26 -58 56c0 37 36 68 75 68c33 0 57 -24 57 -54zM326 637c0 -38 -35 -70 -75 -70c-33 0 -56 25 -56 56c0 36 34 68 73 68c34 0 58 -24 58 -54z" />
    <glyph glyph-name="oslash" unicode="&#xf8;" horiz-adv-x="524" 
d="M261 -7c-52 0 -93 10 -124 29l-26 -31c-9 -11 -26 -14 -36 -6c-11 8 -11 24 -2 36l27 33c-27 32 -37 76 -30 125l21 149c15 105 101 186 243 186c53 0 95 -11 127 -31l26 31c9 11 26 15 37 6c12 -9 12 -24 2 -36l-29 -34c24 -33 35 -75 28 -122l-21 -149
c-15 -105 -101 -186 -243 -186zM229 329l-21 -147l165 196c-12 11 -31 18 -56 18c-52 0 -82 -26 -88 -67zM277 111c52 0 83 26 89 68l19 138l-161 -191c12 -10 29 -15 53 -15z" />
    <glyph glyph-name="ugrave" unicode="&#xf9;" horiz-adv-x="549" 
d="M393 37c-52 -33 -99 -44 -144 -44c-121 0 -175 79 -159 196l37 261c5 34 34 60 78 60s65 -26 60 -60l-37 -261c-7 -51 10 -80 54 -80c21 0 47 7 80 21c0 7 0 13 1 19l42 301c5 34 32 60 78 60s65 -26 60 -60l-45 -321c-2 -15 3 -22 14 -35c7 -8 10 -17 10 -27
c0 -44 -40 -68 -73 -68c-26 0 -44 16 -56 38zM341 710l71 -79c4 -5 5 -10 5 -16c0 -35 -28 -58 -59 -58c-22 0 -29 8 -42 21l-70 82c-5 7 -6 16 -6 23c0 31 32 54 56 54c22 0 28 -7 39 -19z" />
    <glyph glyph-name="uacute" unicode="&#xfa;" horiz-adv-x="549" 
d="M393 37c-52 -33 -99 -44 -144 -44c-121 0 -175 79 -159 196l37 261c5 34 34 60 78 60s65 -26 60 -60l-37 -261c-7 -51 10 -80 54 -80c21 0 47 7 80 21c0 7 0 13 1 19l42 301c5 34 32 60 78 60s65 -26 60 -60l-45 -321c-2 -15 3 -22 14 -35c7 -8 10 -17 10 -27
c0 -44 -40 -68 -73 -68c-26 0 -44 16 -56 38zM321 631l92 79l9 8c14 12 22 19 44 19c21 0 42 -19 42 -44c0 -8 -2 -20 -13 -33l-93 -82c-17 -13 -26 -21 -48 -21c-26 0 -45 17 -45 43c0 16 5 23 12 31z" />
    <glyph glyph-name="ucircumflex" unicode="&#xfb;" horiz-adv-x="549" 
d="M393 37c-52 -33 -99 -44 -144 -44c-121 0 -175 79 -159 196l37 261c5 34 34 60 78 60s65 -26 60 -60l-37 -261c-7 -51 10 -80 54 -80c21 0 47 7 80 21c0 7 0 13 1 19l42 301c5 34 32 60 78 60s65 -26 60 -60l-45 -321c-2 -15 3 -22 14 -35c7 -8 10 -17 10 -27
c0 -44 -40 -68 -73 -68c-26 0 -44 16 -56 38zM374 716c16 0 27 -6 35 -13l71 -61c13 -13 22 -28 21 -45c-4 -25 -30 -46 -57 -46c-33 0 -60 38 -84 64c-32 -26 -69 -64 -102 -64c-27 0 -47 21 -43 46c3 17 16 32 33 45l87 61c10 7 23 13 39 13z" />
    <glyph glyph-name="udieresis" unicode="&#xfc;" horiz-adv-x="549" 
d="M393 37c-52 -33 -99 -44 -144 -44c-121 0 -175 79 -159 196l37 261c5 34 34 60 78 60s65 -26 60 -60l-37 -261c-7 -51 10 -80 54 -80c21 0 47 7 80 21c0 7 0 13 1 19l42 301c5 34 32 60 78 60s65 -26 60 -60l-45 -321c-2 -15 3 -22 14 -35c7 -8 10 -17 10 -27
c0 -44 -40 -68 -73 -68c-26 0 -44 16 -56 38zM518 637c0 -38 -35 -70 -74 -70c-33 0 -58 26 -58 56c0 37 36 68 75 68c33 0 57 -24 57 -54zM339 637c0 -38 -35 -70 -75 -70c-33 0 -56 25 -56 56c0 36 34 68 73 68c34 0 58 -24 58 -54z" />
    <glyph glyph-name="yacute" unicode="&#xfd;" horiz-adv-x="549" 
d="M256 450l-38 -267c-6 -46 9 -75 58 -75c30 0 60 7 85 26l45 316c4 34 31 60 77 60s65 -26 61 -60l-68 -483c-15 -107 -90 -191 -236 -191c-55 0 -158 18 -158 75c0 35 33 63 72 63c7 0 17 -1 31 -6c18 -9 35 -17 63 -17c57 0 83 28 90 76l6 43c-32 -11 -63 -16 -100 -16
c-144 0 -179 81 -164 189l38 267c4 34 33 60 77 60s66 -26 61 -60zM319 631l92 79l9 8c14 12 22 19 44 19c21 0 42 -19 42 -44c0 -8 -2 -20 -13 -33l-93 -82c-17 -13 -26 -21 -48 -21c-26 0 -45 17 -45 43c0 16 5 23 12 31z" />
    <glyph glyph-name="thorn" unicode="&#xfe;" horiz-adv-x="535" 
d="M256 381l-33 -236c18 -19 45 -28 77 -28c49 0 72 21 77 57l25 178c5 36 -12 57 -61 57c-32 0 -62 -9 -85 -28zM42 -155l115 816c5 32 34 61 78 61s64 -29 60 -61l-25 -176c35 18 66 28 113 28c127 0 169 -72 156 -166l-24 -168c-13 -94 -75 -166 -202 -166
c-47 0 -75 10 -105 28l-28 -196c-4 -32 -33 -61 -77 -61s-65 29 -61 61z" />
    <glyph glyph-name="ydieresis" unicode="&#xff;" horiz-adv-x="549" 
d="M256 450l-38 -267c-6 -46 9 -75 58 -75c30 0 60 7 85 26l45 316c4 34 31 60 77 60s65 -26 61 -60l-68 -483c-15 -107 -90 -191 -236 -191c-55 0 -158 18 -158 75c0 35 33 63 72 63c7 0 17 -1 31 -6c18 -9 35 -17 63 -17c57 0 83 28 90 76l6 43c-32 -11 -63 -16 -100 -16
c-144 0 -179 81 -164 189l38 267c4 34 33 60 77 60s66 -26 61 -60zM518 637c0 -38 -35 -70 -74 -70c-33 0 -58 26 -58 56c0 37 36 68 75 68c33 0 57 -24 57 -54zM339 637c0 -38 -35 -70 -75 -70c-33 0 -56 25 -56 56c0 36 34 68 73 68c34 0 58 -24 58 -54z" />
    <glyph glyph-name="Amacron" unicode="&#x100;" horiz-adv-x="589" 
d="M206 139l-48 -101c-14 -29 -48 -47 -72 -47c-36 0 -64 23 -64 57c0 9 4 23 7 29l275 569c19 39 42 68 90 68s65 -28 73 -68l115 -569v-11c0 -45 -37 -75 -81 -75c-26 0 -56 19 -62 47l-21 101h-212zM398 253l-27 171c-5 29 -4 67 -4 98c-8 -31 -19 -69 -32 -98l-77 -171
h140zM602 835c0 -31 -30 -56 -64 -56h-269c-29 0 -50 19 -50 45c0 31 30 57 65 57h269c28 0 49 -20 49 -46z" />
    <glyph glyph-name="amacron" unicode="&#x101;" horiz-adv-x="533" 
d="M344 149l25 180c7 47 -13 66 -64 66c-49 0 -71 -31 -80 -93l-16 -113c-7 -52 11 -80 54 -80c21 0 47 7 80 21c0 7 0 13 1 19zM227 -7c-116 0 -172 79 -156 196l16 113c17 119 99 211 242 211c145 0 194 -72 175 -207l-26 -186c-4 -30 11 -27 27 -34c12 -5 18 -14 18 -30
c0 -36 -20 -60 -80 -60c-37 0 -60 10 -79 42c-41 -30 -81 -45 -137 -45zM552 635c0 -31 -30 -56 -64 -56h-269c-29 0 -50 19 -50 45c0 31 30 57 65 57h269c28 0 49 -20 49 -46z" />
    <glyph glyph-name="Abreve" unicode="&#x102;" horiz-adv-x="589" 
d="M206 139l-48 -101c-14 -29 -48 -47 -72 -47c-36 0 -64 23 -64 57c0 9 4 23 7 29l275 569c19 39 42 68 90 68s65 -28 73 -68l115 -569v-11c0 -45 -37 -75 -81 -75c-26 0 -56 19 -62 47l-21 101h-212zM398 253l-27 171c-5 29 -4 67 -4 98c-8 -31 -19 -69 -32 -98l-77 -171
h140zM413 845c18 0 42 10 63 31c14 14 32 23 50 23c27 0 52 -18 36 -56c-24 -58 -108 -90 -162 -90s-127 32 -136 90c-6 38 25 56 52 56c17 0 32 -8 42 -22c15 -21 37 -32 55 -32z" />
    <glyph glyph-name="abreve" unicode="&#x103;" horiz-adv-x="533" 
d="M344 149l25 180c7 47 -13 66 -64 66c-49 0 -71 -31 -80 -93l-16 -113c-7 -52 11 -80 54 -80c21 0 47 7 80 21c0 7 0 13 1 19zM227 -7c-116 0 -172 79 -156 196l16 113c17 119 99 211 242 211c145 0 194 -72 175 -207l-26 -186c-4 -30 11 -27 27 -34c12 -5 18 -14 18 -30
c0 -36 -20 -60 -80 -60c-37 0 -60 10 -79 42c-41 -30 -81 -45 -137 -45zM363 645c18 0 42 10 63 31c14 14 32 23 50 23c27 0 52 -18 36 -56c-24 -58 -108 -90 -162 -90s-127 32 -136 90c-6 38 25 56 52 56c17 0 32 -8 42 -22c15 -21 37 -32 55 -32z" />
    <glyph glyph-name="Aogonek" unicode="&#x104;" horiz-adv-x="589" 
d="M602 -161c0 -50 -63 -58 -103 -58c-65 0 -108 28 -108 87c0 45 28 95 65 141c-8 8 -15 17 -17 29l-21 101h-212l-48 -101c-14 -29 -48 -47 -72 -47c-36 0 -64 23 -64 57c0 9 4 23 7 29l275 569c19 39 42 68 90 68s65 -28 73 -68l115 -569v-11c0 -25 -11 -40 -23 -54
c-30 -33 -62 -85 -62 -118c0 -12 7 -21 23 -21c11 0 23 4 34 4h9c23 0 39 -18 39 -38zM398 253l-27 171c-5 29 -4 67 -4 98c-8 -31 -19 -69 -32 -98l-77 -171h140z" />
    <glyph glyph-name="aogonek" unicode="&#x105;" horiz-adv-x="533" 
d="M366 31c-46 -12 -83 -38 -139 -38c-116 0 -172 79 -156 196l16 113c17 119 99 211 242 211c145 0 194 -72 175 -207l-26 -186c-4 -30 11 -27 27 -34c12 -5 18 -14 18 -30c0 -20 -9 -34 -21 -46c-32 -31 -67 -82 -67 -116c0 -12 7 -21 23 -21c11 0 23 4 34 4h9
c23 0 39 -18 39 -38c0 -50 -63 -58 -103 -58c-65 0 -108 28 -108 87c0 44 30 92 70 135c-14 7 -28 29 -33 28zM344 149l25 180c7 47 -13 66 -64 66c-49 0 -71 -31 -80 -93l-16 -113c-7 -52 11 -80 54 -80c21 0 47 7 80 21c0 7 0 13 1 19z" />
    <glyph glyph-name="Cacute" unicode="&#x106;" horiz-adv-x="522" 
d="M238 452l-28 -198c-12 -86 11 -140 101 -140c32 0 58 10 85 24l12 6c14 7 22 15 45 15c35 0 58 -25 58 -54c0 -61 -112 -113 -223 -113c-175 0 -240 104 -218 262l28 198c22 158 117 262 292 262c102 0 192 -46 192 -101c0 -34 -34 -66 -75 -66c-23 0 -29 7 -41 15l-9 6
c-23 15 -47 24 -79 24c-90 0 -128 -54 -140 -140zM345 831l92 79l9 8c14 12 22 19 44 19c21 0 42 -19 42 -44c0 -8 -2 -20 -13 -33l-93 -82c-17 -13 -26 -21 -48 -21c-26 0 -45 17 -45 43c0 16 5 23 12 31z" />
    <glyph glyph-name="cacute" unicode="&#x107;" horiz-adv-x="443" 
d="M71 184l19 135c15 107 91 191 234 191c56 0 159 -13 159 -79c0 -25 -12 -59 -70 -59c-10 0 -19 1 -32 6c-20 8 -34 17 -65 17c-55 0 -81 -29 -88 -76l-19 -135c-7 -47 11 -76 66 -76c31 0 50 9 71 17c11 4 18 6 32 6c45 0 57 -23 57 -44c0 -78 -122 -94 -185 -94
c-141 0 -194 84 -179 191zM270 631l92 79l9 8c14 12 22 19 44 19c21 0 42 -19 42 -44c0 -8 -2 -20 -13 -33l-93 -82c-17 -13 -26 -21 -48 -21c-26 0 -45 17 -45 43c0 16 5 23 12 31z" />
    <glyph glyph-name="Ccircumflex" unicode="&#x108;" horiz-adv-x="522" 
d="M238 452l-28 -198c-12 -86 11 -140 101 -140c32 0 58 10 85 24l12 6c14 7 22 15 45 15c35 0 58 -25 58 -54c0 -61 -112 -113 -223 -113c-175 0 -240 104 -218 262l28 198c22 158 117 262 292 262c102 0 192 -46 192 -101c0 -34 -34 -66 -75 -66c-23 0 -29 7 -41 15l-9 6
c-23 15 -47 24 -79 24c-90 0 -128 -54 -140 -140zM425 916c16 0 27 -6 35 -13l71 -61c13 -13 22 -28 21 -45c-4 -25 -30 -46 -57 -46c-33 0 -60 38 -84 64c-32 -26 -69 -64 -102 -64c-27 0 -47 21 -43 46c3 17 16 32 33 45l87 61c10 7 23 13 39 13z" />
    <glyph glyph-name="ccircumflex" unicode="&#x109;" horiz-adv-x="443" 
d="M71 184l19 135c15 107 91 191 234 191c56 0 159 -13 159 -79c0 -25 -12 -59 -70 -59c-10 0 -19 1 -32 6c-20 8 -34 17 -65 17c-55 0 -81 -29 -88 -76l-19 -135c-7 -47 11 -76 66 -76c31 0 50 9 71 17c11 4 18 6 32 6c45 0 57 -23 57 -44c0 -78 -122 -94 -185 -94
c-141 0 -194 84 -179 191zM355 716c16 0 27 -6 35 -13l71 -61c13 -13 22 -28 21 -45c-4 -25 -30 -46 -57 -46c-33 0 -60 38 -84 64c-32 -26 -69 -64 -102 -64c-27 0 -47 21 -43 46c3 17 16 32 33 45l87 61c10 7 23 13 39 13z" />
    <glyph glyph-name="Cdotaccent" unicode="&#x10a;" horiz-adv-x="522" 
d="M238 452l-28 -198c-12 -86 11 -140 101 -140c32 0 58 10 85 24l12 6c14 7 22 15 45 15c35 0 58 -25 58 -54c0 -61 -112 -113 -223 -113c-175 0 -240 104 -218 262l28 198c22 158 117 262 292 262c102 0 192 -46 192 -101c0 -34 -34 -66 -75 -66c-23 0 -29 7 -41 15l-9 6
c-23 15 -47 24 -79 24c-90 0 -128 -54 -140 -140zM441 822c0 -38 -35 -70 -75 -70c-33 0 -56 25 -56 56c0 36 34 68 73 68c34 0 58 -24 58 -54z" />
    <glyph glyph-name="cdotaccent" unicode="&#x10b;" horiz-adv-x="443" 
d="M71 184l19 135c15 107 91 191 234 191c56 0 159 -13 159 -79c0 -25 -12 -59 -70 -59c-10 0 -19 1 -32 6c-20 8 -34 17 -65 17c-55 0 -81 -29 -88 -76l-19 -135c-7 -47 11 -76 66 -76c31 0 50 9 71 17c11 4 18 6 32 6c45 0 57 -23 57 -44c0 -78 -122 -94 -185 -94
c-141 0 -194 84 -179 191zM373 622c0 -38 -35 -70 -75 -70c-33 0 -56 25 -56 56c0 36 34 68 73 68c34 0 58 -24 58 -54z" />
    <glyph glyph-name="Ccaron" unicode="&#x10c;" horiz-adv-x="522" 
d="M238 452l-28 -198c-12 -86 11 -140 101 -140c32 0 58 10 85 24l12 6c14 7 22 15 45 15c35 0 58 -25 58 -54c0 -61 -112 -113 -223 -113c-175 0 -240 104 -218 262l28 198c22 158 117 262 292 262c102 0 192 -46 192 -101c0 -34 -34 -66 -75 -66c-23 0 -29 7 -41 15l-9 6
c-23 15 -47 24 -79 24c-90 0 -128 -54 -140 -140zM358 903l51 -52l65 52c10 8 30 12 38 12c24 0 43 -19 43 -41c0 -20 -15 -36 -34 -50l-87 -61c-9 -7 -23 -13 -39 -13s-29 6 -36 13l-70 61c-12 12 -21 26 -21 41c0 27 28 50 56 50c8 0 26 -4 34 -12z" />
    <glyph glyph-name="ccaron" unicode="&#x10d;" horiz-adv-x="443" 
d="M71 184l19 135c15 107 91 191 234 191c56 0 159 -13 159 -79c0 -25 -12 -59 -70 -59c-10 0 -19 1 -32 6c-20 8 -34 17 -65 17c-55 0 -81 -29 -88 -76l-19 -135c-7 -47 11 -76 66 -76c31 0 50 9 71 17c11 4 18 6 32 6c45 0 57 -23 57 -44c0 -78 -122 -94 -185 -94
c-141 0 -194 84 -179 191zM293 703l51 -52l65 52c10 8 30 12 38 12c24 0 43 -19 43 -41c0 -20 -15 -36 -34 -50l-87 -61c-9 -7 -23 -13 -39 -13s-29 6 -36 13l-70 61c-12 12 -21 26 -21 41c0 27 28 50 56 50c8 0 26 -4 34 -12z" />
    <glyph glyph-name="Dcaron" unicode="&#x10e;" horiz-adv-x="594" 
d="M596 271c-19 -141 -115 -271 -342 -271h-113c-42 0 -73 33 -68 72l79 562c5 39 47 72 89 72h113c226 0 287 -124 267 -263zM456 271l25 172c11 76 -20 136 -128 136h-68l-64 -452h68c110 0 156 65 167 144zM366 903l51 -52l65 52c10 8 30 12 38 12c24 0 43 -19 43 -41
c0 -20 -15 -36 -34 -50l-87 -61c-9 -7 -23 -13 -39 -13s-29 6 -36 13l-70 61c-12 12 -21 26 -21 41c0 27 28 50 56 50c8 0 26 -4 34 -12z" />
    <glyph glyph-name="dcaron" unicode="&#x10f;" horiz-adv-x="710" 
d="M306 509c31 0 52 -4 86 -19l24 171c5 34 33 61 77 61s66 -28 61 -61l-75 -532c-2 -15 3 -22 14 -35c7 -8 10 -17 10 -27c0 -44 -41 -68 -74 -68c-25 0 -43 16 -55 38c-53 -27 -96 -44 -147 -44c-116 0 -172 79 -156 196l16 113c17 119 76 207 219 207zM344 149l33 233
c-30 9 -55 13 -72 13c-49 0 -71 -31 -80 -93l-16 -113c-7 -52 11 -80 54 -80c21 0 47 7 80 21c0 7 0 13 1 19zM614 484c8 33 31 45 46 89c-34 7 -56 35 -56 67c0 46 45 85 96 85c40 0 72 -28 72 -71c0 -54 -70 -215 -123 -215c-16 0 -45 6 -35 45z" />
    <glyph glyph-name="Dcroat" unicode="&#x110;" horiz-adv-x="616" 
d="M619 271c-20 -141 -115 -271 -342 -271h-113c-42 0 -73 33 -68 72l31 220h-9c-35 0 -59 24 -59 54c0 36 35 69 76 69h9l31 218c5 39 46 72 88 72h113c226 0 286 -123 267 -262zM442 359c0 -36 -35 -67 -75 -67h-100l-23 -165h68c110 0 156 65 167 144l24 172
c11 76 -20 135 -128 135h-68l-23 -163h100c34 0 58 -26 58 -56z" />
    <glyph glyph-name="dcroat" unicode="&#x111;" horiz-adv-x="592" 
d="M306 509c31 0 52 -4 86 -19l8 59h-76c-24 0 -41 19 -41 43c0 30 27 56 55 56h76l2 13c5 34 33 61 77 61s66 -28 61 -61l-2 -13h65c23 0 39 -20 39 -44c0 -29 -26 -55 -53 -55h-65l-59 -420c-2 -15 3 -22 14 -35c7 -8 10 -17 10 -27c0 -44 -41 -68 -74 -68
c-25 0 -43 16 -55 38c-53 -27 -96 -44 -147 -44c-116 0 -172 79 -156 196l16 113c17 119 76 207 219 207zM344 149l33 233c-30 9 -55 13 -72 13c-49 0 -71 -31 -80 -93l-16 -113c-7 -52 11 -80 54 -80c21 0 47 7 80 21c0 7 0 13 1 19z" />
    <glyph glyph-name="Emacron" unicode="&#x112;" horiz-adv-x="514" 
d="M500 71c0 -38 -38 -71 -79 -71h-265c-49 0 -91 17 -83 71l79 563c5 35 43 71 87 71h271c35 0 61 -27 61 -58c0 -40 -38 -69 -79 -69h-208l-23 -161h189c33 0 61 -24 61 -57c0 -38 -37 -70 -79 -70h-189l-23 -163h218c35 0 62 -25 62 -56zM565 835c0 -31 -30 -56 -64 -56
h-269c-29 0 -50 19 -50 45c0 31 30 57 65 57h269c28 0 49 -20 49 -46z" />
    <glyph glyph-name="emacron" unicode="&#x113;" horiz-adv-x="485" 
d="M287 191c-26 0 -48 2 -76 6l-5 -33c-5 -34 18 -56 72 -56c32 0 60 8 94 22c4 2 13 6 30 6c43 0 55 -27 55 -48c0 -76 -138 -95 -205 -95c-132 0 -197 76 -183 175l23 167c14 101 99 178 238 178c118 0 175 -59 175 -146c0 -108 -65 -176 -218 -176zM367 361
c0 32 -18 45 -53 45c-48 0 -77 -25 -83 -65l-6 -43c32 -3 62 -4 72 -4c43 0 70 16 70 67zM522 635c0 -31 -30 -56 -64 -56h-269c-29 0 -50 19 -50 45c0 31 30 57 65 57h269c28 0 49 -20 49 -46z" />
    <glyph glyph-name="Ebreve" unicode="&#x114;" horiz-adv-x="514" 
d="M500 71c0 -38 -38 -71 -79 -71h-265c-49 0 -91 17 -83 71l79 563c5 35 43 71 87 71h271c35 0 61 -27 61 -58c0 -40 -38 -69 -79 -69h-208l-23 -161h189c33 0 61 -24 61 -57c0 -38 -37 -70 -79 -70h-189l-23 -163h218c35 0 62 -25 62 -56zM376 845c18 0 42 10 63 31
c14 14 32 23 50 23c27 0 52 -18 36 -56c-24 -58 -108 -90 -162 -90s-127 32 -136 90c-6 38 25 56 52 56c17 0 32 -8 42 -22c15 -21 37 -32 55 -32z" />
    <glyph glyph-name="ebreve" unicode="&#x115;" horiz-adv-x="485" 
d="M287 191c-26 0 -48 2 -76 6l-5 -33c-5 -34 18 -56 72 -56c32 0 60 8 94 22c4 2 13 6 30 6c43 0 55 -27 55 -48c0 -76 -138 -95 -205 -95c-132 0 -197 76 -183 175l23 167c14 101 99 178 238 178c118 0 175 -59 175 -146c0 -108 -65 -176 -218 -176zM367 361
c0 32 -18 45 -53 45c-48 0 -77 -25 -83 -65l-6 -43c32 -3 62 -4 72 -4c43 0 70 16 70 67zM333 645c18 0 42 10 63 31c14 14 32 23 50 23c27 0 52 -18 36 -56c-24 -58 -108 -90 -162 -90s-127 32 -136 90c-6 38 25 56 52 56c17 0 32 -8 42 -22c15 -21 37 -32 55 -32z" />
    <glyph glyph-name="Edotaccent" unicode="&#x116;" horiz-adv-x="514" 
d="M500 71c0 -38 -38 -71 -79 -71h-265c-49 0 -91 17 -83 71l79 563c5 35 43 71 87 71h271c35 0 61 -27 61 -58c0 -40 -38 -69 -79 -69h-208l-23 -161h189c33 0 61 -24 61 -57c0 -38 -37 -70 -79 -70h-189l-23 -163h218c35 0 62 -25 62 -56zM437 822c0 -38 -35 -70 -75 -70
c-33 0 -56 25 -56 56c0 36 34 68 73 68c34 0 58 -24 58 -54z" />
    <glyph glyph-name="edotaccent" unicode="&#x117;" horiz-adv-x="485" 
d="M287 191c-26 0 -48 2 -76 6l-5 -33c-5 -34 18 -56 72 -56c32 0 60 8 94 22c4 2 13 6 30 6c43 0 55 -27 55 -48c0 -76 -138 -95 -205 -95c-132 0 -197 76 -183 175l23 167c14 101 99 178 238 178c118 0 175 -59 175 -146c0 -108 -65 -176 -218 -176zM367 361
c0 32 -18 45 -53 45c-48 0 -77 -25 -83 -65l-6 -43c32 -3 62 -4 72 -4c43 0 70 16 70 67zM394 622c0 -38 -35 -70 -75 -70c-33 0 -56 25 -56 56c0 36 34 68 73 68c34 0 58 -24 58 -54z" />
    <glyph glyph-name="Eogonek" unicode="&#x118;" horiz-adv-x="514" 
d="M466 -161c0 -50 -63 -58 -103 -58c-65 0 -108 28 -108 87c0 43 27 88 65 132h-164c-49 0 -91 17 -83 71l79 563c5 35 43 71 87 71h271c35 0 61 -27 61 -58c0 -40 -38 -69 -79 -69h-208l-23 -161h189c33 0 61 -24 61 -57c0 -38 -37 -70 -79 -70h-189l-23 -163h218
c35 0 62 -25 62 -56c0 -38 -38 -71 -80 -71l-23 -31c-18 -24 -36 -54 -36 -75c0 -12 7 -21 23 -21c11 0 23 4 33 4h9c23 0 40 -18 40 -38z" />
    <glyph glyph-name="eogonek" unicode="&#x119;" horiz-adv-x="485" 
d="M431 -161c0 -50 -62 -58 -102 -58c-66 0 -108 28 -108 87c0 41 24 84 59 126c-10 0 -20 -1 -28 -1c-132 0 -197 76 -183 175l23 167c14 101 99 178 238 178c118 0 175 -59 175 -146c0 -108 -65 -176 -218 -176c-26 0 -48 2 -76 6l-5 -33c-5 -34 18 -56 72 -56
c32 0 60 8 94 22c4 2 13 6 30 6c43 0 55 -27 55 -48c0 -33 -30 -46 -58 -68c-38 -30 -72 -92 -72 -126c0 -12 7 -21 22 -21c11 0 24 4 34 4h9c23 0 39 -18 39 -38zM367 361c0 32 -18 45 -53 45c-48 0 -77 -25 -83 -65l-6 -43c32 -3 62 -4 72 -4c43 0 70 16 70 67z" />
    <glyph glyph-name="Ecaron" unicode="&#x11a;" horiz-adv-x="514" 
d="M500 71c0 -38 -38 -71 -79 -71h-265c-49 0 -91 17 -83 71l79 563c5 35 43 71 87 71h271c35 0 61 -27 61 -58c0 -40 -38 -69 -79 -69h-208l-23 -161h189c33 0 61 -24 61 -57c0 -38 -37 -70 -79 -70h-189l-23 -163h218c35 0 62 -25 62 -56zM350 903l51 -52l65 52
c10 8 30 12 38 12c24 0 43 -19 43 -41c0 -20 -15 -36 -34 -50l-87 -61c-9 -7 -23 -13 -39 -13s-29 6 -36 13l-70 61c-12 12 -21 26 -21 41c0 27 28 50 56 50c8 0 26 -4 34 -12z" />
    <glyph glyph-name="ecaron" unicode="&#x11b;" horiz-adv-x="485" 
d="M287 191c-26 0 -48 2 -76 6l-5 -33c-5 -34 18 -56 72 -56c32 0 60 8 94 22c4 2 13 6 30 6c43 0 55 -27 55 -48c0 -76 -138 -95 -205 -95c-132 0 -197 76 -183 175l23 167c14 101 99 178 238 178c118 0 175 -59 175 -146c0 -108 -65 -176 -218 -176zM367 361
c0 32 -18 45 -53 45c-48 0 -77 -25 -83 -65l-6 -43c32 -3 62 -4 72 -4c43 0 70 16 70 67zM283 703l51 -52l65 52c10 8 30 12 38 12c24 0 43 -19 43 -41c0 -20 -15 -36 -34 -50l-87 -61c-9 -7 -23 -13 -39 -13s-29 6 -36 13l-70 61c-12 12 -21 26 -21 41c0 27 28 50 56 50
c8 0 26 -4 34 -12z" />
    <glyph glyph-name="Gcircumflex" unicode="&#x11c;" horiz-adv-x="560" 
d="M238 452l-28 -198c-12 -86 11 -140 101 -140c35 0 61 9 85 21l22 156h-52c-30 0 -54 25 -54 56c0 38 36 70 72 70h109c46 0 79 -22 72 -70l-31 -221c-13 -94 -143 -134 -246 -134c-175 0 -240 104 -218 262l28 198c22 158 117 262 292 262c102 0 192 -46 192 -101
c0 -34 -34 -66 -75 -66c-23 0 -28 8 -40 15l-10 6c-23 14 -47 24 -79 24c-90 0 -128 -54 -140 -140zM408 916c16 0 27 -6 35 -13l71 -61c13 -13 22 -28 21 -45c-4 -25 -30 -46 -57 -46c-33 0 -60 38 -84 64c-32 -26 -69 -64 -102 -64c-27 0 -47 21 -43 46c3 17 16 32 33 45
l87 61c10 7 23 13 39 13z" />
    <glyph glyph-name="gcircumflex" unicode="&#x11d;" horiz-adv-x="549" 
d="M361 134l30 208c4 33 -22 53 -68 53c-51 0 -79 -27 -85 -71l-20 -141c-6 -46 9 -75 58 -75c30 0 60 7 85 26zM529 342l-53 -375c-15 -107 -90 -191 -236 -191c-55 0 -158 18 -158 75c0 35 33 63 72 63c7 0 17 -1 31 -6c18 -9 35 -17 63 -17c57 0 83 28 90 76l6 43
c-32 -11 -63 -16 -100 -16c-144 0 -179 81 -164 189l20 141c15 107 98 189 240 189c135 0 202 -75 189 -171zM366 716c16 0 27 -6 35 -13l71 -61c13 -13 22 -28 21 -45c-4 -25 -30 -46 -57 -46c-33 0 -60 38 -84 64c-32 -26 -69 -64 -102 -64c-27 0 -47 21 -43 46
c3 17 16 32 33 45l87 61c10 7 23 13 39 13z" />
    <glyph glyph-name="Gbreve" unicode="&#x11e;" horiz-adv-x="560" 
d="M238 452l-28 -198c-12 -86 11 -140 101 -140c35 0 61 9 85 21l22 156h-52c-30 0 -54 25 -54 56c0 38 36 70 72 70h109c46 0 79 -22 72 -70l-31 -221c-13 -94 -143 -134 -246 -134c-175 0 -240 104 -218 262l28 198c22 158 117 262 292 262c102 0 192 -46 192 -101
c0 -34 -34 -66 -75 -66c-23 0 -28 8 -40 15l-10 6c-23 14 -47 24 -79 24c-90 0 -128 -54 -140 -140zM399 845c18 0 42 10 63 31c14 14 32 23 50 23c27 0 52 -18 36 -56c-24 -58 -108 -90 -162 -90s-127 32 -136 90c-6 38 25 56 52 56c17 0 32 -8 42 -22
c15 -21 37 -32 55 -32z" />
    <glyph glyph-name="gbreve" unicode="&#x11f;" horiz-adv-x="549" 
d="M361 134l30 208c4 33 -22 53 -68 53c-51 0 -79 -27 -85 -71l-20 -141c-6 -46 9 -75 58 -75c30 0 60 7 85 26zM529 342l-53 -375c-15 -107 -90 -191 -236 -191c-55 0 -158 18 -158 75c0 35 33 63 72 63c7 0 17 -1 31 -6c18 -9 35 -17 63 -17c57 0 83 28 90 76l6 43
c-32 -11 -63 -16 -100 -16c-144 0 -179 81 -164 189l20 141c15 107 98 189 240 189c135 0 202 -75 189 -171zM365 645c18 0 42 10 63 31c14 14 32 23 50 23c27 0 52 -18 36 -56c-24 -58 -108 -90 -162 -90s-127 32 -136 90c-6 38 25 56 52 56c17 0 32 -8 42 -22
c15 -21 37 -32 55 -32z" />
    <glyph glyph-name="Gdotaccent" unicode="&#x120;" horiz-adv-x="560" 
d="M238 452l-28 -198c-12 -86 11 -140 101 -140c35 0 61 9 85 21l22 156h-52c-30 0 -54 25 -54 56c0 38 36 70 72 70h109c46 0 79 -22 72 -70l-31 -221c-13 -94 -143 -134 -246 -134c-175 0 -240 104 -218 262l28 198c22 158 117 262 292 262c102 0 192 -46 192 -101
c0 -34 -34 -66 -75 -66c-23 0 -28 8 -40 15l-10 6c-23 14 -47 24 -79 24c-90 0 -128 -54 -140 -140zM460 822c0 -38 -35 -70 -75 -70c-33 0 -56 25 -56 56c0 36 34 68 73 68c34 0 58 -24 58 -54z" />
    <glyph glyph-name="gdotaccent" unicode="&#x121;" horiz-adv-x="549" 
d="M361 134l30 208c4 33 -22 53 -68 53c-51 0 -79 -27 -85 -71l-20 -141c-6 -46 9 -75 58 -75c30 0 60 7 85 26zM529 342l-53 -375c-15 -107 -90 -191 -236 -191c-55 0 -158 18 -158 75c0 35 33 63 72 63c7 0 17 -1 31 -6c18 -9 35 -17 63 -17c57 0 83 28 90 76l6 43
c-32 -11 -63 -16 -100 -16c-144 0 -179 81 -164 189l20 141c15 107 98 189 240 189c135 0 202 -75 189 -171zM418 622c0 -38 -35 -70 -75 -70c-33 0 -56 25 -56 56c0 36 34 68 73 68c34 0 58 -24 58 -54z" />
    <glyph glyph-name="uni0122" unicode="&#x122;" horiz-adv-x="560" 
d="M238 452l-28 -198c-12 -86 11 -140 101 -140c35 0 61 9 85 21l22 156h-52c-30 0 -54 25 -54 56c0 38 36 70 72 70h109c46 0 79 -22 72 -70l-31 -221c-13 -94 -143 -134 -246 -134c-175 0 -240 104 -218 262l28 198c22 158 117 262 292 262c102 0 192 -46 192 -101
c0 -34 -34 -66 -75 -66c-23 0 -28 8 -40 15l-10 6c-23 14 -47 24 -79 24c-90 0 -128 -54 -140 -140zM340 -96c0 -56 -78 -142 -117 -142c-8 0 -16 4 -16 15c0 22 30 34 46 64c-36 2 -62 8 -62 44c0 34 14 64 82 64c51 0 67 -20 67 -45z" />
    <glyph glyph-name="uni0123" unicode="&#x123;" horiz-adv-x="549" 
d="M283 627c0 56 77 142 117 142c8 0 15 -4 15 -15c0 -22 -29 -35 -46 -64c36 -2 63 -8 63 -44c0 -34 -15 -64 -82 -64c-52 0 -67 20 -67 45zM361 134l30 208c4 33 -22 53 -68 53c-51 0 -79 -27 -85 -71l-20 -141c-6 -46 9 -75 58 -75c30 0 60 7 85 26zM529 342l-53 -375
c-15 -107 -90 -191 -236 -191c-55 0 -158 18 -158 75c0 35 33 63 72 63c7 0 17 -1 31 -6c18 -9 35 -17 63 -17c57 0 83 28 90 76l6 43c-32 -11 -63 -16 -100 -16c-144 0 -179 81 -164 189l20 141c15 107 98 189 240 189c135 0 202 -75 189 -171z" />
    <glyph glyph-name="Hcircumflex" unicode="&#x124;" horiz-adv-x="620" 
d="M564 56c-5 -35 -41 -65 -79 -65c-37 0 -66 30 -61 65l33 233h-213l-33 -233c-5 -35 -41 -65 -79 -65c-39 0 -66 30 -61 65l83 594c5 34 40 64 79 64c38 0 66 -30 61 -64l-32 -233h213l32 233c5 34 42 64 79 64s66 -30 61 -64zM438 916c16 0 27 -6 35 -13l71 -61
c13 -13 22 -28 21 -45c-4 -25 -30 -46 -57 -46c-33 0 -60 38 -84 64c-32 -26 -69 -64 -102 -64c-27 0 -47 21 -43 46c3 17 16 32 33 45l87 61c10 7 23 13 39 13z" />
    <glyph glyph-name="Itilde" unicode="&#x128;" horiz-adv-x="267" 
d="M71 55l83 595c5 34 40 64 79 64c38 0 66 -30 61 -64l-83 -595c-5 -34 -41 -64 -79 -64c-39 0 -66 30 -61 64zM409 848c0 -44 -60 -78 -101 -78c-53 0 -76 36 -105 40s-37 -36 -70 -36c-21 0 -41 16 -40 41c6 46 54 80 99 80c56 0 75 -40 106 -40s35 36 68 36
c23 0 43 -18 43 -43z" />
    <glyph glyph-name="itilde" unicode="&#x129;" horiz-adv-x="285" 
d="M88 111l48 338c5 33 39 61 78 61s65 -28 60 -61l-46 -326c-3 -21 -3 -26 9 -41c7 -9 13 -15 13 -29c0 -39 -31 -60 -83 -60c-40 0 -94 13 -79 118zM390 648c0 -44 -60 -78 -101 -78c-53 0 -76 36 -105 40s-37 -36 -70 -36c-21 0 -41 16 -40 41c6 46 54 80 99 80
c56 0 75 -40 106 -40s35 36 68 36c23 0 43 -18 43 -43z" />
    <glyph glyph-name="Imacron" unicode="&#x12a;" horiz-adv-x="267" 
d="M71 55l83 595c5 34 40 64 79 64c38 0 66 -30 61 -64l-83 -595c-5 -34 -41 -64 -79 -64c-39 0 -66 30 -61 64zM442 835c0 -31 -30 -56 -64 -56h-269c-29 0 -50 19 -50 45c0 31 30 57 65 57h269c28 0 49 -20 49 -46z" />
    <glyph glyph-name="imacron" unicode="&#x12b;" horiz-adv-x="285" 
d="M88 111l48 338c5 33 39 61 78 61s65 -28 60 -61l-46 -326c-3 -21 -3 -26 9 -41c7 -9 13 -15 13 -29c0 -39 -31 -60 -83 -60c-40 0 -94 13 -79 118zM423 635c0 -31 -30 -56 -64 -56h-269c-29 0 -50 19 -50 45c0 31 30 57 65 57h269c28 0 49 -20 49 -46z" />
    <glyph glyph-name="Ibreve" unicode="&#x12c;" horiz-adv-x="267" 
d="M71 55l83 595c5 34 40 64 79 64c38 0 66 -30 61 -64l-83 -595c-5 -34 -41 -64 -79 -64c-39 0 -66 30 -61 64zM253 845c18 0 42 10 63 31c14 14 32 23 50 23c27 0 52 -18 36 -56c-24 -58 -108 -90 -162 -90s-127 32 -136 90c-6 38 25 56 52 56c17 0 32 -8 42 -22
c15 -21 37 -32 55 -32z" />
    <glyph glyph-name="ibreve" unicode="&#x12d;" horiz-adv-x="285" 
d="M88 111l48 338c5 33 39 61 78 61s65 -28 60 -61l-46 -326c-3 -21 -3 -26 9 -41c7 -9 13 -15 13 -29c0 -39 -31 -60 -83 -60c-40 0 -94 13 -79 118zM234 645c18 0 42 10 63 31c14 14 32 23 50 23c27 0 52 -18 36 -56c-24 -58 -108 -90 -162 -90s-127 32 -136 90
c-6 38 25 56 52 56c17 0 32 -8 42 -22c15 -21 37 -32 55 -32z" />
    <glyph glyph-name="Iogonek" unicode="&#x12e;" horiz-adv-x="267" 
d="M71 55l83 595c5 34 40 64 79 64c38 0 66 -30 61 -64l-83 -595c-3 -17 -15 -31 -28 -45c-30 -32 -65 -83 -65 -116c0 -12 7 -21 23 -21c11 0 24 4 34 4h9c22 0 39 -18 39 -38c0 -50 -63 -58 -103 -58c-65 0 -108 28 -108 87c0 46 31 94 74 140c-12 12 -18 29 -15 47z" />
    <glyph glyph-name="iogonek" unicode="&#x12f;" horiz-adv-x="285" 
d="M228 -161c0 -50 -63 -58 -103 -58c-65 0 -108 28 -108 87c0 47 33 96 78 142c-11 11 -17 27 -15 45l56 394c4 33 38 61 77 61s66 -28 61 -61l-55 -394c-3 -18 -15 -33 -27 -45c-32 -31 -69 -82 -69 -116c0 -12 7 -21 23 -21c11 0 24 4 34 4h9c22 0 39 -18 39 -38z
M311 651c0 -42 -41 -77 -89 -77c-41 0 -68 28 -68 63c0 42 41 77 88 77c41 0 69 -28 69 -63z" />
    <glyph glyph-name="Idotaccent" unicode="&#x130;" horiz-adv-x="267" 
d="M71 55l83 595c5 34 40 64 79 64c38 0 66 -30 61 -64l-83 -595c-5 -34 -41 -64 -79 -64c-39 0 -66 30 -61 64zM314 822c0 -38 -35 -70 -75 -70c-33 0 -56 25 -56 56c0 36 34 68 73 68c34 0 58 -24 58 -54z" />
    <glyph glyph-name="dotlessi" unicode="&#x131;" horiz-adv-x="285" 
d="M88 111l48 338c5 33 39 61 78 61s65 -28 60 -61l-46 -326c-3 -21 -3 -26 9 -41c7 -9 13 -15 13 -29c0 -39 -31 -60 -83 -60c-40 0 -94 13 -79 118z" />
    <glyph glyph-name="Jcircumflex" unicode="&#x134;" horiz-adv-x="425" 
d="M454 650l-59 -415c-21 -152 -88 -244 -266 -244c-36 0 -106 4 -106 61c0 45 44 71 75 71c23 0 35 -6 60 -6c67 0 87 45 97 118l59 415c5 35 39 64 79 64c37 0 66 -30 61 -64zM420 916c16 0 27 -6 35 -13l71 -61c13 -13 22 -28 21 -45c-4 -25 -30 -46 -57 -46
c-33 0 -60 38 -84 64c-32 -26 -69 -64 -102 -64c-27 0 -47 21 -43 46c3 17 16 32 33 45l87 61c10 7 23 13 39 13z" />
    <glyph glyph-name="jcircumflex" unicode="&#x135;" horiz-adv-x="285" 
d="M276 463l-63 -449c-16 -112 -87 -186 -196 -200c-8 -1 -15 -1 -23 -1c-31 0 -52 17 -55 45v-1c-7 46 34 69 62 74c38 8 66 29 73 79l64 453c4 34 39 63 78 63s64 -29 60 -63zM243 716c16 0 27 -6 35 -13l71 -61c13 -13 22 -28 21 -45c-4 -25 -30 -46 -57 -46
c-33 0 -60 38 -84 64c-32 -26 -69 -64 -102 -64c-27 0 -47 21 -43 46c3 17 16 32 33 45l87 61c10 7 23 13 39 13z" />
    <glyph glyph-name="uni0136" unicode="&#x136;" horiz-adv-x="556" 
d="M595 607l-230 -225l178 -290c5 -9 7 -18 7 -26c0 -32 -32 -75 -78 -75c-23 0 -42 9 -54 29l-158 260l-20 -20l-29 -204c-5 -35 -41 -65 -79 -65c-39 0 -66 30 -61 65l83 594c5 34 40 64 79 64c38 0 66 -30 61 -64l-26 -190l229 225c15 15 39 29 61 29c28 0 61 -26 61 -59
c0 -20 -5 -30 -24 -48zM365 -96c0 -56 -78 -142 -117 -142c-8 0 -16 4 -16 15c0 22 30 34 46 64c-36 2 -62 8 -62 44c0 34 14 64 82 64c51 0 67 -20 67 -45z" />
    <glyph glyph-name="uni0137" unicode="&#x137;" horiz-adv-x="487" 
d="M250 343l159 149c13 12 34 17 50 17c35 0 59 -22 59 -52c0 -19 -8 -35 -25 -49h1l-140 -129l119 -194c6 -10 8 -26 6 -37c-6 -34 -39 -55 -75 -55c-25 0 -42 10 -53 28l-109 183l-12 -10l-20 -139c-5 -35 -39 -62 -78 -62s-65 27 -60 62l85 605c5 35 39 62 78 62
s65 -27 60 -62zM332 -96c0 -56 -78 -142 -117 -142c-8 0 -16 4 -16 15c0 22 30 34 46 64c-36 2 -62 8 -62 44c0 34 14 64 82 64c51 0 67 -20 67 -45z" />
    <glyph glyph-name="Lacute" unicode="&#x139;" horiz-adv-x="503" 
d="M497 70c0 -38 -36 -70 -77 -70h-282c-40 0 -71 30 -66 69l82 581c5 34 40 64 79 64c38 0 66 -30 61 -64l-74 -524h217c34 0 60 -24 60 -56zM231 831l92 79l9 8c14 12 22 19 44 19c21 0 42 -19 42 -44c0 -8 -2 -20 -13 -33l-93 -82c-17 -13 -26 -21 -48 -21
c-26 0 -45 17 -45 43c0 16 5 23 12 31z" />
    <glyph glyph-name="lacute" unicode="&#x13a;" horiz-adv-x="268" 
d="M159 -7c-40 0 -94 13 -79 118l77 549c5 33 39 62 78 62s65 -27 60 -62l-76 -537c-3 -21 -2 -26 10 -41c7 -9 13 -15 13 -29c0 -39 -31 -60 -83 -60zM202 838l92 79l9 8c14 12 22 19 44 19c21 0 42 -19 42 -44c0 -8 -2 -20 -13 -33l-93 -82c-17 -13 -26 -21 -48 -21
c-26 0 -45 17 -45 43c0 16 5 23 12 31z" />
    <glyph glyph-name="uni013B" unicode="&#x13b;" horiz-adv-x="503" 
d="M497 70c0 -38 -36 -70 -77 -70h-282c-40 0 -71 30 -66 69l82 581c5 34 40 64 79 64c38 0 66 -30 61 -64l-74 -524h217c34 0 60 -24 60 -56zM311 -96c0 -56 -78 -142 -117 -142c-8 0 -16 4 -16 15c0 22 30 34 46 64c-36 2 -62 8 -62 44c0 34 14 64 82 64
c51 0 67 -20 67 -45z" />
    <glyph glyph-name="uni013C" unicode="&#x13c;" horiz-adv-x="268" 
d="M159 -7c-40 0 -94 13 -79 118l77 549c5 33 39 62 78 62s65 -27 60 -62l-76 -537c-3 -21 -2 -26 10 -41c7 -9 13 -15 13 -29c0 -39 -31 -60 -83 -60zM194 -96c0 -56 -78 -142 -117 -142c-8 0 -16 4 -16 15c0 22 30 34 46 64c-36 2 -62 8 -62 44c0 34 14 64 82 64
c51 0 67 -20 67 -45z" />
    <glyph glyph-name="Lcaron" unicode="&#x13d;" horiz-adv-x="503" 
d="M497 70c0 -38 -36 -70 -77 -70h-282c-40 0 -71 30 -66 69l82 581c5 34 40 64 79 64c38 0 66 -30 61 -64l-74 -524h217c34 0 60 -24 60 -56zM390 484c8 33 31 45 46 89c-34 7 -56 35 -56 67c0 46 45 85 96 85c40 0 72 -28 72 -71c0 -54 -70 -215 -123 -215
c-16 0 -45 6 -35 45z" />
    <glyph glyph-name="lcaron" unicode="&#x13e;" horiz-adv-x="455" 
d="M159 -7c-40 0 -94 13 -79 118l77 549c5 33 39 62 78 62s65 -27 60 -62l-76 -537c-3 -21 -2 -26 10 -41c7 -9 13 -15 13 -29c0 -39 -31 -60 -83 -60zM367 484c8 33 31 45 46 89c-34 7 -56 35 -56 67c0 46 45 85 96 85c40 0 72 -28 72 -71c0 -54 -70 -215 -123 -215
c-16 0 -45 6 -35 45z" />
    <glyph glyph-name="Lslash" unicode="&#x141;" horiz-adv-x="545" 
d="M523 70c0 -38 -36 -70 -77 -70h-282c-40 0 -71 30 -66 69l27 187l-7 -4c-10 -6 -20 -13 -30 -13c-23 0 -43 12 -43 39c0 16 10 33 26 42l68 41l41 289c5 34 40 64 79 64c38 0 66 -30 61 -64l-28 -197l68 41c12 7 22 12 37 12c17 0 32 -12 35 -30c1 -3 1 -6 1 -9
c0 -15 -9 -31 -24 -40l-131 -79l-32 -222h217c34 0 60 -24 60 -56z" />
    <glyph glyph-name="lslash" unicode="&#x142;" horiz-adv-x="377" 
d="M432 476c1 -3 1 -6 1 -9c0 -15 -9 -31 -24 -40l-111 -67l-33 -237c-3 -21 -3 -26 9 -41c7 -9 14 -15 14 -29c0 -39 -32 -60 -83 -60c-40 0 -95 13 -80 118l23 159l-30 -18c-10 -6 -20 -13 -30 -13c-23 0 -43 12 -43 39c0 16 10 33 26 42l91 55l40 285c5 33 39 62 78 62
s65 -27 60 -62l-27 -195l47 29c12 7 22 12 37 12c17 0 32 -12 35 -30z" />
    <glyph glyph-name="Nacute" unicode="&#x143;" horiz-adv-x="640" 
d="M501 -9c-26 0 -52 14 -62 35l-176 404l-52 -374c-5 -35 -42 -65 -80 -65c-39 0 -65 30 -60 65l83 590c5 39 40 68 82 68c27 0 52 -15 63 -37c68 -154 106 -245 175 -406l53 378c5 35 42 65 80 65c39 0 65 -30 60 -65l-83 -590c-5 -37 -39 -68 -83 -68zM391 831l92 79l9 8
c14 12 22 19 44 19c21 0 42 -19 42 -44c0 -8 -2 -20 -13 -33l-93 -82c-17 -13 -26 -21 -48 -21c-26 0 -45 17 -45 43c0 16 5 23 12 31z" />
    <glyph glyph-name="nacute" unicode="&#x144;" horiz-adv-x="549" 
d="M361 111l28 205c7 50 -13 81 -53 81c-21 0 -47 -7 -80 -21c0 -7 0 -13 -1 -19l-42 -302c-5 -34 -32 -61 -78 -61s-65 27 -60 61l42 303c5 33 1 36 -2 42c-9 15 -12 23 -12 33c0 36 35 64 76 64c21 0 37 -11 49 -29c49 30 98 43 138 43c126 0 178 -78 161 -195l-27 -193
c-3 -21 -2 -26 10 -41c7 -9 13 -15 13 -29c0 -39 -31 -60 -83 -60c-40 0 -94 13 -79 118zM278 631l92 79l9 8c14 12 22 19 44 19c21 0 42 -19 42 -44c0 -8 -2 -20 -13 -33l-93 -82c-17 -13 -26 -21 -48 -21c-26 0 -45 17 -45 43c0 16 5 23 12 31z" />
    <glyph glyph-name="uni0145" unicode="&#x145;" horiz-adv-x="640" 
d="M501 -9c-26 0 -52 14 -62 35l-176 404l-52 -374c-5 -35 -42 -65 -80 -65c-39 0 -65 30 -60 65l83 590c5 39 40 68 82 68c27 0 52 -15 63 -37c68 -154 106 -245 175 -406l53 378c5 35 42 65 80 65c39 0 65 -30 60 -65l-83 -590c-5 -37 -39 -68 -83 -68zM380 -96
c0 -56 -78 -142 -117 -142c-8 0 -16 4 -16 15c0 22 30 34 46 64c-36 2 -62 8 -62 44c0 34 14 64 82 64c51 0 67 -20 67 -45z" />
    <glyph glyph-name="uni0146" unicode="&#x146;" horiz-adv-x="549" 
d="M361 111l28 205c7 50 -13 81 -53 81c-21 0 -47 -7 -80 -21c0 -7 0 -13 -1 -19l-42 -302c-5 -34 -32 -61 -78 -61s-65 27 -60 61l42 303c5 33 1 36 -2 42c-9 15 -12 23 -12 33c0 36 35 64 76 64c21 0 37 -11 49 -29c49 30 98 43 138 43c126 0 178 -78 161 -195l-27 -193
c-3 -21 -2 -26 10 -41c7 -9 13 -15 13 -29c0 -39 -31 -60 -83 -60c-40 0 -94 13 -79 118zM334 -96c0 -56 -78 -142 -117 -142c-8 0 -16 4 -16 15c0 22 30 34 46 64c-36 2 -62 8 -62 44c0 34 14 64 82 64c51 0 67 -20 67 -45z" />
    <glyph glyph-name="Ncaron" unicode="&#x147;" horiz-adv-x="640" 
d="M501 -9c-26 0 -52 14 -62 35l-176 404l-52 -374c-5 -35 -42 -65 -80 -65c-39 0 -65 30 -60 65l83 590c5 39 40 68 82 68c27 0 52 -15 63 -37c68 -154 106 -245 175 -406l53 378c5 35 42 65 80 65c39 0 65 -30 60 -65l-83 -590c-5 -37 -39 -68 -83 -68zM389 903l51 -52
l65 52c10 8 30 12 38 12c24 0 43 -19 43 -41c0 -20 -15 -36 -34 -50l-87 -61c-9 -7 -23 -13 -39 -13s-29 6 -36 13l-70 61c-12 12 -21 26 -21 41c0 27 28 50 56 50c8 0 26 -4 34 -12z" />
    <glyph glyph-name="ncaron" unicode="&#x148;" horiz-adv-x="549" 
d="M361 111l28 205c7 50 -13 81 -53 81c-21 0 -47 -7 -80 -21c0 -7 0 -13 -1 -19l-42 -302c-5 -34 -32 -61 -78 -61s-65 27 -60 61l42 303c5 33 1 36 -2 42c-9 15 -12 23 -12 33c0 36 35 64 76 64c21 0 37 -11 49 -29c49 30 98 43 138 43c126 0 178 -78 161 -195l-27 -193
c-3 -21 -2 -26 10 -41c7 -9 13 -15 13 -29c0 -39 -31 -60 -83 -60c-40 0 -94 13 -79 118zM315 703l51 -52l65 52c10 8 30 12 38 12c24 0 43 -19 43 -41c0 -20 -15 -36 -34 -50l-87 -61c-9 -7 -23 -13 -39 -13s-29 6 -36 13l-70 61c-12 12 -21 26 -21 41c0 27 28 50 56 50
c8 0 26 -4 34 -12z" />
    <glyph glyph-name="Omacron" unicode="&#x14c;" horiz-adv-x="610" 
d="M304 -9c-173 0 -244 117 -223 263l27 198c20 142 110 262 297 262s243 -120 223 -262l-27 -198c-21 -146 -124 -263 -297 -263zM387 587c-88 0 -127 -54 -139 -135l-27 -198c-12 -80 18 -136 100 -136s128 56 140 136l27 198c12 81 -13 135 -101 135zM613 835
c0 -31 -30 -56 -64 -56h-269c-29 0 -50 19 -50 45c0 31 30 57 65 57h269c28 0 49 -20 49 -46z" />
    <glyph glyph-name="omacron" unicode="&#x14d;" horiz-adv-x="524" 
d="M261 -7c-142 0 -206 81 -191 186l21 149c14 105 101 186 243 186s205 -81 191 -186l-21 -149c-15 -105 -101 -186 -243 -186zM277 111c52 0 83 26 89 68l21 150c6 41 -18 67 -70 67s-82 -26 -88 -67l-21 -150c-6 -42 17 -68 69 -68zM542 635c0 -31 -30 -56 -64 -56h-269
c-29 0 -50 19 -50 45c0 31 30 57 65 57h269c28 0 49 -20 49 -46z" />
    <glyph glyph-name="Obreve" unicode="&#x14e;" horiz-adv-x="610" 
d="M304 -9c-173 0 -244 117 -223 263l27 198c20 142 110 262 297 262s243 -120 223 -262l-27 -198c-21 -146 -124 -263 -297 -263zM387 587c-88 0 -127 -54 -139 -135l-27 -198c-12 -80 18 -136 100 -136s128 56 140 136l27 198c12 81 -13 135 -101 135zM424 845
c18 0 42 10 63 31c14 14 32 23 50 23c27 0 52 -18 36 -56c-24 -58 -108 -90 -162 -90s-127 32 -136 90c-6 38 25 56 52 56c17 0 32 -8 42 -22c15 -21 37 -32 55 -32z" />
    <glyph glyph-name="obreve" unicode="&#x14f;" horiz-adv-x="524" 
d="M261 -7c-142 0 -206 81 -191 186l21 149c14 105 101 186 243 186s205 -81 191 -186l-21 -149c-15 -105 -101 -186 -243 -186zM277 111c52 0 83 26 89 68l21 150c6 41 -18 67 -70 67s-82 -26 -88 -67l-21 -150c-6 -42 17 -68 69 -68zM353 645c18 0 42 10 63 31
c14 14 32 23 50 23c27 0 52 -18 36 -56c-24 -58 -108 -90 -162 -90s-127 32 -136 90c-6 38 25 56 52 56c17 0 32 -8 42 -22c15 -21 37 -32 55 -32z" />
    <glyph glyph-name="Ohungarumlaut" unicode="&#x150;" horiz-adv-x="610" 
d="M304 -9c-173 0 -244 117 -223 263l27 198c20 142 110 262 297 262s243 -120 223 -262l-27 -198c-21 -146 -124 -263 -297 -263zM387 587c-88 0 -127 -54 -139 -135l-27 -198c-12 -80 18 -136 100 -136s128 56 140 136l27 198c12 81 -13 135 -101 135zM290 819l76 89
c14 17 29 35 56 35c33 0 64 -36 37 -68l-78 -96c-15 -18 -28 -29 -54 -29c-33 0 -64 37 -37 69zM460 819l76 89c14 17 29 36 56 35c33 0 64 -36 37 -68l-78 -96c-15 -18 -28 -29 -54 -29c-33 0 -64 37 -37 69z" />
    <glyph glyph-name="ohungarumlaut" unicode="&#x151;" horiz-adv-x="524" 
d="M261 -7c-142 0 -206 81 -191 186l21 149c14 105 101 186 243 186s205 -81 191 -186l-21 -149c-15 -105 -101 -186 -243 -186zM277 111c52 0 83 26 89 68l21 150c6 41 -18 67 -70 67s-82 -26 -88 -67l-21 -150c-6 -42 17 -68 69 -68zM215 619l76 89c14 17 29 35 56 35
c33 0 64 -36 37 -68l-78 -96c-15 -18 -28 -29 -54 -29c-33 0 -64 37 -37 69zM385 619l76 89c14 17 29 36 56 35c33 0 64 -36 37 -68l-78 -96c-15 -18 -28 -29 -54 -29c-33 0 -64 37 -37 69z" />
    <glyph glyph-name="OE" unicode="&#x152;" horiz-adv-x="756" 
d="M763 71c0 -38 -39 -71 -80 -71h-235c-30 0 -56 6 -72 23c-35 -20 -75 -32 -122 -32c-159 0 -225 109 -206 245l33 234c19 134 101 244 274 244c50 0 89 -12 118 -31c16 13 36 22 58 22h241c35 0 61 -26 61 -58c0 -39 -38 -69 -79 -69h-178l-22 -161h159
c32 0 60 -24 60 -57c0 -38 -36 -70 -78 -70h-159l-23 -163h188c34 0 62 -25 62 -56zM337 587c-74 0 -106 -47 -116 -117l-33 -234c-10 -69 16 -118 84 -118s106 49 116 118l33 234c10 70 -10 117 -84 117z" />
    <glyph glyph-name="oe" unicode="&#x153;" horiz-adv-x="731" 
d="M547 181c-19 0 -43 2 -71 6l-3 -23c-5 -34 19 -56 71 -56c36 0 61 10 95 22h-1c4 2 15 6 28 6c34 0 57 -26 57 -53c0 -69 -141 -90 -202 -90c-65 0 -110 20 -137 52c-38 -32 -91 -52 -157 -52c-135 0 -201 82 -186 186l21 149c15 104 104 186 239 186
c67 0 114 -21 143 -54c37 33 90 53 157 53c111 0 170 -58 170 -147c0 -112 -65 -185 -224 -185zM248 111c52 0 83 26 89 68l21 150c6 41 -18 67 -70 67s-82 -26 -88 -67l-21 -150c-6 -42 17 -68 69 -68zM632 351c0 32 -19 45 -54 45c-46 0 -76 -21 -81 -55l-6 -43
c32 -3 61 -4 75 -4c50 0 66 23 66 57z" />
    <glyph glyph-name="Racute" unicode="&#x154;" horiz-adv-x="615" 
d="M633 522c0 -114 -66 -189 -169 -221l108 -206c26 -50 -30 -103 -75 -103c-25 0 -45 11 -55 31l-131 263h-68l-32 -229c-5 -35 -42 -66 -80 -66c-37 0 -65 30 -60 66l81 576c5 39 45 72 86 72h174c166 0 221 -89 221 -183zM491 506c0 36 -21 72 -101 72h-106l-23 -166h112
c76 0 118 34 118 94zM339 831l92 79l9 8c14 12 22 19 44 19c21 0 42 -19 42 -44c0 -8 -2 -20 -13 -33l-93 -82c-17 -13 -26 -21 -48 -21c-26 0 -45 17 -45 43c0 16 5 23 12 31z" />
    <glyph glyph-name="racute" unicode="&#x155;" horiz-adv-x="377" 
d="M353 386c-43 2 -60 4 -97 -10c0 -7 0 -13 -1 -19l-42 -302c-5 -35 -39 -62 -78 -62s-65 27 -60 62l42 302c3 23 3 35 -4 47c-5 9 -10 16 -10 27c0 39 38 66 77 66c21 0 37 -13 49 -31c49 27 98 43 130 43c56 0 74 -22 74 -51c0 -44 -39 -74 -80 -72zM247 631l92 79l9 8
c14 12 22 19 44 19c21 0 42 -19 42 -44c0 -8 -2 -20 -13 -33l-93 -82c-17 -13 -26 -21 -48 -21c-26 0 -45 17 -45 43c0 16 5 23 12 31z" />
    <glyph glyph-name="uni0156" unicode="&#x156;" horiz-adv-x="615" 
d="M633 522c0 -114 -66 -189 -169 -221l108 -206c26 -50 -30 -103 -75 -103c-25 0 -45 11 -55 31l-131 263h-68l-32 -229c-5 -35 -42 -66 -80 -66c-37 0 -65 30 -60 66l81 576c5 39 45 72 86 72h174c166 0 221 -89 221 -183zM491 506c0 36 -21 72 -101 72h-106l-23 -166h112
c76 0 118 34 118 94zM367 -96c0 -56 -78 -142 -117 -142c-8 0 -16 4 -16 15c0 22 30 34 46 64c-36 2 -62 8 -62 44c0 34 14 64 82 64c51 0 67 -20 67 -45z" />
    <glyph glyph-name="uni0157" unicode="&#x157;" horiz-adv-x="377" 
d="M353 386c-43 2 -60 4 -97 -10c0 -7 0 -13 -1 -19l-42 -302c-5 -35 -39 -62 -78 -62s-65 27 -60 62l42 302c3 23 3 35 -4 47c-5 9 -10 16 -10 27c0 39 38 66 77 66c21 0 37 -13 49 -31c49 27 98 43 130 43c56 0 74 -22 74 -51c0 -44 -39 -74 -80 -72zM195 -96
c0 -56 -78 -142 -117 -142c-8 0 -16 4 -16 15c0 22 30 34 46 64c-36 2 -62 8 -62 44c0 34 14 64 82 64c51 0 67 -20 67 -45z" />
    <glyph glyph-name="Rcaron" unicode="&#x158;" horiz-adv-x="615" 
d="M633 522c0 -114 -66 -189 -169 -221l108 -206c26 -50 -30 -103 -75 -103c-25 0 -45 11 -55 31l-131 263h-68l-32 -229c-5 -35 -42 -66 -80 -66c-37 0 -65 30 -60 66l81 576c5 39 45 72 86 72h174c166 0 221 -89 221 -183zM491 506c0 36 -21 72 -101 72h-106l-23 -166h112
c76 0 118 34 118 94zM359 903l51 -52l65 52c10 8 30 12 38 12c24 0 43 -19 43 -41c0 -20 -15 -36 -34 -50l-87 -61c-9 -7 -23 -13 -39 -13s-29 6 -36 13l-70 61c-12 12 -21 26 -21 41c0 27 28 50 56 50c8 0 26 -4 34 -12z" />
    <glyph glyph-name="rcaron" unicode="&#x159;" horiz-adv-x="377" 
d="M353 386c-43 2 -60 4 -97 -10c0 -7 0 -13 -1 -19l-42 -302c-5 -35 -39 -62 -78 -62s-65 27 -60 62l42 302c3 23 3 35 -4 47c-5 9 -10 16 -10 27c0 39 38 66 77 66c21 0 37 -13 49 -31c49 27 98 43 130 43c56 0 74 -22 74 -51c0 -44 -39 -74 -80 -72zM230 703l51 -52
l65 52c10 8 30 12 38 12c24 0 43 -19 43 -41c0 -20 -15 -36 -34 -50l-87 -61c-9 -7 -23 -13 -39 -13s-29 6 -36 13l-70 61c-12 12 -21 26 -21 41c0 27 28 50 56 50c8 0 26 -4 34 -12z" />
    <glyph glyph-name="Sacute" unicode="&#x15a;" horiz-adv-x="526" 
d="M380 217c0 35 -18 48 -33 55c-20 9 -43 19 -69 27c-85 28 -177 59 -177 179c0 145 106 236 264 236c56 0 189 -14 189 -84c0 -35 -32 -69 -80 -69c-18 0 -31 5 -47 11c-18 6 -39 15 -74 15c-54 0 -107 -20 -107 -87c0 -36 20 -49 34 -56c24 -13 47 -20 68 -27
c86 -28 178 -61 178 -179c0 -155 -125 -247 -282 -247c-71 0 -201 25 -201 90c0 34 36 69 75 69c15 0 31 -5 49 -12c23 -8 53 -20 96 -20c77 0 117 37 117 99zM330 831l92 79l9 8c14 12 22 19 44 19c21 0 42 -19 42 -44c0 -8 -2 -20 -13 -33l-93 -82
c-17 -13 -26 -21 -48 -21c-26 0 -45 17 -45 43c0 16 5 23 12 31z" />
    <glyph glyph-name="sacute" unicode="&#x15b;" horiz-adv-x="446" 
d="M92 338c0 101 74 175 216 175c62 0 151 -15 151 -77c0 -50 -44 -59 -67 -59c-35 0 -50 21 -99 21c-41 0 -63 -15 -63 -40c0 -12 7 -21 25 -29c63 -29 180 -44 180 -158c0 -107 -80 -178 -219 -178c-62 0 -169 15 -169 73c0 30 31 64 73 64c33 0 61 -22 110 -22
c39 0 67 14 67 45c0 14 -8 22 -17 27c-56 34 -188 39 -188 158zM256 631l92 79l9 8c14 12 22 19 44 19c21 0 42 -19 42 -44c0 -8 -2 -20 -13 -33l-93 -82c-17 -13 -26 -21 -48 -21c-26 0 -45 17 -45 43c0 16 5 23 12 31z" />
    <glyph glyph-name="Scircumflex" unicode="&#x15c;" horiz-adv-x="526" 
d="M380 217c0 35 -18 48 -33 55c-20 9 -43 19 -69 27c-85 28 -177 59 -177 179c0 145 106 236 264 236c56 0 189 -14 189 -84c0 -35 -32 -69 -80 -69c-18 0 -31 5 -47 11c-18 6 -39 15 -74 15c-54 0 -107 -20 -107 -87c0 -36 20 -49 34 -56c24 -13 47 -20 68 -27
c86 -28 178 -61 178 -179c0 -155 -125 -247 -282 -247c-71 0 -201 25 -201 90c0 34 36 69 75 69c15 0 31 -5 49 -12c23 -8 53 -20 96 -20c77 0 117 37 117 99zM391 916c16 0 27 -6 35 -13l71 -61c13 -13 22 -28 21 -45c-4 -25 -30 -46 -57 -46c-33 0 -60 38 -84 64
c-32 -26 -69 -64 -102 -64c-27 0 -47 21 -43 46c3 17 16 32 33 45l87 61c10 7 23 13 39 13z" />
    <glyph glyph-name="scircumflex" unicode="&#x15d;" horiz-adv-x="446" 
d="M92 338c0 101 74 175 216 175c62 0 151 -15 151 -77c0 -50 -44 -59 -67 -59c-35 0 -50 21 -99 21c-41 0 -63 -15 -63 -40c0 -12 7 -21 25 -29c63 -29 180 -44 180 -158c0 -107 -80 -178 -219 -178c-62 0 -169 15 -169 73c0 30 31 64 73 64c33 0 61 -22 110 -22
c39 0 67 14 67 45c0 14 -8 22 -17 27c-56 34 -188 39 -188 158zM323 716c16 0 27 -6 35 -13l71 -61c13 -13 22 -28 21 -45c-4 -25 -30 -46 -57 -46c-33 0 -60 38 -84 64c-32 -26 -69 -64 -102 -64c-27 0 -47 21 -43 46c3 17 16 32 33 45l87 61c10 7 23 13 39 13z" />
    <glyph glyph-name="Scedilla" unicode="&#x15e;" horiz-adv-x="526" 
d="M362 -106c0 -63 -55 -110 -129 -110c-53 0 -112 18 -112 55c0 20 16 33 38 33c19 0 46 -9 72 -9c34 0 50 9 50 24c0 14 -15 19 -53 26c-30 6 -46 5 -38 47l9 34c-70 7 -156 33 -156 87c0 34 36 69 75 69c15 0 31 -5 49 -12c23 -8 53 -20 96 -20c77 0 117 37 117 99
c0 35 -18 48 -33 55c-20 9 -43 19 -69 27c-85 28 -177 59 -177 179c0 145 107 236 264 236c57 0 189 -14 189 -84c0 -35 -32 -69 -80 -69c-18 0 -31 6 -47 11c-18 7 -39 15 -74 15c-54 0 -107 -20 -107 -87c0 -36 20 -49 34 -56c24 -13 47 -21 68 -27
c86 -28 178 -61 178 -179c0 -142 -107 -232 -247 -245l-6 -26c63 -5 89 -34 89 -73z" />
    <glyph glyph-name="scedilla" unicode="&#x15f;" horiz-adv-x="446" 
d="M322 -106c0 -63 -55 -110 -129 -110c-53 0 -112 18 -112 55c0 20 17 33 39 33c19 0 45 -9 71 -9c34 0 51 9 51 24c0 14 -16 19 -54 26c-30 6 -46 5 -38 47l11 37c-56 7 -114 26 -114 69c0 30 32 64 74 64c33 0 61 -22 110 -22c39 0 67 14 67 45c0 14 -8 22 -17 27
c-56 34 -189 39 -189 158c0 101 75 175 217 175c62 0 150 -15 150 -77c0 -50 -44 -59 -67 -59c-35 0 -50 21 -99 21c-41 0 -63 -15 -63 -40c0 -12 8 -21 26 -29c63 -29 180 -44 180 -158c0 -100 -72 -169 -196 -177l-7 -27c64 -5 89 -34 89 -73z" />
    <glyph glyph-name="Scaron" unicode="&#x160;" horiz-adv-x="526" 
d="M380 217c0 35 -18 48 -33 55c-20 9 -43 19 -69 27c-85 28 -177 59 -177 179c0 145 106 236 264 236c56 0 189 -14 189 -84c0 -35 -32 -69 -80 -69c-18 0 -31 5 -47 11c-18 6 -39 15 -74 15c-54 0 -107 -20 -107 -87c0 -36 20 -49 34 -56c24 -13 47 -20 68 -27
c86 -28 178 -61 178 -179c0 -155 -125 -247 -282 -247c-71 0 -201 25 -201 90c0 34 36 69 75 69c15 0 31 -5 49 -12c23 -8 53 -20 96 -20c77 0 117 37 117 99zM332 903l51 -52l65 52c10 8 30 12 38 12c24 0 43 -19 43 -41c0 -20 -15 -36 -34 -50l-87 -61
c-9 -7 -23 -13 -39 -13s-29 6 -36 13l-70 61c-12 12 -21 26 -21 41c0 27 28 50 56 50c8 0 26 -4 34 -12z" />
    <glyph glyph-name="scaron" unicode="&#x161;" horiz-adv-x="446" 
d="M92 338c0 101 74 175 216 175c62 0 151 -15 151 -77c0 -50 -44 -59 -67 -59c-35 0 -50 21 -99 21c-41 0 -63 -15 -63 -40c0 -12 7 -21 25 -29c63 -29 180 -44 180 -158c0 -107 -80 -178 -219 -178c-62 0 -169 15 -169 73c0 30 31 64 73 64c33 0 61 -22 110 -22
c39 0 67 14 67 45c0 14 -8 22 -17 27c-56 34 -188 39 -188 158zM278 703l51 -52l65 52c10 8 30 12 38 12c24 0 43 -19 43 -41c0 -20 -15 -36 -34 -50l-87 -61c-9 -7 -23 -13 -39 -13s-29 6 -36 13l-70 61c-12 12 -21 26 -21 41c0 27 28 50 56 50c8 0 26 -4 34 -12z" />
    <glyph glyph-name="uni0162" unicode="&#x162;" horiz-adv-x="523" 
d="M383 -106c0 -63 -55 -110 -129 -110c-53 0 -112 18 -112 55c0 20 17 33 38 33c19 0 46 -9 72 -9c34 0 51 9 51 24c0 14 -16 19 -54 26c-30 6 -46 5 -38 47l13 41c-18 12 -28 32 -25 54l74 523h-106c-37 0 -62 26 -62 56c0 32 38 71 80 71h352c33 0 62 -25 62 -58
c0 -37 -40 -69 -80 -69h-106l-74 -523c-3 -20 -16 -39 -35 -51l-10 -37c64 -5 89 -34 89 -73z" />
    <glyph glyph-name="uni0163" unicode="&#x163;" horiz-adv-x="361" 
d="M322 -106c0 -63 -55 -110 -129 -110c-53 0 -112 18 -112 55c0 20 16 33 38 33c19 0 46 -9 72 -9c34 0 50 9 50 24c0 14 -15 19 -53 26c-30 6 -46 5 -39 47l16 50c-74 27 -86 96 -72 198l55 388c5 34 33 61 77 61s66 -28 61 -61l-16 -111h74c34 0 58 -23 58 -53
c0 -38 -34 -66 -74 -66h-75l-21 -151c-10 -74 -8 -100 40 -100c9 0 15 1 17 1c56 0 76 -14 76 -44c0 -67 -51 -76 -106 -76c-6 0 -12 1 -18 1l-9 -30c64 -5 90 -34 90 -73z" />
    <glyph glyph-name="Tcaron" unicode="&#x164;" horiz-adv-x="523" 
d="M199 55l74 523h-106c-37 0 -62 26 -62 56c0 32 38 71 80 71h352c33 0 62 -25 62 -58c0 -37 -40 -69 -80 -69h-106l-74 -523c-5 -34 -41 -64 -79 -64c-39 0 -66 30 -61 64zM330 903l51 -52l65 52c10 8 30 12 38 12c24 0 43 -19 43 -41c0 -20 -15 -36 -34 -50l-87 -61
c-9 -7 -23 -13 -39 -13s-29 6 -36 13l-70 61c-12 12 -21 26 -21 41c0 27 28 50 56 50c8 0 26 -4 34 -12z" />
    <glyph glyph-name="tcaron" unicode="&#x165;" horiz-adv-x="567" 
d="M93 208l55 388c5 34 33 61 77 61s66 -28 61 -61l-16 -111h74c34 0 58 -23 58 -53c0 -38 -35 -66 -75 -66h-74l-21 -151c-10 -74 -8 -100 40 -100c9 0 15 1 17 1c56 0 75 -14 75 -44c0 -67 -51 -76 -106 -76c-155 0 -184 76 -165 212zM471 484c8 33 31 45 46 89
c-34 7 -56 35 -56 67c0 46 45 85 96 85c40 0 72 -28 72 -71c0 -54 -70 -215 -123 -215c-16 0 -45 6 -35 45z" />
    <glyph glyph-name="Utilde" unicode="&#x168;" horiz-adv-x="612" 
d="M591 240c-20 -144 -128 -249 -286 -249c-161 0 -236 106 -216 249l57 408c6 38 41 66 81 66c37 0 64 -30 59 -66l-57 -408c-10 -72 18 -122 94 -122c75 0 117 51 127 122l57 408c5 35 40 66 79 66c41 0 67 -31 62 -66zM581 848c0 -44 -60 -78 -101 -78
c-53 0 -76 36 -105 40s-37 -36 -70 -36c-21 0 -41 16 -40 41c6 46 54 80 99 80c56 0 75 -40 106 -40s35 36 68 36c23 0 43 -18 43 -43z" />
    <glyph glyph-name="utilde" unicode="&#x169;" horiz-adv-x="549" 
d="M393 37c-52 -33 -99 -44 -144 -44c-121 0 -175 79 -159 196l37 261c5 34 34 60 78 60s65 -26 60 -60l-37 -261c-7 -51 10 -80 54 -80c21 0 47 7 80 21c0 7 0 13 1 19l42 301c5 34 32 60 78 60s65 -26 60 -60l-45 -321c-2 -15 3 -22 14 -35c7 -8 10 -17 10 -27
c0 -44 -40 -68 -73 -68c-26 0 -44 16 -56 38zM521 648c0 -44 -60 -78 -101 -78c-53 0 -76 36 -105 40s-37 -36 -70 -36c-21 0 -41 16 -40 41c6 46 54 80 99 80c56 0 75 -40 106 -40s35 36 68 36c23 0 43 -18 43 -43z" />
    <glyph glyph-name="Umacron" unicode="&#x16a;" horiz-adv-x="612" 
d="M591 240c-20 -144 -128 -249 -286 -249c-161 0 -236 106 -216 249l57 408c6 38 41 66 81 66c37 0 64 -30 59 -66l-57 -408c-10 -72 18 -122 94 -122c75 0 117 51 127 122l57 408c5 35 40 66 79 66c41 0 67 -31 62 -66zM614 835c0 -31 -30 -56 -64 -56h-269
c-29 0 -50 19 -50 45c0 31 30 57 65 57h269c28 0 49 -20 49 -46z" />
    <glyph glyph-name="umacron" unicode="&#x16b;" horiz-adv-x="549" 
d="M393 37c-52 -33 -99 -44 -144 -44c-121 0 -175 79 -159 196l37 261c5 34 34 60 78 60s65 -26 60 -60l-37 -261c-7 -51 10 -80 54 -80c21 0 47 7 80 21c0 7 0 13 1 19l42 301c5 34 32 60 78 60s65 -26 60 -60l-45 -321c-2 -15 3 -22 14 -35c7 -8 10 -17 10 -27
c0 -44 -40 -68 -73 -68c-26 0 -44 16 -56 38zM554 635c0 -31 -30 -56 -64 -56h-269c-29 0 -50 19 -50 45c0 31 30 57 65 57h269c28 0 49 -20 49 -46z" />
    <glyph glyph-name="Ubreve" unicode="&#x16c;" horiz-adv-x="612" 
d="M591 240c-20 -144 -128 -249 -286 -249c-161 0 -236 106 -216 249l57 408c6 38 41 66 81 66c37 0 64 -30 59 -66l-57 -408c-10 -72 18 -122 94 -122c75 0 117 51 127 122l57 408c5 35 40 66 79 66c41 0 67 -31 62 -66zM425 845c18 0 42 10 63 31c14 14 32 23 50 23
c27 0 52 -18 36 -56c-24 -58 -108 -90 -162 -90s-127 32 -136 90c-6 38 25 56 52 56c17 0 32 -8 42 -22c15 -21 37 -32 55 -32z" />
    <glyph glyph-name="ubreve" unicode="&#x16d;" horiz-adv-x="549" 
d="M393 37c-52 -33 -99 -44 -144 -44c-121 0 -175 79 -159 196l37 261c5 34 34 60 78 60s65 -26 60 -60l-37 -261c-7 -51 10 -80 54 -80c21 0 47 7 80 21c0 7 0 13 1 19l42 301c5 34 32 60 78 60s65 -26 60 -60l-45 -321c-2 -15 3 -22 14 -35c7 -8 10 -17 10 -27
c0 -44 -40 -68 -73 -68c-26 0 -44 16 -56 38zM365 645c18 0 42 10 63 31c14 14 32 23 50 23c27 0 52 -18 36 -56c-24 -58 -108 -90 -162 -90s-127 32 -136 90c-6 38 25 56 52 56c17 0 32 -8 42 -22c15 -21 37 -32 55 -32z" />
    <glyph glyph-name="Uring" unicode="&#x16e;" horiz-adv-x="612" 
d="M591 240c-20 -144 -128 -249 -286 -249c-161 0 -236 106 -216 249l57 408c6 38 41 66 81 66c37 0 64 -30 59 -66l-57 -408c-10 -72 18 -122 94 -122c75 0 117 51 127 122l57 408c5 35 40 66 79 66c41 0 67 -31 62 -66zM534 857c0 -67 -59 -122 -125 -122
c-57 0 -96 42 -96 96c0 66 59 122 126 122c56 0 95 -43 95 -96zM469 849c0 22 -17 40 -39 40c-26 0 -50 -24 -50 -50c0 -21 16 -39 38 -39c26 0 51 23 51 49z" />
    <glyph glyph-name="uring" unicode="&#x16f;" horiz-adv-x="549" 
d="M393 37c-52 -33 -99 -44 -144 -44c-121 0 -175 79 -159 196l37 261c5 34 34 60 78 60s65 -26 60 -60l-37 -261c-7 -51 10 -80 54 -80c21 0 47 7 80 21c0 7 0 13 1 19l42 301c5 34 32 60 78 60s65 -26 60 -60l-45 -321c-2 -15 3 -22 14 -35c7 -8 10 -17 10 -27
c0 -44 -40 -68 -73 -68c-26 0 -44 16 -56 38zM475 657c0 -67 -59 -122 -125 -122c-57 0 -96 42 -96 96c0 66 59 122 126 122c56 0 95 -43 95 -96zM410 649c0 22 -17 40 -39 40c-26 0 -50 -24 -50 -50c0 -21 16 -39 38 -39c26 0 51 23 51 49z" />
    <glyph glyph-name="Uhungarumlaut" unicode="&#x170;" horiz-adv-x="612" 
d="M591 240c-20 -144 -128 -249 -286 -249c-161 0 -236 106 -216 249l57 408c6 38 41 66 81 66c37 0 64 -30 59 -66l-57 -408c-10 -72 18 -122 94 -122c75 0 117 51 127 122l57 408c5 35 40 66 79 66c41 0 67 -31 62 -66zM292 819l76 89c14 17 29 35 56 35
c33 0 64 -36 37 -68l-78 -96c-15 -18 -28 -29 -54 -29c-33 0 -64 37 -37 69zM462 819l76 89c14 17 29 36 56 35c33 0 64 -36 37 -68l-78 -96c-15 -18 -28 -29 -54 -29c-33 0 -64 37 -37 69z" />
    <glyph glyph-name="uhungarumlaut" unicode="&#x171;" horiz-adv-x="549" 
d="M393 37c-52 -33 -99 -44 -144 -44c-121 0 -175 79 -159 196l37 261c5 34 34 60 78 60s65 -26 60 -60l-37 -261c-7 -51 10 -80 54 -80c21 0 47 7 80 21c0 7 0 13 1 19l42 301c5 34 32 60 78 60s65 -26 60 -60l-45 -321c-2 -15 3 -22 14 -35c7 -8 10 -17 10 -27
c0 -44 -40 -68 -73 -68c-26 0 -44 16 -56 38zM224 619l76 89c14 17 29 35 56 35c33 0 64 -36 37 -68l-78 -96c-15 -18 -28 -29 -54 -29c-33 0 -64 37 -37 69zM394 619l76 89c14 17 29 36 56 35c33 0 64 -36 37 -68l-78 -96c-15 -18 -28 -29 -54 -29c-33 0 -64 37 -37 69z
" />
    <glyph glyph-name="Uogonek" unicode="&#x172;" horiz-adv-x="612" 
d="M470 -161c0 -50 -62 -58 -102 -58c-65 0 -108 28 -108 87c0 40 23 82 57 123h-12c-161 0 -236 106 -216 249l57 408c5 38 41 66 81 66c37 0 65 -30 60 -66l-58 -408c-10 -72 18 -122 94 -122c75 0 117 51 127 122l57 408c5 35 40 66 79 66c41 0 68 -31 63 -66l-58 -408
c-14 -99 -69 -180 -153 -220c-29 -38 -72 -89 -72 -126c0 -12 7 -21 23 -21c11 0 23 4 33 4h9c23 0 39 -18 39 -38z" />
    <glyph glyph-name="uogonek" unicode="&#x173;" horiz-adv-x="549" 
d="M535 -161c0 -50 -63 -58 -103 -58c-65 0 -108 28 -108 87c0 48 34 100 83 148c-5 6 -10 13 -14 21c-52 -33 -99 -44 -144 -44c-121 0 -175 79 -159 196l37 261c5 34 34 60 78 60s65 -26 60 -60l-37 -261c-7 -51 10 -80 54 -80c21 0 47 7 80 21c0 7 0 13 1 19l42 301
c5 34 32 60 78 60s65 -26 60 -60l-45 -321c-2 -15 3 -22 14 -35c7 -8 10 -17 10 -27c0 -20 -11 -35 -19 -45c-32 -40 -73 -83 -73 -128c0 -12 7 -21 23 -21c11 0 23 4 34 4h9c23 0 39 -18 39 -38z" />
    <glyph glyph-name="Wcircumflex" unicode="&#x174;" horiz-adv-x="830" 
d="M584 640l26 -235c6 -55 3 -111 5 -167c18 56 31 112 53 167l100 255c13 32 40 51 71 51c32 0 70 -17 70 -55c0 -8 -1 -13 -4 -19l-232 -583c-14 -33 -43 -63 -91 -63s-69 31 -73 64l-25 245c-5 52 -3 107 -5 160c-16 -53 -29 -108 -49 -160l-96 -247
c-12 -30 -37 -62 -90 -62c-41 0 -69 33 -73 63l-66 578c-1 10 -2 19 -2 19c5 37 48 60 83 60c29 0 55 -15 59 -48l29 -258c6 -54 4 -111 6 -166c18 53 31 113 52 166l92 235c18 47 36 74 91 74c51 0 65 -29 69 -74zM543 916c16 0 27 -6 35 -13l71 -61c13 -13 22 -28 21 -45
c-4 -25 -30 -46 -57 -46c-33 0 -60 38 -84 64c-32 -26 -69 -64 -102 -64c-27 0 -47 21 -43 46c3 17 16 32 33 45l87 61c10 7 23 13 39 13z" />
    <glyph glyph-name="wcircumflex" unicode="&#x175;" horiz-adv-x="695" 
d="M415 43l-19 160c-5 40 -2 81 -2 122c-12 -41 -20 -82 -36 -122l-63 -160c-16 -36 -43 -50 -84 -50c-44 0 -64 22 -70 60l-62 384c0 2 -1 5 -1 7c0 34 36 66 78 66c29 0 55 -16 59 -45l20 -165c6 -50 -2 -101 -2 -152c15 51 24 102 44 152l63 159c12 29 41 51 81 51
c39 0 62 -22 65 -51l16 -159c5 -50 2 -102 3 -153c14 51 22 103 42 153l66 165c10 25 42 45 71 45c33 0 60 -23 60 -55c0 -7 -2 -13 -3 -16l-170 -387c-17 -39 -40 -59 -88 -59c-34 0 -63 18 -68 50zM447 716c16 0 27 -6 35 -13l71 -61c13 -13 22 -28 21 -45
c-4 -25 -30 -46 -57 -46c-33 0 -60 38 -84 64c-32 -26 -69 -64 -102 -64c-27 0 -47 21 -43 46c3 17 16 32 33 45l87 61c10 7 23 13 39 13z" />
    <glyph glyph-name="Ycircumflex" unicode="&#x176;" horiz-adv-x="530" 
d="M264 -9c-40 0 -67 30 -62 66l31 219l-127 344c-2 5 -3 14 -3 22c0 39 42 72 81 72c21 0 43 -9 53 -30l90 -248l159 248c14 21 40 30 62 30c33 0 62 -27 62 -59c0 -13 -7 -25 -11 -35l-224 -344l-31 -219c-5 -35 -40 -66 -80 -66zM393 916c16 0 27 -6 35 -13l71 -61
c13 -13 22 -28 21 -45c-4 -25 -30 -46 -57 -46c-33 0 -60 38 -84 64c-32 -26 -69 -64 -102 -64c-27 0 -47 21 -43 46c3 17 16 32 33 45l87 61c10 7 23 13 39 13z" />
    <glyph glyph-name="ycircumflex" unicode="&#x177;" horiz-adv-x="549" 
d="M256 450l-38 -267c-6 -46 9 -75 58 -75c30 0 60 7 85 26l45 316c4 34 31 60 77 60s65 -26 61 -60l-68 -483c-15 -107 -90 -191 -236 -191c-55 0 -158 18 -158 75c0 35 33 63 72 63c7 0 17 -1 31 -6c18 -9 35 -17 63 -17c57 0 83 28 90 76l6 43c-32 -11 -63 -16 -100 -16
c-144 0 -179 81 -164 189l38 267c4 34 33 60 77 60s66 -26 61 -60zM374 716c16 0 27 -6 35 -13l71 -61c13 -13 22 -28 21 -45c-4 -25 -30 -46 -57 -46c-33 0 -60 38 -84 64c-32 -26 -69 -64 -102 -64c-27 0 -47 21 -43 46c3 17 16 32 33 45l87 61c10 7 23 13 39 13z" />
    <glyph glyph-name="Ydieresis" unicode="&#x178;" horiz-adv-x="530" 
d="M264 -9c-40 0 -67 30 -62 66l31 219l-127 344c-2 5 -3 14 -3 22c0 39 42 72 81 72c21 0 43 -9 53 -30l90 -248l159 248c14 21 40 30 62 30c33 0 62 -27 62 -59c0 -13 -7 -25 -11 -35l-224 -344l-31 -219c-5 -35 -40 -66 -80 -66zM536 837c0 -38 -35 -70 -74 -70
c-33 0 -58 26 -58 56c0 37 36 68 75 68c33 0 57 -24 57 -54zM357 837c0 -38 -35 -70 -75 -70c-33 0 -56 25 -56 56c0 36 34 68 73 68c34 0 58 -24 58 -54z" />
    <glyph glyph-name="Zacute" unicode="&#x179;" horiz-adv-x="524" 
d="M514 72c0 -39 -39 -72 -80 -72h-343c-37 0 -63 27 -63 61c0 17 13 41 21 51c120 163 226 300 348 464h-226c-36 0 -61 25 -61 57c0 38 37 72 79 72h339c39 0 64 -26 64 -60c0 -21 -10 -37 -20 -50l-351 -466h231c34 0 62 -25 62 -57zM343 831l92 79l9 8
c14 12 22 19 44 19c21 0 42 -19 42 -44c0 -8 -2 -20 -13 -33l-93 -82c-17 -13 -26 -21 -48 -21c-26 0 -45 17 -45 43c0 16 5 23 12 31z" />
    <glyph glyph-name="zacute" unicode="&#x17a;" horiz-adv-x="434" 
d="M484 450c0 -15 -6 -32 -20 -48l-256 -284h165c35 0 59 -23 59 -53c0 -36 -34 -65 -75 -65h-277c-35 0 -62 25 -62 57c0 19 6 31 18 44l257 286h-153c-34 0 -58 23 -58 53c0 37 34 65 75 65h265c35 0 62 -20 62 -55zM253 631l92 79l9 8c14 12 22 19 44 19
c21 0 42 -19 42 -44c0 -8 -2 -20 -13 -33l-93 -82c-17 -13 -26 -21 -48 -21c-26 0 -45 17 -45 43c0 16 5 23 12 31z" />
    <glyph glyph-name="Zdotaccent" unicode="&#x17b;" horiz-adv-x="524" 
d="M514 72c0 -39 -39 -72 -80 -72h-343c-37 0 -63 27 -63 61c0 17 13 41 21 51c120 163 226 300 348 464h-226c-36 0 -61 25 -61 57c0 38 37 72 79 72h339c39 0 64 -26 64 -60c0 -21 -10 -37 -20 -50l-351 -466h231c34 0 62 -25 62 -57zM442 822c0 -38 -35 -70 -75 -70
c-33 0 -56 25 -56 56c0 36 34 68 73 68c34 0 58 -24 58 -54z" />
    <glyph glyph-name="zdotaccent" unicode="&#x17c;" horiz-adv-x="434" 
d="M484 450c0 -15 -6 -32 -20 -48l-256 -284h165c35 0 59 -23 59 -53c0 -36 -34 -65 -75 -65h-277c-35 0 -62 25 -62 57c0 19 6 31 18 44l257 286h-153c-34 0 -58 23 -58 53c0 37 34 65 75 65h265c35 0 62 -20 62 -55zM369 622c0 -38 -35 -70 -75 -70c-33 0 -56 25 -56 56
c0 36 34 68 73 68c34 0 58 -24 58 -54z" />
    <glyph glyph-name="Zcaron" unicode="&#x17d;" horiz-adv-x="524" 
d="M514 72c0 -39 -39 -72 -80 -72h-343c-37 0 -63 27 -63 61c0 17 13 41 21 51c120 163 226 300 348 464h-226c-36 0 -61 25 -61 57c0 38 37 72 79 72h339c39 0 64 -26 64 -60c0 -21 -10 -37 -20 -50l-351 -466h231c34 0 62 -25 62 -57zM331 903l51 -52l65 52
c10 8 30 12 38 12c24 0 43 -19 43 -41c0 -20 -15 -36 -34 -50l-87 -61c-9 -7 -23 -13 -39 -13s-29 6 -36 13l-70 61c-12 12 -21 26 -21 41c0 27 28 50 56 50c8 0 26 -4 34 -12z" />
    <glyph glyph-name="zcaron" unicode="&#x17e;" horiz-adv-x="424" 
d="M479 450c0 -15 -6 -32 -20 -48l-256 -284h165c35 0 59 -23 59 -53c0 -36 -34 -65 -75 -65h-277c-35 0 -62 25 -62 57c0 19 6 31 18 44l257 286h-153c-34 0 -58 23 -58 53c0 37 34 65 75 65h265c35 0 62 -20 62 -55zM253 703l51 -52l65 52c10 8 30 12 38 12
c24 0 43 -19 43 -41c0 -20 -15 -36 -34 -50l-87 -61c-9 -7 -23 -13 -39 -13s-29 6 -36 13l-70 61c-12 12 -21 26 -21 41c0 27 28 50 56 50c8 0 26 -4 34 -12z" />
    <glyph glyph-name="florin" unicode="&#x192;" horiz-adv-x="532" 
d="M617 638c0 -74 -52 -68 -84 -64c-8 1 -19 2 -23 2c-20 0 -39 -15 -46 -35l-29 -86h49c31 0 57 -15 57 -49c0 -48 -36 -66 -73 -66h-71c-40 -117 -82 -238 -120 -355c-36 -103 -86 -173 -199 -173c-59 0 -104 2 -104 49c0 44 33 70 78 70h11c6 0 12 -1 18 -1
c29 0 44 21 57 58c41 120 77 229 118 352h-47c-31 0 -57 15 -57 49c0 48 35 66 73 66h70c12 34 25 72 36 105c27 81 101 133 205 133c39 0 81 -6 81 -55z" />
    <glyph glyph-name="uni0218" unicode="&#x218;" horiz-adv-x="526" 
d="M323 -96c0 -56 -78 -142 -117 -142c-8 0 -16 4 -16 15c0 22 30 34 46 64c-36 2 -62 8 -62 44c0 34 14 64 82 64c51 0 67 -20 67 -45zM380 217c0 35 -18 48 -33 55c-20 9 -43 19 -69 27c-85 28 -177 59 -177 179c0 145 106 236 264 236c56 0 189 -14 189 -84
c0 -35 -32 -69 -80 -69c-18 0 -31 5 -47 11c-18 6 -39 15 -74 15c-54 0 -107 -20 -107 -87c0 -36 20 -49 34 -56c24 -13 47 -20 68 -27c86 -28 178 -61 178 -179c0 -155 -125 -247 -282 -247c-71 0 -201 25 -201 90c0 34 36 69 75 69c15 0 31 -5 49 -12c23 -8 53 -20 96 -20
c77 0 117 37 117 99z" />
    <glyph glyph-name="uni0219" unicode="&#x219;" horiz-adv-x="446" 
d="M92 338c0 101 74 175 216 175c62 0 151 -15 151 -77c0 -50 -44 -59 -67 -59c-35 0 -50 21 -99 21c-41 0 -63 -15 -63 -40c0 -12 7 -21 25 -29c63 -29 180 -44 180 -158c0 -107 -80 -178 -219 -178c-62 0 -169 15 -169 73c0 30 31 64 73 64c33 0 61 -22 110 -22
c39 0 67 14 67 45c0 14 -8 22 -17 27c-56 34 -188 39 -188 158zM283 -96c0 -56 -78 -142 -117 -142c-8 0 -16 4 -16 15c0 22 30 34 46 64c-36 2 -62 8 -62 44c0 34 14 64 82 64c51 0 67 -20 67 -45z" />
    <glyph glyph-name="uni021A" unicode="&#x21a;" horiz-adv-x="523" 
d="M199 55l74 523h-106c-37 0 -62 26 -62 56c0 32 38 71 80 71h352c33 0 62 -25 62 -58c0 -37 -40 -69 -80 -69h-106l-74 -523c-5 -34 -41 -64 -79 -64c-39 0 -66 30 -61 64zM321 -96c0 -56 -78 -142 -117 -142c-8 0 -16 4 -16 15c0 22 30 34 46 64c-36 2 -62 8 -62 44
c0 34 14 64 82 64c51 0 67 -20 67 -45z" />
    <glyph glyph-name="uni021B" unicode="&#x21b;" horiz-adv-x="361" 
d="M93 208l55 388c5 34 33 61 77 61s66 -28 61 -61l-16 -111h74c34 0 58 -23 58 -53c0 -38 -35 -66 -75 -66h-74l-21 -151c-10 -74 -8 -100 40 -100c9 0 15 1 17 1c56 0 75 -14 75 -44c0 -67 -51 -76 -106 -76c-155 0 -184 76 -165 212zM284 -96c0 -56 -78 -142 -117 -142
c-8 0 -16 4 -16 15c0 22 30 34 46 64c-36 2 -62 8 -62 44c0 34 14 64 82 64c51 0 67 -20 67 -45z" />
    <glyph glyph-name="dotlessj" unicode="&#x237;" horiz-adv-x="285" 
d="M276 463l-63 -449c-16 -112 -87 -186 -196 -200c-8 -1 -15 -1 -23 -1c-31 0 -52 17 -55 45v-1c-7 46 34 69 62 74c38 8 66 29 73 79l64 453c4 34 39 63 78 63s64 -29 60 -63z" />
    <glyph glyph-name="circumflex" unicode="&#x2c6;" horiz-adv-x="436" 
d="M327 716c16 0 27 -6 35 -13l71 -61c13 -13 22 -28 21 -45c-4 -25 -30 -46 -57 -46c-33 0 -60 38 -84 64c-32 -26 -69 -64 -102 -64c-27 0 -47 21 -43 46c3 17 16 32 33 45l87 61c10 7 23 13 39 13z" />
    <glyph glyph-name="caron" unicode="&#x2c7;" horiz-adv-x="431" 
d="M268 703l51 -52l65 52c10 8 30 12 38 12c24 0 43 -19 43 -41c0 -20 -15 -36 -34 -50l-87 -61c-9 -7 -23 -13 -39 -13s-29 6 -36 13l-70 61c-12 12 -21 26 -21 41c0 27 28 50 56 50c8 0 26 -4 34 -12z" />
    <glyph glyph-name="breve" unicode="&#x2d8;" horiz-adv-x="407" 
d="M294 645c18 0 42 10 63 31c14 14 32 23 50 23c27 0 52 -18 36 -56c-24 -58 -108 -90 -162 -90s-127 32 -136 90c-6 38 25 56 52 56c17 0 32 -8 42 -22c15 -21 37 -32 55 -32z" />
    <glyph glyph-name="dotaccent" unicode="&#x2d9;" horiz-adv-x="290" 
d="M297 622c0 -38 -35 -70 -75 -70c-33 0 -56 25 -56 56c0 36 34 68 73 68c34 0 58 -24 58 -54z" />
    <glyph glyph-name="ring" unicode="&#x2da;" horiz-adv-x="611" 
d="M482 657c0 -67 -59 -122 -125 -122c-57 0 -96 42 -96 96c0 66 59 122 126 122c56 0 95 -43 95 -96zM417 649c0 22 -17 40 -39 40c-26 0 -50 -24 -50 -50c0 -21 16 -39 38 -39c26 0 51 23 51 49z" />
    <glyph glyph-name="ogonek" unicode="&#x2db;" horiz-adv-x="362" 
d="M268 -161c0 -50 -63 -58 -103 -58c-65 0 -108 28 -108 87c0 43 27 88 65 132h101l-24 -31c-17 -24 -36 -54 -36 -75c0 -12 7 -21 23 -21c11 0 23 3 34 4h9c22 0 39 -18 39 -38z" />
    <glyph glyph-name="tilde" unicode="&#x2dc;" horiz-adv-x="415" 
d="M442 648c0 -44 -60 -78 -101 -78c-53 0 -76 36 -105 40s-37 -36 -70 -36c-21 0 -41 16 -40 41c6 46 54 80 99 80c56 0 75 -40 106 -40s35 36 68 36c23 0 43 -18 43 -43z" />
    <glyph glyph-name="hungarumlaut" unicode="&#x2dd;" horiz-adv-x="450" 
d="M158 619l76 89c14 17 29 35 56 35c33 0 64 -36 37 -68l-78 -96c-15 -18 -28 -29 -54 -29c-33 0 -64 37 -37 69zM328 619l76 89c14 17 29 36 56 35c33 0 64 -36 37 -68l-78 -96c-15 -18 -28 -29 -54 -29c-33 0 -64 37 -37 69z" />
    <glyph glyph-name="uni0400" unicode="&#x400;" horiz-adv-x="514" 
d="M500 71c0 -38 -38 -71 -79 -71h-265c-49 0 -91 17 -83 71l79 563c5 35 43 71 87 71h271c35 0 61 -27 61 -58c0 -40 -38 -69 -79 -69h-208l-23 -161h189c33 0 61 -24 61 -57c0 -38 -37 -70 -79 -70h-189l-23 -163h218c35 0 62 -25 62 -56zM388 910l71 -79
c4 -5 5 -10 5 -16c0 -35 -28 -58 -59 -58c-22 0 -29 8 -42 21l-70 82c-5 7 -6 16 -6 23c0 31 32 54 56 54c22 0 28 -7 39 -19z" />
    <glyph glyph-name="uni0401" unicode="&#x401;" horiz-adv-x="514" 
d="M553 837c0 -38 -35 -70 -74 -70c-33 0 -58 26 -58 56c0 37 36 68 75 68c33 0 57 -24 57 -54zM374 837c0 -38 -35 -70 -75 -70c-33 0 -56 25 -56 56c0 36 34 68 73 68c34 0 58 -24 58 -54zM500 71c0 -38 -38 -71 -79 -71h-265c-49 0 -91 17 -83 71l79 563
c5 35 43 71 87 71h271c35 0 61 -27 61 -58c0 -40 -38 -69 -79 -69h-208l-23 -161h189c33 0 61 -24 61 -57c0 -38 -37 -70 -79 -70h-189l-23 -163h218c35 0 62 -25 62 -56z" />
    <glyph glyph-name="uni0402" unicode="&#x402;" horiz-adv-x="684" 
d="M158 55l74 523h-66c-37 0 -62 28 -62 56c0 33 38 71 80 71h352c33 0 62 -25 62 -58c0 -37 -40 -69 -80 -69h-146l-19 -132c36 13 72 19 103 19c135 0 210 -66 210 -195c0 -162 -89 -279 -222 -279c-60 0 -102 31 -102 68s36 66 74 66c21 0 21 -7 38 -7c47 0 71 58 71 135
c0 62 -31 85 -93 85c-28 0 -62 -8 -98 -26l-36 -257c-5 -34 -41 -64 -79 -64c-39 0 -66 30 -61 64z" />
    <glyph glyph-name="uni0403" unicode="&#x403;" horiz-adv-x="503" 
d="M322 831l92 79l9 8c14 12 22 19 44 19c21 0 42 -19 42 -44c0 -8 -2 -20 -13 -33l-93 -82c-17 -13 -26 -21 -48 -21c-26 0 -45 17 -45 43c0 16 5 23 12 31zM284 578l-73 -522c-5 -34 -41 -64 -79 -64c-39 0 -66 30 -61 64l81 580c5 34 42 69 85 69h272c36 0 61 -26 61 -57
c0 -39 -37 -70 -79 -70h-207z" />
    <glyph glyph-name="uni0404" unicode="&#x404;" horiz-adv-x="522" 
d="M238 452l-5 -35h156c33 0 60 -24 60 -56c0 -39 -35 -72 -78 -72h-156l-5 -35c-12 -86 11 -140 101 -140c32 0 58 10 85 24l12 6c14 7 22 15 45 15c35 0 58 -25 58 -54c0 -61 -112 -113 -223 -113c-175 0 -240 104 -218 262l28 198c22 158 117 262 292 262
c102 0 192 -46 192 -101c0 -34 -34 -66 -75 -66c-23 0 -29 7 -41 15l-9 6c-23 15 -47 24 -79 24c-90 0 -128 -54 -140 -140z" />
    <glyph glyph-name="uni0405" unicode="&#x405;" horiz-adv-x="526" 
d="M380 217c0 35 -18 48 -33 55c-20 9 -43 19 -69 27c-85 28 -177 59 -177 179c0 145 106 236 264 236c56 0 189 -14 189 -84c0 -35 -32 -69 -80 -69c-18 0 -31 5 -47 11c-18 6 -39 15 -74 15c-54 0 -107 -20 -107 -87c0 -36 20 -49 34 -56c24 -13 47 -20 68 -27
c86 -28 178 -61 178 -179c0 -155 -125 -247 -282 -247c-71 0 -201 25 -201 90c0 34 36 69 75 69c15 0 31 -5 49 -12c23 -8 53 -20 96 -20c77 0 117 37 117 99z" />
    <glyph glyph-name="uni0406" unicode="&#x406;" horiz-adv-x="267" 
d="M71 55l83 595c5 34 40 64 79 64c38 0 66 -30 61 -64l-83 -595c-5 -34 -41 -64 -79 -64c-39 0 -66 30 -61 64z" />
    <glyph glyph-name="uni0407" unicode="&#x407;" horiz-adv-x="267" 
d="M71 55l83 595c5 34 40 64 79 64c38 0 66 -30 61 -64l-83 -595c-5 -34 -41 -64 -79 -64c-39 0 -66 30 -61 64zM405 837c0 -38 -35 -70 -74 -70c-33 0 -58 26 -58 56c0 37 36 68 75 68c33 0 57 -24 57 -54zM226 837c0 -38 -35 -70 -75 -70c-33 0 -56 25 -56 56
c0 36 34 68 73 68c34 0 58 -24 58 -54z" />
    <glyph glyph-name="uni0408" unicode="&#x408;" horiz-adv-x="425" 
d="M454 650l-59 -415c-21 -152 -88 -244 -266 -244c-36 0 -106 4 -106 61c0 45 44 71 75 71c23 0 35 -6 60 -6c67 0 87 45 97 118l59 415c5 35 39 64 79 64c37 0 66 -30 61 -64z" />
    <glyph glyph-name="uni0409" unicode="&#x409;" horiz-adv-x="932" 
d="M693 339h-64l-30 -212h64c115 0 132 75 132 126c0 58 -36 86 -102 86zM349 705h253c42 0 73 -33 68 -72l-24 -167h64c140 0 226 -71 226 -197c0 -132 -77 -269 -291 -269h-127c-42 0 -74 33 -68 72l71 507h-135l-84 -397c-26 -110 -82 -189 -182 -189c-50 0 -98 1 -98 53
c0 54 40 77 77 77c8 0 13 -3 22 -3h6c16 0 26 20 35 60l99 453c5 39 46 72 88 72z" />
    <glyph glyph-name="uni040A" unicode="&#x40a;" horiz-adv-x="888" 
d="M627 648l-26 -182h66c139 0 225 -71 225 -197c0 -132 -77 -269 -291 -269h-127c-42 0 -74 33 -68 72l30 217h-192l-33 -233c-5 -35 -41 -65 -79 -65c-39 0 -66 30 -61 65l83 594c5 34 40 64 79 64c38 0 66 -30 61 -64l-33 -233h194l32 231c5 36 42 66 79 66
c38 0 66 -31 61 -66zM649 339h-65l-30 -212h65c115 0 132 75 132 126c0 58 -36 86 -102 86z" />
    <glyph glyph-name="uni040B" unicode="&#x40b;" horiz-adv-x="684" 
d="M598 647c0 -37 -39 -69 -80 -69h-146l-19 -136c37 16 68 23 109 23c143 0 223 -83 202 -231l-25 -177c-5 -35 -42 -66 -80 -66c-37 0 -65 30 -60 66l24 176c10 74 -20 105 -88 105c-34 0 -65 -8 -101 -26l-36 -257c-5 -34 -41 -64 -79 -64c-39 0 -66 30 -61 64l74 523
h-66c-37 0 -62 27 -62 55c0 33 38 72 80 72h352c33 0 62 -25 62 -58z" />
    <glyph glyph-name="uni040C" unicode="&#x40c;" horiz-adv-x="556" 
d="M294 650l-33 -233h12l238 268c18 20 39 29 62 29c40 0 60 -33 60 -61c0 -16 -6 -26 -17 -40l-233 -260l160 -261c5 -10 7 -20 7 -27c0 -31 -32 -74 -78 -74c-23 0 -42 9 -54 29l-163 269h-11l-33 -233c-5 -35 -41 -65 -79 -65c-39 0 -66 30 -61 65l83 594
c5 34 40 64 79 64c38 0 66 -30 61 -64zM365 831l92 79l9 8c14 12 22 19 44 19c21 0 42 -19 42 -44c0 -8 -2 -20 -13 -33l-93 -82c-17 -13 -26 -21 -48 -21c-26 0 -45 17 -45 43c0 16 5 23 12 31z" />
    <glyph glyph-name="uni040D" unicode="&#x40d;" horiz-adv-x="629" 
d="M136 -9c26 0 55 14 71 35l289 404l-52 -374c-5 -35 24 -65 62 -65c39 0 73 30 78 65l83 590c5 39 -22 68 -64 68c-27 0 -56 -15 -73 -37c-111 -154 -174 -245 -289 -406l53 378c5 35 -24 65 -62 65c-39 0 -73 -30 -78 -65l-83 -590c-5 -37 21 -68 65 -68zM396 910l71 -79
c4 -5 5 -10 5 -16c0 -35 -28 -58 -59 -58c-22 0 -29 8 -42 21l-70 82c-5 7 -6 16 -6 23c0 31 32 54 56 54c22 0 28 -7 39 -19z" />
    <glyph glyph-name="uni040E" unicode="&#x40e;" horiz-adv-x="543" 
d="M375 455l115 217c14 27 42 42 69 42c33 0 61 -23 61 -56c0 -12 -6 -25 -9 -30l-217 -399c-69 -126 -135 -233 -277 -236c-37 0 -62 23 -62 55c0 34 30 67 75 69c44 2 69 19 98 65l-121 448c-1 4 -1 10 -1 14c0 41 36 70 78 70c26 0 50 -15 57 -42l57 -216
c12 -44 13 -92 20 -138c19 46 34 92 57 137zM390 845c18 0 42 10 63 31c14 14 32 23 50 23c27 0 52 -18 36 -56c-24 -58 -108 -90 -162 -90s-127 32 -136 90c-6 38 25 56 52 56c17 0 32 -8 42 -22c15 -21 37 -32 55 -32z" />
    <glyph glyph-name="uni040F" unicode="&#x40f;" horiz-adv-x="619" 
d="M224 -103l14 103h-105c-39 0 -66 30 -61 65l82 585c5 35 40 65 79 65c38 0 66 -30 61 -65l-74 -523h213l74 523c5 35 42 65 79 65c38 0 66 -30 61 -65l-82 -585c-5 -35 -42 -65 -79 -65h-108l-14 -103c-5 -34 -41 -64 -79 -64c-39 0 -66 30 -61 64z" />
    <glyph glyph-name="uni0410" unicode="&#x410;" horiz-adv-x="589" 
d="M206 139l-48 -101c-14 -29 -48 -47 -72 -47c-36 0 -64 23 -64 57c0 9 4 23 7 29l275 569c19 39 42 68 90 68s65 -28 73 -68l115 -569v-11c0 -45 -37 -75 -81 -75c-26 0 -56 19 -62 47l-21 101h-212zM398 253l-27 171c-5 29 -4 67 -4 98c-8 -31 -19 -69 -32 -98l-77 -171
h140z" />
    <glyph glyph-name="uni0411" unicode="&#x411;" horiz-adv-x="571" 
d="M512 578h-227l-19 -130h85c141 0 227 -68 227 -190c0 -127 -77 -258 -290 -258h-147c-42 0 -73 33 -68 72l80 564c5 34 41 69 84 69h292c36 0 61 -26 61 -57c0 -39 -36 -70 -78 -70zM333 321h-85l-27 -194h85c113 0 130 67 130 114c0 54 -35 80 -103 80z" />
    <glyph glyph-name="uni0412" unicode="&#x412;" horiz-adv-x="582" 
d="M264 429h115c38 0 89 28 89 90c0 32 -16 60 -61 60h-122zM364 301h-118l-25 -174h112c74 0 112 39 112 98c0 48 -33 76 -81 76zM306 0h-165c-44 0 -73 33 -68 72l79 561c6 41 46 72 88 72h169c137 0 200 -83 200 -173c0 -85 -56 -133 -127 -165c53 -23 104 -64 104 -138
c0 -123 -112 -229 -280 -229z" />
    <glyph glyph-name="uni0413" unicode="&#x413;" horiz-adv-x="503" 
d="M284 578l-73 -522c-5 -34 -41 -64 -79 -64c-39 0 -66 30 -61 64l81 580c5 34 42 69 85 69h272c36 0 61 -26 61 -57c0 -39 -37 -70 -79 -70h-207z" />
    <glyph glyph-name="uni0414" unicode="&#x414;" horiz-adv-x="668" 
d="M330 343c-16 -86 -41 -160 -76 -216h208l64 452h-154zM103 127c39 39 67 115 87 218l56 288c7 39 46 72 88 72h272c42 0 74 -33 68 -72l-71 -506c41 0 61 -35 55 -74l-18 -128c-5 -36 -40 -64 -80 -64c-39 0 -65 28 -60 64l11 75h-356l-11 -75c-5 -36 -39 -64 -78 -64
s-65 28 -60 64l18 128c6 39 37 74 79 74z" />
    <glyph glyph-name="uni0415" unicode="&#x415;" horiz-adv-x="514" 
d="M500 71c0 -38 -38 -71 -79 -71h-265c-49 0 -91 17 -83 71l79 563c5 35 43 71 87 71h271c35 0 61 -27 61 -58c0 -40 -38 -69 -79 -69h-208l-23 -161h189c33 0 61 -24 61 -57c0 -38 -37 -70 -79 -70h-189l-23 -163h218c35 0 62 -25 62 -56z" />
    <glyph glyph-name="uni0416" unicode="&#x416;" horiz-adv-x="786" 
d="M555 650l-33 -233l220 267c18 21 39 30 62 30c39 0 59 -33 59 -61c0 -16 -6 -26 -14 -38l-212 -262l138 -264c4 -9 5 -17 5 -24c0 -31 -32 -74 -78 -74c-23 0 -42 9 -54 29l-144 268l-33 -232c-5 -35 -41 -65 -79 -65c-39 0 -66 30 -61 65l33 232l-220 -268
c-18 -20 -39 -29 -62 -29c-39 0 -59 33 -59 61c0 16 5 25 14 37l212 263l-138 263c-4 8 -5 17 -5 25c0 31 31 74 78 74c23 0 40 -9 54 -30l144 -267l33 233c5 34 40 64 79 64c38 0 66 -30 61 -64z" />
    <glyph glyph-name="uni0417" unicode="&#x417;" horiz-adv-x="525" 
d="M524 223c0 -118 -114 -232 -276 -232c-85 0 -215 33 -215 100c0 36 37 66 74 66c43 0 71 -45 148 -45c82 0 130 48 130 104c0 59 -63 76 -134 80c-34 2 -69 5 -69 52c0 69 45 71 79 72c72 2 152 34 152 104c0 33 -21 69 -85 69c-27 0 -56 -6 -79 -16
c-24 -10 -49 -29 -77 -29c-30 0 -56 22 -56 52c0 70 141 114 237 114c135 0 197 -92 197 -178c0 -78 -47 -129 -135 -171c68 -29 109 -73 109 -142z" />
    <glyph glyph-name="uni0418" unicode="&#x418;" horiz-adv-x="640" 
d="M136 -9c-44 0 -70 31 -65 68l83 590c5 35 39 65 78 65c38 0 67 -30 62 -65l-53 -378c115 161 178 252 289 406c17 22 46 37 73 37c42 0 69 -29 64 -68l-83 -590c-5 -35 -39 -65 -78 -65c-38 0 -67 30 -62 65l52 374l-289 -404c-16 -21 -45 -35 -71 -35z" />
    <glyph glyph-name="uni0419" unicode="&#x419;" horiz-adv-x="629" 
d="M433 845c18 0 42 10 63 31c14 14 32 23 50 23c27 0 52 -18 36 -56c-24 -58 -108 -90 -162 -90s-127 32 -136 90c-6 38 25 56 52 56c17 0 32 -8 42 -22c15 -21 37 -32 55 -32zM136 -9c26 0 55 14 71 35l289 404l-52 -374c-5 -35 24 -65 62 -65c39 0 73 30 78 65l83 590
c5 39 -22 68 -64 68c-27 0 -56 -15 -73 -37c-111 -154 -174 -245 -289 -406l53 378c5 35 -24 65 -62 65c-39 0 -73 -30 -78 -65l-83 -590c-5 -37 21 -68 65 -68z" />
    <glyph glyph-name="uni041A" unicode="&#x41a;" horiz-adv-x="556" 
d="M294 650l-33 -233h12l238 268c18 20 39 29 62 29c40 0 60 -33 60 -61c0 -16 -6 -26 -17 -40l-233 -260l160 -261c5 -10 7 -20 7 -27c0 -31 -32 -74 -78 -74c-23 0 -42 9 -54 29l-163 269h-11l-33 -233c-5 -35 -41 -65 -79 -65c-39 0 -66 30 -61 65l83 594
c5 34 40 64 79 64c38 0 66 -30 61 -64z" />
    <glyph glyph-name="uni041B" unicode="&#x41b;" horiz-adv-x="665" 
d="M162 180l99 453c8 39 46 72 88 72h273c42 0 73 -33 68 -72l-81 -578c-7 -35 -42 -62 -79 -62c-40 0 -66 27 -61 63l74 523h-157l-84 -397c-26 -110 -82 -189 -182 -189c-50 0 -98 1 -98 53c0 54 40 77 77 77c8 0 13 -3 22 -3h6c16 0 26 20 35 60z" />
    <glyph glyph-name="uni041C" unicode="&#x41c;" horiz-adv-x="759" 
d="M789 648l-83 -594c-5 -34 -41 -63 -78 -63c-38 0 -67 29 -62 63l48 344l-145 -224c-17 -26 -44 -38 -72 -38c-27 0 -50 12 -59 38l-83 224l-48 -344c-5 -34 -42 -63 -81 -63c-38 0 -64 29 -59 63l83 594c5 38 41 66 82 66c32 0 55 -13 64 -39l129 -353l227 354
c19 29 47 38 75 38c41 0 67 -30 62 -66z" />
    <glyph glyph-name="uni041D" unicode="&#x41d;" horiz-adv-x="620" 
d="M564 56c-5 -35 -41 -65 -79 -65c-37 0 -66 30 -61 65l33 233h-213l-33 -233c-5 -35 -41 -65 -79 -65c-39 0 -66 30 -61 65l83 594c5 34 40 64 79 64c38 0 66 -30 61 -64l-32 -233h213l32 233c5 34 42 64 79 64s66 -30 61 -64z" />
    <glyph glyph-name="uni041E" unicode="&#x41e;" horiz-adv-x="610" 
d="M304 -9c-173 0 -244 117 -223 263l27 198c20 142 110 262 297 262s243 -120 223 -262l-27 -198c-21 -146 -124 -263 -297 -263zM387 587c-88 0 -127 -54 -139 -135l-27 -198c-12 -80 18 -136 100 -136s128 56 140 136l27 198c12 81 -13 135 -101 135z" />
    <glyph glyph-name="uni041F" unicode="&#x41f;" horiz-adv-x="619" 
d="M564 56c-5 -35 -41 -65 -79 -65c-37 0 -66 30 -61 65l73 523h-213l-73 -523c-5 -35 -41 -65 -79 -65c-39 0 -66 30 -61 65l82 585c5 35 40 65 79 65h353c37 0 66 -30 61 -65z" />
    <glyph glyph-name="uni0420" unicode="&#x420;" horiz-adv-x="570" 
d="M322 240h-85l-26 -183c-5 -35 -41 -66 -79 -66c-37 0 -66 30 -61 66l81 576c5 39 46 72 88 72h147c166 0 225 -93 225 -199c0 -168 -118 -266 -290 -266zM284 578l-29 -211h85c86 0 131 41 131 124c0 44 -21 87 -102 87h-85z" />
    <glyph glyph-name="uni0421" unicode="&#x421;" horiz-adv-x="522" 
d="M238 452l-28 -198c-12 -86 11 -140 101 -140c32 0 58 10 85 24l12 6c14 7 22 15 45 15c35 0 58 -25 58 -54c0 -61 -112 -113 -223 -113c-175 0 -240 104 -218 262l28 198c22 158 117 262 292 262c102 0 192 -46 192 -101c0 -34 -34 -66 -75 -66c-23 0 -29 7 -41 15l-9 6
c-23 15 -47 24 -79 24c-90 0 -128 -54 -140 -140z" />
    <glyph glyph-name="uni0422" unicode="&#x422;" horiz-adv-x="523" 
d="M199 55l74 523h-106c-37 0 -62 26 -62 56c0 32 38 71 80 71h352c33 0 62 -25 62 -58c0 -37 -40 -69 -80 -69h-106l-74 -523c-5 -34 -41 -64 -79 -64c-39 0 -66 30 -61 64z" />
    <glyph glyph-name="uni0423" unicode="&#x423;" horiz-adv-x="543" 
d="M375 455l115 217c14 27 42 42 69 42c33 0 61 -23 61 -56c0 -12 -6 -25 -9 -30l-217 -399c-69 -126 -135 -233 -277 -236c-37 0 -62 23 -62 55c0 34 30 67 75 69c44 2 69 19 98 65l-121 448c-1 4 -1 10 -1 14c0 41 36 70 78 70c26 0 50 -15 57 -42l57 -216
c12 -44 13 -92 20 -138c19 46 34 92 57 137z" />
    <glyph glyph-name="uni0424" unicode="&#x424;" horiz-adv-x="790" 
d="M333 55l13 92h-36c-139 0 -225 71 -225 198c0 131 78 269 291 269h35l5 36c5 34 44 64 79 64c42 0 66 -30 61 -64l-5 -36h35c166 0 225 -94 225 -200c0 -169 -118 -267 -291 -267h-34l-13 -92c-5 -34 -41 -64 -79 -64c-39 0 -66 30 -61 64zM568 487h-35l-30 -212h35
c86 0 132 41 132 124c0 44 -22 88 -102 88zM328 275h35l30 212h-35c-114 0 -132 -75 -132 -126c0 -58 36 -86 102 -86z" />
    <glyph glyph-name="uni0425" unicode="&#x425;" horiz-adv-x="554" 
d="M312 251l-164 -220v1c-13 -18 -35 -41 -70 -41c-33 0 -59 29 -59 59c0 14 8 31 15 40l212 276l-124 251c-2 7 -4 17 -4 26c0 37 38 71 77 71c31 0 52 -22 63 -46l86 -186l140 186c15 19 41 46 76 46c32 0 58 -26 58 -57c0 -14 -7 -27 -15 -40l-193 -251l134 -276
c3 -6 6 -19 6 -29c0 -35 -41 -70 -77 -70c-35 0 -50 21 -59 40z" />
    <glyph glyph-name="uni0426" unicode="&#x426;" horiz-adv-x="644" 
d="M647 649l-73 -522h10c37 0 66 -30 61 -64l-22 -155c-5 -35 -42 -65 -79 -65s-66 30 -61 65l13 92h-363c-39 0 -66 30 -61 65l82 584c5 35 40 65 79 65c38 0 66 -30 61 -65l-73 -522h213l73 522c5 35 42 65 79 65c38 0 66 -30 61 -65z" />
    <glyph glyph-name="uni0427" unicode="&#x427;" horiz-adv-x="587" 
d="M391 57l29 206c-38 -18 -72 -23 -108 -23c-147 0 -224 83 -203 231l25 177c5 35 40 66 79 66c37 0 66 -30 61 -66l-25 -176c-10 -74 20 -105 87 -105c34 0 66 8 102 25l36 256c5 35 40 66 79 66c37 0 66 -30 61 -66l-83 -591c-5 -36 -43 -66 -80 -66c-39 0 -65 31 -60 66
z" />
    <glyph glyph-name="uni0428" unicode="&#x428;" horiz-adv-x="800" 
d="M827 649l-82 -584c-5 -35 -42 -65 -79 -65h-533c-39 0 -66 30 -61 65l82 584c5 35 40 65 79 65c38 0 66 -30 61 -65l-73 -522h125l74 523c5 34 40 64 79 64c38 0 66 -30 61 -64l-74 -523h128l73 522c5 35 42 65 79 65c38 0 66 -30 61 -65z" />
    <glyph glyph-name="uni0429" unicode="&#x429;" horiz-adv-x="824" 
d="M133 0c-39 0 -66 30 -61 65l82 584c5 35 40 65 79 65c38 0 66 -30 61 -65l-73 -522h125l74 523c5 34 40 64 79 64c38 0 66 -30 61 -64l-74 -523h128l73 522c5 35 42 65 79 65c38 0 66 -30 61 -65l-73 -522h10c37 0 66 -30 61 -64l-21 -145c-5 -35 -41 -65 -79 -65
c-37 0 -66 30 -61 65l12 82h-543z" />
    <glyph glyph-name="uni042A" unicode="&#x42a;" horiz-adv-x="704" 
d="M192 72l71 506h-97c-36 0 -61 24 -61 56c0 37 37 71 79 71h162c43 0 70 -35 65 -69l-24 -170h85c140 0 226 -71 226 -197c0 -132 -78 -269 -291 -269h-147c-42 0 -74 33 -68 72zM454 339h-85l-30 -212h85c115 0 132 75 132 126c0 58 -35 86 -102 86z" />
    <glyph glyph-name="uni042B" unicode="&#x42b;" horiz-adv-x="785" 
d="M589 55l84 595c4 34 40 64 79 64c38 0 65 -30 61 -64l-84 -595c-5 -34 -41 -64 -79 -64c-39 0 -66 30 -61 64zM294 648l-25 -182h75c140 0 225 -71 225 -197c0 -132 -77 -269 -291 -269h-137c-42 0 -73 33 -68 72l81 576c5 36 43 66 80 66c38 0 65 -31 60 -66zM326 339
h-75l-30 -212h75c115 0 132 75 132 126c0 58 -35 86 -102 86z" />
    <glyph glyph-name="uni042C" unicode="&#x42c;" horiz-adv-x="585" 
d="M294 648l-25 -182h85c140 0 225 -71 225 -197c0 -132 -77 -269 -291 -269h-147c-42 0 -73 33 -68 72l81 576c5 36 43 66 80 66c38 0 65 -31 60 -66zM336 339h-85l-30 -212h85c115 0 132 75 132 126c0 58 -35 86 -102 86z" />
    <glyph glyph-name="uni042D" unicode="&#x42d;" horiz-adv-x="538" 
d="M415 417l5 35c12 86 -10 140 -100 140c-32 0 -60 -8 -87 -24l-10 -6c-14 -8 -23 -15 -46 -15c-34 0 -58 25 -58 54c0 61 113 113 223 113c175 0 240 -104 218 -262l-28 -198c-22 -158 -117 -262 -292 -262c-101 0 -192 46 -192 101c0 34 34 66 75 66c23 0 29 -7 41 -15
l9 -6c23 -15 48 -24 80 -24c90 0 127 54 139 140l5 35h-156c-35 0 -59 25 -59 57c0 41 38 71 77 71h156z" />
    <glyph glyph-name="uni042E" unicode="&#x42e;" horiz-adv-x="838" 
d="M542 -9c-166 0 -234 113 -215 254l6 45h-89l-33 -234c-5 -35 -41 -65 -79 -65c-39 0 -66 30 -61 65l83 594c5 34 40 64 79 64c38 0 66 -30 61 -64l-33 -233h91l6 44c19 138 105 253 285 253s235 -115 215 -253l-31 -216c-20 -141 -119 -254 -285 -254zM626 587
c-81 0 -117 -51 -128 -126l-31 -216c-11 -75 18 -127 93 -127s116 52 127 127l31 216c11 75 -11 126 -92 126z" />
    <glyph glyph-name="uni042F" unicode="&#x42f;" horiz-adv-x="601" 
d="M127 464c0 112 67 241 280 241h154c41 0 71 -33 66 -72l-81 -576c-5 -36 -39 -66 -78 -66c-38 0 -67 31 -62 66l32 229h-49l-204 -263c-16 -20 -38 -31 -63 -31c-26 0 -65 25 -65 57c0 12 7 32 18 46l165 206c-72 25 -113 81 -113 163zM268 481c0 -44 30 -69 86 -69h102
l23 166h-96c-99 0 -115 -57 -115 -97z" />
    <glyph glyph-name="uni0430" unicode="&#x430;" horiz-adv-x="533" 
d="M344 149l25 180c7 47 -13 66 -64 66c-49 0 -71 -31 -80 -93l-16 -113c-7 -52 11 -80 54 -80c21 0 47 7 80 21c0 7 0 13 1 19zM227 -7c-116 0 -172 79 -156 196l16 113c17 119 99 211 242 211c145 0 194 -72 175 -207l-26 -186c-4 -30 11 -27 27 -34c12 -5 18 -14 18 -30
c0 -36 -20 -60 -80 -60c-37 0 -60 10 -79 42c-41 -30 -81 -45 -137 -45z" />
    <glyph glyph-name="uni0431" unicode="&#x431;" horiz-adv-x="505" 
d="M60 179l38 274c18 129 100 228 259 244c6 1 55 4 98 22c4 2 14 6 28 6c33 0 57 -23 57 -53c0 -83 -153 -86 -193 -90c-31 -3 -95 -17 -110 -122c29 19 62 28 97 28c129 0 192 -81 177 -186l-17 -123c-15 -105 -101 -186 -243 -186s-206 81 -191 186zM267 111
c52 0 83 26 89 68l17 124c6 41 -13 67 -65 67c-48 0 -83 -22 -92 -61l-18 -130c-6 -42 17 -68 69 -68z" />
    <glyph glyph-name="uni0432" unicode="&#x432;" horiz-adv-x="508" 
d="M264 -7c-146 0 -209 81 -194 186l21 149c15 105 101 186 243 186c121 0 180 -63 180 -134c0 -53 -25 -93 -108 -124c56 -23 87 -55 87 -102c0 -85 -86 -161 -229 -161zM276 104c45 0 81 18 81 61c0 21 -11 44 -63 44h-82l-4 -30c-6 -42 10 -75 68 -75zM229 329l-4 -27h83
c50 0 66 24 66 54c0 31 -23 45 -58 45c-54 0 -81 -31 -87 -72z" />
    <glyph glyph-name="uni0433" unicode="&#x433;" horiz-adv-x="446" 
d="M458 378c0 -159 -164 -159 -239 -198c-13 -7 -26 -16 -26 -37c0 -24 23 -35 56 -35c49 0 83 22 116 22c36 0 57 -27 57 -53c0 -67 -125 -84 -191 -84c-115 0 -175 53 -175 137c0 152 148 166 230 199c26 11 35 21 35 37c0 20 -18 32 -53 32c-49 0 -70 -21 -105 -21
c-20 0 -53 7 -53 44c0 75 106 92 175 92c116 0 173 -54 173 -135z" />
    <glyph glyph-name="uni0434" unicode="&#x434;" horiz-adv-x="575" 
d="M312 605c-30 3 -57 8 -46 59c8 36 26 53 91 53c218 0 223 -188 221 -298c-5 -334 -148 -428 -297 -428c-138 0 -207 81 -207 204c0 140 90 279 245 279c32 0 79 -6 123 -30c6 147 -67 155 -130 161zM423 278l5 42c-26 22 -78 41 -120 36c-63 -8 -94 -68 -94 -142
c0 -65 24 -103 88 -103c74 0 104 49 121 167z" />
    <glyph glyph-name="uni0435" unicode="&#x435;" horiz-adv-x="485" 
d="M287 191c-26 0 -48 2 -76 6l-5 -33c-5 -34 18 -56 72 -56c32 0 60 8 94 22c4 2 13 6 30 6c43 0 55 -27 55 -48c0 -76 -138 -95 -205 -95c-132 0 -197 76 -183 175l23 167c14 101 99 178 238 178c118 0 175 -59 175 -146c0 -108 -65 -176 -218 -176zM367 361
c0 32 -18 45 -53 45c-48 0 -77 -25 -83 -65l-6 -43c32 -3 62 -4 72 -4c43 0 70 16 70 67z" />
    <glyph glyph-name="uni0436" unicode="&#x436;" horiz-adv-x="648" 
d="M401 55c-5 -35 -39 -62 -78 -62s-65 27 -60 62l19 134l-140 -168c-17 -20 -37 -28 -61 -28c-36 0 -59 19 -59 51c0 11 6 29 16 41l138 166l-92 167c-7 12 -7 25 -5 35c6 34 38 56 75 56c25 0 43 -9 54 -29l89 -164h3l19 133c5 33 38 61 77 61s66 -28 61 -61l-19 -133h2
l136 162c18 21 39 31 62 31c36 0 59 -20 59 -52c0 -11 -6 -28 -16 -40l-139 -166l92 -166c5 -10 8 -26 6 -37c-6 -34 -38 -55 -75 -55c-25 0 -42 10 -53 29l-92 167z" />
    <glyph glyph-name="uni0437" unicode="&#x437;" horiz-adv-x="448" 
d="M457 386c0 -57 -26 -96 -100 -128c55 -21 79 -52 79 -98c0 -93 -77 -167 -223 -167c-60 0 -174 13 -174 76c0 28 26 65 62 65c15 0 34 -6 40 -9c25 -13 43 -22 84 -22c45 0 75 11 75 56c0 17 -10 40 -82 44c-32 2 -71 5 -71 45c0 56 48 56 82 59c79 8 90 41 90 60
c0 23 -17 36 -55 36c-55 0 -73 -26 -108 -26c-34 0 -56 26 -56 53c0 63 111 83 184 83c116 0 173 -54 173 -127z" />
    <glyph glyph-name="uni0438" unicode="&#x438;" horiz-adv-x="549" 
d="M393 37c-52 -33 -99 -44 -144 -44c-121 0 -175 79 -159 196l37 261c5 34 34 60 78 60s65 -26 60 -60l-37 -261c-7 -51 10 -80 54 -80c21 0 47 7 80 21c0 7 0 13 1 19l42 301c5 34 32 60 78 60s65 -26 60 -60l-45 -321c-2 -15 3 -22 14 -35c7 -8 10 -17 10 -27
c0 -44 -40 -68 -73 -68c-26 0 -44 16 -56 38z" />
    <glyph glyph-name="uni0439" unicode="&#x439;" horiz-adv-x="549" 
d="M393 37c-52 -33 -99 -44 -144 -44c-121 0 -175 79 -159 196l37 261c5 34 34 60 78 60s65 -26 60 -60l-37 -261c-7 -51 10 -80 54 -80c21 0 47 7 80 21c0 7 0 13 1 19l42 301c5 34 32 60 78 60s65 -26 60 -60l-45 -321c-2 -15 3 -22 14 -35c7 -8 10 -17 10 -27
c0 -44 -40 -68 -73 -68c-26 0 -44 16 -56 38zM365 645c18 0 42 10 63 31c14 14 32 23 50 23c27 0 52 -18 36 -56c-24 -58 -108 -90 -162 -90s-127 32 -136 90c-6 38 25 56 52 56c17 0 32 -8 42 -22c15 -21 37 -32 55 -32z" />
    <glyph glyph-name="uni043A" unicode="&#x43a;" horiz-adv-x="476" 
d="M241 186h-14l-18 -131c-5 -35 -39 -62 -78 -62s-65 27 -60 62l55 394c5 33 39 61 78 61s65 -28 60 -61l-19 -133h15l145 165c17 19 36 28 61 28c35 0 59 -20 59 -52c0 -11 -6 -29 -16 -40l-149 -166l102 -166c5 -8 7 -20 7 -30c0 -35 -34 -62 -76 -62c-25 0 -42 9 -53 28
z" />
    <glyph glyph-name="uni043B" unicode="&#x43b;" horiz-adv-x="578" 
d="M146 169l65 276c7 30 33 60 66 60h250c46 0 53 -40 50 -62l-54 -388c-5 -35 -39 -62 -78 -62s-65 27 -60 62l47 337h-102l-50 -221c-25 -106 -75 -175 -174 -175c-43 0 -84 10 -84 51c0 47 42 74 76 67c5 -1 9 -2 13 -2c16 0 26 19 35 57z" />
    <glyph glyph-name="uni043C" unicode="&#x43c;" horiz-adv-x="680" 
d="M350 74h-2c-28 0 -49 14 -58 36l-55 139l-27 -194c-5 -34 -41 -62 -78 -62c-38 0 -64 28 -59 62l55 391c5 37 40 64 81 64c32 0 50 -14 60 -37l106 -235l171 235c17 23 39 37 71 37c41 0 68 -27 63 -64l-55 -391c-5 -34 -41 -62 -77 -62c-39 0 -65 28 -60 62l27 194
l-93 -139c-17 -22 -42 -36 -70 -36z" />
    <glyph glyph-name="uni043D" unicode="&#x43d;" horiz-adv-x="554" 
d="M209 55c-5 -35 -39 -62 -78 -62s-65 27 -60 62l55 394c5 33 39 61 78 61s65 -28 60 -61l-19 -133h152l19 133c5 33 39 61 78 61s65 -28 60 -61l-55 -394c-5 -35 -39 -62 -78 -62s-65 27 -60 62l21 149h-152z" />
    <glyph glyph-name="uni043E" unicode="&#x43e;" horiz-adv-x="524" 
d="M261 -7c-142 0 -206 81 -191 186l21 149c14 105 101 186 243 186s205 -81 191 -186l-21 -149c-15 -105 -101 -186 -243 -186zM277 111c52 0 83 26 89 68l21 150c6 41 -18 67 -70 67s-82 -26 -88 -67l-21 -150c-6 -42 17 -68 69 -68z" />
    <glyph glyph-name="uni043F" unicode="&#x43f;" horiz-adv-x="544" 
d="M203 505h280c39 0 65 -27 61 -62l-55 -388c-5 -35 -39 -62 -78 -62s-65 27 -60 62l47 337h-142l-47 -337c-5 -35 -39 -62 -78 -62s-65 27 -60 62l55 388c4 35 38 62 77 62z" />
    <glyph glyph-name="uni0440" unicode="&#x440;" horiz-adv-x="528" 
d="M291 -6c-27 0 -51 3 -84 20l-23 -165c-5 -34 -34 -61 -78 -61s-65 28 -60 61l71 508c3 23 2 35 -5 47c-5 9 -9 16 -9 27c0 39 40 66 75 66c21 0 36 -11 48 -28c52 27 94 44 147 44c115 0 170 -80 154 -196l-16 -116c-16 -118 -76 -207 -220 -207zM255 357l-33 -236
c29 -9 53 -13 71 -13c49 0 71 30 80 93l16 116c7 52 -10 80 -53 80c-21 0 -47 -7 -80 -21c0 -7 0 -13 -1 -19z" />
    <glyph glyph-name="uni0441" unicode="&#x441;" horiz-adv-x="443" 
d="M71 184l19 135c15 107 91 191 234 191c56 0 159 -13 159 -79c0 -25 -12 -59 -70 -59c-10 0 -19 1 -32 6c-20 8 -34 17 -65 17c-55 0 -81 -29 -88 -76l-19 -135c-7 -47 11 -76 66 -76c31 0 50 9 71 17c11 4 18 6 32 6c45 0 57 -23 57 -44c0 -78 -122 -94 -185 -94
c-141 0 -194 84 -179 191z" />
    <glyph glyph-name="uni0442" unicode="&#x442;" horiz-adv-x="818" 
d="M631 111l31 221c5 35 -12 63 -49 63c-26 0 -55 -13 -85 -35c-1 -9 -1 -17 -2 -26l-39 -279c-5 -34 -32 -61 -78 -61s-65 27 -60 61l36 259c7 46 4 81 -40 81c-25 0 -57 -11 -89 -26c0 -3 0 -8 -1 -11l-42 -303c-5 -34 -32 -61 -78 -61s-65 27 -60 61l42 303
c5 33 1 36 -2 42c-9 15 -12 24 -12 33c0 38 37 64 74 64c23 0 38 -11 49 -28c49 28 98 44 141 44c42 0 78 -15 110 -44c58 29 103 44 157 44c118 0 181 -72 166 -179l-30 -211c-3 -21 -2 -26 10 -41c7 -9 13 -15 13 -29c0 -39 -31 -60 -83 -60c-40 0 -94 13 -79 118z" />
    <glyph glyph-name="uni0443" unicode="&#x443;" horiz-adv-x="549" 
d="M256 450l-38 -267c-6 -46 9 -75 58 -75c30 0 60 7 85 26l45 316c4 34 31 60 77 60s65 -26 61 -60l-68 -483c-15 -107 -90 -191 -236 -191c-55 0 -158 18 -158 75c0 35 33 63 72 63c7 0 17 -1 31 -6c18 -9 35 -17 63 -17c57 0 83 28 90 76l6 43c-32 -11 -63 -16 -100 -16
c-144 0 -179 81 -164 189l38 267c4 34 33 60 77 60s66 -26 61 -60z" />
    <glyph glyph-name="uni0444" unicode="&#x444;" horiz-adv-x="664" 
d="M241 -150l20 145c-142 11 -203 105 -185 228l10 68c17 117 102 209 248 220l21 149c5 33 38 62 77 62s66 -27 61 -62l-21 -149c143 -10 205 -102 188 -220l-10 -68c-18 -123 -104 -218 -251 -228l-20 -145c-5 -35 -39 -62 -78 -62s-65 27 -60 62zM532 292
c8 54 -17 91 -77 100l-39 -278c62 10 98 50 106 109zM204 223c-8 -58 16 -97 74 -109l39 277c-62 -10 -95 -46 -103 -99z" />
    <glyph glyph-name="uni0445" unicode="&#x445;" horiz-adv-x="471" 
d="M353 257l105 -170c5 -7 6 -16 6 -24c0 -37 -34 -70 -79 -70c-32 0 -44 11 -58 36c-28 50 -42 70 -71 121c-37 -42 -75 -85 -111 -127c-18 -20 -37 -30 -61 -30c-36 0 -62 22 -62 55c0 13 5 26 15 37c54 61 100 111 154 172c-33 53 -65 104 -98 159c-5 8 -7 19 -7 28
c0 34 36 66 78 66c39 0 52 -24 63 -43l61 -103l96 111c18 21 35 35 67 35c29 0 60 -23 60 -55c0 -8 -3 -24 -15 -37z" />
    <glyph glyph-name="uni0446" unicode="&#x446;" horiz-adv-x="587" 
d="M481 -149c-39 0 -65 27 -60 62l13 94c-12 4 -21 11 -30 18c-60 -23 -111 -32 -152 -32c-126 0 -178 79 -162 196l37 261c5 34 34 60 78 60s65 -26 60 -60l-37 -261c-7 -51 11 -80 51 -80c23 0 52 7 85 21c-1 13 0 26 2 41l39 279c5 34 32 60 78 60s65 -26 60 -60
l-39 -279c-6 -41 -1 -62 13 -62c39 0 65 -27 60 -62l-18 -134c-5 -35 -39 -62 -78 -62z" />
    <glyph glyph-name="uni0447" unicode="&#x447;" horiz-adv-x="518" 
d="M246 449l-18 -126c-3 -24 1 -47 51 -47c13 0 43 3 77 8l23 165c5 33 38 61 77 61s66 -28 61 -61l-56 -394c-5 -35 -38 -62 -77 -62s-66 27 -61 62l17 120c-29 -10 -54 -11 -73 -11c-140 0 -191 59 -177 159l18 126c5 33 38 61 77 61s66 -28 61 -61z" />
    <glyph glyph-name="uni0448" unicode="&#x448;" horiz-adv-x="812" 
d="M264 450l-39 -279c-5 -35 11 -63 52 -63c21 0 51 14 82 35c-1 8 1 17 2 26l39 281c5 34 34 60 78 60s65 -26 60 -60l-36 -261c-7 -47 -4 -81 41 -81c23 0 55 11 87 26l44 316c5 34 34 60 78 60s65 -26 60 -60l-45 -321c-2 -16 2 -24 12 -35c8 -8 12 -19 12 -30
c0 -39 -40 -65 -74 -65c-25 0 -43 14 -55 33c-50 -25 -98 -42 -142 -42c-42 0 -78 15 -110 43c-56 -27 -107 -43 -151 -43c-127 0 -187 73 -172 179l39 281c5 34 34 60 78 60s65 -26 60 -60z" />
    <glyph glyph-name="uni0449" unicode="&#x449;" horiz-adv-x="852" 
d="M750 -149c-39 0 -65 27 -60 62l13 94c-11 4 -20 10 -29 18c-45 -18 -100 -35 -154 -35c-42 0 -78 15 -110 43c-56 -27 -107 -43 -151 -43c-127 0 -187 73 -172 179l39 281c5 34 34 60 78 60s65 -26 60 -60l-39 -279c-5 -35 11 -63 52 -63c21 0 50 12 82 31
c-1 9 1 20 2 30l39 281c5 34 34 60 78 60s65 -26 60 -60l-36 -261c-7 -47 -4 -81 41 -81c25 0 58 11 90 27c0 12 0 23 2 36l39 279c5 34 32 60 78 60s65 -26 60 -60l-39 -279c-6 -41 -1 -62 13 -62c39 0 66 -27 61 -62l-19 -134c-5 -35 -39 -62 -78 -62z" />
    <glyph glyph-name="uni044A" unicode="&#x44a;" horiz-adv-x="583" 
d="M344 -7c-140 0 -199 81 -184 186l29 210h-56c-34 0 -58 22 -58 52c0 36 37 64 75 64h125c39 0 65 -29 60 -62l-16 -111c23 7 49 11 74 11c134 0 200 -78 185 -178c-15 -98 -102 -172 -234 -172zM370 225c-42 0 -74 -22 -74 -62c0 -32 22 -52 64 -52c51 0 81 26 81 66
c0 30 -22 48 -71 48z" />
    <glyph glyph-name="uni044B" unicode="&#x44b;" horiz-adv-x="724" 
d="M667 55c-5 -35 -38 -62 -77 -62s-66 27 -61 62l56 394c4 33 38 61 77 61s65 -28 61 -61zM264 449l-17 -117c23 7 49 11 74 11c134 0 200 -78 185 -178c-15 -98 -102 -172 -234 -172c-140 0 -199 81 -184 186l38 270c4 33 38 61 77 61s65 -28 61 -61zM298 225
c-42 0 -74 -22 -74 -62c0 -32 22 -52 64 -52c51 0 81 26 81 66c0 30 -23 48 -71 48z" />
    <glyph glyph-name="uni044C" unicode="&#x44c;" horiz-adv-x="512" 
d="M264 449l-17 -117c23 7 49 11 74 11c134 0 200 -78 185 -178c-15 -98 -102 -172 -234 -172c-140 0 -199 81 -184 186l38 270c4 33 38 61 77 61s65 -28 61 -61zM298 225c-42 0 -74 -22 -74 -62c0 -32 22 -52 64 -52c51 0 81 26 81 66c0 30 -23 48 -71 48z" />
    <glyph glyph-name="uni044D" unicode="&#x44d;" horiz-adv-x="433" 
d="M441 310l-17 -117c-16 -113 -88 -200 -227 -200c-58 0 -168 18 -168 76c0 33 34 62 72 62c7 0 16 -1 28 -5c22 -9 42 -18 76 -18c49 0 67 33 81 85l1 3h-123c-34 0 -59 22 -59 52c0 36 35 64 75 64h123c6 53 -9 83 -57 83c-34 0 -58 -9 -82 -18c-12 -3 -22 -5 -29 -5
c-33 0 -56 24 -56 51c0 68 129 87 191 87c139 0 187 -87 171 -200z" />
    <glyph glyph-name="uni044E" unicode="&#x44e;" horiz-adv-x="741" 
d="M209 55c-5 -35 -39 -62 -78 -62s-65 27 -60 62l55 394c5 33 39 61 78 61s65 -28 60 -61l-19 -133h80l2 11c18 105 99 186 238 186s201 -81 186 -186l-21 -148c-15 -105 -99 -186 -238 -186s-202 81 -186 186l4 25h-80zM509 111c49 0 77 26 83 68l21 149
c6 41 -15 67 -64 67s-78 -26 -84 -67l-21 -149c-6 -42 16 -68 65 -68z" />
    <glyph glyph-name="uni044F" unicode="&#x44f;" horiz-adv-x="527" 
d="M393 -7c-39 0 -65 28 -60 62l18 129h-41l-143 -163c-17 -20 -37 -28 -61 -28c-36 0 -59 19 -59 51c0 11 7 30 17 41l103 116c-53 20 -76 62 -76 119c0 110 75 185 220 185h154c39 0 66 -29 61 -62l-55 -388c-5 -34 -39 -62 -78 -62zM229 337c0 -20 13 -40 66 -40h72
l13 94h-83c-44 0 -68 -18 -68 -54z" />
    <glyph glyph-name="uni0450" unicode="&#x450;" horiz-adv-x="485" 
d="M287 191c-26 0 -48 2 -76 6l-5 -33c-5 -34 18 -56 72 -56c32 0 60 8 94 22c4 2 13 6 30 6c43 0 55 -27 55 -48c0 -76 -138 -95 -205 -95c-132 0 -197 76 -183 175l23 167c14 101 99 178 238 178c118 0 175 -59 175 -146c0 -108 -65 -176 -218 -176zM367 361
c0 32 -18 45 -53 45c-48 0 -77 -25 -83 -65l-6 -43c32 -3 62 -4 72 -4c43 0 70 16 70 67zM340 710l71 -79c4 -5 5 -10 5 -16c0 -35 -28 -58 -59 -58c-22 0 -29 8 -42 21l-70 82c-5 7 -6 16 -6 23c0 31 32 54 56 54c22 0 28 -7 39 -19z" />
    <glyph glyph-name="uni0451" unicode="&#x451;" horiz-adv-x="485" 
d="M287 191c-26 0 -48 2 -76 6l-5 -33c-5 -34 18 -56 72 -56c32 0 60 8 94 22c4 2 13 6 30 6c43 0 55 -27 55 -48c0 -76 -138 -95 -205 -95c-132 0 -197 76 -183 175l23 167c14 101 99 178 238 178c118 0 175 -59 175 -146c0 -108 -65 -176 -218 -176zM367 361
c0 32 -18 45 -53 45c-48 0 -77 -25 -83 -65l-6 -43c32 -3 62 -4 72 -4c43 0 70 16 70 67zM486 637c0 -38 -35 -70 -74 -70c-33 0 -58 26 -58 56c0 37 36 68 75 68c33 0 57 -24 57 -54zM307 637c0 -38 -35 -70 -75 -70c-33 0 -56 25 -56 56c0 36 34 68 73 68
c34 0 58 -24 58 -54z" />
    <glyph glyph-name="uni0452" unicode="&#x452;" horiz-adv-x="622" 
d="M425 40l34 240c8 59 -4 87 -45 87c-28 0 -65 -12 -91 -33l-39 -279c-5 -35 -38 -62 -77 -62s-65 27 -60 62l69 494h-66c-30 0 -51 20 -51 44c0 29 30 55 64 55h68l2 17c4 32 38 62 77 62s64 -27 60 -62l-2 -17h64c29 0 50 -20 50 -45c0 -28 -30 -54 -63 -54h-65l-13 -86
c31 15 65 23 99 23c128 0 174 -84 157 -205l-29 -208c-22 -156 -96 -265 -229 -265c-31 0 -52 8 -56 33c-7 45 34 65 62 72c39 10 69 49 80 127z" />
    <glyph glyph-name="uni0453" unicode="&#x453;" horiz-adv-x="446" 
d="M458 378c0 81 -57 135 -173 135c-69 0 -175 -17 -175 -92c0 -37 33 -44 53 -44c35 0 56 21 105 21c35 0 53 -12 53 -32c0 -16 -9 -26 -35 -37c-82 -33 -230 -47 -230 -199c0 -84 60 -137 175 -137c66 0 191 17 191 84c0 26 -21 53 -57 53c-33 0 -67 -22 -116 -22
c-33 0 -56 11 -56 35c0 21 13 30 26 37c75 39 239 39 239 198zM273 631l92 79l9 8c14 12 22 19 44 19c21 0 42 -19 42 -44c0 -8 -2 -20 -13 -33l-93 -82c-17 -13 -26 -21 -48 -21c-26 0 -45 17 -45 43c0 16 5 23 12 31z" />
    <glyph glyph-name="uni0454" unicode="&#x454;" horiz-adv-x="443" 
d="M71 184l19 135c15 107 91 191 234 191c56 0 159 -13 159 -79c0 -25 -12 -59 -70 -59c-10 0 -19 1 -32 6c-20 8 -34 17 -65 17c-55 0 -81 -29 -88 -76l-1 -7h123c34 0 58 -22 58 -52c0 -36 -34 -64 -74 -64h-123l-2 -12c-8 -47 11 -76 66 -76c31 0 50 9 71 17
c11 4 18 6 32 6c45 0 57 -23 57 -44c0 -78 -122 -94 -185 -94c-141 0 -194 84 -179 191z" />
    <glyph glyph-name="uni0455" unicode="&#x455;" horiz-adv-x="446" 
d="M92 338c0 101 74 175 216 175c62 0 151 -15 151 -77c0 -50 -44 -59 -67 -59c-35 0 -50 21 -99 21c-41 0 -63 -15 -63 -40c0 -12 7 -21 25 -29c63 -29 180 -44 180 -158c0 -107 -80 -178 -219 -178c-62 0 -169 15 -169 73c0 30 31 64 73 64c33 0 61 -22 110 -22
c39 0 67 14 67 45c0 14 -8 22 -17 27c-56 34 -188 39 -188 158z" />
    <glyph glyph-name="uni0456" unicode="&#x456;" horiz-adv-x="285" 
d="M311 651c0 -42 -40 -77 -88 -77c-41 0 -69 28 -69 63c0 42 41 77 89 77c40 0 68 -28 68 -63zM88 111l48 338c5 33 39 61 78 61s65 -28 60 -61l-46 -326c-3 -21 -3 -26 9 -41c7 -9 13 -15 13 -29c0 -39 -31 -60 -83 -60c-40 0 -94 13 -79 118z" />
    <glyph glyph-name="uni0457" unicode="&#x457;" horiz-adv-x="285" 
d="M386 637c0 -38 -35 -70 -74 -70c-33 0 -58 26 -58 56c0 37 36 68 75 68c33 0 57 -24 57 -54zM207 637c0 -38 -35 -70 -75 -70c-33 0 -56 25 -56 56c0 36 34 68 73 68c34 0 58 -24 58 -54zM88 111l48 338c5 33 39 61 78 61s65 -28 60 -61l-46 -326c-3 -21 -3 -26 9 -41
c7 -9 13 -15 13 -29c0 -39 -31 -60 -83 -60c-40 0 -94 13 -79 118z" />
    <glyph glyph-name="uni0458" unicode="&#x458;" horiz-adv-x="285" 
d="M311 651c0 -42 -40 -77 -88 -77c-41 0 -69 28 -69 63c0 42 41 77 88 77c41 0 69 -28 69 -63zM274 449l-64 -456c-16 -115 -100 -194 -217 -194c-31 0 -52 17 -56 42c-7 45 34 67 62 72c38 7 66 29 73 77l64 459c5 33 39 61 78 61s65 -28 60 -61z" />
    <glyph glyph-name="uni0459" unicode="&#x459;" horiz-adv-x="786" 
d="M587 208h-62l-14 -94h73c38 0 59 18 59 55c0 20 -11 39 -56 39zM558 443l-17 -122h61c126 0 179 -50 179 -136c0 -109 -73 -185 -211 -185h-144c-39 0 -65 29 -60 62l46 330h-82l-50 -221c-25 -106 -75 -175 -174 -175c-43 0 -84 1 -84 48c0 50 40 70 76 70
c4 0 9 -1 13 -1c16 0 27 19 35 56l65 276c7 30 33 60 66 60h230c46 0 54 -40 51 -62z" />
    <glyph glyph-name="uni045A" unicode="&#x45a;" horiz-adv-x="762" 
d="M209 55c-5 -35 -39 -62 -78 -62s-65 27 -60 62l55 394c5 33 39 61 78 61s65 -28 60 -61l-19 -133h132l19 133c5 33 39 61 78 61s65 -28 60 -61l-19 -133h63c125 0 179 -48 179 -132c0 -108 -73 -184 -211 -184h-144c-39 0 -65 29 -60 62l20 142h-132zM562 204h-62
l-13 -90h73c38 0 58 18 58 53c0 18 -10 37 -56 37z" />
    <glyph glyph-name="uni045B" unicode="&#x45b;" horiz-adv-x="622" 
d="M601 311l-26 -188c-3 -21 -3 -26 9 -41c7 -9 14 -15 14 -29c0 -39 -32 -60 -84 -60c-40 0 -94 13 -79 118l28 199c5 38 -8 57 -49 57c-28 0 -65 -12 -91 -33l-39 -279c-5 -35 -38 -62 -77 -62s-65 27 -60 62l69 494h-66c-30 0 -51 20 -51 44c0 29 30 55 64 55h68l2 17
c4 32 38 62 77 62s64 -27 60 -62l-2 -17h64c29 0 50 -20 50 -45c0 -28 -30 -54 -63 -54h-65l-12 -80c30 11 64 17 98 17c128 0 175 -72 161 -175z" />
    <glyph glyph-name="uni045C" unicode="&#x45c;" horiz-adv-x="476" 
d="M227 186h14l99 -165c11 -19 28 -28 53 -28c42 0 76 27 76 62c0 10 -2 22 -7 30l-102 166l149 166c10 11 16 29 16 40c0 32 -24 52 -59 52c-25 0 -44 -9 -61 -28l-145 -165h-15l19 133c5 33 -21 61 -60 61s-73 -28 -78 -61l-55 -394c-5 -35 21 -62 60 -62s73 27 78 62z
M292 631l92 79l9 8c14 12 22 19 44 19c21 0 42 -19 42 -44c0 -8 -2 -20 -13 -33l-93 -82c-17 -13 -26 -21 -48 -21c-26 0 -45 17 -45 43c0 16 5 23 12 31z" />
    <glyph glyph-name="uni045D" unicode="&#x45d;" horiz-adv-x="549" 
d="M393 37c-52 -33 -99 -44 -144 -44c-121 0 -175 79 -159 196l37 261c5 34 34 60 78 60s65 -26 60 -60l-37 -261c-7 -51 10 -80 54 -80c21 0 47 7 80 21c0 7 0 13 1 19l42 301c5 34 32 60 78 60s65 -26 60 -60l-45 -321c-2 -15 3 -22 14 -35c7 -8 10 -17 10 -27
c0 -44 -40 -68 -73 -68c-26 0 -44 16 -56 38zM358 710l71 -79c4 -5 5 -10 5 -16c0 -35 -28 -58 -59 -58c-22 0 -29 8 -42 21l-70 82c-5 7 -6 16 -6 23c0 31 32 54 56 54c22 0 28 -7 39 -19z" />
    <glyph glyph-name="uni045E" unicode="&#x45e;" horiz-adv-x="549" 
d="M256 450l-38 -267c-6 -46 9 -75 58 -75c30 0 60 7 85 26l45 316c4 34 31 60 77 60s65 -26 61 -60l-68 -483c-15 -107 -90 -191 -236 -191c-55 0 -158 18 -158 75c0 35 33 63 72 63c7 0 17 -1 31 -6c18 -9 35 -17 63 -17c57 0 83 28 90 76l6 43c-32 -11 -63 -16 -100 -16
c-144 0 -179 81 -164 189l38 267c4 34 33 60 77 60s66 -26 61 -60zM365 645c18 0 42 10 63 31c14 14 32 23 50 23c27 0 52 -18 36 -56c-24 -58 -108 -90 -162 -90s-127 32 -136 90c-6 38 25 56 52 56c17 0 32 -8 42 -22c15 -21 37 -32 55 -32z" />
    <glyph glyph-name="uni045F" unicode="&#x45f;" horiz-adv-x="544" 
d="M412 0h-70l-12 -83c-5 -35 -39 -62 -78 -62s-65 27 -60 62l12 83h-72c-39 0 -65 27 -60 62l54 388c5 35 39 62 78 62s65 -27 60 -62l-47 -337h142l47 337c5 35 39 62 78 62s65 -27 60 -62l-54 -388c-5 -35 -39 -62 -78 -62z" />
    <glyph glyph-name="uni0462" unicode="&#x462;" horiz-adv-x="684" 
d="M389 696l-5 -36h156c29 0 54 -22 54 -49c0 -32 -33 -58 -69 -58h-156l-15 -105h85c141 0 227 -68 227 -190c0 -127 -77 -258 -290 -258h-147c-42 0 -73 33 -68 72l68 481h-76c-31 0 -53 23 -53 47c0 28 33 60 68 60h76l5 36c5 34 40 64 79 64c38 0 66 -30 61 -64z
M309 127h85c113 0 130 67 130 114c0 54 -35 80 -103 80h-85z" />
    <glyph glyph-name="uni0463" unicode="&#x463;" horiz-adv-x="622" 
d="M370 656l-7 -52h63c29 0 50 -20 50 -45c0 -28 -31 -54 -64 -54h-64l-19 -139h72c130 0 186 -56 186 -149c0 -127 -76 -217 -225 -217h-154c-39 0 -65 29 -60 62l62 443h-67c-30 0 -50 19 -50 45c0 29 30 54 64 54h68l7 52c5 35 38 62 77 62s66 -27 61 -62zM385 253h-72
l-20 -139h83c48 0 73 31 73 85c0 27 -13 54 -64 54z" />
    <glyph glyph-name="uni0490" unicode="&#x490;" horiz-adv-x="503" 
d="M152 636c5 34 42 69 85 69h201l9 67c5 34 41 65 80 65c38 0 65 -31 60 -65l-18 -130c-5 -36 -39 -63 -78 -63h-207l-73 -523c-5 -34 -41 -64 -79 -64c-39 0 -66 30 -61 64z" />
    <glyph glyph-name="uni0491" unicode="&#x491;" horiz-adv-x="450" 
d="M504 575l-18 -125c-4 -34 -38 -61 -77 -61h-153l-47 -334c-5 -35 -39 -62 -78 -62s-65 27 -60 62l55 392c5 33 37 58 74 58h156l10 70c5 35 39 62 78 62s65 -27 60 -62z" />
    <glyph glyph-name="Wgrave" unicode="&#x1e80;" horiz-adv-x="830" 
d="M584 640l26 -235c6 -55 3 -111 5 -167c18 56 31 112 53 167l100 255c13 32 40 51 71 51c32 0 70 -17 70 -55c0 -8 -1 -13 -4 -19l-232 -583c-14 -33 -43 -63 -91 -63s-69 31 -73 64l-25 245c-5 52 -3 107 -5 160c-16 -53 -29 -108 -49 -160l-96 -247
c-12 -30 -37 -62 -90 -62c-41 0 -69 33 -73 63l-66 578c-1 10 -2 19 -2 19c5 37 48 60 83 60c29 0 55 -15 59 -48l29 -258c6 -54 4 -111 6 -166c18 53 31 113 52 166l92 235c18 47 36 74 91 74c51 0 65 -29 69 -74zM546 910l71 -79c4 -5 5 -10 5 -16c0 -35 -28 -58 -59 -58
c-22 0 -29 8 -42 21l-70 82c-5 7 -6 16 -6 23c0 31 32 54 56 54c22 0 28 -7 39 -19z" />
    <glyph glyph-name="wgrave" unicode="&#x1e81;" horiz-adv-x="695" 
d="M415 43l-19 160c-5 40 -2 81 -2 122c-12 -41 -20 -82 -36 -122l-63 -160c-16 -36 -43 -50 -84 -50c-44 0 -64 22 -70 60l-62 384c0 2 -1 5 -1 7c0 34 36 66 78 66c29 0 55 -16 59 -45l20 -165c6 -50 -2 -101 -2 -152c15 51 24 102 44 152l63 159c12 29 41 51 81 51
c39 0 62 -22 65 -51l16 -159c5 -50 2 -102 3 -153c14 51 22 103 42 153l66 165c10 25 42 45 71 45c33 0 60 -23 60 -55c0 -7 -2 -13 -3 -16l-170 -387c-17 -39 -40 -59 -88 -59c-34 0 -63 18 -68 50zM451 710l71 -79c4 -5 5 -10 5 -16c0 -35 -28 -58 -59 -58
c-22 0 -29 8 -42 21l-70 82c-5 7 -6 16 -6 23c0 31 32 54 56 54c22 0 28 -7 39 -19z" />
    <glyph glyph-name="Wacute" unicode="&#x1e82;" horiz-adv-x="830" 
d="M584 640l26 -235c6 -55 3 -111 5 -167c18 56 31 112 53 167l100 255c13 32 40 51 71 51c32 0 70 -17 70 -55c0 -8 -1 -13 -4 -19l-232 -583c-14 -33 -43 -63 -91 -63s-69 31 -73 64l-25 245c-5 52 -3 107 -5 160c-16 -53 -29 -108 -49 -160l-96 -247
c-12 -30 -37 -62 -90 -62c-41 0 -69 33 -73 63l-66 578c-1 10 -2 19 -2 19c5 37 48 60 83 60c29 0 55 -15 59 -48l29 -258c6 -54 4 -111 6 -166c18 53 31 113 52 166l92 235c18 47 36 74 91 74c51 0 65 -29 69 -74zM446 831l92 79l9 8c14 12 22 19 44 19c21 0 42 -19 42 -44
c0 -8 -2 -20 -13 -33l-93 -82c-17 -13 -26 -21 -48 -21c-26 0 -45 17 -45 43c0 16 5 23 12 31z" />
    <glyph glyph-name="wacute" unicode="&#x1e83;" horiz-adv-x="695" 
d="M415 43l-19 160c-5 40 -2 81 -2 122c-12 -41 -20 -82 -36 -122l-63 -160c-16 -36 -43 -50 -84 -50c-44 0 -64 22 -70 60l-62 384c0 2 -1 5 -1 7c0 34 36 66 78 66c29 0 55 -16 59 -45l20 -165c6 -50 -2 -101 -2 -152c15 51 24 102 44 152l63 159c12 29 41 51 81 51
c39 0 62 -22 65 -51l16 -159c5 -50 2 -102 3 -153c14 51 22 103 42 153l66 165c10 25 42 45 71 45c33 0 60 -23 60 -55c0 -7 -2 -13 -3 -16l-170 -387c-17 -39 -40 -59 -88 -59c-34 0 -63 18 -68 50zM351 631l92 79l9 8c14 12 22 19 44 19c21 0 42 -19 42 -44
c0 -8 -2 -20 -13 -33l-93 -82c-17 -13 -26 -21 -48 -21c-26 0 -45 17 -45 43c0 16 5 23 12 31z" />
    <glyph glyph-name="Wdieresis" unicode="&#x1e84;" horiz-adv-x="830" 
d="M584 640l26 -235c6 -55 3 -111 5 -167c18 56 31 112 53 167l100 255c13 32 40 51 71 51c32 0 70 -17 70 -55c0 -8 -1 -13 -4 -19l-232 -583c-14 -33 -43 -63 -91 -63s-69 31 -73 64l-25 245c-5 52 -3 107 -5 160c-16 -53 -29 -108 -49 -160l-96 -247
c-12 -30 -37 -62 -90 -62c-41 0 -69 33 -73 63l-66 578c-1 10 -2 19 -2 19c5 37 48 60 83 60c29 0 55 -15 59 -48l29 -258c6 -54 4 -111 6 -166c18 53 31 113 52 166l92 235c18 47 36 74 91 74c51 0 65 -29 69 -74zM686 837c0 -38 -35 -70 -74 -70c-33 0 -58 26 -58 56
c0 37 36 68 75 68c33 0 57 -24 57 -54zM507 837c0 -38 -35 -70 -75 -70c-33 0 -56 25 -56 56c0 36 34 68 73 68c34 0 58 -24 58 -54z" />
    <glyph glyph-name="wdieresis" unicode="&#x1e85;" horiz-adv-x="695" 
d="M415 43l-19 160c-5 40 -2 81 -2 122c-12 -41 -20 -82 -36 -122l-63 -160c-16 -36 -43 -50 -84 -50c-44 0 -64 22 -70 60l-62 384c0 2 -1 5 -1 7c0 34 36 66 78 66c29 0 55 -16 59 -45l20 -165c6 -50 -2 -101 -2 -152c15 51 24 102 44 152l63 159c12 29 41 51 81 51
c39 0 62 -22 65 -51l16 -159c5 -50 2 -102 3 -153c14 51 22 103 42 153l66 165c10 25 42 45 71 45c33 0 60 -23 60 -55c0 -7 -2 -13 -3 -16l-170 -387c-17 -39 -40 -59 -88 -59c-34 0 -63 18 -68 50zM591 637c0 -38 -35 -70 -74 -70c-33 0 -58 26 -58 56c0 37 36 68 75 68
c33 0 57 -24 57 -54zM412 637c0 -38 -35 -70 -75 -70c-33 0 -56 25 -56 56c0 36 34 68 73 68c34 0 58 -24 58 -54z" />
    <glyph glyph-name="Ygrave" unicode="&#x1ef2;" horiz-adv-x="530" 
d="M264 -9c-40 0 -67 30 -62 66l31 219l-127 344c-2 5 -3 14 -3 22c0 39 42 72 81 72c21 0 43 -9 53 -30l90 -248l159 248c14 21 40 30 62 30c33 0 62 -27 62 -59c0 -13 -7 -25 -11 -35l-224 -344l-31 -219c-5 -35 -40 -66 -80 -66zM366 910l71 -79c4 -5 5 -10 5 -16
c0 -35 -28 -58 -59 -58c-22 0 -29 8 -42 21l-70 82c-5 7 -6 16 -6 23c0 31 32 54 56 54c22 0 28 -7 39 -19z" />
    <glyph glyph-name="ygrave" unicode="&#x1ef3;" horiz-adv-x="549" 
d="M256 450l-38 -267c-6 -46 9 -75 58 -75c30 0 60 7 85 26l45 316c4 34 31 60 77 60s65 -26 61 -60l-68 -483c-15 -107 -90 -191 -236 -191c-55 0 -158 18 -158 75c0 35 33 63 72 63c7 0 17 -1 31 -6c18 -9 35 -17 63 -17c57 0 83 28 90 76l6 43c-32 -11 -63 -16 -100 -16
c-144 0 -179 81 -164 189l38 267c4 34 33 60 77 60s66 -26 61 -60zM340 710l71 -79c4 -5 5 -10 5 -16c0 -35 -28 -58 -59 -58c-22 0 -29 8 -42 21l-70 82c-5 7 -6 16 -6 23c0 31 32 54 56 54c22 0 28 -7 39 -19z" />
    <glyph glyph-name="endash" unicode="&#x2013;" horiz-adv-x="471" 
d="M482 292c0 -34 -31 -61 -67 -61h-280c-38 0 -67 27 -67 61c0 33 29 62 67 62h280c38 0 67 -29 67 -62z" />
    <glyph glyph-name="emdash" unicode="&#x2014;" horiz-adv-x="570" 
d="M582 292c0 -34 -31 -61 -67 -61h-380c-38 0 -67 27 -67 61c0 33 29 62 67 62h380c38 0 67 -29 67 -62z" />
    <glyph glyph-name="quoteleft" unicode="&#x2018;" horiz-adv-x="269" 
d="M281 680c-7 -33 -31 -45 -45 -89c33 -7 55 -35 55 -67c0 -46 -45 -85 -96 -85c-40 0 -72 28 -72 71c0 54 70 215 124 215c16 0 45 -6 34 -45z" />
    <glyph glyph-name="quoteright" unicode="&#x2019;" 
d="M151 484c8 33 31 45 46 89c-34 7 -56 35 -56 67c0 46 45 85 96 85c40 0 72 -28 72 -71c0 -54 -70 -215 -123 -215c-16 0 -45 6 -35 45z" />
    <glyph glyph-name="quotesinglbase" unicode="&#x201a;" 
d="M69 -95c8 33 32 45 46 89c-33 7 -55 35 -55 67c0 46 45 85 95 85c41 0 73 -28 73 -71c0 -54 -70 -215 -124 -215c-16 0 -45 6 -35 45z" />
    <glyph glyph-name="quotedblleft" unicode="&#x201c;" horiz-adv-x="470" 
d="M281 680c-7 -33 -31 -45 -45 -89c33 -7 55 -35 55 -67c0 -46 -45 -85 -96 -85c-40 0 -72 28 -72 71c0 54 70 215 124 215c16 0 45 -6 34 -45zM482 680c-7 -33 -31 -45 -45 -89c33 -7 55 -35 55 -67c0 -46 -45 -85 -96 -85c-40 0 -72 28 -72 71c0 54 70 215 124 215
c16 0 45 -6 34 -45z" />
    <glyph glyph-name="quotedblright" unicode="&#x201d;" horiz-adv-x="470" 
d="M352 484c8 33 31 45 46 89c-34 7 -56 35 -56 67c0 46 45 85 96 85c40 0 72 -28 72 -71c0 -54 -70 -215 -123 -215c-16 0 -45 6 -35 45zM151 484c8 33 31 45 46 89c-34 7 -56 35 -56 67c0 46 45 85 96 85c40 0 72 -28 72 -71c0 -54 -70 -215 -123 -215c-16 0 -45 6 -35 45
z" />
    <glyph glyph-name="quotedblbase" unicode="&#x201e;" horiz-adv-x="470" 
d="M270 -96c8 33 32 45 46 89c-33 7 -55 35 -55 67c0 46 44 85 95 85c40 0 73 -28 73 -71c0 -54 -70 -215 -124 -215c-16 0 -45 6 -35 45zM69 -96c8 33 32 45 46 89c-33 7 -55 35 -55 67c0 46 45 85 95 85c41 0 73 -28 73 -71c0 -54 -70 -215 -124 -215c-16 0 -45 6 -35 45z
" />
    <glyph glyph-name="dagger" unicode="&#x2020;" horiz-adv-x="472" 
d="M557 470c0 -37 -37 -66 -75 -66h-120l-61 -434c-1 -11 -3 -19 -5 -25c-9 -29 -43 -52 -76 -52c-31 0 -57 25 -60 55c-1 7 1 15 2 22l61 434h-120c-7 0 -13 1 -18 3v-1c-24 6 -40 27 -40 51c0 38 35 68 75 68h120l17 122c1 8 3 17 5 24c11 29 43 52 75 52
c33 0 58 -23 60 -53c0 -6 1 -13 -1 -23l-17 -122h120c9 0 14 -1 20 -4c22 -6 38 -27 38 -51z" />
    <glyph glyph-name="daggerdbl" unicode="&#x2021;" horiz-adv-x="614" 
d="M569 72c0 -39 -37 -68 -76 -68h-119l-18 -130c-1 -6 -4 -15 -6 -23c-11 -28 -44 -51 -75 -51c-33 0 -59 23 -60 52c0 5 0 13 1 22l18 130h-119c-35 0 -59 23 -59 54c0 39 35 67 76 67h119l39 279h-119c-35 0 -59 23 -59 53c0 37 35 69 76 69h119l19 133c1 5 2 10 4 14
c11 26 43 50 75 50c38 0 66 -29 61 -64l-19 -133h119c34 0 59 -25 59 -56c0 -37 -37 -66 -76 -66h-119l-39 -279h119c33 0 59 -22 59 -53z" />
    <glyph glyph-name="bullet" unicode="&#x2022;" horiz-adv-x="303" 
d="M286 284c0 -56 -53 -105 -109 -105c-47 0 -82 38 -82 84c0 56 53 105 108 105c48 0 83 -38 83 -84z" />
    <glyph glyph-name="ellipsis" unicode="&#x2026;" horiz-adv-x="790" 
d="M228 77c0 -46 -46 -86 -94 -86c-43 0 -74 32 -74 70c0 46 45 85 96 85c41 0 72 -31 72 -69zM488 77c0 -46 -46 -86 -94 -86c-44 0 -74 32 -74 70c0 46 45 85 96 85c41 0 72 -31 72 -69zM748 77c0 -46 -46 -86 -94 -86c-44 0 -74 32 -74 70c0 46 45 85 96 85
c41 0 72 -31 72 -69z" />
    <glyph glyph-name="guilsinglleft" unicode="&#x2039;" horiz-adv-x="318" 
d="M178 258l104 -188c2 -4 3 -9 3 -13c0 -31 -26 -65 -59 -65c-18 0 -25 8 -35 27l-124 237l184 229c13 16 23 26 41 26c21 0 40 -21 40 -50c0 -13 -3 -20 -8 -26z" />
    <glyph glyph-name="guilsinglright" unicode="&#x203a;" horiz-adv-x="318" 
d="M56 70l156 188l-96 177c-2 4 -2 9 -2 14c0 34 31 62 56 62c18 0 26 -10 34 -26l119 -229l-191 -237c-15 -19 -24 -27 -42 -27c-26 0 -42 24 -42 52c0 10 2 19 8 26z" />
    <glyph glyph-name="fraction" unicode="&#x2044;" horiz-adv-x="186" 
d="M335 640l-316 -606c-14 -27 -33 -48 -63 -38c-31 10 -24 38 -10 65l321 619c13 27 41 46 64 37c38 -16 15 -51 4 -77z" />
    <glyph glyph-name="Euro" unicode="&#x20ac;" horiz-adv-x="540" 
d="M113 454h36l5 38c18 134 105 222 266 222c97 0 183 -46 183 -101c0 -34 -34 -66 -75 -66c-23 0 -29 7 -41 15c-28 22 -49 30 -79 30c-77 0 -106 -38 -114 -100l-5 -38h152c18 0 34 -14 34 -33c0 -23 -21 -41 -45 -41h-152l-7 -56h112c18 0 34 -14 34 -33
c0 -23 -21 -41 -45 -41h-112l-5 -36c-9 -62 10 -100 86 -100c29 0 53 8 92 33c13 7 20 12 40 12c35 0 58 -25 58 -54c0 -61 -107 -113 -212 -113c-161 0 -223 88 -204 222l5 36h-36c-20 0 -34 14 -34 33c0 23 23 41 45 41h36l7 56h-36c-20 0 -34 14 -34 33c0 23 23 41 45 41
z" />
    <glyph glyph-name="uni20B4" unicode="&#x20b4;" horiz-adv-x="540" 
d="M120 454h250c42 32 55 46 55 83s-24 50 -66 50c-35 0 -60 -8 -80 -15c-22 -7 -37 -11 -52 -11c-38 0 -60 26 -60 56c0 81 150 97 219 97c106 0 164 -39 164 -132c0 -40 -6 -79 -41 -128h39c18 0 34 -14 34 -33c0 -23 -21 -41 -45 -41h-97c-18 -17 -40 -36 -64 -56h154
c18 0 34 -14 34 -33c0 -23 -21 -41 -45 -41h-238c-42 -36 -52 -50 -52 -84c0 -40 29 -51 67 -51c59 0 85 26 128 26s63 -28 63 -56c0 -81 -151 -97 -220 -97c-103 0 -164 38 -164 130c0 38 7 77 43 132h-55c-20 0 -34 14 -34 33c0 23 23 41 45 41h109c17 17 39 36 62 56
h-164c-20 0 -34 14 -34 33c0 23 23 41 45 41z" />
    <glyph glyph-name="uni20BD" unicode="&#x20bd;" horiz-adv-x="540" 
d="M295 260h-45l-7 -52h104c18 0 34 -14 34 -33c0 -23 -21 -41 -45 -41h-104l-11 -77c-5 -35 -41 -66 -79 -66c-37 0 -66 30 -61 66l11 77h-24c-20 0 -34 14 -34 33c0 23 23 41 45 41h24l7 56h-24c-20 0 -34 14 -34 33c0 23 23 41 45 41h24l41 295c6 39 46 72 88 72h107
c166 0 226 -93 226 -199c0 -159 -117 -246 -288 -246zM295 578l-30 -211h45c84 0 131 41 131 124c0 44 -21 87 -101 87h-45z" />
    <glyph glyph-name="trademark" unicode="&#x2122;" horiz-adv-x="793" 
d="M839 664l-47 -335c-4 -24 -29 -45 -52 -45c-26 0 -45 21 -41 45l27 191c-22 -34 -45 -70 -66 -104c-12 -19 -30 -28 -48 -28s-35 12 -41 28c-21 58 -17 44 -36 104l-27 -191c-4 -24 -29 -45 -52 -45c-26 0 -44 21 -40 45l47 335c4 29 27 49 55 49c20 0 36 -10 42 -28
l67 -193l121 193v-1c13 21 32 29 50 29c24 0 44 -24 41 -49zM432 666c0 -29 -26 -51 -54 -51h-70l-40 -285c-4 -26 -27 -46 -54 -46c-26 0 -45 21 -41 46l40 285h-70c-24 0 -41 16 -41 40c0 29 25 53 54 53h235c23 0 41 -18 41 -42z" />
    <glyph glyph-name="estimated" unicode="&#x212e;" horiz-adv-x="903" 
d="M825 317h-605c-3 0 -5 -1 -5 -4v-183c0 -8 4 -15 9 -21c57 -61 139 -99 229 -99c96 0 182 43 240 111h55c-68 -79 -176 -131 -296 -131c-206 0 -374 150 -374 336s168 336 374 336s373 -150 373 -336v-9zM689 341v184c0 9 -4 16 -10 22c-58 58 -138 95 -226 95
c-90 0 -170 -38 -228 -98c-6 -6 -10 -14 -10 -23v-180c0 -3 2 -5 5 -5h464c3 0 5 2 5 5z" />
    <glyph glyph-name="arrowleft" unicode="&#x2190;" horiz-adv-x="600" 
d="M63 316c-23 24 -24 49 0 75l175 192c16 18 28 32 58 32c32 0 68 -27 68 -62c0 -10 -1 -25 -12 -36l-107 -102h244c37 0 66 -29 66 -62c0 -34 -31 -61 -66 -61h-244l107 -102c11 -11 12 -26 12 -36c0 -35 -36 -62 -68 -62c-30 0 -42 14 -58 32z" />
    <glyph glyph-name="arrowup" unicode="&#x2191;" horiz-adv-x="669" 
d="M329 75c-36 0 -67 26 -67 60v298l-111 -98c-13 -11 -28 -11 -39 -11c-38 0 -67 34 -67 63c0 28 15 39 34 54l209 161c14 10 28 16 42 16c13 0 28 -5 42 -16l219 -168c21 -16 33 -26 33 -53c0 -39 -33 -65 -71 -65c-10 0 -24 0 -37 11l-121 106v-298
c0 -32 -29 -60 -66 -60z" />
    <glyph glyph-name="arrowright" unicode="&#x2192;" horiz-adv-x="600" 
d="M531 316l-175 -192c-16 -18 -28 -32 -58 -32c-32 0 -68 27 -68 62c0 10 1 25 12 36l107 102h-244c-35 0 -66 27 -66 61c0 33 29 62 66 62h244l-107 102c-11 11 -12 26 -12 36c0 35 36 62 68 62c30 0 42 -14 58 -32l175 -192c24 -26 23 -51 0 -75z" />
    <glyph glyph-name="arrowdown" unicode="&#x2193;" horiz-adv-x="669" 
d="M329 618c37 0 66 -28 66 -60v-298l121 106c13 11 27 11 37 11c38 0 71 -26 71 -65c0 -27 -12 -37 -33 -53l-219 -168c-14 -11 -29 -16 -42 -16c-14 0 -28 6 -42 16l-209 161c-19 15 -34 26 -34 54c0 29 29 63 67 63c11 0 26 0 39 -11l111 -98v298c0 34 31 60 67 60z" />
    <glyph glyph-name="uni2196" unicode="&#x2196;" horiz-adv-x="569" 
d="M477 149c-26 -26 -66 -26 -89 -4l-210 211l-11 -161c-1 -17 -11 -26 -18 -34c-27 -26 -69 -31 -97 -4c-19 19 -17 35 -14 61l36 274c2 17 10 31 19 41c10 10 24 15 41 18l261 34c24 3 43 6 63 -14c20 -21 24 -65 -3 -92c-8 -8 -19 -18 -36 -20l-147 -9l210 -211
c24 -24 21 -64 -5 -90z" />
    <glyph glyph-name="uni2197" unicode="&#x2197;" horiz-adv-x="573" 
d="M72 149c-26 26 -29 66 -5 90l210 211l-147 9c-17 2 -28 12 -36 20c-27 27 -23 71 -3 92c20 20 39 17 63 14l261 -34c17 -3 31 -8 41 -18c9 -10 17 -24 19 -41l36 -274c3 -26 3 -42 -14 -61c-28 -27 -70 -22 -97 4c-7 8 -18 17 -18 34l-11 161l-210 -211
c-23 -22 -63 -22 -89 4z" />
    <glyph glyph-name="uni2198" unicode="&#x2198;" horiz-adv-x="569" 
d="M90 540c26 26 66 26 89 4l210 -211l11 161c1 17 11 26 18 34c27 26 69 31 97 4c19 -19 17 -35 14 -61l-36 -274c-2 -17 -10 -31 -19 -41c-10 -10 -24 -15 -41 -18l-261 -34c-24 -3 -43 -6 -63 14c-20 21 -24 65 3 92c8 8 19 18 36 20l147 9l-210 211c-24 24 -21 64 5 90z
" />
    <glyph glyph-name="uni2199" unicode="&#x2199;" horiz-adv-x="572" 
d="M495 540c26 -26 29 -66 5 -90l-210 -211l147 -9c17 -2 28 -12 36 -20c27 -27 23 -71 3 -92c-20 -20 -39 -17 -63 -14l-261 34c-17 3 -31 8 -41 18c-9 10 -17 24 -19 41l-36 274c-4 26 -4 42 14 61c28 27 70 22 97 -4c7 -8 18 -17 18 -34l11 -161l210 211
c23 22 63 22 89 -4z" />
    <glyph glyph-name="minus" unicode="&#x2212;" horiz-adv-x="540" 
d="M449 290h-278c-39 0 -69 28 -69 64s34 63 69 63h278c35 0 69 -27 69 -63s-30 -64 -69 -64z" />
    <glyph glyph-name="triagup" unicode="&#x25b2;" horiz-adv-x="758" 
d="M646 0h-534c-56 0 -69 21 -44 72l275 549c25 51 47 51 72 0l275 -549c25 -51 12 -72 -44 -72z" />
    <glyph glyph-name="triagrt" unicode="&#x25ba;" horiz-adv-x="785" 
d="M55 65v547c0 56 21 69 72 44l564 -282c51 -25 51 -47 0 -72l-564 -281c-51 -25 -72 -12 -72 44z" />
    <glyph glyph-name="triagdn" unicode="&#x25bc;" horiz-adv-x="758" 
d="M112 678h534c56 0 69 -21 44 -72l-275 -549c-25 -51 -47 -51 -72 0l-275 549c-25 51 -12 72 44 72z" />
    <glyph glyph-name="triaglf" unicode="&#x25c4;" horiz-adv-x="785" 
d="M94 374l564 282c51 25 72 12 72 -44v-547c0 -56 -21 -69 -72 -44l-564 281c-51 25 -51 47 0 72z" />
    <glyph glyph-name="uni2639" unicode="&#x2639;" horiz-adv-x="733" 
d="M678 253c0 -168 -139 -311 -311 -311c-171 0 -312 141 -312 311c0 171 141 311 312 311s311 -141 311 -311zM633 253c0 146 -121 266 -266 266s-266 -118 -266 -266c0 -147 120 -266 266 -266c145 0 266 120 266 266zM287 317c0 -21 -18 -39 -40 -39c-21 0 -39 18 -39 39
c0 22 18 40 39 40c22 0 40 -18 40 -40zM525 317c0 -21 -17 -39 -39 -39s-40 18 -40 39c0 22 18 40 40 40s39 -18 39 -40zM253 78l-30 17c33 61 80 95 144 95c63 0 111 -33 143 -95l-30 -17c-26 45 -63 70 -113 70s-88 -24 -114 -70z" />
    <glyph glyph-name="uni263A" unicode="&#x263a;" horiz-adv-x="733" 
d="M678 253c0 -168 -139 -311 -311 -311c-171 0 -312 141 -312 311c0 171 141 311 312 311s311 -141 311 -311zM633 253c0 146 -121 266 -266 266s-266 -118 -266 -266c0 -147 120 -266 266 -266c145 0 266 120 266 266zM287 317c0 -21 -18 -39 -40 -39c-21 0 -39 18 -39 39
c0 22 18 40 39 40c22 0 40 -18 40 -40zM525 317c0 -21 -17 -39 -39 -39s-40 18 -40 39c0 22 18 40 40 40s39 -18 39 -40zM223 153l30 17c26 -46 64 -70 114 -70s87 24 113 70l30 -17c-32 -62 -80 -95 -143 -95c-64 0 -111 33 -144 95z" />
    <glyph glyph-name="uni263B" unicode="&#x263b;" horiz-adv-x="732" 
d="M677 253c0 -170 -139 -311 -311 -311c-171 0 -311 140 -311 311c0 172 141 311 311 311c171 0 311 -140 311 -311zM286 317c0 22 -17 40 -39 40s-40 -18 -40 -40c0 -21 18 -39 40 -39s39 18 39 39zM525 317c0 22 -18 40 -39 40c-22 0 -40 -18 -40 -40
c0 -21 18 -39 40 -39c21 0 39 18 39 39zM253 170l-30 -17c33 -62 79 -95 143 -95c63 0 111 33 144 95l-31 17c-25 -46 -63 -70 -113 -70c-49 0 -87 24 -113 70z" />
    <glyph glyph-name="uni2661" unicode="&#x2661;" horiz-adv-x="642" 
d="M312 393c2 -11 5 -17 9 -18c4 2 6 8 9 18c28 91 76 123 131 123c59 0 126 -37 126 -142c0 -57 -20 -80 -115 -206c-56 -74 -62 -83 -113 -164c-10 -16 -19 -29 -38 -29s-28 13 -38 29c-53 84 -55 87 -113 164c-95 126 -115 149 -115 206c0 105 68 142 125 142
s108 -37 132 -123zM317 25c1 -3 2 -5 4 -5s2 2 4 5l131 187c72 103 91 120 91 165c0 70 -46 99 -85 99c-52 0 -75 -52 -93 -94c-12 -28 -26 -49 -48 -49c-20 0 -33 16 -48 49c-20 46 -42 94 -93 94c-39 0 -85 -29 -85 -99c0 -45 19 -62 91 -165z" />
    <glyph glyph-name="uni2665" unicode="&#x2665;" horiz-adv-x="642" 
d="M312 393c7 -25 13 -23 20 0c25 87 73 123 127 123c69 0 128 -50 128 -130c0 -69 -44 -130 -105 -209c-72 -93 -72 -92 -121 -173c-9 -15 -19 -29 -39 -29s-29 13 -39 29c-51 81 -55 87 -113 164c-95 126 -115 149 -115 206c0 105 67 142 126 142c54 0 107 -36 131 -123z
" />
    <glyph glyph-name="uni266A" unicode="&#x266a;" horiz-adv-x="510" 
d="M242 189v477c188 0 245 -33 245 -190c0 -39 -8 -49 -24 -50c-16 1 -23 9 -24 25c0 68 -55 103 -135 103h-13v-408c0 -103 -46 -164 -153 -164c-70 0 -115 43 -115 109c0 68 55 121 134 121c26 0 54 -7 85 -23z" />
    <glyph glyph-name="uni266B" unicode="&#x266b;" horiz-adv-x="760" 
d="M266 145v396c0 56 23 87 76 104l236 73c53 17 76 0 76 -56v-461c0 -109 -50 -162 -150 -162c-72 0 -117 45 -117 109c0 65 56 120 135 120c28 0 35 -2 83 -21v323c0 21 -9 27 -29 21l-233 -72c-20 -6 -29 -18 -29 -39v-378c0 -109 -51 -165 -152 -165
c-70 0 -115 44 -115 109c0 68 55 121 134 121c25 0 53 -7 85 -22z" />
    <glyph glyph-name="commaaccent" unicode="&#xf6c3;" horiz-adv-x="350" 
d="M244 -96c0 -56 -78 -142 -117 -142c-8 0 -16 4 -16 15c0 22 30 34 46 64c-36 2 -62 8 -62 44c0 34 14 64 82 64c51 0 67 -20 67 -45z" />
    <glyph glyph-name="R.salt" unicode="&#xe0052;" horiz-adv-x="598" 
d="M258 392h105c45 0 102 39 102 113c0 39 -20 73 -79 73h-102zM211 55c-5 -34 -41 -64 -79 -64c-39 0 -66 30 -61 64l81 578c6 41 46 72 88 72h169c135 0 198 -91 198 -186c0 -103 -63 -155 -153 -194c54 -28 77 -77 77 -132v-25c0 -34 6 -49 24 -58c21 -10 44 -23 44 -53
c0 -40 -34 -64 -90 -64c-117 0 -122 95 -122 184c0 37 -10 87 -89 87h-58z" />
    <glyph glyph-name="uni0414.BUL" unicode="&#xe0414;" horiz-adv-x="708" 
d="M102 117h5l256 529c19 39 43 68 91 68s64 -28 72 -68l107 -529h5c39 0 65 -28 60 -64l-18 -128c-5 -36 -40 -64 -80 -64c-39 0 -65 28 -60 64l11 75h-396l-11 -75c-5 -36 -39 -64 -78 -64s-65 28 -60 64l18 128c5 36 39 64 78 64zM395 424l-141 -307h231l-54 307
c-5 29 -4 67 -4 98c-8 -31 -19 -69 -32 -98z" />
    <glyph glyph-name="uni0416.BUL" unicode="&#xe0416;" horiz-adv-x="806" 
d="M402 -9c-38 0 -66 30 -61 65l29 204l-15 20l-211 -260c-17 -21 -39 -29 -62 -29c-39 0 -59 33 -59 61c0 16 5 27 16 40l240 290l-148 225c-9 13 -12 22 -12 32c0 43 48 75 80 75c22 0 42 -14 52 -29l146 -235l28 200c5 34 41 64 79 64s66 -30 61 -64l-28 -200l211 235
c14 15 39 29 61 29c28 0 60 -26 60 -59c0 -20 -5 -29 -23 -48l-211 -225l159 -290c5 -9 7 -18 7 -24c0 -34 -33 -77 -79 -77c-23 0 -42 8 -53 29l-139 260l-20 -20l-29 -204c-5 -35 -41 -65 -79 -65z" />
    <glyph glyph-name="uni041B.BUL" unicode="&#xe041b;" horiz-adv-x="589" 
d="M439 38l-67 386c-5 29 -5 67 -5 98c-8 -31 -19 -69 -32 -98l-177 -386c-14 -29 -48 -47 -72 -47c-36 0 -64 23 -64 57c0 9 4 23 7 29l275 569c19 39 42 68 90 68s65 -28 73 -68l115 -569v-11c0 -45 -37 -75 -81 -75c-26 0 -56 19 -62 47z" />
    <glyph glyph-name="uni0432.BUL" unicode="&#xe0432;" horiz-adv-x="508" 
d="M79 183l44 314c17 125 100 201 229 201c102 0 173 -51 173 -151c0 -93 -52 -148 -118 -186c67 -27 96 -76 96 -135c0 -127 -80 -233 -244 -233c-131 0 -197 71 -180 190zM365 219c0 36 -17 76 -74 76h-59l-16 -114c-6 -46 15 -70 60 -70c61 0 89 44 89 108zM261 500
l-13 -92h55c25 0 83 34 83 116c0 38 -23 56 -55 56c-40 0 -62 -27 -70 -80z" />
    <glyph glyph-name="uni0433.BUL" unicode="&#xe0433;" horiz-adv-x="446" 
d="M458 378c0 -159 -164 -159 -239 -198c-13 -7 -26 -16 -26 -37c0 -24 23 -35 56 -35c49 0 83 22 116 22c36 0 57 -27 57 -53c0 -67 -125 -84 -191 -84c-115 0 -175 53 -175 137c0 152 148 166 230 199c26 11 35 21 35 37c0 20 -18 32 -53 32c-49 0 -70 -21 -105 -21
c-20 0 -53 7 -53 44c0 75 106 92 175 92c116 0 173 -54 173 -135z" />
    <glyph glyph-name="uni0434.BUL" unicode="&#xe0434;" horiz-adv-x="535" 
d="M352 134l30 208c4 33 -22 53 -68 53c-51 0 -79 -27 -85 -71l-20 -141c-6 -46 9 -75 58 -75c30 0 60 7 85 26zM520 342l-53 -375c-15 -107 -90 -191 -236 -191c-55 0 -158 18 -158 75c0 35 33 63 72 63c7 0 17 -1 31 -6c18 -9 35 -17 63 -17c57 0 83 28 90 76l6 43
c-32 -11 -63 -16 -100 -16c-144 0 -179 81 -164 189l20 141c15 107 98 189 240 189c135 0 202 -75 189 -171z" />
    <glyph glyph-name="uni0436.BUL" unicode="&#xe0436;" horiz-adv-x="688" 
d="M506 660l-40 -286l146 119c13 11 32 16 48 16c35 0 59 -22 59 -52c0 -23 -11 -37 -24 -49l-147 -118l126 -205c6 -10 8 -26 6 -37c-6 -34 -38 -55 -75 -55c-25 0 -42 10 -53 28l-109 183l-1 -1l-21 -148c-5 -35 -39 -62 -78 -62s-65 27 -60 62l21 148l-1 1l-159 -182
c-17 -19 -38 -29 -63 -29c-35 0 -59 19 -59 51c0 11 7 30 17 41l182 205l-111 118c-10 10 -14 22 -14 35c0 38 35 66 76 66c17 0 34 -5 44 -16l112 -119l40 286c5 35 39 62 78 62s65 -27 60 -62z" />
    <glyph glyph-name="uni0437.BUL" unicode="&#xe0437;" horiz-adv-x="448" 
d="M183 -107c61 0 95 44 95 119c0 37 -13 93 -77 99c-24 2 -67 1 -67 48c0 66 54 63 83 65c76 6 98 68 98 115c0 37 -17 59 -58 59c-25 0 -48 -7 -67 -14c-11 -4 -19 -7 -32 -7c-36 0 -59 26 -59 53c0 63 114 83 182 83c117 0 172 -64 172 -154c0 -81 -33 -146 -136 -188
c68 -31 99 -78 99 -147c0 -132 -79 -246 -245 -246c-63 0 -161 18 -161 73c0 31 33 63 75 63c13 0 21 -3 30 -7c16 -7 45 -14 68 -14z" />
    <glyph glyph-name="uni0438.BUL" unicode="&#xe0438;" horiz-adv-x="549" 
d="M393 37c-52 -33 -99 -44 -144 -44c-121 0 -175 79 -159 196l37 261c5 34 34 60 78 60s65 -26 60 -60l-37 -261c-7 -51 10 -80 54 -80c21 0 47 7 80 21c0 7 0 13 1 19l42 301c5 34 32 60 78 60s65 -26 60 -60l-45 -321c-2 -15 3 -22 14 -35c7 -8 10 -17 10 -27
c0 -44 -40 -68 -73 -68c-26 0 -44 16 -56 38z" />
    <glyph glyph-name="uni0439.BUL" unicode="&#xe0439;" horiz-adv-x="549" 
d="M393 37c-52 -33 -99 -44 -144 -44c-121 0 -175 79 -159 196l37 261c5 34 34 60 78 60s65 -26 60 -60l-37 -261c-7 -51 10 -80 54 -80c21 0 47 7 80 21c0 7 0 13 1 19l42 301c5 34 32 60 78 60s65 -26 60 -60l-45 -321c-2 -15 3 -22 14 -35c7 -8 10 -17 10 -27
c0 -44 -40 -68 -73 -68c-26 0 -44 16 -56 38zM365 645c18 0 42 10 63 31c14 14 32 23 50 23c27 0 52 -18 36 -56c-24 -58 -108 -90 -162 -90s-127 32 -136 90c-6 38 25 56 52 56c17 0 32 -8 42 -22c15 -21 37 -32 55 -32z" />
    <glyph glyph-name="uni043A.BUL" unicode="&#xe043a;" horiz-adv-x="487" 
d="M250 343l159 149c13 12 34 17 50 17c35 0 59 -22 59 -52c0 -19 -8 -35 -25 -49h1l-140 -129l119 -194c6 -10 8 -26 6 -37c-6 -34 -39 -55 -75 -55c-25 0 -42 10 -53 28l-109 183l-12 -10l-20 -139c-5 -35 -39 -62 -78 -62s-65 27 -60 62l85 605c5 35 39 62 78 62
s65 -27 60 -62z" />
    <glyph glyph-name="uni043B.BUL" unicode="&#xe043b;" horiz-adv-x="470" 
d="M232 204l-79 -168c-12 -26 -43 -43 -70 -43c-33 0 -60 21 -60 53c0 12 2 17 5 24l192 382c21 41 45 59 89 59c42 0 60 -18 70 -61l84 -379c1 -3 1 -7 1 -9c0 -41 -39 -68 -78 -68c-27 0 -53 17 -59 43l-28 167c-9 54 -7 110 -10 165c-19 -55 -32 -111 -57 -165z" />
    <glyph glyph-name="uni043F.BUL" unicode="&#xe043f;" horiz-adv-x="549" 
d="M361 111l28 205c7 50 -13 81 -53 81c-21 0 -47 -7 -80 -21c0 -7 0 -13 -1 -19l-42 -302c-5 -34 -32 -61 -78 -61s-65 27 -60 61l42 303c5 33 1 36 -2 42c-9 15 -12 23 -12 33c0 36 35 64 76 64c21 0 37 -11 49 -29c49 30 98 43 138 43c126 0 178 -78 161 -195l-27 -193
c-3 -21 -2 -26 10 -41c7 -9 13 -15 13 -29c0 -39 -31 -60 -83 -60c-40 0 -94 13 -79 118z" />
    <glyph glyph-name="uni0442.BUL" unicode="&#xe0442;" horiz-adv-x="818" 
d="M631 111l31 221c5 35 -12 63 -49 63c-26 0 -55 -13 -85 -35c-1 -9 -1 -17 -2 -26l-39 -279c-5 -34 -32 -61 -78 -61s-65 27 -60 61l36 259c7 46 4 81 -40 81c-25 0 -57 -11 -89 -26c0 -3 0 -8 -1 -11l-42 -303c-5 -34 -32 -61 -78 -61s-65 27 -60 61l42 303
c5 33 1 36 -2 42c-9 15 -12 24 -12 33c0 38 37 64 74 64c23 0 38 -11 49 -28c49 28 98 44 141 44c42 0 78 -15 110 -44c58 29 103 44 157 44c118 0 181 -72 166 -179l-30 -211c-3 -21 -2 -26 10 -41c7 -9 13 -15 13 -29c0 -39 -31 -60 -83 -60c-40 0 -94 13 -79 118z" />
    <glyph glyph-name="uni0446.BUL" unicode="&#xe0446;" horiz-adv-x="587" 
d="M481 -149c-39 0 -65 27 -60 62l13 94c-12 4 -21 11 -30 18c-60 -23 -111 -32 -152 -32c-126 0 -178 79 -162 196l37 261c5 34 34 60 78 60s65 -26 60 -60l-37 -261c-7 -51 11 -80 51 -80c23 0 52 7 85 21c-1 13 0 26 2 41l39 279c5 34 32 60 78 60s65 -26 60 -60
l-39 -279c-6 -41 -1 -62 13 -62c39 0 65 -27 60 -62l-18 -134c-5 -35 -39 -62 -78 -62z" />
    <glyph glyph-name="uni0448.BUL" unicode="&#xe0448;" horiz-adv-x="812" 
d="M264 450l-39 -279c-5 -35 11 -63 52 -63c21 0 51 14 82 35c-1 8 1 17 2 26l39 281c5 34 34 60 78 60s65 -26 60 -60l-36 -261c-7 -47 -4 -81 41 -81c23 0 55 11 87 26l44 316c5 34 34 60 78 60s65 -26 60 -60l-45 -321c-2 -16 2 -24 12 -35c8 -8 12 -19 12 -30
c0 -39 -40 -65 -74 -65c-25 0 -43 14 -55 33c-50 -25 -98 -42 -142 -42c-42 0 -78 15 -110 43c-56 -27 -107 -43 -151 -43c-127 0 -187 73 -172 179l39 281c5 34 34 60 78 60s65 -26 60 -60z" />
    <glyph glyph-name="uni0449.BUL" unicode="&#xe0449;" horiz-adv-x="852" 
d="M750 -149c-39 0 -65 27 -60 62l13 94c-11 4 -20 10 -29 18c-45 -18 -100 -35 -154 -35c-42 0 -78 15 -110 43c-56 -27 -107 -43 -151 -43c-127 0 -187 73 -172 179l39 281c5 34 34 60 78 60s65 -26 60 -60l-39 -279c-5 -35 11 -63 52 -63c21 0 50 12 82 31
c-1 9 1 20 2 30l39 281c5 34 34 60 78 60s65 -26 60 -60l-36 -261c-7 -47 -4 -81 41 -81c25 0 58 11 90 27c0 12 0 23 2 36l39 279c5 34 32 60 78 60s65 -26 60 -60l-39 -279c-6 -41 -1 -62 13 -62c39 0 66 -27 61 -62l-19 -134c-5 -35 -39 -62 -78 -62z" />
    <glyph glyph-name="uni044A.BUL" unicode="&#xe044a;" horiz-adv-x="581" 
d="M344 -7c-140 0 -199 81 -184 186l29 210h-56c-34 0 -58 22 -58 52c0 36 37 64 75 64h125c39 0 65 -29 60 -62l-16 -111c23 7 49 11 74 11c134 0 200 -78 185 -178c-15 -98 -102 -172 -234 -172zM370 225c-42 0 -74 -22 -74 -62c0 -32 22 -52 64 -52c51 0 81 26 81 66
c0 30 -22 48 -71 48z" />
    <glyph glyph-name="uni044C.BUL" unicode="&#xe044c;" horiz-adv-x="512" 
d="M264 449l-17 -117c23 7 49 11 74 11c134 0 200 -78 185 -178c-15 -98 -102 -172 -234 -172c-140 0 -199 81 -184 186l38 270c4 33 38 61 77 61s65 -28 61 -61zM298 225c-42 0 -74 -22 -74 -62c0 -32 22 -52 64 -52c51 0 81 26 81 66c0 30 -23 48 -71 48z" />
    <glyph glyph-name="uni044E.BUL" unicode="&#xe044e;" horiz-adv-x="750" 
d="M295 665l-49 -349h89l2 11c18 105 98 186 233 186s196 -81 181 -186l-21 -148c-15 -105 -98 -186 -233 -186s-197 81 -181 186l4 25h-90l-21 -149c-5 -35 -38 -62 -77 -62s-65 27 -60 62l86 610c4 32 37 62 76 62s66 -27 61 -62zM514 111c45 0 72 26 78 68l21 149
c6 41 -14 67 -59 67s-73 -26 -79 -67l-21 -149c-6 -42 15 -68 60 -68z" />
    <glyph glyph-name="uni0431.SRB" unicode="&#xf0431;" horiz-adv-x="504" 
d="M77 298c8 59 44 112 107 147c-36 27 -56 56 -56 98c0 94 74 147 218 155c33 2 65 4 106 30c8 5 22 15 43 15c31 0 53 -24 53 -54c0 -72 -115 -98 -215 -107c-24 -2 -69 -8 -69 -52c0 -37 42 -44 85 -51c130 -21 175 -92 162 -181l-17 -119c-15 -105 -101 -186 -243 -186
s-206 81 -191 186zM268 111c52 0 82 26 88 68l17 120c6 41 -18 67 -70 67s-82 -26 -88 -67l-17 -120c-6 -42 18 -68 70 -68z" />
    <glyph glyph-name="uni0434.tri" unicode="&#xf0434;" horiz-adv-x="578" 
d="M97 113h5l172 339c21 41 44 59 88 59c42 0 61 -18 71 -61l75 -337h3c39 0 66 -27 61 -62l-19 -134c-5 -35 -39 -62 -78 -62s-65 27 -60 62l12 83h-276l-12 -83c-5 -35 -39 -62 -78 -62s-65 27 -60 62l19 134c5 35 38 62 77 62zM285 204l-42 -91h124l-15 91
c-9 54 -6 110 -10 165c-18 -55 -32 -111 -57 -165z" />
    <glyph glyph-name="parenright.caps" horiz-adv-x="315" 
d="M175 413c0 86 -16 183 -52 256c-4 9 -9 19 -9 32c0 32 25 69 77 69c24 0 44 -9 55 -29c48 -89 68 -211 68 -316c0 -168 -54 -346 -183 -503c-16 -20 -39 -29 -63 -29c-42 0 -60 27 -60 56c0 20 10 32 20 46c102 134 147 275 147 418z" />
    <glyph glyph-name="parenleft.caps" horiz-adv-x="316" 
d="M234 251c0 -86 17 -182 52 -256c5 -10 9 -20 9 -33c0 -32 -26 -69 -78 -69c-24 0 -43 10 -54 29c-49 89 -69 212 -69 317c0 168 56 347 184 502c17 20 39 29 63 29c42 0 59 -27 59 -56c0 -20 -10 -33 -19 -45c-103 -133 -147 -275 -147 -418z" />
    <glyph glyph-name="typography.com.ua" horiz-adv-x="885" 
d="M840 471c-5 -32 -26 -32 -42 -30c-8 1 -21 2 -28 2c-34 0 -63 -24 -70 -64l-27 -155h83c21 0 37 -17 37 -37c0 -21 -16 -38 -37 -38h-97l-37 -213c-18 -100 -52 -168 -145 -168c-46 0 -81 1 -81 36c0 23 16 37 39 37c6 0 19 -1 29 -1c51 0 68 29 79 90l38 219h-128v-119
c0 -22 -17 -39 -39 -39s-39 17 -39 39v119h-250c-24 0 -41 20 -41 43c0 3 3 17 8 27l192 481c6 14 20 23 34 23c17 0 39 -15 39 -43c0 -2 0 -5 -2 -10l-179 -446h199v251c0 22 17 39 39 39c21 0 39 -17 39 -39v-251h141l30 167c13 75 68 123 159 123c39 0 62 -9 57 -43z" />
    <glyph glyph-name="zero.numerator" 
d="M227 652c-33 0 -49 -22 -54 -54l-19 -141c-5 -29 9 -48 39 -48s48 19 53 48l19 141c5 32 -5 54 -38 54zM236 713c80 0 107 -53 98 -119l-19 -137c-9 -61 -57 -110 -131 -110c-75 0 -109 49 -100 110l19 137c9 66 52 119 133 119z" />
    <glyph glyph-name="one.numerator" 
d="M183 380l34 243l-42 -24c-11 -6 -20 -11 -32 -11c-13 0 -28 7 -28 25c0 14 8 26 20 32l107 58c8 4 13 6 20 6c21 0 35 -15 32 -34l-41 -295c-3 -17 -20 -32 -39 -32s-33 15 -31 32z" />
    <glyph glyph-name="two.numerator" 
d="M306 387c0 -19 -18 -35 -39 -35h-164c-19 0 -32 12 -32 29c0 5 2 17 8 27c26 44 67 76 107 108c33 27 81 57 81 97c0 22 -13 39 -41 39c-17 0 -30 -3 -43 -8c-11 -4 -23 -13 -38 -13c-16 0 -30 11 -30 27c0 39 78 55 119 55c67 0 103 -39 103 -89c0 -47 -23 -78 -54 -107
c-38 -35 -86 -66 -119 -103h111c19 0 31 -11 31 -27z" />
    <glyph glyph-name="three.numerator" 
d="M321 648l-79 -81c45 -8 73 -40 73 -87c0 -57 -47 -132 -142 -132c-22 0 -97 6 -97 44c0 18 17 35 38 35s31 -19 65 -19c49 0 66 36 66 63c0 28 -20 39 -52 39c-13 0 -13 -5 -25 -5c-17 0 -29 12 -29 29c0 5 1 11 6 16l87 90h-80c-18 0 -31 12 -31 28c0 20 18 37 40 37
h139c20 0 32 -13 32 -30c0 -10 -4 -20 -11 -27z" />
    <glyph glyph-name="four.numerator" 
d="M286 420l-6 -41c-3 -18 -20 -31 -40 -31c-19 0 -32 13 -29 31l6 41h-110c-20 0 -32 14 -32 30c0 5 4 15 8 22l127 221c7 12 21 20 34 20c16 0 30 -13 30 -30c0 -6 -1 -9 -4 -14c-38 -67 -69 -119 -108 -186h63l11 76c2 18 20 32 39 32s32 -14 30 -32l-11 -76h6
c18 0 30 -13 30 -28c0 -19 -18 -35 -38 -35h-6z" />
    <glyph glyph-name="five.numerator" 
d="M316 485c0 -62 -43 -137 -134 -137c-24 0 -106 6 -106 45c0 17 17 34 38 34c20 0 31 -19 64 -19c53 0 67 38 67 69c0 30 -17 44 -41 44c-11 0 -19 -4 -28 -4c0 0 -22 -18 -38 -18c-20 0 -34 14 -30 34l24 138c4 21 24 34 43 34h120c16 0 34 -8 34 -28
c0 -25 -24 -34 -43 -34h-93l-12 -65c10 3 21 4 32 4c63 0 103 -36 103 -97z" />
    <glyph glyph-name="six.numerator" 
d="M238 648c-48 1 -61 -35 -71 -82c20 11 37 15 56 15c55 0 99 -33 99 -97c0 -71 -48 -137 -138 -137c-75 0 -100 53 -100 127c0 137 50 235 157 235c20 0 86 -4 86 -38c0 -17 -15 -32 -36 -32c-16 0 -30 9 -53 9zM156 501l-1 -6c-6 -44 -3 -84 40 -84s57 34 57 65
c0 29 -16 42 -43 42c-20 0 -40 -6 -53 -17z" />
    <glyph glyph-name="seven.numerator" 
d="M345 675c0 -6 -2 -13 -5 -18l-166 -289c-5 -9 -15 -20 -34 -20c-17 0 -32 9 -32 26c0 5 2 11 5 17l144 250h-113c-16 0 -29 12 -29 29c0 18 18 35 38 35h160c18 0 32 -13 32 -30z" />
    <glyph glyph-name="eight.numerator" 
d="M325 467c0 -68 -60 -120 -141 -120c-67 0 -112 40 -112 94c0 45 27 75 62 97c-18 14 -28 36 -28 61c0 68 62 109 128 109c59 0 100 -35 100 -84c0 -34 -17 -61 -48 -83c23 -17 39 -41 39 -74zM266 615c0 20 -17 33 -40 33c-27 0 -50 -17 -50 -41c0 -21 18 -34 40 -39
c27 6 50 24 50 47zM256 460c0 25 -23 41 -51 47c-35 -6 -63 -27 -63 -57c0 -24 21 -42 51 -42c34 0 63 24 63 52z" />
    <glyph glyph-name="nine.numerator" 
d="M180 408c47 -1 61 35 72 82c-21 -11 -38 -15 -56 -15c-56 0 -100 33 -100 97c0 71 48 137 138 137c74 0 100 -53 100 -127c0 -136 -49 -235 -156 -235c-21 0 -87 4 -87 38c0 17 14 32 35 32c17 0 30 -9 54 -9zM262 555l1 6c6 44 2 84 -41 84c-41 0 -55 -34 -55 -65
c0 -29 15 -42 42 -42c19 0 40 6 53 17z" />
    <glyph glyph-name="parenleft.numerator" horiz-adv-x="158" 
d="M167 484c0 -43 9 -93 26 -130c2 -5 4 -11 4 -17c0 -16 -13 -36 -39 -36c-12 0 -22 5 -27 15c-24 46 -34 109 -34 162c0 88 29 179 93 260c9 11 20 16 32 16c21 0 30 -14 30 -30c0 -10 -6 -17 -11 -23c-51 -69 -74 -143 -74 -217z" />
    <glyph glyph-name="parenright.numerator" horiz-adv-x="157" 
d="M138 570c0 44 -8 94 -25 131c-2 5 -5 11 -5 17c0 16 14 36 39 36c12 0 22 -5 28 -16c23 -46 34 -108 34 -162c0 -88 -29 -180 -93 -260c-8 -10 -20 -15 -32 -15c-21 0 -30 15 -30 29c0 11 5 18 10 24c51 68 74 142 74 216z" />
    <glyph glyph-name="hyphen.numerator" horiz-adv-x="219" 
d="M276 505c0 -19 -18 -34 -38 -34h-125c-17 0 -29 11 -29 27c0 18 17 34 38 34h125c16 0 29 -12 29 -27z" />
    <glyph glyph-name="comma.numerator" horiz-adv-x="135" 
d="M84 304c4 17 16 23 23 45c-17 4 -28 17 -28 33c0 23 23 43 48 43c20 0 36 -14 36 -36c0 -27 -34 -107 -61 -107c-8 0 -23 3 -18 22z" />
    </font>
</defs>
</svg>
