<?xml version="1.0" standalone="no"?>
<!DOCTYPE svg PUBLIC "-//W3C//DTD SVG 1.1//EN" "http://www.w3.org/Graphics/SVG/1.1/DTD/svg11.dtd" >
<svg xmlns="http://www.w3.org/2000/svg" xmlns:xlink="http://www.w3.org/1999/xlink" version="1.1">
<metadata>
Created by FontForge 20190801 at Fri Nov 28 12:08:47 2014
 By Jimmy Wärting
(c) 2014 Sergiy S. Tkachenko / 4th february
(c) 2014 FirstSiteGuide.com
http://creativecommons.org/licenses/by-nd/4.0/
</metadata>
<defs>
<font id="BloggerSans-Italic" horiz-adv-x="250" >
  <font-face 
    font-family="Blogger Sans"
    font-weight="400"
    font-style="italic"
    font-stretch="squinchy"
    units-per-em="1000"
    panose-1="2 0 5 6 3 0 0 2 0 4"
    ascent="760"
    descent="-240"
    x-height="505"
    cap-height="706"
    bbox="-57.2565 -240 870 943"
    underline-thickness="20"
    underline-position="-143"
    stemh="75"
    stemv="78"
    unicode-range="U+0020-F0434"
  />
<missing-glyph horiz-adv-x="760" 
 />
    <glyph glyph-name="uni0457_uni0457" unicode="&#x457;&#x457;" horiz-adv-x="480" 
d="M379 625c0 -33 -28 -60 -61 -60c-26 0 -45 22 -45 48c0 31 30 58 60 58c27 0 46 -20 46 -46zM168 625c0 -33 -28 -60 -61 -60c-26 0 -45 22 -45 48c0 31 28 58 60 58c27 0 46 -20 46 -46zM96 94l53 378c3 21 22 39 44 39s37 -18 34 -39l-53 -378c-3 -22 -3 -35 7 -47
c2 -3 5 -9 5 -16c0 -21 -20 -39 -42 -39c-25 0 -61 12 -48 102zM591 625c0 -33 -29 -60 -61 -60c-27 0 -46 22 -46 48c0 31 30 58 61 58c27 0 46 -20 46 -46zM331 94l53 378c3 21 22 39 44 39s37 -18 34 -39l-53 -378c-3 -22 -3 -35 7 -47c2 -3 5 -9 5 -16
c0 -21 -20 -39 -42 -39c-25 0 -61 12 -48 102z" />
    <glyph glyph-name="ff" unicode="ff" horiz-adv-x="598" 
d="M318 -177l100 714c18 127 101 184 202 188c15 1 85 1 85 -41c0 -25 -22 -41 -44 -41c-17 0 -32 7 -60 7c-59 0 -96 -48 -104 -105l-9 -62h105c18 0 31 -14 31 -32c0 -24 -21 -42 -42 -42h-104l-82 -586c-3 -21 -18 -38 -44 -38s-37 17 -34 38zM49 -177l100 714
c18 127 101 184 202 188c15 1 85 1 85 -41c0 -25 -22 -41 -44 -41c-17 0 -32 7 -60 7c-59 0 -96 -48 -104 -105l-9 -62h105c18 0 31 -14 31 -32c0 -24 -21 -42 -42 -42h-104l-82 -586c-3 -21 -18 -38 -44 -38s-37 17 -34 38z" />
    <glyph glyph-name="fi" unicode="fi" horiz-adv-x="517" 
d="M49 -177l100 714c18 127 93 184 182 188c15 1 85 1 85 -41c0 -25 -22 -41 -44 -41c-17 0 -32 7 -60 7c-45 0 -76 -48 -84 -105l-9 -62h105c18 0 31 -14 31 -32c0 -24 -20 -42 -42 -42h-104l-82 -586c-3 -21 -19 -38 -44 -38s-37 17 -34 38zM544 674
c0 -29 -26 -54 -55 -54c-25 0 -42 19 -42 43c0 29 26 53 55 53c25 0 42 -18 42 -42zM376 94l53 378c3 21 23 39 45 39s36 -18 33 -39l-53 -378c-3 -22 -3 -35 7 -47c2 -3 5 -9 5 -16c0 -21 -19 -39 -41 -39c-25 0 -62 12 -49 102z" />
    <glyph glyph-name="fl" unicode="fl" horiz-adv-x="517" 
d="M49 -177l100 714c18 127 93 184 182 188c15 1 85 1 85 -41c0 -25 -22 -41 -44 -41c-17 0 -32 7 -60 7c-45 0 -76 -48 -84 -105l-9 -62h105c18 0 31 -14 31 -32c0 -24 -20 -42 -42 -42h-104l-82 -586c-3 -21 -19 -38 -44 -38s-37 17 -34 38zM376 94l83 592
c3 21 23 39 45 39s36 -17 33 -39l-83 -592c-3 -22 -2 -34 7 -47c2 -3 5 -10 5 -17c0 -20 -19 -38 -41 -38c-25 0 -62 12 -49 102z" />
    <glyph glyph-name="ffi" unicode="ffi" horiz-adv-x="754" 
d="M307 -177l100 714c18 127 93 184 182 188c12 1 65 1 65 -39c0 -27 -22 -43 -44 -43c-11 0 -22 7 -40 7c-45 0 -76 -48 -84 -105l-9 -62h105c18 0 31 -14 31 -32c0 -24 -20 -42 -42 -42h-104l-82 -586c-3 -21 -19 -38 -44 -38s-37 17 -34 38zM49 -177l100 714
c18 127 101 184 202 188c15 1 85 1 85 -41c0 -25 -22 -41 -44 -41c-17 0 -32 7 -60 7c-59 0 -96 -48 -104 -105l-9 -62h105c17 0 31 -14 31 -33c0 -23 -21 -41 -42 -41h-104l-82 -586c-3 -21 -18 -38 -44 -38s-37 17 -34 38zM782 674c0 -29 -26 -54 -55 -54
c-25 0 -42 19 -42 43c0 29 26 53 55 53c25 0 42 -18 42 -42zM614 94l53 378c3 21 23 39 45 39s36 -18 33 -39l-53 -378c-3 -22 -3 -35 7 -47c2 -3 5 -9 5 -16c0 -21 -19 -39 -41 -39c-25 0 -62 12 -49 102z" />
    <glyph glyph-name="ffl" unicode="ffl" horiz-adv-x="785" 
d="M317 -177l100 714c18 127 93 184 182 188c15 1 85 1 85 -41c0 -25 -22 -41 -44 -41c-17 0 -32 7 -60 7c-45 0 -76 -48 -84 -105l-9 -62h105c18 0 31 -14 31 -32c0 -24 -20 -42 -42 -42h-104l-82 -586c-3 -21 -19 -38 -44 -38s-37 17 -34 38zM644 94l83 592
c3 21 23 39 45 39s36 -17 33 -39l-83 -592c-3 -22 -3 -35 7 -47c2 -3 5 -9 5 -16c0 -21 -19 -39 -41 -39c-25 0 -62 12 -49 102zM49 -177l100 714c18 127 101 184 202 188c15 1 85 1 85 -41c0 -25 -22 -41 -44 -41c-17 0 -32 7 -60 7c-59 0 -96 -48 -104 -105l-9 -62h105
c18 0 31 -14 31 -32c0 -24 -21 -42 -42 -42h-104l-82 -586c-3 -21 -18 -38 -44 -38s-37 17 -34 38z" />
    <glyph glyph-name=".notdef" horiz-adv-x="760" 
 />
    <glyph glyph-name="space" unicode=" " horiz-adv-x="300" 
 />
    <glyph glyph-name="exclam" unicode="!" horiz-adv-x="227" 
d="M111 202l57 473c3 21 24 40 46 40s37 -19 34 -40l-76 -473c-3 -17 -19 -32 -35 -32c-17 0 -28 15 -26 32zM175 51c0 -33 -29 -61 -61 -61c-27 0 -47 22 -47 49c0 32 29 59 62 59c27 0 46 -21 46 -47z" />
    <glyph glyph-name="quotedbl" unicode="&#x22;" horiz-adv-x="342" 
d="M124 485l64 243c5 19 28 33 50 30c23 -4 36 -23 28 -42l-89 -241c-6 -15 -22 -26 -36 -24c-15 3 -21 19 -17 34zM254 485l64 243c5 19 28 33 50 30c23 -4 36 -23 28 -42l-89 -241c-6 -15 -22 -26 -36 -24c-15 3 -21 19 -17 34z" />
    <glyph glyph-name="numbersign" unicode="#" horiz-adv-x="541" 
d="M179 483h60l74 201c7 18 23 28 41 28c15 -2 28 -15 28 -32c0 -7 -2 -10 -3 -13l-67 -184h107l74 201c7 18 23 28 41 28c16 -2 28 -15 28 -32c0 -7 -2 -10 -3 -13l-67 -184h35c18 0 34 -15 34 -35c0 -24 -21 -43 -45 -43h-52l-37 -102h45c18 0 34 -15 34 -35
c0 -24 -21 -43 -45 -43h-62l-73 -203c-8 -19 -24 -29 -42 -29c-18 2 -31 18 -28 38l3 9l67 185h-107l-73 -203c-8 -19 -24 -29 -42 -29c-17 2 -31 18 -28 38l3 9l67 185h-33c-20 0 -34 15 -34 34c0 25 23 44 45 44h50l37 102h-43c-20 0 -34 15 -34 34c0 25 24 44 45 44z
M284 405l-37 -102h107l37 102h-107z" />
    <glyph glyph-name="dollar" unicode="$" horiz-adv-x="500" 
d="M221 -28l7 48c-66 2 -166 21 -166 70c0 21 20 43 43 43c26 0 58 -32 134 -35l32 228c-76 26 -152 58 -152 157c0 117 80 191 202 201l7 49c2 14 16 26 30 26s24 -12 22 -26l-7 -49c56 -4 137 -18 137 -63c0 -21 -18 -42 -45 -42c-29 0 -47 22 -103 27l-30 -215
c75 -27 152 -59 152 -158c0 -120 -88 -195 -204 -211l-7 -50c-2 -14 -15 -26 -29 -26s-25 12 -23 26zM398 218c0 46 -25 66 -46 76c-10 5 -20 10 -32 14l-29 -207c70 11 107 53 107 117zM251 423c9 -5 20 -10 31 -15l28 197c-56 -8 -106 -35 -106 -106c0 -47 28 -66 47 -76z
" />
    <glyph glyph-name="percent" unicode="%" horiz-adv-x="703" 
d="M252 396c-80 0 -121 58 -121 134c0 101 61 186 166 186c81 0 121 -58 121 -134c0 -101 -62 -186 -166 -186zM506 -10c-81 0 -121 58 -121 134c0 101 61 186 166 186c80 0 120 -58 120 -134c0 -101 -61 -186 -165 -186zM645 664l-428 -647c-11 -17 -29 -23 -45 -18
c-17 6 -24 26 -17 45l6 8l427 646c11 16 30 22 46 17c12 -4 19 -18 19 -32c0 -13 -5 -17 -8 -19zM261 458c62 0 89 51 89 122c0 46 -20 74 -62 74c-61 0 -89 -49 -89 -120c0 -48 20 -76 62 -76zM514 52c62 0 89 51 89 122c0 46 -19 74 -61 74c-61 0 -89 -49 -89 -120
c0 -48 19 -76 61 -76z" />
    <glyph glyph-name="ampersand" unicode="&#x26;" horiz-adv-x="642" 
d="M599 30c-3 -21 -22 -40 -44 -40c-16 0 -23 8 -32 21l-53 76c-57 -51 -127 -97 -218 -97c-112 0 -182 71 -182 167c0 121 95 188 182 236c-36 46 -61 96 -61 146c0 107 97 174 194 174c84 0 145 -59 145 -120c0 -29 -24 -48 -45 -48c-18 0 -29 13 -31 30
c-5 33 -31 67 -76 67c-54 0 -108 -38 -108 -95c0 -41 33 -87 61 -125l155 -213c29 37 54 78 76 116c14 24 23 25 39 25c17 0 32 -15 32 -34c0 -39 -60 -117 -105 -169l65 -93c5 -7 7 -15 6 -24zM429 146l-139 190c-68 -35 -141 -82 -141 -164c0 -59 40 -110 107 -110
c69 0 123 36 173 84z" />
    <glyph glyph-name="quotesingle" unicode="'" horiz-adv-x="222" 
d="M124 485l64 243c5 19 28 33 50 30c23 -4 36 -23 28 -42l-89 -241c-6 -15 -22 -26 -36 -24c-15 3 -21 19 -17 34z" />
    <glyph glyph-name="parenleft" unicode="(" horiz-adv-x="276" 
d="M175 221c-19 -136 -9 -273 41 -392c3 -8 6 -16 6 -24c0 -20 -15 -45 -44 -45c-13 0 -24 6 -30 19c-62 132 -73 292 -52 442s77 310 176 442c10 13 23 19 36 19c23 0 33 -17 33 -36c0 -13 -8 -23 -15 -33c-84 -119 -132 -256 -151 -392z" />
    <glyph glyph-name="parenright" unicode=")" horiz-adv-x="275" 
d="M162 221c20 136 10 273 -40 392c-3 8 -7 16 -7 24c0 20 15 45 44 45c13 0 25 -6 31 -19c62 -132 73 -292 51 -442c-21 -150 -77 -310 -176 -442c-10 -13 -22 -19 -35 -19c-23 0 -33 17 -33 36c0 13 7 23 14 33c84 119 132 256 151 392z" />
    <glyph glyph-name="asterisk" unicode="*" horiz-adv-x="495" 
d="M437 595c8 -22 -8 -39 -26 -45l-116 -32l75 -95c12 -15 15 -37 -6 -51c-20 -15 -40 -5 -50 9l-67 103c-22 -32 -45 -71 -67 -103c-11 -14 -30 -22 -50 -9c-19 13 -17 36 -6 51l76 95l-117 32c-18 6 -33 23 -26 45c8 24 29 28 47 22c38 -14 76 -31 114 -44l-6 122
c-1 18 10 37 35 37s36 -19 35 -37l-6 -122c38 13 76 30 114 44c18 6 39 2 47 -22z" />
    <glyph glyph-name="plus" unicode="+" horiz-adv-x="500" 
d="M251 145v170h-160c-22 0 -39 17 -39 39s19 39 39 39h160v170c0 20 17 39 39 39s39 -17 39 -39v-170h160c20 0 39 -17 39 -39s-17 -39 -39 -39h-160v-170c0 -22 -17 -39 -39 -39s-39 19 -39 39z" />
    <glyph glyph-name="comma" unicode="," horiz-adv-x="230" 
d="M174 51c0 -60 -70 -170 -99 -170c-9 0 -17 3 -17 14c0 33 31 49 50 95c-25 3 -42 23 -42 48c0 33 30 60 62 60c27 0 46 -21 46 -47z" />
    <glyph glyph-name="hyphen" unicode="-" horiz-adv-x="399" 
d="M400 295c0 -20 -16 -36 -36 -36h-249c-21 0 -37 16 -37 36s16 37 37 37h249c20 0 36 -17 36 -37z" />
    <glyph glyph-name="period" unicode="." horiz-adv-x="230" 
d="M175 51c0 -33 -29 -61 -61 -61c-27 0 -47 22 -47 49c0 32 29 59 62 59c27 0 46 -21 46 -47z" />
    <glyph glyph-name="slash" unicode="/" horiz-adv-x="280" 
d="M402 707l-359 -725c-9 -18 -27 -28 -45 -25c-16 3 -26 18 -26 34c0 11 3 15 5 18l358 724c9 18 28 27 46 24c15 -3 25 -18 25 -34c0 -10 -3 -14 -4 -16z" />
    <glyph glyph-name="zero" unicode="0" horiz-adv-x="500" 
d="M342 652c-87 0 -131 -62 -143 -148l-43 -306c-11 -80 24 -134 103 -134s130 54 141 134l43 306c12 86 -14 148 -101 148zM352 725c140 0 187 -103 169 -229l-42 -298c-16 -116 -100 -208 -230 -208s-188 92 -172 208l42 298c18 126 93 229 233 229z" />
    <glyph glyph-name="one" unicode="1" horiz-adv-x="500" 
d="M276 31l82 581l-135 -79c-15 -9 -33 -20 -47 -20c-15 0 -30 14 -30 31c0 14 8 29 24 38l214 126c9 5 16 7 25 7c24 0 40 -19 37 -43l-90 -641c-3 -21 -24 -40 -46 -40s-37 19 -34 40z" />
    <glyph glyph-name="two" unicode="2" horiz-adv-x="500" 
d="M459 42c0 -23 -21 -42 -44 -42h-329c-22 0 -36 15 -36 36c0 19 6 34 12 45c72 129 210 216 310 315c38 38 75 84 75 147c0 62 -35 109 -108 109c-38 0 -68 -7 -97 -19c-27 -11 -46 -28 -64 -28s-34 13 -34 33c0 18 11 30 32 42c57 33 111 45 174 45
c115 0 177 -73 177 -166c0 -90 -41 -153 -100 -210c-95 -92 -212 -167 -277 -273h275c20 0 34 -15 34 -34z" />
    <glyph glyph-name="three" unicode="3" horiz-adv-x="500" 
d="M505 632l-199 -217c104 -3 176 -62 176 -168c0 -107 -77 -256 -238 -256c-40 0 -183 10 -183 70c0 22 20 42 43 42c7 0 14 -2 20 -6c27 -17 56 -34 108 -34c129 0 169 101 169 174c0 75 -49 107 -119 107c-18 0 -32 -2 -44 -6c-6 -2 -9 -6 -18 -6c-26 0 -40 35 -17 61
l211 233h-222c-20 0 -34 15 -34 34c0 24 21 46 45 46h279c23 0 38 -15 38 -39c0 -13 -4 -23 -15 -35z" />
    <glyph glyph-name="four" unicode="4" horiz-adv-x="500" 
d="M425 149l-16 -119c-3 -22 -23 -39 -45 -39s-36 17 -33 39l16 119h-250c-21 0 -35 17 -35 38c0 7 6 22 12 32l260 481c8 14 23 23 37 23c18 0 34 -16 34 -36c0 -8 -2 -13 -4 -17l-242 -446h198l28 196c3 22 23 39 45 39c21 0 36 -17 33 -39l-28 -196h44
c19 0 32 -15 32 -33c0 -23 -20 -42 -43 -42h-43z" />
    <glyph glyph-name="five" unicode="5" horiz-adv-x="500" 
d="M483 258c0 -119 -76 -267 -238 -267c-40 0 -184 10 -184 70c0 22 20 42 43 42c7 0 14 -2 20 -6c25 -16 55 -34 108 -34c132 0 171 102 171 185c0 81 -45 120 -108 120c-29 0 -53 -8 -76 -20c-24 -12 -38 -28 -58 -28c-22 0 -38 18 -34 43l52 299c5 28 30 44 52 44h241
c21 0 42 -9 42 -33c0 -31 -28 -42 -52 -42h-216l-38 -216c31 17 64 24 99 24c106 0 176 -68 176 -181z" />
    <glyph glyph-name="six" unicode="6" horiz-adv-x="500" 
d="M178 390c44 35 96 47 141 47c100 0 174 -62 174 -182c0 -137 -85 -265 -243 -265c-128 0 -172 101 -172 242c0 273 89 483 283 483c33 0 147 -7 147 -52c0 -19 -20 -40 -41 -40c-6 0 -13 2 -22 5c-21 7 -49 15 -81 15c-122 0 -167 -114 -186 -253zM163 305l-3 -24
c-14 -111 -6 -213 105 -213s148 96 148 178c0 78 -42 115 -107 115c-55 0 -111 -24 -143 -56z" />
    <glyph glyph-name="seven" unicode="7" horiz-adv-x="500" 
d="M544 670c0 -7 -2 -18 -7 -27l-337 -627c-8 -16 -24 -25 -40 -25c-19 0 -35 13 -35 34c0 3 2 12 6 20l316 582h-270c-19 0 -33 16 -33 35c0 24 21 44 44 44h320c21 0 36 -16 36 -36z" />
    <glyph glyph-name="eight" unicode="8" horiz-adv-x="500" 
d="M501 219c0 -129 -110 -229 -252 -229c-117 0 -196 74 -196 177c0 102 67 165 151 206c-45 30 -78 77 -78 140c0 122 107 201 224 201c100 0 173 -64 173 -156c0 -78 -46 -136 -121 -179c56 -33 99 -84 99 -160zM444 546c0 58 -43 97 -103 97c-73 0 -136 -51 -136 -123
c0 -60 48 -99 105 -110c72 15 134 65 134 136zM421 211c0 72 -60 114 -126 127c-88 -17 -162 -74 -162 -158c0 -68 52 -117 126 -117c90 0 162 66 162 148z" />
    <glyph glyph-name="nine" unicode="9" horiz-adv-x="500" 
d="M421 315c-44 -35 -96 -47 -141 -47c-99 0 -174 59 -174 182c0 135 77 265 239 265c129 0 175 -99 175 -246c0 -276 -82 -479 -282 -479c-34 0 -147 7 -147 52c0 19 20 40 41 40c6 0 13 -2 22 -5c21 -7 49 -15 81 -15c122 0 167 114 186 253zM436 400l3 24
c15 120 -7 213 -108 213c-106 0 -145 -96 -145 -178c0 -78 42 -115 108 -115c55 0 110 24 142 56z" />
    <glyph glyph-name="colon" unicode=":" horiz-adv-x="230" 
d="M175 51c0 -33 -29 -61 -61 -61c-27 0 -47 22 -47 49c0 32 29 59 62 59c27 0 46 -21 46 -47zM217 351c0 -33 -29 -61 -61 -61c-27 0 -47 22 -47 49c0 32 29 59 62 59c27 0 46 -21 46 -47z" />
    <glyph glyph-name="semicolon" unicode=";" horiz-adv-x="230" 
d="M174 51c0 -60 -70 -170 -99 -170c-9 0 -17 3 -17 14c0 33 31 49 50 95c-25 3 -42 23 -42 48c0 33 30 60 62 60c27 0 46 -21 46 -47zM217 351c0 -33 -29 -61 -61 -61c-27 0 -47 22 -47 49c0 32 29 59 62 59c27 0 46 -21 46 -47z" />
    <glyph glyph-name="less" unicode="&#x3c;" horiz-adv-x="625" 
d="M220 352l333 -180c14 -7 23 -20 23 -33c0 -27 -32 -55 -57 -41l-368 206c-18 11 -34 19 -34 42c0 34 20 41 49 55l425 204c25 12 46 -7 46 -31c0 -18 -14 -33 -33 -42z" />
    <glyph glyph-name="equal" unicode="=" horiz-adv-x="500" 
d="M131 303h318c20 0 39 -17 39 -39s-17 -39 -39 -39h-318c-22 0 -39 17 -39 39s19 39 39 39zM131 483h318c20 0 39 -17 39 -39s-17 -39 -39 -39h-318c-22 0 -39 17 -39 39s19 39 39 39z" />
    <glyph glyph-name="greater" unicode="&#x3e;" horiz-adv-x="625" 
d="M120 172l384 180l-333 180c-14 7 -23 20 -23 34c0 27 33 55 58 41l366 -205c20 -12 35 -20 35 -43c0 -34 -21 -42 -48 -55l-425 -206c-25 -12 -47 9 -47 33c0 17 15 32 33 41z" />
    <glyph glyph-name="question" unicode="?" horiz-adv-x="462" 
d="M308 249c-7 -11 -9 -26 -11 -39c-3 -21 -24 -40 -46 -40c-20 0 -35 17 -35 36c0 17 6 32 12 43c31 61 82 101 127 147c37 39 74 84 74 147c0 62 -35 109 -107 109c-38 0 -69 -7 -98 -19c-27 -11 -46 -28 -64 -28c-17 0 -33 13 -33 33c0 18 11 30 32 42
c57 33 111 45 174 45c115 0 176 -73 176 -166c0 -90 -42 -153 -100 -210c-35 -35 -78 -62 -101 -100zM288 51c0 -33 -29 -61 -61 -61c-27 0 -47 22 -47 49c0 32 29 59 62 59c26 0 46 -21 46 -47z" />
    <glyph glyph-name="at" unicode="@" horiz-adv-x="744" 
d="M514 14c-37 -15 -98 -27 -154 -27c-164 0 -257 110 -257 274c0 213 132 374 356 374c181 0 270 -119 270 -269c0 -109 -37 -208 -148 -208c-44 0 -71 16 -86 43c-43 -39 -80 -53 -118 -53c-74 0 -112 58 -112 136c0 111 64 194 176 194c90 0 114 -58 114 -142
c0 -69 4 -106 36 -106c33 0 58 34 58 124c0 120 -65 209 -199 209c-170 0 -268 -126 -268 -295c0 -124 67 -209 202 -209c71 0 104 22 130 29c19 5 42 4 45 -22c3 -28 -21 -42 -45 -52zM476 296c0 75 -5 110 -49 110c-61 0 -84 -53 -84 -119c0 -43 16 -69 51 -69
c27 0 55 13 83 37c-1 11 -1 28 -1 41z" />
    <glyph glyph-name="A" unicode="A" horiz-adv-x="549" 
d="M170 159l-62 -139c-8 -18 -28 -30 -42 -30c-21 0 -37 14 -37 35c0 7 3 17 5 20l281 617c14 30 31 53 60 53c30 0 39 -22 45 -53l108 -617c0 -1 1 -5 1 -8c0 -29 -22 -47 -48 -47c-15 0 -32 12 -35 30l-23 139h-253zM355 576l-150 -339h206z" />
    <glyph glyph-name="B" unicode="B" horiz-adv-x="542" 
d="M210 405h115c70 0 155 43 155 134c0 46 -27 88 -107 88h-132zM317 327h-118l-35 -249h122c111 0 167 58 167 138c0 72 -56 111 -136 111zM286 0h-165c-27 0 -45 22 -41 48l85 609c4 27 29 48 55 48h169c117 0 171 -76 171 -160c0 -100 -65 -147 -153 -182
c58 -19 127 -47 127 -140c0 -122 -100 -223 -248 -223z" />
    <glyph glyph-name="C" unicode="C" horiz-adv-x="482" 
d="M80 246l30 214c22 154 107 255 261 255c87 0 165 -37 165 -82c0 -21 -19 -39 -41 -39c-14 0 -20 6 -34 17c-27 20 -57 31 -96 31c-113 0 -159 -70 -175 -182l-30 -214c-16 -112 11 -182 124 -182c39 0 72 11 105 31c18 11 24 17 38 17c19 0 31 -14 31 -31
c0 -49 -95 -90 -189 -90c-154 0 -211 101 -189 255z" />
    <glyph glyph-name="D" unicode="D" horiz-adv-x="554" 
d="M545 264c-19 -137 -106 -264 -311 -264h-113c-26 0 -45 22 -41 48l85 610c4 26 29 48 55 48h113c204 0 257 -121 238 -255zM465 264l26 187c14 99 -22 177 -152 177h-98l-77 -550h98c132 0 189 83 203 186z" />
    <glyph glyph-name="E" unicode="E" horiz-adv-x="474" 
d="M448 45c0 -24 -23 -45 -47 -45h-265c-33 0 -61 11 -56 47l86 611c3 23 27 47 54 47h271c20 0 34 -16 34 -35c0 -25 -22 -43 -45 -43h-238l-33 -234h219c18 0 34 -15 34 -35c0 -24 -21 -43 -45 -43h-219l-34 -237h248c20 0 36 -15 36 -33z" />
    <glyph glyph-name="F" unicode="F" horiz-adv-x="474" 
d="M197 315l-40 -285c-3 -21 -24 -40 -46 -40s-37 19 -34 40l88 628c3 23 27 47 54 47h271c20 0 35 -16 35 -35c0 -25 -22 -43 -46 -43h-238l-33 -234h219c18 0 34 -15 34 -35c0 -24 -21 -43 -45 -43h-219z" />
    <glyph glyph-name="G" unicode="G" horiz-adv-x="520" 
d="M190 460l-30 -214c-16 -112 11 -182 124 -182c48 0 85 14 118 37l30 215h-97c-18 0 -33 15 -33 34c0 23 22 42 44 42h119c32 0 55 -14 51 -46l-34 -239c-11 -81 -124 -116 -213 -116c-154 0 -211 101 -189 255l30 214c22 154 107 255 261 255c87 0 165 -37 165 -82
c0 -21 -19 -39 -41 -39c-14 0 -20 6 -34 17c-27 20 -57 31 -96 31c-113 0 -159 -70 -175 -182z" />
    <glyph glyph-name="H" unicode="H" horiz-adv-x="580" 
d="M510 31c-3 -22 -24 -41 -46 -41c-21 0 -37 19 -34 41l40 283h-273l-40 -283c-3 -22 -24 -41 -46 -41s-37 19 -34 41l91 644c3 21 23 40 45 40s38 -19 35 -40l-40 -283h273l40 283c3 21 24 40 45 40s38 -19 35 -40z" />
    <glyph glyph-name="I" unicode="I" horiz-adv-x="227" 
d="M77 30l91 645c3 21 23 40 45 40s38 -19 35 -40l-91 -645c-3 -21 -24 -40 -46 -40s-37 19 -34 40z" />
    <glyph glyph-name="J" unicode="J" horiz-adv-x="385" 
d="M406 675l-63 -450c-20 -146 -80 -235 -235 -235c-27 0 -79 3 -79 40c0 28 25 44 41 44c11 0 29 -7 60 -7c92 0 119 61 133 158l63 450c3 22 23 40 46 40c21 0 37 -19 34 -40z" />
    <glyph glyph-name="K" unicode="K" horiz-adv-x="498" 
d="M421 9l-173 315l-58 -61l-33 -232c-3 -22 -24 -41 -46 -41s-37 19 -34 41l91 644c3 21 23 40 45 40s38 -19 35 -40l-41 -291l297 312c8 10 24 19 38 19c15 0 36 -12 30 -40c-2 -11 -7 -18 -13 -25l-252 -264l186 -334c2 -5 3 -9 3 -14c0 -17 -10 -48 -44 -48
c-15 0 -24 6 -31 19z" />
    <glyph glyph-name="L" unicode="L" horiz-adv-x="448" 
d="M444 43c0 -24 -21 -43 -44 -43h-282c-24 0 -42 20 -39 45l89 630c3 21 24 40 46 40s37 -19 34 -40l-84 -598h247c18 0 33 -15 33 -34z" />
    <glyph glyph-name="M" unicode="M" horiz-adv-x="699" 
d="M722 673l-90 -644c-3 -21 -24 -39 -45 -39c-22 0 -38 18 -35 39l68 487l-209 -344c-10 -16 -25 -24 -42 -24c-16 0 -30 8 -35 24l-113 344l-68 -487c-3 -21 -25 -39 -48 -39c-21 0 -35 18 -32 39l90 644c4 24 24 42 48 42c20 0 33 -9 40 -26l136 -418l254 419
c12 18 28 25 45 25c24 0 39 -19 36 -42z" />
    <glyph glyph-name="N" unicode="N" horiz-adv-x="600" 
d="M480 -10c-16 0 -31 9 -37 23l-214 533l-72 -515c-3 -22 -25 -41 -47 -41s-36 19 -33 41l90 640c3 25 24 44 49 44c17 0 33 -9 39 -24l213 -532l72 515c3 22 25 41 47 41s36 -19 33 -41l-89 -640c-4 -24 -25 -44 -51 -44z" />
    <glyph glyph-name="O" unicode="O" horiz-adv-x="551" 
d="M274 -10c-153 0 -214 114 -194 256l30 214c20 139 101 255 266 255s214 -116 194 -255l-30 -214c-20 -142 -113 -256 -266 -256zM365 637c-110 0 -160 -71 -175 -177l-30 -214c-15 -105 22 -178 125 -178s160 73 175 178l30 214c15 106 -15 177 -125 177z" />
    <glyph glyph-name="P" unicode="P" horiz-adv-x="530" 
d="M304 260h-115l-32 -228c-3 -22 -24 -42 -46 -42c-21 0 -37 19 -34 42l88 625c4 26 29 48 55 48h147c145 0 197 -88 197 -188c0 -162 -106 -257 -260 -257zM241 627l-41 -289h115c110 0 168 58 168 171c0 61 -27 118 -127 118h-115z" />
    <glyph glyph-name="Q" unicode="Q" horiz-adv-x="551" 
d="M358 -177c-88 0 -130 68 -121 170c-126 16 -176 123 -158 253l30 214c20 139 101 255 266 255s214 -116 194 -255l-30 -214c-18 -129 -96 -234 -223 -252c-8 -73 16 -99 65 -99c10 0 23 1 29 1c21 0 34 -12 34 -32c0 -40 -37 -41 -86 -41zM364 637
c-110 0 -160 -71 -175 -177l-30 -214c-15 -105 22 -178 125 -178s160 73 175 178l30 214c15 106 -15 177 -125 177z" />
    <glyph glyph-name="R" unicode="R" horiz-adv-x="575" 
d="M584 535c0 -122 -73 -198 -184 -220l123 -263c2 -4 2 -11 2 -17c0 -26 -32 -44 -49 -44c-14 0 -25 7 -30 19l-135 300h-115l-39 -278c-3 -22 -25 -42 -47 -42c-21 0 -36 19 -33 42l88 625c4 26 28 48 53 48h174c145 0 192 -83 192 -170zM503 525c0 51 -26 102 -126 102
h-136l-34 -240h142c99 0 154 49 154 138z" />
    <glyph glyph-name="S" unicode="S" horiz-adv-x="486" 
d="M389 210c0 50 -25 71 -45 82c-82 46 -231 51 -231 200c0 135 93 223 232 223c48 0 162 -11 162 -64c0 -21 -19 -42 -46 -42c-31 0 -53 28 -121 28c-71 0 -143 -29 -143 -130c0 -52 27 -71 46 -82c83 -47 232 -52 232 -200c0 -146 -112 -235 -251 -235
c-62 0 -174 19 -174 70c0 21 20 43 42 43c28 0 66 -35 144 -35c101 0 153 55 153 142z" />
    <glyph glyph-name="T" unicode="T" horiz-adv-x="483" 
d="M205 30l84 597h-136c-21 0 -35 16 -35 35s22 43 46 43h352c19 0 36 -15 36 -35c0 -23 -23 -43 -47 -43h-136l-84 -597c-3 -21 -24 -40 -46 -40s-37 19 -34 40z" />
    <glyph glyph-name="U" unicode="U" horiz-adv-x="572" 
d="M539 230c-19 -139 -115 -240 -254 -240c-142 0 -207 102 -188 240l63 443c3 24 24 42 47 42c21 0 36 -19 33 -42l-63 -443c-13 -96 23 -162 119 -162s149 68 162 162l63 443c3 22 23 42 45 42c24 0 39 -20 36 -42z" />
    <glyph glyph-name="V" unicode="V" horiz-adv-x="529" 
d="M191 685l91 -556l247 556c8 18 28 30 43 30c22 0 37 -14 37 -35c0 -7 -3 -17 -4 -20l-282 -617c-14 -31 -31 -53 -61 -53c-29 0 -39 23 -44 53l-109 617v8c0 29 23 47 48 47c14 0 31 -12 34 -30z" />
    <glyph glyph-name="W" unicode="W" horiz-adv-x="776" 
d="M510 47l-45 503l-187 -504c-10 -26 -28 -56 -61 -56c-29 0 -43 26 -46 56l-62 619v3c0 29 29 43 51 43c16 0 30 -9 32 -29l49 -533l187 508c14 37 26 58 60 58c32 0 40 -23 43 -58l45 -508l200 533c7 18 21 29 37 29c19 0 43 -10 43 -32c0 -5 -2 -9 -4 -15l-236 -618
c-11 -29 -31 -56 -61 -56s-43 28 -45 57z" />
    <glyph glyph-name="X" unicode="X" horiz-adv-x="500" 
d="M293 303l-199 -284c-9 -13 -23 -29 -42 -29s-33 18 -33 37c0 10 5 20 9 26l226 314l-126 287c-2 4 -2 11 -2 17c0 23 21 44 42 44c18 0 31 -17 39 -35l104 -249l174 249c11 15 28 35 48 35c18 0 31 -16 31 -35c0 -9 -3 -19 -8 -26l-208 -287l138 -314c2 -4 4 -11 4 -18
c0 -22 -23 -45 -43 -45c-19 0 -29 15 -35 29z" />
    <glyph glyph-name="Y" unicode="Y" horiz-adv-x="476" 
d="M236 -10c-23 0 -38 19 -35 42l35 245l-125 378c-1 4 -2 10 -2 15c0 24 25 45 47 45c12 0 24 -5 29 -16l105 -329l197 329c7 11 21 16 33 16c19 0 36 -17 36 -37c0 -8 -4 -17 -7 -23l-232 -380l-34 -243c-3 -22 -24 -42 -47 -42z" />
    <glyph glyph-name="Z" unicode="Z" horiz-adv-x="484" 
d="M460 45c0 -24 -22 -45 -46 -45h-343c-21 0 -36 17 -36 39c0 12 10 29 15 37l385 549h-277c-20 0 -34 15 -34 35c0 23 21 45 45 45h339c23 0 38 -16 38 -38c0 -14 -8 -26 -15 -36l-387 -551h282c19 0 34 -15 34 -35z" />
    <glyph glyph-name="bracketleft" unicode="[" horiz-adv-x="294" 
d="M257 -78c0 -33 -31 -43 -57 -43h-102c-20 0 -35 18 -32 38l119 846c4 28 29 38 57 38h102c17 0 32 -15 32 -33c0 -32 -29 -42 -55 -42h-62l-109 -772h62c24 0 45 -8 45 -32z" />
    <glyph glyph-name="backslash" unicode="\" horiz-adv-x="280" 
d="M230 -18l-155 725c0 2 -1 4 -1 6c0 21 16 40 36 44c18 3 35 -6 39 -24l155 -724c1 -2 1 -5 1 -7c0 -22 -15 -41 -36 -45c-18 -3 -35 7 -39 25z" />
    <glyph glyph-name="bracketright" unicode="]" horiz-adv-x="294" 
d="M204 -83c-3 -21 -22 -38 -43 -38h-102c-23 0 -47 8 -47 33c0 33 30 42 57 42h62l108 772h-62c-22 0 -46 7 -46 33c0 32 31 42 58 42h102c19 0 35 -19 32 -38z" />
    <glyph glyph-name="asciicircum" unicode="^" horiz-adv-x="326" 
d="M254 650l-124 -130c-5 -7 -17 -13 -27 -13c-18 0 -28 11 -26 27c3 12 12 25 25 38l130 136c8 9 19 15 32 15s21 -6 27 -15l93 -136c9 -13 14 -26 13 -38c-2 -16 -16 -27 -34 -27c-10 0 -20 6 -23 13z" />
    <glyph glyph-name="underscore" unicode="_" horiz-adv-x="600" 
d="M45 -161h590c20 0 39 -17 39 -39s-17 -39 -39 -39h-590c-22 0 -39 17 -39 39s19 39 39 39z" />
    <glyph glyph-name="grave" unicode="`" horiz-adv-x="197" 
d="M194 705l66 -81c3 -3 4 -8 4 -12c0 -22 -20 -38 -39 -38c-13 0 -20 7 -29 18l-69 86c-2 3 -3 9 -3 13c0 21 21 37 36 37c18 0 22 -10 34 -23z" />
    <glyph glyph-name="a" unicode="a" horiz-adv-x="482" 
d="M302 514c121 0 160 -72 142 -202l-31 -220c-3 -20 2 -30 14 -30c3 0 4 1 8 1c17 0 25 -14 25 -29c0 -29 -27 -39 -50 -39c-31 0 -56 17 -67 46c-50 -30 -94 -49 -144 -49c-99 0 -144 77 -128 189l18 127c17 119 80 206 213 206zM337 105l33 233c10 72 -14 104 -83 104
c-76 0 -107 -39 -120 -134l-18 -127c-11 -78 16 -119 76 -119c41 0 80 19 112 43z" />
    <glyph glyph-name="b" unicode="b" horiz-adv-x="485" 
d="M208 396l-35 -246c-8 -54 28 -86 93 -86c72 0 111 40 120 106l27 188c8 55 -17 88 -84 88c-50 0 -89 -19 -121 -50zM95 150l76 537c3 20 19 38 44 38s37 -18 34 -38l-30 -214c40 26 85 41 139 41c114 0 145 -68 133 -156l-27 -188c-14 -100 -86 -178 -208 -178
c-116 0 -173 70 -161 158z" />
    <glyph glyph-name="c" unicode="c" horiz-adv-x="393" 
d="M70 176l21 151c14 103 80 184 205 184c45 0 130 -13 130 -57c0 -20 -18 -38 -39 -38c-5 0 -10 0 -15 3c-23 11 -43 23 -78 23c-78 0 -115 -42 -125 -115l-22 -151c-10 -73 15 -115 93 -115c35 0 59 12 85 23c6 3 11 3 16 3c17 0 30 -14 30 -30c0 -50 -100 -65 -148 -65
c-125 0 -168 81 -153 184z" />
    <glyph glyph-name="d" unicode="d" horiz-adv-x="488" 
d="M284 510c33 0 74 -7 108 -19l28 196c3 21 19 38 44 38s37 -17 34 -38l-81 -573c-4 -28 0 -45 18 -60c2 -5 4 -10 4 -16c0 -23 -21 -39 -40 -39c-23 0 -39 13 -48 32c-47 -22 -98 -39 -148 -39c-105 0 -148 77 -132 189l18 127c17 119 68 202 195 202zM339 114l43 307
c-31 14 -74 21 -98 21c-73 0 -104 -41 -117 -134l-18 -127c-11 -78 14 -119 80 -119c32 0 73 11 109 29c-1 8 0 16 1 23z" />
    <glyph glyph-name="e" unicode="e" horiz-adv-x="435" 
d="M241 61c42 0 71 12 108 28c2 1 7 3 14 3c18 0 30 -15 30 -31c0 -52 -115 -69 -171 -69c-113 0 -168 72 -155 166l27 187c14 96 87 169 206 169c98 0 146 -53 146 -136c0 -105 -56 -175 -192 -175c-30 0 -67 3 -101 9l-8 -59c-8 -56 24 -92 96 -92zM368 369
c0 52 -29 74 -80 74c-65 0 -108 -35 -116 -91l-11 -76c37 -5 85 -7 105 -7c76 0 102 41 102 100z" />
    <glyph glyph-name="f" unicode="f" horiz-adv-x="329" 
d="M49 -177l100 714c18 127 101 184 202 188c15 1 85 1 85 -41c0 -25 -22 -41 -44 -41c-17 0 -32 7 -60 7c-59 0 -96 -48 -104 -105l-9 -62h105c18 0 31 -14 31 -32c0 -24 -20 -42 -42 -42h-104l-82 -586c-3 -21 -19 -38 -44 -38s-37 17 -34 38z" />
    <glyph glyph-name="g" unicode="g" horiz-adv-x="485" 
d="M348 107l35 246c8 56 -28 89 -93 89c-72 0 -111 -41 -120 -109l-22 -158c-10 -71 11 -114 82 -114c41 0 84 14 118 46zM461 353l-56 -393c-14 -103 -79 -184 -204 -184c-46 0 -131 13 -131 57c0 20 18 38 39 38c5 0 10 -1 15 -3c23 -12 43 -23 78 -23
c78 0 115 42 125 115l10 70c-39 -23 -82 -37 -133 -37c-121 0 -149 78 -134 182l22 158c14 102 86 181 208 181c116 0 174 -71 161 -161z" />
    <glyph glyph-name="h" unicode="h" horiz-adv-x="507" 
d="M367 94l36 253c8 61 -12 94 -74 94c-41 0 -90 -18 -124 -57l-50 -353c-3 -22 -21 -39 -43 -39s-37 17 -34 39l93 661c3 20 21 39 43 39s37 -17 34 -39l-31 -220c38 26 83 42 131 42c107 0 147 -69 133 -166l-36 -254c-3 -22 -3 -35 7 -47c2 -3 5 -9 5 -16
c0 -21 -19 -39 -41 -39c-25 0 -62 12 -49 102z" />
    <glyph glyph-name="i" unicode="i" horiz-adv-x="245" 
d="M265 674c0 -29 -26 -54 -55 -54c-25 0 -42 19 -42 43c0 29 26 53 55 53c25 0 42 -18 42 -42zM97 94l53 378c3 21 22 39 44 39s37 -18 34 -39l-53 -378c-3 -22 -3 -35 7 -47c2 -3 5 -9 5 -16c0 -21 -20 -39 -42 -39c-25 0 -61 12 -48 102z" />
    <glyph glyph-name="j" unicode="j" horiz-adv-x="245" 
d="M227 472l-68 -487c-15 -105 -75 -174 -167 -187c-8 -1 -13 -1 -19 -1c-16 0 -28 10 -30 26c-3 27 21 40 36 43c56 12 91 42 101 115l69 491c3 21 23 39 45 39s36 -18 33 -39zM264 674c0 -29 -25 -54 -55 -54c-24 0 -42 19 -42 43c0 29 26 53 56 53c24 0 41 -18 41 -42z
" />
    <glyph glyph-name="k" unicode="k" horiz-adv-x="439" 
d="M248 686l-52 -373l207 188c6 6 16 9 25 9c20 0 33 -14 33 -32c0 -10 -4 -21 -14 -30l-169 -150l134 -250c3 -6 4 -16 3 -23c-4 -20 -21 -33 -41 -33c-13 0 -23 6 -30 19l-121 236l-42 -37l-25 -179c-3 -22 -22 -39 -44 -39s-37 17 -34 39l92 655c3 22 23 39 45 39
s36 -17 33 -39z" />
    <glyph glyph-name="l" unicode="l" horiz-adv-x="228" 
d="M88 94l83 592c3 21 22 39 44 39s37 -17 34 -39l-83 -592c-3 -22 -3 -35 7 -47c2 -3 5 -9 5 -16c0 -21 -20 -39 -42 -39c-25 0 -61 12 -48 102z" />
    <glyph glyph-name="m" unicode="m" horiz-adv-x="778" 
d="M638 94l35 248c8 56 -16 100 -77 100c-43 0 -90 -23 -118 -53c1 -14 1 -29 -1 -45l-44 -313c-3 -21 -18 -38 -44 -38s-37 17 -34 38l41 290c10 71 5 121 -66 121c-44 0 -91 -19 -122 -40c0 -12 0 -22 -1 -31l-48 -340c-3 -21 -18 -38 -44 -38s-37 17 -34 38l48 340
c8 55 -1 55 -8 70c-1 3 -5 9 -5 17c0 21 19 38 42 38c17 0 29 -11 37 -27c47 28 100 45 152 45c55 0 88 -18 109 -51c46 32 96 51 152 51c108 0 157 -69 143 -170l-35 -250c-3 -22 -3 -35 7 -47c2 -3 5 -9 5 -16c0 -21 -20 -39 -42 -39c-25 0 -61 12 -48 102z" />
    <glyph glyph-name="n" unicode="n" horiz-adv-x="509" 
d="M368 94l32 229c11 76 -15 119 -75 119c-39 0 -80 -16 -117 -42c0 -11 0 -21 -1 -29l-48 -340c-3 -21 -18 -38 -44 -38s-37 17 -34 38l48 340c8 55 -1 55 -8 70c-1 3 -5 9 -5 17c0 21 19 38 42 38c18 0 30 -12 38 -29c49 31 102 45 150 45c106 0 148 -76 132 -189
l-32 -229c-3 -22 -3 -35 7 -47c2 -3 5 -9 5 -16c0 -21 -20 -39 -42 -39c-25 0 -61 12 -48 102z" />
    <glyph glyph-name="o" unicode="o" horiz-adv-x="464" 
d="M231 -8c-122 0 -176 78 -162 178l24 167c14 100 90 178 212 178s176 -78 162 -178l-24 -167c-14 -100 -90 -178 -212 -178zM241 64c72 0 115 40 124 106l24 168c9 65 -23 105 -95 105s-114 -40 -123 -105l-24 -168c-9 -66 22 -106 94 -106z" />
    <glyph glyph-name="p" unicode="p" horiz-adv-x="478" 
d="M265 -7c-34 0 -74 7 -108 19l-27 -189c-3 -21 -19 -38 -44 -38s-37 17 -34 38l77 546c5 33 3 52 -6 70c-3 5 -5 10 -5 16c0 23 22 39 40 39c16 0 28 -10 36 -24c48 24 100 44 152 44c105 0 149 -77 133 -189l-19 -130c-17 -119 -68 -202 -195 -202zM207 369l-40 -287
c29 -15 72 -21 97 -21c73 0 105 41 118 134l19 130c11 78 -15 119 -81 119c-34 0 -76 -13 -113 -34c1 -15 2 -29 0 -41z" />
    <glyph glyph-name="q" unicode="q" horiz-adv-x="485" 
d="M348 107l35 246c8 56 -28 89 -93 89c-72 0 -111 -41 -120 -109l-22 -158c-10 -71 11 -114 82 -114c41 0 84 14 118 46zM461 353l-75 -530c-3 -21 -18 -38 -44 -38s-37 17 -34 38l29 207c-39 -23 -82 -37 -133 -37c-121 0 -149 78 -134 182l22 158c14 102 86 181 208 181
c116 0 174 -71 161 -161z" />
    <glyph glyph-name="r" unicode="r" horiz-adv-x="337" 
d="M207 369l-48 -338c-3 -22 -22 -39 -44 -39s-37 17 -34 39l48 338c4 33 2 52 -7 70c-3 5 -4 10 -4 16c0 23 20 39 41 39c16 0 29 -11 36 -27c47 27 105 43 143 43c36 0 48 -14 48 -32c0 -28 -23 -47 -46 -46c-41 1 -76 1 -132 -36c0 -10 0 -19 -1 -27z" />
    <glyph glyph-name="s" unicode="s" horiz-adv-x="406" 
d="M103 350c0 95 66 164 184 164c50 0 126 -13 126 -52c0 -21 -19 -40 -42 -40c-7 0 -11 2 -17 5c-20 10 -37 18 -73 18c-69 0 -100 -29 -100 -80c0 -24 12 -40 39 -54c60 -32 163 -42 163 -152c0 -100 -66 -167 -190 -167c-49 0 -139 11 -139 54c0 18 16 40 42 40
c6 0 7 -1 10 -2c27 -11 57 -23 97 -23c61 0 103 26 103 85c0 28 -13 42 -29 51c-54 32 -174 40 -174 153z" />
    <glyph glyph-name="t" unicode="t" horiz-adv-x="321" 
d="M102 203l59 418c3 21 19 38 44 38s37 -17 34 -38l-19 -138h104c18 0 31 -14 31 -32c0 -24 -20 -42 -42 -42h-104l-28 -199c-14 -103 -9 -141 63 -141c6 0 13 1 19 1c21 0 47 -4 47 -31c0 -38 -32 -43 -63 -43c-140 0 -164 69 -145 207z" />
    <glyph glyph-name="u" unicode="u" horiz-adv-x="509" 
d="M370 123l49 350c3 21 18 38 44 38s37 -17 34 -38l-49 -350c-8 -55 2 -55 8 -70c1 -3 4 -10 4 -17c0 -20 -19 -38 -42 -38c-19 0 -30 12 -39 30c-47 -25 -100 -36 -147 -36c-106 0 -148 76 -132 189l41 292c3 21 19 38 44 38s37 -17 34 -38l-41 -292
c-11 -76 15 -119 75 -119c39 0 79 12 115 33c0 10 1 20 2 28z" />
    <glyph glyph-name="v" unicode="v" horiz-adv-x="430" 
d="M469 462l-195 -423c-16 -33 -32 -47 -58 -47c-27 0 -38 14 -44 46l-79 427c-5 24 21 46 44 46c15 0 28 -9 31 -26l64 -377l169 377c7 15 23 26 38 26c24 0 41 -23 30 -49z" />
    <glyph glyph-name="w" unicode="w" horiz-adv-x="655" 
d="M694 465l-175 -428c-13 -30 -27 -45 -56 -45c-21 0 -39 12 -42 34l-40 351l-139 -351c-10 -24 -26 -34 -51 -34c-27 0 -40 17 -44 45l-56 431v3c0 20 20 40 44 40c16 0 30 -10 32 -28l43 -368c48 121 94 239 141 361c8 20 25 35 49 35c23 0 36 -15 38 -35
c12 -122 27 -240 41 -361l145 368c6 16 22 28 39 28c19 0 33 -15 33 -34c0 -6 -1 -10 -2 -12z" />
    <glyph glyph-name="x" unicode="x" horiz-adv-x="431" 
d="M297 258l111 -208c2 -4 3 -9 3 -13c0 -23 -20 -45 -46 -45c-18 0 -25 8 -34 27l-89 174l-143 -181c-11 -14 -22 -20 -35 -20c-20 0 -35 14 -35 34c0 11 3 16 8 22l169 208l-103 198c-2 4 -4 10 -4 14c0 21 21 43 45 43c22 0 31 -19 39 -34l79 -155l128 163
c12 16 23 26 41 26c17 0 33 -14 33 -33c0 -10 -3 -17 -8 -23z" />
    <glyph glyph-name="y" unicode="y" horiz-adv-x="509" 
d="M377 107l51 366c3 21 19 38 45 38s36 -17 33 -38l-72 -513c-14 -103 -79 -184 -204 -184c-46 0 -131 13 -131 57c0 20 18 38 39 38c5 0 10 -1 15 -3c23 -12 43 -23 78 -23c78 0 115 42 125 115l10 70c-39 -23 -82 -37 -133 -37c-121 0 -149 78 -134 182l41 298
c3 21 20 38 45 38s36 -17 33 -38l-41 -298c-10 -71 11 -114 82 -114c41 0 84 14 118 46z" />
    <glyph glyph-name="z" unicode="z" horiz-adv-x="384" 
d="M432 470c0 -11 -4 -22 -13 -33l-298 -365h221c19 0 32 -14 32 -32c0 -22 -20 -40 -42 -40h-277c-20 0 -35 16 -35 37c0 9 3 20 11 30l299 366h-209c-18 0 -31 14 -31 32c0 23 20 40 42 40h265c20 0 35 -13 35 -35z" />
    <glyph glyph-name="braceleft" unicode="{" horiz-adv-x="417" 
d="M98 205c-20 0 -34 10 -34 31c0 27 19 41 45 41c51 0 78 28 91 90c13 61 25 130 37 185c16 76 86 123 174 123c26 0 54 -4 54 -36c0 -43 -30 -39 -47 -37c-8 1 -19 2 -26 2c-35 0 -73 -23 -81 -64l-31 -167c-12 -62 -42 -109 -91 -132c42 -23 60 -70 54 -132l-16 -167
c-4 -41 27 -64 61 -64c7 0 21 1 29 2c15 2 38 5 38 -23c0 -44 -35 -50 -66 -50c-88 0 -145 47 -139 123l15 185c5 62 -16 90 -67 90z" />
    <glyph glyph-name="bar" unicode="|" horiz-adv-x="227" 
d="M49 -204l130 927c3 19 21 36 41 36s34 -17 31 -36l-130 -927c-3 -19 -21 -36 -41 -36s-34 17 -31 36z" />
    <glyph glyph-name="braceright" unicode="}" horiz-adv-x="417" 
d="M376 205c-51 0 -80 -28 -92 -90l-37 -185c-15 -76 -86 -123 -174 -123c-26 0 -54 4 -54 36c0 43 30 39 47 37c8 -1 21 -2 28 -2c34 0 70 23 78 64l32 167c12 62 41 109 90 132c-42 23 -59 70 -53 132l16 167c4 41 -27 64 -62 64c-7 0 -20 -1 -28 -2c-15 -2 -38 -5 -38 23
c0 44 35 50 66 50c84 0 140 -44 140 -115c0 -9 -16 -198 -16 -207c0 -52 20 -76 67 -76c20 0 34 -10 34 -31c0 -27 -18 -41 -44 -41z" />
    <glyph glyph-name="asciitilde" unicode="~" horiz-adv-x="454" 
d="M443 357c0 -45 -64 -75 -109 -78c-51 0 -80 35 -115 39c-44 0 -55 -33 -82 -33c-18 0 -31 13 -31 33c6 44 58 78 110 78c50 0 76 -35 114 -39c45 0 53 30 82 34c18 0 31 -15 31 -34z" />
    <glyph glyph-name="exclamdown" unicode="&#xa1;" horiz-adv-x="227" 
d="M48 -175l76 473c3 17 18 32 35 32c16 0 28 -15 26 -32l-57 -473c-3 -21 -24 -40 -46 -40s-37 19 -34 40zM232 461c0 -32 -30 -59 -61 -59c-27 0 -47 21 -47 47c0 33 29 61 62 61c26 0 46 -22 46 -49z" />
    <glyph glyph-name="cent" unicode="&#xa2;" horiz-adv-x="500" 
d="M220 -28l7 51c-105 11 -141 87 -127 183l15 101c14 95 70 171 177 182l6 44c2 14 15 26 30 26s24 -12 22 -26l-6 -43c46 -4 106 -20 106 -56c0 -20 -18 -38 -39 -38c-5 0 -10 1 -15 3c-19 10 -37 19 -61 22l-47 -330c26 3 46 13 68 23c6 2 11 3 16 3c17 0 30 -14 30 -30
c0 -43 -73 -60 -123 -64l-7 -51c-2 -14 -16 -26 -30 -26s-24 12 -22 26zM179 206c-9 -61 6 -100 58 -112l45 324c-54 -11 -80 -50 -89 -111z" />
    <glyph glyph-name="yen" unicode="&#xa5;" horiz-adv-x="476" 
d="M131 369h74l-94 286c-1 4 -2 10 -2 15c0 24 25 45 47 45c12 0 25 -5 29 -16l105 -329l197 329c8 11 21 16 33 16c20 0 36 -17 36 -37c0 -8 -4 -17 -7 -23l-175 -286h75c18 0 34 -14 34 -33c0 -23 -21 -41 -45 -41h-109l-11 -20l-5 -36h118c18 0 34 -14 34 -33
c0 -23 -21 -41 -45 -41h-118l-19 -133c-3 -22 -23 -42 -46 -42s-39 19 -36 42l19 133h-118c-20 0 -34 14 -34 33c0 23 23 41 45 41h118l5 38l-7 18h-109c-20 0 -34 14 -34 33c0 23 23 41 45 41z" />
    <glyph glyph-name="dieresis" unicode="&#xa8;" horiz-adv-x="403" 
d="M425 644c0 -29 -26 -54 -54 -54c-24 0 -42 20 -42 44c0 27 27 52 55 52c24 0 41 -18 41 -42zM256 644c0 -29 -26 -54 -55 -54c-24 0 -40 20 -40 43c0 28 25 53 53 53c25 0 42 -18 42 -42z" />
    <glyph glyph-name="copyright" unicode="&#xa9;" horiz-adv-x="740" 
d="M724 365c0 -213 -132 -374 -356 -374c-175 0 -265 111 -265 270c0 213 132 374 356 374c175 0 265 -111 265 -270zM663 355c0 130 -72 220 -213 220c-180 0 -286 -131 -286 -304c0 -130 72 -220 213 -220c180 0 286 131 286 304zM275 283l9 61c12 82 64 147 164 147
c37 0 104 -10 104 -46c0 -15 -15 -30 -31 -30c-4 0 -9 1 -13 3c-18 10 -33 18 -61 18c-63 0 -93 -34 -101 -92l-9 -61c-9 -59 12 -92 75 -92c28 0 47 9 67 18c5 2 9 3 13 3c14 0 24 -11 24 -25c0 -39 -79 -51 -118 -51c-100 0 -134 64 -123 147z" />
    <glyph glyph-name="guillemotleft" unicode="&#xab;" horiz-adv-x="431" 
d="M168 258l111 -208c2 -4 3 -9 3 -13c0 -23 -20 -45 -46 -45c-18 0 -25 8 -35 27l-124 237l184 229c13 16 23 26 41 26c17 0 33 -14 33 -33c0 -10 -3 -17 -8 -23zM328 256l73 -142c2 -4 3 -9 3 -14c0 -24 -25 -42 -44 -42c-18 0 -25 10 -33 26l-90 172l138 172
c13 16 23 26 41 26c16 0 33 -14 33 -33c0 -10 -3 -17 -8 -23z" />
    <glyph glyph-name="registered" unicode="&#xae;" horiz-adv-x="700" 
d="M699 472c0 -195 -121 -341 -331 -341c-165 0 -249 101 -249 246c0 196 122 348 332 348c165 0 248 -104 248 -253zM639 463c0 119 -66 202 -196 202c-167 0 -263 -122 -263 -279c0 -115 66 -195 196 -195c166 0 263 116 263 272zM530 500c0 -50 -26 -84 -65 -101l50 -97
c1 -4 2 -6 2 -9c0 -14 -23 -22 -35 -22c-11 0 -21 4 -25 10l-54 108h-47l-13 -93c-2 -13 -18 -25 -34 -25c-15 0 -28 11 -26 25l36 255c2 18 21 34 38 34h77c71 0 96 -42 96 -85zM469 492c0 17 -9 34 -45 34h-48l-12 -79h51c36 0 54 17 54 45z" />
    <glyph glyph-name="macron" unicode="&#xaf;" horiz-adv-x="403" 
d="M452 641c0 -22 -20 -40 -42 -40h-249c-19 0 -32 14 -32 32c0 22 20 41 43 41h249c18 0 31 -15 31 -33z" />
    <glyph glyph-name="degree" unicode="&#xb0;" horiz-adv-x="392" 
d="M257 436c-81 0 -123 53 -123 120c0 86 60 160 162 160c83 0 123 -52 123 -120c0 -86 -59 -160 -162 -160zM266 498c59 0 85 37 85 94c0 39 -20 62 -63 62c-59 0 -86 -36 -86 -93c0 -41 21 -63 64 -63z" />
    <glyph glyph-name="plusminus" unicode="&#xb1;" horiz-adv-x="500" 
d="M251 175v170h-160c-22 0 -39 17 -39 39s19 39 39 39h160v170c0 20 17 39 39 39s39 -17 39 -39v-170h160c20 0 39 -17 39 -39s-17 -39 -39 -39h-160v-170c0 -22 -17 -39 -39 -39s-39 19 -39 39zM91 78h398c20 0 39 -17 39 -39s-17 -39 -39 -39h-398c-22 0 -39 17 -39 39
s19 39 39 39z" />
    <glyph glyph-name="acute" unicode="&#xb4;" horiz-adv-x="276" 
d="M170 624l89 81c15 13 22 23 40 23c13 0 27 -12 27 -29c0 -5 -1 -15 -8 -21l-93 -86c-13 -12 -22 -18 -35 -18c-16 0 -28 12 -28 30c0 10 3 15 8 20z" />
    <glyph glyph-name="periodcentered" unicode="&#xb7;" horiz-adv-x="255" 
d="M217 280c0 -33 -29 -60 -62 -60c-26 0 -46 21 -46 48c0 32 30 59 61 59c27 0 47 -21 47 -47z" />
    <glyph glyph-name="cedilla" unicode="&#xb8;" horiz-adv-x="300" 
d="M229 -114c0 -57 -53 -111 -152 -97c-30 4 -57 24 -42 47c11 17 26 8 54 2c49 -10 75 22 75 45c0 21 -20 30 -56 32c-31 2 -40 8 -32 32l23 73h49l-18 -60c72 -1 99 -30 99 -74z" />
    <glyph glyph-name="ordmasculine" unicode="&#xba;" horiz-adv-x="384" 
d="M240 346c-94 0 -132 62 -121 144l11 80c11 82 68 145 162 145s133 -63 122 -145l-11 -80c-11 -82 -69 -144 -163 -144zM283 652c-55 0 -79 -32 -87 -86l-11 -78c-7 -50 12 -80 64 -80s79 30 86 80l11 78c8 54 -8 86 -63 86z" />
    <glyph glyph-name="guillemotright" unicode="&#xbb;" horiz-adv-x="431" 
d="M166 50l169 208l-103 197c-2 4 -3 9 -3 14c0 24 25 42 44 42c18 0 25 -10 33 -26l120 -229l-191 -237c-15 -19 -24 -27 -42 -27c-22 0 -35 16 -35 36c0 10 3 16 8 22zM62 114l113 142l-73 142c-2 4 -3 9 -3 14c0 24 25 42 44 42c18 0 25 -10 33 -26l90 -172l-138 -172
c-13 -16 -23 -26 -41 -26c-17 0 -33 14 -33 33c0 10 3 17 8 23z" />
    <glyph glyph-name="questiondown" unicode="&#xbf;" horiz-adv-x="462" 
d="M231 251c-23 -38 -66 -65 -101 -100c-58 -57 -100 -120 -100 -210c0 -93 61 -166 176 -166c63 0 118 12 175 45c21 12 31 24 31 42c0 20 -15 33 -33 33s-37 -17 -64 -28c-29 -12 -59 -19 -97 -19c-73 0 -108 47 -108 109c0 63 37 108 74 147c45 46 97 86 128 147
c6 11 11 26 11 43c0 19 -14 36 -35 36c-22 0 -42 -19 -45 -40c-2 -13 -5 -28 -12 -39zM251 449c0 33 30 61 62 61c27 0 46 -22 46 -49c0 -32 -29 -59 -62 -59c-27 0 -46 21 -46 47z" />
    <glyph glyph-name="Agrave" unicode="&#xc0;" horiz-adv-x="549" 
d="M170 159l-62 -139c-8 -18 -28 -30 -42 -30c-21 0 -37 14 -37 35c0 7 3 17 5 20l281 617c14 30 31 53 60 53c30 0 39 -22 45 -53l108 -617c0 -1 1 -5 1 -8c0 -29 -22 -47 -48 -47c-15 0 -32 12 -35 30l-23 139h-253zM355 576l-150 -339h206zM354 905l66 -81
c3 -3 4 -8 4 -12c0 -22 -20 -38 -39 -38c-13 0 -20 7 -29 18l-69 86c-2 3 -3 9 -3 13c0 21 21 37 36 37c18 0 22 -10 34 -23z" />
    <glyph glyph-name="Aacute" unicode="&#xc1;" horiz-adv-x="549" 
d="M108 20l62 139h253l23 -139c3 -18 20 -30 35 -30c26 0 48 18 48 47c0 3 -1 7 -1 8l-108 617c-6 31 -15 53 -45 53c-29 0 -46 -23 -60 -53l-281 -617c-2 -3 -5 -13 -5 -20c0 -21 16 -35 37 -35c14 0 34 12 42 30zM205 237l150 339l56 -339h-206zM363 824l89 81
c15 13 22 23 40 23c13 0 27 -12 27 -29c0 -5 -1 -15 -8 -21l-93 -86c-13 -12 -22 -18 -35 -18c-16 0 -28 12 -28 30c0 10 3 15 8 20z" />
    <glyph glyph-name="Acircumflex" unicode="&#xc2;" horiz-adv-x="549" 
d="M170 159l-62 -139c-8 -18 -28 -30 -42 -30c-21 0 -37 14 -37 35c0 7 3 17 5 20l281 617c14 30 31 53 60 53c30 0 39 -22 45 -53l108 -617c0 -1 1 -5 1 -8c0 -29 -22 -47 -48 -47c-15 0 -32 12 -35 30l-23 139h-253zM355 576l-150 -339h206zM392 836l-83 -61
c-4 -3 -14 -6 -20 -6c-12 0 -22 12 -22 23c0 13 10 23 23 33l88 67c6 4 14 8 23 8s16 -4 21 -8l69 -67c8 -8 14 -18 14 -27c0 -14 -14 -29 -29 -29c-5 0 -15 3 -18 6z" />
    <glyph glyph-name="Atilde" unicode="&#xc3;" horiz-adv-x="549" 
d="M108 20l62 139h253l23 -139c3 -18 20 -30 35 -30c26 0 48 18 48 47c0 3 -1 7 -1 8l-108 617c-6 31 -15 53 -45 53c-29 0 -46 -23 -60 -53l-281 -617c-2 -3 -5 -13 -5 -20c0 -21 16 -35 37 -35c14 0 34 12 42 30zM205 237l150 339l56 -339h-206zM532 854
c0 -37 -53 -63 -91 -65c-43 0 -66 29 -96 32c-37 0 -46 -27 -68 -27c-15 0 -26 11 -26 27c5 37 48 65 91 65c42 0 64 -29 96 -32c38 0 43 25 68 28c14 0 26 -12 26 -28z" />
    <glyph glyph-name="Adieresis" unicode="&#xc4;" horiz-adv-x="549" 
d="M170 159l-62 -139c-8 -18 -28 -30 -42 -30c-21 0 -37 14 -37 35c0 7 3 17 5 20l281 617c14 30 31 53 60 53c30 0 39 -22 45 -53l108 -617c0 -1 1 -5 1 -8c0 -29 -22 -47 -48 -47c-15 0 -32 12 -35 30l-23 139h-253zM355 576l-150 -339h206zM524 844
c0 -29 -26 -54 -54 -54c-24 0 -42 20 -42 44c0 27 27 52 55 52c24 0 41 -18 41 -42zM355 844c0 -29 -26 -54 -55 -54c-24 0 -40 20 -40 43c0 28 25 53 53 53c25 0 42 -18 42 -42z" />
    <glyph glyph-name="Aring" unicode="&#xc5;" horiz-adv-x="549" 
d="M488 738c0 -45 -27 -82 -62 -105l103 -588v-8c0 -29 -22 -47 -48 -47c-15 0 -32 12 -35 30l-23 139h-253l-62 -139c-8 -18 -28 -30 -42 -30c-21 0 -37 14 -37 35c0 7 3 16 5 20l269 588c-24 17 -38 46 -38 79c0 66 60 123 128 123c55 0 95 -43 95 -97zM355 576l-150 -339
h206zM438 732c0 30 -22 54 -52 54c-36 0 -69 -32 -69 -68c0 -29 22 -53 52 -53c36 0 69 30 69 67z" />
    <glyph glyph-name="AE" unicode="&#xc6;" horiz-adv-x="722" 
d="M414 0c-33 0 -61 11 -56 47l16 112h-205l-61 -139c-8 -18 -28 -30 -42 -30c-22 0 -37 14 -37 35c0 7 3 16 5 20l278 607c14 30 31 53 59 53h367c20 0 35 -16 35 -35c0 -25 -22 -43 -46 -43h-208l-33 -234h189c19 0 34 -15 34 -35c0 -24 -20 -43 -44 -43h-189l-34 -237
h218c20 0 35 -15 35 -33c0 -24 -22 -45 -46 -45h-235zM439 627h-50c-9 0 -13 -3 -14 -10l-170 -380h180z" />
    <glyph glyph-name="Ccedilla" unicode="&#xc7;" horiz-adv-x="482" 
d="M350 -114c0 -57 -53 -111 -152 -97c-30 4 -57 24 -42 47c11 17 26 8 54 2c49 -10 75 22 75 45c0 21 -20 30 -56 32c-31 2 -40 8 -32 32l16 49c-112 22 -152 116 -133 250l30 214c22 154 107 255 261 255c87 0 165 -37 165 -82c0 -21 -18 -39 -41 -39c-14 0 -20 6 -34 17
c-27 20 -57 31 -96 31c-113 0 -159 -70 -175 -182l-30 -214c-16 -112 11 -182 124 -182c39 0 72 10 105 31c18 10 24 17 38 17c19 0 31 -14 31 -31c0 -49 -95 -90 -189 -90h-9l-9 -31c72 -1 99 -30 99 -74z" />
    <glyph glyph-name="Egrave" unicode="&#xc8;" horiz-adv-x="474" 
d="M448 45c0 -24 -23 -45 -47 -45h-265c-33 0 -61 11 -56 47l86 611c3 23 27 47 54 47h271c20 0 34 -16 34 -35c0 -25 -22 -43 -45 -43h-238l-33 -234h219c18 0 34 -15 34 -35c0 -24 -21 -43 -45 -43h-219l-34 -237h248c20 0 36 -15 36 -33zM356 905l66 -81c3 -3 4 -8 4 -12
c0 -22 -20 -38 -39 -38c-13 0 -20 7 -29 18l-69 86c-2 3 -3 9 -3 13c0 21 21 37 36 37c18 0 22 -10 34 -23z" />
    <glyph glyph-name="Eacute" unicode="&#xc9;" horiz-adv-x="474" 
d="M448 45c0 -24 -23 -45 -47 -45h-265c-33 0 -61 11 -56 47l86 611c3 23 27 47 54 47h271c20 0 34 -16 34 -35c0 -25 -22 -43 -45 -43h-238l-33 -234h219c18 0 34 -15 34 -35c0 -24 -21 -43 -45 -43h-219l-34 -237h248c20 0 36 -15 36 -33zM323 824l89 81
c15 13 22 23 40 23c13 0 27 -12 27 -29c0 -5 -1 -15 -8 -21l-93 -86c-13 -12 -22 -18 -35 -18c-16 0 -28 12 -28 30c0 10 3 15 8 20z" />
    <glyph glyph-name="Ecircumflex" unicode="&#xca;" horiz-adv-x="474" 
d="M448 45c0 -24 -23 -45 -47 -45h-265c-33 0 -61 11 -56 47l86 611c3 23 27 47 54 47h271c20 0 34 -16 34 -35c0 -25 -22 -43 -45 -43h-238l-33 -234h219c18 0 34 -15 34 -35c0 -24 -21 -43 -45 -43h-219l-34 -237h248c20 0 36 -15 36 -33zM379 836l-83 -61
c-4 -3 -14 -6 -20 -6c-12 0 -22 12 -22 23c0 13 10 23 23 33l88 67c6 4 14 8 23 8s16 -4 21 -8l69 -67c8 -8 14 -18 14 -27c0 -14 -14 -29 -29 -29c-5 0 -15 3 -18 6z" />
    <glyph glyph-name="Edieresis" unicode="&#xcb;" horiz-adv-x="474" 
d="M448 45c0 -24 -23 -45 -47 -45h-265c-33 0 -61 11 -56 47l86 611c3 23 27 47 54 47h271c20 0 34 -16 34 -35c0 -25 -22 -43 -45 -43h-238l-33 -234h219c18 0 34 -15 34 -35c0 -24 -21 -43 -45 -43h-219l-34 -237h248c20 0 36 -15 36 -33zM510 844c0 -29 -26 -54 -54 -54
c-24 0 -42 20 -42 44c0 27 27 52 55 52c24 0 41 -18 41 -42zM341 844c0 -29 -26 -54 -55 -54c-24 0 -40 20 -40 43c0 28 25 53 53 53c25 0 42 -18 42 -42z" />
    <glyph glyph-name="Igrave" unicode="&#xcc;" horiz-adv-x="227" 
d="M77 30l91 645c3 21 23 40 45 40s38 -19 35 -40l-91 -645c-3 -21 -24 -40 -46 -40s-37 19 -34 40zM206 905l66 -81c3 -3 4 -8 4 -12c0 -22 -20 -38 -39 -38c-13 0 -20 7 -29 18l-69 86c-2 3 -3 9 -3 13c0 21 21 37 36 37c18 0 22 -10 34 -23z" />
    <glyph glyph-name="Iacute" unicode="&#xcd;" horiz-adv-x="227" 
d="M77 30l91 645c3 21 23 40 45 40s38 -19 35 -40l-91 -645c-3 -21 -24 -40 -46 -40s-37 19 -34 40zM186 824l89 81c15 13 22 23 40 23c13 0 27 -12 27 -29c0 -5 -1 -15 -8 -21l-93 -86c-13 -12 -22 -18 -35 -18c-16 0 -28 12 -28 30c0 10 3 15 8 20z" />
    <glyph glyph-name="Icircumflex" unicode="&#xce;" horiz-adv-x="227" 
d="M77 30l91 645c3 21 23 40 45 40s38 -19 35 -40l-91 -645c-3 -21 -24 -40 -46 -40s-37 19 -34 40zM232 836l-83 -61c-4 -3 -14 -6 -20 -6c-12 0 -22 12 -22 23c0 13 10 23 23 33l88 67c6 4 14 8 23 8s16 -4 21 -8l69 -67c8 -8 14 -18 14 -27c0 -14 -14 -29 -29 -29
c-5 0 -15 3 -18 6z" />
    <glyph glyph-name="Idieresis" unicode="&#xcf;" horiz-adv-x="227" 
d="M77 30l91 645c3 21 23 40 45 40s38 -19 35 -40l-91 -645c-3 -21 -24 -40 -46 -40s-37 19 -34 40zM363 844c0 -29 -26 -54 -54 -54c-24 0 -42 20 -42 44c0 27 27 52 55 52c24 0 41 -18 41 -42zM194 844c0 -29 -26 -54 -55 -54c-24 0 -40 20 -40 43c0 28 25 53 53 53
c25 0 42 -18 42 -42z" />
    <glyph glyph-name="Eth" unicode="&#xd0;" horiz-adv-x="574" 
d="M565 264c-19 -137 -106 -264 -311 -264h-113c-26 0 -46 22 -42 48l38 269h-39c-19 0 -32 14 -32 32c0 22 20 41 43 41h38l38 268c4 26 29 48 55 48h113c204 0 257 -121 238 -255zM389 357c0 -22 -20 -40 -42 -40h-130l-33 -239h98c132 0 189 83 203 186l26 187
c14 99 -22 177 -152 177h-98l-33 -238h130c18 0 31 -15 31 -33z" />
    <glyph glyph-name="Ntilde" unicode="&#xd1;" horiz-adv-x="600" 
d="M480 -10c-16 0 -31 9 -37 23l-214 533l-72 -515c-3 -22 -25 -41 -47 -41s-36 19 -33 41l90 640c3 25 24 44 49 44c17 0 33 -9 39 -24l213 -532l72 515c3 22 25 41 47 41s36 -19 33 -41l-89 -640c-4 -24 -25 -44 -51 -44zM558 854c0 -37 -53 -63 -91 -65
c-43 0 -66 29 -96 32c-37 0 -46 -27 -68 -27c-15 0 -26 11 -26 27c5 37 48 65 91 65c42 0 64 -29 96 -32c38 0 43 25 68 28c14 0 26 -12 26 -28z" />
    <glyph glyph-name="Ograve" unicode="&#xd2;" horiz-adv-x="551" 
d="M274 -10c-153 0 -214 114 -194 256l30 214c20 139 101 255 266 255s214 -116 194 -255l-30 -214c-20 -142 -113 -256 -266 -256zM365 637c-110 0 -160 -71 -175 -177l-30 -214c-15 -105 22 -178 125 -178s160 73 175 178l30 214c15 106 -15 177 -125 177zM374 905l66 -81
c3 -3 4 -8 4 -12c0 -22 -20 -38 -39 -38c-13 0 -20 7 -29 18l-69 86c-2 3 -3 9 -3 13c0 21 21 37 36 37c18 0 22 -10 34 -23z" />
    <glyph glyph-name="Oacute" unicode="&#xd3;" horiz-adv-x="551" 
d="M274 -10c-153 0 -214 114 -194 256l30 214c20 139 101 255 266 255s214 -116 194 -255l-30 -214c-20 -142 -113 -256 -266 -256zM365 637c-110 0 -160 -71 -175 -177l-30 -214c-15 -105 22 -178 125 -178s160 73 175 178l30 214c15 106 -15 177 -125 177zM350 824l89 81
c15 13 22 23 40 23c13 0 27 -12 27 -29c0 -5 -1 -15 -8 -21l-93 -86c-13 -12 -22 -18 -35 -18c-16 0 -28 12 -28 30c0 10 3 15 8 20z" />
    <glyph glyph-name="Ocircumflex" unicode="&#xd4;" horiz-adv-x="551" 
d="M274 -10c-153 0 -214 114 -194 256l30 214c20 139 101 255 266 255s214 -116 194 -255l-30 -214c-20 -142 -113 -256 -266 -256zM365 637c-110 0 -160 -71 -175 -177l-30 -214c-15 -105 22 -178 125 -178s160 73 175 178l30 214c15 106 -15 177 -125 177zM393 836
l-83 -61c-4 -3 -14 -6 -20 -6c-12 0 -22 12 -22 23c0 13 10 23 23 33l88 67c6 4 14 8 23 8s16 -4 21 -8l69 -67c8 -8 14 -18 14 -27c0 -14 -14 -29 -29 -29c-5 0 -15 3 -18 6z" />
    <glyph glyph-name="Otilde" unicode="&#xd5;" horiz-adv-x="551" 
d="M274 -10c-153 0 -214 114 -194 256l30 214c20 139 101 255 266 255s214 -116 194 -255l-30 -214c-20 -142 -113 -256 -266 -256zM365 637c-110 0 -160 -71 -175 -177l-30 -214c-15 -105 22 -178 125 -178s160 73 175 178l30 214c15 106 -15 177 -125 177zM533 854
c0 -37 -53 -63 -91 -65c-43 0 -66 29 -96 32c-37 0 -46 -27 -68 -27c-15 0 -26 11 -26 27c5 37 48 65 91 65c42 0 64 -29 96 -32c38 0 43 25 68 28c14 0 26 -12 26 -28z" />
    <glyph glyph-name="Odieresis" unicode="&#xd6;" horiz-adv-x="551" 
d="M274 -10c-153 0 -214 114 -194 256l30 214c20 139 101 255 266 255s214 -116 194 -255l-30 -214c-20 -142 -113 -256 -266 -256zM365 637c-110 0 -160 -71 -175 -177l-30 -214c-15 -105 22 -178 125 -178s160 73 175 178l30 214c15 106 -15 177 -125 177zM525 844
c0 -29 -26 -54 -54 -54c-24 0 -42 20 -42 44c0 27 27 52 55 52c24 0 41 -18 41 -42zM356 844c0 -29 -26 -54 -55 -54c-24 0 -40 20 -40 43c0 28 25 53 53 53c25 0 42 -18 42 -42z" />
    <glyph glyph-name="multiply" unicode="&#xd7;" horiz-adv-x="500" 
d="M492 474l-138 -120l104 -120c14 -16 10 -40 -8 -55c-17 -16 -43 -15 -55 0l-104 120l-136 -120c-16 -15 -42 -16 -55 0c-14 15 -10 39 8 55l137 120l-104 120c-13 14 -10 40 8 55c17 16 41 16 55 0l103 -120l137 120c18 16 42 16 55 0c14 -15 10 -41 -7 -55z" />
    <glyph glyph-name="Oslash" unicode="&#xd8;" horiz-adv-x="551" 
d="M31 39l59 70c-14 40 -17 86 -10 137l30 214c20 139 101 255 266 255c80 0 132 -27 163 -71l43 51c10 12 27 15 38 7c10 -8 11 -24 1 -36l-59 -70c12 -39 15 -86 8 -136l-30 -214c-20 -142 -113 -256 -266 -256c-75 0 -128 27 -161 72l-43 -52c-10 -12 -27 -15 -38 -7
c-10 8 -11 24 -1 36zM365 637c-110 0 -160 -71 -175 -177l-30 -214c-3 -20 -5 -40 -3 -57l324 386c-18 39 -54 62 -116 62zM490 460c3 19 3 37 2 54l-322 -384c19 -39 57 -62 115 -62c103 0 160 73 175 178z" />
    <glyph glyph-name="Ugrave" unicode="&#xd9;" horiz-adv-x="572" 
d="M539 230c-19 -139 -115 -240 -254 -240c-142 0 -207 102 -188 240l63 443c3 24 24 42 47 42c21 0 36 -19 33 -42l-63 -443c-13 -96 23 -162 119 -162s149 68 162 162l63 443c3 22 23 42 45 42c24 0 39 -20 36 -42zM371 905l66 -81c3 -3 4 -8 4 -12c0 -22 -20 -38 -39 -38
c-13 0 -20 7 -29 18l-69 86c-2 3 -3 9 -3 13c0 21 21 37 36 37c18 0 22 -10 34 -23z" />
    <glyph glyph-name="Uacute" unicode="&#xda;" horiz-adv-x="572" 
d="M539 230c-19 -139 -115 -240 -254 -240c-142 0 -207 102 -188 240l63 443c3 24 24 42 47 42c21 0 36 -19 33 -42l-63 -443c-13 -96 23 -162 119 -162s149 68 162 162l63 443c3 22 23 42 45 42c24 0 39 -20 36 -42zM367 824l89 81c15 13 22 23 40 23c13 0 27 -12 27 -29
c0 -5 -1 -15 -8 -21l-93 -86c-13 -12 -22 -18 -35 -18c-16 0 -28 12 -28 30c0 10 3 15 8 20z" />
    <glyph glyph-name="Ucircumflex" unicode="&#xdb;" horiz-adv-x="572" 
d="M539 230c-19 -139 -115 -240 -254 -240c-142 0 -207 102 -188 240l63 443c3 24 24 42 47 42c21 0 36 -19 33 -42l-63 -443c-13 -96 23 -162 119 -162s149 68 162 162l63 443c3 22 23 42 45 42c24 0 39 -20 36 -42zM404 836l-83 -61c-4 -3 -14 -6 -20 -6
c-12 0 -22 12 -22 23c0 13 10 23 23 33l88 67c6 4 14 8 23 8s16 -4 21 -8l69 -67c8 -8 14 -18 14 -27c0 -14 -14 -29 -29 -29c-5 0 -15 3 -18 6z" />
    <glyph glyph-name="Udieresis" unicode="&#xdc;" horiz-adv-x="572" 
d="M539 230c-19 -139 -115 -240 -254 -240c-142 0 -207 102 -188 240l63 443c3 24 24 42 47 42c21 0 36 -19 33 -42l-63 -443c-13 -96 23 -162 119 -162s149 68 162 162l63 443c3 22 23 42 45 42c24 0 39 -20 36 -42zM535 844c0 -29 -26 -54 -54 -54c-24 0 -42 20 -42 44
c0 27 27 52 55 52c24 0 41 -18 41 -42zM366 844c0 -29 -26 -54 -55 -54c-24 0 -40 20 -40 43c0 28 25 53 53 53c25 0 42 -18 42 -42z" />
    <glyph glyph-name="Yacute" unicode="&#xdd;" horiz-adv-x="476" 
d="M236 -10c-23 0 -38 19 -35 42l35 245l-125 378c-1 4 -2 10 -2 15c0 24 25 45 47 45c12 0 24 -5 29 -16l105 -329l197 329c7 11 21 16 33 16c19 0 36 -17 36 -37c0 -8 -4 -17 -7 -23l-232 -380l-34 -243c-3 -22 -24 -42 -47 -42zM284 824l89 81c15 13 22 23 40 23
c13 0 27 -12 27 -29c0 -5 -1 -15 -8 -21l-93 -86c-13 -12 -22 -18 -35 -18c-16 0 -28 12 -28 30c0 10 3 15 8 20z" />
    <glyph glyph-name="Thorn" unicode="&#xde;" horiz-adv-x="530" 
d="M77 30l91 645c3 21 23 40 45 40s38 -19 35 -40l-13 -89h115c145 0 197 -88 197 -189c0 -162 -106 -257 -260 -257h-115l-15 -110c-3 -21 -24 -40 -46 -40s-37 19 -34 40zM224 508l-41 -290h115c111 0 168 58 168 171c0 61 -27 119 -127 119h-115z" />
    <glyph glyph-name="germandbls" unicode="&#xdf;" horiz-adv-x="544" 
d="M538 186c0 -113 -75 -190 -204 -190c-22 0 -122 1 -122 43c0 15 12 39 46 39c23 0 55 -11 85 -11c50 0 115 30 115 108c0 67 -57 104 -101 120c-35 12 -83 22 -83 67c0 36 23 56 46 67c44 22 133 37 133 130c0 57 -40 88 -99 88c-78 0 -120 -49 -134 -150l-73 -523
c-3 -21 -23 -39 -45 -39s-36 18 -33 39l73 520c20 140 102 225 228 225c95 0 161 -51 161 -143c0 -84 -47 -138 -109 -164c-26 -11 -72 -21 -69 -38c2 -12 23 -15 60 -29c72 -28 125 -78 125 -159z" />
    <glyph glyph-name="agrave" unicode="&#xe0;" horiz-adv-x="482" 
d="M302 514c121 0 160 -72 142 -202l-31 -220c-3 -20 2 -30 14 -30c3 0 4 1 8 1c17 0 25 -14 25 -29c0 -29 -27 -39 -50 -39c-31 0 -56 17 -67 46c-50 -30 -94 -49 -144 -49c-99 0 -144 77 -128 189l18 127c17 119 80 206 213 206zM337 105l33 233c10 72 -14 104 -83 104
c-76 0 -107 -39 -120 -134l-18 -127c-11 -78 16 -119 76 -119c41 0 80 19 112 43zM312 705l66 -81c3 -3 4 -8 4 -12c0 -22 -20 -38 -39 -38c-13 0 -20 7 -29 18l-69 86c-2 3 -3 9 -3 13c0 21 21 37 36 37c18 0 22 -10 34 -23z" />
    <glyph glyph-name="aacute" unicode="&#xe1;" horiz-adv-x="482" 
d="M302 514c-133 0 -196 -87 -213 -206l-18 -127c-16 -112 29 -189 128 -189c50 0 94 19 144 49c11 -29 36 -46 67 -46c23 0 50 10 50 39c0 15 -8 29 -25 29c-4 0 -5 -1 -8 -1c-12 0 -17 10 -14 30l31 220c18 130 -21 202 -142 202zM337 105c-32 -24 -71 -43 -112 -43
c-60 0 -87 41 -76 119l18 127c13 95 44 134 120 134c69 0 93 -32 83 -104zM288 624l89 81c15 13 22 23 40 23c13 0 27 -12 27 -29c0 -5 -1 -15 -8 -21l-93 -86c-13 -12 -22 -18 -35 -18c-16 0 -28 12 -28 30c0 10 3 15 8 20z" />
    <glyph glyph-name="acircumflex" unicode="&#xe2;" horiz-adv-x="482" 
d="M302 514c121 0 160 -72 142 -202l-31 -220c-3 -20 2 -30 14 -30c3 0 4 1 8 1c17 0 25 -14 25 -29c0 -29 -27 -39 -50 -39c-31 0 -56 17 -67 46c-50 -30 -94 -49 -144 -49c-99 0 -144 77 -128 189l18 127c17 119 80 206 213 206zM337 105l33 233c10 72 -14 104 -83 104
c-76 0 -107 -39 -120 -134l-18 -127c-11 -78 16 -119 76 -119c41 0 80 19 112 43zM330 636l-83 -61c-4 -3 -14 -6 -20 -6c-12 0 -22 12 -22 23c0 13 10 23 23 33l88 67c6 4 14 8 23 8s16 -4 21 -8l69 -67c8 -8 14 -18 14 -27c0 -14 -14 -29 -29 -29c-5 0 -15 3 -18 6z" />
    <glyph glyph-name="atilde" unicode="&#xe3;" horiz-adv-x="482" 
d="M302 514c-133 0 -196 -87 -213 -206l-18 -127c-16 -112 29 -189 128 -189c50 0 94 19 144 49c11 -29 36 -46 67 -46c23 0 50 10 50 39c0 15 -8 29 -25 29c-4 0 -5 -1 -8 -1c-12 0 -17 10 -14 30l31 220c18 130 -21 202 -142 202zM337 105c-32 -24 -71 -43 -112 -43
c-60 0 -87 41 -76 119l18 127c13 95 44 134 120 134c69 0 93 -32 83 -104zM471 654c0 -37 -53 -63 -91 -65c-43 0 -66 29 -96 32c-37 0 -46 -27 -68 -27c-15 0 -26 11 -26 27c5 37 48 65 91 65c42 0 64 -29 96 -32c38 0 43 25 68 28c14 0 26 -12 26 -28z" />
    <glyph glyph-name="adieresis" unicode="&#xe4;" horiz-adv-x="482" 
d="M302 514c121 0 160 -72 142 -202l-31 -220c-3 -20 2 -30 14 -30c3 0 4 1 8 1c17 0 25 -14 25 -29c0 -29 -27 -39 -50 -39c-31 0 -56 17 -67 46c-50 -30 -94 -49 -144 -49c-99 0 -144 77 -128 189l18 127c17 119 80 206 213 206zM337 105l33 233c10 72 -14 104 -83 104
c-76 0 -107 -39 -120 -134l-18 -127c-11 -78 16 -119 76 -119c41 0 80 19 112 43zM462 644c0 -29 -26 -54 -54 -54c-24 0 -42 20 -42 44c0 27 27 52 55 52c24 0 41 -18 41 -42zM293 644c0 -29 -26 -54 -55 -54c-24 0 -40 20 -40 43c0 28 25 53 53 53c25 0 42 -18 42 -42z
" />
    <glyph glyph-name="aring" unicode="&#xe5;" horiz-adv-x="482" 
d="M302 514c-133 0 -196 -87 -213 -206l-18 -127c-16 -112 29 -189 128 -189c50 0 94 19 144 49c11 -29 36 -46 67 -46c23 0 50 10 50 39c0 15 -8 29 -25 29c-4 0 -5 -1 -8 -1c-12 0 -17 10 -14 30l31 220c18 130 -21 202 -142 202zM337 105c-32 -24 -71 -43 -112 -43
c-60 0 -87 41 -76 119l18 127c13 95 44 134 120 134c69 0 93 -32 83 -104zM433 656c0 -61 -54 -111 -114 -111c-51 0 -87 38 -87 87c0 61 54 111 115 111c50 0 86 -38 86 -87zM388 650c0 27 -20 49 -47 49c-33 0 -63 -28 -63 -61c0 -27 20 -48 47 -48c33 0 63 27 63 60z" />
    <glyph glyph-name="ae" unicode="&#xe6;" horiz-adv-x="712" 
d="M530 203c-30 0 -66 3 -101 9l-8 -59c-8 -56 24 -92 96 -92c42 0 71 12 108 28c3 1 7 3 14 3c19 0 31 -15 31 -31c0 -52 -117 -69 -169 -69c-66 0 -108 27 -128 71c-53 -48 -111 -71 -177 -71c-103 0 -177 93 -134 151l3 4c5 98 79 148 197 148c36 0 69 -5 99 -14l8 57
c10 73 -20 107 -92 107c-35 0 -55 -9 -79 -21c-3 -1 -16 -8 -27 -8c-17 0 -23 16 -23 30c0 49 79 68 149 68s109 -28 124 -82c31 49 85 82 160 82c94 0 141 -54 141 -136c0 -105 -55 -175 -192 -175zM645 369c0 52 -29 74 -80 74c-65 0 -108 -35 -116 -91l-11 -76
c37 -4 84 -7 104 -7c75 0 103 41 103 100zM336 106l16 108c-32 10 -70 15 -100 15c-82 0 -91 -46 -108 -83l-2 -4c-2 -47 9 -80 76 -80c43 0 79 14 118 44z" />
    <glyph glyph-name="ccedilla" unicode="&#xe7;" horiz-adv-x="393" 
d="M317 -114c0 -57 -53 -111 -152 -97c-30 4 -56 24 -41 47c11 17 25 8 53 2c49 -10 75 22 75 45c0 21 -19 30 -55 32c-31 2 -40 8 -33 32l15 49c-91 16 -122 90 -109 180l21 151c14 103 80 184 205 184c45 0 131 -13 131 -57c0 -20 -19 -38 -40 -38c-5 0 -9 1 -15 3
c-23 12 -43 23 -78 23c-78 0 -115 -42 -125 -115l-21 -151c-10 -73 14 -115 92 -115c35 0 59 11 85 23c6 2 11 3 16 3c18 0 30 -14 30 -30c0 -49 -92 -64 -143 -65l-10 -32c73 -1 99 -30 99 -74z" />
    <glyph glyph-name="egrave" unicode="&#xe8;" horiz-adv-x="435" 
d="M241 61c42 0 71 12 108 28c2 1 7 3 14 3c18 0 30 -15 30 -31c0 -52 -115 -69 -171 -69c-113 0 -168 72 -155 166l27 187c14 96 87 169 206 169c98 0 146 -53 146 -136c0 -105 -56 -175 -192 -175c-30 0 -67 3 -101 9l-8 -59c-8 -56 24 -92 96 -92zM368 369
c0 52 -29 74 -80 74c-65 0 -108 -35 -116 -91l-11 -76c37 -5 85 -7 105 -7c76 0 102 41 102 100zM269 705l66 -81c3 -3 4 -8 4 -12c0 -22 -20 -38 -39 -38c-13 0 -20 7 -29 18l-69 86c-2 3 -3 9 -3 13c0 21 21 37 36 37c18 0 22 -10 34 -23z" />
    <glyph glyph-name="eacute" unicode="&#xe9;" horiz-adv-x="435" 
d="M241 61c-72 0 -104 36 -96 92l8 59c34 -6 71 -9 101 -9c136 0 192 70 192 175c0 83 -48 136 -146 136c-119 0 -192 -73 -206 -169l-27 -187c-13 -94 42 -166 155 -166c56 0 171 17 171 69c0 16 -12 31 -30 31c-7 0 -12 -2 -14 -3c-37 -16 -66 -28 -108 -28zM368 369
c0 -59 -26 -100 -102 -100c-20 0 -68 2 -105 7l11 76c8 56 51 91 116 91c51 0 80 -22 80 -74zM272 624l89 81c15 13 22 23 40 23c13 0 27 -12 27 -29c0 -5 -1 -15 -8 -21l-93 -86c-13 -12 -22 -18 -35 -18c-16 0 -28 12 -28 30c0 10 3 15 8 20z" />
    <glyph glyph-name="ecircumflex" unicode="&#xea;" horiz-adv-x="435" 
d="M241 61c42 0 71 12 108 28c2 1 7 3 14 3c18 0 30 -15 30 -31c0 -52 -115 -69 -171 -69c-113 0 -168 72 -155 166l27 187c14 96 87 169 206 169c98 0 146 -53 146 -136c0 -105 -56 -175 -192 -175c-30 0 -67 3 -101 9l-8 -59c-8 -56 24 -92 96 -92zM368 369
c0 52 -29 74 -80 74c-65 0 -108 -35 -116 -91l-11 -76c37 -5 85 -7 105 -7c76 0 102 41 102 100zM306 636l-83 -61c-4 -3 -14 -6 -20 -6c-12 0 -22 12 -22 23c0 13 10 23 23 33l88 67c6 4 14 8 23 8s16 -4 21 -8l69 -67c8 -8 14 -18 14 -27c0 -14 -14 -29 -29 -29
c-5 0 -15 3 -18 6z" />
    <glyph glyph-name="edieresis" unicode="&#xeb;" horiz-adv-x="435" 
d="M241 61c-72 0 -104 36 -96 92l8 59c34 -6 71 -9 101 -9c136 0 192 70 192 175c0 83 -48 136 -146 136c-119 0 -192 -73 -206 -169l-27 -187c-13 -94 42 -166 155 -166c56 0 171 17 171 69c0 16 -12 31 -30 31c-7 0 -12 -2 -14 -3c-37 -16 -66 -28 -108 -28zM368 369
c0 -59 -26 -100 -102 -100c-20 0 -68 2 -105 7l11 76c8 56 51 91 116 91c51 0 80 -22 80 -74zM439 644c0 -29 -26 -54 -54 -54c-24 0 -42 20 -42 44c0 27 27 52 55 52c24 0 41 -18 41 -42zM270 644c0 -29 -26 -54 -55 -54c-24 0 -40 20 -40 43c0 28 25 53 53 53
c25 0 42 -18 42 -42z" />
    <glyph glyph-name="igrave" unicode="&#xec;" horiz-adv-x="245" 
d="M97 94l53 378c3 21 22 39 44 39s37 -18 34 -39l-53 -378c-3 -22 -3 -35 7 -47c2 -3 5 -9 5 -16c0 -21 -20 -39 -42 -39c-25 0 -61 12 -48 102zM182 705l66 -81c3 -3 4 -8 4 -12c0 -22 -20 -38 -39 -38c-13 0 -20 7 -29 18l-69 86c-2 3 -3 9 -3 13c0 21 21 37 36 37
c18 0 22 -10 34 -23z" />
    <glyph glyph-name="iacute" unicode="&#xed;" horiz-adv-x="245" 
d="M97 94l53 378c3 21 22 39 44 39s37 -18 34 -39l-53 -378c-3 -22 -3 -35 7 -47c2 -3 5 -9 5 -16c0 -21 -20 -39 -42 -39c-25 0 -61 12 -48 102zM175 624l89 81c15 13 22 23 40 23c13 0 27 -12 27 -29c0 -5 -1 -15 -8 -21l-93 -86c-13 -12 -22 -18 -35 -18
c-16 0 -28 12 -28 30c0 10 3 15 8 20z" />
    <glyph glyph-name="icircumflex" unicode="&#xee;" horiz-adv-x="245" 
d="M97 94l53 378c3 21 22 39 44 39s37 -18 34 -39l-53 -378c-3 -22 -3 -35 7 -47c2 -3 5 -9 5 -16c0 -21 -20 -39 -42 -39c-25 0 -61 12 -48 102zM212 636l-83 -61c-4 -3 -14 -6 -20 -6c-12 0 -22 12 -22 23c0 13 10 23 23 33l88 67c6 4 14 8 23 8s16 -4 21 -8l69 -67
c8 -8 14 -18 14 -27c0 -14 -14 -29 -29 -29c-5 0 -15 3 -18 6z" />
    <glyph glyph-name="idieresis" unicode="&#xef;" horiz-adv-x="245" 
d="M97 94l53 378c3 21 22 39 44 39s37 -18 34 -39l-53 -378c-3 -22 -3 -35 7 -47c2 -3 5 -9 5 -16c0 -21 -20 -39 -42 -39c-25 0 -61 12 -48 102zM344 644c0 -29 -26 -54 -54 -54c-24 0 -42 20 -42 44c0 27 27 52 55 52c24 0 41 -18 41 -42zM175 644c0 -29 -26 -54 -55 -54
c-24 0 -40 20 -40 43c0 28 25 53 53 53c25 0 42 -18 42 -42z" />
    <glyph glyph-name="eth" unicode="&#xf0;" horiz-adv-x="500" 
d="M584 647c0 0 3 -1 1 -8c-3 -10 -9 -19 -19 -24l-64 -32c8 -33 13 -91 13 -145c0 -339 -88 -448 -259 -448c-132 0 -189 78 -189 184c0 139 82 263 221 263c38 0 102 -10 143 -47c10 71 10 122 2 158l-70 -35c-12 -6 -20 -7 -24 -7c-14 0 -27 16 -23 33c3 10 9 19 19 24
l76 38c-25 33 -62 38 -95 42c-13 1 -30 3 -23 34c5 22 16 32 59 32c58 0 101 -24 129 -73l57 29c8 4 15 6 24 6c24 -1 22 -24 22 -24zM418 281l4 28c-27 34 -91 56 -137 56c-84 0 -139 -71 -139 -178c0 -70 33 -123 116 -123c96 0 134 65 156 217z" />
    <glyph glyph-name="ntilde" unicode="&#xf1;" horiz-adv-x="509" 
d="M368 94l32 229c11 76 -15 119 -75 119c-39 0 -80 -16 -117 -42c0 -11 0 -21 -1 -29l-48 -340c-3 -21 -18 -38 -44 -38s-37 17 -34 38l48 340c8 55 -1 55 -8 70c-1 3 -5 9 -5 17c0 21 19 38 42 38c18 0 30 -12 38 -29c49 31 102 45 150 45c106 0 148 -76 132 -189
l-32 -229c-3 -22 -3 -35 7 -47c2 -3 5 -9 5 -16c0 -21 -20 -39 -42 -39c-25 0 -61 12 -48 102zM473 654c0 -37 -53 -63 -91 -65c-43 0 -66 29 -96 32c-37 0 -46 -27 -68 -27c-15 0 -26 11 -26 27c5 37 48 65 91 65c42 0 64 -29 96 -32c38 0 43 25 68 28c14 0 26 -12 26 -28z
" />
    <glyph glyph-name="ograve" unicode="&#xf2;" horiz-adv-x="464" 
d="M231 -8c-122 0 -176 78 -162 178l24 167c14 100 90 178 212 178s176 -78 162 -178l-24 -167c-14 -100 -90 -178 -212 -178zM241 64c72 0 115 40 124 106l24 168c9 65 -23 105 -95 105s-114 -40 -123 -105l-24 -168c-9 -66 22 -106 94 -106zM296 705l66 -81
c3 -3 4 -8 4 -12c0 -22 -20 -38 -39 -38c-13 0 -20 7 -29 18l-69 86c-2 3 -3 9 -3 13c0 21 21 37 36 37c18 0 22 -10 34 -23z" />
    <glyph glyph-name="oacute" unicode="&#xf3;" horiz-adv-x="464" 
d="M231 -8c-122 0 -176 78 -162 178l24 167c14 100 90 178 212 178s176 -78 162 -178l-24 -167c-14 -100 -90 -178 -212 -178zM241 64c72 0 115 40 124 106l24 168c9 65 -23 105 -95 105s-114 -40 -123 -105l-24 -168c-9 -66 22 -106 94 -106zM249 624l89 81
c15 13 22 23 40 23c13 0 27 -12 27 -29c0 -5 -1 -15 -8 -21l-93 -86c-13 -12 -22 -18 -35 -18c-16 0 -28 12 -28 30c0 10 3 15 8 20z" />
    <glyph glyph-name="ocircumflex" unicode="&#xf4;" horiz-adv-x="464" 
d="M231 -8c-122 0 -176 78 -162 178l24 167c14 100 90 178 212 178s176 -78 162 -178l-24 -167c-14 -100 -90 -178 -212 -178zM241 64c72 0 115 40 124 106l24 168c9 65 -23 105 -95 105s-114 -40 -123 -105l-24 -168c-9 -66 22 -106 94 -106zM321 636l-83 -61
c-4 -3 -14 -6 -20 -6c-12 0 -22 12 -22 23c0 13 10 23 23 33l88 67c6 4 14 8 23 8s16 -4 21 -8l69 -67c8 -8 14 -18 14 -27c0 -14 -14 -29 -29 -29c-5 0 -15 3 -18 6z" />
    <glyph glyph-name="otilde" unicode="&#xf5;" horiz-adv-x="464" 
d="M231 -8c-122 0 -176 78 -162 178l24 167c14 100 90 178 212 178s176 -78 162 -178l-24 -167c-14 -100 -90 -178 -212 -178zM241 64c72 0 115 40 124 106l24 168c9 65 -23 105 -95 105s-114 -40 -123 -105l-24 -168c-9 -66 22 -106 94 -106zM462 654
c0 -37 -53 -63 -91 -65c-43 0 -66 29 -96 32c-37 0 -46 -27 -68 -27c-15 0 -26 11 -26 27c5 37 48 65 91 65c42 0 64 -29 96 -32c38 0 43 25 68 28c14 0 26 -12 26 -28z" />
    <glyph glyph-name="odieresis" unicode="&#xf6;" horiz-adv-x="464" 
d="M231 -8c-122 0 -176 78 -162 178l24 167c14 100 90 178 212 178s176 -78 162 -178l-24 -167c-14 -100 -90 -178 -212 -178zM241 64c72 0 115 40 124 106l24 168c9 65 -23 105 -95 105s-114 -40 -123 -105l-24 -168c-9 -66 22 -106 94 -106zM453 644
c0 -29 -26 -54 -54 -54c-24 0 -42 20 -42 44c0 27 27 52 55 52c24 0 41 -18 41 -42zM284 644c0 -29 -26 -54 -55 -54c-24 0 -40 20 -40 43c0 28 25 53 53 53c25 0 42 -18 42 -42z" />
    <glyph glyph-name="oslash" unicode="&#xf8;" horiz-adv-x="464" 
d="M43 21l39 47c-15 28 -18 64 -13 102l23 167c14 100 90 178 212 178c53 0 93 -15 120 -40l33 39c9 11 26 15 37 6c12 -9 12 -24 2 -36l-42 -49c13 -28 17 -62 12 -98l-23 -167c-14 -100 -90 -178 -212 -178c-51 0 -90 14 -118 37l-32 -38c-9 -11 -26 -14 -36 -6
c-11 8 -12 24 -2 36zM147 170c-2 -10 -2 -19 -2 -27l227 270c-16 19 -41 30 -78 30c-72 0 -115 -40 -124 -105zM241 64c72 0 115 40 124 106l23 168c1 7 2 13 2 20l-226 -268c16 -17 42 -26 77 -26z" />
    <glyph glyph-name="ugrave" unicode="&#xf9;" horiz-adv-x="509" 
d="M370 123l49 350c3 21 18 38 44 38s37 -17 34 -38l-49 -350c-8 -55 2 -55 8 -70c1 -3 4 -10 4 -17c0 -20 -19 -38 -42 -38c-19 0 -30 12 -39 30c-47 -25 -100 -36 -147 -36c-106 0 -148 76 -132 189l41 292c3 21 19 38 44 38s37 -17 34 -38l-41 -292
c-11 -76 15 -119 75 -119c39 0 79 12 115 33c0 10 1 20 2 28zM305 705l66 -81c3 -3 4 -8 4 -12c0 -22 -20 -38 -39 -38c-13 0 -20 7 -29 18l-69 86c-2 3 -3 9 -3 13c0 21 21 37 36 37c18 0 22 -10 34 -23z" />
    <glyph glyph-name="uacute" unicode="&#xfa;" horiz-adv-x="509" 
d="M370 123l49 350c3 21 18 38 44 38s37 -17 34 -38l-49 -350c-8 -55 2 -55 8 -70c1 -3 4 -10 4 -17c0 -20 -19 -38 -42 -38c-19 0 -30 12 -39 30c-47 -25 -100 -36 -147 -36c-106 0 -148 76 -132 189l41 292c3 21 19 38 44 38s37 -17 34 -38l-41 -292
c-11 -76 15 -119 75 -119c39 0 79 12 115 33c0 10 1 20 2 28zM305 624l89 81c15 13 22 23 40 23c13 0 27 -12 27 -29c0 -5 -1 -15 -8 -21l-93 -86c-13 -12 -22 -18 -35 -18c-16 0 -28 12 -28 30c0 10 3 15 8 20z" />
    <glyph glyph-name="ucircumflex" unicode="&#xfb;" horiz-adv-x="509" 
d="M370 123l49 350c3 21 18 38 44 38s37 -17 34 -38l-49 -350c-8 -55 2 -55 8 -70c1 -3 4 -10 4 -17c0 -20 -19 -38 -42 -38c-19 0 -30 12 -39 30c-47 -25 -100 -36 -147 -36c-106 0 -148 76 -132 189l41 292c3 21 19 38 44 38s37 -17 34 -38l-41 -292
c-11 -76 15 -119 75 -119c39 0 79 12 115 33c0 10 1 20 2 28zM343 636l-83 -61c-4 -3 -14 -6 -20 -6c-12 0 -22 12 -22 23c0 13 10 23 23 33l88 67c6 4 14 8 23 8s16 -4 21 -8l69 -67c8 -8 14 -18 14 -27c0 -14 -14 -29 -29 -29c-5 0 -15 3 -18 6z" />
    <glyph glyph-name="udieresis" unicode="&#xfc;" horiz-adv-x="509" 
d="M370 123l49 350c3 21 18 38 44 38s37 -17 34 -38l-49 -350c-8 -55 2 -55 8 -70c1 -3 4 -10 4 -17c0 -20 -19 -38 -42 -38c-19 0 -30 12 -39 30c-47 -25 -100 -36 -147 -36c-106 0 -148 76 -132 189l41 292c3 21 19 38 44 38s37 -17 34 -38l-41 -292
c-11 -76 15 -119 75 -119c39 0 79 12 115 33c0 10 1 20 2 28zM476 644c0 -29 -26 -54 -54 -54c-24 0 -42 20 -42 44c0 27 27 52 55 52c24 0 41 -18 41 -42zM307 644c0 -29 -26 -54 -55 -54c-24 0 -40 20 -40 43c0 28 25 53 53 53c25 0 42 -18 42 -42z" />
    <glyph glyph-name="yacute" unicode="&#xfd;" horiz-adv-x="509" 
d="M377 107l51 366c3 21 19 38 45 38s36 -17 33 -38l-72 -513c-14 -103 -79 -184 -204 -184c-46 0 -131 13 -131 57c0 20 18 38 39 38c5 0 10 -1 15 -3c23 -12 43 -23 78 -23c78 0 115 42 125 115l10 70c-39 -23 -82 -37 -133 -37c-121 0 -149 78 -134 182l41 298
c3 21 20 38 45 38s36 -17 33 -38l-41 -298c-10 -71 11 -114 82 -114c41 0 84 14 118 46zM316 624l89 81c15 13 22 23 40 23c13 0 27 -12 27 -29c0 -5 -1 -15 -8 -21l-93 -86c-13 -12 -22 -18 -35 -18c-16 0 -28 12 -28 30c0 10 3 15 8 20z" />
    <glyph glyph-name="thorn" unicode="&#xfe;" horiz-adv-x="485" 
d="M208 396l-37 -264c23 -31 56 -50 106 -50c67 0 101 33 109 88l26 188c8 55 -16 88 -83 88c-50 0 -89 -19 -121 -50zM49 -179l122 866c3 20 19 38 44 38s37 -18 34 -38l-30 -214c40 26 84 41 138 41c114 0 145 -68 133 -156l-26 -188c-13 -88 -63 -156 -177 -156
c-54 0 -94 15 -127 41l-33 -234c-3 -20 -20 -38 -45 -38s-36 18 -33 38z" />
    <glyph glyph-name="ydieresis" unicode="&#xff;" horiz-adv-x="509" 
d="M377 107l51 366c3 21 19 38 45 38s36 -17 33 -38l-72 -513c-14 -103 -79 -184 -204 -184c-46 0 -131 13 -131 57c0 20 18 38 39 38c5 0 10 -1 15 -3c23 -12 43 -23 78 -23c78 0 115 42 125 115l10 70c-39 -23 -82 -37 -133 -37c-121 0 -149 78 -134 182l41 298
c3 21 20 38 45 38s36 -17 33 -38l-41 -298c-10 -71 11 -114 82 -114c41 0 84 14 118 46zM476 644c0 -29 -26 -54 -54 -54c-24 0 -42 20 -42 44c0 27 27 52 55 52c24 0 41 -18 41 -42zM307 644c0 -29 -26 -54 -55 -54c-24 0 -40 20 -40 43c0 28 25 53 53 53
c25 0 42 -18 42 -42z" />
    <glyph glyph-name="Amacron" unicode="&#x100;" horiz-adv-x="549" 
d="M170 159l-62 -139c-8 -18 -28 -30 -42 -30c-21 0 -37 14 -37 35c0 7 3 17 5 20l281 617c14 30 31 53 60 53c30 0 39 -22 45 -53l108 -617c0 -1 1 -5 1 -8c0 -29 -22 -47 -48 -47c-15 0 -32 12 -35 30l-23 139h-253zM355 576l-150 -339h206zM553 841
c0 -22 -20 -40 -42 -40h-249c-19 0 -32 14 -32 32c0 22 20 41 43 41h249c18 0 31 -15 31 -33z" />
    <glyph glyph-name="amacron" unicode="&#x101;" horiz-adv-x="482" 
d="M302 514c-133 0 -196 -87 -213 -206l-18 -127c-16 -112 29 -189 128 -189c50 0 94 19 144 49c11 -29 36 -46 67 -46c23 0 50 10 50 39c0 15 -8 29 -25 29c-4 0 -5 -1 -8 -1c-12 0 -17 10 -14 30l31 220c18 130 -21 202 -142 202zM337 105c-32 -24 -71 -43 -112 -43
c-60 0 -87 41 -76 119l18 127c13 95 44 134 120 134c69 0 93 -32 83 -104zM469 641c0 -22 -20 -40 -42 -40h-249c-19 0 -32 14 -32 32c0 22 20 41 43 41h249c18 0 31 -15 31 -33z" />
    <glyph glyph-name="Abreve" unicode="&#x102;" horiz-adv-x="549" 
d="M170 159l-62 -139c-8 -18 -28 -30 -42 -30c-21 0 -37 14 -37 35c0 7 3 17 5 20l281 617c14 30 31 53 60 53c30 0 39 -22 45 -53l108 -617c0 -1 1 -5 1 -8c0 -29 -22 -47 -48 -47c-15 0 -32 12 -35 30l-23 139h-253zM355 576l-150 -339h206zM392 833c22 0 45 11 70 41
c9 11 22 16 33 16c17 0 31 -11 21 -37c-21 -54 -88 -81 -133 -81s-104 27 -110 81c-3 26 15 37 32 37c11 0 21 -5 27 -16c16 -30 37 -41 60 -41z" />
    <glyph glyph-name="abreve" unicode="&#x103;" horiz-adv-x="482" 
d="M302 514c-133 0 -196 -87 -213 -206l-18 -127c-16 -112 29 -189 128 -189c50 0 94 19 144 49c11 -29 36 -46 67 -46c23 0 50 10 50 39c0 15 -8 29 -25 29c-4 0 -5 -1 -8 -1c-12 0 -17 10 -14 30l31 220c18 130 -21 202 -142 202zM337 105c-32 -24 -71 -43 -112 -43
c-60 0 -87 41 -76 119l18 127c13 95 44 134 120 134c69 0 93 -32 83 -104zM330 633c22 0 45 11 70 41c9 11 22 16 33 16c17 0 31 -11 21 -37c-21 -54 -88 -81 -133 -81s-104 27 -110 81c-3 26 15 37 32 37c11 0 21 -5 27 -16c16 -30 37 -41 60 -41z" />
    <glyph glyph-name="Aogonek" unicode="&#x104;" horiz-adv-x="549" 
d="M571 -153c0 -37 -50 -42 -83 -42c-56 0 -92 24 -92 76c0 41 27 86 58 122c-5 4 -7 10 -8 17l-23 139h-253l-62 -139c-8 -18 -28 -30 -42 -30c-21 0 -37 14 -37 35c0 7 3 17 5 20l281 617c14 30 31 53 60 53c30 0 39 -22 45 -53l108 -617c0 -1 1 -5 1 -8
c0 -19 -11 -29 -20 -38c-27 -27 -43 -70 -43 -95c0 -21 12 -38 38 -38c24 0 32 5 43 5c14 0 24 -11 24 -24zM355 576l-150 -339h206z" />
    <glyph glyph-name="aogonek" unicode="&#x105;" horiz-adv-x="482" 
d="M343 41c-50 -30 -94 -49 -144 -49c-99 0 -144 77 -128 189l18 127c17 119 80 206 213 206c121 0 160 -72 142 -202l-31 -220c-3 -20 2 -30 14 -30c3 0 4 1 8 1c17 0 25 -14 25 -29c0 -19 -13 -25 -24 -34c-28 -24 -44 -71 -44 -96c0 -21 12 -38 38 -38c24 0 32 5 43 5
c14 0 24 -11 24 -24c0 -37 -50 -42 -83 -42c-56 0 -92 24 -92 76c0 41 24 82 57 120c-17 7 -29 21 -36 40zM337 105l33 233c10 72 -14 104 -83 104c-76 0 -107 -39 -120 -134l-18 -127c-11 -78 16 -119 76 -119c41 0 80 19 112 43z" />
    <glyph glyph-name="Cacute" unicode="&#x106;" horiz-adv-x="482" 
d="M80 246l30 214c22 154 107 255 261 255c87 0 165 -37 165 -82c0 -21 -19 -39 -41 -39c-14 0 -20 6 -34 17c-27 20 -57 31 -96 31c-113 0 -159 -70 -175 -182l-30 -214c-16 -112 11 -182 124 -182c39 0 72 11 105 31c18 11 24 17 38 17c19 0 31 -14 31 -31
c0 -49 -95 -90 -189 -90c-154 0 -211 101 -189 255zM354 824l89 81c15 13 22 23 40 23c13 0 27 -12 27 -29c0 -5 -1 -15 -8 -21l-93 -86c-13 -12 -22 -18 -35 -18c-16 0 -28 12 -28 30c0 10 3 15 8 20z" />
    <glyph glyph-name="cacute" unicode="&#x107;" horiz-adv-x="393" 
d="M70 176l21 151c14 103 80 184 205 184c45 0 130 -13 130 -57c0 -20 -18 -38 -39 -38c-5 0 -10 0 -15 3c-23 11 -43 23 -78 23c-78 0 -115 -42 -125 -115l-22 -151c-10 -73 15 -115 93 -115c35 0 59 12 85 23c6 3 11 3 16 3c17 0 30 -14 30 -30c0 -50 -100 -65 -148 -65
c-125 0 -168 81 -153 184zM264 624l89 81c15 13 22 23 40 23c13 0 27 -12 27 -29c0 -5 -1 -15 -8 -21l-93 -86c-13 -12 -22 -18 -35 -18c-16 0 -28 12 -28 30c0 10 3 15 8 20z" />
    <glyph glyph-name="Ccircumflex" unicode="&#x108;" horiz-adv-x="482" 
d="M80 246l30 214c22 154 107 255 261 255c87 0 165 -37 165 -82c0 -21 -19 -39 -41 -39c-14 0 -20 6 -34 17c-27 20 -57 31 -96 31c-113 0 -159 -70 -175 -182l-30 -214c-16 -112 11 -182 124 -182c39 0 72 11 105 31c18 11 24 17 38 17c19 0 31 -14 31 -31
c0 -49 -95 -90 -189 -90c-154 0 -211 101 -189 255zM385 836l-83 -61c-4 -3 -14 -6 -20 -6c-12 0 -22 12 -22 23c0 13 10 23 23 33l88 67c6 4 14 8 23 8s16 -4 21 -8l69 -67c8 -8 14 -18 14 -27c0 -14 -14 -29 -29 -29c-5 0 -15 3 -18 6z" />
    <glyph glyph-name="ccircumflex" unicode="&#x109;" horiz-adv-x="393" 
d="M70 176l21 151c14 103 80 184 205 184c45 0 130 -13 130 -57c0 -20 -18 -38 -39 -38c-5 0 -10 0 -15 3c-23 11 -43 23 -78 23c-78 0 -115 -42 -125 -115l-22 -151c-10 -73 15 -115 93 -115c35 0 59 12 85 23c6 3 11 3 16 3c17 0 30 -14 30 -30c0 -50 -100 -65 -148 -65
c-125 0 -168 81 -153 184zM286 636l-83 -61c-4 -3 -14 -6 -20 -6c-12 0 -22 12 -22 23c0 13 10 23 23 33l88 67c6 4 14 8 23 8s16 -4 21 -8l69 -67c8 -8 14 -18 14 -27c0 -14 -14 -29 -29 -29c-5 0 -15 3 -18 6z" />
    <glyph glyph-name="Cdotaccent" unicode="&#x10a;" horiz-adv-x="482" 
d="M80 246l30 214c22 154 107 255 261 255c87 0 165 -37 165 -82c0 -21 -19 -39 -41 -39c-14 0 -20 6 -34 17c-27 20 -57 31 -96 31c-113 0 -159 -70 -175 -182l-30 -214c-16 -112 11 -182 124 -182c39 0 72 11 105 31c18 11 24 17 38 17c19 0 31 -14 31 -31
c0 -49 -95 -90 -189 -90c-154 0 -211 101 -189 255zM406 844c0 -29 -26 -54 -55 -54c-24 0 -40 20 -40 43c0 28 25 53 53 53c25 0 42 -18 42 -42z" />
    <glyph glyph-name="cdotaccent" unicode="&#x10b;" horiz-adv-x="393" 
d="M70 176l21 151c14 103 80 184 205 184c45 0 130 -13 130 -57c0 -20 -18 -38 -39 -38c-5 0 -10 0 -15 3c-23 11 -43 23 -78 23c-78 0 -115 -42 -125 -115l-22 -151c-10 -73 15 -115 93 -115c35 0 59 12 85 23c6 3 11 3 16 3c17 0 30 -14 30 -30c0 -50 -100 -65 -148 -65
c-125 0 -168 81 -153 184zM333 644c0 -29 -26 -54 -55 -54c-24 0 -40 20 -40 43c0 28 25 53 53 53c25 0 42 -18 42 -42z" />
    <glyph glyph-name="Ccaron" unicode="&#x10c;" horiz-adv-x="482" 
d="M80 246l30 214c22 154 107 255 261 255c87 0 165 -37 165 -82c0 -21 -19 -39 -41 -39c-14 0 -20 6 -34 17c-27 20 -57 31 -96 31c-113 0 -159 -70 -175 -182l-30 -214c-16 -112 11 -182 124 -182c39 0 72 11 105 31c18 11 24 17 38 17c19 0 31 -14 31 -31
c0 -49 -95 -90 -189 -90c-154 0 -211 101 -189 255zM383 762c-10 0 -17 4 -23 9l-77 73c-10 9 -16 18 -16 30c0 19 18 33 35 33c6 0 12 -3 17 -7l74 -67l93 67c6 4 12 7 18 7c15 0 28 -11 28 -26s-8 -25 -25 -37l-99 -73c-7 -5 -15 -9 -25 -9z" />
    <glyph glyph-name="ccaron" unicode="&#x10d;" horiz-adv-x="393" 
d="M70 176l21 151c14 103 80 184 205 184c45 0 130 -13 130 -57c0 -20 -18 -38 -39 -38c-5 0 -10 0 -15 3c-23 11 -43 23 -78 23c-78 0 -115 -42 -125 -115l-22 -151c-10 -73 15 -115 93 -115c35 0 59 12 85 23c6 3 11 3 16 3c17 0 30 -14 30 -30c0 -50 -100 -65 -148 -65
c-125 0 -168 81 -153 184zM302 562c-10 0 -17 4 -23 9l-77 73c-10 9 -16 18 -16 30c0 19 18 33 35 33c6 0 12 -3 17 -7l74 -67l93 67c6 4 12 7 18 7c15 0 28 -11 28 -26s-8 -25 -25 -37l-99 -73c-7 -5 -15 -9 -25 -9z" />
    <glyph glyph-name="Dcaron" unicode="&#x10e;" horiz-adv-x="554" 
d="M545 264c-19 -137 -106 -264 -311 -264h-113c-26 0 -45 22 -41 48l85 610c4 26 29 48 55 48h113c204 0 257 -121 238 -255zM465 264l26 187c14 99 -22 177 -152 177h-98l-77 -550h98c132 0 189 83 203 186zM384 762c-10 0 -17 4 -23 9l-77 73c-10 9 -16 18 -16 30
c0 19 18 33 35 33c6 0 12 -3 17 -7l74 -67l93 67c6 4 12 7 18 7c15 0 28 -11 28 -26s-8 -25 -25 -37l-99 -73c-7 -5 -15 -9 -25 -9z" />
    <glyph glyph-name="dcaron" unicode="&#x10f;" horiz-adv-x="605" 
d="M284 510c33 0 74 -7 108 -19l28 196c3 21 19 38 44 38s37 -17 34 -38l-81 -573c-4 -28 0 -45 18 -60c2 -5 4 -10 4 -16c0 -23 -21 -39 -40 -39c-23 0 -39 13 -48 32c-47 -22 -98 -39 -148 -39c-105 0 -148 77 -132 189l18 127c17 119 68 202 195 202zM339 114l43 307
c-31 14 -74 21 -98 21c-73 0 -104 -41 -117 -134l-18 -127c-11 -78 14 -119 80 -119c32 0 73 11 109 29c-1 8 0 16 1 23zM676 678c0 -60 -70 -170 -99 -170c-9 0 -17 3 -17 14c0 33 31 49 50 95c-25 3 -42 23 -42 48c0 33 29 60 62 60c27 0 46 -21 46 -47z" />
    <glyph glyph-name="Dcroat" unicode="&#x110;" horiz-adv-x="574" 
d="M565 264c-19 -137 -106 -264 -311 -264h-113c-26 0 -46 22 -42 48l38 269h-39c-19 0 -32 14 -32 32c0 22 20 41 43 41h38l38 268c4 26 29 48 55 48h113c204 0 257 -121 238 -255zM389 357c0 -22 -20 -40 -42 -40h-130l-33 -239h98c132 0 189 83 203 186l26 187
c14 99 -22 177 -152 177h-98l-33 -238h130c18 0 31 -15 31 -33z" />
    <glyph glyph-name="dcroat" unicode="&#x111;" horiz-adv-x="488" 
d="M570 610c0 -22 -20 -40 -42 -40h-47l-64 -456c-4 -28 0 -45 18 -60c2 -5 4 -10 4 -16c0 -23 -21 -39 -40 -39c-23 0 -39 13 -48 32c-47 -22 -98 -39 -148 -39c-105 0 -148 77 -132 189l18 127c17 119 68 202 195 202c33 0 74 -7 108 -19l11 79h-124c-19 0 -32 14 -32 32
c0 22 20 41 43 41h124l6 44c3 21 19 38 44 38s37 -17 34 -38l-6 -44h47c18 0 31 -15 31 -33zM339 114l43 307c-31 14 -74 21 -98 21c-73 0 -104 -41 -117 -134l-18 -127c-11 -78 14 -119 80 -119c32 0 73 11 109 29c-1 8 0 16 1 23z" />
    <glyph glyph-name="Emacron" unicode="&#x112;" horiz-adv-x="474" 
d="M448 45c0 -24 -23 -45 -47 -45h-265c-33 0 -61 11 -56 47l86 611c3 23 27 47 54 47h271c20 0 34 -16 34 -35c0 -25 -22 -43 -45 -43h-238l-33 -234h219c18 0 34 -15 34 -35c0 -24 -21 -43 -45 -43h-219l-34 -237h248c20 0 36 -15 36 -33zM516 841c0 -22 -20 -40 -42 -40
h-249c-19 0 -32 14 -32 32c0 22 20 41 43 41h249c18 0 31 -15 31 -33z" />
    <glyph glyph-name="emacron" unicode="&#x113;" horiz-adv-x="435" 
d="M241 61c-72 0 -104 36 -96 92l8 59c34 -6 71 -9 101 -9c136 0 192 70 192 175c0 83 -48 136 -146 136c-119 0 -192 -73 -206 -169l-27 -187c-13 -94 42 -166 155 -166c56 0 171 17 171 69c0 16 -12 31 -30 31c-7 0 -12 -2 -14 -3c-37 -16 -66 -28 -108 -28zM368 369
c0 -59 -26 -100 -102 -100c-20 0 -68 2 -105 7l11 76c8 56 51 91 116 91c51 0 80 -22 80 -74zM468 641c0 -22 -20 -40 -42 -40h-249c-19 0 -32 14 -32 32c0 22 20 41 43 41h249c18 0 31 -15 31 -33z" />
    <glyph glyph-name="Ebreve" unicode="&#x114;" horiz-adv-x="474" 
d="M448 45c0 -24 -23 -45 -47 -45h-265c-33 0 -61 11 -56 47l86 611c3 23 27 47 54 47h271c20 0 34 -16 34 -35c0 -25 -22 -43 -45 -43h-238l-33 -234h219c18 0 34 -15 34 -35c0 -24 -21 -43 -45 -43h-219l-34 -237h248c20 0 36 -15 36 -33zM355 833c22 0 45 11 70 41
c9 11 22 16 33 16c17 0 31 -11 21 -37c-21 -54 -88 -81 -133 -81s-104 27 -110 81c-3 26 15 37 32 37c11 0 21 -5 27 -16c16 -30 37 -41 60 -41z" />
    <glyph glyph-name="ebreve" unicode="&#x115;" horiz-adv-x="435" 
d="M241 61c-72 0 -104 36 -96 92l8 59c34 -6 71 -9 101 -9c136 0 192 70 192 175c0 83 -48 136 -146 136c-119 0 -192 -73 -206 -169l-27 -187c-13 -94 42 -166 155 -166c56 0 171 17 171 69c0 16 -12 31 -30 31c-7 0 -12 -2 -14 -3c-37 -16 -66 -28 -108 -28zM368 369
c0 -59 -26 -100 -102 -100c-20 0 -68 2 -105 7l11 76c8 56 51 91 116 91c51 0 80 -22 80 -74zM306 633c22 0 45 11 70 41c9 11 22 16 33 16c17 0 31 -11 21 -37c-21 -54 -88 -81 -133 -81s-104 27 -110 81c-3 26 15 37 32 37c11 0 21 -5 27 -16c16 -30 37 -41 60 -41z" />
    <glyph glyph-name="Edotaccent" unicode="&#x116;" horiz-adv-x="474" 
d="M448 45c0 -24 -23 -45 -47 -45h-265c-33 0 -61 11 -56 47l86 611c3 23 27 47 54 47h271c20 0 34 -16 34 -35c0 -25 -22 -43 -45 -43h-238l-33 -234h219c18 0 34 -15 34 -35c0 -24 -21 -43 -45 -43h-219l-34 -237h248c20 0 36 -15 36 -33zM402 844c0 -29 -26 -54 -55 -54
c-24 0 -40 20 -40 43c0 28 25 53 53 53c25 0 42 -18 42 -42z" />
    <glyph glyph-name="edotaccent" unicode="&#x117;" horiz-adv-x="435" 
d="M241 61c-72 0 -104 36 -96 92l8 59c34 -6 71 -9 101 -9c136 0 192 70 192 175c0 83 -48 136 -146 136c-119 0 -192 -73 -206 -169l-27 -187c-13 -94 42 -166 155 -166c56 0 171 17 171 69c0 16 -12 31 -30 31c-7 0 -12 -2 -14 -3c-37 -16 -66 -28 -108 -28zM368 369
c0 -59 -26 -100 -102 -100c-20 0 -68 2 -105 7l11 76c8 56 51 91 116 91c51 0 80 -22 80 -74zM354 644c0 -29 -26 -54 -55 -54c-24 0 -40 20 -40 43c0 28 25 53 53 53c25 0 42 -18 42 -42z" />
    <glyph glyph-name="Eogonek" unicode="&#x118;" horiz-adv-x="474" 
d="M462 -153c0 -37 -50 -42 -83 -42c-56 0 -92 24 -92 76c0 40 23 82 54 119h-205c-33 0 -61 11 -56 47l86 611c3 23 27 47 54 47h271c20 0 34 -16 34 -35c0 -25 -22 -43 -45 -43h-238l-33 -234h219c18 0 34 -15 34 -35c0 -24 -21 -43 -45 -43h-219l-34 -237h248
c20 0 36 -15 36 -33c0 -24 -23 -45 -47 -45c-18 -30 -44 -66 -44 -96c0 -21 12 -38 39 -38c24 0 31 5 42 5c14 0 24 -11 24 -24z" />
    <glyph glyph-name="eogonek" unicode="&#x119;" horiz-adv-x="435" 
d="M372 -153c0 -37 -50 -42 -82 -42c-56 0 -92 24 -92 76c0 37 18 76 48 112c-9 0 -17 -1 -24 -1c-113 0 -168 72 -155 166l27 187c14 96 87 169 206 169c98 0 146 -53 146 -136c0 -105 -56 -175 -192 -175c-30 0 -67 3 -101 9l-8 -59c-8 -56 24 -92 96 -92
c42 0 71 12 108 28c2 1 7 3 14 3c18 0 30 -15 30 -31c0 -29 -36 -37 -73 -57c-47 -26 -52 -91 -52 -100c0 -21 12 -38 38 -38c24 0 32 5 43 5c14 0 23 -11 23 -24zM368 369c0 52 -29 74 -80 74c-65 0 -108 -35 -116 -91l-11 -76c37 -5 85 -7 105 -7c76 0 102 41 102 100z
" />
    <glyph glyph-name="Ecaron" unicode="&#x11a;" horiz-adv-x="474" 
d="M448 45c0 -24 -23 -45 -47 -45h-265c-33 0 -61 11 -56 47l86 611c3 23 27 47 54 47h271c20 0 34 -16 34 -35c0 -25 -22 -43 -45 -43h-238l-33 -234h219c18 0 34 -15 34 -35c0 -24 -21 -43 -45 -43h-219l-34 -237h248c20 0 36 -15 36 -33zM374 762c-10 0 -17 4 -23 9
l-77 73c-10 9 -16 18 -16 30c0 19 18 33 35 33c6 0 12 -3 17 -7l74 -67l93 67c6 4 12 7 18 7c15 0 28 -11 28 -26s-8 -25 -25 -37l-99 -73c-7 -5 -15 -9 -25 -9z" />
    <glyph glyph-name="ecaron" unicode="&#x11b;" horiz-adv-x="435" 
d="M241 61c-72 0 -104 36 -96 92l8 59c34 -6 71 -9 101 -9c136 0 192 70 192 175c0 83 -48 136 -146 136c-119 0 -192 -73 -206 -169l-27 -187c-13 -94 42 -166 155 -166c56 0 171 17 171 69c0 16 -12 31 -30 31c-7 0 -12 -2 -14 -3c-37 -16 -66 -28 -108 -28zM368 369
c0 -59 -26 -100 -102 -100c-20 0 -68 2 -105 7l11 76c8 56 51 91 116 91c51 0 80 -22 80 -74zM296 562c-10 0 -17 4 -23 9l-77 73c-10 9 -16 18 -16 30c0 19 18 33 35 33c6 0 12 -3 17 -7l74 -67l93 67c6 4 12 7 18 7c15 0 28 -11 28 -26s-8 -25 -25 -37l-99 -73
c-7 -5 -15 -9 -25 -9z" />
    <glyph glyph-name="Gcircumflex" unicode="&#x11c;" horiz-adv-x="520" 
d="M190 460l-30 -214c-16 -112 11 -182 124 -182c48 0 85 14 118 37l30 215h-97c-18 0 -33 15 -33 34c0 23 22 42 44 42h119c32 0 55 -14 51 -46l-34 -239c-11 -81 -124 -116 -213 -116c-154 0 -211 101 -189 255l30 214c22 154 107 255 261 255c87 0 165 -37 165 -82
c0 -21 -19 -39 -41 -39c-14 0 -20 6 -34 17c-27 20 -57 31 -96 31c-113 0 -159 -70 -175 -182zM378 836l-83 -61c-4 -3 -14 -6 -20 -6c-12 0 -22 12 -22 23c0 13 10 23 23 33l88 67c6 4 14 8 23 8s16 -4 21 -8l69 -67c8 -8 14 -18 14 -27c0 -14 -14 -29 -29 -29
c-5 0 -15 3 -18 6z" />
    <glyph glyph-name="gcircumflex" unicode="&#x11d;" horiz-adv-x="485" 
d="M348 107l35 246c8 56 -28 89 -93 89c-72 0 -111 -41 -120 -109l-22 -158c-10 -71 11 -114 82 -114c41 0 84 14 118 46zM461 353l-56 -393c-14 -103 -79 -184 -204 -184c-46 0 -131 13 -131 57c0 20 18 38 39 38c5 0 10 -1 15 -3c23 -12 43 -23 78 -23
c78 0 115 42 125 115l10 70c-39 -23 -82 -37 -133 -37c-121 0 -149 78 -134 182l22 158c14 102 86 181 208 181c116 0 174 -71 161 -161zM316 636l-83 -61c-4 -3 -14 -6 -20 -6c-12 0 -22 12 -22 23c0 13 10 23 23 33l88 67c6 4 14 8 23 8s16 -4 21 -8l69 -67
c8 -8 14 -18 14 -27c0 -14 -14 -29 -29 -29c-5 0 -15 3 -18 6z" />
    <glyph glyph-name="Gbreve" unicode="&#x11e;" horiz-adv-x="520" 
d="M190 460l-30 -214c-16 -112 11 -182 124 -182c48 0 85 14 118 37l30 215h-97c-18 0 -33 15 -33 34c0 23 22 42 44 42h119c32 0 55 -14 51 -46l-34 -239c-11 -81 -124 -116 -213 -116c-154 0 -211 101 -189 255l30 214c22 154 107 255 261 255c87 0 165 -37 165 -82
c0 -21 -19 -39 -41 -39c-14 0 -20 6 -34 17c-27 20 -57 31 -96 31c-113 0 -159 -70 -175 -182zM378 833c22 0 45 11 70 41c9 11 22 16 33 16c17 0 31 -11 21 -37c-21 -54 -88 -81 -133 -81s-104 27 -110 81c-3 26 15 37 32 37c11 0 21 -5 27 -16c16 -30 37 -41 60 -41z" />
    <glyph glyph-name="gbreve" unicode="&#x11f;" horiz-adv-x="485" 
d="M348 107l35 246c8 56 -28 89 -93 89c-72 0 -111 -41 -120 -109l-22 -158c-10 -71 11 -114 82 -114c41 0 84 14 118 46zM461 353l-56 -393c-14 -103 -79 -184 -204 -184c-46 0 -131 13 -131 57c0 20 18 38 39 38c5 0 10 -1 15 -3c23 -12 43 -23 78 -23
c78 0 115 42 125 115l10 70c-39 -23 -82 -37 -133 -37c-121 0 -149 78 -134 182l22 158c14 102 86 181 208 181c116 0 174 -71 161 -161zM317 633c22 0 45 11 70 41c9 11 22 16 33 16c17 0 31 -11 21 -37c-21 -54 -88 -81 -133 -81s-104 27 -110 81c-3 26 15 37 32 37
c11 0 21 -5 27 -16c16 -30 37 -41 60 -41z" />
    <glyph glyph-name="Gdotaccent" unicode="&#x120;" horiz-adv-x="520" 
d="M190 460l-30 -214c-16 -112 11 -182 124 -182c48 0 85 14 118 37l30 215h-97c-18 0 -33 15 -33 34c0 23 22 42 44 42h119c32 0 55 -14 51 -46l-34 -239c-11 -81 -124 -116 -213 -116c-154 0 -211 101 -189 255l30 214c22 154 107 255 261 255c87 0 165 -37 165 -82
c0 -21 -19 -39 -41 -39c-14 0 -20 6 -34 17c-27 20 -57 31 -96 31c-113 0 -159 -70 -175 -182zM425 844c0 -29 -26 -54 -55 -54c-24 0 -40 20 -40 43c0 28 25 53 53 53c25 0 42 -18 42 -42z" />
    <glyph glyph-name="gdotaccent" unicode="&#x121;" horiz-adv-x="485" 
d="M348 107l35 246c8 56 -28 89 -93 89c-72 0 -111 -41 -120 -109l-22 -158c-10 -71 11 -114 82 -114c41 0 84 14 118 46zM461 353l-56 -393c-14 -103 -79 -184 -204 -184c-46 0 -131 13 -131 57c0 20 18 38 39 38c5 0 10 -1 15 -3c23 -12 43 -23 78 -23
c78 0 115 42 125 115l10 70c-39 -23 -82 -37 -133 -37c-121 0 -149 78 -134 182l22 158c14 102 86 181 208 181c116 0 174 -71 161 -161zM367 644c0 -29 -26 -54 -55 -54c-24 0 -40 20 -40 43c0 28 25 53 53 53c25 0 42 -18 42 -42z" />
    <glyph glyph-name="uni0122" unicode="&#x122;" horiz-adv-x="520" 
d="M190 460l-30 -214c-16 -112 11 -182 124 -182c48 0 85 14 118 37l30 215h-97c-18 0 -33 15 -33 34c0 23 22 42 44 42h119c32 0 55 -14 51 -46l-34 -239c-11 -81 -124 -116 -213 -116c-154 0 -211 101 -189 255l30 214c22 154 107 255 261 255c87 0 165 -37 165 -82
c0 -21 -19 -39 -41 -39c-14 0 -20 6 -34 17c-27 20 -57 31 -96 31c-113 0 -159 -70 -175 -182zM320 -98c0 -52 -66 -140 -95 -140c-9 0 -17 4 -17 15c0 23 29 34 46 64c-25 2 -42 23 -42 48c0 34 29 60 62 60c27 0 46 -21 46 -47z" />
    <glyph glyph-name="uni0123" unicode="&#x123;" horiz-adv-x="485" 
d="M264 631c0 52 66 140 95 140c9 0 17 -4 17 -15c0 -23 -29 -34 -46 -64c25 -2 42 -23 42 -48c0 -34 -29 -60 -62 -60c-27 0 -46 21 -46 47zM348 107l35 246c8 56 -28 89 -93 89c-72 0 -111 -41 -120 -109l-22 -158c-10 -71 11 -114 82 -114c41 0 84 14 118 46zM461 353
l-56 -393c-14 -103 -79 -184 -204 -184c-46 0 -131 13 -131 57c0 20 18 38 39 38c5 0 10 -1 15 -3c23 -12 43 -23 78 -23c78 0 115 42 125 115l10 70c-39 -23 -82 -37 -133 -37c-121 0 -149 78 -134 182l22 158c14 102 86 181 208 181c116 0 174 -71 161 -161z" />
    <glyph glyph-name="Hcircumflex" unicode="&#x124;" horiz-adv-x="580" 
d="M510 31c-3 -22 -24 -41 -46 -41c-21 0 -37 19 -34 41l40 283h-273l-40 -283c-3 -22 -24 -41 -46 -41s-37 19 -34 41l91 644c3 21 23 40 45 40s38 -19 35 -40l-40 -283h273l40 283c3 21 24 40 45 40s38 -19 35 -40zM408 836l-83 -61c-4 -3 -14 -6 -20 -6
c-12 0 -22 12 -22 23c0 13 10 23 23 33l88 67c6 4 14 8 23 8s16 -4 21 -8l69 -67c8 -8 14 -18 14 -27c0 -14 -14 -29 -29 -29c-5 0 -15 3 -18 6z" />
    <glyph glyph-name="Itilde" unicode="&#x128;" horiz-adv-x="227" 
d="M77 30l91 645c3 21 23 40 45 40s38 -19 35 -40l-91 -645c-3 -21 -24 -40 -46 -40s-37 19 -34 40zM372 854c0 -37 -53 -63 -91 -65c-43 0 -66 29 -96 32c-37 0 -46 -27 -68 -27c-15 0 -26 11 -26 27c5 37 48 65 91 65c42 0 64 -29 96 -32c38 0 43 25 68 28
c14 0 26 -12 26 -28z" />
    <glyph glyph-name="itilde" unicode="&#x129;" horiz-adv-x="245" 
d="M97 94l53 378c3 21 22 39 44 39s37 -18 34 -39l-53 -378c-3 -22 -3 -35 7 -47c2 -3 5 -9 5 -16c0 -21 -20 -39 -42 -39c-25 0 -61 12 -48 102zM353 654c0 -37 -53 -63 -91 -65c-43 0 -66 29 -96 32c-37 0 -46 -27 -68 -27c-15 0 -26 11 -26 27c5 37 48 65 91 65
c42 0 64 -29 96 -32c38 0 43 25 68 28c14 0 26 -12 26 -28z" />
    <glyph glyph-name="Imacron" unicode="&#x12a;" horiz-adv-x="227" 
d="M77 30l91 645c3 21 23 40 45 40s38 -19 35 -40l-91 -645c-3 -21 -24 -40 -46 -40s-37 19 -34 40zM393 841c0 -22 -20 -40 -42 -40h-249c-19 0 -32 14 -32 32c0 22 20 41 43 41h249c18 0 31 -15 31 -33z" />
    <glyph glyph-name="imacron" unicode="&#x12b;" horiz-adv-x="245" 
d="M97 94l53 378c3 21 22 39 44 39s37 -18 34 -39l-53 -378c-3 -22 -3 -35 7 -47c2 -3 5 -9 5 -16c0 -21 -20 -39 -42 -39c-25 0 -61 12 -48 102zM374 641c0 -22 -20 -40 -42 -40h-249c-19 0 -32 14 -32 32c0 22 20 41 43 41h249c18 0 31 -15 31 -33z" />
    <glyph glyph-name="Ibreve" unicode="&#x12c;" horiz-adv-x="227" 
d="M77 30l91 645c3 21 23 40 45 40s38 -19 35 -40l-91 -645c-3 -21 -24 -40 -46 -40s-37 19 -34 40zM232 833c22 0 45 11 70 41c9 11 22 16 33 16c17 0 31 -11 21 -37c-21 -54 -88 -81 -133 -81s-104 27 -110 81c-3 26 15 37 32 37c11 0 21 -5 27 -16c16 -30 37 -41 60 -41z
" />
    <glyph glyph-name="ibreve" unicode="&#x12d;" horiz-adv-x="245" 
d="M97 94l53 378c3 21 22 39 44 39s37 -18 34 -39l-53 -378c-3 -22 -3 -35 7 -47c2 -3 5 -9 5 -16c0 -21 -20 -39 -42 -39c-25 0 -61 12 -48 102zM212 633c22 0 45 11 70 41c9 11 22 16 33 16c17 0 31 -11 21 -37c-21 -54 -88 -81 -133 -81s-104 27 -110 81
c-3 26 15 37 32 37c11 0 21 -5 27 -16c16 -30 37 -41 60 -41z" />
    <glyph glyph-name="Iogonek" unicode="&#x12e;" horiz-adv-x="227" 
d="M199 -153c0 -37 -50 -42 -82 -42c-56 0 -92 24 -92 76c0 41 23 84 58 122c-5 7 -7 17 -6 27l91 645c3 21 24 40 46 40s37 -19 34 -40l-91 -645c-2 -12 -11 -22 -18 -30c-24 -27 -44 -69 -44 -96c0 -21 12 -38 38 -38c24 0 32 5 43 5c14 0 23 -11 23 -24z" />
    <glyph glyph-name="iogonek" unicode="&#x12f;" horiz-adv-x="245" 
d="M206 -153c0 -37 -50 -42 -82 -42c-56 0 -92 24 -92 76c0 42 25 86 61 124c-5 7 -7 16 -6 26l62 441c3 21 23 39 45 39s36 -18 33 -39l-62 -441c-2 -13 -11 -22 -19 -31c-25 -26 -44 -69 -44 -96c0 -21 12 -38 38 -38c24 0 32 5 43 5c14 0 23 -11 23 -24zM264 674
c0 -29 -26 -54 -55 -54c-24 0 -42 19 -42 43c0 29 26 53 56 53c24 0 41 -18 41 -42z" />
    <glyph glyph-name="Idotaccent" unicode="&#x130;" horiz-adv-x="227" 
d="M77 30l91 645c3 21 23 40 45 40s38 -19 35 -40l-91 -645c-3 -21 -24 -40 -46 -40s-37 19 -34 40zM279 844c0 -29 -26 -54 -55 -54c-24 0 -40 20 -40 43c0 28 25 53 53 53c25 0 42 -18 42 -42z" />
    <glyph glyph-name="dotlessi" unicode="&#x131;" horiz-adv-x="245" 
d="M97 94l53 378c3 21 22 39 44 39s37 -18 34 -39l-53 -378c-3 -22 -3 -35 7 -47c2 -3 5 -9 5 -16c0 -21 -20 -39 -42 -39c-25 0 -61 12 -48 102z" />
    <glyph glyph-name="Jcircumflex" unicode="&#x134;" horiz-adv-x="385" 
d="M406 675l-63 -450c-20 -146 -80 -235 -235 -235c-27 0 -79 3 -79 40c0 28 25 44 41 44c11 0 29 -7 60 -7c92 0 119 61 133 158l63 450c3 22 23 40 46 40c21 0 37 -19 34 -40zM388 836l-83 -61c-4 -3 -14 -6 -20 -6c-12 0 -22 12 -22 23c0 13 10 23 23 33l88 67
c6 4 14 8 23 8s16 -4 21 -8l69 -67c8 -8 14 -18 14 -27c0 -14 -14 -29 -29 -29c-5 0 -15 3 -18 6z" />
    <glyph glyph-name="jcircumflex" unicode="&#x135;" horiz-adv-x="245" 
d="M227 472l-68 -487c-15 -105 -75 -174 -167 -187c-8 -1 -13 -1 -19 -1c-16 0 -28 10 -30 26c-3 27 21 40 36 43c56 12 91 42 101 115l69 491c3 21 23 39 45 39s36 -18 33 -39zM212 636l-83 -61c-4 -3 -14 -6 -20 -6c-12 0 -22 12 -22 23c0 13 10 23 23 33l88 67
c6 4 14 8 23 8s16 -4 21 -8l69 -67c8 -8 14 -18 14 -27c0 -14 -14 -29 -29 -29c-5 0 -15 3 -18 6z" />
    <glyph glyph-name="uni0136" unicode="&#x136;" horiz-adv-x="498" 
d="M421 9l-173 315l-58 -61l-33 -232c-3 -22 -24 -41 -46 -41s-37 19 -34 41l91 644c3 21 23 40 45 40s38 -19 35 -40l-41 -291l297 312c8 10 24 19 38 19c15 0 36 -12 30 -40c-2 -11 -7 -18 -13 -25l-252 -264l186 -334c2 -5 3 -9 3 -14c0 -17 -10 -48 -44 -48
c-15 0 -24 6 -31 19zM327 -98c0 -52 -66 -140 -95 -140c-9 0 -17 4 -17 15c0 23 29 34 46 64c-25 2 -42 23 -42 48c0 34 29 60 62 60c27 0 46 -21 46 -47z" />
    <glyph glyph-name="uni0137" unicode="&#x137;" horiz-adv-x="439" 
d="M248 686l-52 -373l207 188c6 6 16 9 25 9c20 0 33 -14 33 -32c0 -10 -4 -21 -14 -30l-169 -150l134 -250c3 -6 4 -16 3 -23c-4 -20 -21 -33 -41 -33c-13 0 -23 6 -30 19l-121 236l-42 -37l-25 -179c-3 -22 -22 -39 -44 -39s-37 17 -34 39l92 655c3 22 23 39 45 39
s36 -17 33 -39zM286 -98c0 -52 -66 -140 -95 -140c-9 0 -17 4 -17 15c0 23 29 34 46 64c-25 2 -42 23 -42 48c0 34 29 60 62 60c27 0 46 -21 46 -47z" />
    <glyph glyph-name="Lacute" unicode="&#x139;" horiz-adv-x="448" 
d="M444 43c0 -24 -21 -43 -44 -43h-282c-24 0 -42 20 -39 45l89 630c3 21 24 40 46 40s37 -19 34 -40l-84 -598h247c18 0 33 -15 33 -34zM210 824l89 81c15 13 22 23 40 23c13 0 27 -12 27 -29c0 -5 -1 -15 -8 -21l-93 -86c-13 -12 -22 -18 -35 -18c-16 0 -28 12 -28 30
c0 10 3 15 8 20z" />
    <glyph glyph-name="lacute" unicode="&#x13a;" horiz-adv-x="228" 
d="M88 94l83 592c3 21 22 39 44 39s37 -17 34 -39l-83 -592c-3 -22 -3 -35 7 -47c2 -3 5 -9 5 -16c0 -21 -20 -39 -42 -39c-25 0 -61 12 -48 102zM200 810l89 81c15 13 22 23 40 23c13 0 27 -12 27 -29c0 -5 -1 -15 -8 -21l-93 -86c-13 -12 -22 -18 -35 -18
c-16 0 -28 12 -28 30c0 10 3 15 8 20z" />
    <glyph glyph-name="uni013B" unicode="&#x13b;" horiz-adv-x="448" 
d="M444 43c0 -24 -21 -43 -44 -43h-282c-24 0 -42 20 -39 45l89 630c3 21 24 40 46 40s37 -19 34 -40l-84 -598h247c18 0 33 -15 33 -34zM309 -98c0 -52 -66 -140 -95 -140c-9 0 -17 4 -17 15c0 23 29 34 46 64c-25 2 -42 23 -42 48c0 34 29 60 62 60c27 0 46 -21 46 -47z
" />
    <glyph glyph-name="uni013C" unicode="&#x13c;" horiz-adv-x="228" 
d="M88 94l83 592c3 21 22 39 44 39s37 -17 34 -39l-83 -592c-3 -22 -3 -35 7 -47c2 -3 5 -9 5 -16c0 -21 -20 -39 -42 -39c-25 0 -61 12 -48 102zM154 -98c0 -52 -66 -140 -95 -140c-9 0 -17 4 -17 15c0 23 29 34 46 64c-25 2 -42 23 -42 48c0 34 29 60 62 60
c27 0 46 -21 46 -47z" />
    <glyph glyph-name="Lcaron" unicode="&#x13d;" horiz-adv-x="448" 
d="M444 43c0 -24 -21 -43 -44 -43h-282c-24 0 -42 20 -39 45l89 630c3 21 24 40 46 40s37 -19 34 -40l-84 -598h247c18 0 33 -15 33 -34zM492 678c0 -60 -70 -170 -99 -170c-9 0 -17 3 -17 14c0 33 31 49 50 95c-25 3 -42 23 -42 48c0 33 29 60 62 60c27 0 46 -21 46 -47z
" />
    <glyph glyph-name="lcaron" unicode="&#x13e;" horiz-adv-x="359" 
d="M88 94l83 592c3 21 22 39 44 39s37 -17 34 -39l-83 -592c-3 -22 -3 -35 7 -47c2 -3 5 -9 5 -16c0 -21 -20 -39 -42 -39c-25 0 -61 12 -48 102zM429 678c0 -60 -70 -170 -99 -170c-9 0 -17 3 -17 14c0 33 31 49 50 95c-25 3 -42 23 -42 48c0 33 29 60 62 60
c27 0 46 -21 46 -47z" />
    <glyph glyph-name="Lslash" unicode="&#x141;" horiz-adv-x="494" 
d="M490 43c0 -24 -21 -43 -44 -43h-282c-24 0 -42 20 -38 45l34 247l-43 -26c-8 -5 -17 -11 -25 -11c-19 0 -36 10 -36 33c0 14 9 27 22 35l95 57l41 295c3 21 24 40 46 40s37 -19 34 -40l-34 -243l59 36c10 6 17 10 30 10c14 0 27 -10 30 -25c0 -3 1 -6 1 -9
c0 -12 -8 -24 -21 -32l-111 -67l-38 -268h247c18 0 33 -15 33 -34z" />
    <glyph glyph-name="lslash" unicode="&#x142;" horiz-adv-x="337" 
d="M133 94l28 199l-44 -27c-8 -5 -17 -11 -25 -11c-19 0 -36 10 -36 33c0 14 9 27 22 35l96 57l43 306c3 21 22 39 44 39s37 -17 34 -39l-36 -254l60 36c10 6 17 10 30 10c14 0 27 -10 30 -25c0 -3 1 -6 1 -9c0 -12 -8 -24 -21 -32l-113 -68l-35 -250c-3 -22 -2 -35 8 -47
c2 -3 4 -9 4 -16c0 -21 -19 -39 -41 -39c-25 0 -62 12 -49 102z" />
    <glyph glyph-name="Nacute" unicode="&#x143;" horiz-adv-x="600" 
d="M480 -10c-16 0 -31 9 -37 23l-214 533l-72 -515c-3 -22 -25 -41 -47 -41s-36 19 -33 41l90 640c3 25 24 44 49 44c17 0 33 -9 39 -24l213 -532l72 515c3 22 25 41 47 41s36 -19 33 -41l-89 -640c-4 -24 -25 -44 -51 -44zM386 824l89 81c15 13 22 23 40 23
c13 0 27 -12 27 -29c0 -5 -1 -15 -8 -21l-93 -86c-13 -12 -22 -18 -35 -18c-16 0 -28 12 -28 30c0 10 3 15 8 20z" />
    <glyph glyph-name="nacute" unicode="&#x144;" horiz-adv-x="509" 
d="M368 94l32 229c11 76 -15 119 -75 119c-39 0 -80 -16 -117 -42c0 -11 0 -21 -1 -29l-48 -340c-3 -21 -18 -38 -44 -38s-37 17 -34 38l48 340c8 55 -1 55 -8 70c-1 3 -5 9 -5 17c0 21 19 38 42 38c18 0 30 -12 38 -29c49 31 102 45 150 45c106 0 148 -76 132 -189
l-32 -229c-3 -22 -3 -35 7 -47c2 -3 5 -9 5 -16c0 -21 -20 -39 -42 -39c-25 0 -61 12 -48 102zM272 624l89 81c15 13 22 23 40 23c13 0 27 -12 27 -29c0 -5 -1 -15 -8 -21l-93 -86c-13 -12 -22 -18 -35 -18c-16 0 -28 12 -28 30c0 10 3 15 8 20z" />
    <glyph glyph-name="uni0145" unicode="&#x145;" horiz-adv-x="600" 
d="M480 -10c-16 0 -31 9 -37 23l-214 533l-72 -515c-3 -22 -25 -41 -47 -41s-36 19 -33 41l90 640c3 25 24 44 49 44c17 0 33 -9 39 -24l213 -532l72 515c3 22 25 41 47 41s36 -19 33 -41l-89 -640c-4 -24 -25 -44 -51 -44zM340 -98c0 -52 -66 -140 -95 -140
c-9 0 -17 4 -17 15c0 23 29 34 46 64c-25 2 -42 23 -42 48c0 34 29 60 62 60c27 0 46 -21 46 -47z" />
    <glyph glyph-name="uni0146" unicode="&#x146;" horiz-adv-x="509" 
d="M368 94l32 229c11 76 -15 119 -75 119c-39 0 -80 -16 -117 -42c0 -11 0 -21 -1 -29l-48 -340c-3 -21 -18 -38 -44 -38s-37 17 -34 38l48 340c8 55 -1 55 -8 70c-1 3 -5 9 -5 17c0 21 19 38 42 38c18 0 30 -12 38 -29c49 31 102 45 150 45c106 0 148 -76 132 -189
l-32 -229c-3 -22 -3 -35 7 -47c2 -3 5 -9 5 -16c0 -21 -20 -39 -42 -39c-25 0 -61 12 -48 102zM294 -98c0 -52 -66 -140 -95 -140c-9 0 -17 4 -17 15c0 23 29 34 46 64c-25 2 -42 23 -42 48c0 34 29 60 62 60c27 0 46 -21 46 -47z" />
    <glyph glyph-name="Ncaron" unicode="&#x147;" horiz-adv-x="600" 
d="M480 -10c-16 0 -31 9 -37 23l-214 533l-72 -515c-3 -22 -25 -41 -47 -41s-36 19 -33 41l90 640c3 25 24 44 49 44c17 0 33 -9 39 -24l213 -532l72 515c3 22 25 41 47 41s36 -19 33 -41l-89 -640c-4 -24 -25 -44 -51 -44zM407 762c-10 0 -17 4 -23 9l-77 73
c-10 9 -16 18 -16 30c0 19 18 33 35 33c6 0 12 -3 17 -7l74 -67l93 67c6 4 12 7 18 7c15 0 28 -11 28 -26s-8 -25 -25 -37l-99 -73c-7 -5 -15 -9 -25 -9z" />
    <glyph glyph-name="ncaron" unicode="&#x148;" horiz-adv-x="509" 
d="M368 94l32 229c11 76 -15 119 -75 119c-39 0 -80 -16 -117 -42c0 -11 0 -21 -1 -29l-48 -340c-3 -21 -18 -38 -44 -38s-37 17 -34 38l48 340c8 55 -1 55 -8 70c-1 3 -5 9 -5 17c0 21 19 38 42 38c18 0 30 -12 38 -29c49 31 102 45 150 45c106 0 148 -76 132 -189
l-32 -229c-3 -22 -3 -35 7 -47c2 -3 5 -9 5 -16c0 -21 -20 -39 -42 -39c-25 0 -61 12 -48 102zM333 562c-10 0 -17 4 -23 9l-77 73c-10 9 -16 18 -16 30c0 19 18 33 35 33c6 0 12 -3 17 -7l74 -67l93 67c6 4 12 7 18 7c15 0 28 -11 28 -26s-8 -25 -25 -37l-99 -73
c-7 -5 -15 -9 -25 -9z" />
    <glyph glyph-name="Omacron" unicode="&#x14c;" horiz-adv-x="551" 
d="M274 -10c-153 0 -214 114 -194 256l30 214c20 139 101 255 266 255s214 -116 194 -255l-30 -214c-20 -142 -113 -256 -266 -256zM365 637c-110 0 -160 -71 -175 -177l-30 -214c-15 -105 22 -178 125 -178s160 73 175 178l30 214c15 106 -15 177 -125 177zM554 841
c0 -22 -20 -40 -42 -40h-249c-19 0 -32 14 -32 32c0 22 20 41 43 41h249c18 0 31 -15 31 -33z" />
    <glyph glyph-name="omacron" unicode="&#x14d;" horiz-adv-x="464" 
d="M231 -8c-122 0 -176 78 -162 178l24 167c14 100 90 178 212 178s176 -78 162 -178l-24 -167c-14 -100 -90 -178 -212 -178zM241 64c72 0 115 40 124 106l24 168c9 65 -23 105 -95 105s-114 -40 -123 -105l-24 -168c-9 -66 22 -106 94 -106zM483 641
c0 -22 -20 -40 -42 -40h-249c-19 0 -32 14 -32 32c0 22 20 41 43 41h249c18 0 31 -15 31 -33z" />
    <glyph glyph-name="Obreve" unicode="&#x14e;" horiz-adv-x="551" 
d="M274 -10c-153 0 -214 114 -194 256l30 214c20 139 101 255 266 255s214 -116 194 -255l-30 -214c-20 -142 -113 -256 -266 -256zM365 637c-110 0 -160 -71 -175 -177l-30 -214c-15 -105 22 -178 125 -178s160 73 175 178l30 214c15 106 -15 177 -125 177zM393 833
c22 0 45 11 70 41c9 11 22 16 33 16c17 0 31 -11 21 -37c-21 -54 -88 -81 -133 -81s-104 27 -110 81c-3 26 15 37 32 37c11 0 21 -5 27 -16c16 -30 37 -41 60 -41z" />
    <glyph glyph-name="obreve" unicode="&#x14f;" horiz-adv-x="464" 
d="M231 -8c-122 0 -176 78 -162 178l24 167c14 100 90 178 212 178s176 -78 162 -178l-24 -167c-14 -100 -90 -178 -212 -178zM241 64c72 0 115 40 124 106l24 168c9 65 -23 105 -95 105s-114 -40 -123 -105l-24 -168c-9 -66 22 -106 94 -106zM321 633c22 0 45 11 70 41
c9 11 22 16 33 16c17 0 31 -11 21 -37c-21 -54 -88 -81 -133 -81s-104 27 -110 81c-3 26 15 37 32 37c11 0 21 -5 27 -16c16 -30 37 -41 60 -41z" />
    <glyph glyph-name="Ohungarumlaut" unicode="&#x150;" horiz-adv-x="551" 
d="M274 -10c-153 0 -214 114 -194 256l30 214c20 139 101 255 266 255s214 -116 194 -255l-30 -214c-20 -142 -113 -256 -266 -256zM365 637c-110 0 -160 -71 -175 -177l-30 -214c-15 -105 22 -178 125 -178s160 73 175 178l30 214c15 106 -15 177 -125 177zM285 812l76 94
c13 14 20 29 40 29c16 0 29 -15 29 -31c0 -6 -2 -10 -4 -14l-79 -99c-13 -14 -21 -24 -36 -24c-18 0 -30 12 -30 29c0 8 1 12 4 16zM420 812l77 94c11 14 20 29 38 29c14 0 31 -15 31 -30c0 -7 -2 -11 -5 -15l-79 -99c-13 -14 -20 -24 -36 -24c-18 0 -30 12 -30 29
c0 8 1 12 4 16z" />
    <glyph glyph-name="ohungarumlaut" unicode="&#x151;" horiz-adv-x="464" 
d="M231 -8c-122 0 -176 78 -162 178l24 167c14 100 90 178 212 178s176 -78 162 -178l-24 -167c-14 -100 -90 -178 -212 -178zM241 64c72 0 115 40 124 106l24 168c9 65 -23 105 -95 105s-114 -40 -123 -105l-24 -168c-9 -66 22 -106 94 -106zM221 612l76 94
c13 14 20 29 40 29c16 0 29 -15 29 -31c0 -6 -2 -10 -4 -14l-79 -99c-13 -14 -21 -24 -36 -24c-18 0 -30 12 -30 29c0 8 1 12 4 16zM356 612l77 94c11 14 20 29 38 29c14 0 31 -15 31 -30c0 -7 -2 -11 -5 -15l-79 -99c-13 -14 -20 -24 -36 -24c-18 0 -30 12 -30 29
c0 8 1 12 4 16z" />
    <glyph glyph-name="OE" unicode="&#x152;" horiz-adv-x="756" 
d="M729 45c0 -24 -23 -45 -46 -45h-235c-33 0 -61 10 -57 45c-37 -34 -83 -55 -138 -55c-139 0 -195 106 -177 236l36 254c18 129 92 235 243 235c57 0 97 -19 123 -50c7 20 28 40 53 40h241c20 0 34 -16 34 -35c0 -25 -21 -43 -45 -43h-208l-33 -234h189
c18 0 34 -15 34 -35c0 -24 -21 -43 -45 -43h-189l-34 -237h218c20 0 36 -15 36 -33zM344 637c-96 0 -139 -63 -152 -157l-36 -254c-13 -93 19 -158 108 -158s139 65 152 158l36 254c13 94 -12 157 -108 157z" />
    <glyph glyph-name="oe" unicode="&#x153;" horiz-adv-x="731" 
d="M227 -8c-116 0 -172 79 -158 178l23 167c14 99 92 178 208 178c75 0 121 -33 139 -85c32 51 86 84 161 84c93 0 142 -54 142 -137c0 -104 -56 -174 -192 -174c-29 0 -67 3 -101 9l-8 -59c-8 -56 24 -92 96 -92c42 0 71 12 108 28c2 1 7 3 14 3c18 0 30 -15 30 -31
c0 -52 -116 -69 -168 -69c-72 0 -115 33 -132 83c-33 -51 -88 -83 -162 -83zM241 64c72 0 115 40 124 106l24 168c9 65 -23 105 -95 105s-115 -40 -124 -105l-23 -168c-9 -66 22 -106 94 -106zM664 369c0 52 -29 74 -80 74c-65 0 -108 -35 -116 -91l-11 -76
c37 -4 85 -7 105 -7c76 0 102 41 102 100z" />
    <glyph glyph-name="Racute" unicode="&#x154;" horiz-adv-x="575" 
d="M584 535c0 -122 -73 -198 -184 -220l123 -263c2 -4 2 -11 2 -17c0 -26 -32 -44 -49 -44c-14 0 -25 7 -30 19l-135 300h-115l-39 -278c-3 -22 -25 -42 -47 -42c-21 0 -36 19 -33 42l88 625c4 26 28 48 53 48h174c145 0 192 -83 192 -170zM503 525c0 51 -26 102 -126 102
h-136l-34 -240h142c99 0 154 49 154 138zM333 824l89 81c15 13 22 23 40 23c13 0 27 -12 27 -29c0 -5 -1 -15 -8 -21l-93 -86c-13 -12 -22 -18 -35 -18c-16 0 -28 12 -28 30c0 10 3 15 8 20z" />
    <glyph glyph-name="racute" unicode="&#x155;" horiz-adv-x="337" 
d="M207 369l-48 -338c-3 -22 -22 -39 -44 -39s-37 17 -34 39l48 338c4 33 2 52 -7 70c-3 5 -4 10 -4 16c0 23 20 39 41 39c16 0 29 -11 36 -27c47 27 105 43 143 43c36 0 48 -14 48 -32c0 -28 -23 -47 -46 -46c-41 1 -76 1 -132 -36c0 -10 0 -19 -1 -27zM250 624l89 81
c15 13 22 23 40 23c13 0 27 -12 27 -29c0 -5 -1 -15 -8 -21l-93 -86c-13 -12 -22 -18 -35 -18c-16 0 -28 12 -28 30c0 10 3 15 8 20z" />
    <glyph glyph-name="uni0156" unicode="&#x156;" horiz-adv-x="575" 
d="M584 535c0 -122 -73 -198 -184 -220l123 -263c2 -4 2 -11 2 -17c0 -26 -32 -44 -49 -44c-14 0 -25 7 -30 19l-135 300h-115l-39 -278c-3 -22 -25 -42 -47 -42c-21 0 -36 19 -33 42l88 625c4 26 28 48 53 48h174c145 0 192 -83 192 -170zM503 525c0 51 -26 102 -126 102
h-136l-34 -240h142c99 0 154 49 154 138zM327 -98c0 -52 -66 -140 -95 -140c-9 0 -17 4 -17 15c0 23 29 34 46 64c-25 2 -42 23 -42 48c0 34 29 60 62 60c27 0 46 -21 46 -47z" />
    <glyph glyph-name="uni0157" unicode="&#x157;" horiz-adv-x="337" 
d="M207 369l-48 -338c-3 -22 -22 -39 -44 -39s-37 17 -34 39l48 338c4 33 2 52 -7 70c-3 5 -4 10 -4 16c0 23 20 39 41 39c16 0 29 -11 36 -27c47 27 105 43 143 43c36 0 48 -14 48 -32c0 -28 -23 -47 -46 -46c-41 1 -76 1 -132 -36c0 -10 0 -19 -1 -27zM154 -98
c0 -52 -66 -140 -95 -140c-9 0 -17 4 -17 15c0 23 29 34 46 64c-25 2 -42 23 -42 48c0 34 29 60 62 60c27 0 46 -21 46 -47z" />
    <glyph glyph-name="Rcaron" unicode="&#x158;" horiz-adv-x="575" 
d="M584 535c0 -122 -73 -198 -184 -220l123 -263c2 -4 2 -11 2 -17c0 -26 -32 -44 -49 -44c-14 0 -25 7 -30 19l-135 300h-115l-39 -278c-3 -22 -25 -42 -47 -42c-21 0 -36 19 -33 42l88 625c4 26 28 48 53 48h174c145 0 192 -83 192 -170zM503 525c0 51 -26 102 -126 102
h-136l-34 -240h142c99 0 154 49 154 138zM394 762c-10 0 -17 4 -23 9l-77 73c-10 9 -16 18 -16 30c0 19 18 33 35 33c6 0 12 -3 17 -7l74 -67l93 67c6 4 12 7 18 7c15 0 28 -11 28 -26s-8 -25 -25 -37l-99 -73c-7 -5 -15 -9 -25 -9z" />
    <glyph glyph-name="rcaron" unicode="&#x159;" horiz-adv-x="337" 
d="M207 369l-48 -338c-3 -22 -22 -39 -44 -39s-37 17 -34 39l48 338c4 33 2 52 -7 70c-3 5 -4 10 -4 16c0 23 20 39 41 39c16 0 29 -11 36 -27c47 27 105 43 143 43c36 0 48 -14 48 -32c0 -28 -23 -47 -46 -46c-41 1 -76 1 -132 -36c0 -10 0 -19 -1 -27zM248 562
c-10 0 -17 4 -23 9l-77 73c-10 9 -16 18 -16 30c0 19 18 33 35 33c6 0 12 -3 17 -7l74 -67l93 67c6 4 12 7 18 7c15 0 28 -11 28 -26s-8 -25 -25 -37l-99 -73c-7 -5 -15 -9 -25 -9z" />
    <glyph glyph-name="Sacute" unicode="&#x15a;" horiz-adv-x="486" 
d="M389 210c0 50 -25 71 -45 82c-82 46 -231 51 -231 200c0 135 93 223 232 223c48 0 162 -11 162 -64c0 -21 -19 -42 -46 -42c-31 0 -53 28 -121 28c-71 0 -143 -29 -143 -130c0 -52 27 -71 46 -82c83 -47 232 -52 232 -200c0 -146 -112 -235 -251 -235
c-62 0 -174 19 -174 70c0 21 20 43 42 43c28 0 66 -35 144 -35c101 0 153 55 153 142zM334 824l89 81c15 13 22 23 40 23c13 0 27 -12 27 -29c0 -5 -1 -15 -8 -21l-93 -86c-13 -12 -22 -18 -35 -18c-16 0 -28 12 -28 30c0 10 3 15 8 20z" />
    <glyph glyph-name="sacute" unicode="&#x15b;" horiz-adv-x="406" 
d="M103 350c0 95 66 164 184 164c50 0 126 -13 126 -52c0 -21 -19 -40 -42 -40c-7 0 -11 2 -17 5c-20 10 -37 18 -73 18c-69 0 -100 -29 -100 -80c0 -24 12 -40 39 -54c60 -32 163 -42 163 -152c0 -100 -66 -167 -190 -167c-49 0 -139 11 -139 54c0 18 16 40 42 40
c6 0 7 -1 10 -2c27 -11 57 -23 97 -23c61 0 103 26 103 85c0 28 -13 42 -29 51c-54 32 -174 40 -174 153zM264 624l89 81c15 13 22 23 40 23c13 0 27 -12 27 -29c0 -5 -1 -15 -8 -21l-93 -86c-13 -12 -22 -18 -35 -18c-16 0 -28 12 -28 30c0 10 3 15 8 20z" />
    <glyph glyph-name="Scircumflex" unicode="&#x15c;" horiz-adv-x="486" 
d="M389 210c0 50 -25 71 -45 82c-82 46 -231 51 -231 200c0 135 93 223 232 223c48 0 162 -11 162 -64c0 -21 -19 -42 -46 -42c-31 0 -53 28 -121 28c-71 0 -143 -29 -143 -130c0 -52 27 -71 46 -82c83 -47 232 -52 232 -200c0 -146 -112 -235 -251 -235
c-62 0 -174 19 -174 70c0 21 20 43 42 43c28 0 66 -35 144 -35c101 0 153 55 153 142zM361 836l-83 -61c-4 -3 -14 -6 -20 -6c-12 0 -22 12 -22 23c0 13 10 23 23 33l88 67c6 4 14 8 23 8s16 -4 21 -8l69 -67c8 -8 14 -18 14 -27c0 -14 -14 -29 -29 -29c-5 0 -15 3 -18 6z
" />
    <glyph glyph-name="scircumflex" unicode="&#x15d;" horiz-adv-x="406" 
d="M103 350c0 95 66 164 184 164c50 0 126 -13 126 -52c0 -21 -19 -40 -42 -40c-7 0 -11 2 -17 5c-20 10 -37 18 -73 18c-69 0 -100 -29 -100 -80c0 -24 12 -40 39 -54c60 -32 163 -42 163 -152c0 -100 -66 -167 -190 -167c-49 0 -139 11 -139 54c0 18 16 40 42 40
c6 0 7 -1 10 -2c27 -11 57 -23 97 -23c61 0 103 26 103 85c0 28 -13 42 -29 51c-54 32 -174 40 -174 153zM292 636l-83 -61c-4 -3 -14 -6 -20 -6c-12 0 -22 12 -22 23c0 13 10 23 23 33l88 67c6 4 14 8 23 8s16 -4 21 -8l69 -67c8 -8 14 -18 14 -27c0 -14 -14 -29 -29 -29
c-5 0 -15 3 -18 6z" />
    <glyph glyph-name="Scedilla" unicode="&#x15e;" horiz-adv-x="486" 
d="M343 -114c0 -57 -53 -111 -152 -97c-30 4 -57 24 -42 47c11 17 26 8 54 2c49 -10 75 22 75 45c0 21 -20 30 -56 32c-31 2 -39 8 -32 32l13 44c-63 3 -153 23 -153 69c0 21 20 43 42 43c28 0 66 -35 144 -35c101 0 153 55 153 142c0 50 -25 71 -45 82
c-82 46 -231 51 -231 200c0 135 93 223 232 223c48 0 162 -11 162 -64c0 -21 -19 -42 -46 -42c-31 0 -53 28 -121 28c-71 0 -143 -29 -143 -130c0 -52 27 -71 46 -82c83 -47 232 -52 232 -200c0 -136 -97 -222 -222 -233l-9 -32c72 -1 99 -30 99 -74z" />
    <glyph glyph-name="scedilla" unicode="&#x15f;" horiz-adv-x="406" 
d="M304 -114c0 -57 -53 -111 -152 -97c-30 4 -57 24 -42 47c11 17 26 8 54 2c49 -10 75 22 75 45c0 21 -20 30 -56 32c-31 2 -39 8 -32 32l14 46c-49 4 -111 17 -111 53c0 18 16 40 42 40c6 0 7 -1 10 -2c27 -11 57 -23 97 -23c61 0 103 26 103 85c0 28 -13 42 -29 51
c-54 32 -173 40 -173 153c0 95 65 164 184 164c50 0 125 -13 125 -52c0 -21 -19 -40 -41 -40c-7 0 -12 2 -18 5c-20 10 -37 18 -73 18c-69 0 -100 -29 -100 -80c0 -24 12 -40 39 -54c60 -32 164 -42 164 -152c0 -94 -59 -158 -170 -166l-9 -33c72 -1 99 -30 99 -74z" />
    <glyph glyph-name="Scaron" unicode="&#x160;" horiz-adv-x="486" 
d="M389 210c0 50 -25 71 -45 82c-82 46 -231 51 -231 200c0 135 93 223 232 223c48 0 162 -11 162 -64c0 -21 -19 -42 -46 -42c-31 0 -53 28 -121 28c-71 0 -143 -29 -143 -130c0 -52 27 -71 46 -82c83 -47 232 -52 232 -200c0 -146 -112 -235 -251 -235
c-62 0 -174 19 -174 70c0 21 20 43 42 43c28 0 66 -35 144 -35c101 0 153 55 153 142zM350 762c-10 0 -17 4 -23 9l-77 73c-10 9 -16 18 -16 30c0 19 18 33 35 33c6 0 12 -3 17 -7l74 -67l93 67c6 4 12 7 18 7c15 0 28 -11 28 -26s-8 -25 -25 -37l-99 -73
c-7 -5 -15 -9 -25 -9z" />
    <glyph glyph-name="scaron" unicode="&#x161;" horiz-adv-x="406" 
d="M103 350c0 95 66 164 184 164c50 0 126 -13 126 -52c0 -21 -19 -40 -42 -40c-7 0 -11 2 -17 5c-20 10 -37 18 -73 18c-69 0 -100 -29 -100 -80c0 -24 12 -40 39 -54c60 -32 163 -42 163 -152c0 -100 -66 -167 -190 -167c-49 0 -139 11 -139 54c0 18 16 40 42 40
c6 0 7 -1 10 -2c27 -11 57 -23 97 -23c61 0 103 26 103 85c0 28 -13 42 -29 51c-54 32 -174 40 -174 153zM282 562c-10 0 -17 4 -23 9l-77 73c-10 9 -16 18 -16 30c0 19 18 33 35 33c6 0 12 -3 17 -7l74 -67l93 67c6 4 12 7 18 7c15 0 28 -11 28 -26s-8 -25 -25 -37l-99 -73
c-7 -5 -15 -9 -25 -9z" />
    <glyph glyph-name="uni0162" unicode="&#x162;" horiz-adv-x="483" 
d="M205 30l84 597h-136c-21 0 -35 16 -35 35s22 43 46 43h352c19 0 36 -15 36 -35c0 -23 -23 -43 -47 -43h-136l-84 -597c-2 -13 -11 -25 -22 -32l-11 -38c73 -1 99 -30 99 -74c0 -57 -53 -111 -152 -97c-30 4 -56 24 -41 47c11 17 25 8 53 2c49 -10 75 22 75 45
c0 21 -19 30 -55 32c-31 2 -40 8 -33 32l16 53c-7 7 -11 18 -9 30z" />
    <glyph glyph-name="uni0163" unicode="&#x163;" horiz-adv-x="321" 
d="M286 -114c0 -57 -53 -111 -152 -97c-30 4 -57 24 -42 47c11 17 26 8 54 2c49 -10 75 22 75 45c0 21 -20 30 -56 32c-31 2 -37 8 -32 32c5 22 11 45 20 66c-56 29 -64 92 -50 190l59 418c3 21 19 38 44 38s37 -17 34 -38l-19 -138h103c18 0 31 -14 31 -32
c0 -24 -19 -42 -41 -42h-104l-28 -199c-14 -103 -10 -141 62 -141c6 0 13 1 19 1c21 0 48 -4 48 -31c0 -38 -33 -43 -63 -43c-20 0 -37 2 -53 4c-6 -16 -9 -29 -8 -40c72 -1 99 -30 99 -74z" />
    <glyph glyph-name="Tcaron" unicode="&#x164;" horiz-adv-x="483" 
d="M205 30l84 597h-136c-21 0 -35 16 -35 35s22 43 46 43h352c19 0 36 -15 36 -35c0 -23 -23 -43 -47 -43h-136l-84 -597c-3 -21 -24 -40 -46 -40s-37 19 -34 40zM348 762c-10 0 -17 4 -23 9l-77 73c-10 9 -16 18 -16 30c0 19 18 33 35 33c6 0 12 -3 17 -7l74 -67l93 67
c6 4 12 7 18 7c15 0 28 -11 28 -26s-8 -25 -25 -37l-99 -73c-7 -5 -15 -9 -25 -9z" />
    <glyph glyph-name="tcaron" unicode="&#x165;" horiz-adv-x="431" 
d="M102 203l59 418c3 21 19 38 44 38s37 -17 34 -38l-19 -138h104c18 0 31 -14 31 -32c0 -24 -20 -42 -42 -42h-104l-28 -199c-14 -103 -9 -141 63 -141c6 0 13 1 19 1c21 0 47 -4 47 -31c0 -38 -32 -43 -63 -43c-140 0 -164 69 -145 207zM509 678c0 -60 -70 -170 -99 -170
c-9 0 -17 3 -17 14c0 33 31 49 50 95c-25 3 -42 23 -42 48c0 33 29 60 62 60c27 0 46 -21 46 -47z" />
    <glyph glyph-name="Utilde" unicode="&#x168;" horiz-adv-x="572" 
d="M539 230c-19 -139 -115 -240 -254 -240c-142 0 -207 102 -188 240l63 443c3 24 24 42 47 42c21 0 36 -19 33 -42l-63 -443c-13 -96 23 -162 119 -162s149 68 162 162l63 443c3 22 23 42 45 42c24 0 39 -20 36 -42zM544 854c0 -37 -53 -63 -91 -65c-43 0 -66 29 -96 32
c-37 0 -46 -27 -68 -27c-15 0 -26 11 -26 27c5 37 48 65 91 65c42 0 64 -29 96 -32c38 0 43 25 68 28c14 0 26 -12 26 -28z" />
    <glyph glyph-name="utilde" unicode="&#x169;" horiz-adv-x="509" 
d="M370 123l49 350c3 21 18 38 44 38s37 -17 34 -38l-49 -350c-8 -55 2 -55 8 -70c1 -3 4 -10 4 -17c0 -20 -19 -38 -42 -38c-19 0 -30 12 -39 30c-47 -25 -100 -36 -147 -36c-106 0 -148 76 -132 189l41 292c3 21 19 38 44 38s37 -17 34 -38l-41 -292
c-11 -76 15 -119 75 -119c39 0 79 12 115 33c0 10 1 20 2 28zM484 654c0 -37 -53 -63 -91 -65c-43 0 -66 29 -96 32c-37 0 -46 -27 -68 -27c-15 0 -26 11 -26 27c5 37 48 65 91 65c42 0 64 -29 96 -32c38 0 43 25 68 28c14 0 26 -12 26 -28z" />
    <glyph glyph-name="Umacron" unicode="&#x16a;" horiz-adv-x="572" 
d="M539 230c-19 -139 -115 -240 -254 -240c-142 0 -207 102 -188 240l63 443c3 24 24 42 47 42c21 0 36 -19 33 -42l-63 -443c-13 -96 23 -162 119 -162s149 68 162 162l63 443c3 22 23 42 45 42c24 0 39 -20 36 -42zM565 841c0 -22 -20 -40 -42 -40h-249
c-19 0 -32 14 -32 32c0 22 20 41 43 41h249c18 0 31 -15 31 -33z" />
    <glyph glyph-name="umacron" unicode="&#x16b;" horiz-adv-x="509" 
d="M370 123l49 350c3 21 18 38 44 38s37 -17 34 -38l-49 -350c-8 -55 2 -55 8 -70c1 -3 4 -10 4 -17c0 -20 -19 -38 -42 -38c-19 0 -30 12 -39 30c-47 -25 -100 -36 -147 -36c-106 0 -148 76 -132 189l41 292c3 21 19 38 44 38s37 -17 34 -38l-41 -292
c-11 -76 15 -119 75 -119c39 0 79 12 115 33c0 10 1 20 2 28zM505 641c0 -22 -20 -40 -42 -40h-249c-19 0 -32 14 -32 32c0 22 20 41 43 41h249c18 0 31 -15 31 -33z" />
    <glyph glyph-name="Ubreve" unicode="&#x16c;" horiz-adv-x="572" 
d="M539 230c-19 -139 -115 -240 -254 -240c-142 0 -207 102 -188 240l63 443c3 24 24 42 47 42c21 0 36 -19 33 -42l-63 -443c-13 -96 23 -162 119 -162s149 68 162 162l63 443c3 22 23 42 45 42c24 0 39 -20 36 -42zM404 833c22 0 45 11 70 41c9 11 22 16 33 16
c17 0 31 -11 21 -37c-21 -54 -88 -81 -133 -81s-104 27 -110 81c-3 26 15 37 32 37c11 0 21 -5 27 -16c16 -30 37 -41 60 -41z" />
    <glyph glyph-name="ubreve" unicode="&#x16d;" horiz-adv-x="509" 
d="M370 123l49 350c3 21 18 38 44 38s37 -17 34 -38l-49 -350c-8 -55 2 -55 8 -70c1 -3 4 -10 4 -17c0 -20 -19 -38 -42 -38c-19 0 -30 12 -39 30c-47 -25 -100 -36 -147 -36c-106 0 -148 76 -132 189l41 292c3 21 19 38 44 38s37 -17 34 -38l-41 -292
c-11 -76 15 -119 75 -119c39 0 79 12 115 33c0 10 1 20 2 28zM343 633c22 0 45 11 70 41c9 11 22 16 33 16c17 0 31 -11 21 -37c-21 -54 -88 -81 -133 -81s-104 27 -110 81c-3 26 15 37 32 37c11 0 21 -5 27 -16c16 -30 37 -41 60 -41z" />
    <glyph glyph-name="Uring" unicode="&#x16e;" horiz-adv-x="572" 
d="M539 230c-19 -139 -115 -240 -254 -240c-142 0 -207 102 -188 240l63 443c3 24 24 42 47 42c21 0 36 -19 33 -42l-63 -443c-13 -96 23 -162 119 -162s149 68 162 162l63 443c3 22 23 42 45 42c24 0 39 -20 36 -42zM505 856c0 -61 -54 -111 -114 -111c-51 0 -87 38 -87 87
c0 61 54 111 115 111c50 0 86 -38 86 -87zM460 850c0 27 -20 49 -47 49c-33 0 -63 -28 -63 -61c0 -27 20 -48 47 -48c33 0 63 27 63 60z" />
    <glyph glyph-name="uring" unicode="&#x16f;" horiz-adv-x="509" 
d="M370 123l49 350c3 21 18 38 44 38s37 -17 34 -38l-49 -350c-8 -55 2 -55 8 -70c1 -3 4 -10 4 -17c0 -20 -19 -38 -42 -38c-19 0 -30 12 -39 30c-47 -25 -100 -36 -147 -36c-106 0 -148 76 -132 189l41 292c3 21 19 38 44 38s37 -17 34 -38l-41 -292
c-11 -76 15 -119 75 -119c39 0 79 12 115 33c0 10 1 20 2 28zM446 656c0 -61 -54 -111 -114 -111c-51 0 -87 38 -87 87c0 61 54 111 115 111c50 0 86 -38 86 -87zM401 650c0 27 -20 49 -47 49c-33 0 -63 -28 -63 -61c0 -27 20 -48 47 -48c33 0 63 27 63 60z" />
    <glyph glyph-name="Uhungarumlaut" unicode="&#x170;" horiz-adv-x="572" 
d="M539 230c-19 -139 -115 -240 -254 -240c-142 0 -207 102 -188 240l63 443c3 24 24 42 47 42c21 0 36 -19 33 -42l-63 -443c-13 -96 23 -162 119 -162s149 68 162 162l63 443c3 22 23 42 45 42c24 0 39 -20 36 -42zM304 812l76 94c13 14 20 29 40 29c16 0 29 -15 29 -31
c0 -6 -2 -10 -4 -14l-79 -99c-13 -14 -21 -24 -36 -24c-18 0 -30 12 -30 29c0 8 1 12 4 16zM439 812l77 94c11 14 20 29 38 29c14 0 31 -15 31 -30c0 -7 -2 -11 -5 -15l-79 -99c-13 -14 -20 -24 -36 -24c-18 0 -30 12 -30 29c0 8 1 12 4 16z" />
    <glyph glyph-name="uhungarumlaut" unicode="&#x171;" horiz-adv-x="509" 
d="M370 123l49 350c3 21 18 38 44 38s37 -17 34 -38l-49 -350c-8 -55 2 -55 8 -70c1 -3 4 -10 4 -17c0 -20 -19 -38 -42 -38c-19 0 -30 12 -39 30c-47 -25 -100 -36 -147 -36c-106 0 -148 76 -132 189l41 292c3 21 19 38 44 38s37 -17 34 -38l-41 -292
c-11 -76 15 -119 75 -119c39 0 79 12 115 33c0 10 1 20 2 28zM242 612l76 94c13 14 20 29 40 29c16 0 29 -15 29 -31c0 -6 -2 -10 -4 -14l-79 -99c-13 -14 -21 -24 -36 -24c-18 0 -30 12 -30 29c0 8 1 12 4 16zM377 612l77 94c11 14 20 29 38 29c14 0 31 -15 31 -30
c0 -7 -2 -11 -5 -15l-79 -99c-13 -14 -20 -24 -36 -24c-18 0 -30 12 -30 29c0 8 1 12 4 16z" />
    <glyph glyph-name="Uogonek" unicode="&#x172;" horiz-adv-x="572" 
d="M539 230c-14 -103 -70 -184 -154 -220c-22 -33 -51 -73 -51 -106c0 -21 12 -38 38 -38c24 0 32 5 43 5c14 0 23 -11 23 -24c0 -37 -50 -42 -82 -42c-56 0 -92 24 -92 76c0 37 18 75 47 110c-9 -1 -17 -1 -26 -1c-142 0 -207 102 -188 240l63 443c3 24 24 42 47 42
c21 0 36 -19 33 -42l-63 -443c-13 -96 23 -162 119 -162s149 68 162 162l63 443c3 22 23 42 45 42c24 0 39 -20 36 -42z" />
    <glyph glyph-name="uogonek" unicode="&#x173;" horiz-adv-x="509" 
d="M502 -153c0 -37 -50 -42 -83 -42c-56 0 -92 24 -92 76c0 44 27 88 65 128c-6 5 -10 11 -13 18c-47 -24 -100 -35 -147 -35c-106 0 -148 76 -132 189l41 292c3 21 19 38 44 38s37 -17 34 -38l-41 -292c-11 -76 15 -119 75 -119c39 0 79 12 115 32c-1 10 1 20 2 29l49 350
c3 21 18 38 44 38s37 -17 34 -38l-49 -350c-8 -55 2 -55 8 -70c1 -3 4 -10 4 -17c0 -11 -6 -19 -14 -28c-26 -29 -49 -74 -49 -104c0 -21 12 -38 39 -38c24 0 31 5 42 5c14 0 24 -11 24 -24z" />
    <glyph glyph-name="Wcircumflex" unicode="&#x174;" horiz-adv-x="776" 
d="M510 47l-45 503l-187 -504c-10 -26 -28 -56 -61 -56c-29 0 -43 26 -46 56l-62 619v3c0 29 29 43 51 43c16 0 30 -9 32 -29l49 -533l187 508c14 37 26 58 60 58c32 0 40 -23 43 -58l45 -508l200 533c7 18 21 29 37 29c19 0 43 -10 43 -32c0 -5 -2 -9 -4 -15l-236 -618
c-11 -29 -31 -56 -61 -56s-43 28 -45 57zM506 836l-83 -61c-4 -3 -14 -6 -20 -6c-12 0 -22 12 -22 23c0 13 10 23 23 33l88 67c6 4 14 8 23 8s16 -4 21 -8l69 -67c8 -8 14 -18 14 -27c0 -14 -14 -29 -29 -29c-5 0 -15 3 -18 6z" />
    <glyph glyph-name="wcircumflex" unicode="&#x175;" horiz-adv-x="655" 
d="M694 465l-175 -428c-13 -30 -27 -45 -56 -45c-21 0 -39 12 -42 34l-40 351l-139 -351c-10 -24 -26 -34 -51 -34c-27 0 -40 17 -44 45l-56 431v3c0 20 20 40 44 40c16 0 30 -10 32 -28l43 -368c48 121 94 239 141 361c8 20 25 35 49 35c23 0 36 -15 38 -35
c12 -122 27 -240 41 -361l145 368c6 16 22 28 39 28c19 0 33 -15 33 -34c0 -6 -1 -10 -2 -12zM416 636l-83 -61c-4 -3 -14 -6 -20 -6c-12 0 -22 12 -22 23c0 13 10 23 23 33l88 67c6 4 14 8 23 8s16 -4 21 -8l69 -67c8 -8 14 -18 14 -27c0 -14 -14 -29 -29 -29
c-5 0 -15 3 -18 6z" />
    <glyph glyph-name="Ycircumflex" unicode="&#x176;" horiz-adv-x="476" 
d="M236 -10c-23 0 -38 19 -35 42l35 245l-125 378c-1 4 -2 10 -2 15c0 24 25 45 47 45c12 0 24 -5 29 -16l105 -329l197 329c7 11 21 16 33 16c19 0 36 -17 36 -37c0 -8 -4 -17 -7 -23l-232 -380l-34 -243c-3 -22 -24 -42 -47 -42zM356 836l-83 -61c-4 -3 -14 -6 -20 -6
c-12 0 -22 12 -22 23c0 13 10 23 23 33l88 67c6 4 14 8 23 8s16 -4 21 -8l69 -67c8 -8 14 -18 14 -27c0 -14 -14 -29 -29 -29c-5 0 -15 3 -18 6z" />
    <glyph glyph-name="ycircumflex" unicode="&#x177;" horiz-adv-x="509" 
d="M377 107l51 366c3 21 19 38 45 38s36 -17 33 -38l-72 -513c-14 -103 -79 -184 -204 -184c-46 0 -131 13 -131 57c0 20 18 38 39 38c5 0 10 -1 15 -3c23 -12 43 -23 78 -23c78 0 115 42 125 115l10 70c-39 -23 -82 -37 -133 -37c-121 0 -149 78 -134 182l41 298
c3 21 20 38 45 38s36 -17 33 -38l-41 -298c-10 -71 11 -114 82 -114c41 0 84 14 118 46zM343 636l-83 -61c-4 -3 -14 -6 -20 -6c-12 0 -22 12 -22 23c0 13 10 23 23 33l88 67c6 4 14 8 23 8s16 -4 21 -8l69 -67c8 -8 14 -18 14 -27c0 -14 -14 -29 -29 -29c-5 0 -15 3 -18 6z
" />
    <glyph glyph-name="Ydieresis" unicode="&#x178;" horiz-adv-x="476" 
d="M236 -10c-23 0 -38 19 -35 42l35 245l-125 378c-1 4 -2 10 -2 15c0 24 25 45 47 45c12 0 24 -5 29 -16l105 -329l197 329c7 11 21 16 33 16c19 0 36 -17 36 -37c0 -8 -4 -17 -7 -23l-232 -380l-34 -243c-3 -22 -24 -42 -47 -42zM487 844c0 -29 -26 -54 -54 -54
c-24 0 -42 20 -42 44c0 27 27 52 55 52c24 0 41 -18 41 -42zM318 844c0 -29 -26 -54 -55 -54c-24 0 -40 20 -40 43c0 28 25 53 53 53c25 0 42 -18 42 -42z" />
    <glyph glyph-name="Zacute" unicode="&#x179;" horiz-adv-x="484" 
d="M460 45c0 -24 -22 -45 -46 -45h-343c-21 0 -36 17 -36 39c0 12 10 29 15 37l385 549h-277c-20 0 -34 15 -34 35c0 23 21 45 45 45h339c23 0 38 -16 38 -38c0 -14 -8 -26 -15 -36l-387 -551h282c19 0 34 -15 34 -35zM327 824l89 81c15 13 22 23 40 23c13 0 27 -12 27 -29
c0 -5 -1 -15 -8 -21l-93 -86c-13 -12 -22 -18 -35 -18c-16 0 -28 12 -28 30c0 10 3 15 8 20z" />
    <glyph glyph-name="zacute" unicode="&#x17a;" horiz-adv-x="384" 
d="M432 470c0 -11 -4 -22 -13 -33l-298 -365h221c19 0 32 -14 32 -32c0 -22 -20 -40 -42 -40h-277c-20 0 -35 16 -35 37c0 9 3 20 11 30l299 366h-209c-18 0 -31 14 -31 32c0 23 20 40 42 40h265c20 0 35 -13 35 -35zM260 624l89 81c15 13 22 23 40 23c13 0 27 -12 27 -29
c0 -5 -1 -15 -8 -21l-93 -86c-13 -12 -22 -18 -35 -18c-16 0 -28 12 -28 30c0 10 3 15 8 20z" />
    <glyph glyph-name="Zdotaccent" unicode="&#x17b;" horiz-adv-x="484" 
d="M460 45c0 -24 -22 -45 -46 -45h-343c-21 0 -36 17 -36 39c0 12 10 29 15 37l385 549h-277c-20 0 -34 15 -34 35c0 23 21 45 45 45h339c23 0 38 -16 38 -38c0 -14 -8 -26 -15 -36l-387 -551h282c19 0 34 -15 34 -35zM407 844c0 -29 -26 -54 -55 -54c-24 0 -40 20 -40 43
c0 28 25 53 53 53c25 0 42 -18 42 -42z" />
    <glyph glyph-name="zdotaccent" unicode="&#x17c;" horiz-adv-x="384" 
d="M432 470c0 -11 -4 -22 -13 -33l-298 -365h221c19 0 32 -14 32 -32c0 -22 -20 -40 -42 -40h-277c-20 0 -35 16 -35 37c0 9 3 20 11 30l299 366h-209c-18 0 -31 14 -31 32c0 23 20 40 42 40h265c20 0 35 -13 35 -35zM329 644c0 -29 -26 -54 -55 -54c-24 0 -40 20 -40 43
c0 28 25 53 53 53c25 0 42 -18 42 -42z" />
    <glyph glyph-name="Zcaron" unicode="&#x17d;" horiz-adv-x="484" 
d="M460 45c0 -24 -22 -45 -46 -45h-343c-21 0 -36 17 -36 39c0 12 10 29 15 37l385 549h-277c-20 0 -34 15 -34 35c0 23 21 45 45 45h339c23 0 38 -16 38 -38c0 -14 -8 -26 -15 -36l-387 -551h282c19 0 34 -15 34 -35zM349 762c-10 0 -17 4 -23 9l-77 73
c-10 9 -16 18 -16 30c0 19 18 33 35 33c6 0 12 -3 17 -7l74 -67l93 67c6 4 12 7 18 7c15 0 28 -11 28 -26s-8 -25 -25 -37l-99 -73c-7 -5 -15 -9 -25 -9z" />
    <glyph glyph-name="zcaron" unicode="&#x17e;" horiz-adv-x="384" 
d="M432 470c0 -11 -4 -22 -13 -33l-298 -365h221c19 0 32 -14 32 -32c0 -22 -20 -40 -42 -40h-277c-20 0 -35 16 -35 37c0 9 3 20 11 30l299 366h-209c-18 0 -31 14 -31 32c0 23 20 40 42 40h265c20 0 35 -13 35 -35zM274 562c-10 0 -17 4 -23 9l-77 73c-10 9 -16 18 -16 30
c0 19 18 33 35 33c6 0 12 -3 17 -7l74 -67l93 67c6 4 12 7 18 7c15 0 28 -11 28 -26s-8 -25 -25 -37l-99 -73c-7 -5 -15 -9 -25 -9z" />
    <glyph glyph-name="florin" unicode="&#x192;" horiz-adv-x="492" 
d="M573 679c0 -43 -30 -39 -47 -37c-8 1 -20 2 -27 2c-35 0 -67 -24 -79 -64l-41 -131h84c16 0 30 -9 30 -29c0 -29 -20 -40 -40 -40h-96l-134 -422c-32 -100 -76 -168 -169 -168c-43 0 -76 1 -76 31c0 26 19 42 45 42c6 0 19 -1 29 -1c51 0 72 29 91 90l135 428h-84
c-16 0 -29 9 -29 29c0 29 19 40 39 40h96l45 143c24 75 86 123 174 123c26 0 54 -4 54 -36z" />
    <glyph glyph-name="uni0218" unicode="&#x218;" horiz-adv-x="486" 
d="M389 210c0 50 -25 71 -45 82c-82 46 -231 51 -231 200c0 135 93 223 232 223c48 0 162 -11 162 -64c0 -21 -19 -42 -46 -42c-31 0 -53 28 -121 28c-71 0 -143 -29 -143 -130c0 -52 27 -71 46 -82c83 -47 232 -52 232 -200c0 -146 -112 -235 -251 -235
c-62 0 -174 19 -174 70c0 21 20 43 42 43c28 0 66 -35 144 -35c101 0 153 55 153 142zM283 -98c0 -52 -66 -140 -95 -140c-9 0 -17 4 -17 15c0 23 29 34 46 64c-25 2 -42 23 -42 48c0 34 29 60 62 60c27 0 46 -21 46 -47z" />
    <glyph glyph-name="uni0219" unicode="&#x219;" horiz-adv-x="406" 
d="M103 350c0 95 66 164 184 164c50 0 126 -13 126 -52c0 -21 -19 -40 -42 -40c-7 0 -11 2 -17 5c-20 10 -37 18 -73 18c-69 0 -100 -29 -100 -80c0 -24 12 -40 39 -54c60 -32 163 -42 163 -152c0 -100 -66 -167 -190 -167c-49 0 -139 11 -139 54c0 18 16 40 42 40
c6 0 7 -1 10 -2c27 -11 57 -23 97 -23c61 0 103 26 103 85c0 28 -13 42 -29 51c-54 32 -174 40 -174 153zM243 -98c0 -52 -66 -140 -95 -140c-9 0 -17 4 -17 15c0 23 29 34 46 64c-25 2 -42 23 -42 48c0 34 29 60 62 60c27 0 46 -21 46 -47z" />
    <glyph glyph-name="uni021A" unicode="&#x21a;" horiz-adv-x="483" 
d="M205 30l84 597h-136c-21 0 -35 16 -35 35s22 43 46 43h352c19 0 36 -15 36 -35c0 -23 -23 -43 -47 -43h-136l-84 -597c-3 -21 -24 -40 -46 -40s-37 19 -34 40zM281 -98c0 -52 -66 -140 -95 -140c-9 0 -17 4 -17 15c0 23 29 34 46 64c-25 2 -42 23 -42 48
c0 34 29 60 62 60c27 0 46 -21 46 -47z" />
    <glyph glyph-name="uni021B" unicode="&#x21b;" horiz-adv-x="321" 
d="M102 203l59 418c3 21 19 38 44 38s37 -17 34 -38l-19 -138h104c18 0 31 -14 31 -32c0 -24 -20 -42 -42 -42h-104l-28 -199c-14 -103 -9 -141 63 -141c6 0 13 1 19 1c21 0 47 -4 47 -31c0 -38 -32 -43 -63 -43c-140 0 -164 69 -145 207zM260 -98c0 -52 -66 -140 -95 -140
c-9 0 -17 4 -17 15c0 23 29 34 46 64c-25 2 -42 23 -42 48c0 34 29 60 62 60c27 0 46 -21 46 -47z" />
    <glyph glyph-name="dotlessj" unicode="&#x237;" horiz-adv-x="245" 
d="M227 472l-68 -487c-15 -105 -75 -174 -167 -187c-8 -1 -13 -1 -19 -1c-16 0 -28 10 -30 26c-3 27 21 40 36 43c56 12 91 42 101 115l69 491c3 21 23 39 45 39s36 -18 33 -39z" />
    <glyph glyph-name="circumflex" unicode="&#x2c6;" horiz-adv-x="396" 
d="M286 636l-83 -61c-4 -3 -14 -6 -20 -6c-12 0 -22 12 -22 23c0 13 10 23 23 33l88 67c6 4 14 8 23 8s16 -4 21 -8l69 -67c8 -8 14 -18 14 -27c0 -14 -14 -29 -29 -29c-5 0 -15 3 -18 6z" />
    <glyph glyph-name="caron" unicode="&#x2c7;" horiz-adv-x="391" 
d="M274 562c-10 0 -17 4 -23 9l-77 73c-10 9 -16 18 -16 30c0 19 18 33 35 33c6 0 12 -3 17 -7l74 -67l93 67c6 4 12 7 18 7c15 0 28 -11 28 -26s-8 -25 -25 -37l-99 -73c-7 -5 -15 -9 -25 -9z" />
    <glyph glyph-name="breve" unicode="&#x2d8;" horiz-adv-x="368" 
d="M272 633c22 0 45 11 70 41c9 11 22 16 33 16c17 0 31 -11 21 -37c-21 -54 -88 -81 -133 -81s-104 27 -110 81c-3 26 15 37 32 37c11 0 21 -5 27 -16c16 -30 37 -41 60 -41z" />
    <glyph glyph-name="dotaccent" unicode="&#x2d9;" horiz-adv-x="238" 
d="M256 644c0 -29 -26 -54 -55 -54c-24 0 -40 20 -40 43c0 28 25 53 53 53c25 0 42 -18 42 -42z" />
    <glyph glyph-name="ring" unicode="&#x2da;" horiz-adv-x="571" 
d="M473 656c0 -61 -54 -111 -114 -111c-51 0 -87 38 -87 87c0 61 54 111 115 111c50 0 86 -38 86 -87zM428 650c0 27 -20 49 -47 49c-33 0 -63 -28 -63 -61c0 -27 20 -48 47 -48c33 0 63 27 63 60z" />
    <glyph glyph-name="ogonek" unicode="&#x2db;" horiz-adv-x="322" 
d="M227 -153c0 -37 -49 -42 -82 -42c-56 0 -92 24 -92 76c0 40 22 82 54 119h60c-18 -30 -44 -66 -44 -96c0 -21 12 -38 38 -38c24 0 32 5 43 5c14 0 23 -11 23 -24z" />
    <glyph glyph-name="tilde" unicode="&#x2dc;" horiz-adv-x="375" 
d="M425 654c0 -37 -53 -63 -91 -65c-43 0 -66 29 -96 32c-37 0 -46 -27 -68 -27c-15 0 -26 11 -26 27c5 37 48 65 91 65c42 0 64 -29 96 -32c38 0 43 25 68 28c14 0 26 -12 26 -28z" />
    <glyph glyph-name="hungarumlaut" unicode="&#x2dd;" horiz-adv-x="410" 
d="M159 612l76 94c13 14 20 29 40 29c16 0 29 -15 29 -31c0 -6 -2 -10 -4 -14l-79 -99c-13 -14 -21 -24 -36 -24c-18 0 -30 12 -30 29c0 8 1 12 4 16zM294 612l77 94c11 14 20 29 38 29c14 0 31 -15 31 -30c0 -7 -2 -11 -5 -15l-79 -99c-13 -14 -20 -24 -36 -24
c-18 0 -30 12 -30 29c0 8 1 12 4 16z" />
    <glyph glyph-name="uni0400" unicode="&#x400;" horiz-adv-x="474" 
d="M448 45c0 -24 -23 -45 -47 -45h-265c-33 0 -61 11 -56 47l86 611c3 23 27 47 54 47h271c20 0 34 -16 34 -35c0 -25 -22 -43 -45 -43h-238l-33 -234h219c18 0 34 -15 34 -35c0 -24 -21 -43 -45 -43h-219l-34 -237h248c20 0 36 -15 36 -33zM357 906l66 -81c3 -3 4 -8 4 -12
c0 -22 -20 -38 -39 -38c-13 0 -20 7 -29 18l-69 86c-2 3 -3 9 -3 13c0 21 21 37 36 37c18 0 22 -10 34 -23z" />
    <glyph glyph-name="uni0401" unicode="&#x401;" horiz-adv-x="474" 
d="M448 45c0 -24 -23 -45 -47 -45h-265c-33 0 -61 11 -56 47l86 611c3 23 27 47 54 47h271c20 0 34 -16 34 -35c0 -25 -22 -43 -45 -43h-238l-33 -234h219c18 0 34 -15 34 -35c0 -24 -21 -43 -45 -43h-219l-34 -237h248c20 0 36 -15 36 -33zM518 845c0 -29 -26 -54 -54 -54
c-24 0 -42 20 -42 44c0 27 27 52 55 52c24 0 41 -18 41 -42zM349 845c0 -29 -26 -54 -55 -54c-24 0 -40 20 -40 43c0 28 25 53 53 53c25 0 42 -18 42 -42z" />
    <glyph glyph-name="uni0402" unicode="&#x402;" horiz-adv-x="644" 
d="M165 30l84 598h-96c-21 0 -35 17 -35 34c0 21 22 44 46 44h352c19 0 36 -15 36 -35c0 -23 -23 -43 -47 -43h-176l-29 -209c42 18 91 26 133 26c117 0 182 -63 182 -184c0 -159 -86 -271 -211 -271c-56 0 -94 25 -94 56c0 22 20 39 41 39s17 -17 56 -17
c80 0 128 64 128 185c0 82 -39 114 -119 114c-44 0 -91 -9 -128 -28l-43 -309c-3 -21 -24 -40 -46 -40s-37 19 -34 40z" />
    <glyph glyph-name="uni0403" unicode="&#x403;" horiz-adv-x="430" 
d="M241 628l-84 -597c-3 -21 -24 -40 -46 -40s-37 19 -34 40l88 630c3 22 26 45 52 45h272c20 0 34 -16 34 -35c0 -24 -21 -43 -45 -43h-237zM339 825l89 81c15 13 22 23 40 23c13 0 27 -12 27 -29c0 -5 -1 -15 -8 -21l-93 -86c-13 -12 -22 -18 -35 -18c-16 0 -28 12 -28 30
c0 10 3 15 8 20z" />
    <glyph glyph-name="uni0404" unicode="&#x404;" horiz-adv-x="482" 
d="M80 246l30 214c22 154 107 255 261 255c87 0 165 -37 165 -82c0 -21 -19 -39 -41 -39c-14 0 -20 6 -34 17c-27 20 -57 31 -96 31c-113 0 -160 -70 -175 -182l-9 -67h185c19 0 33 -15 33 -34c0 -24 -20 -45 -44 -45h-185l-10 -68c-16 -112 11 -182 124 -182
c39 0 71 10 104 31c19 10 25 17 39 17c19 0 31 -14 31 -31c0 -49 -95 -90 -189 -90c-154 0 -211 101 -189 255z" />
    <glyph glyph-name="uni0405" unicode="&#x405;" horiz-adv-x="486" 
d="M389 210c0 50 -25 71 -45 82c-82 46 -231 51 -231 200c0 135 93 223 232 223c48 0 162 -11 162 -64c0 -21 -19 -42 -46 -42c-31 0 -53 28 -121 28c-71 0 -143 -29 -143 -130c0 -52 27 -71 46 -82c83 -47 232 -52 232 -200c0 -146 -112 -235 -251 -235
c-62 0 -174 19 -174 70c0 21 20 43 42 43c28 0 66 -35 144 -35c101 0 153 55 153 142z" />
    <glyph glyph-name="uni0406" unicode="&#x406;" horiz-adv-x="227" 
d="M77 30l91 645c3 21 23 40 45 40s38 -19 35 -40l-91 -645c-3 -21 -24 -40 -46 -40s-37 19 -34 40z" />
    <glyph glyph-name="uni0407" unicode="&#x407;" horiz-adv-x="227" 
d="M77 30l91 645c3 21 23 40 45 40s38 -19 35 -40l-91 -645c-3 -21 -24 -40 -46 -40s-37 19 -34 40zM364 845c0 -29 -26 -54 -54 -54c-24 0 -42 20 -42 44c0 27 27 52 55 52c24 0 41 -18 41 -42zM195 845c0 -29 -26 -54 -55 -54c-24 0 -40 20 -40 43c0 28 25 53 53 53
c25 0 42 -18 42 -42z" />
    <glyph glyph-name="uni0408" unicode="&#x408;" horiz-adv-x="385" 
d="M406 675l-63 -450c-20 -146 -80 -235 -235 -235c-27 0 -79 3 -79 40c0 28 25 44 41 44c11 0 29 -7 60 -7c92 0 119 61 133 158l63 450c3 22 23 40 46 40c21 0 37 -19 34 -40z" />
    <glyph glyph-name="uni0409" unicode="&#x409;" horiz-adv-x="877" 
d="M516 573h1l7 55h-194l-95 -459c-22 -107 -68 -177 -150 -177c-36 0 -71 1 -71 34s22 47 43 47c13 0 13 -3 28 -3c36 0 56 30 70 93l107 504c7 29 28 39 43 39h270c21 0 38 -18 35 -39l-31 -221h94c122 0 197 -67 197 -186c0 -126 -69 -260 -260 -260h-127
c-26 0 -45 22 -41 48zM534 131h-1l-7 -53h95c147 0 168 105 168 173c0 79 -44 117 -127 117h-94z" />
    <glyph glyph-name="uni040A" unicode="&#x40a;" horiz-adv-x="848" 
d="M197 314l-40 -283c-3 -22 -24 -41 -46 -41s-37 19 -34 41l91 644c3 21 23 40 45 40s38 -19 35 -40l-40 -283h253l39 281c3 23 25 42 46 42c22 0 37 -20 34 -42l-32 -227h95c123 0 197 -67 197 -186c0 -126 -69 -260 -259 -260h-127c-26 0 -46 22 -42 48l37 266h-252z
M537 368l-40 -290h95c146 0 168 105 168 173c0 79 -44 117 -128 117h-95z" />
    <glyph glyph-name="uni040B" unicode="&#x40b;" horiz-adv-x="644" 
d="M552 671c0 -23 -23 -43 -47 -43h-176l-29 -209c42 18 91 26 133 26c133 0 199 -79 179 -221l-27 -192c-3 -22 -24 -42 -46 -42c-21 0 -37 19 -34 42l27 191c15 104 -25 144 -117 144c-43 0 -90 -9 -127 -28l-43 -309c-3 -21 -24 -40 -46 -40s-37 19 -34 40l84 598h-96
c-21 0 -35 16 -35 35s22 43 46 43h352c19 0 36 -15 36 -35z" />
    <glyph glyph-name="uni040C" unicode="&#x40c;" horiz-adv-x="516" 
d="M248 675l-40 -283h58l252 304c11 13 22 19 35 19c22 0 33 -21 33 -39c0 -10 -4 -16 -8 -23l-253 -301l168 -300c2 -5 3 -10 3 -14c0 -20 -19 -48 -45 -48c-13 0 -23 6 -30 19l-167 305h-57l-40 -283c-3 -22 -24 -41 -46 -41s-37 19 -34 41l91 644c3 21 23 40 45 40
s38 -19 35 -40zM357 825l89 81c15 13 22 23 40 23c13 0 27 -12 27 -29c0 -5 -1 -15 -8 -21l-93 -86c-13 -12 -22 -18 -35 -18c-16 0 -28 12 -28 30c0 10 3 15 8 20z" />
    <glyph glyph-name="uni040D" unicode="&#x40d;" horiz-adv-x="589" 
d="M115 -10c16 0 34 9 44 23l353 528l-72 -510c-3 -22 13 -41 35 -41s42 19 45 41l90 640c3 25 -12 44 -37 44c-17 0 -35 -9 -45 -24l-353 -527l72 510c3 22 -13 41 -35 41s-42 -19 -45 -41l-90 -640c-3 -24 12 -44 38 -44zM366 906l66 -81c3 -3 4 -8 4 -12
c0 -22 -20 -38 -39 -38c-13 0 -20 7 -29 18l-69 86c-2 3 -3 9 -3 13c0 21 21 37 36 37c18 0 22 -10 34 -23z" />
    <glyph glyph-name="uni040E" unicode="&#x40e;" horiz-adv-x="503" 
d="M570 664l-222 -436c-70 -137 -121 -235 -251 -235c-21 0 -35 13 -35 32c0 20 18 41 43 42c63 3 95 28 135 100l-119 498c-1 1 -1 5 -1 7c0 26 21 43 45 43c15 0 27 -9 31 -26l96 -418l208 418c8 17 25 26 40 26c18 0 34 -14 34 -34c0 -7 -3 -14 -4 -17zM369 834
c22 0 45 11 70 41c9 11 22 16 33 16c17 0 31 -11 21 -37c-21 -54 -88 -81 -133 -81s-104 27 -110 81c-3 26 15 37 32 37c11 0 21 -5 27 -16c16 -30 37 -41 60 -41z" />
    <glyph glyph-name="uni040F" unicode="&#x40f;" horiz-adv-x="579" 
d="M232 -120l17 120h-136c-22 0 -37 19 -34 40l89 635c3 22 24 41 46 41s37 -19 34 -41l-84 -597h273l84 597c3 22 25 41 46 41c22 0 37 -19 34 -41l-89 -635c-3 -21 -25 -40 -46 -40h-137l-17 -120c-3 -21 -23 -40 -45 -40s-38 19 -35 40z" />
    <glyph glyph-name="uni0410" unicode="&#x410;" horiz-adv-x="549" 
d="M170 159l-62 -139c-8 -18 -28 -30 -42 -30c-21 0 -37 14 -37 35c0 7 3 17 5 20l281 617c14 30 31 53 60 53c30 0 39 -22 45 -53l108 -617c0 -1 1 -5 1 -8c0 -29 -22 -47 -48 -47c-15 0 -32 12 -35 30l-23 139h-253zM355 576l-150 -339h206z" />
    <glyph glyph-name="uni0411" unicode="&#x411;" horiz-adv-x="531" 
d="M498 628h-257l-28 -202h115c123 0 198 -64 198 -179c0 -120 -68 -247 -258 -247h-147c-26 0 -45 22 -41 48l86 613c3 22 25 45 51 45h292c20 0 34 -16 34 -35c0 -24 -21 -43 -45 -43zM164 78h115c144 0 166 95 166 160c0 74 -44 110 -128 110h-115z" />
    <glyph glyph-name="uni0412" unicode="&#x412;" horiz-adv-x="542" 
d="M210 405h115c70 0 155 43 155 134c0 46 -27 88 -107 88h-132zM317 327h-118l-35 -249h122c111 0 167 58 167 138c0 72 -56 111 -136 111zM286 0h-165c-27 0 -45 22 -41 48l85 609c4 27 29 48 55 48h169c117 0 171 -76 171 -160c0 -100 -65 -147 -153 -182
c58 -19 127 -47 127 -140c0 -122 -100 -223 -248 -223z" />
    <glyph glyph-name="uni0413" unicode="&#x413;" horiz-adv-x="430" 
d="M241 628l-84 -597c-3 -21 -24 -40 -46 -40s-37 19 -34 40l88 630c3 22 26 45 52 45h272c20 0 34 -16 34 -35c0 -24 -21 -43 -45 -43h-237z" />
    <glyph glyph-name="uni0414" unicode="&#x414;" horiz-adv-x="628" 
d="M595 706c22 0 37 -18 34 -39l-83 -589h25c23 0 38 -22 34 -51l-18 -128c-3 -22 -23 -39 -46 -39c-22 0 -37 17 -34 39l14 101h-416l-14 -101c-3 -22 -22 -39 -44 -39s-37 17 -34 39l18 128c4 29 24 51 46 51h29c40 45 70 139 94 265l61 324c6 29 29 39 44 39h290z
M280 343c-20 -113 -52 -205 -96 -265h282l78 550h-213z" />
    <glyph glyph-name="uni0415" unicode="&#x415;" horiz-adv-x="474" 
d="M448 45c0 -24 -23 -45 -47 -45h-265c-33 0 -61 11 -56 47l86 611c3 23 27 47 54 47h271c20 0 34 -16 34 -35c0 -25 -22 -43 -45 -43h-238l-33 -234h219c18 0 34 -15 34 -35c0 -24 -21 -43 -45 -43h-219l-34 -237h248c20 0 36 -15 36 -33z" />
    <glyph glyph-name="uni0416" unicode="&#x416;" horiz-adv-x="746" 
d="M508 675l-40 -283h45l235 304c10 13 22 19 35 19c22 0 33 -21 33 -39c0 -10 -4 -16 -9 -23l-227 -301l143 -300c2 -5 3 -10 3 -14c0 -20 -19 -48 -45 -48c-13 0 -23 6 -30 19l-148 305h-46l-40 -283c-3 -22 -24 -41 -46 -41s-37 19 -34 41l40 283h-46l-234 -305
c-11 -13 -23 -19 -36 -19c-21 0 -32 21 -32 39c0 10 3 16 8 23l226 300l-141 301c-2 5 -3 10 -3 14c0 20 18 48 44 48c13 0 23 -6 31 -19l147 -304h47l40 283c3 21 23 40 45 40s38 -19 35 -40z" />
    <glyph glyph-name="uni0417" unicode="&#x417;" horiz-adv-x="485" 
d="M473 216c0 -117 -101 -226 -247 -226c-71 0 -186 27 -186 80c0 22 20 40 40 40c7 0 11 -2 19 -7c33 -21 67 -41 126 -41c111 0 169 68 169 148c0 79 -70 107 -157 111c-20 1 -44 3 -44 32c0 43 33 42 52 44c84 8 180 42 180 146c0 50 -28 100 -109 100
c-32 0 -66 -7 -94 -20c-24 -11 -44 -28 -63 -28c-16 0 -30 12 -30 30c0 53 122 90 202 90c117 0 171 -83 171 -167c0 -92 -58 -150 -144 -185c68 -24 115 -71 115 -147z" />
    <glyph glyph-name="uni0418" unicode="&#x418;" horiz-adv-x="589" 
d="M115 -10c-26 0 -41 20 -38 44l90 640c3 22 23 41 45 41s38 -19 35 -41l-72 -510l353 527c10 15 28 24 45 24c25 0 40 -19 37 -44l-90 -640c-3 -22 -23 -41 -45 -41s-38 19 -35 41l72 510l-353 -528c-10 -14 -28 -23 -44 -23z" />
    <glyph glyph-name="uni0419" unicode="&#x419;" horiz-adv-x="589" 
d="M115 -10c16 0 34 9 44 23l353 528l-72 -510c-3 -22 13 -41 35 -41s42 19 45 41l90 640c3 25 -12 44 -37 44c-17 0 -35 -9 -45 -24l-353 -527l72 510c3 22 -13 41 -35 41s-42 -19 -45 -41l-90 -640c-3 -24 12 -44 38 -44zM412 834c22 0 45 11 70 41c9 11 22 16 33 16
c17 0 31 -11 21 -37c-21 -54 -88 -81 -133 -81s-104 27 -110 81c-3 26 15 37 32 37c11 0 21 -5 27 -16c16 -30 37 -41 60 -41z" />
    <glyph glyph-name="uni041A" unicode="&#x41a;" horiz-adv-x="516" 
d="M248 675l-40 -283h58l252 304c11 13 22 19 35 19c22 0 33 -21 33 -39c0 -10 -4 -16 -8 -23l-253 -301l168 -300c2 -5 3 -10 3 -14c0 -20 -19 -48 -45 -48c-13 0 -23 6 -30 19l-167 305h-57l-40 -283c-3 -22 -24 -41 -46 -41s-37 19 -34 41l91 644c3 21 23 40 45 40
s38 -19 35 -40z" />
    <glyph glyph-name="uni041B" unicode="&#x41b;" horiz-adv-x="610" 
d="M540 31c-4 -22 -24 -39 -45 -39c-23 0 -38 17 -35 39l84 597h-214l-95 -459c-22 -107 -68 -177 -150 -177c-36 0 -71 1 -71 34s22 47 43 47c13 0 13 -3 28 -3c36 0 56 30 70 93l107 504c7 29 28 39 43 39h290c22 0 38 -18 35 -39z" />
    <glyph glyph-name="uni041C" unicode="&#x41c;" horiz-adv-x="690" 
d="M718 673l-90 -644c-3 -21 -24 -39 -45 -39c-22 0 -38 18 -35 39l68 487l-209 -344c-10 -16 -25 -24 -42 -24c-16 0 -30 8 -35 24l-113 344l-68 -487c-3 -21 -25 -39 -48 -39c-21 0 -35 18 -32 39l90 644c4 24 24 42 48 42c20 0 33 -9 40 -26l136 -418l254 419
c12 18 28 25 45 25c24 0 39 -19 36 -42z" />
    <glyph glyph-name="uni041D" unicode="&#x41d;" horiz-adv-x="580" 
d="M510 31c-3 -22 -24 -41 -46 -41c-21 0 -37 19 -34 41l40 283h-273l-40 -283c-3 -22 -24 -41 -46 -41s-37 19 -34 41l91 644c3 21 23 40 45 40s38 -19 35 -40l-40 -283h273l40 283c3 21 24 40 45 40s38 -19 35 -40z" />
    <glyph glyph-name="uni041E" unicode="&#x41e;" horiz-adv-x="551" 
d="M274 -10c-153 0 -214 114 -194 256l30 214c20 139 101 255 266 255s214 -116 194 -255l-30 -214c-20 -142 -113 -256 -266 -256zM365 637c-110 0 -160 -71 -175 -177l-30 -214c-15 -105 22 -178 125 -178s160 73 175 178l30 214c15 106 -15 177 -125 177z" />
    <glyph glyph-name="uni041F" unicode="&#x41f;" horiz-adv-x="579" 
d="M510 31c-3 -22 -24 -41 -46 -41c-21 0 -37 19 -34 41l84 597h-273l-84 -597c-3 -22 -24 -41 -46 -41s-37 19 -34 41l89 635c3 21 24 40 46 40h353c21 0 37 -19 34 -40z" />
    <glyph glyph-name="uni0420" unicode="&#x420;" horiz-adv-x="530" 
d="M304 260h-115l-32 -228c-3 -22 -24 -42 -46 -42c-21 0 -37 19 -34 42l88 625c4 26 29 48 55 48h147c145 0 197 -88 197 -188c0 -162 -106 -257 -260 -257zM241 627l-41 -289h115c110 0 168 58 168 171c0 61 -27 118 -127 118h-115z" />
    <glyph glyph-name="uni0421" unicode="&#x421;" horiz-adv-x="481" 
d="M80 246l30 214c22 154 107 255 261 255c87 0 165 -37 165 -82c0 -21 -19 -39 -41 -39c-14 0 -20 6 -34 17c-27 20 -57 31 -96 31c-113 0 -159 -70 -175 -182l-30 -214c-16 -112 11 -182 124 -182c39 0 72 11 105 31c18 11 24 17 38 17c19 0 31 -14 31 -31
c0 -49 -95 -90 -189 -90c-154 0 -211 101 -189 255z" />
    <glyph glyph-name="uni0422" unicode="&#x422;" horiz-adv-x="483" 
d="M205 30l84 597h-136c-21 0 -35 16 -35 35s22 43 46 43h352c19 0 36 -15 36 -35c0 -23 -23 -43 -47 -43h-136l-84 -597c-3 -21 -24 -40 -46 -40s-37 19 -34 40z" />
    <glyph glyph-name="uni0423" unicode="&#x423;" horiz-adv-x="503" 
d="M570 664l-222 -436c-70 -137 -121 -235 -251 -235c-21 0 -35 13 -35 32c0 20 18 41 43 42c63 3 95 28 135 100l-119 498c-1 1 -1 5 -1 7c0 26 21 43 45 43c15 0 27 -9 31 -26l96 -418l208 418c8 17 25 26 40 26c18 0 34 -14 34 -34c0 -7 -3 -14 -4 -17z" />
    <glyph glyph-name="uni0424" unicode="&#x424;" horiz-adv-x="750" 
d="M339 30l18 130h-65c-123 0 -197 67 -197 186c0 126 69 260 260 260h64l10 69c3 21 26 40 46 40c24 0 37 -19 34 -40l-10 -69h66c144 0 196 -88 196 -189c0 -162 -105 -257 -259 -257h-65l-18 -130c-3 -21 -24 -40 -46 -40s-37 19 -34 40zM554 528h-65l-41 -290h65
c110 0 168 58 168 171c0 61 -28 119 -127 119zM303 238h65l41 290h-65c-147 0 -168 -105 -168 -173c0 -79 44 -117 127 -117z" />
    <glyph glyph-name="uni0425" unicode="&#x425;" horiz-adv-x="483" 
d="M284 303l-199 -284c-9 -13 -23 -29 -42 -29s-33 18 -33 37c0 10 5 20 9 26l226 314l-126 287c-2 4 -2 11 -2 17c0 23 21 44 42 44c18 0 31 -17 39 -35l104 -249l174 249c11 15 28 35 48 35c18 0 31 -16 31 -35c0 -9 -3 -19 -8 -26l-208 -287l138 -314c2 -4 4 -11 4 -18
c0 -22 -23 -45 -43 -45c-19 0 -29 15 -35 29z" />
    <glyph glyph-name="uni0426" unicode="&#x426;" horiz-adv-x="604" 
d="M113 0c-22 0 -37 19 -34 40l89 634c3 22 24 41 46 41s37 -19 34 -41l-84 -596h273l84 596c3 22 25 41 46 41c22 0 37 -19 34 -41l-84 -596h40c21 0 38 -19 35 -40l-22 -157c-3 -22 -25 -41 -46 -41s-37 19 -34 41l17 119h-394z" />
    <glyph glyph-name="uni0427" unicode="&#x427;" horiz-adv-x="547" 
d="M445 365l43 308c3 22 24 42 46 42c21 0 37 -19 34 -42l-90 -641c-3 -23 -25 -42 -46 -42c-22 0 -37 20 -34 42l36 254c-44 -18 -93 -26 -134 -26c-133 0 -199 79 -179 221l27 192c3 22 24 42 46 42c21 0 37 -19 34 -42l-27 -191c-15 -104 25 -144 117 -144
c42 0 90 9 127 27z" />
    <glyph glyph-name="uni0428" unicode="&#x428;" horiz-adv-x="760" 
d="M781 674l-89 -634c-3 -21 -25 -40 -46 -40h-533c-22 0 -37 19 -34 40l89 634c3 22 24 41 46 41s37 -19 34 -41l-84 -596h186l84 597c3 21 24 40 46 40s37 -19 34 -40l-84 -597h187l84 596c3 22 25 41 46 41c22 0 37 -19 34 -41z" />
    <glyph glyph-name="uni0429" unicode="&#x429;" horiz-adv-x="784" 
d="M781 674l-84 -596h40c21 0 38 -19 35 -40l-22 -157c-3 -22 -24 -41 -46 -41c-21 0 -37 19 -34 41l17 119h-574c-22 0 -37 19 -34 40l89 634c3 22 24 41 46 41s37 -19 34 -41l-84 -596h186l84 597c3 21 24 40 46 40s37 -19 34 -40l-84 -597h187l84 596c3 22 25 41 46 41
c22 0 37 -19 34 -41z" />
    <glyph glyph-name="uni042A" unicode="&#x42a;" horiz-adv-x="654" 
d="M198 48l82 580h-137c-20 0 -34 15 -34 34c0 24 21 44 45 44h172c26 0 42 -23 39 -45l-30 -215h114c123 0 197 -67 197 -186c0 -126 -69 -260 -259 -260h-147c-26 0 -45 22 -42 48zM283 78h115c146 0 168 105 168 173c0 79 -44 117 -128 117h-115z" />
    <glyph glyph-name="uni042B" unicode="&#x42b;" horiz-adv-x="725" 
d="M215 446h116c122 0 197 -67 197 -186c0 -126 -69 -260 -260 -260h-147c-26 0 -45 22 -41 48l88 625c3 23 24 42 45 42c22 0 37 -20 34 -42zM205 368l-41 -290h115c147 0 168 105 168 173c0 79 -44 117 -127 117h-115zM575 30l91 645c3 21 23 40 45 40s38 -19 35 -40
l-91 -645c-3 -21 -23 -40 -45 -40s-38 19 -35 40z" />
    <glyph glyph-name="uni042C" unicode="&#x42c;" horiz-adv-x="535" 
d="M215 446h116c122 0 197 -67 197 -186c0 -126 -69 -260 -260 -260h-147c-26 0 -45 22 -41 48l88 625c3 23 24 42 45 42c22 0 37 -20 34 -42zM205 368l-41 -290h115c147 0 168 105 168 173c0 79 -44 117 -127 117h-115z" />
    <glyph glyph-name="uni042D" unicode="&#x42d;" horiz-adv-x="498" 
d="M516 460l-30 -214c-22 -154 -107 -255 -261 -255c-87 0 -165 37 -165 82c0 21 18 39 41 39c14 0 18 -7 34 -17c27 -21 57 -31 96 -31c113 0 159 70 175 182l10 68h-186c-20 0 -33 16 -33 35c0 25 22 44 44 44h186l9 67c15 112 -11 182 -124 182c-39 0 -72 -11 -105 -31
c-17 -11 -24 -17 -38 -17c-19 0 -31 14 -31 31c0 49 95 90 189 90c154 0 211 -101 189 -255z" />
    <glyph glyph-name="uni042E" unicode="&#x42e;" horiz-adv-x="758" 
d="M491 -10c-146 0 -204 110 -185 246l11 79h-120l-40 -284c-3 -22 -24 -41 -46 -41s-37 19 -34 41l91 644c3 21 23 40 45 40s38 -19 35 -40l-40 -283h120l11 78c19 134 96 245 254 245s205 -111 186 -245l-33 -234c-19 -136 -109 -246 -255 -246zM582 637
c-103 0 -149 -67 -163 -167l-33 -234c-14 -99 20 -168 116 -168s150 69 164 168l33 234c14 100 -14 167 -117 167z" />
    <glyph glyph-name="uni042F" unicode="&#x42f;" horiz-adv-x="561" 
d="M139 476c0 105 60 230 248 230h154c25 0 44 -22 40 -48l-88 -626c-3 -23 -23 -42 -45 -42s-38 20 -35 42l39 278h-96l-218 -300c-9 -12 -22 -19 -36 -19c-15 0 -38 16 -38 35c0 8 4 19 9 26l196 263c-82 17 -130 73 -130 161zM219 486c0 -64 43 -99 122 -99h122l33 241
h-116c-138 0 -161 -85 -161 -142z" />
    <glyph glyph-name="uni0430" unicode="&#x430;" horiz-adv-x="482" 
d="M302 514c121 0 160 -72 142 -202l-31 -220c-3 -20 2 -30 14 -30c3 0 4 1 8 1c17 0 25 -14 25 -29c0 -29 -27 -39 -50 -39c-31 0 -56 17 -67 46c-50 -30 -94 -49 -144 -49c-99 0 -144 77 -128 189l18 127c17 119 80 206 213 206zM337 105l33 233c10 72 -14 104 -83 104
c-76 0 -107 -39 -120 -134l-18 -127c-11 -78 16 -119 76 -119c41 0 80 19 112 43z" />
    <glyph glyph-name="uni0431" unicode="&#x431;" horiz-adv-x="465" 
d="M112 477c18 127 87 202 228 216c37 4 36 -3 108 28c2 1 8 3 15 3c18 0 30 -14 30 -32c0 -54 -108 -64 -161 -68c-44 -4 -123 -13 -141 -142l-7 -51c31 34 75 55 131 55c108 0 161 -78 147 -178l-19 -138c-14 -100 -90 -178 -212 -178s-176 78 -162 178zM241 64
c72 0 115 40 124 106l19 139c9 65 -17 105 -89 105c-70 0 -117 -38 -128 -100l-20 -144c-9 -66 22 -106 94 -106z" />
    <glyph glyph-name="uni0432" unicode="&#x432;" horiz-adv-x="468" 
d="M465 385c0 -60 -24 -104 -87 -127c45 -17 66 -52 66 -97c0 -100 -80 -169 -207 -169c-132 0 -182 78 -168 178l24 167c14 100 92 178 219 178c102 0 153 -54 153 -130zM250 64c73 0 117 27 117 94c0 33 -18 65 -92 65h-121l-7 -53c-9 -70 22 -106 103 -106zM171 338
l-7 -49h123c75 0 100 36 100 84c0 49 -34 70 -89 70c-78 0 -118 -40 -127 -105z" />
    <glyph glyph-name="uni0433" unicode="&#x433;" horiz-adv-x="406" 
d="M409 391c0 -152 -149 -157 -222 -194c-25 -13 -46 -30 -46 -73c0 -44 32 -63 82 -63c40 0 73 12 103 23c3 1 5 2 11 2c21 0 32 -16 32 -32c0 -49 -103 -62 -156 -62c-100 0 -149 48 -149 124c0 151 132 158 212 195c45 21 57 38 57 75c0 39 -25 59 -80 59
c-36 0 -56 -8 -78 -18c-6 -3 -12 -5 -19 -5c-19 0 -31 15 -31 32c0 45 87 60 141 60c95 0 143 -50 143 -123z" />
    <glyph glyph-name="uni0434" unicode="&#x434;" horiz-adv-x="500" 
d="M297 653c-11 1 -30 3 -23 34c5 22 17 32 58 32c118 0 199 -92 183 -282c-28 -338 -92 -447 -258 -447c-132 0 -188 84 -188 197c0 156 88 290 233 290c38 0 96 -10 135 -47c26 172 -61 215 -140 223zM418 281l10 68c-26 34 -84 56 -129 56c-90 0 -151 -83 -151 -207
c0 -76 32 -134 116 -134c94 0 132 67 154 217z" />
    <glyph glyph-name="uni0435" unicode="&#x435;" horiz-adv-x="433" 
d="M241 61c42 0 71 12 108 28c2 1 7 3 14 3c18 0 30 -15 30 -31c0 -52 -115 -69 -171 -69c-113 0 -168 72 -155 166l27 187c14 96 87 169 206 169c98 0 146 -53 146 -136c0 -105 -56 -175 -192 -175c-30 0 -67 3 -101 9l-8 -59c-8 -56 24 -92 96 -92zM368 369
c0 52 -29 74 -80 74c-65 0 -108 -35 -116 -91l-11 -76c37 -5 85 -7 105 -7c76 0 102 41 102 100z" />
    <glyph glyph-name="uni0436" unicode="&#x436;" horiz-adv-x="608" 
d="M347 31c-3 -22 -22 -39 -44 -39s-37 17 -34 39l28 197h-37l-165 -217c-11 -13 -21 -19 -34 -19c-20 0 -33 12 -33 30c0 7 3 19 9 26l154 203l-97 203c-4 6 -3 16 -2 23c4 20 21 33 41 33c13 0 24 -6 30 -19l93 -197h50l25 178c3 21 22 39 44 39s37 -18 34 -39l-25 -178
h49l150 197c8 13 21 19 34 19c20 0 33 -12 33 -30c0 -7 -3 -19 -9 -26l-154 -203l96 -203c3 -6 4 -16 3 -23c-4 -20 -21 -33 -41 -33c-13 0 -24 6 -30 19l-103 217h-37z" />
    <glyph glyph-name="uni0437" unicode="&#x437;" horiz-adv-x="408" 
d="M408 391c0 -67 -30 -118 -113 -133c63 -12 90 -49 90 -102c0 -96 -64 -164 -193 -164c-50 0 -146 11 -146 55c0 16 12 39 45 39c7 0 6 -1 8 -2c24 -10 61 -23 106 -23c67 0 104 27 104 91c0 27 -15 65 -107 70c-20 1 -44 3 -44 29c0 36 30 36 51 38c100 8 123 59 123 98
c0 37 -26 58 -83 58c-38 0 -64 -9 -86 -18c-7 -3 -12 -5 -19 -5c-19 0 -31 15 -31 31c0 46 92 61 148 61c99 0 147 -50 147 -123z" />
    <glyph glyph-name="uni0438" unicode="&#x438;" horiz-adv-x="509" 
d="M370 123l49 350c3 21 18 38 44 38s37 -17 34 -38l-49 -350c-8 -55 1 -55 8 -70c1 -3 4 -10 4 -17c0 -20 -19 -38 -42 -38c-19 0 -30 12 -39 30c-47 -25 -100 -36 -147 -36c-106 0 -148 76 -132 189l41 292c3 21 19 38 44 38s37 -17 34 -38l-41 -292
c-11 -76 15 -119 75 -119c39 0 79 12 115 33c0 10 1 20 2 28z" />
    <glyph glyph-name="uni0439" unicode="&#x439;" horiz-adv-x="509" 
d="M370 123l49 350c3 21 18 38 44 38s37 -17 34 -38l-49 -350c-8 -55 1 -55 8 -70c1 -3 4 -10 4 -17c0 -20 -19 -38 -42 -38c-19 0 -30 12 -39 30c-47 -25 -100 -36 -147 -36c-106 0 -148 76 -132 189l41 292c3 21 19 38 44 38s37 -17 34 -38l-41 -292
c-11 -76 15 -119 75 -119c39 0 79 12 115 33c0 10 1 20 2 28zM344 633c22 0 45 11 70 41c9 11 22 16 33 16c17 0 31 -11 21 -37c-21 -54 -88 -81 -133 -81s-104 27 -110 81c-3 26 15 37 32 37c11 0 21 -5 27 -16c16 -30 37 -41 60 -41z" />
    <glyph glyph-name="uni043A" unicode="&#x43a;" horiz-adv-x="436" 
d="M155 31c-3 -22 -22 -39 -44 -39s-37 17 -34 39l62 441c3 21 23 39 45 39s36 -18 33 -39l-25 -178h62l157 197c10 13 21 19 34 19c19 0 33 -12 33 -30c0 -7 -3 -19 -9 -26l-166 -203l108 -203c3 -6 4 -16 3 -23c-4 -20 -21 -33 -41 -33c-13 0 -23 6 -30 19l-112 217h-48z
" />
    <glyph glyph-name="uni043B" unicode="&#x43b;" horiz-adv-x="524" 
d="M456 31c-3 -22 -23 -39 -45 -39s-36 17 -33 39l57 408h-159l-61 -276c-22 -101 -64 -168 -143 -168c-29 0 -57 1 -57 29c0 31 23 44 43 44c6 0 6 -1 13 -1c36 0 55 29 69 90l70 309c7 29 28 39 43 39h230c22 0 37 -18 34 -39z" />
    <glyph glyph-name="uni043C" unicode="&#x43c;" horiz-adv-x="640" 
d="M331 83h-2c-16 0 -28 9 -34 24l-97 235l-44 -311c-3 -21 -24 -39 -45 -39s-35 18 -32 39l62 438c3 24 23 42 47 42c19 0 30 -10 37 -26l122 -299l206 299c11 16 24 26 43 26c24 0 40 -18 37 -42l-62 -438c-3 -21 -24 -39 -44 -39c-22 0 -36 18 -33 39l44 311l-163 -235
c-10 -15 -26 -24 -42 -24z" />
    <glyph glyph-name="uni043D" unicode="&#x43d;" horiz-adv-x="514" 
d="M155 31c-3 -22 -22 -39 -44 -39s-37 17 -34 39l62 441c3 21 23 39 45 39s36 -18 33 -39l-25 -178h212l25 178c3 21 23 39 45 39s36 -18 33 -39l-62 -441c-3 -22 -22 -39 -44 -39s-37 17 -34 39l28 197h-212z" />
    <glyph glyph-name="uni043E" unicode="&#x43e;" horiz-adv-x="465" 
d="M231 -8c-122 0 -176 78 -162 178l24 167c14 100 90 178 212 178s176 -78 162 -178l-24 -167c-14 -100 -90 -178 -212 -178zM241 64c72 0 115 40 124 106l24 168c9 65 -23 105 -95 105s-114 -40 -123 -105l-24 -168c-9 -66 22 -106 94 -106z" />
    <glyph glyph-name="uni043F" unicode="&#x43f;" horiz-adv-x="504" 
d="M155 31c-3 -22 -22 -39 -44 -39s-37 17 -34 39l61 435c3 21 23 39 45 39h280c22 0 36 -18 33 -39l-61 -435c-3 -22 -22 -39 -44 -39s-37 17 -34 39l57 408h-202z" />
    <glyph glyph-name="uni0440" unicode="&#x440;" horiz-adv-x="478" 
d="M265 -7c-34 0 -74 7 -108 19l-27 -189c-3 -21 -19 -38 -44 -38s-37 17 -34 38l77 546c5 33 3 52 -6 70c-3 5 -5 10 -5 16c0 23 22 39 40 39c16 0 28 -10 36 -24c48 24 100 44 152 44c105 0 149 -77 133 -189l-19 -130c-17 -119 -68 -202 -195 -202zM207 369l-40 -287
c29 -15 72 -21 97 -21c73 0 105 41 118 134l19 130c11 78 -15 119 -81 119c-34 0 -76 -13 -113 -34c1 -15 2 -29 0 -41z" />
    <glyph glyph-name="uni0441" unicode="&#x441;" horiz-adv-x="390" 
d="M70 176l21 151c14 103 80 184 205 184c45 0 130 -13 130 -57c0 -20 -18 -38 -39 -38c-5 0 -10 0 -15 3c-23 11 -43 23 -78 23c-78 0 -115 -42 -125 -115l-22 -151c-10 -73 15 -115 93 -115c35 0 59 12 85 23c6 3 11 3 16 3c17 0 30 -14 30 -30c0 -50 -100 -65 -148 -65
c-125 0 -168 81 -153 184z" />
    <glyph glyph-name="uni0442" unicode="&#x442;" horiz-adv-x="778" 
d="M638 94l35 248c8 56 -16 100 -77 100c-43 0 -90 -23 -118 -53c1 -14 1 -29 -1 -45l-44 -313c-3 -21 -18 -38 -44 -38s-37 17 -34 38l41 290c10 71 5 121 -66 121c-44 0 -91 -19 -122 -40c0 -12 0 -22 -1 -31l-48 -340c-3 -21 -18 -38 -44 -38s-37 17 -34 38l48 340
c8 55 -1 55 -8 70c-1 3 -5 9 -5 17c0 21 19 38 42 38c17 0 29 -11 37 -27c47 28 100 45 152 45c55 0 88 -18 109 -51c46 32 96 51 152 51c108 0 157 -69 143 -170l-35 -250c-3 -22 -3 -35 7 -47c2 -3 5 -9 5 -16c0 -21 -20 -39 -42 -39c-25 0 -61 12 -48 102z" />
    <glyph glyph-name="uni0443" unicode="&#x443;" horiz-adv-x="509" 
d="M377 107l51 366c3 21 19 38 45 38s36 -17 33 -38l-72 -513c-14 -103 -79 -184 -204 -184c-46 0 -131 13 -131 57c0 20 18 38 39 38c5 0 10 -1 15 -3c23 -12 43 -23 78 -23c78 0 115 42 125 115l10 70c-39 -23 -82 -37 -133 -37c-121 0 -149 78 -134 182l41 298
c3 21 20 38 45 38s36 -17 33 -38l-41 -298c-10 -71 11 -114 82 -114c41 0 84 14 118 46z" />
    <glyph glyph-name="uni0444" unicode="&#x444;" horiz-adv-x="585" 
d="M228 -176l24 168c-137 0 -195 98 -176 228l11 76c18 124 102 218 238 218l24 172c3 21 22 39 44 39s37 -17 34 -39l-24 -172h2c136 0 194 -94 176 -218l-11 -76c-19 -130 -103 -228 -239 -228h-1l-24 -168c-3 -22 -23 -39 -45 -39s-36 18 -33 39zM394 442h-2l-53 -378h2
c86 0 137 60 151 156l11 77c13 89 -23 145 -109 145zM261 64l53 378c-86 0 -136 -56 -149 -145l-11 -77c-14 -96 21 -156 107 -156z" />
    <glyph glyph-name="uni0445" unicode="&#x445;" horiz-adv-x="431" 
d="M297 258l111 -208c2 -4 3 -9 3 -13c0 -23 -20 -45 -46 -45c-18 0 -25 8 -34 27l-89 174l-143 -181c-11 -14 -22 -20 -35 -20c-20 0 -35 14 -35 34c0 11 3 16 8 22l169 208l-103 198c-2 4 -4 10 -4 14c0 21 21 43 45 43c22 0 31 -19 39 -34l79 -155l128 163
c12 16 23 26 41 26c17 0 33 -14 33 -33c0 -10 -3 -17 -8 -23z" />
    <glyph glyph-name="uni0446" unicode="&#x446;" horiz-adv-x="531" 
d="M253 62c40 0 82 13 120 35c-2 19 -1 41 2 64l44 312c3 21 18 38 44 38s37 -17 34 -38l-44 -312c-9 -65 4 -99 38 -99c22 0 37 -17 34 -39l-18 -128c-3 -22 -23 -39 -45 -39s-36 17 -33 39l15 110c-22 5 -36 17 -50 32l1 -1c-52 -30 -111 -44 -163 -44
c-106 0 -148 76 -132 189l41 292c3 21 19 38 44 38s37 -17 34 -38l-41 -292c-11 -76 15 -119 75 -119z" />
    <glyph glyph-name="uni0447" unicode="&#x447;" horiz-adv-x="468" 
d="M190 472l-20 -141c-6 -41 0 -82 76 -82c20 0 67 6 108 14l29 209c3 21 22 39 44 39s37 -18 34 -39l-62 -441c-3 -22 -23 -39 -45 -39s-36 17 -33 39l23 166c-37 -9 -75 -14 -104 -14c-119 0 -161 56 -148 148l20 141c3 21 22 39 44 39s37 -18 34 -39z" />
    <glyph glyph-name="uni0448" unicode="&#x448;" horiz-adv-x="772" 
d="M217 473l-44 -312c-8 -56 16 -100 77 -100c42 0 89 23 117 52c-1 14 0 29 2 46l44 314c3 21 20 38 45 38s36 -17 33 -38l-41 -291c-10 -71 -5 -121 66 -121c42 0 88 18 118 38l53 374c3 21 20 38 45 38s36 -17 33 -38l-50 -359c-4 -28 2 -42 17 -60c3 -4 5 -9 5 -15
c0 -24 -22 -40 -40 -40c-23 0 -39 13 -49 32c-46 -26 -98 -42 -149 -42c-56 0 -88 17 -109 50c-47 -31 -97 -50 -152 -50c-108 0 -157 69 -143 170l44 314c3 21 20 38 45 38s36 -17 33 -38z" />
    <glyph glyph-name="uni0449" unicode="&#x449;" horiz-adv-x="805" 
d="M217 473l-44 -312c-8 -56 16 -100 77 -100c43 0 90 19 118 45c-2 16 -2 34 1 53l44 314c3 21 20 38 45 38s36 -17 33 -38l-41 -291c-10 -71 -5 -121 66 -121c45 0 93 19 125 41c-1 18 -1 38 2 59l44 312c3 21 19 38 45 38s36 -17 33 -38l-44 -312c-9 -65 5 -99 39 -99
c22 0 36 -17 33 -39l-18 -128c-3 -22 -22 -39 -44 -39s-37 17 -34 39l15 110c-22 5 -38 17 -51 34c-49 -31 -106 -50 -162 -50s-88 17 -109 50c-47 -31 -97 -50 -152 -50c-108 0 -157 69 -143 170l44 314c3 21 20 38 45 38s36 -17 33 -38z" />
    <glyph glyph-name="uni044A" unicode="&#x44a;" horiz-adv-x="528" 
d="M311 -8c-120 0 -169 78 -155 178l37 265h-86c-18 0 -31 13 -31 31c0 22 21 39 41 39h125c22 0 37 -18 34 -39l-24 -171c30 19 68 29 106 29c115 0 170 -74 156 -169c-14 -93 -90 -163 -203 -163zM342 252c-60 0 -98 -24 -105 -66l-3 -16c-11 -66 18 -106 87 -106
c73 0 117 43 117 109c0 49 -30 79 -96 79z" />
    <glyph glyph-name="uni044B" unicode="&#x44b;" horiz-adv-x="654" 
d="M217 472l-25 -177c31 19 69 29 107 29c115 0 170 -74 156 -169c-14 -93 -90 -163 -203 -163c-120 0 -169 78 -155 178l42 302c3 21 23 39 45 39s36 -18 33 -39zM584 31c-3 -22 -22 -39 -44 -39s-37 17 -34 39l62 441c3 21 23 39 45 39s36 -18 33 -39zM283 252
c-59 0 -99 -23 -105 -63l-3 -19c-10 -66 18 -106 87 -106c73 0 117 43 117 109c0 49 -30 79 -96 79z" />
    <glyph glyph-name="uni044C" unicode="&#x44c;" horiz-adv-x="472" 
d="M217 472l-25 -177c31 19 69 29 107 29c115 0 170 -74 156 -169c-14 -93 -90 -163 -203 -163c-120 0 -169 78 -155 178l42 302c3 21 23 39 45 39s36 -18 33 -39zM283 252c-60 0 -101 -24 -106 -66l-2 -16c-8 -66 18 -106 87 -106c73 0 117 43 117 109c0 49 -30 79 -96 79z
" />
    <glyph glyph-name="uni044D" unicode="&#x44d;" horiz-adv-x="393" 
d="M300 219h-153c-19 0 -32 13 -32 31c0 22 19 39 41 39h153l4 28c11 79 -10 125 -81 125c-39 0 -65 -11 -94 -23c-6 -2 -12 -3 -17 -3c-17 0 -29 14 -29 30c0 50 106 65 158 65c118 0 156 -85 141 -194l-18 -131c-15 -109 -78 -194 -196 -194c-49 0 -141 13 -141 57
c0 20 18 38 39 38c5 0 10 -1 16 -3c26 -12 48 -23 87 -23c71 0 105 46 117 125z" />
    <glyph glyph-name="uni044E" unicode="&#x44e;" horiz-adv-x="681" 
d="M155 31c-3 -22 -22 -39 -44 -39s-37 17 -34 39l62 441c3 21 23 39 45 39s36 -18 33 -39l-25 -178h110l6 42c14 100 90 178 212 178s176 -78 162 -178l-23 -166c-14 -100 -90 -178 -212 -178s-176 78 -162 178l8 58h-110zM457 64c72 0 115 40 124 106l23 167
c9 65 -22 105 -94 105s-115 -40 -124 -105l-23 -167c-9 -66 22 -106 94 -106z" />
    <glyph glyph-name="uni044F" unicode="&#x44f;" horiz-adv-x="487" 
d="M373 -8c-22 0 -37 18 -34 39l25 175h-88l-156 -195c-11 -13 -21 -19 -34 -19c-20 0 -33 12 -33 30c0 7 3 19 9 26l133 164c-65 15 -93 57 -93 120c0 102 64 173 189 173h154c22 0 36 -18 33 -39l-61 -435c-3 -21 -22 -39 -44 -39zM179 341c0 -35 18 -69 92 -69h102
l23 166h-113c-67 0 -104 -32 -104 -97z" />
    <glyph glyph-name="uni0450" unicode="&#x450;" horiz-adv-x="433" 
d="M241 61c-72 0 -104 36 -96 92l8 59c34 -6 71 -9 101 -9c136 0 192 70 192 175c0 83 -48 136 -146 136c-119 0 -192 -73 -206 -169l-27 -187c-13 -94 42 -166 155 -166c56 0 171 17 171 69c0 16 -12 31 -30 31c-7 0 -12 -2 -14 -3c-37 -16 -66 -28 -108 -28zM368 369
c0 -59 -26 -100 -102 -100c-20 0 -68 2 -105 7l11 76c8 56 51 91 116 91c51 0 80 -22 80 -74zM286 705l66 -81c3 -3 4 -8 4 -12c0 -22 -20 -38 -39 -38c-13 0 -20 7 -29 18l-69 86c-2 3 -3 9 -3 13c0 21 21 37 36 37c18 0 22 -10 34 -23z" />
    <glyph glyph-name="uni0451" unicode="&#x451;" horiz-adv-x="433" 
d="M241 61c-72 0 -104 36 -96 92l8 59c34 -6 71 -9 101 -9c136 0 192 70 192 175c0 83 -48 136 -146 136c-119 0 -192 -73 -206 -169l-27 -187c-13 -94 42 -166 155 -166c56 0 171 17 171 69c0 16 -12 31 -30 31c-7 0 -12 -2 -14 -3c-37 -16 -66 -28 -108 -28zM368 369
c0 -59 -26 -100 -102 -100c-20 0 -68 2 -105 7l11 76c8 56 51 91 116 91c51 0 80 -22 80 -74zM459 644c0 -29 -26 -54 -54 -54c-24 0 -42 20 -42 44c0 27 27 52 55 52c24 0 41 -18 41 -42zM290 644c0 -29 -26 -54 -55 -54c-24 0 -40 20 -40 43c0 28 25 53 53 53
c25 0 42 -18 42 -42z" />
    <glyph glyph-name="uni0452" unicode="&#x452;" horiz-adv-x="582" 
d="M432 21l39 276c11 76 -9 114 -71 114c-41 0 -90 -18 -124 -57l-45 -323c-3 -22 -22 -39 -44 -39s-36 17 -33 39l76 539h-88c-19 0 -32 14 -32 32c0 22 20 41 43 41h86l7 49c3 20 22 39 44 39s36 -17 33 -39l-7 -49h86c18 0 31 -15 31 -33c0 -22 -20 -40 -42 -40h-85
l-18 -128c38 26 83 42 131 42c107 0 145 -77 130 -186l-38 -273c-18 -129 -81 -210 -173 -227c-8 -1 -13 -1 -19 -1c-16 0 -28 10 -30 26c-3 27 21 40 36 43c57 16 93 58 107 155z" />
    <glyph glyph-name="uni0453" unicode="&#x453;" horiz-adv-x="406" 
d="M409 391c0 73 -48 123 -143 123c-54 0 -141 -15 -141 -60c0 -17 12 -32 31 -32c7 0 13 2 19 5c22 10 42 18 78 18c55 0 80 -20 80 -59c0 -37 -12 -54 -57 -75c-80 -37 -212 -44 -212 -195c0 -76 49 -124 149 -124c53 0 156 13 156 62c0 16 -11 32 -32 32
c-6 0 -8 -1 -11 -2c-30 -11 -63 -23 -103 -23c-50 0 -82 19 -82 63c0 43 21 60 46 73c73 37 222 42 222 194zM242 624l89 81c15 13 22 23 40 23c13 0 27 -12 27 -29c0 -5 -1 -15 -8 -21l-93 -86c-13 -12 -22 -18 -35 -18c-16 0 -28 12 -28 30c0 10 3 15 8 20z" />
    <glyph glyph-name="uni0454" unicode="&#x454;" horiz-adv-x="390" 
d="M307 219h-153l-5 -33c-12 -79 11 -125 82 -125c39 0 65 11 94 23c6 2 11 3 16 3c18 0 30 -14 30 -30c0 -50 -106 -65 -158 -65c-118 0 -158 85 -142 194l19 131c16 109 78 194 196 194c48 0 141 -13 141 -57c0 -20 -19 -38 -39 -38c-5 0 -10 1 -16 3
c-26 12 -49 23 -88 23c-71 0 -105 -46 -116 -125l-4 -28h153c18 0 31 -13 31 -31c0 -22 -19 -39 -41 -39z" />
    <glyph glyph-name="uni0455" unicode="&#x455;" horiz-adv-x="416" 
d="M103 350c0 95 66 164 184 164c50 0 126 -13 126 -52c0 -21 -19 -40 -42 -40c-7 0 -11 2 -17 5c-20 10 -37 18 -73 18c-69 0 -100 -29 -100 -80c0 -24 12 -40 39 -54c60 -32 163 -42 163 -152c0 -100 -66 -167 -190 -167c-49 0 -139 11 -139 54c0 18 16 40 42 40
c6 0 7 -1 10 -2c27 -11 57 -23 97 -23c61 0 103 26 103 85c0 28 -13 42 -29 51c-54 32 -174 40 -174 153z" />
    <glyph glyph-name="uni0456" unicode="&#x456;" horiz-adv-x="245" 
d="M265 674c0 -29 -26 -54 -55 -54c-25 0 -42 19 -42 43c0 29 26 53 55 53c25 0 42 -18 42 -42zM97 94l53 378c3 21 22 39 44 39s37 -18 34 -39l-53 -378c-3 -22 -3 -35 7 -47c2 -3 5 -9 5 -16c0 -21 -20 -39 -42 -39c-25 0 -61 12 -48 102z" />
    <glyph glyph-name="uni0457" unicode="&#x457;" horiz-adv-x="245" 
d="M356 625c0 -33 -29 -60 -61 -60c-27 0 -46 22 -46 48c0 31 30 58 61 58c27 0 46 -20 46 -46zM168 625c0 -33 -28 -60 -61 -60c-26 0 -45 22 -45 48c0 31 28 58 60 58c27 0 46 -20 46 -46zM96 94l53 378c3 21 22 39 44 39s37 -18 34 -39l-53 -378c-3 -22 -3 -35 7 -47
c2 -3 5 -9 5 -16c0 -21 -20 -39 -42 -39c-25 0 -61 12 -48 102z" />
    <glyph glyph-name="uni0458" unicode="&#x458;" horiz-adv-x="245" 
d="M240 472l-68 -487c-15 -105 -75 -174 -167 -187c-8 -1 -13 -1 -19 -1c-16 0 -28 10 -30 26c-3 27 21 40 36 43c56 12 91 42 101 115l69 491c3 21 23 39 45 39s36 -18 33 -39zM277 674c0 -29 -25 -54 -55 -54c-24 0 -42 19 -42 43c0 29 26 53 56 53c24 0 41 -18 41 -42z
" />
    <glyph glyph-name="uni0459" unicode="&#x459;" horiz-adv-x="737" 
d="M468 505c22 0 37 -18 34 -39l-23 -167h81c113 0 160 -46 160 -126c0 -102 -65 -173 -189 -173h-134c-22 0 -36 18 -33 39l56 400h-139l-61 -276c-22 -101 -64 -168 -143 -168c-29 0 -57 1 -57 29c0 31 23 44 43 44c6 0 6 -1 13 -1c36 0 55 29 69 90l70 309
c7 29 28 39 43 39h210zM551 233h-82l-23 -166h93c67 0 104 32 104 97c0 35 -18 69 -92 69z" />
    <glyph glyph-name="uni045A" unicode="&#x45a;" horiz-adv-x="722" 
d="M155 31c-3 -22 -22 -39 -44 -39s-37 17 -34 39l62 441c3 21 23 39 45 39s36 -18 33 -39l-25 -178h192l25 178c3 21 23 39 45 39s36 -18 33 -39l-25 -178h92c106 0 151 -44 151 -121c0 -101 -62 -173 -179 -173h-144c-22 0 -37 18 -34 39l27 189h-192zM545 228h-92
l-23 -161h103c62 0 94 33 94 97c0 32 -16 64 -82 64z" />
    <glyph glyph-name="uni045B" unicode="&#x45b;" horiz-adv-x="582" 
d="M442 94l32 223c9 62 -12 94 -74 94c-41 0 -90 -18 -124 -57l-45 -323c-3 -22 -22 -39 -44 -39s-36 17 -33 39l76 539h-88c-19 0 -32 14 -32 32c0 22 20 41 43 41h86l7 49c3 20 22 39 44 39s36 -17 33 -39l-7 -49h86c18 0 31 -15 31 -33c0 -22 -20 -40 -42 -40h-85
l-18 -128c38 26 83 42 131 42c107 0 147 -69 133 -166l-32 -224c-3 -22 -2 -35 8 -47c2 -3 4 -9 4 -16c0 -21 -19 -39 -41 -39c-25 0 -62 12 -49 102z" />
    <glyph glyph-name="uni045C" unicode="&#x45c;" horiz-adv-x="436" 
d="M155 31c-3 -22 -22 -39 -44 -39s-37 17 -34 39l62 441c3 21 23 39 45 39s36 -18 33 -39l-25 -178h62l157 197c10 13 21 19 34 19c19 0 33 -12 33 -30c0 -7 -3 -19 -9 -26l-166 -203l108 -203c3 -6 4 -16 3 -23c-4 -20 -21 -33 -41 -33c-13 0 -23 6 -30 19l-112 217h-48z
M302 624l89 81c15 13 22 23 40 23c13 0 27 -12 27 -29c0 -5 -1 -15 -8 -21l-93 -86c-13 -12 -22 -18 -35 -18c-16 0 -28 12 -28 30c0 10 3 15 8 20z" />
    <glyph glyph-name="uni045D" unicode="&#x45d;" horiz-adv-x="530" 
d="M370 123l49 350c3 21 18 38 44 38s37 -17 34 -38l-49 -350c-8 -55 1 -55 8 -70c1 -3 4 -10 4 -17c0 -20 -19 -38 -42 -38c-19 0 -30 12 -39 30c-47 -25 -100 -36 -147 -36c-106 0 -148 76 -132 189l41 292c3 21 19 38 44 38s37 -17 34 -38l-41 -292
c-11 -76 15 -119 75 -119c39 0 79 12 115 33c0 10 1 20 2 28zM332 705l66 -81c3 -3 4 -8 4 -12c0 -22 -20 -38 -39 -38c-13 0 -20 7 -29 18l-69 86c-2 3 -3 9 -3 13c0 21 21 37 36 37c18 0 22 -10 34 -23z" />
    <glyph glyph-name="uni045E" unicode="&#x45e;" horiz-adv-x="509" 
d="M377 107l51 366c3 21 19 38 45 38s36 -17 33 -38l-72 -513c-14 -103 -79 -184 -204 -184c-46 0 -131 13 -131 57c0 20 18 38 39 38c5 0 10 -1 15 -3c23 -12 43 -23 78 -23c78 0 115 42 125 115l10 70c-39 -23 -82 -37 -133 -37c-121 0 -149 78 -134 182l41 298
c3 21 20 38 45 38s36 -17 33 -38l-41 -298c-10 -71 11 -114 82 -114c41 0 84 14 118 46zM344 633c22 0 45 11 70 41c9 11 22 16 33 16c17 0 31 -11 21 -37c-21 -54 -88 -81 -133 -81s-104 27 -110 81c-3 26 15 37 32 37c11 0 21 -5 27 -16c16 -30 37 -41 60 -41z" />
    <glyph glyph-name="uni045F" unicode="&#x45f;" horiz-adv-x="504" 
d="M277 -101c-3 -22 -22 -39 -44 -39s-37 17 -34 39l14 101h-101c-22 0 -36 18 -33 39l61 435c3 22 23 39 45 39s36 -17 33 -39l-57 -408h202l57 408c3 22 23 39 45 39s36 -17 33 -39l-61 -435c-3 -21 -23 -39 -45 -39h-101z" />
    <glyph glyph-name="uni0462" unicode="&#x462;" horiz-adv-x="644" 
d="M545 621c0 -23 -23 -43 -47 -43h-176l-21 -152h115c123 0 198 -64 198 -179c0 -120 -69 -247 -258 -247h-147c-26 0 -46 22 -42 48l74 530h-95c-21 0 -35 17 -35 34c0 21 22 44 46 44h96l10 69c3 21 23 40 45 40s38 -19 35 -40l-10 -69h176c19 0 36 -15 36 -35zM252 78
h115c144 0 166 95 166 160c0 74 -44 110 -128 110h-115z" />
    <glyph glyph-name="uni0463" unicode="&#x463;" horiz-adv-x="582" 
d="M426 560c0 -22 -20 -40 -42 -40h-84l-24 -171h102c110 0 158 -52 158 -139c0 -121 -66 -210 -194 -210h-154c-22 0 -36 18 -33 39l68 481h-88c-19 0 -32 15 -32 33c0 22 20 40 42 40h87l13 89c3 22 22 39 44 39s37 -17 34 -39l-13 -89h84c19 0 32 -15 32 -33zM369 283
h-102l-30 -216h113c70 0 108 48 108 133c0 42 -17 83 -89 83z" />
    <glyph glyph-name="uni0490" unicode="&#x490;" horiz-adv-x="430" 
d="M166 661c3 22 25 45 51 45h231l13 91c3 21 24 40 46 40s37 -19 34 -40l-18 -130c-3 -22 -23 -39 -45 -39h-237l-84 -597c-3 -21 -23 -40 -45 -40s-38 19 -35 40z" />
    <glyph glyph-name="uni0491" unicode="&#x491;" horiz-adv-x="375" 
d="M365 505l14 97c3 22 23 39 45 39s36 -17 33 -39l-18 -128c-3 -22 -22 -39 -44 -39h-183l-57 -404c-3 -22 -22 -39 -44 -39s-37 17 -34 39l62 439c3 20 21 35 41 35h185z" />
    <glyph glyph-name="Wgrave" unicode="&#x1e80;" horiz-adv-x="776" 
d="M510 47l-45 503l-187 -504c-10 -26 -28 -56 -61 -56c-29 0 -43 26 -46 56l-62 619v3c0 29 29 43 51 43c16 0 30 -9 32 -29l49 -533l187 508c14 37 26 58 60 58c32 0 40 -23 43 -58l45 -508l200 533c7 18 21 29 37 29c19 0 43 -10 43 -32c0 -5 -2 -9 -4 -15l-236 -618
c-11 -29 -31 -56 -61 -56s-43 28 -45 57zM507 905l66 -81c3 -3 4 -8 4 -12c0 -22 -20 -38 -39 -38c-13 0 -20 7 -29 18l-69 86c-2 3 -3 9 -3 13c0 21 21 37 36 37c18 0 22 -10 34 -23z" />
    <glyph glyph-name="wgrave" unicode="&#x1e81;" horiz-adv-x="655" 
d="M694 465l-175 -428c-13 -30 -27 -45 -56 -45c-21 0 -39 12 -42 34l-40 351l-139 -351c-10 -24 -26 -34 -51 -34c-27 0 -40 17 -44 45l-56 431v3c0 20 20 40 44 40c16 0 30 -10 32 -28l43 -368c48 121 94 239 141 361c8 20 25 35 49 35c23 0 36 -15 38 -35
c12 -122 27 -240 41 -361l145 368c6 16 22 28 39 28c19 0 33 -15 33 -34c0 -6 -1 -10 -2 -12zM419 705l66 -81c3 -3 4 -8 4 -12c0 -22 -20 -38 -39 -38c-13 0 -20 7 -29 18l-69 86c-2 3 -3 9 -3 13c0 21 21 37 36 37c18 0 22 -10 34 -23z" />
    <glyph glyph-name="Wacute" unicode="&#x1e82;" horiz-adv-x="776" 
d="M510 47l-45 503l-187 -504c-10 -26 -28 -56 -61 -56c-29 0 -43 26 -46 56l-62 619v3c0 29 29 43 51 43c16 0 30 -9 32 -29l49 -533l187 508c14 37 26 58 60 58c32 0 40 -23 43 -58l45 -508l200 533c7 18 21 29 37 29c19 0 43 -10 43 -32c0 -5 -2 -9 -4 -15l-236 -618
c-11 -29 -31 -56 -61 -56s-43 28 -45 57zM433 824l89 81c15 13 22 23 40 23c13 0 27 -12 27 -29c0 -5 -1 -15 -8 -21l-93 -86c-13 -12 -22 -18 -35 -18c-16 0 -28 12 -28 30c0 10 3 15 8 20z" />
    <glyph glyph-name="wacute" unicode="&#x1e83;" horiz-adv-x="655" 
d="M694 465l-175 -428c-13 -30 -27 -45 -56 -45c-21 0 -39 12 -42 34l-40 351l-139 -351c-10 -24 -26 -34 -51 -34c-27 0 -40 17 -44 45l-56 431v3c0 20 20 40 44 40c16 0 30 -10 32 -28l43 -368c48 121 94 239 141 361c8 20 25 35 49 35c23 0 36 -15 38 -35
c12 -122 27 -240 41 -361l145 368c6 16 22 28 39 28c19 0 33 -15 33 -34c0 -6 -1 -10 -2 -12zM345 624l89 81c15 13 22 23 40 23c13 0 27 -12 27 -29c0 -5 -1 -15 -8 -21l-93 -86c-13 -12 -22 -18 -35 -18c-16 0 -28 12 -28 30c0 10 3 15 8 20z" />
    <glyph glyph-name="Wdieresis" unicode="&#x1e84;" horiz-adv-x="776" 
d="M510 47l-45 503l-187 -504c-10 -26 -28 -56 -61 -56c-29 0 -43 26 -46 56l-62 619v3c0 29 29 43 51 43c16 0 30 -9 32 -29l49 -533l187 508c14 37 26 58 60 58c32 0 40 -23 43 -58l45 -508l200 533c7 18 21 29 37 29c19 0 43 -10 43 -32c0 -5 -2 -9 -4 -15l-236 -618
c-11 -29 -31 -56 -61 -56s-43 28 -45 57zM637 844c0 -29 -26 -54 -54 -54c-24 0 -42 20 -42 44c0 27 27 52 55 52c24 0 41 -18 41 -42zM468 844c0 -29 -26 -54 -55 -54c-24 0 -40 20 -40 43c0 28 25 53 53 53c25 0 42 -18 42 -42z" />
    <glyph glyph-name="wdieresis" unicode="&#x1e85;" horiz-adv-x="655" 
d="M694 465l-175 -428c-13 -30 -27 -45 -56 -45c-21 0 -39 12 -42 34l-40 351l-139 -351c-10 -24 -26 -34 -51 -34c-27 0 -40 17 -44 45l-56 431v3c0 20 20 40 44 40c16 0 30 -10 32 -28l43 -368c48 121 94 239 141 361c8 20 25 35 49 35c23 0 36 -15 38 -35
c12 -122 27 -240 41 -361l145 368c6 16 22 28 39 28c19 0 33 -15 33 -34c0 -6 -1 -10 -2 -12zM549 644c0 -29 -26 -54 -54 -54c-24 0 -42 20 -42 44c0 27 27 52 55 52c24 0 41 -18 41 -42zM380 644c0 -29 -26 -54 -55 -54c-24 0 -40 20 -40 43c0 28 25 53 53 53
c25 0 42 -18 42 -42z" />
    <glyph glyph-name="Ygrave" unicode="&#x1ef2;" horiz-adv-x="476" 
d="M236 -10c-23 0 -38 19 -35 42l35 245l-125 378c-1 4 -2 10 -2 15c0 24 25 45 47 45c12 0 24 -5 29 -16l105 -329l197 329c7 11 21 16 33 16c19 0 36 -17 36 -37c0 -8 -4 -17 -7 -23l-232 -380l-34 -243c-3 -22 -24 -42 -47 -42zM328 905l66 -81c3 -3 4 -8 4 -12
c0 -22 -20 -38 -39 -38c-13 0 -20 7 -29 18l-69 86c-2 3 -3 9 -3 13c0 21 21 37 36 37c18 0 22 -10 34 -23z" />
    <glyph glyph-name="ygrave" unicode="&#x1ef3;" horiz-adv-x="509" 
d="M377 107l51 366c3 21 19 38 45 38s36 -17 33 -38l-72 -513c-14 -103 -79 -184 -204 -184c-46 0 -131 13 -131 57c0 20 18 38 39 38c5 0 10 -1 15 -3c23 -12 43 -23 78 -23c78 0 115 42 125 115l10 70c-39 -23 -82 -37 -133 -37c-121 0 -149 78 -134 182l41 298
c3 21 20 38 45 38s36 -17 33 -38l-41 -298c-10 -71 11 -114 82 -114c41 0 84 14 118 46zM337 705l66 -81c3 -3 4 -8 4 -12c0 -22 -20 -38 -39 -38c-13 0 -20 7 -29 18l-69 86c-2 3 -3 9 -3 13c0 21 21 37 36 37c18 0 22 -10 34 -23z" />
    <glyph glyph-name="endash" unicode="&#x2013;" horiz-adv-x="431" 
d="M432 287c0 -20 -17 -36 -37 -36h-280c-21 0 -37 16 -37 36s16 37 37 37h280c21 0 37 -17 37 -37z" />
    <glyph glyph-name="emdash" unicode="&#x2014;" horiz-adv-x="530" 
d="M532 287c0 -20 -17 -36 -37 -36h-380c-21 0 -37 16 -37 36s16 37 37 37h380c21 0 37 -17 37 -37z" />
    <glyph glyph-name="quoteleft" unicode="&#x2018;" horiz-adv-x="230" 
d="M139 555c0 60 71 170 100 170c9 0 17 -3 17 -14c0 -33 -31 -49 -50 -95c25 -3 41 -23 41 -48c0 -33 -29 -60 -62 -60c-27 0 -46 21 -46 47z" />
    <glyph glyph-name="quoteright" unicode="&#x2019;" horiz-adv-x="230" 
d="M263 678c0 -60 -70 -170 -99 -170c-9 0 -17 3 -17 14c0 33 31 49 50 95c-25 3 -42 23 -42 48c0 33 29 60 62 60c27 0 46 -21 46 -47z" />
    <glyph glyph-name="quotesinglbase" unicode="&#x201a;" horiz-adv-x="230" 
d="M174 51c0 -60 -70 -170 -99 -170c-9 0 -17 3 -17 14c0 33 31 49 50 95c-25 3 -42 23 -42 48c0 33 30 60 62 60c27 0 46 -21 46 -47z" />
    <glyph glyph-name="quotedblleft" unicode="&#x201c;" horiz-adv-x="369" 
d="M139 555c0 60 71 170 100 170c9 0 17 -3 17 -14c0 -33 -31 -49 -50 -95c25 -3 41 -23 41 -48c0 -33 -29 -60 -62 -60c-27 0 -46 21 -46 47zM279 555c0 61 72 170 100 170c10 0 17 -3 17 -14c0 -33 -31 -49 -50 -95c25 -3 41 -23 41 -48c0 -33 -29 -60 -62 -60
c-27 0 -46 21 -46 47z" />
    <glyph glyph-name="quotedblright" unicode="&#x201d;" horiz-adv-x="369" 
d="M403 672c-9 -67 -72 -164 -99 -164c-9 0 -17 3 -17 14c0 33 31 49 50 95c-25 3 -42 23 -42 48c0 33 30 60 62 60c29 0 50 -24 46 -53zM263 672c-9 -67 -73 -164 -99 -164c-10 0 -17 3 -17 14c0 33 31 49 50 95c-25 3 -42 23 -42 48c0 33 29 60 62 60c29 0 50 -24 46 -53z
" />
    <glyph glyph-name="quotedblbase" unicode="&#x201e;" horiz-adv-x="369" 
d="M314 51c0 -60 -70 -170 -99 -170c-9 0 -17 4 -17 15c0 33 31 48 50 94c-25 2 -42 23 -42 48c0 34 29 60 62 60c27 0 46 -21 46 -47zM174 51c0 -61 -71 -170 -99 -170c-10 0 -17 4 -17 14c0 34 31 49 50 95c-25 2 -42 23 -42 48c0 34 30 60 62 60c27 0 46 -21 46 -47z" />
    <glyph glyph-name="dagger" unicode="&#x2020;" horiz-adv-x="432" 
d="M508 478c0 -22 -21 -40 -42 -40h-150l-70 -501c-1 -7 -3 -15 -5 -22c-5 -17 -24 -31 -43 -31c-18 0 -32 14 -33 31c0 7 1 15 2 22l70 501h-150c-4 0 -6 1 -9 2c-13 4 -22 15 -22 30c0 22 19 40 41 40h150l23 162c1 7 2 14 4 21c6 18 25 32 43 32c19 0 33 -14 33 -32
c0 -7 0 -14 -1 -21l-23 -162h150c3 0 6 -1 9 -3c13 -3 23 -15 23 -29z" />
    <glyph glyph-name="daggerdbl" unicode="&#x2021;" horiz-adv-x="574" 
d="M515 44c0 -22 -21 -40 -43 -40h-149l-24 -171c-1 -6 -3 -13 -5 -19c-6 -17 -24 -31 -42 -31c-19 0 -32 14 -33 31c0 6 -1 13 0 19l24 171h-149c-19 0 -32 14 -32 32c0 23 19 40 42 40h149l51 362h-149c-19 0 -32 14 -32 32c0 22 20 41 43 41h149l24 174c1 3 2 6 3 8
c6 18 24 32 43 32c22 0 37 -18 34 -40l-24 -174h149c18 0 32 -15 32 -33c0 -22 -21 -40 -43 -40h-149l-51 -362h149c19 0 33 -13 33 -32z" />
    <glyph glyph-name="bullet" unicode="&#x2022;" horiz-adv-x="303" 
d="M269 283c0 -47 -43 -87 -90 -87c-38 0 -67 31 -67 69c0 46 43 86 89 86c39 0 68 -31 68 -68z" />
    <glyph glyph-name="ellipsis" unicode="&#x2026;" horiz-adv-x="583" 
d="M529 50c0 -32 -30 -60 -62 -60c-27 0 -46 22 -46 48c0 33 29 60 61 60c27 0 47 -21 47 -48zM352 50c0 -32 -29 -60 -62 -60c-27 0 -47 22 -47 48c0 33 31 60 62 60c27 0 47 -21 47 -48zM175 50c0 -32 -29 -60 -62 -60c-27 0 -46 22 -46 48c0 33 29 60 61 60
c27 0 47 -21 47 -48z" />
    <glyph glyph-name="guilsinglleft" unicode="&#x2039;" horiz-adv-x="318" 
d="M168 258l111 -208c2 -4 3 -9 3 -13c0 -23 -20 -45 -46 -45c-18 0 -25 8 -35 27l-124 237l184 229c13 16 23 26 41 26c17 0 33 -14 33 -33c0 -10 -3 -17 -8 -23z" />
    <glyph glyph-name="guilsinglright" unicode="&#x203a;" horiz-adv-x="318" 
d="M53 50l169 208l-103 197c-2 4 -3 9 -3 14c0 24 24 42 44 42c18 0 25 -10 33 -26l120 -229l-191 -237c-15 -19 -24 -27 -42 -27c-22 0 -35 16 -35 36c0 10 3 16 8 22z" />
    <glyph glyph-name="fraction" unicode="&#x2044;" horiz-adv-x="310" 
d="M415 687l-359 -725c-9 -18 -27 -28 -45 -25c-16 3 -26 18 -26 34s2 11 5 18l359 724c8 17 27 27 45 24c15 -3 25 -18 25 -34c0 -10 -3 -14 -4 -16z" />
    <glyph glyph-name="Euro" unicode="&#x20ac;" horiz-adv-x="500" 
d="M113 454h46l5 36c19 136 94 225 227 225c87 0 165 -37 165 -82c0 -21 -19 -39 -41 -39c-14 0 -18 7 -34 17c-27 21 -57 31 -96 31c-91 0 -128 -58 -141 -152l-5 -36h182c18 0 34 -14 34 -33c0 -23 -21 -41 -45 -41h-182l-7 -56h142c18 0 34 -14 34 -33
c0 -23 -21 -41 -45 -41h-142l-5 -34c-14 -94 8 -152 99 -152c39 0 71 10 104 31c19 10 25 17 39 17c19 0 31 -14 31 -31c0 -49 -95 -90 -189 -90c-133 0 -184 89 -164 225l5 34h-46c-20 0 -34 14 -34 33c0 23 23 41 45 41h46l7 56h-46c-20 0 -34 14 -34 33c0 23 23 41 45 41
z" />
    <glyph glyph-name="uni20B4" unicode="&#x20b4;" horiz-adv-x="500" 
d="M120 454h256c35 40 62 85 62 126c0 40 -29 57 -96 57c-88 0 -104 -28 -138 -28c-24 0 -36 16 -36 34c0 59 126 72 185 72c103 0 168 -40 168 -129c0 -54 -21 -95 -52 -132h39c18 0 34 -14 34 -33c0 -23 -21 -41 -45 -41h-110c-25 -19 -52 -37 -76 -56h179
c18 0 34 -14 34 -33c0 -23 -21 -41 -45 -41h-248c-30 -36 -58 -80 -58 -126c0 -34 20 -56 94 -56c95 0 132 35 162 35c19 0 31 -17 31 -35c0 -57 -125 -78 -198 -78c-102 0 -175 44 -175 137c0 48 17 88 45 123h-41c-20 0 -34 14 -34 33c0 23 23 41 45 41h111
c26 19 54 37 79 56h-183c-20 0 -34 14 -34 33c0 23 23 41 45 41z" />
    <glyph glyph-name="uni20BD" unicode="&#x20bd;" horiz-adv-x="500" 
d="M97 338h39l45 319c4 26 28 48 54 48h117c145 0 197 -88 197 -188c0 -162 -105 -257 -259 -257h-85l-7 -52h149c18 0 34 -14 34 -33c0 -23 -21 -41 -45 -41h-149l-14 -102c-3 -22 -25 -42 -46 -42s-37 19 -34 42l14 102h-39c-20 0 -34 14 -34 33c0 23 23 41 45 41h39l7 56
h-39c-20 0 -34 14 -34 33c0 23 23 41 45 41zM256 627l-40 -289h85c110 0 168 58 168 171c0 61 -28 118 -128 118h-85z" />
    <glyph glyph-name="trademark" unicode="&#x2122;" horiz-adv-x="773" 
d="M823 682l-53 -375c-2 -15 -18 -28 -33 -28c-16 0 -27 13 -25 28l38 268l-119 -189c-8 -12 -19 -18 -31 -18s-23 7 -27 18l-65 189l-38 -268c-2 -15 -18 -28 -33 -28c-16 0 -26 13 -24 28l53 375c2 18 17 31 35 31c13 0 23 -7 27 -18l84 -241l151 241c8 13 21 18 33 18
c16 0 29 -15 27 -31zM414 682c0 -18 -16 -32 -34 -32h-95l-48 -342c-2 -16 -17 -29 -34 -29s-28 13 -26 29l48 342h-94c-15 0 -26 10 -26 25c0 18 16 33 34 33h249c15 0 26 -11 26 -26z" />
    <glyph glyph-name="estimated" unicode="&#x212e;" horiz-adv-x="903" 
d="M825 317h-605c-3 0 -5 -1 -5 -4v-183c0 -8 4 -15 9 -21c57 -61 139 -99 229 -99c96 0 182 43 240 111h55c-68 -79 -176 -131 -296 -131c-206 0 -374 150 -374 336s168 336 374 336s373 -150 373 -336v-9zM689 341v184c0 9 -4 16 -10 22c-58 58 -138 95 -226 95
c-90 0 -170 -38 -228 -98c-6 -6 -10 -14 -10 -23v-180c0 -3 2 -5 5 -5h464c3 0 5 2 5 5z" />
    <glyph glyph-name="arrowleft" unicode="&#x2190;" horiz-adv-x="559" 
d="M504 353c0 -20 -17 -36 -36 -36h-299l148 -171c4 -6 5 -12 5 -17c0 -22 -16 -41 -40 -41c-18 0 -24 10 -38 27l-179 214c-13 16 -13 30 0 46l173 206c12 14 19 26 37 26s38 -16 38 -37c0 -6 -1 -13 -5 -19l-140 -161h300c20 0 36 -17 36 -37z" />
    <glyph glyph-name="arrowup" unicode="&#x2191;" horiz-adv-x="629" 
d="M309 81c-20 0 -37 16 -37 36v379l-161 -139c-5 -5 -13 -5 -19 -5c-21 0 -37 20 -37 38s12 25 26 37l206 173c16 13 30 13 46 0l214 -179c17 -14 27 -20 27 -38c0 -24 -19 -40 -41 -40c-5 0 -12 0 -17 5l-171 148v-379c0 -19 -16 -36 -36 -36z" />
    <glyph glyph-name="arrowright" unicode="&#x2192;" horiz-adv-x="559" 
d="M55 353c0 20 16 37 36 37h299l-139 161c-4 6 -5 13 -5 19c0 21 20 37 38 37s25 -12 37 -26l173 -206c13 -16 13 -30 0 -46l-179 -214c-14 -17 -20 -27 -38 -27c-24 0 -40 19 -40 41c0 5 1 11 5 17l148 171h-299c-19 0 -36 16 -36 36z" />
    <glyph glyph-name="arrowdown" unicode="&#x2193;" horiz-adv-x="629" 
d="M309 613c20 0 36 -17 36 -36v-379l171 148c5 5 12 5 17 5c22 0 41 -16 41 -40c0 -18 -10 -24 -27 -38l-214 -179c-16 -13 -30 -13 -46 0l-206 173c-14 12 -26 19 -26 37s16 38 37 38c6 0 14 0 19 -5l161 -140v380c0 20 17 36 37 36z" />
    <glyph glyph-name="uni2196" unicode="&#x2196;" horiz-adv-x="529" 
d="M463 155c-14 -14 -38 -15 -52 -1l-269 269l-14 -213c0 -7 -6 -13 -10 -17c-15 -15 -41 -12 -53 1c-13 13 -10 26 -8 44l23 268c2 21 12 31 33 33l278 25c21 2 33 5 46 -8c17 -17 14 -42 -1 -57c-4 -4 -9 -9 -16 -9l-226 -17l269 -267c13 -14 14 -37 0 -51z" />
    <glyph glyph-name="uni2197" unicode="&#x2197;" horiz-adv-x="532" 
d="M67 163c-15 14 -15 37 -1 51l268 268l-212 16c-7 0 -13 6 -17 10c-15 15 -12 40 0 53c13 13 27 9 45 8l268 -24c20 -2 30 -12 32 -32l25 -278c2 -22 5 -33 -8 -46c-17 -17 -41 -15 -57 1c-3 3 -8 8 -8 15l-17 226l-268 -268c-13 -14 -36 -14 -50 0z" />
    <glyph glyph-name="uni2198" unicode="&#x2198;" horiz-adv-x="529" 
d="M66 539c14 14 38 15 52 1l268 -270l15 214c0 7 6 13 10 17c15 15 41 12 53 -1c13 -13 10 -26 8 -44l-23 -268c-2 -21 -12 -31 -33 -33l-278 -25c-21 -2 -33 -5 -46 8c-17 17 -14 42 1 57c4 4 9 9 16 9l225 16l-268 268c-13 14 -14 37 0 51z" />
    <glyph glyph-name="uni2199" unicode="&#x2199;" horiz-adv-x="532" 
d="M465 531c15 -14 15 -37 1 -51l-268 -269l212 -15c7 0 13 -6 17 -10c15 -15 12 -40 0 -53c-13 -13 -27 -9 -45 -8l-268 24c-20 2 -30 12 -32 32l-25 278c-2 22 -5 33 8 46c17 17 41 15 57 -1c3 -3 8 -8 8 -15l16 -226l269 268c13 14 36 14 50 0z" />
    <glyph glyph-name="minus" unicode="&#x2212;" horiz-adv-x="500" 
d="M121 393h338c20 0 39 -17 39 -39s-17 -39 -39 -39h-338c-22 0 -39 17 -39 39s19 39 39 39z" />
    <glyph glyph-name="triagup" unicode="&#x25b2;" horiz-adv-x="758" 
d="M646 0h-534c-56 0 -69 21 -44 72l275 549c25 51 47 51 72 0l275 -549c25 -51 12 -72 -44 -72z" />
    <glyph glyph-name="triagrt" unicode="&#x25ba;" horiz-adv-x="785" 
d="M55 65v547c0 56 21 69 72 44l564 -282c51 -25 51 -47 0 -72l-564 -281c-51 -25 -72 -12 -72 44z" />
    <glyph glyph-name="triagdn" unicode="&#x25bc;" horiz-adv-x="758" 
d="M112 678h534c56 0 69 -21 44 -72l-275 -549c-25 -51 -47 -51 -72 0l-275 549c-25 51 -12 72 44 72z" />
    <glyph glyph-name="triaglf" unicode="&#x25c4;" horiz-adv-x="785" 
d="M94 374l564 282c51 25 72 12 72 -44v-547c0 -56 -21 -69 -72 -44l-564 281c-51 25 -51 47 0 72z" />
    <glyph glyph-name="uni2639" unicode="&#x2639;" horiz-adv-x="733" 
d="M678 253c0 -168 -139 -311 -311 -311c-171 0 -312 141 -312 311c0 171 141 311 312 311s311 -141 311 -311zM633 253c0 146 -121 266 -266 266s-266 -118 -266 -266c0 -147 120 -266 266 -266c145 0 266 120 266 266zM287 317c0 -21 -18 -39 -40 -39c-21 0 -39 18 -39 39
c0 22 18 40 39 40c22 0 40 -18 40 -40zM525 317c0 -21 -17 -39 -39 -39s-40 18 -40 39c0 22 18 40 40 40s39 -18 39 -40zM253 78l-30 17c33 61 80 95 144 95c63 0 111 -33 143 -95l-30 -17c-26 45 -63 70 -113 70s-88 -24 -114 -70z" />
    <glyph glyph-name="uni263A" unicode="&#x263a;" horiz-adv-x="733" 
d="M678 253c0 -168 -139 -311 -311 -311c-171 0 -312 141 -312 311c0 171 141 311 312 311s311 -141 311 -311zM633 253c0 146 -121 266 -266 266s-266 -118 -266 -266c0 -147 120 -266 266 -266c145 0 266 120 266 266zM287 317c0 -21 -18 -39 -40 -39c-21 0 -39 18 -39 39
c0 22 18 40 39 40c22 0 40 -18 40 -40zM525 317c0 -21 -17 -39 -39 -39s-40 18 -40 39c0 22 18 40 40 40s39 -18 39 -40zM223 153l30 17c26 -46 64 -70 114 -70s87 24 113 70l30 -17c-32 -62 -80 -95 -143 -95c-64 0 -111 33 -144 95z" />
    <glyph glyph-name="uni263B" unicode="&#x263b;" horiz-adv-x="732" 
d="M677 253c0 -170 -139 -311 -311 -311c-171 0 -311 140 -311 311c0 172 141 311 311 311c171 0 311 -140 311 -311zM286 317c0 22 -17 40 -39 40s-40 -18 -40 -40c0 -21 18 -39 40 -39s39 18 39 39zM525 317c0 22 -18 40 -39 40c-22 0 -40 -18 -40 -40
c0 -21 18 -39 40 -39c21 0 39 18 39 39zM253 170l-30 -17c33 -62 79 -95 143 -95c63 0 111 33 144 95l-31 17c-25 -46 -63 -70 -113 -70c-49 0 -87 24 -113 70z" />
    <glyph glyph-name="uni2661" unicode="&#x2661;" horiz-adv-x="642" 
d="M312 393c2 -11 5 -17 9 -18c4 2 6 8 9 18c28 91 76 123 131 123c59 0 126 -37 126 -142c0 -57 -20 -80 -115 -206c-56 -74 -62 -83 -113 -164c-10 -16 -19 -29 -38 -29s-28 13 -38 29c-53 84 -55 87 -113 164c-95 126 -115 149 -115 206c0 105 68 142 125 142
s108 -37 132 -123zM317 25c1 -3 2 -5 4 -5s2 2 4 5l131 187c72 103 91 120 91 165c0 70 -46 99 -85 99c-52 0 -75 -52 -93 -94c-12 -28 -26 -49 -48 -49c-20 0 -33 16 -48 49c-20 46 -42 94 -93 94c-39 0 -85 -29 -85 -99c0 -45 19 -62 91 -165z" />
    <glyph glyph-name="uni2665" unicode="&#x2665;" horiz-adv-x="642" 
d="M312 393c7 -25 13 -23 20 0c25 87 73 123 127 123c69 0 128 -50 128 -130c0 -69 -44 -130 -105 -209c-72 -93 -72 -92 -121 -173c-9 -15 -19 -29 -39 -29s-29 13 -39 29c-51 81 -55 87 -113 164c-95 126 -115 149 -115 206c0 105 67 142 126 142c54 0 107 -36 131 -123z
" />
    <glyph glyph-name="uni266A" unicode="&#x266a;" horiz-adv-x="510" 
d="M242 189v477c188 0 245 -33 245 -190c0 -39 -8 -49 -24 -50c-16 1 -23 9 -24 25c0 68 -55 103 -135 103h-13v-408c0 -103 -46 -164 -153 -164c-70 0 -115 43 -115 109c0 68 55 121 134 121c26 0 54 -7 85 -23z" />
    <glyph glyph-name="uni266B" unicode="&#x266b;" horiz-adv-x="760" 
d="M266 145v396c0 56 23 87 76 104l236 73c53 17 76 0 76 -56v-461c0 -109 -50 -162 -150 -162c-72 0 -117 45 -117 109c0 65 56 120 135 120c28 0 35 -2 83 -21v323c0 21 -9 27 -29 21l-233 -72c-20 -6 -29 -18 -29 -39v-378c0 -109 -51 -165 -152 -165
c-70 0 -115 44 -115 109c0 68 55 121 134 121c25 0 53 -7 85 -22z" />
    <glyph glyph-name="typography.com.ua" unicode="&#xe020;" horiz-adv-x="885" 
d="M840 471c-5 -32 -26 -32 -42 -30c-8 1 -21 2 -28 2c-34 0 -63 -24 -70 -64l-27 -155h83c21 0 37 -17 37 -37c0 -21 -16 -38 -37 -38h-97l-37 -213c-18 -100 -52 -168 -145 -168c-46 0 -81 1 -81 36c0 23 16 37 39 37c6 0 19 -1 29 -1c51 0 68 29 79 90l38 219h-128v-119
c0 -22 -17 -39 -39 -39s-39 17 -39 39v119h-250c-24 0 -41 20 -41 43c0 3 3 17 8 27l192 481c6 14 20 23 34 23c17 0 39 -15 39 -43c0 -2 0 -5 -2 -10l-179 -446h199v251c0 22 17 39 39 39c21 0 39 -17 39 -39v-251h141l30 167c13 75 68 123 159 123c39 0 62 -9 57 -43z" />
    <glyph glyph-name="commaaccent" unicode="&#xf6c3;" horiz-adv-x="310" 
d="M194 -98c0 -52 -66 -140 -95 -140c-9 0 -17 4 -17 15c0 23 29 34 46 64c-25 2 -42 23 -42 48c0 34 29 60 62 60c27 0 46 -21 46 -47z" />
    <glyph glyph-name="R.salt" unicode="&#xe0052;" horiz-adv-x="557" 
d="M204 365h115c71 0 158 51 158 160c0 54 -26 103 -104 103h-132zM157 30c-3 -21 -24 -40 -46 -40s-37 19 -34 40l88 628c4 27 29 48 55 48h169c116 0 169 -84 169 -175c0 -114 -67 -168 -157 -208c64 -27 76 -68 76 -189c0 -36 5 -59 39 -73c17 -7 35 -22 24 -47
c-8 -17 -24 -22 -41 -22c-2 0 -5 0 -14 1c-75 9 -86 79 -86 197c0 40 -11 97 -118 97h-88z" />
    <glyph glyph-name="uni0414.BUL" unicode="&#xe0414;" horiz-adv-x="668" 
d="M13 -101l18 128c4 29 24 51 46 51h29l267 584c13 30 31 53 60 53c30 0 40 -22 45 -53l102 -584h31c23 0 38 -22 34 -51l-18 -128c-3 -22 -23 -39 -46 -39c-22 0 -37 17 -34 39l14 101h-456l-14 -101c-3 -22 -22 -39 -44 -39s-37 17 -34 39zM413 576l-222 -498h303z" />
    <glyph glyph-name="uni0416.BUL" unicode="&#xe0416;" horiz-adv-x="746" 
d="M508 675l-45 -318l285 339c11 13 22 19 35 19c22 0 33 -21 33 -39c0 -10 -2 -16 -8 -23l-237 -281l152 -320c2 -5 3 -10 3 -14c0 -20 -19 -48 -45 -48c-13 0 -23 6 -30 19l-142 289l-66 -79l-26 -188c-3 -22 -24 -41 -46 -41s-37 19 -34 41l26 188l-44 79l-222 -289
c-11 -13 -23 -19 -36 -19c-21 0 -32 21 -32 39c0 10 3 16 8 23l241 320l-156 281c-3 5 -3 10 -3 14c0 20 18 48 44 48c13 0 24 -6 31 -19l189 -339l45 318c3 21 23 40 45 40s38 -19 35 -40z" />
    <glyph glyph-name="uni041B.BUL" unicode="&#xe041b;" horiz-adv-x="549" 
d="M355 576l-247 -556c-8 -18 -28 -30 -42 -30c-21 0 -37 14 -37 35c0 7 3 17 5 20l281 617c14 30 31 53 60 53c30 0 39 -22 45 -53l108 -617c0 -1 1 -5 1 -8c0 -29 -22 -47 -48 -47c-15 0 -32 12 -35 30z" />
    <glyph glyph-name="uni0432.BUL" unicode="&#xe0432;" horiz-adv-x="468" 
d="M88 175l46 329c17 121 89 195 199 195c85 0 143 -48 143 -141c0 -110 -62 -164 -120 -189c70 -18 97 -69 97 -138c0 -132 -70 -239 -214 -239c-112 0 -167 69 -151 183zM376 225c0 61 -28 105 -116 105h-72l-22 -158c-10 -71 19 -108 83 -108c88 0 127 66 127 161z
M213 507l-15 -110h84c36 0 116 37 116 144c0 58 -32 86 -80 86c-61 0 -94 -41 -105 -120z" />
    <glyph glyph-name="uni0433.BUL" unicode="&#xe0433;" horiz-adv-x="406" 
d="M409 391c0 -152 -149 -157 -222 -194c-25 -13 -46 -30 -46 -73c0 -44 32 -63 82 -63c40 0 73 12 103 23c3 1 5 2 11 2c21 0 32 -16 32 -32c0 -49 -103 -62 -156 -62c-100 0 -149 48 -149 124c0 151 132 158 212 195c45 21 57 38 57 75c0 39 -25 59 -80 59
c-36 0 -56 -8 -78 -18c-6 -3 -12 -5 -19 -5c-19 0 -31 15 -31 32c0 45 87 60 141 60c95 0 143 -50 143 -123z" />
    <glyph glyph-name="uni0434.BUL" unicode="&#xe0434;" horiz-adv-x="485" 
d="M348 107l35 246c8 56 -28 89 -93 89c-72 0 -111 -41 -120 -109l-22 -158c-10 -71 11 -114 82 -114c41 0 84 14 118 46zM461 353l-56 -393c-14 -103 -79 -184 -204 -184c-46 0 -131 13 -131 57c0 20 18 38 39 38c5 0 10 -1 15 -3c23 -12 43 -23 78 -23
c78 0 115 42 125 115l10 70c-39 -23 -82 -37 -133 -37c-121 0 -149 78 -134 182l22 158c14 102 86 181 208 181c116 0 174 -71 161 -161z" />
    <glyph glyph-name="uni0436.BUL" unicode="&#xe0436;" horiz-adv-x="628" 
d="M449 686l-52 -373l207 188c6 6 16 9 25 9c19 0 33 -14 33 -32c0 -10 -4 -21 -14 -30l-169 -150l134 -250c3 -6 4 -16 3 -23c-4 -20 -21 -33 -41 -33c-13 0 -23 6 -30 19l-121 236l-42 -37l-25 -179c-3 -22 -22 -39 -44 -39s-37 17 -34 39l25 179l-31 37l-188 -236
c-10 -13 -21 -19 -34 -19c-19 0 -33 12 -33 30c0 7 3 19 9 26l204 250l-125 150c-5 6 -7 13 -7 21c0 23 19 41 42 41c9 0 19 -3 23 -9l155 -188l52 373c3 22 23 39 45 39s36 -17 33 -39z" />
    <glyph glyph-name="uni0437.BUL" unicode="&#xe0437;" horiz-adv-x="408" 
d="M403 362c0 -97 -36 -181 -130 -202c64 -14 92 -67 92 -141c0 -138 -63 -243 -208 -243c-46 0 -141 11 -141 56c0 28 32 42 45 38l7 -2c26 -10 64 -23 101 -23c80 0 119 56 119 163c0 40 -14 111 -99 116c-17 1 -45 0 -45 29c0 37 30 37 51 38c117 7 132 122 132 166
c0 54 -24 88 -82 88c-29 0 -59 -8 -82 -18c-6 -3 -11 -5 -18 -5c-20 0 -32 15 -32 31c0 46 94 61 146 61c98 0 144 -59 144 -152z" />
    <glyph glyph-name="uni0438.BUL" unicode="&#xe0438;" horiz-adv-x="509" 
d="M370 123l49 350c3 21 18 38 44 38s37 -17 34 -38l-49 -350c-8 -55 1 -55 8 -70c1 -3 4 -10 4 -17c0 -20 -19 -38 -42 -38c-19 0 -30 12 -39 30c-47 -25 -100 -36 -147 -36c-106 0 -148 76 -132 189l41 292c3 21 19 38 44 38s37 -17 34 -38l-41 -292
c-11 -76 15 -119 75 -119c39 0 79 12 115 33c0 10 1 20 2 28z" />
    <glyph glyph-name="uni0439.BUL" unicode="&#xe0439;" horiz-adv-x="509" 
d="M370 123l49 350c3 21 18 38 44 38s37 -17 34 -38l-49 -350c-8 -55 1 -55 8 -70c1 -3 4 -10 4 -17c0 -20 -19 -38 -42 -38c-19 0 -30 12 -39 30c-47 -25 -100 -36 -147 -36c-106 0 -148 76 -132 189l41 292c3 21 19 38 44 38s37 -17 34 -38l-41 -292
c-11 -76 15 -119 75 -119c39 0 79 12 115 33c0 10 1 20 2 28zM343 633c22 0 45 11 70 41c9 11 22 16 33 16c17 0 31 -11 21 -37c-21 -54 -88 -81 -133 -81s-104 27 -110 81c-3 26 15 37 32 37c11 0 21 -5 27 -16c16 -30 37 -41 60 -41z" />
    <glyph glyph-name="uni043A.BUL" unicode="&#xe043a;" horiz-adv-x="439" 
d="M248 686l-52 -373l207 188c6 6 16 9 25 9c20 0 33 -14 33 -32c0 -10 -4 -21 -14 -30l-169 -150l134 -250c3 -6 4 -16 3 -23c-4 -20 -21 -33 -41 -33c-13 0 -23 6 -30 19l-121 236l-42 -37l-25 -179c-3 -22 -22 -39 -44 -39s-37 17 -34 39l92 655c3 22 23 39 45 39
s36 -17 33 -39z" />
    <glyph glyph-name="uni043B.BUL" unicode="&#xe043b;" horiz-adv-x="430" 
d="M333 464l76 -423v-4c0 -28 -22 -45 -44 -45c-15 0 -27 11 -30 26l-63 377l-170 -377c-8 -17 -24 -26 -39 -26c-19 0 -34 14 -34 32c0 5 0 9 3 14l199 427c15 32 30 46 57 46c26 0 39 -14 45 -47z" />
    <glyph glyph-name="uni043F.BUL" unicode="&#xe043f;" horiz-adv-x="509" 
d="M368 94l32 229c11 76 -15 119 -75 119c-39 0 -80 -16 -117 -42c0 -11 0 -21 -1 -29l-48 -340c-3 -21 -18 -38 -44 -38s-37 17 -34 38l48 340c8 55 -1 55 -8 70c-1 3 -5 9 -5 17c0 21 19 38 42 38c18 0 30 -12 38 -29c49 31 102 45 150 45c106 0 148 -76 132 -189
l-32 -229c-3 -22 -3 -35 7 -47c2 -3 5 -9 5 -16c0 -21 -20 -39 -42 -39c-25 0 -61 12 -48 102z" />
    <glyph glyph-name="uni0442.BUL" unicode="&#xe0442;" horiz-adv-x="778" 
d="M638 94l35 248c8 56 -16 100 -77 100c-43 0 -90 -23 -118 -53c1 -14 1 -29 -1 -45l-44 -313c-3 -21 -18 -38 -44 -38s-37 17 -34 38l41 290c10 71 5 121 -66 121c-44 0 -91 -19 -122 -40c0 -12 0 -22 -1 -31l-48 -340c-3 -21 -18 -38 -44 -38s-37 17 -34 38l48 340
c8 55 -1 55 -8 70c-1 3 -5 9 -5 17c0 21 19 38 42 38c17 0 29 -11 37 -27c47 28 100 45 152 45c55 0 88 -18 109 -51c46 32 96 51 152 51c108 0 157 -69 143 -170l-35 -250c-3 -22 -3 -35 7 -47c2 -3 5 -9 5 -16c0 -21 -20 -39 -42 -39c-25 0 -61 12 -48 102z" />
    <glyph glyph-name="uni0446.BUL" unicode="&#xe0446;" horiz-adv-x="531" 
d="M253 62c40 0 82 13 120 35c-2 19 -1 41 2 64l44 312c3 21 18 38 44 38s37 -17 34 -38l-44 -312c-9 -65 4 -99 38 -99c22 0 37 -17 34 -39l-18 -128c-3 -22 -23 -39 -45 -39s-36 17 -33 39l15 110c-22 5 -36 17 -50 32l1 -1c-52 -30 -111 -44 -163 -44
c-106 0 -148 76 -132 189l41 292c3 21 19 38 44 38s37 -17 34 -38l-41 -292c-11 -76 15 -119 75 -119z" />
    <glyph glyph-name="uni0448.BUL" unicode="&#xe0448;" horiz-adv-x="772" 
d="M217 473l-44 -312c-8 -56 16 -100 77 -100c42 0 89 23 117 52c-1 14 0 29 2 46l44 314c3 21 20 38 45 38s36 -17 33 -38l-41 -291c-10 -71 -5 -121 66 -121c42 0 88 18 118 38l53 374c3 21 20 38 45 38s36 -17 33 -38l-50 -359c-4 -28 2 -42 17 -60c3 -4 5 -9 5 -15
c0 -24 -22 -40 -40 -40c-23 0 -39 13 -49 32c-46 -26 -98 -42 -149 -42c-56 0 -88 17 -109 50c-47 -31 -97 -50 -152 -50c-108 0 -157 69 -143 170l44 314c3 21 20 38 45 38s36 -17 33 -38z" />
    <glyph glyph-name="uni0449.BUL" unicode="&#xe0449;" horiz-adv-x="805" 
d="M217 473l-44 -312c-8 -56 16 -100 77 -100c43 0 90 19 118 45c-2 16 -2 34 1 53l44 314c3 21 20 38 45 38s36 -17 33 -38l-41 -291c-10 -71 -5 -121 66 -121c45 0 93 19 125 41c-1 18 -1 38 2 59l44 312c3 21 19 38 45 38s36 -17 33 -38l-44 -312c-9 -65 5 -99 39 -99
c22 0 36 -17 33 -39l-18 -128c-3 -22 -22 -39 -44 -39s-37 17 -34 39l15 110c-22 5 -38 17 -51 34c-49 -31 -106 -50 -162 -50s-88 17 -109 50c-47 -31 -97 -50 -152 -50c-108 0 -157 69 -143 170l44 314c3 21 20 38 45 38s36 -17 33 -38z" />
    <glyph glyph-name="uni044A.BUL" unicode="&#xe044a;" horiz-adv-x="528" 
d="M311 -8c-120 0 -169 78 -155 178l37 265h-86c-18 0 -31 13 -31 31c0 22 21 39 41 39h125c22 0 37 -18 34 -39l-24 -171c30 19 68 29 106 29c115 0 170 -74 156 -169c-14 -93 -90 -163 -203 -163zM342 252c-60 0 -98 -24 -105 -66l-3 -16c-11 -66 18 -106 87 -106
c73 0 117 43 117 109c0 49 -30 79 -96 79z" />
    <glyph glyph-name="uni044C.BUL" unicode="&#xe044c;" horiz-adv-x="472" 
d="M217 472l-25 -177c31 19 69 29 107 29c115 0 170 -74 156 -169c-14 -93 -90 -163 -203 -163c-120 0 -169 78 -155 178l42 302c3 21 23 39 45 39s36 -18 33 -39zM283 252c-60 0 -101 -24 -106 -66l-2 -16c-8 -66 18 -106 87 -106c73 0 117 43 117 109c0 49 -30 79 -96 79z
" />
    <glyph glyph-name="uni044E.BUL" unicode="&#xe044e;" horiz-adv-x="681" 
d="M248 692l-56 -398h110l6 42c14 100 90 178 212 178s176 -78 162 -178l-23 -166c-14 -100 -90 -178 -212 -178s-176 78 -162 178l8 58h-110l-28 -197c-3 -22 -21 -39 -43 -39s-37 17 -34 39l93 661c3 20 21 39 43 39s37 -17 34 -39zM457 64c72 0 115 40 124 106l23 167
c9 65 -22 105 -94 105s-115 -40 -124 -105l-23 -167c-9 -66 22 -106 94 -106z" />
    <glyph glyph-name="uni0431.SRB" unicode="&#xf0431;" horiz-adv-x="464" 
d="M300 481c122 0 176 -78 162 -178l-19 -133c-14 -100 -90 -178 -212 -178s-176 78 -162 178l19 133c8 60 45 112 108 138c-36 19 -58 53 -58 100c0 91 70 149 189 158c42 3 70 -1 126 40c4 3 12 10 23 10c17 0 27 -15 27 -31c0 -57 -100 -85 -184 -89
c-35 -2 -103 -10 -103 -83c0 -44 30 -65 84 -65zM241 64c72 0 115 40 124 106l19 134c9 65 -22 105 -94 105s-115 -40 -124 -105l-19 -134c-9 -66 22 -106 94 -106z" />
    <glyph glyph-name="uni0434.tri" unicode="&#xf0434;" horiz-adv-x="538" 
d="M387 464l72 -398h27c22 0 36 -17 33 -39l-18 -128c-3 -22 -22 -39 -44 -39s-37 17 -34 39l14 101h-336l-14 -101c-3 -22 -22 -39 -44 -39s-37 17 -34 39l18 128c3 22 23 39 45 39h27l187 399c15 32 30 46 57 46c26 0 38 -14 44 -47zM327 395l-148 -329h202z" />
    <glyph glyph-name="parenright.caps" horiz-adv-x="275" 
d="M179 341c20 136 10 273 -40 392c-3 8 -7 16 -7 24c0 20 15 45 44 45c13 0 25 -6 31 -19c62 -132 73 -292 51 -442c-21 -150 -77 -310 -176 -442c-10 -13 -22 -19 -35 -19c-23 0 -33 17 -33 36c0 13 7 23 14 33c84 119 132 256 151 392z" />
    <glyph glyph-name="parenleft.caps" horiz-adv-x="276" 
d="M192 341c-19 -136 -9 -273 41 -392c3 -8 6 -16 6 -24c0 -20 -15 -45 -44 -45c-13 0 -24 6 -30 19c-62 132 -73 292 -52 442s77 310 176 442c10 13 23 19 36 19c23 0 33 -17 33 -36c0 -13 -8 -23 -15 -33c-84 -119 -132 -256 -151 -392z" />
    <glyph glyph-name="zero.numerator" 
d="M217 668c-40 0 -59 -27 -65 -68l-21 -149c-5 -36 11 -61 47 -61c35 0 58 25 63 61l21 149c6 41 -6 68 -45 68zM223 714c72 0 95 -53 86 -118l-21 -145c-8 -60 -49 -106 -116 -106s-99 46 -91 106l21 145c9 65 49 118 121 118z" />
    <glyph glyph-name="one.numerator" 
d="M178 367l40 278l-58 -36c-8 -5 -16 -9 -24 -9c-12 0 -21 9 -21 19s6 17 16 24l106 61c6 4 11 5 15 5c14 0 23 -11 21 -27l-45 -315c-1 -11 -14 -22 -27 -22c-15 0 -24 11 -23 22z" />
    <glyph glyph-name="two.numerator" 
d="M279 374c0 -15 -13 -24 -25 -24h-162c-15 0 -24 8 -24 20c0 4 2 13 8 24c26 45 67 80 104 112c12 11 38 34 49 46c17 14 35 37 35 67c0 29 -15 49 -48 49c-15 0 -31 -4 -46 -9l-13 -6c-6 -3 -14 -7 -20 -7c-11 0 -23 8 -23 19s4 15 9 19c37 22 69 30 99 30
c60 0 90 -38 90 -86c0 -46 -21 -80 -48 -108c-11 -11 -24 -22 -37 -33l-11 -10c-32 -26 -63 -53 -83 -81h127c10 0 19 -10 19 -22z" />
    <glyph glyph-name="three.numerator" 
d="M303 659l-92 -100c46 -4 79 -36 79 -86c0 -53 -39 -128 -121 -128c-19 0 -95 5 -95 37c0 14 13 27 28 27c2 0 7 -2 14 -6c11 -7 25 -14 50 -14c58 0 76 46 76 79c0 36 -24 50 -55 50c-6 0 -13 -1 -17 -3l-4 -2c-1 -1 -4 -1 -8 -1c-17 0 -25 21 -12 36l97 108h-99
c-13 0 -23 8 -23 19c0 16 14 30 30 30h137c13 0 21 -9 21 -24c0 -12 -3 -19 -6 -22z" />
    <glyph glyph-name="four.numerator" 
d="M263 422l-7 -55c-2 -12 -15 -22 -28 -22c-15 0 -23 10 -21 22l7 55h-117c-16 0 -24 12 -22 26c0 0 3 8 7 13l129 237c4 8 13 15 21 15c11 0 21 -10 21 -23c0 -7 -2 -9 -3 -11c-37 -67 -76 -143 -113 -211h84l13 91c2 14 13 24 28 24c13 0 23 -10 21 -24l-13 -91h15
c12 0 20 -9 20 -20c0 -14 -13 -26 -27 -26h-15z" />
    <glyph glyph-name="five.numerator" 
d="M291 480c0 -61 -39 -135 -121 -135c-20 0 -96 5 -96 37c0 14 13 27 28 27c3 0 6 -1 12 -5c11 -7 25 -15 52 -15c59 0 76 47 76 85s-20 56 -48 56c-10 0 -23 -4 -34 -10l-14 -8c-5 -3 -9 -6 -17 -6c-13 0 -23 11 -20 25l23 146c3 18 20 28 33 28h118c12 0 24 -6 24 -21
c0 -19 -16 -26 -30 -26h-102l-18 -95c17 8 32 10 44 10c55 0 90 -34 90 -93z" />
    <glyph glyph-name="six.numerator" 
d="M228 663c-52 0 -75 -48 -85 -108c21 11 45 17 64 17c51 0 88 -30 88 -93c0 -71 -41 -134 -123 -134c-66 0 -90 51 -90 123c0 139 48 241 146 241c16 0 76 -3 76 -31c0 -12 -12 -24 -26 -24l-12 3c-10 3 -24 6 -38 6zM134 498l-1 -8c-7 -49 -2 -98 47 -98
c51 0 68 44 68 81s-19 53 -49 53c-19 0 -48 -15 -65 -28z" />
    <glyph glyph-name="seven.numerator" 
d="M321 682c0 -7 -2 -12 -4 -17l-164 -307c-3 -6 -15 -13 -24 -13c-11 0 -22 9 -22 25c0 0 3 4 4 6l152 280h-127c-12 0 -22 9 -22 20c0 16 13 29 29 29h158c10 0 20 -10 20 -23z" />
    <glyph glyph-name="eight.numerator" 
d="M299 461c0 -66 -54 -116 -127 -116c-61 0 -101 37 -101 90c0 47 31 81 70 101c-21 17 -35 38 -35 68c0 63 56 105 116 105c52 0 88 -34 88 -82c0 -36 -14 -64 -52 -88c24 -17 41 -43 41 -78zM263 620c0 27 -21 43 -47 43c-33 0 -61 -21 -61 -56c0 -27 21 -44 46 -49
c31 8 62 30 62 62zM252 456c0 31 -30 52 -58 59c-37 -11 -74 -37 -74 -73c0 -30 24 -53 58 -53c40 0 74 31 74 67z" />
    <glyph glyph-name="nine.numerator" 
d="M165 389c53 0 75 49 85 108c-20 -13 -43 -17 -64 -17c-51 0 -91 32 -91 93c0 71 40 136 124 136c67 0 90 -49 90 -122c0 -140 -40 -242 -144 -242c-17 0 -77 3 -77 28c0 19 15 32 28 26l11 -5c7 -3 20 -5 38 -5zM258 552l1 8c8 58 -2 100 -48 100c-49 0 -65 -44 -65 -81
c0 -34 19 -51 49 -51c22 0 47 12 63 24z" />
    <glyph glyph-name="parenleft.numerator" horiz-adv-x="138" 
d="M145 470c0 -46 7 -100 24 -142c1 -3 3 -7 3 -11c0 -11 -10 -25 -27 -25c-8 0 -14 5 -17 11c-22 48 -33 118 -33 173c0 87 42 189 94 263c5 8 12 14 21 14c13 0 19 -13 19 -24c0 -7 -2 -10 -6 -15l-1 -2c-57 -82 -77 -166 -77 -242z" />
    <glyph glyph-name="parenright.numerator" horiz-adv-x="137" 
d="M137 572c0 47 -8 102 -25 142l-1 2c-2 3 -3 7 -3 9c0 11 10 28 29 28c9 0 14 -6 19 -14c19 -45 29 -111 29 -167c0 -90 -29 -185 -90 -269c-7 -8 -14 -11 -23 -11c-17 0 -22 12 -22 24l10 14c49 73 77 153 77 242z" />
    <glyph glyph-name="hyphen.numerator" horiz-adv-x="199" 
d="M252 500c0 -14 -12 -25 -25 -25h-123c-13 0 -21 9 -21 20c0 14 12 27 28 27h123c11 0 18 -9 18 -22z" />
    <glyph glyph-name="comma.numerator" horiz-adv-x="115" 
d="M139 379c0 -32 -37 -89 -53 -89c-8 0 -14 2 -14 11c0 7 7 18 14 27l11 18c-11 4 -21 13 -21 25c0 20 17 36 38 36c15 0 25 -12 25 -28z" />
    <glyph glyph-name="period.numerator" horiz-adv-x="115" 
d="M139 379c0 -20 -15 -34 -34 -34c-17 0 -29 11 -29 26c0 20 17 36 38 36c15 0 25 -12 25 -28z" />
    <glyph glyph-name="zero.denominator" 
d="M167 316c-40 0 -59 -27 -65 -68l-21 -149c-5 -36 11 -61 47 -61c35 0 58 25 63 61l21 149c6 41 -6 68 -45 68zM173 362c72 0 95 -53 86 -118l-21 -145c-8 -60 -49 -106 -116 -106s-99 46 -91 106l21 145c9 65 49 118 121 118z" />
    <glyph glyph-name="one.denominator" 
d="M129 15l40 278l-58 -36c-8 -5 -16 -9 -24 -9c-12 0 -21 9 -21 19s6 17 16 24l106 61c6 4 11 5 15 5c14 0 23 -11 21 -27l-45 -315c-1 -11 -14 -22 -27 -22c-15 0 -24 11 -23 22z" />
    <glyph glyph-name="two.denominator" 
d="M230 22c0 -15 -13 -24 -25 -24h-162c-15 0 -24 8 -24 20c0 4 2 13 8 24c26 45 67 80 104 112c12 11 38 34 49 46c17 14 35 37 35 67c0 29 -16 49 -48 49c-15 0 -31 -4 -46 -9l-13 -6c-6 -3 -14 -7 -20 -7c-11 0 -23 8 -23 19s4 15 9 19c37 22 69 30 99 30
c60 0 90 -38 90 -86c0 -46 -21 -80 -48 -108c-11 -11 -24 -22 -37 -33l-11 -10c-32 -26 -63 -53 -83 -81h127c10 0 19 -10 19 -22z" />
    <glyph glyph-name="three.denominator" 
d="M253 307l-92 -100c46 -4 79 -36 79 -86c0 -53 -39 -128 -121 -128c-19 0 -95 5 -95 37c0 14 13 27 28 27c2 0 7 -2 14 -6c11 -7 25 -14 50 -14c58 0 76 46 76 79c0 36 -24 50 -55 50c-6 0 -13 -1 -17 -3l-4 -2c-1 -1 -4 -1 -8 -1c-17 0 -25 21 -12 36l97 108h-99
c-13 0 -23 8 -23 19c0 16 14 30 30 30h137c13 0 21 -9 21 -24c0 -12 -3 -19 -6 -22z" />
    <glyph glyph-name="four.denominator" 
d="M214 70l-7 -55c-2 -12 -15 -22 -28 -22c-15 0 -23 10 -21 22l7 55h-117c-16 0 -24 12 -22 26c0 0 3 8 7 13l129 237c4 8 13 15 21 15c11 0 21 -10 21 -23c0 -7 -2 -9 -3 -11c-37 -67 -76 -143 -113 -211h84l13 91c2 14 13 24 28 24c13 0 23 -10 21 -24l-13 -91h15
c12 0 20 -9 20 -20c0 -14 -13 -26 -27 -26h-15z" />
    <glyph glyph-name="five.denominator" 
d="M241 128c0 -61 -39 -135 -121 -135c-20 0 -96 5 -96 37c0 14 13 27 28 27c3 0 6 -1 12 -5c11 -7 25 -15 52 -15c59 0 76 47 76 85s-20 56 -48 56c-10 0 -23 -4 -34 -10l-14 -8c-5 -3 -9 -6 -17 -6c-13 0 -23 11 -20 25l23 146c3 18 20 28 33 28h118c12 0 24 -6 24 -21
c0 -19 -16 -26 -30 -26h-102l-18 -95c17 8 32 10 44 10c55 0 90 -34 90 -93z" />
    <glyph glyph-name="six.denominator" 
d="M179 311c-52 0 -75 -48 -85 -108c21 11 45 17 64 17c51 0 88 -30 88 -93c0 -71 -41 -134 -123 -134c-66 0 -90 51 -90 123c0 139 48 241 146 241c16 0 76 -3 76 -31c0 -12 -12 -24 -26 -24l-12 3c-10 3 -24 6 -38 6zM85 146l-1 -8c-7 -49 -2 -98 47 -98c51 0 68 44 68 81
s-19 53 -49 53c-19 0 -48 -15 -65 -28z" />
    </font>
</defs>
</svg>
