<?xml version="1.0" standalone="no"?>
<!DOCTYPE svg PUBLIC "-//W3C//DTD SVG 1.1//EN" "http://www.w3.org/Graphics/SVG/1.1/DTD/svg11.dtd" >
<svg xmlns="http://www.w3.org/2000/svg" xmlns:xlink="http://www.w3.org/1999/xlink" version="1.1">
<metadata>
Created by FontForge 20190801 at Fri Nov 28 12:29:20 2014
 By Jimmy Wärting
(c) 2014 Sergiy S. Tkachenko / 4th february
(c) 2014 FirstSiteGuide.com
http://creativecommons.org/licenses/by-nd/4.0/
</metadata>
<defs>
<font id="BloggerSans-Medium" horiz-adv-x="260" >
  <font-face 
    font-family="Blogger Sans Medium"
    font-weight="500"
    font-stretch="squinchy"
    units-per-em="1000"
    panose-1="2 0 5 6 3 0 0 2 0 4"
    ascent="760"
    descent="-240"
    x-height="505"
    cap-height="706"
    bbox="-69.3074 -242 882 948"
    underline-thickness="20"
    underline-position="-143"
    stemh="75"
    stemv="78"
    unicode-range="U+0020-F0434"
  />
<missing-glyph horiz-adv-x="760" 
 />
    <glyph glyph-name="ff" unicode="ff" horiz-adv-x="688" 
d="M69 44v488c0 129 84 188 189 191c21 1 107 0 107 -56c0 -30 -25 -48 -53 -48c-18 0 -37 6 -60 6c-51 0 -75 -39 -75 -86v-55h89c28 0 51 -21 51 -49c0 -27 -23 -48 -51 -48h-89v-343c0 -27 -20 -49 -54 -49c-35 0 -54 22 -54 49zM408 44v488c0 129 84 188 189 191
c21 1 107 0 107 -56c0 -30 -25 -48 -53 -48c-18 0 -37 6 -60 6c-51 0 -75 -39 -75 -86v-55h89c28 0 51 -21 51 -49c0 -27 -23 -48 -51 -48h-89v-343c0 -27 -20 -49 -54 -49c-35 0 -54 22 -54 49z" />
    <glyph glyph-name="fi" unicode="fi" horiz-adv-x="604" 
d="M69 44v488c0 129 84 188 189 191c21 1 107 0 107 -56c0 -30 -25 -48 -53 -48c-18 0 -37 6 -60 6c-51 0 -75 -39 -75 -86v-55h89c28 0 51 -21 51 -49c0 -27 -23 -48 -51 -48h-89v-343c0 -27 -20 -49 -54 -49c-35 0 -54 22 -54 49zM534 656c-1 -33 -28 -59 -63 -59
c-36 0 -63 27 -63 59c0 33 27 59 63 59c35 0 63 -27 63 -59zM525 43c0 -29 -24 -50 -54 -50c-31 0 -54 21 -54 50v417c0 27 23 50 54 50c30 0 54 -23 54 -50v-417z" />
    <glyph glyph-name="fl" unicode="fl" horiz-adv-x="587" 
d="M69 44v488c0 129 84 188 189 191c21 1 107 0 107 -56c0 -30 -25 -48 -53 -48c-18 0 -37 6 -60 6c-51 0 -75 -39 -75 -86v-55h89c28 0 51 -21 51 -49c0 -27 -23 -48 -51 -48h-89v-343c0 -27 -20 -49 -54 -49c-35 0 -54 22 -54 49zM487 -8c-32 0 -79 13 -79 110v571
c0 27 23 50 54 50c30 0 54 -22 54 -50v-565c0 -21 1 -30 14 -44c7 -7 13 -13 13 -27c0 -28 -22 -45 -56 -45z" />
    <glyph glyph-name="ffi" unicode="ffi" horiz-adv-x="943" 
d="M69 44v488c0 129 84 188 189 191c21 1 107 0 107 -56c0 -30 -25 -48 -53 -48c-18 0 -37 6 -60 6c-51 0 -75 -39 -75 -86v-55h89c28 0 51 -21 51 -49c0 -27 -23 -48 -51 -48h-89v-343c0 -27 -20 -49 -54 -49c-35 0 -54 22 -54 49zM408 44v488c0 129 84 188 189 191
c21 1 107 0 107 -56c0 -30 -25 -48 -53 -48c-18 0 -37 6 -60 6c-51 0 -75 -39 -75 -86v-55h89c28 0 51 -21 51 -49c0 -27 -23 -48 -51 -48h-89v-343c0 -27 -20 -49 -54 -49c-35 0 -54 22 -54 49zM873 656c-1 -33 -28 -59 -63 -59c-36 0 -63 27 -63 59c0 33 27 59 63 59
c35 0 63 -27 63 -59zM864 43c0 -29 -24 -50 -54 -50c-31 0 -54 21 -54 50v417c0 27 23 50 54 50c30 0 54 -23 54 -50v-417z" />
    <glyph glyph-name="ffl" unicode="ffl" horiz-adv-x="926" 
d="M69 44v488c0 129 84 188 189 191c21 1 107 0 107 -56c0 -30 -25 -48 -53 -48c-18 0 -37 6 -60 6c-51 0 -75 -39 -75 -86v-55h89c28 0 51 -21 51 -49c0 -27 -23 -48 -51 -48h-89v-343c0 -27 -20 -49 -54 -49c-35 0 -54 22 -54 49zM408 44v488c0 129 84 188 189 191
c21 1 107 0 107 -56c0 -30 -25 -48 -53 -48c-18 0 -37 6 -60 6c-51 0 -75 -39 -75 -86v-55h89c28 0 51 -21 51 -49c0 -27 -23 -48 -51 -48h-89v-343c0 -27 -20 -49 -54 -49c-35 0 -54 22 -54 49zM826 -8c-32 0 -79 13 -79 110v571c0 27 23 50 54 50c30 0 54 -22 54 -50v-565
c0 -21 1 -30 14 -44c7 -7 13 -13 13 -27c0 -28 -22 -45 -56 -45z" />
    <glyph glyph-name="uni0457_uni0457" unicode="&#x457;&#x457;" horiz-adv-x="520" 
d="M186 43c0 -29 -24 -51 -54 -51c-31 0 -54 22 -54 51v417c0 27 23 50 54 50c30 0 54 -23 54 -50v-417zM319 624c0 -32 -27 -58 -59 -58c-33 0 -60 27 -60 58s27 57 60 57c32 0 59 -25 59 -57zM99 624c0 -32 -26 -58 -59 -58s-58 27 -58 58s25 57 58 57s59 -25 59 -57z
M441 43c0 -29 -24 -51 -54 -51c-31 0 -54 22 -54 51v417c0 27 23 50 54 50c30 0 54 -23 54 -50v-417zM538 624c0 -32 -27 -58 -59 -58c-33 0 -60 27 -60 58s27 57 60 57c32 0 59 -25 59 -57z" />
    <glyph glyph-name=".notdef" horiz-adv-x="760" 
 />
    <glyph glyph-name="space" unicode=" " horiz-adv-x="300" 
 />
    <glyph glyph-name="exclam" unicode="!" horiz-adv-x="247" 
d="M78 215l-10 447c0 27 24 52 55 52c30 0 55 -25 55 -52l-10 -447c-1 -24 -22 -44 -45 -44c-26 0 -45 20 -45 44zM193 57c0 -36 -31 -67 -68 -67c-39 0 -69 31 -69 67c0 35 30 65 69 65c37 0 68 -30 68 -65z" />
    <glyph glyph-name="quotedbl" unicode="&#x22;" horiz-adv-x="362" 
d="M56 494l24 226c5 24 32 41 59 38c29 -5 48 -29 42 -53c-9 -37 -42 -189 -52 -226c-4 -18 -24 -31 -44 -28c-19 3 -31 24 -29 43zM194 494l25 226c4 24 32 41 59 38c28 -5 48 -29 41 -53c-9 -37 -42 -189 -51 -226c-5 -18 -25 -31 -44 -28c-20 3 -32 24 -30 43z" />
    <glyph glyph-name="numbersign" unicode="#" horiz-adv-x="561" 
d="M121 491h48l39 170c6 27 27 50 56 50c26 -3 46 -30 46 -50v-3c-9 -55 -25 -112 -38 -167h77l39 170c6 27 27 50 56 50c27 -3 46 -30 46 -50v-4c-9 -55 -25 -112 -38 -166c34 0 71 -11 71 -51c0 -29 -24 -51 -54 -51h-40l-17 -70h27c22 0 54 -23 54 -52
c0 -36 -29 -51 -65 -51h-39l-40 -172c-7 -30 -27 -50 -56 -50c-9 1 -17 8 -17 18c-18 3 -29 19 -29 38l38 166h-76l-40 -172c-7 -28 -41 -44 -61 -44c-23 0 -42 19 -42 43l39 173c-38 0 -68 14 -68 51c0 29 26 52 54 52h38l16 70h-24c-26 0 -54 21 -54 51c0 29 26 51 54 51z
M249 389l-17 -70h77l16 70h-76z" />
    <glyph glyph-name="dollar" unicode="$" horiz-adv-x="513" 
d="M231 -28v48c-76 2 -191 26 -191 85c0 27 20 49 55 49c37 0 72 -28 136 -31v188c-92 30 -190 63 -190 189c0 110 73 175 190 183v50c0 14 12 26 26 26s26 -12 26 -26v-50c63 -4 161 -21 161 -78c0 -27 -22 -50 -55 -50c-32 0 -50 21 -106 26v-178c95 -32 190 -62 190 -186
c0 -114 -80 -182 -190 -195v-50c0 -14 -12 -26 -26 -26c-15 0 -26 12 -26 26zM359 209c-1 46 -28 65 -49 74l-27 11v-168c49 9 76 37 76 83zM204 433l27 -12v159c-43 -6 -77 -26 -77 -74c0 -46 29 -64 50 -73z" />
    <glyph glyph-name="percent" unicode="%" horiz-adv-x="723" 
d="M532 -10c-99 0 -151 73 -151 168c0 94 53 167 151 167c97 0 151 -73 151 -167c0 -95 -53 -168 -151 -168zM575 645l-337 -622c-12 -22 -37 -30 -62 -24c-25 9 -38 36 -31 61l4 10l337 621c13 21 37 29 61 22s40 -31 33 -55c-1 -4 -3 -10 -5 -13zM532 77c39 0 58 30 58 83
c0 49 -19 78 -58 78c-40 0 -58 -29 -58 -78c0 -53 18 -83 58 -83zM191 467c39 0 58 30 58 83c0 49 -19 78 -58 78c-40 0 -58 -29 -58 -78c0 -53 18 -83 58 -83zM191 380c-98 0 -151 73 -151 168c0 94 52 167 151 167c98 0 151 -73 151 -167c0 -95 -53 -168 -151 -168z" />
    <glyph glyph-name="ampersand" unicode="&#x26;" horiz-adv-x="662" 
d="M620 42c0 -26 -21 -50 -51 -50c-37 0 -66 40 -102 85c-51 -47 -114 -86 -203 -86c-132 0 -222 84 -222 195c0 102 72 165 142 208c-46 52 -74 102 -74 156c0 100 88 162 184 162c99 0 178 -69 178 -136c0 -32 -36 -49 -56 -49c-58 0 -39 84 -112 84
c-31 0 -86 -29 -86 -63c0 -37 37 -78 70 -115l177 -195c31 52 52 126 92 126c25 0 57 -20 57 -51c0 -39 -42 -109 -77 -157l70 -82c7 -7 13 -18 13 -32zM398 154l-149 165c-50 -29 -100 -65 -100 -125c0 -56 41 -107 110 -107c58 0 102 29 139 67z" />
    <glyph glyph-name="quotesingle" unicode="'" horiz-adv-x="242" 
d="M63 494l25 226c4 24 32 41 59 38c28 -5 48 -29 41 -53c-9 -37 -42 -189 -51 -226c-5 -18 -25 -31 -44 -28c-20 3 -32 24 -30 43z" />
    <glyph glyph-name="parenleft" unicode="(" horiz-adv-x="296" 
d="M169 226c0 -129 28 -258 94 -370c6 -10 12 -20 12 -33c0 -27 -17 -54 -53 -54c-19 0 -35 8 -46 25c-82 129 -116 285 -116 432c0 146 34 303 116 432c11 17 27 25 46 25c36 0 53 -27 53 -55c0 -12 -6 -22 -12 -32c-66 -112 -94 -241 -94 -370z" />
    <glyph glyph-name="parenright" unicode=")" horiz-adv-x="295" 
d="M126 226c0 129 -29 258 -94 370c-6 10 -12 20 -12 32c0 28 16 55 53 55c18 0 35 -8 46 -25c81 -129 116 -286 116 -432c0 -147 -35 -303 -116 -432c-11 -17 -28 -25 -46 -25c-37 0 -53 27 -53 54c0 13 6 23 12 33c65 112 94 241 94 370z" />
    <glyph glyph-name="asterisk" unicode="*" horiz-adv-x="515" 
d="M325 508l73 -89c5 -7 3 -14 3 -20c0 -23 -21 -48 -50 -48c-42 0 -67 69 -93 107c-27 -38 -52 -107 -94 -107c-29 0 -50 25 -50 48c0 6 -2 13 3 20l72 89l-88 18c-25 5 -51 21 -51 48c0 32 25 48 45 48c4 0 8 0 11 -1c37 -13 74 -29 111 -42l-9 90c-1 3 -1 6 -1 8
c0 19 12 54 50 54s50 -35 50 -54c0 -2 0 -5 -1 -8l-9 -90c37 13 74 29 111 42c3 1 7 1 11 1c20 0 45 -16 45 -48c0 -27 -26 -43 -51 -48z" />
    <glyph glyph-name="plus" unicode="+" horiz-adv-x="520" 
d="M206 153v149h-140c-31 0 -54 23 -54 52s26 51 54 51h140v149c0 27 23 52 54 52c30 0 54 -23 54 -52v-149h140c27 0 54 -22 54 -51s-24 -52 -54 -52h-140v-149c0 -29 -24 -51 -54 -51c-31 0 -54 25 -54 51z" />
    <glyph glyph-name="comma" unicode="," horiz-adv-x="250" 
d="M78 -99c1 33 25 48 35 91c-33 5 -57 32 -57 65c0 35 30 65 69 65c36 0 68 -28 68 -67c0 -64 -47 -185 -85 -185c-13 0 -33 5 -30 31z" />
    <glyph glyph-name="hyphen" unicode="-" horiz-adv-x="419" 
d="M385 297c0 -27 -23 -48 -51 -48h-249c-30 0 -52 21 -52 48s22 49 52 49h249c28 0 51 -22 51 -49z" />
    <glyph glyph-name="period" unicode="." horiz-adv-x="250" 
d="M193 57c0 -36 -31 -67 -68 -67c-39 0 -69 31 -69 67c0 35 30 65 69 65c37 0 68 -30 68 -65z" />
    <glyph glyph-name="slash" unicode="/" horiz-adv-x="320" 
d="M336 689l-256 -699c-8 -21 -29 -34 -50 -34c-28 0 -52 23 -52 48c0 3 0 6 1 10l260 710c8 22 27 34 48 34c30 0 53 -26 53 -53c0 -5 -1 -12 -4 -16z" />
    <glyph glyph-name="zero" unicode="0" horiz-adv-x="520" 
d="M260 626c-77 0 -107 -53 -107 -128v-294c0 -69 37 -115 107 -115c69 0 107 46 107 115v294c0 75 -31 128 -107 128zM260 724c150 0 216 -105 216 -234v-286c0 -119 -77 -214 -216 -214c-140 0 -216 95 -216 214v286c0 129 65 234 216 234z" />
    <glyph glyph-name="one" unicode="1" horiz-adv-x="520" 
d="M266 43v534l-101 -64c-17 -10 -33 -20 -52 -20c-23 0 -49 15 -49 46c0 20 9 36 24 45l198 121c11 7 20 9 31 9c33 0 59 -24 59 -55v-616c0 -27 -25 -52 -55 -52c-31 0 -55 25 -55 52z" />
    <glyph glyph-name="two" unicode="2" horiz-adv-x="520" 
d="M479 50c0 -28 -24 -50 -54 -50h-329c-33 0 -56 23 -56 54c0 13 1 30 7 43c37 84 104 148 171 211c62 59 149 122 149 208c0 61 -38 110 -109 110c-36 0 -64 -6 -90 -17c-23 -10 -42 -28 -65 -28c-27 0 -53 20 -53 49c0 62 134 94 209 94c136 0 216 -88 216 -197
c0 -84 -32 -140 -76 -187c-74 -81 -171 -150 -223 -240h249c30 0 54 -22 54 -50z" />
    <glyph glyph-name="three" unicode="3" horiz-adv-x="520" 
d="M438 612c-51 -63 -102 -126 -152 -189c109 -11 187 -82 187 -198c0 -106 -67 -233 -226 -233c-44 0 -200 11 -200 84c0 27 22 50 51 50c36 0 68 -38 135 -38c100 0 131 70 131 132c0 79 -53 110 -125 110c-28 0 -33 -11 -56 -11c-26 0 -47 23 -47 48c0 8 2 22 5 27
l164 207h-191c-31 0 -54 23 -54 51c0 24 23 54 54 54h279c30 0 58 -23 58 -57c0 -14 -5 -26 -13 -37z" />
    <glyph glyph-name="four" unicode="4" horiz-adv-x="520" 
d="M429 143v-101c0 -29 -24 -51 -54 -51c-31 0 -54 22 -54 51v101h-235c-33 0 -56 26 -56 55c0 4 3 20 9 31l192 462c8 19 28 31 48 31c26 0 54 -24 54 -52c0 -5 0 -11 -3 -18c-29 -67 -142 -342 -171 -409h162v174c0 29 23 51 54 51c29 0 54 -22 54 -51v-174h28
c29 0 52 -23 52 -50c0 -28 -23 -50 -52 -50h-28z" />
    <glyph glyph-name="five" unicode="5" horiz-adv-x="520" 
d="M473 230c0 -114 -64 -238 -217 -238c-44 0 -209 11 -209 84c0 27 22 50 52 50c33 0 66 -38 134 -38c100 0 131 69 131 138c0 87 -49 127 -111 127c-26 0 -45 -6 -64 -16c-11 -6 -37 -30 -63 -30c-32 0 -55 23 -55 56l10 287c1 35 31 56 61 56h241c26 0 61 -13 61 -51
c0 -36 -32 -49 -61 -49h-202c-2 -57 -4 -115 -7 -173c25 12 52 16 81 16c128 0 218 -82 218 -219z" />
    <glyph glyph-name="six" unicode="6" horiz-adv-x="520" 
d="M148 409c39 29 81 38 122 38c116 0 214 -74 214 -222c0 -128 -73 -234 -224 -234c-174 0 -224 143 -224 342c0 245 76 381 235 381c39 0 169 -7 169 -70c0 -23 -20 -46 -49 -46c-28 0 -60 18 -107 20c-109 0 -132 -92 -136 -209zM146 302v-18c0 -100 20 -191 119 -191
c82 0 110 63 110 130c0 85 -44 124 -112 124c-47 0 -92 -19 -117 -45z" />
    <glyph glyph-name="seven" unicode="7" horiz-adv-x="520" 
d="M475 652c0 -7 -1 -18 -5 -26l-249 -602c-7 -17 -22 -33 -49 -33c-29 0 -55 18 -56 47c0 6 1 16 4 23l227 541h-249c-28 0 -53 23 -53 52s23 52 53 52h320c31 0 57 -24 57 -54z" />
    <glyph glyph-name="eight" unicode="8" horiz-adv-x="520" 
d="M496 201c0 -121 -97 -211 -236 -211c-137 0 -237 87 -237 207c0 83 48 138 111 175c-51 35 -86 85 -86 154c0 116 96 187 211 187c118 0 211 -75 211 -184c0 -63 -31 -113 -86 -150c64 -38 112 -93 112 -178zM363 526c0 54 -46 92 -103 92c-59 0 -104 -38 -104 -92
c0 -57 49 -94 106 -105c56 13 101 51 101 105zM387 201c0 69 -63 110 -130 123c-70 -14 -125 -58 -125 -123s55 -113 128 -113c74 0 127 50 127 113z" />
    <glyph glyph-name="nine" unicode="9" horiz-adv-x="520" 
d="M371 296c-38 -29 -80 -39 -121 -39c-116 0 -214 73 -214 224c0 126 70 233 221 233c175 0 227 -142 227 -347c0 -245 -76 -376 -236 -376c-39 0 -168 7 -168 69c0 23 19 46 49 46c26 0 60 -19 107 -19c108 0 132 91 135 209zM374 403v18c0 104 -27 191 -121 191
c-80 0 -108 -64 -108 -131c0 -84 43 -123 112 -123c47 0 92 18 117 45z" />
    <glyph glyph-name="colon" unicode=":" horiz-adv-x="250" 
d="M193 357c0 -36 -31 -67 -68 -67c-39 0 -69 31 -69 67c0 35 30 65 69 65c37 0 68 -30 68 -65zM193 57c0 -36 -31 -67 -68 -67c-39 0 -69 31 -69 67c0 35 30 65 69 65c37 0 68 -30 68 -65z" />
    <glyph glyph-name="semicolon" unicode=";" horiz-adv-x="250" 
d="M78 -99c1 33 25 48 35 91c-33 5 -57 32 -57 65c0 35 30 65 69 65c36 0 68 -28 68 -67c0 -64 -47 -185 -85 -185c-13 0 -33 5 -30 31zM193 357c0 -36 -31 -67 -68 -67c-39 0 -69 31 -69 67c0 35 30 65 69 65c37 0 68 -30 68 -65z" />
    <glyph glyph-name="less" unicode="&#x3c;" horiz-adv-x="645" 
d="M214 352l332 -161c21 -10 36 -29 36 -47c0 -28 -22 -52 -50 -52c-11 0 -38 11 -59 21l-364 181c-25 14 -46 24 -46 58s20 44 45 58l365 181c16 8 45 22 56 21c30 0 53 -23 53 -52c0 -19 -16 -38 -36 -48z" />
    <glyph glyph-name="equal" unicode="=" horiz-adv-x="520" 
d="M106 404h308c27 0 54 -23 54 -52s-24 -51 -54 -51h-308c-31 0 -54 22 -54 51s26 52 54 52zM106 406h308c27 0 54 -22 54 -51s-24 -51 -54 -51h-308c-31 0 -54 22 -54 51s26 51 54 51z" />
    <glyph glyph-name="greater" unicode="&#x3e;" horiz-adv-x="645" 
d="M99 191l331 161l-331 160c-21 10 -36 29 -36 48c0 28 22 53 51 53c10 0 35 -10 53 -19l369 -184c26 -13 46 -25 46 -58c0 -34 -21 -44 -46 -58l-369 -183c-19 -11 -46 -19 -55 -19c-28 0 -49 24 -49 52c0 18 15 37 36 47z" />
    <glyph glyph-name="question" unicode="?" horiz-adv-x="482" 
d="M299 256c-6 -8 -7 -24 -7 -35c-5 -27 -25 -52 -55 -52c-34 0 -55 27 -55 65c5 55 49 100 83 139l21 24c28 32 59 71 58 122c0 59 -37 108 -112 108c-30 0 -61 -5 -87 -17c-23 -11 -38 -28 -61 -28c-25 0 -52 20 -52 49c0 65 131 94 206 94c132 0 214 -85 214 -201
c0 -143 -111 -200 -153 -268zM305 56c0 -36 -31 -66 -68 -66c-38 0 -69 30 -69 66s31 65 69 65c37 0 68 -29 68 -65z" />
    <glyph glyph-name="at" unicode="@" horiz-adv-x="764" 
d="M527 14c-35 -15 -99 -27 -155 -27c-195 0 -313 133 -313 327c0 190 112 323 320 323c214 0 326 -141 326 -314c0 -96 -37 -166 -135 -166c-46 0 -76 15 -97 41c-34 -38 -63 -51 -101 -51c-91 0 -148 71 -148 170c0 96 53 165 158 165c111 0 138 -77 148 -162
c4 -34 8 -77 40 -77c30 0 39 31 39 74c0 133 -78 236 -228 236c-148 0 -227 -99 -227 -240c0 -140 78 -236 234 -236c58 0 86 15 120 27c26 6 55 4 66 -24c12 -35 -19 -55 -47 -66zM376 232c22 0 42 10 64 28c-7 33 -6 33 -8 60c-3 32 -5 75 -52 75c-41 0 -58 -32 -58 -83
s17 -80 54 -80z" />
    <glyph glyph-name="A" unicode="A" horiz-adv-x="569" 
d="M166 149l-37 -120c-7 -24 -34 -38 -52 -38c-31 0 -57 20 -57 51c0 5 1 15 2 19l195 593c11 34 28 60 67 60s55 -25 67 -60l195 -593c2 -4 3 -14 3 -19c0 -31 -25 -51 -57 -51c-36 0 -48 25 -61 61l-32 97h-233zM284 549c-25 -106 -57 -203 -87 -304h173
c-31 101 -65 200 -86 304z" />
    <glyph glyph-name="B" unicode="B" horiz-adv-x="562" 
d="M178 417h115c50 0 107 31 107 98c0 46 -24 88 -95 88h-127v-186zM296 314h-118v-212h117c83 0 124 41 124 103c0 70 -53 109 -123 109zM296 0h-165c-36 0 -63 27 -63 60v585c0 34 29 60 63 60h169c140 0 210 -93 210 -189c0 -78 -50 -121 -117 -151
c64 -23 136 -61 136 -160c0 -115 -89 -205 -233 -205z" />
    <glyph glyph-name="C" unicode="C" horiz-adv-x="502" 
d="M40 250v206c0 156 75 258 240 258c98 0 192 -44 192 -96c0 -26 -22 -48 -51 -48c-19 0 -25 7 -40 16l-5 3c-27 19 -56 28 -91 28c-102 0 -135 -62 -135 -161v-206c0 -99 33 -161 135 -161c35 0 64 9 91 27l5 3c15 9 21 16 40 16c29 0 51 -22 51 -47
c0 -53 -94 -96 -192 -96c-165 0 -240 102 -240 258z" />
    <glyph glyph-name="D" unicode="D" horiz-adv-x="574" 
d="M533 267c0 -139 -73 -267 -289 -267h-113c-34 0 -63 27 -63 60v586c0 32 29 60 63 60h113c215 0 289 -123 289 -259v-180zM423 267v180c0 87 -43 156 -162 156h-83v-501h83c121 0 162 74 162 165z" />
    <glyph glyph-name="E" unicode="E" horiz-adv-x="494" 
d="M466 53c0 -30 -25 -53 -55 -53h-265c-41 0 -78 14 -78 59v587c0 29 26 59 62 59h271c30 0 55 -24 55 -53s-25 -50 -55 -50h-223v-197h204c27 0 54 -22 54 -51s-24 -52 -54 -52h-204v-200h233c29 0 55 -22 55 -49z" />
    <glyph glyph-name="F" unicode="F" horiz-adv-x="494" 
d="M178 302v-260c0 -27 -25 -52 -55 -52c-31 0 -55 25 -55 52v604c0 29 26 59 62 59h271c30 0 55 -24 55 -52c0 -29 -25 -50 -55 -50h-223v-198h204c27 0 54 -22 54 -51s-24 -52 -54 -52h-204z" />
    <glyph glyph-name="G" unicode="G" horiz-adv-x="540" 
d="M150 456v-206c0 -99 33 -161 135 -161c41 0 71 11 98 29v185h-75c-26 0 -50 23 -50 51s24 50 50 50h114c37 0 70 -19 70 -58v-230c0 -87 -116 -124 -212 -124c-165 0 -240 102 -240 258v206c0 156 75 258 240 258c98 0 192 -44 192 -96c0 -26 -22 -48 -51 -48
c-19 0 -25 7 -40 16l-5 3c-27 18 -56 28 -91 28c-102 0 -135 -62 -135 -161z" />
    <glyph glyph-name="H" unicode="H" horiz-adv-x="600" 
d="M531 43c0 -28 -25 -53 -55 -53c-29 0 -55 25 -55 53v258h-243v-258c0 -28 -25 -53 -55 -53c-31 0 -55 25 -55 53v619c0 28 24 52 55 52c30 0 55 -24 55 -52v-258h243v258c0 28 26 52 55 52s55 -24 55 -52v-619z" />
    <glyph glyph-name="I" unicode="I" horiz-adv-x="247" 
d="M68 42v620c0 28 24 52 55 52c30 0 55 -24 55 -52v-620c0 -27 -25 -52 -55 -52c-31 0 -55 25 -55 52z" />
    <glyph glyph-name="J" unicode="J" horiz-adv-x="405" 
d="M337 662v-432c0 -149 -51 -240 -217 -240c-33 0 -100 4 -100 57c0 33 28 51 50 51c17 0 33 -6 61 -6c79 0 96 53 96 138v432c0 29 23 52 55 52c29 0 55 -24 55 -52z" />
    <glyph glyph-name="K" unicode="K" horiz-adv-x="527" 
d="M417 14l-205 288l-34 -41v-218c0 -28 -25 -52 -55 -52c-31 0 -55 24 -55 52v619c0 28 24 52 55 52c30 0 55 -24 55 -52v-240l225 268c10 12 28 24 47 24c22 0 52 -20 52 -51c0 -12 -3 -23 -13 -35l-207 -244c75 -104 150 -208 226 -312c7 -10 8 -18 8 -27
c0 -24 -17 -54 -53 -54c-19 0 -35 7 -46 23z" />
    <glyph glyph-name="L" unicode="L" horiz-adv-x="475" 
d="M463 51c0 -29 -24 -51 -53 -51h-282c-32 0 -60 25 -60 57v605c0 28 24 52 55 52c30 0 55 -24 55 -52v-561h232c28 0 53 -22 53 -50z" />
    <glyph glyph-name="M" unicode="M" horiz-adv-x="729" 
d="M663 660v-619c0 -27 -25 -51 -54 -51c-30 0 -56 24 -56 51v416l-138 -284c-10 -21 -30 -31 -52 -31s-41 10 -52 31l-137 284v-416c0 -27 -26 -51 -57 -51c-30 0 -53 24 -53 51v619c0 31 24 54 57 54c26 0 45 -11 56 -32l187 -386l186 387c12 23 33 31 56 31
c32 0 57 -24 57 -54z" />
    <glyph glyph-name="N" unicode="N" horiz-adv-x="620" 
d="M492 -10c-21 0 -44 12 -54 29l-260 469v-445c0 -28 -26 -53 -56 -53c-31 0 -54 25 -54 53v615c0 32 24 56 58 56c22 0 44 -12 55 -30c44 -77 214 -389 260 -469v446c0 29 26 53 56 53s54 -24 54 -53v-615c0 -30 -24 -56 -59 -56z" />
    <glyph glyph-name="O" unicode="O" horiz-adv-x="580" 
d="M290 -10c-163 0 -245 116 -245 260v206c0 140 69 258 245 258s245 -118 245 -258v-206c0 -144 -82 -260 -245 -260zM290 612c-99 0 -135 -63 -135 -156v-206c0 -93 42 -157 135 -157c92 0 135 64 135 157v206c0 93 -36 156 -135 156z" />
    <glyph glyph-name="P" unicode="P" horiz-adv-x="550" 
d="M278 250h-100v-206c0 -28 -25 -54 -55 -54c-29 0 -55 25 -55 54v601c0 32 29 60 63 60h147c177 0 240 -110 240 -229c0 -145 -94 -226 -240 -226zM178 602v-250h100c85 0 130 40 130 125c0 62 -24 125 -130 125h-100z" />
    <glyph glyph-name="Q" unicode="Q" horiz-adv-x="580" 
d="M398 -175c-90 0 -145 67 -157 169c-131 21 -196 127 -196 256v206c0 140 69 258 245 258s245 -118 245 -258v-206c0 -126 -62 -230 -186 -253c5 -55 26 -75 62 -75h29c32 0 54 -18 54 -49c0 -47 -42 -48 -96 -48zM290 612c-99 0 -135 -63 -135 -156v-206
c0 -93 42 -157 135 -157c92 0 135 64 135 157v206c0 93 -36 156 -135 156z" />
    <glyph glyph-name="R" unicode="R" horiz-adv-x="595" 
d="M536 499c0 -103 -57 -168 -147 -191c49 -79 99 -156 148 -235c5 -5 8 -21 8 -27c0 -31 -30 -54 -57 -54c-20 0 -36 8 -46 24l-173 282h-91v-254c0 -28 -26 -53 -56 -53c-29 0 -54 24 -54 53v601c0 32 28 60 61 60h174c176 0 233 -104 233 -206zM426 499
c0 50 -24 103 -127 103h-121v-203h127c78 0 121 35 121 100z" />
    <glyph glyph-name="S" unicode="S" horiz-adv-x="506" 
d="M355 197c0 54 -28 74 -49 85c-99 48 -269 51 -269 231c0 125 84 201 217 201c54 0 186 -13 186 -79c0 -26 -21 -50 -55 -50c-35 0 -59 27 -125 27c-57 0 -110 -21 -110 -94c0 -55 30 -74 50 -84c101 -52 269 -52 269 -230c0 -136 -100 -213 -234 -213
c-69 0 -199 22 -199 84c0 26 22 51 51 51c30 0 69 -33 149 -33c79 0 119 38 119 104z" />
    <glyph glyph-name="T" unicode="T" horiz-adv-x="503" 
d="M196 42v560h-121c-32 0 -55 24 -55 51c0 23 24 52 55 52h352c28 0 56 -23 56 -52c0 -27 -26 -51 -56 -51h-121v-560c0 -27 -25 -52 -55 -52c-31 0 -55 25 -55 52z" />
    <glyph glyph-name="U" unicode="U" horiz-adv-x="592" 
d="M532 235c0 -142 -88 -245 -236 -245c-152 0 -236 104 -236 245v425c0 31 24 54 56 54c29 0 54 -24 54 -54v-425c0 -84 40 -142 126 -142c85 0 125 59 125 142v425c0 29 23 54 54 54c32 0 57 -25 57 -54v-425z" />
    <glyph glyph-name="V" unicode="V" horiz-adv-x="556" 
d="M122 676c54 -173 113 -345 155 -520c9 38 18 81 30 118l125 402c7 23 33 38 53 38c33 0 57 -21 57 -52c0 -4 -1 -14 -2 -18l-195 -593c-12 -36 -29 -60 -68 -60c-38 0 -55 25 -66 60l-195 593c-2 4 -3 14 -3 18c0 31 26 52 57 52c19 0 44 -15 52 -38z" />
    <glyph glyph-name="W" unicode="W" horiz-adv-x="803" 
d="M502 51l-59 248c-16 68 -28 137 -42 206c-31 -153 -66 -304 -101 -456c-8 -27 -25 -58 -68 -58c-35 0 -61 29 -68 59c-52 204 -102 409 -151 613c0 30 32 48 60 48c22 0 44 -12 51 -39c22 -94 45 -188 68 -281c16 -65 27 -132 41 -197c15 68 26 141 43 210l59 244
c10 42 22 66 66 66c42 0 56 -26 66 -66l58 -244c16 -70 27 -141 43 -211c14 66 26 132 42 198l67 280c7 25 26 40 49 40c28 0 63 -15 63 -49c0 -2 0 -6 -2 -12l-149 -600c-9 -31 -29 -59 -68 -59s-61 29 -68 60z" />
    <glyph glyph-name="X" unicode="X" horiz-adv-x="527" 
d="M263 277c-48 -84 -97 -168 -146 -252c-9 -15 -24 -34 -51 -34c-28 0 -53 25 -53 52c0 10 4 22 8 28c60 99 118 197 178 295l-163 269c-4 8 -7 19 -7 28c0 26 24 51 52 51c25 0 44 -19 56 -40l126 -218l126 218c10 17 31 39 57 40c27 0 51 -23 51 -52c0 -8 -3 -18 -7 -27
l-162 -269l177 -295c4 -6 8 -18 8 -28c0 -27 -25 -52 -52 -52s-42 17 -52 34z" />
    <glyph glyph-name="Y" unicode="Y" horiz-adv-x="503" 
d="M251 -10c-31 0 -56 25 -56 54v232l-177 361c-2 6 -5 16 -5 24c0 29 28 53 56 53c17 0 35 -7 44 -23l138 -288l138 288c9 16 27 23 44 23c29 0 56 -24 56 -53c0 -7 -3 -17 -5 -24l-177 -362v-231c0 -28 -24 -54 -56 -54z" />
    <glyph glyph-name="Z" unicode="Z" horiz-adv-x="504" 
d="M479 53c0 -30 -25 -53 -55 -53h-343c-33 0 -57 25 -57 56c0 11 7 29 12 38c49 81 246 424 295 506h-251c-31 0 -54 23 -54 52c0 28 23 53 54 53h339c33 0 58 -25 58 -55c0 -15 -6 -27 -12 -37l-298 -509h257c29 0 55 -22 55 -51z" />
    <glyph glyph-name="bracketleft" unicode="[" horiz-adv-x="314" 
d="M293 -66c0 -39 -35 -51 -66 -51h-102c-28 0 -53 24 -53 51v813c0 37 31 50 67 50h102c25 0 52 -23 52 -49c0 -39 -34 -51 -65 -51h-47v-714h47c34 0 65 -12 65 -49z" />
    <glyph glyph-name="backslash" unicode="\" horiz-adv-x="320" 
d="M235 -10c-86 233 -171 466 -256 699c-3 4 -4 11 -4 16c0 28 22 53 51 53c22 0 43 -12 50 -34l11 -33l249 -677c1 -4 1 -7 1 -10c0 -25 -24 -48 -52 -48c-22 0 -42 13 -50 34z" />
    <glyph glyph-name="bracketright" unicode="]" horiz-adv-x="314" 
d="M241 -66c0 -28 -24 -51 -53 -51h-102c-32 0 -67 12 -67 51s33 49 66 49h47v714h-47c-31 0 -66 11 -66 51c0 37 35 49 67 49h102c26 0 53 -25 53 -50v-813z" />
    <glyph glyph-name="asciicircum" unicode="^" horiz-adv-x="346" 
d="M172 616l-93 -111c-7 -10 -23 -18 -37 -18c-27 0 -45 16 -45 41c1 14 9 30 22 44l111 130c9 12 23 20 42 20c18 0 32 -8 42 -20c18 -20 92 -110 110 -130c13 -14 22 -30 23 -44c0 -25 -18 -41 -45 -41c-15 0 -31 8 -38 18c-17 20 -75 92 -92 111z" />
    <glyph glyph-name="underscore" unicode="_" horiz-adv-x="620" 
d="M15 -127h590c27 0 54 -23 54 -52s-24 -51 -54 -51h-590c-31 0 -54 22 -54 51s26 52 54 52z" />
    <glyph glyph-name="grave" unicode="`" horiz-adv-x="217" 
d="M122 707c29 -29 86 -76 86 -100c0 -25 -20 -42 -42 -42c-17 0 -27 7 -39 20l-75 78c-9 9 -13 18 -13 28c0 24 21 41 40 41c17 0 23 -5 33 -15z" />
    <glyph glyph-name="a" unicode="a" horiz-adv-x="502" 
d="M317 289v44c0 59 -30 88 -92 88c-26 0 -42 -6 -59 -13l-19 -8c-6 -3 -17 -5 -26 -5c-29 0 -41 23 -41 44c0 53 77 74 155 74c135 0 190 -71 190 -204v-203c0 -25 10 -29 25 -32c21 -4 30 -17 30 -36c0 -28 -21 -42 -59 -42c-35 0 -61 14 -80 45c-37 -32 -81 -48 -136 -48
c-109 0 -165 61 -165 154v3c0 100 62 151 187 151c31 0 61 -4 90 -12zM230 219c-70 0 -83 -32 -83 -70v-3c0 -40 20 -63 75 -63c34 0 64 10 95 35v90c-29 7 -62 11 -87 11z" />
    <glyph glyph-name="b" unicode="b" horiz-adv-x="510" 
d="M177 388v-233c0 -45 34 -73 90 -73c61 0 90 33 90 87v186c0 45 -25 72 -83 72c-41 0 -73 -14 -97 -39zM69 155v519c0 26 19 49 54 49c34 0 54 -23 54 -49v-195c34 22 70 34 121 34c120 0 167 -70 167 -161v-178c0 -102 -66 -182 -198 -182c-126 0 -198 72 -198 163z" />
    <glyph glyph-name="c" unicode="c" horiz-adv-x="418" 
d="M45 180v143c0 105 59 187 193 187c53 0 155 -14 155 -74c0 -21 -14 -42 -48 -42c-8 0 -15 1 -25 4c-22 10 -41 20 -74 20c-67 0 -93 -35 -93 -95v-143c0 -60 26 -96 93 -96c33 0 52 10 74 20c8 3 14 5 24 5c35 0 49 -22 49 -43c0 -59 -102 -74 -156 -74
c-133 0 -192 83 -192 188z" />
    <glyph glyph-name="d" unicode="d" horiz-adv-x="513" 
d="M223 509c32 0 64 -5 100 -19v184c0 27 19 49 54 49c34 0 54 -22 54 -49v-553c0 -21 6 -33 22 -47c7 -8 11 -16 11 -27c0 -31 -26 -48 -50 -48s-43 14 -57 35c-46 -25 -91 -42 -141 -42c-111 0 -171 78 -171 193v120c0 119 43 204 178 204zM323 131v270
c-32 12 -67 17 -87 17c-61 0 -83 -36 -83 -113v-120c0 -65 26 -100 81 -100c26 0 58 9 91 25c-2 8 -2 15 -2 21z" />
    <glyph glyph-name="e" unicode="e" horiz-adv-x="460" 
d="M242 197c-28 0 -57 2 -89 7v-46c0 -45 31 -74 94 -74c37 0 64 10 97 25c3 2 10 5 22 5c34 0 49 -25 49 -45c0 -60 -118 -77 -177 -77c-123 0 -193 74 -193 171v177c0 98 69 173 198 173c121 0 181 -66 181 -166c0 -94 -55 -150 -182 -150zM317 350c0 53 -27 74 -76 74
c-56 0 -88 -30 -88 -78v-59c34 -4 73 -6 88 -6c57 0 76 27 76 69z" />
    <glyph glyph-name="f" unicode="f" horiz-adv-x="349" 
d="M69 44v488c0 129 84 188 189 191c21 1 107 0 107 -56c0 -30 -25 -48 -53 -48c-18 0 -37 6 -60 6c-51 0 -75 -39 -75 -86v-55h89c28 0 51 -21 51 -49c0 -27 -23 -48 -51 -48h-89v-343c0 -27 -20 -49 -54 -49c-35 0 -54 22 -54 49z" />
    <glyph glyph-name="g" unicode="g" horiz-adv-x="513" 
d="M236 513c49 0 92 -12 133 -34c24 39 59 57 84 57s51 -21 51 -47c0 -13 -7 -23 -12 -28l-15 -15c-26 -26 -35 -37 -34 -67v-59c0 -103 -65 -181 -198 -181c-23 0 -47 2 -67 9c-7 -15 -9 -25 -9 -35c0 -31 24 -38 41 -38h42c122 0 215 -47 215 -150s-93 -167 -220 -167
c-122 0 -207 59 -207 158c0 44 18 79 58 114c-19 26 -25 58 -25 80s8 50 33 77c-39 35 -59 83 -59 140c0 106 65 186 189 186zM335 350c0 16 0 33 1 49c-29 15 -56 24 -86 24c-63 0 -95 -35 -95 -98c0 -58 27 -96 92 -96c60 0 88 34 88 89v32zM233 -17c-21 0 -41 2 -59 3
c-18 -18 -26 -36 -26 -60c0 -48 33 -76 101 -76c64 0 110 25 110 73c0 41 -34 60 -105 60h-21z" />
    <glyph glyph-name="h" unicode="h" horiz-adv-x="527" 
d="M176 43c0 -29 -23 -50 -53 -50c-31 0 -54 21 -54 50v635c0 26 22 51 53 51c30 0 54 -22 54 -51v-199c31 21 69 34 110 34c117 0 171 -70 171 -170v-300c0 -29 -25 -50 -54 -50c-31 0 -54 21 -54 50v304c0 48 -24 75 -72 75c-35 0 -75 -14 -101 -45v-334z" />
    <glyph glyph-name="i" unicode="i" horiz-adv-x="265" 
d="M195 656c-1 -33 -28 -59 -63 -59c-36 0 -63 27 -63 59c0 33 27 59 63 59c35 0 63 -27 63 -59zM186 43c0 -29 -24 -50 -54 -50c-31 0 -54 21 -54 50v417c0 27 23 50 54 50c30 0 54 -23 54 -50v-417z" />
    <glyph glyph-name="j" unicode="j" horiz-adv-x="265" 
d="M186 460v-471c0 -111 -66 -191 -175 -191c-29 0 -49 21 -49 48s25 40 43 44c45 9 73 35 73 96v474c0 27 23 50 54 50c30 0 54 -23 54 -50zM195 656c0 -33 -28 -59 -63 -59c-36 0 -63 27 -63 59c0 33 27 59 63 59c35 0 63 -27 63 -59z" />
    <glyph glyph-name="k" unicode="k" horiz-adv-x="463" 
d="M177 673v-345l144 153c13 14 29 28 51 28c29 0 52 -20 52 -47c0 -13 -5 -25 -14 -34l-135 -140c53 -74 106 -148 158 -222c6 -8 9 -21 9 -30c-2 -27 -24 -43 -52 -43c-31 0 -37 11 -58 42l-132 190c-8 -7 -15 -16 -23 -23v-137c0 -37 -12 -72 -54 -72
c-31 0 -54 21 -54 50v605c0 39 9 75 54 75c30 0 54 -22 54 -50z" />
    <glyph glyph-name="l" unicode="l" horiz-adv-x="248" 
d="M148 -8c-32 0 -79 13 -79 110v571c0 27 23 50 54 50c30 0 54 -22 54 -50v-565c0 -21 1 -30 14 -44c7 -7 13 -13 13 -27c0 -28 -22 -45 -56 -45z" />
    <glyph glyph-name="m" unicode="m" horiz-adv-x="798" 
d="M620 43v294c0 45 -26 81 -75 81c-34 0 -69 -18 -95 -44c2 -11 4 -23 4 -35v-296c0 -28 -18 -50 -54 -50s-54 22 -54 50v274c0 59 -10 101 -68 101c-34 0 -71 -15 -100 -33c1 -7 2 -15 2 -21v-321c0 -28 -18 -50 -54 -50s-54 22 -54 50v321c0 44 -7 46 -13 56
c-8 12 -12 19 -12 29c0 28 23 47 51 47c20 0 35 -11 46 -27c45 28 93 44 141 44s85 -16 116 -47c48 30 93 47 148 47c113 0 179 -70 179 -174v-296c0 -28 -18 -50 -54 -50s-54 22 -54 50z" />
    <glyph glyph-name="n" unicode="n" horiz-adv-x="529" 
d="M180 364v-321c0 -28 -18 -50 -54 -50s-54 22 -54 50v321c0 44 -7 46 -13 56c-8 12 -12 18 -12 30c0 26 22 46 52 46c19 0 35 -11 47 -29c45 31 94 44 138 44c116 0 174 -77 174 -192v-276c0 -28 -20 -50 -54 -50c-35 0 -54 22 -54 50v276c0 63 -29 100 -79 100
c-30 0 -61 -11 -94 -31c2 -9 3 -17 3 -24z" />
    <glyph glyph-name="o" unicode="o" horiz-adv-x="494" 
d="M247 -8c-132 0 -202 80 -202 182v158c0 103 70 182 202 182s202 -79 202 -182v-158c0 -102 -70 -182 -202 -182zM247 87c62 0 94 33 94 87v159c0 53 -32 86 -94 86s-94 -33 -94 -86v-159c0 -54 32 -87 94 -87z" />
    <glyph glyph-name="p" unicode="p" horiz-adv-x="503" 
d="M279 -7c-31 0 -63 5 -99 20v-177c0 -28 -20 -50 -54 -50c-35 0 -54 23 -54 50v527c0 28 -4 43 -14 58c-6 8 -10 15 -10 26c0 29 26 48 50 48c19 0 34 -10 46 -26c46 26 91 44 143 44c110 0 171 -78 171 -192v-123c0 -119 -44 -205 -179 -205zM180 363v-262
c31 -12 65 -17 87 -17c61 0 83 36 83 114v123c0 65 -27 99 -81 99c-28 0 -60 -10 -93 -27c2 -11 4 -21 4 -30z" />
    <glyph glyph-name="q" unicode="q" horiz-adv-x="510" 
d="M333 120v227c0 45 -35 71 -90 71c-62 0 -90 -34 -90 -90v-149c0 -59 23 -95 84 -95c34 0 69 11 96 36zM441 347v-501c0 -28 -18 -50 -54 -50s-54 22 -54 50v179c-33 -21 -68 -32 -115 -32c-130 0 -173 80 -173 186v149c0 105 66 185 198 185c125 0 198 -73 198 -166z" />
    <glyph glyph-name="r" unicode="r" horiz-adv-x="357" 
d="M289 409c-42 1 -69 2 -111 -23c1 -9 2 -16 2 -23v-320c0 -29 -24 -51 -54 -51c-31 0 -54 22 -54 51v320c0 28 -4 43 -14 58c-6 8 -10 15 -10 27c0 28 24 47 52 47c18 0 34 -12 46 -29c45 27 96 43 131 43c51 0 67 -21 67 -49c0 -32 -25 -53 -55 -51z" />
    <glyph glyph-name="s" unicode="s" horiz-adv-x="426" 
d="M48 363c0 90 60 150 177 150c59 0 144 -15 144 -73c0 -27 -18 -41 -44 -41c-32 0 -47 22 -100 22c-25 0 -71 -5 -71 -48c0 -98 233 -50 233 -229c0 -93 -63 -151 -182 -151c-57 0 -163 13 -163 66c0 18 12 59 56 48c18 -4 61 -23 103 -23c45 0 80 22 80 58
c0 94 -233 44 -233 221z" />
    <glyph glyph-name="t" unicode="t" horiz-adv-x="341" 
d="M69 205v403c0 28 19 50 54 50c34 0 54 -23 54 -50v-124h89c28 0 51 -21 51 -49c0 -27 -23 -48 -51 -48h-89v-175c0 -88 8 -120 68 -120c7 0 14 1 18 1c43 0 67 -11 67 -45c0 -46 -38 -52 -77 -52c-147 0 -184 72 -184 209z" />
    <glyph glyph-name="u" unicode="u" horiz-adv-x="529" 
d="M381 32c-45 -29 -94 -40 -140 -40c-113 0 -172 78 -172 193v276c0 28 19 49 54 49c34 0 54 -21 54 -49v-276c0 -64 26 -100 78 -100c30 0 62 10 94 27c-1 9 -2 17 -2 24v325c0 28 18 49 54 49s54 -21 54 -49v-335c0 -35 8 -39 18 -53c6 -7 11 -15 11 -27
c0 -29 -25 -48 -51 -48c-22 0 -39 14 -52 34z" />
    <glyph glyph-name="v" unicode="v" horiz-adv-x="450" 
d="M429 456l-10 -39c-44 -123 -84 -247 -127 -371c-13 -38 -32 -53 -65 -53c-36 0 -53 15 -66 52c-42 124 -86 249 -129 374l-11 39c0 2 -1 4 -1 6c0 27 27 47 54 47c20 0 43 -13 50 -35c18 -59 37 -119 56 -178c18 -59 31 -118 47 -177c15 59 27 118 45 177s36 118 55 178
c6 20 29 34 50 34c28 0 52 -20 52 -48v-6z" />
    <glyph glyph-name="w" unicode="w" horiz-adv-x="675" 
d="M654 452l-116 -408c-10 -34 -26 -51 -64 -51c-27 0 -55 14 -61 41l-75 317c-24 -107 -47 -212 -75 -317c-8 -30 -28 -41 -61 -41c-36 0 -56 19 -65 52l-116 407c-1 4 -1 7 -1 10c0 25 23 48 54 48c22 0 44 -13 50 -36l49 -188c13 -51 20 -103 30 -155
c13 60 22 120 37 179l39 157c6 25 28 43 60 43c31 0 51 -18 57 -43l39 -157c14 -59 24 -119 38 -179c10 52 17 104 30 155l48 188c5 20 29 36 51 36c28 0 53 -21 53 -50c0 -1 -1 -6 -1 -8z" />
    <glyph glyph-name="x" unicode="x" horiz-adv-x="451" 
d="M289 257l134 -189c6 -8 8 -16 8 -24c0 -28 -22 -52 -55 -52c-25 0 -36 10 -51 32l-100 147l-106 -154c-12 -17 -26 -25 -44 -25c-31 0 -55 21 -55 51c0 8 2 16 7 23l135 190l-125 179c-5 8 -9 17 -9 24c0 27 23 51 54 51c30 0 44 -21 56 -38l89 -129l92 137
c12 18 25 30 50 30s53 -21 53 -48c0 -8 -2 -18 -8 -26z" />
    <glyph glyph-name="y" unicode="y" horiz-adv-x="443" 
d="M426 445l-122 -376c-51 -158 -89 -272 -230 -272c-32 0 -55 21 -55 49c0 24 19 47 51 49c53 0 78 36 106 120l-157 428c-3 7 -3 15 -3 20c0 27 23 47 54 47c20 0 41 -11 49 -34l9 -27c34 -101 68 -201 101 -304c30 112 61 221 95 331c7 23 31 34 51 34
c27 0 54 -20 54 -50c0 -5 -1 -10 -3 -15z" />
    <glyph glyph-name="z" unicode="z" horiz-adv-x="409" 
d="M394 454c0 -11 -3 -24 -11 -35l-232 -324h193c30 0 52 -21 52 -48c0 -26 -22 -47 -52 -47h-277c-29 0 -55 23 -55 53c0 10 2 20 10 31l232 326h-181c-28 0 -51 21 -51 47c0 28 23 48 51 48h265c30 0 56 -19 56 -51z" />
    <glyph glyph-name="braceleft" unicode="{" horiz-adv-x="427" 
d="M75 193c-24 1 -49 10 -49 49s27 47 49 48c38 2 60 17 64 74c3 51 4 89 11 181c5 82 75 131 173 131c34 0 73 -6 73 -56c0 -48 -36 -45 -59 -42c-8 1 -20 2 -26 2c-27 0 -54 -17 -55 -48c-1 -7 -7 -146 -9 -164c-4 -56 -29 -99 -84 -126c52 -26 81 -69 84 -127l9 -164
c1 -30 29 -48 54 -48c5 0 22 2 27 2c22 2 59 6 59 -42c0 -49 -39 -56 -73 -56c-96 0 -168 51 -173 131l-11 182c-4 58 -31 73 -64 73z" />
    <glyph glyph-name="bar" unicode="|" horiz-adv-x="247" 
d="M72 -182v890c0 26 22 49 51 49c28 0 51 -23 51 -49v-890c0 -26 -23 -49 -51 -49c-29 0 -51 23 -51 49z" />
    <glyph glyph-name="braceright" unicode="}" horiz-adv-x="427" 
d="M354 193c-37 -1 -60 -17 -64 -73l-11 -182c-5 -79 -76 -131 -173 -131c-34 0 -73 7 -73 57c0 44 30 43 59 42c4 -1 18 -2 26 -2c31 0 54 19 55 47l9 164c3 58 31 101 83 127c-52 25 -80 71 -83 126c-5 67 -8 158 -9 164c-2 31 -28 48 -55 48c-6 0 -18 -1 -26 -2
c-23 -3 -59 -6 -59 42c0 50 39 56 73 56c98 0 168 -49 173 -131c8 -107 8 -139 11 -181c4 -57 26 -72 64 -74c22 -1 49 -9 49 -48c0 -40 -27 -48 -49 -49z" />
    <glyph glyph-name="asciitilde" unicode="~" horiz-adv-x="475" 
d="M414 348c0 -46 -59 -79 -104 -80c-57 0 -90 39 -126 43c-40 3 -44 -38 -78 -38c-21 0 -43 16 -45 41c0 50 49 87 102 87c59 0 89 -41 127 -43c41 0 42 37 76 39c25 0 48 -21 48 -49z" />
    <glyph glyph-name="exclamdown" unicode="&#xa1;" horiz-adv-x="247" 
d="M68 -163l10 447c0 24 19 44 45 44c23 0 44 -20 45 -44l10 -447c0 -27 -25 -52 -55 -52c-31 0 -55 25 -55 52zM193 442c0 -35 -31 -65 -68 -65c-39 0 -69 30 -69 65c0 36 30 67 69 67c37 0 68 -31 68 -67z" />
    <glyph glyph-name="cent" unicode="&#xa2;" horiz-adv-x="471" 
d="M230 -28v51c-119 8 -172 87 -172 187v93c0 99 53 178 172 186v44c0 14 11 26 26 26s26 -12 26 -26v-44c53 -6 118 -25 118 -76c0 -20 -16 -39 -47 -39c-7 0 -14 1 -24 4l-10 5c-12 5 -23 9 -37 12v-279c26 4 46 23 70 23c32 0 48 -21 48 -40c0 -52 -66 -71 -118 -75v-52
c0 -14 -11 -26 -26 -26c-14 0 -26 12 -26 26zM166 210c0 -51 19 -84 64 -93v278c-45 -9 -64 -42 -64 -92v-93z" />
    <glyph glyph-name="yen" unicode="&#xa5;" horiz-adv-x="508" 
d="M89 369h63c-42 84 -83 169 -125 254c-3 6 -6 13 -8 21l-3 12c0 31 23 57 55 57c29 0 39 -14 52 -37l131 -273l130 273c12 20 27 37 52 37c31 0 55 -25 55 -52c0 -6 -1 -12 -2 -17l-134 -275h62c20 0 39 -16 39 -37s-17 -37 -39 -37h-98l-9 -20v-36h107
c20 0 39 -16 39 -37s-17 -37 -39 -37h-107v-121c0 -16 -13 -30 -30 -32c-2 -12 -13 -22 -27 -22s-26 10 -28 22c-16 3 -27 17 -27 32v121h-109c-22 0 -39 16 -39 37s19 37 39 37h109v37l-10 19h-99c-22 0 -39 16 -39 37s19 37 39 37z" />
    <glyph glyph-name="dieresis" unicode="&#xa8;" horiz-adv-x="423" 
d="M362 634c0 -31 -25 -56 -56 -56s-57 26 -57 56c0 29 26 54 57 54s56 -24 56 -54zM188 634c0 -31 -25 -56 -57 -56c-31 0 -55 26 -55 56c0 29 24 54 55 54c32 0 57 -24 57 -54z" />
    <glyph glyph-name="copyright" unicode="&#xa9;" horiz-adv-x="740" 
d="M676 313c0 -189 -108 -322 -306 -322s-306 133 -306 322s108 322 306 322s306 -133 306 -322zM616 313c0 154 -87 262 -246 262s-246 -108 -246 -262s87 -262 246 -262s246 108 246 262zM231 283v61c0 82 44 147 148 147c39 0 116 -12 116 -54c0 -17 -14 -32 -32 -32
c-4 0 -8 1 -13 2c-19 11 -36 19 -64 19c-56 0 -78 -30 -78 -82v-61c0 -53 22 -82 78 -82c28 0 45 9 64 18c5 2 9 3 13 3c18 0 32 -16 32 -33c0 -41 -77 -53 -116 -53c-104 0 -148 64 -148 147z" />
    <glyph glyph-name="guillemotleft" unicode="&#xab;" horiz-adv-x="431" 
d="M132 258l140 -208c4 -6 5 -12 5 -17c0 -22 -16 -41 -40 -41c-18 0 -26 8 -38 27l-158 237l152 229c10 16 19 26 37 26s38 -16 38 -37c0 -6 -1 -13 -5 -19zM292 256l93 -142c4 -6 5 -13 5 -19c0 -21 -20 -37 -38 -37s-27 10 -37 26l-114 172l114 172c10 16 19 26 37 26
s38 -16 38 -37c0 -6 -1 -13 -5 -19z" />
    <glyph glyph-name="registered" unicode="&#xae;" horiz-adv-x="700" 
d="M636 423c0 -171 -100 -292 -286 -292s-286 121 -286 292c0 177 100 302 286 302s286 -125 286 -302zM576 423c0 142 -79 242 -226 242s-226 -100 -226 -242c0 -136 79 -232 226 -232s226 96 226 232zM466 486c0 -43 -20 -71 -53 -86l62 -94c0 -3 4 -9 4 -14
c0 -12 -14 -21 -30 -21c-17 0 -29 5 -36 12l-69 106h-32v-88c0 -16 -18 -30 -36 -30c-17 0 -34 12 -34 30v245c0 18 18 39 38 39h72c84 0 114 -50 114 -99zM396 486c0 16 -7 35 -41 35h-43v-69h46c25 0 38 12 38 34z" />
    <glyph glyph-name="macron" unicode="&#xaf;" horiz-adv-x="423" 
d="M387 633c0 -24 -21 -43 -46 -43h-259c-27 0 -47 19 -47 43s20 44 47 44h259c25 0 46 -20 46 -44z" />
    <glyph glyph-name="degree" unicode="&#xb0;" horiz-adv-x="392" 
d="M196 436c-91 0 -141 62 -141 140s49 140 141 140s141 -62 141 -140s-49 -140 -141 -140zM196 502c47 0 69 26 69 76c0 45 -22 72 -69 72c-48 0 -70 -27 -70 -72c0 -51 22 -76 70 -76z" />
    <glyph glyph-name="plusminus" unicode="&#xb1;" horiz-adv-x="520" 
d="M206 188v149h-124c-35 0 -70 14 -70 52c0 35 37 51 70 51h124v132c0 32 12 69 54 69c39 0 54 -34 54 -69v-132h124c27 0 70 -20 70 -51c0 -38 -35 -52 -70 -52h-124v-132c0 -38 -16 -68 -54 -68c-31 0 -54 25 -54 51zM66 102h388c27 0 54 -22 54 -51s-24 -51 -54 -51
h-388c-31 0 -54 22 -54 51s26 51 54 51z" />
    <glyph glyph-name="twosuperior" unicode="&#xb2;" 
d="M239 417c0 -14 -12 -25 -27 -25h-164c-17 0 -28 11 -28 27c0 6 0 15 3 21c19 42 52 74 86 106c31 29 74 61 74 104c0 30 -19 55 -54 55c-18 0 -32 -3 -45 -9c-12 -5 -21 -14 -33 -14c-13 0 -26 10 -26 25c0 31 67 47 104 47c68 0 108 -44 108 -99c0 -42 -16 -70 -38 -93
c-37 -41 -85 -75 -111 -120h124c15 0 27 -11 27 -25z" />
    <glyph glyph-name="threesuperior" unicode="&#xb3;" 
d="M219 698c-26 -32 -51 -63 -76 -95c54 -5 93 -41 93 -99c0 -53 -33 -116 -113 -116c-22 0 -100 5 -100 42c0 13 11 25 26 25c18 0 34 -19 67 -19c50 0 66 35 66 66c0 39 -27 55 -63 55c-14 0 -16 -6 -28 -6c-13 0 -23 12 -23 24c0 4 1 11 2 14l82 103h-95
c-16 0 -27 12 -27 26c0 12 11 27 27 27h139c15 0 29 -12 29 -29c0 -7 -2 -13 -6 -18z" />
    <glyph glyph-name="acute" unicode="&#xb4;" horiz-adv-x="296" 
d="M168 707l10 10c10 10 16 15 33 15c19 0 40 -17 40 -41c0 -10 -4 -19 -13 -28l-75 -78c-12 -13 -22 -20 -39 -20c-22 0 -42 17 -42 42c0 24 57 71 86 100z" />
    <glyph glyph-name="periodcentered" unicode="&#xb7;" horiz-adv-x="275" 
d="M203 277c0 -37 -31 -66 -69 -66c-37 0 -68 29 -68 66c0 35 31 65 68 65c38 0 69 -30 69 -65z" />
    <glyph glyph-name="cedilla" unicode="&#xb8;" horiz-adv-x="320" 
d="M260 -121c0 -50 -35 -93 -112 -93c-41 0 -99 12 -99 49c0 18 13 23 29 23c18 0 35 -7 54 -7c22 0 56 9 56 32c0 41 -101 14 -101 63c0 2 0 0 1 8l14 78h63l-10 -68c81 -4 105 -43 105 -85z" />
    <glyph glyph-name="onesuperior" unicode="&#xb9;" 
d="M133 413v267l-51 -32c-8 -5 -16 -10 -26 -10c-11 0 -24 8 -24 23c0 10 4 18 12 23l99 60c5 4 10 5 15 5c17 0 30 -12 30 -28v-308c0 -13 -13 -26 -28 -26s-27 13 -27 26z" />
    <glyph glyph-name="ordmasculine" unicode="&#xba;" horiz-adv-x="404" 
d="M202 332c-104 0 -157 66 -157 152v77c0 87 53 153 157 153s157 -66 157 -153v-77c0 -86 -53 -152 -157 -152zM202 626c-44 0 -60 -25 -60 -69v-75c0 -39 18 -63 60 -63c41 0 60 24 60 63v75c0 44 -16 69 -60 69z" />
    <glyph glyph-name="guillemotright" unicode="&#xbb;" horiz-adv-x="431" 
d="M159 50l140 208l-131 197c-4 6 -5 13 -5 19c0 21 20 37 38 37s27 -10 37 -26l152 -229l-158 -237c-12 -19 -20 -27 -38 -27c-24 0 -40 19 -40 41c0 5 1 11 5 17zM46 114l93 142l-93 142c-4 6 -5 13 -5 19c0 21 20 37 38 37s27 -10 37 -26l114 -172l-114 -172
c-10 -16 -19 -26 -37 -26s-38 16 -38 37c0 6 1 13 5 19z" />
    <glyph glyph-name="questiondown" unicode="&#xbf;" horiz-adv-x="482" 
d="M185 243c5 9 7 24 7 35c0 26 26 52 55 52s54 -26 54 -59c0 -53 -48 -106 -83 -145l-21 -23c-29 -32 -57 -74 -57 -122c0 -60 34 -108 111 -108c30 0 61 5 87 17c23 11 39 28 61 28c26 0 53 -20 53 -49c0 -65 -131 -94 -206 -94c-132 0 -214 85 -214 201
c0 142 113 204 153 267zM178 443c0 36 31 67 69 67s68 -31 68 -67c0 -35 -30 -65 -68 -65s-69 30 -69 65z" />
    <glyph glyph-name="Agrave" unicode="&#xc0;" horiz-adv-x="569" 
d="M166 149l-37 -120c-7 -24 -34 -38 -52 -38c-31 0 -57 20 -57 51c0 5 1 15 2 19l195 593c11 34 28 60 67 60s55 -25 67 -60l195 -593c2 -4 3 -14 3 -19c0 -31 -25 -51 -57 -51c-36 0 -48 25 -61 61l-32 97h-233zM284 549c-25 -106 -57 -203 -87 -304h173
c-31 101 -65 200 -86 304zM246 907c29 -29 86 -76 86 -100c0 -25 -20 -42 -42 -42c-17 0 -27 7 -39 20l-75 78c-9 9 -13 18 -13 28c0 24 21 41 40 41c17 0 23 -5 33 -15z" />
    <glyph glyph-name="Aacute" unicode="&#xc1;" horiz-adv-x="569" 
d="M166 149l-37 -120c-7 -24 -34 -38 -52 -38c-31 0 -57 20 -57 51c0 5 1 15 2 19l195 593c11 34 28 60 67 60s55 -25 67 -60l195 -593c2 -4 3 -14 3 -19c0 -31 -25 -51 -57 -51c-36 0 -48 25 -61 61l-32 97h-233zM284 549c-25 -106 -57 -203 -87 -304h173
c-31 101 -65 200 -86 304zM328 907l10 10c10 10 16 15 33 15c19 0 40 -17 40 -41c0 -10 -4 -19 -13 -28l-75 -78c-12 -13 -22 -20 -39 -20c-22 0 -42 17 -42 42c0 24 57 71 86 100z" />
    <glyph glyph-name="Acircumflex" unicode="&#xc2;" horiz-adv-x="569" 
d="M166 149l-37 -120c-7 -24 -34 -38 -52 -38c-31 0 -57 20 -57 51c0 5 1 15 2 19l195 593c11 34 28 60 67 60s55 -25 67 -60l195 -593c2 -4 3 -14 3 -19c0 -31 -25 -51 -57 -51c-36 0 -48 25 -61 61l-32 97h-233zM284 549c-25 -106 -57 -203 -87 -304h173
c-31 101 -65 200 -86 304zM284 825c-26 -21 -62 -65 -88 -65c-20 0 -43 14 -43 36c0 16 18 35 32 46l69 55c8 6 17 11 30 11s22 -5 30 -11l69 -55c14 -11 32 -30 32 -46c0 -22 -23 -36 -43 -36c-26 0 -62 44 -88 65z" />
    <glyph glyph-name="Atilde" unicode="&#xc3;" horiz-adv-x="569" 
d="M166 149l-37 -120c-7 -24 -34 -38 -52 -38c-31 0 -57 20 -57 51c0 5 1 15 2 19l195 593c11 34 28 60 67 60s55 -25 67 -60l195 -593c2 -4 3 -14 3 -19c0 -31 -25 -51 -57 -51c-36 0 -48 25 -61 61l-32 97h-233zM284 549c-25 -106 -57 -203 -87 -304h173
c-31 101 -65 200 -86 304zM431 846c0 -38 -49 -66 -86 -67c-48 0 -76 33 -106 36c-33 2 -37 -31 -64 -31c-18 0 -38 13 -38 34c0 41 41 72 85 72c49 0 74 -34 106 -36c34 0 35 31 63 32c21 0 40 -17 40 -40z" />
    <glyph glyph-name="Adieresis" unicode="&#xc4;" horiz-adv-x="569" 
d="M166 149l-37 -120c-7 -24 -34 -38 -52 -38c-31 0 -57 20 -57 51c0 5 1 15 2 19l195 593c11 34 28 60 67 60s55 -25 67 -60l195 -593c2 -4 3 -14 3 -19c0 -31 -25 -51 -57 -51c-36 0 -48 25 -61 61l-32 97h-233zM284 549c-25 -106 -57 -203 -87 -304h173
c-31 101 -65 200 -86 304zM427 834c0 -31 -25 -56 -56 -56s-57 26 -57 56c0 29 26 54 57 54s56 -24 56 -54zM253 834c0 -31 -25 -56 -57 -56c-31 0 -55 26 -55 56c0 29 24 54 55 54c32 0 57 -24 57 -54z" />
    <glyph glyph-name="Aring" unicode="&#xc5;" horiz-adv-x="569" 
d="M394 724c0 -34 -15 -64 -39 -83c64 -194 128 -387 191 -580c2 -4 3 -14 3 -19c0 -31 -25 -51 -57 -51c-36 0 -48 25 -61 61l-32 97h-233l-37 -120c-8 -24 -34 -38 -52 -38c-31 0 -57 20 -57 51c0 18 6 29 10 43l183 556c-24 20 -39 49 -39 83c0 60 49 110 111 110
c61 0 109 -50 109 -110zM284 549c-25 -106 -57 -203 -87 -304h173c-31 101 -65 200 -86 304zM337 724c0 29 -24 53 -52 53c-29 0 -52 -24 -52 -53s23 -52 52 -52c28 0 52 23 52 52z" />
    <glyph glyph-name="AE" unicode="&#xc6;" horiz-adv-x="747" 
d="M434 0c-41 0 -78 14 -78 59v90h-189l-38 -120c-7 -23 -33 -39 -52 -39c-33 0 -57 21 -57 52c0 5 1 15 2 19l193 583c11 32 32 61 67 61h372c30 0 55 -24 55 -53c0 -28 -25 -50 -55 -50h-188v-197h169c27 0 54 -22 54 -51s-24 -52 -54 -52h-169v-200h198
c29 0 55 -22 55 -49c0 -30 -25 -53 -55 -53h-230zM356 602h-29c-12 0 -18 -4 -20 -14l-109 -343h158v357z" />
    <glyph glyph-name="Ccedilla" unicode="&#xc7;" horiz-adv-x="502" 
d="M392 -123c0 -48 -37 -87 -101 -91c-49 0 -110 18 -110 47c0 18 11 23 27 23c14 0 42 -6 67 -6c30 0 45 16 45 32c0 43 -101 15 -101 63c0 3 1 6 1 9l8 42c-129 19 -188 115 -188 254v206c0 156 75 258 240 258c98 0 192 -44 192 -96c0 -26 -22 -48 -51 -48
c-19 0 -25 7 -40 16c-23 19 -61 31 -96 31c-102 0 -135 -62 -135 -161v-206c0 -99 33 -161 135 -161c64 0 101 46 136 46c27 0 51 -21 51 -47c0 -55 -89 -87 -181 -95c-1 -10 -2 -20 -4 -29c77 -4 105 -38 105 -87z" />
    <glyph glyph-name="Egrave" unicode="&#xc8;" horiz-adv-x="494" 
d="M466 53c0 -30 -25 -53 -55 -53h-265c-41 0 -78 14 -78 59v587c0 29 26 59 62 59h271c30 0 55 -24 55 -53s-25 -50 -55 -50h-223v-197h204c27 0 54 -22 54 -51s-24 -52 -54 -52h-204v-200h233c29 0 55 -22 55 -49zM245 907c29 -29 86 -76 86 -100c0 -25 -20 -42 -42 -42
c-17 0 -27 7 -39 20l-75 78c-9 9 -13 18 -13 28c0 24 21 41 40 41c17 0 23 -5 33 -15z" />
    <glyph glyph-name="Eacute" unicode="&#xc9;" horiz-adv-x="494" 
d="M466 53c0 -30 -25 -53 -55 -53h-265c-41 0 -78 14 -78 59v587c0 29 26 59 62 59h271c30 0 55 -24 55 -53s-25 -50 -55 -50h-223v-197h204c27 0 54 -22 54 -51s-24 -52 -54 -52h-204v-200h233c29 0 55 -22 55 -49zM301 907l10 10c10 10 16 15 33 15c19 0 40 -17 40 -41
c0 -10 -4 -19 -13 -28l-75 -78c-12 -13 -22 -20 -39 -20c-22 0 -42 17 -42 42c0 24 57 71 86 100z" />
    <glyph glyph-name="Ecircumflex" unicode="&#xca;" horiz-adv-x="494" 
d="M466 53c0 -30 -25 -53 -55 -53h-265c-41 0 -78 14 -78 59v587c0 29 26 59 62 59h271c30 0 55 -24 55 -53s-25 -50 -55 -50h-223v-197h204c27 0 54 -22 54 -51s-24 -52 -54 -52h-204v-200h233c29 0 55 -22 55 -49zM273 825c-26 -21 -62 -65 -88 -65c-20 0 -43 14 -43 36
c0 16 18 35 32 46l69 55c8 6 17 11 30 11s22 -5 30 -11l69 -55c14 -11 32 -30 32 -46c0 -22 -23 -36 -43 -36c-26 0 -62 44 -88 65z" />
    <glyph glyph-name="Edieresis" unicode="&#xcb;" horiz-adv-x="494" 
d="M466 53c0 -30 -25 -53 -55 -53h-265c-41 0 -78 14 -78 59v587c0 29 26 59 62 59h271c30 0 55 -24 55 -53s-25 -50 -55 -50h-223v-197h204c27 0 54 -22 54 -51s-24 -52 -54 -52h-204v-200h233c29 0 55 -22 55 -49zM414 834c0 -31 -25 -56 -56 -56s-57 26 -57 56
c0 29 26 54 57 54s56 -24 56 -54zM240 834c0 -31 -25 -56 -57 -56c-31 0 -55 26 -55 56c0 29 24 54 55 54c32 0 57 -24 57 -54z" />
    <glyph glyph-name="Igrave" unicode="&#xcc;" horiz-adv-x="247" 
d="M68 42v620c0 28 24 52 55 52c30 0 55 -24 55 -52v-620c0 -27 -25 -52 -55 -52c-31 0 -55 25 -55 52zM92 907c29 -29 86 -76 86 -100c0 -25 -20 -42 -42 -42c-17 0 -27 7 -39 20l-75 78c-9 9 -13 18 -13 28c0 24 21 41 40 41c17 0 23 -5 33 -15z" />
    <glyph glyph-name="Iacute" unicode="&#xcd;" horiz-adv-x="247" 
d="M68 42v620c0 28 24 52 55 52c30 0 55 -24 55 -52v-620c0 -27 -25 -52 -55 -52c-31 0 -55 25 -55 52zM155 907l10 10c10 10 16 15 33 15c19 0 40 -17 40 -41c0 -10 -4 -19 -13 -28l-75 -78c-12 -13 -22 -20 -39 -20c-22 0 -42 17 -42 42c0 24 57 71 86 100z" />
    <glyph glyph-name="Icircumflex" unicode="&#xce;" horiz-adv-x="247" 
d="M68 42v620c0 28 24 52 55 52c30 0 55 -24 55 -52v-620c0 -27 -25 -52 -55 -52c-31 0 -55 25 -55 52zM124 825c-26 -21 -62 -65 -88 -65c-20 0 -43 14 -43 36c0 16 18 35 32 46l69 55c8 6 17 11 30 11s22 -5 30 -11l69 -55c14 -11 32 -30 32 -46c0 -22 -23 -36 -43 -36
c-26 0 -62 44 -88 65z" />
    <glyph glyph-name="Idieresis" unicode="&#xcf;" horiz-adv-x="247" 
d="M68 42v620c0 28 24 52 55 52c30 0 55 -24 55 -52v-620c0 -27 -25 -52 -55 -52c-31 0 -55 25 -55 52zM267 834c0 -31 -25 -56 -56 -56s-57 26 -57 56c0 29 26 54 57 54s56 -24 56 -54zM93 834c0 -31 -25 -56 -57 -56c-31 0 -55 26 -55 56c0 29 24 54 55 54
c32 0 57 -24 57 -54z" />
    <glyph glyph-name="Eth" unicode="&#xd0;" horiz-adv-x="595" 
d="M554 267c0 -139 -73 -267 -289 -267h-113c-34 0 -63 27 -63 60v244h-24c-29 0 -52 22 -52 49c0 26 23 49 52 49h24v243c0 33 29 60 63 60h113c215 0 289 -122 289 -258v-180zM365 353c0 -27 -22 -49 -51 -49h-115v-202h83c121 0 162 74 162 165v180
c0 87 -43 156 -162 156h-83v-201h115c29 0 51 -23 51 -49z" />
    <glyph glyph-name="Ntilde" unicode="&#xd1;" horiz-adv-x="620" 
d="M492 -10c-21 0 -44 12 -54 29l-260 469v-445c0 -28 -26 -53 -56 -53c-31 0 -54 25 -54 53v615c0 32 24 56 58 56c22 0 44 -12 55 -30c44 -77 214 -389 260 -469v446c0 29 26 53 56 53s54 -24 54 -53v-615c0 -30 -24 -56 -59 -56zM457 846c0 -38 -49 -66 -86 -67
c-48 0 -76 33 -106 36c-33 2 -37 -31 -64 -31c-18 0 -38 13 -38 34c0 41 41 72 85 72c49 0 74 -34 106 -36c34 0 35 31 63 32c21 0 40 -17 40 -40z" />
    <glyph glyph-name="Ograve" unicode="&#xd2;" horiz-adv-x="580" 
d="M290 -10c-163 0 -245 116 -245 260v206c0 140 69 258 245 258s245 -118 245 -258v-206c0 -144 -82 -260 -245 -260zM290 612c-99 0 -135 -63 -135 -156v-206c0 -93 42 -157 135 -157c92 0 135 64 135 157v206c0 93 -36 156 -135 156zM258 907c29 -29 86 -76 86 -100
c0 -25 -20 -42 -42 -42c-17 0 -27 7 -39 20l-75 78c-9 9 -13 18 -13 28c0 24 21 41 40 41c17 0 23 -5 33 -15z" />
    <glyph glyph-name="Oacute" unicode="&#xd3;" horiz-adv-x="580" 
d="M290 -10c-163 0 -245 116 -245 260v206c0 140 69 258 245 258s245 -118 245 -258v-206c0 -144 -82 -260 -245 -260zM290 612c-99 0 -135 -63 -135 -156v-206c0 -93 42 -157 135 -157c92 0 135 64 135 157v206c0 93 -36 156 -135 156zM319 907l10 10c10 10 16 15 33 15
c19 0 40 -17 40 -41c0 -10 -4 -19 -13 -28l-75 -78c-12 -13 -22 -20 -39 -20c-22 0 -42 17 -42 42c0 24 57 71 86 100z" />
    <glyph glyph-name="Ocircumflex" unicode="&#xd4;" horiz-adv-x="580" 
d="M290 -10c-163 0 -245 116 -245 260v206c0 140 69 258 245 258s245 -118 245 -258v-206c0 -144 -82 -260 -245 -260zM290 612c-99 0 -135 -63 -135 -156v-206c0 -93 42 -157 135 -157c92 0 135 64 135 157v206c0 93 -36 156 -135 156zM290 825c-26 -21 -62 -65 -88 -65
c-20 0 -43 14 -43 36c0 16 18 35 32 46l69 55c8 6 17 11 30 11s22 -5 30 -11l69 -55c14 -11 32 -30 32 -46c0 -22 -23 -36 -43 -36c-26 0 -62 44 -88 65z" />
    <glyph glyph-name="Otilde" unicode="&#xd5;" horiz-adv-x="580" 
d="M290 -10c-163 0 -245 116 -245 260v206c0 140 69 258 245 258s245 -118 245 -258v-206c0 -144 -82 -260 -245 -260zM290 612c-99 0 -135 -63 -135 -156v-206c0 -93 42 -157 135 -157c92 0 135 64 135 157v206c0 93 -36 156 -135 156zM437 846c0 -38 -49 -66 -86 -67
c-48 0 -76 33 -106 36c-33 2 -37 -31 -64 -31c-18 0 -38 13 -38 34c0 41 41 72 85 72c49 0 74 -34 106 -36c34 0 35 31 63 32c21 0 40 -17 40 -40z" />
    <glyph glyph-name="Odieresis" unicode="&#xd6;" horiz-adv-x="580" 
d="M290 -10c-163 0 -245 116 -245 260v206c0 140 69 258 245 258s245 -118 245 -258v-206c0 -144 -82 -260 -245 -260zM290 612c-99 0 -135 -63 -135 -156v-206c0 -93 42 -157 135 -157c92 0 135 64 135 157v206c0 93 -36 156 -135 156zM433 834c0 -31 -25 -56 -56 -56
s-57 26 -57 56c0 29 26 54 57 54s56 -24 56 -54zM259 834c0 -31 -25 -56 -57 -56c-31 0 -55 26 -55 56c0 29 24 54 55 54c32 0 57 -24 57 -54z" />
    <glyph glyph-name="multiply" unicode="&#xd7;" horiz-adv-x="500" 
d="M425 474l-120 -120l120 -120c16 -16 16 -40 0 -55c-15 -16 -41 -15 -55 0l-120 120l-120 -120c-14 -15 -40 -16 -55 0c-16 15 -16 39 0 55l120 120l-120 120c-15 14 -16 40 0 55c15 16 39 16 55 0l120 -120l120 120c16 16 40 16 55 0c16 -15 15 -41 0 -55z" />
    <glyph glyph-name="Oslash" unicode="&#xd8;" horiz-adv-x="571" 
d="M35 39l42 61c-25 42 -37 93 -37 150v206c0 140 69 258 245 258c80 0 138 -24 177 -65l32 46c8 12 25 15 37 7c11 -8 15 -24 6 -36l-43 -61c24 -42 36 -94 36 -149v-206c0 -144 -82 -260 -245 -260c-76 0 -134 25 -175 66l-32 -46c-8 -12 -25 -15 -37 -7
c-11 8 -15 24 -6 36zM285 612c-99 0 -135 -63 -135 -156v-206c0 -15 0 -30 3 -42l244 349c-20 34 -56 55 -112 55zM420 456c0 13 -2 26 -3 39l-243 -347c22 -35 58 -55 111 -55c92 0 135 64 135 157v206z" />
    <glyph glyph-name="Ugrave" unicode="&#xd9;" horiz-adv-x="592" 
d="M532 235c0 -142 -88 -245 -236 -245c-152 0 -236 104 -236 245v425c0 31 24 54 56 54c29 0 54 -24 54 -54v-425c0 -84 40 -142 126 -142c85 0 125 59 125 142v425c0 29 23 54 54 54c32 0 57 -25 57 -54v-425zM262 907c29 -29 86 -76 86 -100c0 -25 -20 -42 -42 -42
c-17 0 -27 7 -39 20l-75 78c-9 9 -13 18 -13 28c0 24 21 41 40 41c17 0 23 -5 33 -15z" />
    <glyph glyph-name="Uacute" unicode="&#xda;" horiz-adv-x="592" 
d="M532 235c0 -142 -88 -245 -236 -245c-152 0 -236 104 -236 245v425c0 31 24 54 56 54c29 0 54 -24 54 -54v-425c0 -84 40 -142 126 -142c85 0 125 59 125 142v425c0 29 23 54 54 54c32 0 57 -25 57 -54v-425zM334 907l10 10c10 10 16 15 33 15c19 0 40 -17 40 -41
c0 -10 -4 -19 -13 -28l-75 -78c-12 -13 -22 -20 -39 -20c-22 0 -42 17 -42 42c0 24 57 71 86 100z" />
    <glyph glyph-name="Ucircumflex" unicode="&#xdb;" horiz-adv-x="592" 
d="M532 235c0 -142 -88 -245 -236 -245c-152 0 -236 104 -236 245v425c0 31 24 54 56 54c29 0 54 -24 54 -54v-425c0 -84 40 -142 126 -142c85 0 125 59 125 142v425c0 29 23 54 54 54c32 0 57 -25 57 -54v-425zM296 825c-26 -21 -62 -65 -88 -65c-20 0 -43 14 -43 36
c0 16 18 35 32 46l69 55c8 6 17 11 30 11s22 -5 30 -11l69 -55c14 -11 32 -30 32 -46c0 -22 -23 -36 -43 -36c-26 0 -62 44 -88 65z" />
    <glyph glyph-name="Udieresis" unicode="&#xdc;" horiz-adv-x="592" 
d="M532 235c0 -142 -88 -245 -236 -245c-152 0 -236 104 -236 245v425c0 31 24 54 56 54c29 0 54 -24 54 -54v-425c0 -84 40 -142 126 -142c85 0 125 59 125 142v425c0 29 23 54 54 54c32 0 57 -25 57 -54v-425zM438 834c0 -31 -25 -56 -56 -56s-57 26 -57 56
c0 29 26 54 57 54s56 -24 56 -54zM264 834c0 -31 -25 -56 -57 -56c-31 0 -55 26 -55 56c0 29 24 54 55 54c32 0 57 -24 57 -54z" />
    <glyph glyph-name="Yacute" unicode="&#xdd;" horiz-adv-x="503" 
d="M251 -10c-31 0 -56 25 -56 54v232l-177 361c-2 6 -5 16 -5 24c0 29 28 53 56 53c17 0 35 -7 44 -23l138 -288l138 288c9 16 27 23 44 23c29 0 56 -24 56 -53c0 -7 -3 -17 -5 -24l-177 -362v-231c0 -28 -24 -54 -56 -54zM274 907l10 10c10 10 16 15 33 15
c19 0 40 -17 40 -41c0 -10 -4 -19 -13 -28l-75 -78c-12 -13 -22 -20 -39 -20c-22 0 -42 17 -42 42c0 24 57 71 86 100z" />
    <glyph glyph-name="Thorn" unicode="&#xde;" horiz-adv-x="550" 
d="M68 43v619c0 29 25 53 55 53s55 -25 55 -53v-76h100c177 0 240 -108 240 -225c0 -142 -94 -221 -240 -221h-100v-97c0 -28 -25 -53 -55 -53s-55 25 -55 53zM178 483v-241h100c85 0 130 38 130 120c0 59 -24 121 -130 121h-100z" />
    <glyph glyph-name="germandbls" unicode="&#xdf;" horiz-adv-x="577" 
d="M538 168c0 -114 -84 -172 -206 -172c-74 0 -114 23 -114 57c0 23 15 47 50 47c23 0 48 -10 76 -10c40 0 82 21 82 74c0 144 -193 89 -193 198c0 102 138 53 138 175c0 57 -41 85 -97 85c-68 0 -98 -41 -98 -128v-505c0 -27 -23 -50 -54 -50c-30 0 -54 23 -54 50v502
c0 141 75 226 211 226c113 0 198 -59 198 -172c0 -73 -37 -118 -82 -143c-21 -11 -54 -22 -54 -31c0 -8 12 -11 35 -19c88 -37 162 -84 162 -184z" />
    <glyph glyph-name="agrave" unicode="&#xe0;" horiz-adv-x="502" 
d="M317 289v44c0 59 -30 88 -92 88c-26 0 -42 -6 -59 -13l-19 -8c-6 -3 -17 -5 -26 -5c-29 0 -41 23 -41 44c0 53 77 74 155 74c135 0 190 -71 190 -204v-203c0 -25 10 -29 25 -32c21 -4 30 -17 30 -36c0 -28 -21 -42 -59 -42c-35 0 -61 14 -80 45c-37 -32 -81 -48 -136 -48
c-109 0 -165 61 -165 154v3c0 100 62 151 187 151c31 0 61 -4 90 -12zM230 219c-70 0 -83 -32 -83 -70v-3c0 -40 20 -63 75 -63c34 0 64 10 95 35v90c-29 7 -62 11 -87 11zM239 707c29 -29 86 -76 86 -100c0 -25 -20 -42 -42 -42c-17 0 -27 7 -39 20l-75 78
c-9 9 -13 18 -13 28c0 24 21 41 40 41c17 0 23 -5 33 -15z" />
    <glyph glyph-name="aacute" unicode="&#xe1;" horiz-adv-x="502" 
d="M317 289v44c0 59 -30 88 -92 88c-26 0 -42 -6 -59 -13l-19 -8c-6 -3 -17 -5 -26 -5c-29 0 -41 23 -41 44c0 53 77 74 155 74c135 0 190 -71 190 -204v-203c0 -25 10 -29 25 -32c21 -4 30 -17 30 -36c0 -28 -21 -42 -59 -42c-35 0 -61 14 -80 45c-37 -32 -81 -48 -136 -48
c-109 0 -165 61 -165 154v3c0 100 62 151 187 151c31 0 61 -4 90 -12zM230 219c-70 0 -83 -32 -83 -70v-3c0 -40 20 -63 75 -63c34 0 64 10 95 35v90c-29 7 -62 11 -87 11zM266 707l10 10c10 10 16 15 33 15c19 0 40 -17 40 -41c0 -10 -4 -19 -13 -28l-75 -78
c-12 -13 -22 -20 -39 -20c-22 0 -42 17 -42 42c0 24 57 71 86 100z" />
    <glyph glyph-name="acircumflex" unicode="&#xe2;" horiz-adv-x="502" 
d="M317 289v44c0 59 -30 88 -92 88c-26 0 -42 -6 -59 -13l-19 -8c-6 -3 -17 -5 -26 -5c-29 0 -41 23 -41 44c0 53 77 74 155 74c135 0 190 -71 190 -204v-203c0 -25 10 -29 25 -32c21 -4 30 -17 30 -36c0 -28 -21 -42 -59 -42c-35 0 -61 14 -80 45c-37 -32 -81 -48 -136 -48
c-109 0 -165 61 -165 154v3c0 100 62 151 187 151c31 0 61 -4 90 -12zM230 219c-70 0 -83 -32 -83 -70v-3c0 -40 20 -63 75 -63c34 0 64 10 95 35v90c-29 7 -62 11 -87 11zM251 625c-26 -21 -62 -65 -88 -65c-20 0 -43 14 -43 36c0 16 18 35 32 46l69 55c8 6 17 11 30 11
s22 -5 30 -11l69 -55c14 -11 32 -30 32 -46c0 -22 -23 -36 -43 -36c-26 0 -62 44 -88 65z" />
    <glyph glyph-name="atilde" unicode="&#xe3;" horiz-adv-x="502" 
d="M317 289v44c0 59 -30 88 -92 88c-26 0 -42 -6 -59 -13l-19 -8c-6 -3 -17 -5 -26 -5c-29 0 -41 23 -41 44c0 53 77 74 155 74c135 0 190 -71 190 -204v-203c0 -25 10 -29 25 -32c21 -4 30 -17 30 -36c0 -28 -21 -42 -59 -42c-35 0 -61 14 -80 45c-37 -32 -81 -48 -136 -48
c-109 0 -165 61 -165 154v3c0 100 62 151 187 151c31 0 61 -4 90 -12zM230 219c-70 0 -83 -32 -83 -70v-3c0 -40 20 -63 75 -63c34 0 64 10 95 35v90c-29 7 -62 11 -87 11zM398 646c0 -38 -49 -66 -86 -67c-48 0 -76 33 -106 36c-33 2 -37 -31 -64 -31c-18 0 -38 13 -38 34
c0 41 41 72 85 72c49 0 74 -34 106 -36c34 0 35 31 63 32c21 0 40 -17 40 -40z" />
    <glyph glyph-name="adieresis" unicode="&#xe4;" horiz-adv-x="502" 
d="M317 289v44c0 59 -30 88 -92 88c-26 0 -42 -6 -59 -13l-19 -8c-6 -3 -17 -5 -26 -5c-29 0 -41 23 -41 44c0 53 77 74 155 74c135 0 190 -71 190 -204v-203c0 -25 10 -29 25 -32c21 -4 30 -17 30 -36c0 -28 -21 -42 -59 -42c-35 0 -61 14 -80 45c-37 -32 -81 -48 -136 -48
c-109 0 -165 61 -165 154v3c0 100 62 151 187 151c31 0 61 -4 90 -12zM230 219c-70 0 -83 -32 -83 -70v-3c0 -40 20 -63 75 -63c34 0 64 10 95 35v90c-29 7 -62 11 -87 11zM393 634c0 -31 -25 -56 -56 -56s-57 26 -57 56c0 29 26 54 57 54s56 -24 56 -54zM219 634
c0 -31 -25 -56 -57 -56c-31 0 -55 26 -55 56c0 29 24 54 55 54c32 0 57 -24 57 -54z" />
    <glyph glyph-name="aring" unicode="&#xe5;" horiz-adv-x="502" 
d="M317 289v44c0 59 -30 88 -92 88c-26 0 -42 -6 -59 -13l-19 -8c-6 -3 -17 -5 -26 -5c-29 0 -41 23 -41 44c0 53 77 74 155 74c135 0 190 -71 190 -204v-203c0 -25 10 -29 25 -32c21 -4 30 -17 30 -36c0 -28 -21 -42 -59 -42c-35 0 -61 14 -80 45c-37 -32 -81 -48 -136 -48
c-109 0 -165 61 -165 154v3c0 100 62 151 187 151c31 0 61 -4 90 -12zM230 219c-70 0 -83 -32 -83 -70v-3c0 -40 20 -63 75 -63c34 0 64 10 95 35v90c-29 7 -62 11 -87 11zM356 644c0 -58 -46 -104 -104 -104c-59 0 -105 46 -105 104c0 57 46 104 105 104
c58 0 104 -47 104 -104zM301 644c0 27 -22 50 -49 50s-49 -23 -49 -50s22 -49 49 -49s49 22 49 49z" />
    <glyph glyph-name="ae" unicode="&#xe6;" horiz-adv-x="712" 
d="M502 192c-26 0 -58 2 -87 6v-40c0 -45 32 -74 94 -74c38 0 63 11 97 25c6 2 12 5 21 5c28 0 50 -23 50 -47c0 -57 -120 -75 -174 -75c-65 0 -111 23 -140 61c-47 -41 -101 -61 -165 -61c-113 0 -168 63 -168 157v3c0 102 63 154 191 154c30 0 59 -3 86 -10v37
c0 60 -30 88 -92 88c-31 0 -49 -8 -70 -18c-6 -2 -17 -9 -32 -9c-29 0 -42 23 -43 43c-5 54 78 76 155 76c67 0 110 -22 137 -66c28 40 77 66 147 66c116 0 177 -66 177 -167c0 -96 -55 -154 -184 -154zM579 346c0 52 -28 73 -76 73c-56 0 -88 -28 -88 -73v-59
c32 -3 73 -6 90 -6c62 0 74 32 74 65zM307 120v85c-29 8 -62 12 -87 12c-70 0 -83 -30 -83 -66v-3c0 -37 17 -63 73 -63c37 0 66 11 97 35z" />
    <glyph glyph-name="ccedilla" unicode="&#xe7;" horiz-adv-x="418" 
d="M353 -123c0 -52 -42 -91 -113 -91c-41 0 -99 14 -99 48c0 17 12 22 27 22c13 0 41 -6 67 -6c31 0 45 16 45 32c0 41 -100 21 -100 62c0 16 4 36 8 53c-99 17 -143 92 -143 183v143c0 105 59 187 193 187c53 0 155 -14 155 -74c0 -25 -21 -42 -52 -42c-4 0 -8 1 -12 2
l-21 8c-18 7 -35 14 -62 14c-67 0 -93 -35 -93 -95v-143c0 -60 27 -96 93 -96c44 0 65 25 98 25s47 -21 47 -40c0 -57 -83 -73 -139 -76c-2 -10 -3 -19 -4 -29c77 -4 105 -38 105 -87z" />
    <glyph glyph-name="egrave" unicode="&#xe8;" horiz-adv-x="460" 
d="M242 197c-28 0 -57 2 -89 7v-46c0 -45 31 -74 94 -74c37 0 64 10 97 25c3 2 10 5 22 5c34 0 49 -25 49 -45c0 -60 -118 -77 -177 -77c-123 0 -193 74 -193 171v177c0 98 69 173 198 173c121 0 181 -66 181 -166c0 -94 -55 -150 -182 -150zM317 350c0 53 -27 74 -76 74
c-56 0 -88 -30 -88 -78v-59c34 -4 73 -6 88 -6c57 0 76 27 76 69zM208 707c29 -29 86 -76 86 -100c0 -25 -20 -42 -42 -42c-17 0 -27 7 -39 20l-75 78c-9 9 -13 18 -13 28c0 24 21 41 40 41c17 0 23 -5 33 -15z" />
    <glyph glyph-name="eacute" unicode="&#xe9;" horiz-adv-x="460" 
d="M242 197c-28 0 -57 2 -89 7v-46c0 -45 31 -74 94 -74c37 0 64 10 97 25c3 2 10 5 22 5c34 0 49 -25 49 -45c0 -60 -118 -77 -177 -77c-123 0 -193 74 -193 171v177c0 98 69 173 198 173c121 0 181 -66 181 -166c0 -94 -55 -150 -182 -150zM317 350c0 53 -27 74 -76 74
c-56 0 -88 -30 -88 -78v-59c34 -4 73 -6 88 -6c57 0 76 27 76 69zM272 707l10 10c10 10 16 15 33 15c19 0 40 -17 40 -41c0 -10 -4 -19 -13 -28l-75 -78c-12 -13 -22 -20 -39 -20c-22 0 -42 17 -42 42c0 24 57 71 86 100z" />
    <glyph glyph-name="ecircumflex" unicode="&#xea;" horiz-adv-x="460" 
d="M242 197c-28 0 -57 2 -89 7v-46c0 -45 31 -74 94 -74c37 0 64 10 97 25c3 2 10 5 22 5c34 0 49 -25 49 -45c0 -60 -118 -77 -177 -77c-123 0 -193 74 -193 171v177c0 98 69 173 198 173c121 0 181 -66 181 -166c0 -94 -55 -150 -182 -150zM317 350c0 53 -27 74 -76 74
c-56 0 -88 -30 -88 -78v-59c34 -4 73 -6 88 -6c57 0 76 27 76 69zM235 625c-26 -21 -62 -65 -88 -65c-20 0 -43 14 -43 36c0 16 18 35 32 46l69 55c8 6 17 11 30 11s22 -5 30 -11l69 -55c14 -11 32 -30 32 -46c0 -22 -23 -36 -43 -36c-26 0 -62 44 -88 65z" />
    <glyph glyph-name="edieresis" unicode="&#xeb;" horiz-adv-x="460" 
d="M242 197c-28 0 -57 2 -89 7v-46c0 -45 31 -74 94 -74c37 0 64 10 97 25c3 2 10 5 22 5c34 0 49 -25 49 -45c0 -60 -118 -77 -177 -77c-123 0 -193 74 -193 171v177c0 98 69 173 198 173c121 0 181 -66 181 -166c0 -94 -55 -150 -182 -150zM317 350c0 53 -27 74 -76 74
c-56 0 -88 -30 -88 -78v-59c34 -4 73 -6 88 -6c57 0 76 27 76 69zM373 634c0 -31 -25 -56 -56 -56s-57 26 -57 56c0 29 26 54 57 54s56 -24 56 -54zM199 634c0 -31 -25 -56 -57 -56c-31 0 -55 26 -55 56c0 29 24 54 55 54c32 0 57 -24 57 -54z" />
    <glyph glyph-name="igrave" unicode="&#xec;" horiz-adv-x="265" 
d="M95 707c29 -29 86 -76 86 -100c0 -25 -20 -42 -42 -42c-17 0 -27 7 -39 20l-75 78c-9 9 -13 18 -13 28c0 24 21 41 40 41c17 0 23 -5 33 -15zM186 43c0 -29 -24 -51 -54 -51c-31 0 -54 22 -54 51v417c0 27 23 50 54 50c30 0 54 -23 54 -50v-417z" />
    <glyph glyph-name="iacute" unicode="&#xed;" horiz-adv-x="265" 
d="M172 707l10 10c10 10 16 15 33 15c19 0 40 -17 40 -41c0 -10 -4 -19 -13 -28l-75 -78c-12 -13 -22 -20 -39 -20c-22 0 -42 17 -42 42c0 24 57 71 86 100zM186 43c0 -29 -24 -51 -54 -51c-31 0 -54 22 -54 51v417c0 27 23 50 54 50c30 0 54 -23 54 -50v-417z" />
    <glyph glyph-name="icircumflex" unicode="&#xee;" horiz-adv-x="265" 
d="M186 43c0 -29 -24 -51 -54 -51c-31 0 -54 22 -54 51v417c0 27 23 50 54 50c30 0 54 -23 54 -50v-417zM133 625c-26 -21 -62 -65 -88 -65c-20 0 -43 14 -43 36c0 16 18 35 32 46l69 55c8 6 17 11 30 11s22 -5 30 -11l69 -55c14 -11 32 -30 32 -46c0 -22 -23 -36 -43 -36
c-26 0 -62 44 -88 65z" />
    <glyph glyph-name="idieresis" unicode="&#xef;" horiz-adv-x="265" 
d="M276 634c0 -31 -25 -56 -56 -56s-57 26 -57 56c0 29 26 54 57 54s56 -24 56 -54zM102 634c0 -31 -25 -56 -57 -56c-31 0 -55 26 -55 56c0 29 24 54 55 54c32 0 57 -24 57 -54zM186 43c0 -29 -24 -51 -54 -51c-31 0 -54 22 -54 51v417c0 27 23 50 54 50
c30 0 54 -23 54 -50v-417z" />
    <glyph glyph-name="eth" unicode="&#xf0;" horiz-adv-x="537" 
d="M514 665c0 0 4 -1 4 -9c0 -11 -4 -21 -14 -27l-59 -39c29 -63 46 -153 46 -269c0 -266 -83 -331 -216 -331c-162 0 -232 96 -232 223c0 126 69 227 201 227c34 0 89 -8 134 -38c-2 56 -9 97 -19 127l-51 -31c-11 -8 -19 -10 -24 -10c-15 -2 -33 14 -32 33
c0 11 4 22 14 28l59 38c-25 24 -56 29 -84 32c-19 1 -44 4 -41 46c2 29 15 43 70 43c57 0 103 -21 139 -63l52 35c7 5 14 8 24 9c26 1 29 -24 29 -24zM381 279v20c-31 28 -90 46 -130 46c-63 0 -100 -48 -100 -127c0 -74 33 -131 119 -131c84 0 111 58 111 192z" />
    <glyph glyph-name="ntilde" unicode="&#xf1;" horiz-adv-x="529" 
d="M180 364v-321c0 -28 -18 -50 -54 -50s-54 22 -54 50v321c0 44 -7 46 -13 56c-8 12 -12 18 -12 30c0 26 22 46 52 46c19 0 35 -11 47 -29c45 31 94 44 138 44c116 0 174 -77 174 -192v-276c0 -28 -20 -50 -54 -50c-35 0 -54 22 -54 50v276c0 63 -29 100 -79 100
c-30 0 -61 -11 -94 -31c2 -9 3 -17 3 -24zM399 646c0 -38 -49 -66 -86 -67c-48 0 -76 33 -106 36c-33 2 -37 -31 -64 -31c-18 0 -38 13 -38 34c0 41 41 72 85 72c49 0 74 -34 106 -36c34 0 35 31 63 32c21 0 40 -17 40 -40z" />
    <glyph glyph-name="ograve" unicode="&#xf2;" horiz-adv-x="494" 
d="M247 -8c-132 0 -202 80 -202 182v158c0 103 70 182 202 182s202 -79 202 -182v-158c0 -102 -70 -182 -202 -182zM247 87c62 0 94 33 94 87v159c0 53 -32 86 -94 86s-94 -33 -94 -86v-159c0 -54 32 -87 94 -87zM215 707c29 -29 86 -76 86 -100c0 -25 -20 -42 -42 -42
c-17 0 -27 7 -39 20l-75 78c-9 9 -13 18 -13 28c0 24 21 41 40 41c17 0 23 -5 33 -15z" />
    <glyph glyph-name="oacute" unicode="&#xf3;" horiz-adv-x="494" 
d="M247 -8c-132 0 -202 80 -202 182v158c0 103 70 182 202 182s202 -79 202 -182v-158c0 -102 -70 -182 -202 -182zM247 87c62 0 94 33 94 87v159c0 53 -32 86 -94 86s-94 -33 -94 -86v-159c0 -54 32 -87 94 -87zM267 707l10 10c10 10 16 15 33 15c19 0 40 -17 40 -41
c0 -10 -4 -19 -13 -28l-75 -78c-12 -13 -22 -20 -39 -20c-22 0 -42 17 -42 42c0 24 57 71 86 100z" />
    <glyph glyph-name="ocircumflex" unicode="&#xf4;" horiz-adv-x="494" 
d="M247 -8c-132 0 -202 80 -202 182v158c0 103 70 182 202 182s202 -79 202 -182v-158c0 -102 -70 -182 -202 -182zM247 87c62 0 94 33 94 87v159c0 53 -32 86 -94 86s-94 -33 -94 -86v-159c0 -54 32 -87 94 -87zM247 625c-26 -21 -62 -65 -88 -65c-20 0 -43 14 -43 36
c0 16 18 35 32 46l69 55c8 6 17 11 30 11s22 -5 30 -11l69 -55c14 -11 32 -30 32 -46c0 -22 -23 -36 -43 -36c-26 0 -62 44 -88 65z" />
    <glyph glyph-name="otilde" unicode="&#xf5;" horiz-adv-x="494" 
d="M247 -8c-132 0 -202 80 -202 182v158c0 103 70 182 202 182s202 -79 202 -182v-158c0 -102 -70 -182 -202 -182zM247 87c62 0 94 33 94 87v159c0 53 -32 86 -94 86s-94 -33 -94 -86v-159c0 -54 32 -87 94 -87zM394 646c0 -38 -49 -66 -86 -67c-48 0 -76 33 -106 36
c-33 2 -37 -31 -64 -31c-18 0 -38 13 -38 34c0 41 41 72 85 72c49 0 74 -34 106 -36c34 0 35 31 63 32c21 0 40 -17 40 -40z" />
    <glyph glyph-name="odieresis" unicode="&#xf6;" horiz-adv-x="494" 
d="M247 -8c-132 0 -202 80 -202 182v158c0 103 70 182 202 182s202 -79 202 -182v-158c0 -102 -70 -182 -202 -182zM247 87c62 0 94 33 94 87v159c0 53 -32 86 -94 86s-94 -33 -94 -86v-159c0 -54 32 -87 94 -87zM389 634c0 -31 -25 -56 -56 -56s-57 26 -57 56
c0 29 26 54 57 54s56 -24 56 -54zM215 634c0 -31 -25 -56 -57 -56c-31 0 -55 26 -55 56c0 29 24 54 55 54c32 0 57 -24 57 -54z" />
    <glyph glyph-name="oslash" unicode="&#xf8;" horiz-adv-x="494" 
d="M55 21l28 40c-26 30 -38 70 -38 113v158c0 103 70 182 202 182c53 0 96 -13 128 -35l25 35c5 7 13 11 21 11c15 0 27 -14 27 -26c0 -5 -2 -10 -5 -15l-30 -42c23 -30 36 -68 36 -110v-158c0 -102 -70 -181 -202 -181c-52 0 -93 11 -126 32l-23 -34c-5 -7 -13 -11 -22 -11
c-15 0 -26 13 -26 26c0 5 2 10 5 15zM153 176c3 -1 6 -2 9 -2c52 74 103 148 155 221c-16 15 -39 24 -70 24c-62 0 -94 -33 -94 -86v-157zM247 87c62 0 94 33 94 87v139c0 8 0 16 -1 24l-161 -229c16 -14 38 -21 68 -21z" />
    <glyph glyph-name="ugrave" unicode="&#xf9;" horiz-adv-x="529" 
d="M381 32c-45 -29 -94 -40 -140 -40c-113 0 -172 78 -172 193v276c0 28 19 49 54 49c34 0 54 -21 54 -49v-276c0 -64 26 -100 78 -100c30 0 62 10 94 27c-1 9 -2 17 -2 24v325c0 28 18 49 54 49s54 -21 54 -49v-335c0 -35 8 -39 18 -53c6 -7 11 -15 11 -27
c0 -29 -25 -48 -51 -48c-22 0 -39 14 -52 34zM224 707c29 -29 86 -76 86 -100c0 -25 -20 -42 -42 -42c-17 0 -27 7 -39 20l-75 78c-9 9 -13 18 -13 28c0 24 21 41 40 41c17 0 23 -5 33 -15z" />
    <glyph glyph-name="uacute" unicode="&#xfa;" horiz-adv-x="529" 
d="M381 32c-45 -29 -94 -40 -140 -40c-113 0 -172 78 -172 193v276c0 28 19 49 54 49c34 0 54 -21 54 -49v-276c0 -64 26 -100 78 -100c30 0 62 10 94 27c-1 9 -2 17 -2 24v325c0 28 18 49 54 49s54 -21 54 -49v-335c0 -35 8 -39 18 -53c6 -7 11 -15 11 -27
c0 -29 -25 -48 -51 -48c-22 0 -39 14 -52 34zM303 707l10 10c10 10 16 15 33 15c19 0 40 -17 40 -41c0 -10 -4 -19 -13 -28l-75 -78c-12 -13 -22 -20 -39 -20c-22 0 -42 17 -42 42c0 24 57 71 86 100z" />
    <glyph glyph-name="ucircumflex" unicode="&#xfb;" horiz-adv-x="529" 
d="M381 32c-45 -29 -94 -40 -140 -40c-113 0 -172 78 -172 193v276c0 28 19 49 54 49c34 0 54 -21 54 -49v-276c0 -64 26 -100 78 -100c30 0 62 10 94 27c-1 9 -2 17 -2 24v325c0 28 18 49 54 49s54 -21 54 -49v-335c0 -35 8 -39 18 -53c6 -7 11 -15 11 -27
c0 -29 -25 -48 -51 -48c-22 0 -39 14 -52 34zM264 625c-26 -21 -62 -65 -88 -65c-20 0 -43 14 -43 36c0 16 18 35 32 46l69 55c8 6 17 11 30 11s22 -5 30 -11l69 -55c14 -11 32 -30 32 -46c0 -22 -23 -36 -43 -36c-26 0 -62 44 -88 65z" />
    <glyph glyph-name="udieresis" unicode="&#xfc;" horiz-adv-x="529" 
d="M381 32c-45 -29 -94 -40 -140 -40c-113 0 -172 78 -172 193v276c0 28 19 49 54 49c34 0 54 -21 54 -49v-276c0 -64 26 -100 78 -100c30 0 62 10 94 27c-1 9 -2 17 -2 24v325c0 28 18 49 54 49s54 -21 54 -49v-335c0 -35 8 -39 18 -53c6 -7 11 -15 11 -27
c0 -29 -25 -48 -51 -48c-22 0 -39 14 -52 34zM407 634c0 -31 -25 -56 -56 -56s-57 26 -57 56c0 29 26 54 57 54s56 -24 56 -54zM233 634c0 -31 -25 -56 -57 -56c-31 0 -55 26 -55 56c0 29 24 54 55 54c32 0 57 -24 57 -54z" />
    <glyph glyph-name="yacute" unicode="&#xfd;" horiz-adv-x="443" 
d="M426 445l-122 -376c-51 -158 -89 -272 -230 -272c-32 0 -55 21 -55 49c0 24 19 47 51 49c53 0 78 36 106 120l-157 428c-3 7 -3 15 -3 20c0 27 23 47 54 47c20 0 41 -11 49 -34l9 -27c34 -101 68 -201 101 -304c30 112 61 221 95 331c7 23 31 34 51 34
c27 0 54 -20 54 -50c0 -5 -1 -10 -3 -15zM266 707l10 10c10 10 16 15 33 15c19 0 40 -17 40 -41c0 -10 -4 -19 -13 -28l-75 -78c-12 -13 -22 -20 -39 -20c-22 0 -42 17 -42 42c0 24 57 71 86 100z" />
    <glyph glyph-name="thorn" unicode="&#xfe;" horiz-adv-x="510" 
d="M177 388v-250c24 -25 56 -39 97 -39c58 0 83 27 83 73v183c0 45 -25 72 -83 72c-41 0 -73 -14 -97 -39zM69 -167v841c0 26 19 49 54 49c34 0 54 -23 54 -49v-195c34 22 70 34 121 34c120 0 167 -70 167 -161v-178c0 -91 -47 -161 -167 -161c-51 0 -87 13 -121 35v-215
c0 -26 -20 -50 -54 -50c-35 0 -54 24 -54 50z" />
    <glyph glyph-name="ydieresis" unicode="&#xff;" horiz-adv-x="443" 
d="M426 445l-122 -376c-51 -158 -89 -272 -230 -272c-32 0 -55 21 -55 49c0 24 19 47 51 49c53 0 78 36 106 120l-157 428c-3 7 -3 15 -3 20c0 27 23 47 54 47c20 0 41 -11 49 -34l9 -27c34 -101 68 -201 101 -304c30 112 61 221 95 331c7 23 31 34 51 34
c27 0 54 -20 54 -50c0 -5 -1 -10 -3 -15zM364 634c0 -31 -25 -56 -56 -56s-57 26 -57 56c0 29 26 54 57 54s56 -24 56 -54zM190 634c0 -31 -25 -56 -57 -56c-31 0 -55 26 -55 56c0 29 24 54 55 54c32 0 57 -24 57 -54z" />
    <glyph glyph-name="Amacron" unicode="&#x100;" horiz-adv-x="569" 
d="M166 149l-37 -120c-7 -24 -34 -38 -52 -38c-31 0 -57 20 -57 51c0 5 1 15 2 19l195 593c11 34 28 60 67 60s55 -25 67 -60l195 -593c2 -4 3 -14 3 -19c0 -31 -25 -51 -57 -51c-36 0 -48 25 -61 61l-32 97h-233zM284 549c-25 -106 -57 -203 -87 -304h173
c-31 101 -65 200 -86 304zM460 833c0 -24 -21 -43 -46 -43h-259c-27 0 -47 19 -47 43s20 44 47 44h259c25 0 46 -20 46 -44z" />
    <glyph glyph-name="amacron" unicode="&#x101;" horiz-adv-x="502" 
d="M317 289v44c0 59 -30 88 -92 88c-26 0 -42 -6 -59 -13l-19 -8c-6 -3 -17 -5 -26 -5c-29 0 -41 23 -41 44c0 53 77 74 155 74c135 0 190 -71 190 -204v-203c0 -25 10 -29 25 -32c21 -4 30 -17 30 -36c0 -28 -21 -42 -59 -42c-35 0 -61 14 -80 45c-37 -32 -81 -48 -136 -48
c-109 0 -165 61 -165 154v3c0 100 62 151 187 151c31 0 61 -4 90 -12zM230 219c-70 0 -83 -32 -83 -70v-3c0 -40 20 -63 75 -63c34 0 64 10 95 35v90c-29 7 -62 11 -87 11zM415 633c0 -24 -21 -43 -46 -43h-259c-27 0 -47 19 -47 43s20 44 47 44h259c25 0 46 -20 46 -44z
" />
    <glyph glyph-name="Abreve" unicode="&#x102;" horiz-adv-x="569" 
d="M166 149l-37 -120c-7 -24 -34 -38 -52 -38c-31 0 -57 20 -57 51c0 5 1 15 2 19l195 593c11 34 28 60 67 60s55 -25 67 -60l195 -593c2 -4 3 -14 3 -19c0 -31 -25 -51 -57 -51c-36 0 -48 25 -61 61l-32 97h-233zM284 549c-25 -106 -57 -203 -87 -304h173
c-31 101 -65 200 -86 304zM284 839c30 0 47 18 62 36c10 12 20 19 37 19c21 0 44 -11 36 -46c-13 -55 -87 -86 -136 -86c-52 0 -123 34 -135 86c-8 35 15 46 36 46c19 0 29 -10 37 -19c15 -18 32 -36 63 -36z" />
    <glyph glyph-name="abreve" unicode="&#x103;" horiz-adv-x="502" 
d="M317 289v44c0 59 -30 88 -92 88c-26 0 -42 -6 -59 -13l-19 -8c-6 -3 -17 -5 -26 -5c-29 0 -41 23 -41 44c0 53 77 74 155 74c135 0 190 -71 190 -204v-203c0 -25 10 -29 25 -32c21 -4 30 -17 30 -36c0 -28 -21 -42 -59 -42c-35 0 -61 14 -80 45c-37 -32 -81 -48 -136 -48
c-109 0 -165 61 -165 154v3c0 100 62 151 187 151c31 0 61 -4 90 -12zM230 219c-70 0 -83 -32 -83 -70v-3c0 -40 20 -63 75 -63c34 0 64 10 95 35v90c-29 7 -62 11 -87 11zM251 639c30 0 47 18 62 36c10 12 20 19 37 19c21 0 44 -11 36 -46c-13 -55 -87 -86 -136 -86
c-52 0 -123 34 -135 86c-8 35 15 46 36 46c19 0 29 -10 37 -19c15 -18 32 -36 63 -36z" />
    <glyph glyph-name="Aogonek" unicode="&#x104;" horiz-adv-x="569" 
d="M608 -161c0 -40 -51 -46 -86 -46c-67 0 -112 30 -112 96c0 37 19 81 44 117c-27 23 -41 99 -55 143h-233c-24 -77 -41 -156 -93 -156c-28 0 -53 20 -53 49c0 5 1 15 2 19l195 593c11 32 30 60 67 60c30 0 49 -17 59 -43l15 -38l188 -572c2 -4 3 -14 3 -19
c0 -15 -8 -27 -16 -37c-22 -27 -38 -67 -38 -100c0 -20 11 -35 35 -35c18 0 30 4 42 4c20 0 36 -16 36 -35zM284 549c-25 -106 -57 -203 -87 -304h173c-31 101 -65 200 -86 304z" />
    <glyph glyph-name="aogonek" unicode="&#x105;" horiz-adv-x="502" 
d="M535 -161c0 -40 -52 -46 -86 -46c-67 0 -112 30 -112 96c0 36 18 77 46 113c-17 7 -31 20 -42 39c-37 -32 -81 -49 -136 -49c-109 0 -165 62 -165 155v3c0 100 62 151 187 151c31 0 61 -4 90 -12v44c0 60 -30 88 -92 88c-31 0 -49 -8 -70 -18c-6 -2 -17 -9 -32 -9
c-31 0 -43 25 -43 45c-2 53 79 74 155 74c135 0 190 -71 190 -204v-203c0 -25 11 -26 25 -32c17 -8 39 -27 22 -55c-23 -37 -54 -84 -37 -127c8 -21 42 -18 64 -18c20 0 36 -17 36 -35zM230 219c-70 0 -83 -32 -83 -70v-3c0 -40 20 -63 75 -63c34 0 64 10 95 35v90
c-29 7 -62 11 -87 11z" />
    <glyph glyph-name="Cacute" unicode="&#x106;" horiz-adv-x="502" 
d="M40 250v206c0 156 75 258 240 258c98 0 192 -44 192 -96c0 -26 -22 -48 -51 -48c-19 0 -25 7 -40 16l-5 3c-27 19 -56 28 -91 28c-102 0 -135 -62 -135 -161v-206c0 -99 33 -161 135 -161c35 0 64 9 91 27l5 3c15 9 21 16 40 16c29 0 51 -22 51 -47
c0 -53 -94 -96 -192 -96c-165 0 -240 102 -240 258zM312 907l10 10c10 10 16 15 33 15c19 0 40 -17 40 -41c0 -10 -4 -19 -13 -28l-75 -78c-12 -13 -22 -20 -39 -20c-22 0 -42 17 -42 42c0 24 57 71 86 100z" />
    <glyph glyph-name="cacute" unicode="&#x107;" horiz-adv-x="418" 
d="M45 180v143c0 105 59 187 193 187c53 0 155 -14 155 -74c0 -21 -14 -42 -48 -42c-8 0 -15 1 -25 4c-22 10 -41 20 -74 20c-67 0 -93 -35 -93 -95v-143c0 -60 26 -96 93 -96c33 0 52 10 74 20c8 3 14 5 24 5c35 0 49 -22 49 -43c0 -59 -102 -74 -156 -74
c-133 0 -192 83 -192 188zM257 707l10 10c10 10 16 15 33 15c19 0 40 -17 40 -41c0 -10 -4 -19 -13 -28l-75 -78c-12 -13 -22 -20 -39 -20c-22 0 -42 17 -42 42c0 24 57 71 86 100z" />
    <glyph glyph-name="Ccircumflex" unicode="&#x108;" horiz-adv-x="502" 
d="M40 250v206c0 156 75 258 240 258c98 0 192 -44 192 -96c0 -26 -22 -48 -51 -48c-19 0 -25 7 -40 16l-5 3c-27 19 -56 28 -91 28c-102 0 -135 -62 -135 -161v-206c0 -99 33 -161 135 -161c35 0 64 9 91 27l5 3c15 9 21 16 40 16c29 0 51 -22 51 -47
c0 -53 -94 -96 -192 -96c-165 0 -240 102 -240 258zM264 825c-26 -21 -62 -65 -88 -65c-20 0 -43 14 -43 36c0 16 18 35 32 46l69 55c8 6 17 11 30 11s22 -5 30 -11l69 -55c14 -11 32 -30 32 -46c0 -22 -23 -36 -43 -36c-26 0 -62 44 -88 65z" />
    <glyph glyph-name="ccircumflex" unicode="&#x109;" horiz-adv-x="418" 
d="M45 180v143c0 105 59 187 193 187c53 0 155 -14 155 -74c0 -21 -14 -42 -48 -42c-8 0 -15 1 -25 4c-22 10 -41 20 -74 20c-67 0 -93 -35 -93 -95v-143c0 -60 26 -96 93 -96c33 0 52 10 74 20c8 3 14 5 24 5c35 0 49 -22 49 -43c0 -59 -102 -74 -156 -74
c-133 0 -192 83 -192 188zM226 625c-26 -21 -62 -65 -88 -65c-20 0 -43 14 -43 36c0 16 18 35 32 46l69 55c8 6 17 11 30 11s22 -5 30 -11l69 -55c14 -11 32 -30 32 -46c0 -22 -23 -36 -43 -36c-26 0 -62 44 -88 65z" />
    <glyph glyph-name="Cdotaccent" unicode="&#x10a;" horiz-adv-x="502" 
d="M40 250v206c0 156 75 258 240 258c98 0 192 -44 192 -96c0 -26 -22 -48 -51 -48c-19 0 -25 7 -40 16l-5 3c-27 19 -56 28 -91 28c-102 0 -135 -62 -135 -161v-206c0 -99 33 -161 135 -161c35 0 64 9 91 27l5 3c15 9 21 16 40 16c29 0 51 -22 51 -47
c0 -53 -94 -96 -192 -96c-165 0 -240 102 -240 258zM307 827c0 -31 -25 -56 -57 -56c-31 0 -55 26 -55 56c0 29 24 54 55 54c32 0 57 -24 57 -54z" />
    <glyph glyph-name="cdotaccent" unicode="&#x10b;" horiz-adv-x="418" 
d="M45 180v143c0 105 59 187 193 187c53 0 155 -14 155 -74c0 -21 -14 -42 -48 -42c-8 0 -15 1 -25 4c-22 10 -41 20 -74 20c-67 0 -93 -35 -93 -95v-143c0 -60 26 -96 93 -96c33 0 52 10 74 20c8 3 14 5 24 5c35 0 49 -22 49 -43c0 -59 -102 -74 -156 -74
c-133 0 -192 83 -192 188zM264 627c0 -31 -25 -56 -57 -56c-31 0 -55 26 -55 56c0 29 24 54 55 54c32 0 57 -24 57 -54z" />
    <glyph glyph-name="Ccaron" unicode="&#x10c;" horiz-adv-x="502" 
d="M40 250v206c0 156 75 258 240 258c98 0 192 -44 192 -96c0 -26 -22 -48 -51 -48c-19 0 -25 7 -40 16l-5 3c-27 19 -56 28 -91 28c-102 0 -135 -62 -135 -161v-206c0 -99 33 -161 135 -161c35 0 64 9 91 27l5 3c15 9 21 16 40 16c29 0 51 -22 51 -47
c0 -53 -94 -96 -192 -96c-165 0 -240 102 -240 258zM282 842c29 23 59 68 93 68c24 0 44 -13 44 -37c0 -13 -6 -22 -16 -32c-23 -23 -90 -85 -121 -85s-98 62 -121 85c-10 10 -16 19 -16 32c0 24 20 37 44 37c34 0 64 -45 93 -68z" />
    <glyph glyph-name="ccaron" unicode="&#x10d;" horiz-adv-x="418" 
d="M45 180v143c0 105 59 187 193 187c53 0 155 -14 155 -74c0 -21 -14 -42 -48 -42c-8 0 -15 1 -25 4c-22 10 -41 20 -74 20c-67 0 -93 -35 -93 -95v-143c0 -60 26 -96 93 -96c33 0 52 10 74 20c8 3 14 5 24 5c35 0 49 -22 49 -43c0 -59 -102 -74 -156 -74
c-133 0 -192 83 -192 188zM237 642c29 23 59 68 93 68c24 0 44 -13 44 -37c0 -13 -6 -22 -16 -32c-23 -23 -90 -85 -121 -85s-98 62 -121 85c-10 10 -16 19 -16 32c0 24 20 37 44 37c34 0 64 -45 93 -68z" />
    <glyph glyph-name="Dcaron" unicode="&#x10e;" horiz-adv-x="574" 
d="M533 267c0 -139 -73 -267 -289 -267h-113c-34 0 -63 27 -63 60v586c0 32 29 60 63 60h113c215 0 289 -123 289 -259v-180zM423 267v180c0 87 -43 156 -162 156h-83v-501h83c121 0 162 74 162 165zM287 842c29 23 59 68 93 68c24 0 44 -13 44 -37c0 -13 -6 -22 -16 -32
c-23 -23 -90 -85 -121 -85s-98 62 -121 85c-10 10 -16 19 -16 32c0 24 20 37 44 37c34 0 64 -45 93 -68z" />
    <glyph glyph-name="dcaron" unicode="&#x10f;" horiz-adv-x="657" 
d="M223 509c32 0 64 -5 100 -19v184c0 27 19 49 54 49c34 0 54 -22 54 -49v-553c0 -21 6 -33 22 -47c7 -8 11 -16 11 -27c0 -31 -26 -48 -50 -48s-43 14 -57 35c-46 -25 -91 -42 -141 -42c-111 0 -171 78 -171 193v120c0 119 43 204 178 204zM323 131v270
c-32 12 -67 17 -87 17c-61 0 -83 -36 -83 -113v-120c0 -65 26 -100 81 -100c26 0 58 9 91 25c-2 8 -2 15 -2 21zM516 504c1 33 25 48 35 91c-33 5 -57 32 -57 65c0 35 30 65 69 65c36 0 68 -28 68 -67c0 -64 -47 -185 -85 -185c-13 0 -33 5 -30 31z" />
    <glyph glyph-name="Dcroat" unicode="&#x110;" horiz-adv-x="595" 
d="M554 267c0 -139 -73 -267 -289 -267h-113c-34 0 -63 27 -63 60v244h-24c-29 0 -52 22 -52 49c0 26 23 49 52 49h24v243c0 33 29 60 63 60h113c215 0 289 -122 289 -258v-180zM365 353c0 -27 -22 -49 -51 -49h-115v-202h83c121 0 162 74 162 165v180
c0 87 -43 156 -162 156h-83v-201h115c29 0 51 -23 51 -49z" />
    <glyph glyph-name="dcroat" unicode="&#x111;" horiz-adv-x="540" 
d="M223 509c32 0 64 -5 100 -19v69h-100c-24 0 -42 19 -42 43c0 23 18 43 42 43h100v29c0 27 19 49 54 49c34 0 54 -22 54 -49v-29h56c22 0 41 -20 41 -43s-19 -43 -41 -43h-56v-438c0 -21 6 -33 22 -47c7 -8 11 -16 11 -27c0 -31 -26 -48 -50 -48s-43 14 -57 35
c-46 -25 -91 -42 -141 -42c-111 0 -171 78 -171 193v120c0 119 43 204 178 204zM323 131v270c-32 12 -67 17 -87 17c-61 0 -83 -36 -83 -113v-120c0 -65 26 -100 81 -100c26 0 58 9 91 25c-2 8 -2 15 -2 21z" />
    <glyph glyph-name="Emacron" unicode="&#x112;" horiz-adv-x="494" 
d="M466 53c0 -30 -25 -53 -55 -53h-265c-41 0 -78 14 -78 59v587c0 29 26 59 62 59h271c30 0 55 -24 55 -53s-25 -50 -55 -50h-223v-197h204c27 0 54 -22 54 -51s-24 -52 -54 -52h-204v-200h233c29 0 55 -22 55 -49zM423 833c0 -24 -21 -43 -46 -43h-259
c-27 0 -47 19 -47 43s20 44 47 44h259c25 0 46 -20 46 -44z" />
    <glyph glyph-name="emacron" unicode="&#x113;" horiz-adv-x="460" 
d="M242 197c-28 0 -57 2 -89 7v-46c0 -45 31 -74 94 -74c37 0 64 10 97 25c3 2 10 5 22 5c34 0 49 -25 49 -45c0 -60 -118 -77 -177 -77c-123 0 -193 74 -193 171v177c0 98 69 173 198 173c121 0 181 -66 181 -166c0 -94 -55 -150 -182 -150zM317 350c0 53 -27 74 -76 74
c-56 0 -88 -30 -88 -78v-59c34 -4 73 -6 88 -6c57 0 76 27 76 69zM405 633c0 -24 -21 -43 -46 -43h-259c-27 0 -47 19 -47 43s20 44 47 44h259c25 0 46 -20 46 -44z" />
    <glyph glyph-name="Ebreve" unicode="&#x114;" horiz-adv-x="494" 
d="M466 53c0 -30 -25 -53 -55 -53h-265c-41 0 -78 14 -78 59v587c0 29 26 59 62 59h271c30 0 55 -24 55 -53s-25 -50 -55 -50h-223v-197h204c27 0 54 -22 54 -51s-24 -52 -54 -52h-204v-200h233c29 0 55 -22 55 -49zM247 839c30 0 47 18 62 36c10 12 20 19 37 19
c21 0 44 -11 36 -46c-13 -55 -87 -86 -136 -86c-52 0 -123 34 -135 86c-8 35 15 46 36 46c19 0 29 -10 37 -19c15 -18 32 -36 63 -36z" />
    <glyph glyph-name="ebreve" unicode="&#x115;" horiz-adv-x="460" 
d="M242 197c-28 0 -57 2 -89 7v-46c0 -45 31 -74 94 -74c37 0 64 10 97 25c3 2 10 5 22 5c34 0 49 -25 49 -45c0 -60 -118 -77 -177 -77c-123 0 -193 74 -193 171v177c0 98 69 173 198 173c121 0 181 -66 181 -166c0 -94 -55 -150 -182 -150zM317 350c0 53 -27 74 -76 74
c-56 0 -88 -30 -88 -78v-59c34 -4 73 -6 88 -6c57 0 76 27 76 69zM229 639c30 0 47 18 62 36c10 12 20 19 37 19c21 0 44 -11 36 -46c-13 -55 -87 -86 -136 -86c-52 0 -123 34 -135 86c-8 35 15 46 36 46c19 0 29 -10 37 -19c15 -18 32 -36 63 -36z" />
    <glyph glyph-name="Edotaccent" unicode="&#x116;" horiz-adv-x="494" 
d="M466 53c0 -30 -25 -53 -55 -53h-265c-41 0 -78 14 -78 59v587c0 29 26 59 62 59h271c30 0 55 -24 55 -53s-25 -50 -55 -50h-223v-197h204c27 0 54 -22 54 -51s-24 -52 -54 -52h-204v-200h233c29 0 55 -22 55 -49zM303 827c0 -31 -25 -56 -57 -56c-31 0 -55 26 -55 56
c0 29 24 54 55 54c32 0 57 -24 57 -54z" />
    <glyph glyph-name="edotaccent" unicode="&#x117;" horiz-adv-x="460" 
d="M242 197c-28 0 -57 2 -89 7v-46c0 -45 31 -74 94 -74c37 0 64 10 97 25c3 2 10 5 22 5c34 0 49 -25 49 -45c0 -60 -118 -77 -177 -77c-123 0 -193 74 -193 171v177c0 98 69 173 198 173c121 0 181 -66 181 -166c0 -94 -55 -150 -182 -150zM317 350c0 53 -27 74 -76 74
c-56 0 -88 -30 -88 -78v-59c34 -4 73 -6 88 -6c57 0 76 27 76 69zM285 627c0 -31 -25 -56 -57 -56c-31 0 -55 26 -55 56c0 29 24 54 55 54c32 0 57 -24 57 -54z" />
    <glyph glyph-name="Eogonek" unicode="&#x118;" horiz-adv-x="494" 
d="M486 -161c0 -40 -52 -46 -86 -46c-67 0 -112 30 -112 96c0 36 17 76 42 111h-164c-48 0 -98 6 -98 59v587c0 29 26 59 62 59h271c19 0 55 -27 55 -53c0 -29 -25 -50 -55 -50h-223v-197h204c17 0 54 -24 54 -51c0 -29 -24 -52 -54 -52h-204v-200h233c26 0 55 -23 55 -49
c0 -30 -25 -53 -55 -53l-20 -37c-10 -19 -17 -42 -18 -58c0 -20 11 -35 35 -35c17 0 30 4 42 4c20 0 36 -16 36 -35z" />
    <glyph glyph-name="eogonek" unicode="&#x119;" horiz-adv-x="460" 
d="M424 -161c0 -40 -52 -46 -86 -46c-67 0 -112 30 -112 96c0 34 14 71 38 105c-10 0 -19 -1 -26 -1c-135 0 -193 82 -193 188v159c0 98 69 173 198 173c121 0 181 -66 181 -166c0 -94 -55 -150 -182 -150c-28 0 -57 2 -89 7v-46c0 -44 31 -74 94 -74c37 0 64 10 97 25
c3 2 10 5 22 5c28 0 49 -23 49 -45c0 -23 -21 -35 -42 -49c-47 -32 -62 -71 -62 -115c0 -20 11 -35 35 -35c17 0 30 4 42 4c20 0 36 -16 36 -35zM317 350c0 53 -27 74 -76 74c-56 0 -88 -30 -88 -78v-59c34 -4 73 -6 88 -6c57 0 76 27 76 69z" />
    <glyph glyph-name="Ecaron" unicode="&#x11a;" horiz-adv-x="494" 
d="M466 53c0 -30 -25 -53 -55 -53h-265c-41 0 -78 14 -78 59v587c0 29 26 59 62 59h271c30 0 55 -24 55 -53s-25 -50 -55 -50h-223v-197h204c27 0 54 -22 54 -51s-24 -52 -54 -52h-204v-200h233c29 0 55 -22 55 -49zM274 842c29 23 59 68 93 68c24 0 44 -13 44 -37
c0 -13 -6 -22 -16 -32c-23 -23 -90 -85 -121 -85s-98 62 -121 85c-10 10 -16 19 -16 32c0 24 20 37 44 37c34 0 64 -45 93 -68z" />
    <glyph glyph-name="ecaron" unicode="&#x11b;" horiz-adv-x="460" 
d="M242 197c-28 0 -57 2 -89 7v-46c0 -45 31 -74 94 -74c37 0 64 10 97 25c3 2 10 5 22 5c34 0 49 -25 49 -45c0 -60 -118 -77 -177 -77c-123 0 -193 74 -193 171v177c0 98 69 173 198 173c121 0 181 -66 181 -166c0 -94 -55 -150 -182 -150zM317 350c0 53 -27 74 -76 74
c-56 0 -88 -30 -88 -78v-59c34 -4 73 -6 88 -6c57 0 76 27 76 69zM229 642c29 23 59 68 93 68c24 0 44 -13 44 -37c0 -13 -6 -22 -16 -32c-23 -23 -90 -85 -121 -85s-98 62 -121 85c-10 10 -16 19 -16 32c0 24 20 37 44 37c34 0 64 -45 93 -68z" />
    <glyph glyph-name="Gcircumflex" unicode="&#x11c;" horiz-adv-x="540" 
d="M150 456v-206c0 -99 33 -161 135 -161c41 0 71 11 98 29v185h-75c-26 0 -50 23 -50 51s24 50 50 50h114c37 0 70 -19 70 -58v-230c0 -87 -116 -124 -212 -124c-165 0 -240 102 -240 258v206c0 156 75 258 240 258c98 0 192 -44 192 -96c0 -26 -22 -48 -51 -48
c-19 0 -25 7 -40 16l-5 3c-27 18 -56 28 -91 28c-102 0 -135 -62 -135 -161zM270 825c-26 -21 -62 -65 -88 -65c-20 0 -43 14 -43 36c0 16 18 35 32 46l69 55c8 6 17 11 30 11s22 -5 30 -11l69 -55c14 -11 32 -30 32 -46c0 -22 -23 -36 -43 -36c-26 0 -62 44 -88 65z" />
    <glyph glyph-name="gcircumflex" unicode="&#x11d;" horiz-adv-x="513" 
d="M236 513c49 0 92 -12 133 -34c24 39 59 57 84 57s51 -21 51 -47c0 -13 -7 -23 -12 -28l-15 -15c-26 -26 -35 -37 -34 -67v-59c0 -103 -65 -181 -198 -181c-23 0 -47 2 -67 9c-7 -15 -9 -25 -9 -35c0 -31 24 -38 41 -38h42c122 0 215 -47 215 -150s-93 -167 -220 -167
c-122 0 -207 59 -207 158c0 44 18 79 58 114c-19 26 -25 58 -25 80s8 50 33 77c-39 35 -59 83 -59 140c0 106 65 186 189 186zM335 350c0 16 0 33 1 49c-29 15 -56 24 -86 24c-63 0 -95 -35 -95 -98c0 -58 27 -96 92 -96c60 0 88 34 88 89v32zM233 -17c-21 0 -41 2 -59 3
c-18 -18 -26 -36 -26 -60c0 -48 33 -76 101 -76c64 0 110 25 110 73c0 41 -34 60 -105 60h-21zM256 625c-26 -21 -62 -65 -88 -65c-20 0 -43 14 -43 36c0 16 18 35 32 46l69 55c8 6 17 11 30 11s22 -5 30 -11l69 -55c14 -11 32 -30 32 -46c0 -22 -23 -36 -43 -36
c-26 0 -62 44 -88 65z" />
    <glyph glyph-name="Gbreve" unicode="&#x11e;" horiz-adv-x="540" 
d="M150 456v-206c0 -99 33 -161 135 -161c41 0 71 11 98 29v185h-75c-26 0 -50 23 -50 51s24 50 50 50h114c37 0 70 -19 70 -58v-230c0 -87 -116 -124 -212 -124c-165 0 -240 102 -240 258v206c0 156 75 258 240 258c98 0 192 -44 192 -96c0 -26 -22 -48 -51 -48
c-19 0 -25 7 -40 16l-5 3c-27 18 -56 28 -91 28c-102 0 -135 -62 -135 -161zM270 839c30 0 47 18 62 36c10 12 20 19 37 19c21 0 44 -11 36 -46c-13 -55 -87 -86 -136 -86c-52 0 -123 34 -135 86c-8 35 15 46 36 46c19 0 29 -10 37 -19c15 -18 32 -36 63 -36z" />
    <glyph glyph-name="gbreve" unicode="&#x11f;" horiz-adv-x="513" 
d="M236 513c49 0 92 -12 133 -34c24 39 59 57 84 57s51 -21 51 -47c0 -13 -7 -23 -12 -28l-15 -15c-26 -26 -35 -37 -34 -67v-59c0 -103 -65 -181 -198 -181c-23 0 -47 2 -67 9c-7 -15 -9 -25 -9 -35c0 -31 24 -38 41 -38h42c122 0 215 -47 215 -150s-93 -167 -220 -167
c-122 0 -207 59 -207 158c0 44 18 79 58 114c-19 26 -25 58 -25 80s8 50 33 77c-39 35 -59 83 -59 140c0 106 65 186 189 186zM335 350c0 16 0 33 1 49c-29 15 -56 24 -86 24c-63 0 -95 -35 -95 -98c0 -58 27 -96 92 -96c60 0 88 34 88 89v32zM233 -17c-21 0 -41 2 -59 3
c-18 -18 -26 -36 -26 -60c0 -48 33 -76 101 -76c64 0 110 25 110 73c0 41 -34 60 -105 60h-21zM256 639c30 0 47 18 62 36c10 12 20 19 37 19c21 0 44 -11 36 -46c-13 -55 -87 -86 -136 -86c-52 0 -123 34 -135 86c-8 35 15 46 36 46c19 0 29 -10 37 -19
c15 -18 32 -36 63 -36z" />
    <glyph glyph-name="Gdotaccent" unicode="&#x120;" horiz-adv-x="540" 
d="M150 456v-206c0 -99 33 -161 135 -161c41 0 71 11 98 29v185h-75c-26 0 -50 23 -50 51s24 50 50 50h114c37 0 70 -19 70 -58v-230c0 -87 -116 -124 -212 -124c-165 0 -240 102 -240 258v206c0 156 75 258 240 258c98 0 192 -44 192 -96c0 -26 -22 -48 -51 -48
c-19 0 -25 7 -40 16l-5 3c-27 18 -56 28 -91 28c-102 0 -135 -62 -135 -161zM326 827c0 -31 -25 -56 -57 -56c-31 0 -55 26 -55 56c0 29 24 54 55 54c32 0 57 -24 57 -54z" />
    <glyph glyph-name="gdotaccent" unicode="&#x121;" horiz-adv-x="513" 
d="M236 513c49 0 92 -12 133 -34c24 39 59 57 84 57s51 -21 51 -47c0 -13 -7 -23 -12 -28l-15 -15c-26 -26 -35 -37 -34 -67v-59c0 -103 -65 -181 -198 -181c-23 0 -47 2 -67 9c-7 -15 -9 -25 -9 -35c0 -31 24 -38 41 -38h42c122 0 215 -47 215 -150s-93 -167 -220 -167
c-122 0 -207 59 -207 158c0 44 18 79 58 114c-19 26 -25 58 -25 80s8 50 33 77c-39 35 -59 83 -59 140c0 106 65 186 189 186zM335 350c0 16 0 33 1 49c-29 15 -56 24 -86 24c-63 0 -95 -35 -95 -98c0 -58 27 -96 92 -96c60 0 88 34 88 89v32zM233 -17c-21 0 -41 2 -59 3
c-18 -18 -26 -36 -26 -60c0 -48 33 -76 101 -76c64 0 110 25 110 73c0 41 -34 60 -105 60h-21zM312 627c0 -31 -25 -56 -57 -56c-31 0 -55 26 -55 56c0 29 24 54 55 54c32 0 57 -24 57 -54z" />
    <glyph glyph-name="uni0122" unicode="&#x122;" horiz-adv-x="540" 
d="M150 456v-206c0 -99 33 -161 135 -161c41 0 71 11 98 29v185h-75c-26 0 -50 23 -50 51s24 50 50 50h114c37 0 70 -19 70 -58v-230c0 -87 -116 -124 -212 -124c-165 0 -240 102 -240 258v206c0 156 75 258 240 258c98 0 192 -44 192 -96c0 -26 -22 -48 -51 -48
c-19 0 -25 7 -40 16l-5 3c-27 18 -56 28 -91 28c-102 0 -135 -62 -135 -161zM344 -104c0 -55 -55 -134 -87 -134c-9 0 -18 5 -18 17c0 21 25 34 37 62c-34 2 -59 17 -59 54c0 31 20 54 63 54c44 0 64 -24 64 -53z" />
    <glyph glyph-name="uni0123" unicode="&#x123;" horiz-adv-x="513" 
d="M236 513c49 0 92 -12 133 -34c24 39 59 57 84 57s51 -21 51 -47c0 -13 -7 -23 -12 -28l-15 -15c-26 -26 -35 -37 -34 -67v-59c0 -103 -65 -181 -198 -181c-23 0 -47 2 -67 9c-7 -15 -9 -25 -9 -35c0 -31 24 -38 41 -38h42c122 0 215 -47 215 -150s-93 -167 -220 -167
c-122 0 -207 59 -207 158c0 44 18 79 58 114c-19 26 -25 58 -25 80s8 50 33 77c-39 35 -59 83 -59 140c0 106 65 186 189 186zM335 350c0 16 0 33 1 49c-29 15 -56 24 -86 24c-63 0 -95 -35 -95 -98c0 -58 27 -96 92 -96c60 0 88 34 88 89v32zM233 -17c-21 0 -41 2 -59 3
c-18 -18 -26 -36 -26 -60c0 -48 33 -76 101 -76c64 0 110 25 110 73c0 41 -34 60 -105 60h-21zM183 621c0 55 55 134 87 134c9 0 18 -5 18 -17c0 -22 -25 -34 -37 -62c34 -2 59 -18 59 -54c0 -31 -20 -54 -63 -54c-44 0 -64 24 -64 53z" />
    <glyph glyph-name="Hcircumflex" unicode="&#x124;" horiz-adv-x="600" 
d="M531 43c0 -28 -25 -53 -55 -53c-29 0 -55 25 -55 53v258h-243v-258c0 -28 -25 -53 -55 -53c-31 0 -55 25 -55 53v619c0 28 24 52 55 52c30 0 55 -24 55 -52v-258h243v258c0 28 26 52 55 52s55 -24 55 -52v-619zM300 825c-26 -21 -62 -65 -88 -65c-20 0 -43 14 -43 36
c0 16 18 35 32 46l69 55c8 6 17 11 30 11s22 -5 30 -11l69 -55c14 -11 32 -30 32 -46c0 -22 -23 -36 -43 -36c-26 0 -62 44 -88 65z" />
    <glyph glyph-name="Itilde" unicode="&#x128;" horiz-adv-x="247" 
d="M68 42v620c0 28 24 52 55 52c30 0 55 -24 55 -52v-620c0 -27 -25 -52 -55 -52c-31 0 -55 25 -55 52zM271 846c0 -38 -49 -66 -86 -67c-48 0 -76 33 -106 36c-33 2 -37 -31 -64 -31c-18 0 -38 13 -38 34c0 41 41 72 85 72c49 0 74 -34 106 -36c34 0 35 31 63 32
c21 0 40 -17 40 -40z" />
    <glyph glyph-name="itilde" unicode="&#x129;" horiz-adv-x="265" 
d="M280 646c0 -38 -49 -66 -86 -67c-48 0 -76 33 -106 36c-33 2 -37 -31 -64 -31c-18 0 -38 13 -38 34c0 41 41 72 85 72c49 0 74 -34 106 -36c34 0 35 31 63 32c21 0 40 -17 40 -40zM186 43c0 -29 -24 -51 -54 -51c-31 0 -54 22 -54 51v417c0 27 23 50 54 50
c30 0 54 -23 54 -50v-417z" />
    <glyph glyph-name="Imacron" unicode="&#x12a;" horiz-adv-x="247" 
d="M68 42v620c0 28 24 52 55 52c30 0 55 -24 55 -52v-620c0 -27 -25 -52 -55 -52c-31 0 -55 25 -55 52zM300 833c0 -24 -21 -43 -46 -43h-259c-27 0 -47 19 -47 43s20 44 47 44h259c25 0 46 -20 46 -44z" />
    <glyph glyph-name="imacron" unicode="&#x12b;" horiz-adv-x="265" 
d="M309 633c0 -24 -21 -43 -46 -43h-259c-27 0 -47 19 -47 43s20 44 47 44h259c25 0 46 -20 46 -44zM186 43c0 -29 -24 -51 -54 -51c-31 0 -54 22 -54 51v417c0 27 23 50 54 50c30 0 54 -23 54 -50v-417z" />
    <glyph glyph-name="Ibreve" unicode="&#x12c;" horiz-adv-x="247" 
d="M68 42v620c0 28 24 52 55 52c30 0 55 -24 55 -52v-620c0 -27 -25 -52 -55 -52c-31 0 -55 25 -55 52zM124 839c30 0 47 18 62 36c10 12 20 19 37 19c21 0 44 -11 36 -46c-13 -55 -87 -86 -136 -86c-52 0 -123 34 -135 86c-8 35 15 46 36 46c19 0 29 -10 37 -19
c15 -18 32 -36 63 -36z" />
    <glyph glyph-name="ibreve" unicode="&#x12d;" horiz-adv-x="265" 
d="M133 639c30 0 47 18 62 36c10 12 20 19 37 19c21 0 44 -11 36 -46c-13 -55 -87 -86 -136 -86c-52 0 -123 34 -135 86c-8 35 15 46 36 46c19 0 29 -10 37 -19c15 -18 32 -36 63 -36zM186 43c0 -29 -24 -51 -54 -51c-31 0 -54 22 -54 51v417c0 27 23 50 54 50
c30 0 54 -23 54 -50v-417z" />
    <glyph glyph-name="Iogonek" unicode="&#x12e;" horiz-adv-x="247" 
d="M233 -161c0 -40 -51 -46 -86 -46c-67 0 -112 30 -112 96c0 38 19 80 49 116c-10 10 -16 23 -16 37v620c0 28 24 52 55 52c30 0 55 -24 55 -52v-595c0 -31 -14 -52 -29 -79c-17 -24 -29 -57 -29 -83c0 -20 11 -35 35 -35c18 0 30 4 42 4c20 0 36 -16 36 -35z" />
    <glyph glyph-name="iogonek" unicode="&#x12f;" horiz-adv-x="265" 
d="M239 -161c0 -40 -51 -46 -86 -46c-67 0 -112 30 -112 96c0 38 21 81 52 118c-10 9 -15 22 -15 36v399c0 36 14 68 54 68c30 0 54 -23 54 -50v-380c-1 -38 -8 -61 -30 -92c-17 -25 -30 -56 -30 -83c0 -20 11 -35 35 -35c18 0 30 4 42 4c20 0 36 -16 36 -35zM195 656
c0 -33 -28 -59 -63 -59c-36 0 -63 27 -63 59c0 33 27 59 63 59c35 0 63 -27 63 -59z" />
    <glyph glyph-name="Idotaccent" unicode="&#x130;" horiz-adv-x="247" 
d="M68 42v620c0 28 24 52 55 52c30 0 55 -24 55 -52v-620c0 -27 -25 -52 -55 -52c-31 0 -55 25 -55 52zM180 827c0 -31 -25 -56 -57 -56c-31 0 -55 26 -55 56c0 29 24 54 55 54c32 0 57 -24 57 -54z" />
    <glyph glyph-name="dotlessi" unicode="&#x131;" horiz-adv-x="265" 
d="M186 43c0 -29 -24 -51 -54 -51c-31 0 -54 22 -54 51v417c0 27 23 50 54 50c30 0 54 -23 54 -50v-417z" />
    <glyph glyph-name="Jcircumflex" unicode="&#x134;" horiz-adv-x="405" 
d="M337 662v-432c0 -149 -51 -240 -217 -240c-33 0 -100 4 -100 57c0 33 28 51 50 51c17 0 33 -6 61 -6c79 0 96 53 96 138v432c0 29 23 52 55 52c29 0 55 -24 55 -52zM281 825c-26 -21 -62 -65 -88 -65c-20 0 -43 14 -43 36c0 16 18 35 32 46l69 55c8 6 17 11 30 11
s22 -5 30 -11l69 -55c14 -11 32 -30 32 -46c0 -22 -23 -36 -43 -36c-26 0 -62 44 -88 65z" />
    <glyph glyph-name="jcircumflex" unicode="&#x135;" horiz-adv-x="265" 
d="M186 467v-467c0 -113 -64 -195 -175 -195c-23 0 -42 14 -47 36v-1c-1 5 -2 10 -2 14c0 28 25 41 43 45c45 10 73 35 73 97v471c0 28 23 51 54 51c30 0 54 -23 54 -51zM133 625c-26 -21 -62 -65 -88 -65c-20 0 -43 14 -43 36c0 16 18 35 32 46l69 55c8 6 17 11 30 11
s22 -5 30 -11l69 -55c14 -11 32 -30 32 -46c0 -22 -23 -36 -43 -36c-26 0 -62 44 -88 65z" />
    <glyph glyph-name="uni0136" unicode="&#x136;" horiz-adv-x="527" 
d="M417 14l-205 288l-34 -41v-218c0 -28 -25 -52 -55 -52c-31 0 -55 24 -55 52v619c0 28 24 52 55 52c30 0 55 -24 55 -52v-240l225 268c10 12 28 24 47 24c22 0 52 -20 52 -51c0 -12 -3 -23 -13 -35l-207 -244c75 -104 150 -208 226 -312c7 -10 8 -18 8 -27
c0 -24 -17 -54 -53 -54c-19 0 -35 7 -46 23zM360 -104c0 -55 -55 -134 -87 -134c-9 0 -18 5 -18 17c0 21 25 34 37 62c-34 2 -59 17 -59 54c0 31 20 54 63 54c44 0 64 -24 64 -53z" />
    <glyph glyph-name="uni0137" unicode="&#x137;" horiz-adv-x="463" 
d="M177 673v-345l144 153c13 14 29 28 51 28c29 0 52 -20 52 -47c0 -13 -5 -25 -14 -34l-135 -140c53 -74 106 -148 158 -222c6 -8 9 -21 9 -30c-2 -27 -24 -43 -52 -43c-31 0 -37 11 -58 42l-132 190c-8 -7 -15 -16 -23 -23v-137c0 -37 -12 -72 -54 -72
c-31 0 -54 21 -54 50v605c0 39 9 75 54 75c30 0 54 -22 54 -50zM323 -104c0 -55 -55 -134 -87 -134c-9 0 -18 5 -18 17c0 21 25 34 37 62c-34 2 -59 17 -59 54c0 31 20 54 63 54c44 0 64 -24 64 -53z" />
    <glyph glyph-name="Lacute" unicode="&#x139;" horiz-adv-x="475" 
d="M463 51c0 -29 -24 -51 -53 -51h-282c-32 0 -60 25 -60 57v605c0 28 24 52 55 52c30 0 55 -24 55 -52v-561h232c28 0 53 -22 53 -50zM183 907l10 10c10 10 16 15 33 15c19 0 40 -17 40 -41c0 -10 -4 -19 -13 -28l-75 -78c-12 -13 -22 -20 -39 -20c-22 0 -42 17 -42 42
c0 24 57 71 86 100z" />
    <glyph glyph-name="lacute" unicode="&#x13a;" horiz-adv-x="248" 
d="M148 -8c-32 0 -79 13 -79 110v571c0 27 23 50 54 50c30 0 54 -22 54 -50v-565c0 -21 1 -30 14 -44c7 -7 13 -13 13 -27c0 -28 -22 -45 -56 -45zM164 903l10 10c10 10 16 15 33 15c19 0 40 -17 40 -41c0 -10 -4 -19 -13 -28l-75 -78c-12 -13 -22 -20 -39 -20
c-22 0 -42 17 -42 42c0 24 57 71 86 100z" />
    <glyph glyph-name="uni013B" unicode="&#x13b;" horiz-adv-x="475" 
d="M463 51c0 -29 -24 -51 -53 -51h-282c-32 0 -60 25 -60 57v605c0 28 24 52 55 52c30 0 55 -24 55 -52v-561h232c28 0 53 -22 53 -50zM324 -104c0 -55 -55 -134 -87 -134c-9 0 -18 5 -18 17c0 21 25 34 37 62c-34 2 -59 17 -59 54c0 31 20 54 63 54c44 0 64 -24 64 -53z
" />
    <glyph glyph-name="uni013C" unicode="&#x13c;" horiz-adv-x="248" 
d="M148 -8c-32 0 -79 13 -79 110v571c0 27 23 50 54 50c30 0 54 -22 54 -50v-565c0 -21 1 -30 14 -44c7 -7 13 -13 13 -27c0 -28 -22 -45 -56 -45zM188 -104c0 -55 -55 -134 -87 -134c-9 0 -18 5 -18 17c0 21 25 34 37 62c-34 2 -59 17 -59 54c0 31 20 54 63 54
c44 0 64 -24 64 -53z" />
    <glyph glyph-name="Lcaron" unicode="&#x13d;" horiz-adv-x="475" 
d="M463 51c0 -29 -24 -51 -53 -51h-282c-32 0 -60 25 -60 57v605c0 28 24 52 55 52c30 0 55 -24 55 -52v-561h232c28 0 53 -22 53 -50zM312 504c1 33 25 48 35 91c-33 5 -57 32 -57 65c0 35 30 65 69 65c36 0 68 -28 68 -67c0 -64 -47 -185 -85 -185c-13 0 -33 5 -30 31z
" />
    <glyph glyph-name="lcaron" unicode="&#x13e;" horiz-adv-x="407" 
d="M148 -8c-32 0 -79 13 -79 110v571c0 27 23 50 54 50c30 0 54 -22 54 -50v-565c0 -21 1 -30 14 -44c7 -7 13 -13 13 -27c0 -28 -22 -45 -56 -45zM269 504c1 33 25 48 35 91c-33 5 -57 32 -57 65c0 35 30 65 69 65c36 0 68 -28 68 -67c0 -64 -47 -185 -85 -185
c-13 0 -33 5 -30 31z" />
    <glyph glyph-name="Lslash" unicode="&#x141;" horiz-adv-x="519" 
d="M499 51c0 -29 -24 -51 -53 -51h-282c-32 0 -60 25 -60 57v217l-23 -15c-8 -6 -17 -12 -26 -12c-23 0 -45 13 -45 41c0 12 7 26 19 33l75 49v292c0 28 24 52 55 52c30 0 55 -24 55 -52v-220l58 39c10 6 18 11 32 11c15 0 31 -11 36 -28c1 -4 2 -8 2 -13
c0 -12 -6 -24 -17 -32l-111 -73v-245h232c28 0 53 -22 53 -50z" />
    <glyph glyph-name="lslash" unicode="&#x142;" horiz-adv-x="357" 
d="M340 464c1 -4 2 -8 2 -13c0 -12 -6 -24 -17 -32l-102 -67v-244c0 -21 1 -30 14 -44c7 -7 13 -13 13 -27c0 -28 -22 -45 -56 -45c-32 0 -79 13 -79 110v179l-34 -22c-8 -6 -17 -12 -26 -12c-23 0 -45 13 -45 41c0 12 7 26 19 33l86 56v296c0 27 23 50 54 50
c30 0 54 -22 54 -50v-225l49 33c10 6 18 11 32 11c15 0 31 -11 36 -28z" />
    <glyph glyph-name="Nacute" unicode="&#x143;" horiz-adv-x="620" 
d="M492 -10c-21 0 -44 12 -54 29l-260 469v-445c0 -28 -26 -53 -56 -53c-31 0 -54 25 -54 53v615c0 32 24 56 58 56c22 0 44 -12 55 -30c44 -77 214 -389 260 -469v446c0 29 26 53 56 53s54 -24 54 -53v-615c0 -30 -24 -56 -59 -56zM351 907l10 10c10 10 16 15 33 15
c19 0 40 -17 40 -41c0 -10 -4 -19 -13 -28l-75 -78c-12 -13 -22 -20 -39 -20c-22 0 -42 17 -42 42c0 24 57 71 86 100z" />
    <glyph glyph-name="nacute" unicode="&#x144;" horiz-adv-x="529" 
d="M180 364v-321c0 -28 -18 -50 -54 -50s-54 22 -54 50v321c0 44 -7 46 -13 56c-8 12 -12 18 -12 30c0 26 22 46 52 46c19 0 35 -11 47 -29c45 31 94 44 138 44c116 0 174 -77 174 -192v-276c0 -28 -20 -50 -54 -50c-35 0 -54 22 -54 50v276c0 63 -29 100 -79 100
c-30 0 -61 -11 -94 -31c2 -9 3 -17 3 -24zM265 707l10 10c10 10 16 15 33 15c19 0 40 -17 40 -41c0 -10 -4 -19 -13 -28l-75 -78c-12 -13 -22 -20 -39 -20c-22 0 -42 17 -42 42c0 24 57 71 86 100z" />
    <glyph glyph-name="uni0145" unicode="&#x145;" horiz-adv-x="620" 
d="M492 -10c-21 0 -44 12 -54 29l-260 469v-445c0 -28 -26 -53 -56 -53c-31 0 -54 25 -54 53v615c0 32 24 56 58 56c22 0 44 -12 55 -30c44 -77 214 -389 260 -469v446c0 29 26 53 56 53s54 -24 54 -53v-615c0 -30 -24 -56 -59 -56zM374 -104c0 -55 -55 -134 -87 -134
c-9 0 -18 5 -18 17c0 21 25 34 37 62c-34 2 -59 17 -59 54c0 31 20 54 63 54c44 0 64 -24 64 -53z" />
    <glyph glyph-name="uni0146" unicode="&#x146;" horiz-adv-x="529" 
d="M180 364v-321c0 -28 -18 -50 -54 -50s-54 22 -54 50v321c0 44 -7 46 -13 56c-8 12 -12 18 -12 30c0 26 22 46 52 46c19 0 35 -11 47 -29c45 31 94 44 138 44c116 0 174 -77 174 -192v-276c0 -28 -20 -50 -54 -50c-35 0 -54 22 -54 50v276c0 63 -29 100 -79 100
c-30 0 -61 -11 -94 -31c2 -9 3 -17 3 -24zM328 -104c0 -55 -55 -134 -87 -134c-9 0 -18 5 -18 17c0 21 25 34 37 62c-34 2 -59 17 -59 54c0 31 20 54 63 54c44 0 64 -24 64 -53z" />
    <glyph glyph-name="Ncaron" unicode="&#x147;" horiz-adv-x="620" 
d="M492 -10c-21 0 -44 12 -54 29l-260 469v-445c0 -28 -26 -53 -56 -53c-31 0 -54 25 -54 53v615c0 32 24 56 58 56c22 0 44 -12 55 -30c44 -77 214 -389 260 -469v446c0 29 26 53 56 53s54 -24 54 -53v-615c0 -30 -24 -56 -59 -56zM310 842c29 23 59 68 93 68
c24 0 44 -13 44 -37c0 -13 -6 -22 -16 -32c-23 -23 -90 -85 -121 -85s-98 62 -121 85c-10 10 -16 19 -16 32c0 24 20 37 44 37c34 0 64 -45 93 -68z" />
    <glyph glyph-name="ncaron" unicode="&#x148;" horiz-adv-x="529" 
d="M180 364v-321c0 -28 -18 -50 -54 -50s-54 22 -54 50v321c0 44 -7 46 -13 56c-8 12 -12 18 -12 30c0 26 22 46 52 46c19 0 35 -11 47 -29c45 31 94 44 138 44c116 0 174 -77 174 -192v-276c0 -28 -20 -50 -54 -50c-35 0 -54 22 -54 50v276c0 63 -29 100 -79 100
c-30 0 -61 -11 -94 -31c2 -9 3 -17 3 -24zM264 642c29 23 59 68 93 68c24 0 44 -13 44 -37c0 -13 -6 -22 -16 -32c-23 -23 -90 -85 -121 -85s-98 62 -121 85c-10 10 -16 19 -16 32c0 24 20 37 44 37c34 0 64 -45 93 -68z" />
    <glyph glyph-name="Omacron" unicode="&#x14c;" horiz-adv-x="580" 
d="M290 -10c-163 0 -245 116 -245 260v206c0 140 69 258 245 258s245 -118 245 -258v-206c0 -144 -82 -260 -245 -260zM290 612c-99 0 -135 -63 -135 -156v-206c0 -93 42 -157 135 -157c92 0 135 64 135 157v206c0 93 -36 156 -135 156zM466 833c0 -24 -21 -43 -46 -43h-259
c-27 0 -47 19 -47 43s20 44 47 44h259c25 0 46 -20 46 -44z" />
    <glyph glyph-name="omacron" unicode="&#x14d;" horiz-adv-x="494" 
d="M247 -8c-132 0 -202 80 -202 182v158c0 103 70 182 202 182s202 -79 202 -182v-158c0 -102 -70 -182 -202 -182zM247 87c62 0 94 33 94 87v159c0 53 -32 86 -94 86s-94 -33 -94 -86v-159c0 -54 32 -87 94 -87zM423 633c0 -24 -21 -43 -46 -43h-259c-27 0 -47 19 -47 43
s20 44 47 44h259c25 0 46 -20 46 -44z" />
    <glyph glyph-name="Obreve" unicode="&#x14e;" horiz-adv-x="580" 
d="M290 -10c-163 0 -245 116 -245 260v206c0 140 69 258 245 258s245 -118 245 -258v-206c0 -144 -82 -260 -245 -260zM290 612c-99 0 -135 -63 -135 -156v-206c0 -93 42 -157 135 -157c92 0 135 64 135 157v206c0 93 -36 156 -135 156zM290 839c30 0 47 18 62 36
c10 12 20 19 37 19c21 0 44 -11 36 -46c-13 -55 -87 -86 -136 -86c-52 0 -123 34 -135 86c-8 35 15 46 36 46c19 0 29 -10 37 -19c15 -18 32 -36 63 -36z" />
    <glyph glyph-name="obreve" unicode="&#x14f;" horiz-adv-x="494" 
d="M247 -8c-132 0 -202 80 -202 182v158c0 103 70 182 202 182s202 -79 202 -182v-158c0 -102 -70 -182 -202 -182zM247 87c62 0 94 33 94 87v159c0 53 -32 86 -94 86s-94 -33 -94 -86v-159c0 -54 32 -87 94 -87zM247 639c30 0 47 18 62 36c10 12 20 19 37 19
c21 0 44 -11 36 -46c-13 -55 -87 -86 -136 -86c-52 0 -123 34 -135 86c-8 35 15 46 36 46c19 0 29 -10 37 -19c15 -18 32 -36 63 -36z" />
    <glyph glyph-name="Ohungarumlaut" unicode="&#x150;" horiz-adv-x="580" 
d="M290 -10c-163 0 -245 116 -245 260v206c0 140 69 258 245 258s245 -118 245 -258v-206c0 -144 -82 -260 -245 -260zM290 612c-99 0 -135 -63 -135 -156v-206c0 -93 42 -157 135 -157c92 0 135 64 135 157v206c0 93 -36 156 -135 156zM172 815l63 92c12 15 20 32 44 32
c21 0 42 -21 42 -43c0 -8 -3 -14 -8 -21l-60 -90c-11 -17 -22 -27 -42 -27c-23 0 -43 20 -43 43c0 5 1 9 4 14zM325 815l63 92c10 15 20 32 43 32c21 0 44 -22 44 -42c0 -5 -2 -10 -5 -15l-65 -97c-11 -16 -20 -27 -41 -27c-23 0 -44 20 -44 42c0 5 1 10 5 15z" />
    <glyph glyph-name="ohungarumlaut" unicode="&#x151;" horiz-adv-x="494" 
d="M247 -8c-132 0 -202 80 -202 182v158c0 103 70 182 202 182s202 -79 202 -182v-158c0 -102 -70 -182 -202 -182zM247 87c62 0 94 33 94 87v159c0 53 -32 86 -94 86s-94 -33 -94 -86v-159c0 -54 32 -87 94 -87zM131 615l63 92c12 15 20 32 44 32c21 0 42 -21 42 -43
c0 -8 -3 -14 -8 -21l-60 -90c-11 -17 -22 -27 -42 -27c-23 0 -43 20 -43 43c0 5 1 9 4 14zM284 615l63 92c10 15 20 32 43 32c21 0 44 -22 44 -42c0 -5 -2 -10 -5 -15l-65 -97c-11 -16 -20 -27 -41 -27c-23 0 -44 20 -44 42c0 5 1 10 5 15z" />
    <glyph glyph-name="OE" unicode="&#x152;" horiz-adv-x="756" 
d="M738 53c0 -30 -25 -53 -55 -53h-235c-32 0 -60 8 -69 34c-32 -27 -73 -44 -124 -44c-149 0 -225 108 -225 241v244c0 131 63 239 225 239c53 0 95 -15 126 -40c9 16 27 31 51 31h241c30 0 55 -24 55 -53c0 -28 -25 -50 -55 -50h-193v-197h174c27 0 54 -22 54 -51
s-24 -52 -54 -52h-174v-200h203c29 0 55 -22 55 -49zM255 612c-85 0 -115 -55 -115 -137v-244c0 -81 36 -138 115 -138c78 0 115 57 115 138v244c0 82 -30 137 -115 137z" />
    <glyph glyph-name="oe" unicode="&#x153;" horiz-adv-x="731" 
d="M228 -7c-126 0 -198 80 -198 181v158c0 102 72 182 198 182c71 0 121 -27 151 -69c28 42 78 68 149 68c114 0 177 -66 177 -167c0 -96 -55 -154 -184 -154c-24 0 -55 2 -87 7v-41c0 -45 32 -74 94 -74c39 0 64 11 98 25h-1c3 2 11 5 21 5c28 0 50 -23 50 -47
c0 -57 -120 -74 -174 -74c-69 0 -117 26 -145 67c-29 -42 -79 -67 -149 -67zM232 87c62 0 94 33 94 87v159c0 53 -32 86 -94 86s-94 -33 -94 -86v-159c0 -54 32 -87 94 -87zM598 346c0 52 -28 73 -76 73c-56 0 -88 -28 -88 -73v-59c34 -4 73 -6 90 -6c63 0 74 32 74 65z" />
    <glyph glyph-name="Racute" unicode="&#x154;" horiz-adv-x="595" 
d="M536 499c0 -103 -57 -168 -147 -191c49 -79 99 -156 148 -235c5 -5 8 -21 8 -27c0 -31 -30 -54 -57 -54c-20 0 -36 8 -46 24l-173 282h-91v-254c0 -28 -26 -53 -56 -53c-29 0 -54 24 -54 53v601c0 32 28 60 61 60h174c176 0 233 -104 233 -206zM426 499
c0 50 -24 103 -127 103h-121v-203h127c78 0 121 35 121 100zM298 907l10 10c10 10 16 15 33 15c19 0 40 -17 40 -41c0 -10 -4 -19 -13 -28l-75 -78c-12 -13 -22 -20 -39 -20c-22 0 -42 17 -42 42c0 24 57 71 86 100z" />
    <glyph glyph-name="racute" unicode="&#x155;" horiz-adv-x="357" 
d="M289 409c-42 1 -69 2 -111 -23c1 -9 2 -16 2 -23v-320c0 -29 -24 -51 -54 -51c-31 0 -54 22 -54 51v320c0 28 -4 43 -14 58c-6 8 -10 15 -10 27c0 28 24 47 52 47c18 0 34 -12 46 -29c45 27 96 43 131 43c51 0 67 -21 67 -49c0 -32 -25 -53 -55 -51zM239 707l10 10
c10 10 16 15 33 15c19 0 40 -17 40 -41c0 -10 -4 -19 -13 -28l-75 -78c-12 -13 -22 -20 -39 -20c-22 0 -42 17 -42 42c0 24 57 71 86 100z" />
    <glyph glyph-name="uni0156" unicode="&#x156;" horiz-adv-x="595" 
d="M536 499c0 -103 -57 -168 -147 -191c49 -79 99 -156 148 -235c5 -5 8 -21 8 -27c0 -31 -30 -54 -57 -54c-20 0 -36 8 -46 24l-173 282h-91v-254c0 -28 -26 -53 -56 -53c-29 0 -54 24 -54 53v601c0 32 28 60 61 60h174c176 0 233 -104 233 -206zM426 499
c0 50 -24 103 -127 103h-121v-203h127c78 0 121 35 121 100zM361 -104c0 -55 -55 -134 -87 -134c-9 0 -18 5 -18 17c0 21 25 34 37 62c-34 2 -59 17 -59 54c0 31 20 54 63 54c44 0 64 -24 64 -53z" />
    <glyph glyph-name="uni0157" unicode="&#x157;" horiz-adv-x="357" 
d="M289 409c-42 1 -69 2 -111 -23c1 -9 2 -16 2 -23v-320c0 -29 -24 -51 -54 -51c-31 0 -54 22 -54 51v320c0 28 -4 43 -14 58c-6 8 -10 15 -10 27c0 28 24 47 52 47c18 0 34 -12 46 -29c45 27 96 43 131 43c51 0 67 -21 67 -49c0 -32 -25 -53 -55 -51zM189 -104
c0 -55 -55 -134 -87 -134c-9 0 -18 5 -18 17c0 21 25 34 37 62c-34 2 -59 17 -59 54c0 31 20 54 63 54c44 0 64 -24 64 -53z" />
    <glyph glyph-name="Rcaron" unicode="&#x158;" horiz-adv-x="595" 
d="M536 499c0 -103 -57 -168 -147 -191c49 -79 99 -156 148 -235c5 -5 8 -21 8 -27c0 -31 -30 -54 -57 -54c-20 0 -36 8 -46 24l-173 282h-91v-254c0 -28 -26 -53 -56 -53c-29 0 -54 24 -54 53v601c0 32 28 60 61 60h174c176 0 233 -104 233 -206zM426 499
c0 50 -24 103 -127 103h-121v-203h127c78 0 121 35 121 100zM288 842c29 23 59 68 93 68c24 0 44 -13 44 -37c0 -13 -6 -22 -16 -32c-23 -23 -90 -85 -121 -85s-98 62 -121 85c-10 10 -16 19 -16 32c0 24 20 37 44 37c34 0 64 -45 93 -68z" />
    <glyph glyph-name="rcaron" unicode="&#x159;" horiz-adv-x="357" 
d="M289 409c-42 1 -69 2 -111 -23c1 -9 2 -16 2 -23v-320c0 -29 -24 -51 -54 -51c-31 0 -54 22 -54 51v320c0 28 -4 43 -14 58c-6 8 -10 15 -10 27c0 28 24 47 52 47c18 0 34 -12 46 -29c45 27 96 43 131 43c51 0 67 -21 67 -49c0 -32 -25 -53 -55 -51zM179 642
c29 23 59 68 93 68c24 0 44 -13 44 -37c0 -13 -6 -22 -16 -32c-23 -23 -90 -85 -121 -85s-98 62 -121 85c-10 10 -16 19 -16 32c0 24 20 37 44 37c34 0 64 -45 93 -68z" />
    <glyph glyph-name="Sacute" unicode="&#x15a;" horiz-adv-x="506" 
d="M355 197c0 54 -28 74 -49 85c-99 48 -269 51 -269 231c0 125 84 201 217 201c54 0 186 -13 186 -79c0 -26 -21 -50 -55 -50c-35 0 -59 27 -125 27c-57 0 -110 -21 -110 -94c0 -55 30 -74 50 -84c101 -52 269 -52 269 -230c0 -136 -100 -213 -234 -213
c-69 0 -199 22 -199 84c0 26 22 51 51 51c30 0 69 -33 149 -33c79 0 119 38 119 104zM294 907l10 10c10 10 16 15 33 15c19 0 40 -17 40 -41c0 -10 -4 -19 -13 -28l-75 -78c-12 -13 -22 -20 -39 -20c-22 0 -42 17 -42 42c0 24 57 71 86 100z" />
    <glyph glyph-name="sacute" unicode="&#x15b;" horiz-adv-x="426" 
d="M48 363c0 90 60 150 177 150c59 0 144 -15 144 -73c0 -27 -18 -41 -44 -41c-32 0 -47 22 -100 22c-25 0 -71 -5 -71 -48c0 -98 233 -50 233 -229c0 -93 -63 -151 -182 -151c-57 0 -163 13 -163 66c0 18 12 59 56 48c18 -4 61 -23 103 -23c45 0 80 22 80 58
c0 94 -233 44 -233 221zM250 707l10 10c10 10 16 15 33 15c19 0 40 -17 40 -41c0 -10 -4 -19 -13 -28l-75 -78c-12 -13 -22 -20 -39 -20c-22 0 -42 17 -42 42c0 24 57 71 86 100z" />
    <glyph glyph-name="Scircumflex" unicode="&#x15c;" horiz-adv-x="506" 
d="M355 197c0 54 -28 74 -49 85c-99 48 -269 51 -269 231c0 125 84 201 217 201c54 0 186 -13 186 -79c0 -26 -21 -50 -55 -50c-35 0 -59 27 -125 27c-57 0 -110 -21 -110 -94c0 -55 30 -74 50 -84c101 -52 269 -52 269 -230c0 -136 -100 -213 -234 -213
c-69 0 -199 22 -199 84c0 26 22 51 51 51c30 0 69 -33 149 -33c79 0 119 38 119 104zM253 825c-26 -21 -62 -65 -88 -65c-20 0 -43 14 -43 36c0 16 18 35 32 46l69 55c8 6 17 11 30 11s22 -5 30 -11l69 -55c14 -11 32 -30 32 -46c0 -22 -23 -36 -43 -36c-26 0 -62 44 -88 65
z" />
    <glyph glyph-name="scircumflex" unicode="&#x15d;" horiz-adv-x="426" 
d="M48 363c0 90 60 150 177 150c59 0 144 -15 144 -73c0 -27 -18 -41 -44 -41c-32 0 -47 22 -100 22c-25 0 -71 -5 -71 -48c0 -98 233 -50 233 -229c0 -93 -63 -151 -182 -151c-57 0 -163 13 -163 66c0 18 12 59 56 48c18 -4 61 -23 103 -23c45 0 80 22 80 58
c0 94 -233 44 -233 221zM213 625c-26 -21 -62 -65 -88 -65c-20 0 -43 14 -43 36c0 16 18 35 32 46l69 55c8 6 17 11 30 11s22 -5 30 -11l69 -55c14 -11 32 -30 32 -46c0 -22 -23 -36 -43 -36c-26 0 -62 44 -88 65z" />
    <glyph glyph-name="Scedilla" unicode="&#x15e;" horiz-adv-x="506" 
d="M368 -123c0 -49 -40 -91 -110 -91c-42 0 -102 16 -102 47c0 18 12 23 27 23c13 0 41 -6 67 -6c31 0 45 16 45 32c0 43 -100 15 -100 63c0 3 1 6 1 9l6 39c-71 5 -166 29 -166 82c0 26 22 51 51 51c30 0 71 -33 149 -33c79 0 119 38 119 104c0 55 -28 74 -49 85
c-103 45 -269 54 -269 231c0 125 84 201 217 201c54 0 186 -13 186 -79c0 -20 -21 -50 -55 -50c-35 0 -59 27 -125 27c-57 0 -110 -21 -110 -94c0 -55 30 -74 50 -84c105 -54 269 -52 269 -230c0 -125 -84 -201 -202 -211c-2 -10 -3 -19 -4 -29c77 -4 105 -38 105 -87z" />
    <glyph glyph-name="scedilla" unicode="&#x15f;" horiz-adv-x="426" 
d="M48 363c0 90 60 150 177 150c59 0 144 -15 144 -73c0 -27 -18 -41 -44 -41c-32 0 -47 22 -100 22c-25 0 -71 -5 -71 -48c0 -98 233 -50 233 -229c0 -87 -55 -143 -160 -150c-1 -10 -2 -20 -4 -30c77 -4 105 -38 105 -87s-39 -91 -109 -91c-42 0 -102 12 -102 48
c0 17 11 22 27 22c14 0 42 -6 67 -6c30 0 45 16 45 32c0 42 -100 19 -100 65c0 13 5 34 7 49c-56 5 -121 20 -121 63c0 18 12 59 56 48c18 -4 61 -23 103 -23c45 0 80 22 80 58c0 94 -233 44 -233 221z" />
    <glyph glyph-name="Scaron" unicode="&#x160;" horiz-adv-x="506" 
d="M355 197c0 54 -28 74 -49 85c-99 48 -269 51 -269 231c0 125 84 201 217 201c54 0 186 -13 186 -79c0 -26 -21 -50 -55 -50c-35 0 -59 27 -125 27c-57 0 -110 -21 -110 -94c0 -55 30 -74 50 -84c101 -52 269 -52 269 -230c0 -136 -100 -213 -234 -213
c-69 0 -199 22 -199 84c0 26 22 51 51 51c30 0 69 -33 149 -33c79 0 119 38 119 104zM253 842c29 23 59 68 93 68c24 0 44 -13 44 -37c0 -13 -6 -22 -16 -32c-23 -23 -90 -85 -121 -85s-98 62 -121 85c-10 10 -16 19 -16 32c0 24 20 37 44 37c34 0 64 -45 93 -68z" />
    <glyph glyph-name="scaron" unicode="&#x161;" horiz-adv-x="426" 
d="M48 363c0 90 60 150 177 150c59 0 144 -15 144 -73c0 -27 -18 -41 -44 -41c-32 0 -47 22 -100 22c-25 0 -71 -5 -71 -48c0 -98 233 -50 233 -229c0 -93 -63 -151 -182 -151c-57 0 -163 13 -163 66c0 18 12 59 56 48c18 -4 61 -23 103 -23c45 0 80 22 80 58
c0 94 -233 44 -233 221zM220 642c29 23 59 68 93 68c24 0 44 -13 44 -37c0 -13 -6 -22 -16 -32c-23 -23 -90 -85 -121 -85s-98 62 -121 85c-10 10 -16 19 -16 32c0 24 20 37 44 37c34 0 64 -45 93 -68z" />
    <glyph glyph-name="uni0162" unicode="&#x162;" horiz-adv-x="503" 
d="M388 -123c0 -49 -40 -91 -110 -91c-47 0 -102 20 -102 47c0 18 12 23 27 23c13 0 41 -6 67 -6c31 0 45 16 45 32c0 43 -100 15 -100 63c0 3 1 6 1 9l7 44c-16 8 -27 25 -27 44v560h-121c-23 0 -55 26 -55 51c0 23 24 52 55 52h352c19 0 56 -25 56 -52
c0 -22 -27 -51 -56 -51h-121v-560c0 -13 -7 -26 -17 -34l-6 -44c77 -4 105 -38 105 -87z" />
    <glyph glyph-name="uni0163" unicode="&#x163;" horiz-adv-x="341" 
d="M177 608v-124h89c27 0 51 -21 51 -49c0 -27 -23 -48 -51 -48h-89v-198c2 -71 14 -97 68 -97c7 0 14 1 18 1c43 0 67 -11 67 -45c0 -45 -38 -52 -75 -52c-12 0 -25 1 -37 3c-3 -13 -4 -25 -4 -35c77 -4 105 -38 105 -87c0 -52 -42 -91 -114 -91c-41 0 -97 14 -97 47
c0 18 11 23 27 23c14 0 42 -6 67 -6c30 0 45 16 45 32s-12 24 -42 30c-42 8 -58 5 -58 37c0 19 5 44 10 62c-69 28 -88 94 -88 194v403c0 28 19 50 54 50c34 0 54 -23 54 -50z" />
    <glyph glyph-name="Tcaron" unicode="&#x164;" horiz-adv-x="503" 
d="M196 42v560h-121c-32 0 -55 24 -55 51c0 23 24 52 55 52h352c28 0 56 -23 56 -52c0 -27 -26 -51 -56 -51h-121v-560c0 -27 -25 -52 -55 -52c-31 0 -55 25 -55 52zM251 842c29 23 59 68 93 68c24 0 44 -13 44 -37c0 -13 -6 -22 -16 -32c-23 -23 -90 -85 -121 -85
s-98 62 -121 85c-10 10 -16 19 -16 32c0 24 20 37 44 37c34 0 64 -45 93 -68z" />
    <glyph glyph-name="tcaron" unicode="&#x165;" horiz-adv-x="499" 
d="M69 205v403c0 28 19 50 54 50c34 0 54 -23 54 -50v-124h89c28 0 51 -21 51 -49c0 -27 -23 -48 -51 -48h-89v-175c0 -88 8 -120 68 -120c7 0 14 1 18 1c43 0 67 -11 67 -45c0 -46 -38 -52 -77 -52c-147 0 -184 72 -184 209zM361 504c1 33 25 48 35 91c-33 5 -57 32 -57 65
c0 35 30 65 69 65c36 0 68 -28 68 -67c0 -64 -47 -185 -85 -185c-13 0 -33 5 -30 31z" />
    <glyph glyph-name="Utilde" unicode="&#x168;" horiz-adv-x="592" 
d="M532 235c0 -142 -88 -245 -236 -245c-152 0 -236 104 -236 245v425c0 31 24 54 56 54c29 0 54 -24 54 -54v-425c0 -84 40 -142 126 -142c85 0 125 59 125 142v425c0 29 23 54 54 54c32 0 57 -25 57 -54v-425zM443 846c0 -38 -49 -66 -86 -67c-48 0 -76 33 -106 36
c-33 2 -37 -31 -64 -31c-18 0 -38 13 -38 34c0 41 41 72 85 72c49 0 74 -34 106 -36c34 0 35 31 63 32c21 0 40 -17 40 -40z" />
    <glyph glyph-name="utilde" unicode="&#x169;" horiz-adv-x="529" 
d="M381 32c-45 -29 -94 -40 -140 -40c-113 0 -172 78 -172 193v276c0 28 19 49 54 49c34 0 54 -21 54 -49v-276c0 -64 26 -100 78 -100c30 0 62 10 94 27c-1 9 -2 17 -2 24v325c0 28 18 49 54 49s54 -21 54 -49v-335c0 -35 8 -39 18 -53c6 -7 11 -15 11 -27
c0 -29 -25 -48 -51 -48c-22 0 -39 14 -52 34zM411 646c0 -38 -49 -66 -86 -67c-48 0 -76 33 -106 36c-33 2 -37 -31 -64 -31c-18 0 -38 13 -38 34c0 41 41 72 85 72c49 0 74 -34 106 -36c34 0 35 31 63 32c21 0 40 -17 40 -40z" />
    <glyph glyph-name="Umacron" unicode="&#x16a;" horiz-adv-x="592" 
d="M532 235c0 -142 -88 -245 -236 -245c-152 0 -236 104 -236 245v425c0 31 24 54 56 54c29 0 54 -24 54 -54v-425c0 -84 40 -142 126 -142c85 0 125 59 125 142v425c0 29 23 54 54 54c32 0 57 -25 57 -54v-425zM472 833c0 -24 -21 -43 -46 -43h-259c-27 0 -47 19 -47 43
s20 44 47 44h259c25 0 46 -20 46 -44z" />
    <glyph glyph-name="umacron" unicode="&#x16b;" horiz-adv-x="529" 
d="M381 32c-45 -29 -94 -40 -140 -40c-113 0 -172 78 -172 193v276c0 28 19 49 54 49c34 0 54 -21 54 -49v-276c0 -64 26 -100 78 -100c30 0 62 10 94 27c-1 9 -2 17 -2 24v325c0 28 18 49 54 49s54 -21 54 -49v-335c0 -35 8 -39 18 -53c6 -7 11 -15 11 -27
c0 -29 -25 -48 -51 -48c-22 0 -39 14 -52 34zM440 633c0 -24 -21 -43 -46 -43h-259c-27 0 -47 19 -47 43s20 44 47 44h259c25 0 46 -20 46 -44z" />
    <glyph glyph-name="Ubreve" unicode="&#x16c;" horiz-adv-x="592" 
d="M532 235c0 -142 -88 -245 -236 -245c-152 0 -236 104 -236 245v425c0 31 24 54 56 54c29 0 54 -24 54 -54v-425c0 -84 40 -142 126 -142c85 0 125 59 125 142v425c0 29 23 54 54 54c32 0 57 -25 57 -54v-425zM296 839c30 0 47 18 62 36c10 12 20 19 37 19
c21 0 44 -11 36 -46c-13 -55 -87 -86 -136 -86c-52 0 -123 34 -135 86c-8 35 15 46 36 46c19 0 29 -10 37 -19c15 -18 32 -36 63 -36z" />
    <glyph glyph-name="ubreve" unicode="&#x16d;" horiz-adv-x="529" 
d="M381 32c-45 -29 -94 -40 -140 -40c-113 0 -172 78 -172 193v276c0 28 19 49 54 49c34 0 54 -21 54 -49v-276c0 -64 26 -100 78 -100c30 0 62 10 94 27c-1 9 -2 17 -2 24v325c0 28 18 49 54 49s54 -21 54 -49v-335c0 -35 8 -39 18 -53c6 -7 11 -15 11 -27
c0 -29 -25 -48 -51 -48c-22 0 -39 14 -52 34zM264 639c30 0 47 18 62 36c10 12 20 19 37 19c21 0 44 -11 36 -46c-13 -55 -87 -86 -136 -86c-52 0 -123 34 -135 86c-8 35 15 46 36 46c19 0 29 -10 37 -19c15 -18 32 -36 63 -36z" />
    <glyph glyph-name="Uring" unicode="&#x16e;" horiz-adv-x="592" 
d="M532 235c0 -142 -88 -245 -236 -245c-152 0 -236 104 -236 245v425c0 31 24 54 56 54c29 0 54 -24 54 -54v-425c0 -84 40 -142 126 -142c85 0 125 59 125 142v425c0 29 23 54 54 54c32 0 57 -25 57 -54v-425zM400 844c0 -58 -46 -104 -104 -104c-59 0 -105 46 -105 104
c0 57 46 104 105 104c58 0 104 -47 104 -104zM345 844c0 27 -22 50 -49 50s-49 -23 -49 -50s22 -49 49 -49s49 22 49 49z" />
    <glyph glyph-name="uring" unicode="&#x16f;" horiz-adv-x="529" 
d="M381 32c-45 -29 -94 -40 -140 -40c-113 0 -172 78 -172 193v276c0 28 19 49 54 49c34 0 54 -21 54 -49v-276c0 -64 26 -100 78 -100c30 0 62 10 94 27c-1 9 -2 17 -2 24v325c0 28 18 49 54 49s54 -21 54 -49v-335c0 -35 8 -39 18 -53c6 -7 11 -15 11 -27
c0 -29 -25 -48 -51 -48c-22 0 -39 14 -52 34zM369 644c0 -58 -46 -104 -104 -104c-59 0 -105 46 -105 104c0 57 46 104 105 104c58 0 104 -47 104 -104zM314 644c0 27 -22 50 -49 50s-49 -23 -49 -50s22 -49 49 -49s49 22 49 49z" />
    <glyph glyph-name="Uhungarumlaut" unicode="&#x170;" horiz-adv-x="592" 
d="M532 235c0 -142 -88 -245 -236 -245c-152 0 -236 104 -236 245v425c0 31 24 54 56 54c29 0 54 -24 54 -54v-425c0 -84 40 -142 126 -142c85 0 125 59 125 142v425c0 29 23 54 54 54c32 0 57 -25 57 -54v-425zM183 815l63 92c12 15 20 32 44 32c21 0 42 -21 42 -43
c0 -8 -3 -14 -8 -21l-60 -90c-11 -17 -22 -27 -42 -27c-23 0 -43 20 -43 43c0 5 1 9 4 14zM336 815l63 92c10 15 20 32 43 32c21 0 44 -22 44 -42c0 -5 -2 -10 -5 -15l-65 -97c-11 -16 -20 -27 -41 -27c-23 0 -44 20 -44 42c0 5 1 10 5 15z" />
    <glyph glyph-name="uhungarumlaut" unicode="&#x171;" horiz-adv-x="529" 
d="M381 32c-45 -29 -94 -40 -140 -40c-113 0 -172 78 -172 193v276c0 28 19 49 54 49c34 0 54 -21 54 -49v-276c0 -64 26 -100 78 -100c30 0 62 10 94 27c-1 9 -2 17 -2 24v325c0 28 18 49 54 49s54 -21 54 -49v-335c0 -35 8 -39 18 -53c6 -7 11 -15 11 -27
c0 -29 -25 -48 -51 -48c-22 0 -39 14 -52 34zM146 615l63 92c12 15 20 32 44 32c21 0 42 -21 42 -43c0 -8 -3 -14 -8 -21l-60 -90c-11 -17 -22 -27 -42 -27c-23 0 -43 20 -43 43c0 5 1 9 4 14zM299 615l63 92c10 15 20 32 43 32c21 0 44 -22 44 -42c0 -5 -2 -10 -5 -15
l-65 -97c-11 -16 -20 -27 -41 -27c-23 0 -44 20 -44 42c0 5 1 10 5 15z" />
    <glyph glyph-name="Uogonek" unicode="&#x172;" horiz-adv-x="592" 
d="M532 235c0 -101 -45 -182 -123 -220c-19 -32 -46 -75 -46 -110c0 -20 11 -35 35 -35c18 0 30 4 42 4c20 0 36 -16 36 -35c0 -40 -51 -46 -86 -46c-67 0 -112 30 -112 96c0 33 14 69 37 102h-19c-152 0 -236 103 -236 244v425c0 31 24 54 56 54c29 0 54 -24 54 -54v-425
c0 -84 40 -142 126 -142c85 0 125 59 125 142v425c0 29 23 54 54 54c32 0 57 -25 57 -54v-425z" />
    <glyph glyph-name="uogonek" unicode="&#x173;" horiz-adv-x="529" 
d="M177 461v-276c0 -64 27 -100 78 -100c30 0 62 10 94 27c-2 8 -2 16 -2 24v325c0 25 18 49 54 49s54 -21 54 -49v-335c0 -53 29 -48 29 -80c0 -13 -6 -23 -12 -31l-10 -14c-19 -27 -35 -63 -35 -96c0 -20 11 -35 35 -35c18 0 30 4 42 4c20 0 36 -16 36 -35
c0 -40 -51 -46 -86 -46c-67 0 -112 30 -112 96c0 40 22 85 55 123c-6 6 -11 12 -16 20c-45 -29 -94 -39 -140 -39c-123 0 -172 84 -172 210v258c0 25 18 49 54 49s54 -21 54 -49z" />
    <glyph glyph-name="Wcircumflex" unicode="&#x174;" horiz-adv-x="803" 
d="M502 51l-59 248c-16 68 -28 137 -42 206c-31 -153 -66 -304 -101 -456c-8 -27 -25 -58 -68 -58c-35 0 -61 29 -68 59c-52 204 -102 409 -151 613c0 30 32 48 60 48c22 0 44 -12 51 -39c22 -94 45 -188 68 -281c16 -65 27 -132 41 -197c15 68 26 141 43 210l59 244
c10 42 22 66 66 66c42 0 56 -26 66 -66l58 -244c16 -70 27 -141 43 -211c14 66 26 132 42 198l67 280c7 25 26 40 49 40c28 0 63 -15 63 -49c0 -2 0 -6 -2 -12l-149 -600c-9 -31 -29 -59 -68 -59s-61 29 -68 60zM401 825c-26 -21 -62 -65 -88 -65c-20 0 -43 14 -43 36
c0 16 18 35 32 46l69 55c8 6 17 11 30 11s22 -5 30 -11l69 -55c14 -11 32 -30 32 -46c0 -22 -23 -36 -43 -36c-26 0 -62 44 -88 65z" />
    <glyph glyph-name="wcircumflex" unicode="&#x175;" horiz-adv-x="675" 
d="M654 452l-116 -408c-10 -34 -26 -51 -64 -51c-27 0 -55 14 -61 41l-75 317c-24 -107 -47 -212 -75 -317c-8 -30 -28 -41 -61 -41c-36 0 -56 19 -65 52l-116 407c-1 4 -1 7 -1 10c0 25 23 48 54 48c22 0 44 -13 50 -36l49 -188c13 -51 20 -103 30 -155
c13 60 22 120 37 179l39 157c6 25 28 43 60 43c31 0 51 -18 57 -43l39 -157c14 -59 24 -119 38 -179c10 52 17 104 30 155l48 188c5 20 29 36 51 36c28 0 53 -21 53 -50c0 -1 -1 -6 -1 -8zM337 625c-26 -21 -62 -65 -88 -65c-20 0 -43 14 -43 36c0 16 18 35 32 46l69 55
c8 6 17 11 30 11s22 -5 30 -11l69 -55c14 -11 32 -30 32 -46c0 -22 -23 -36 -43 -36c-26 0 -62 44 -88 65z" />
    <glyph glyph-name="Ycircumflex" unicode="&#x176;" horiz-adv-x="503" 
d="M251 -10c-31 0 -56 25 -56 54v232l-177 361c-2 6 -5 16 -5 24c0 29 28 53 56 53c17 0 35 -7 44 -23l138 -288l138 288c9 16 27 23 44 23c29 0 56 -24 56 -53c0 -7 -3 -17 -5 -24l-177 -362v-231c0 -28 -24 -54 -56 -54zM251 825c-26 -21 -62 -65 -88 -65
c-20 0 -43 14 -43 36c0 16 18 35 32 46l69 55c8 6 17 11 30 11s22 -5 30 -11l69 -55c14 -11 32 -30 32 -46c0 -22 -23 -36 -43 -36c-26 0 -62 44 -88 65z" />
    <glyph glyph-name="ycircumflex" unicode="&#x177;" horiz-adv-x="442" 
d="M426 445l-122 -376c-51 -158 -89 -272 -230 -272c-32 0 -55 21 -55 49c0 24 19 47 51 49c53 0 78 36 106 120l-157 428c-3 7 -3 15 -3 20c0 27 23 47 54 47c20 0 41 -11 49 -34l9 -27c34 -101 68 -201 101 -304c30 112 61 221 95 331c7 23 31 34 51 34
c27 0 54 -20 54 -50c0 -5 -1 -10 -3 -15zM212 625c-26 -21 -62 -65 -88 -65c-20 0 -43 14 -43 36c0 16 18 35 32 46l69 55c8 6 17 11 30 11s22 -5 30 -11l69 -55c14 -11 32 -30 32 -46c0 -22 -23 -36 -43 -36c-26 0 -62 44 -88 65z" />
    <glyph glyph-name="Ydieresis" unicode="&#x178;" horiz-adv-x="503" 
d="M251 -10c-31 0 -56 25 -56 54v232l-177 361c-2 6 -5 16 -5 24c0 29 28 53 56 53c17 0 35 -7 44 -23l138 -288l138 288c9 16 27 23 44 23c29 0 56 -24 56 -53c0 -7 -3 -17 -5 -24l-177 -362v-231c0 -28 -24 -54 -56 -54zM394 834c0 -31 -25 -56 -56 -56s-57 26 -57 56
c0 29 26 54 57 54s56 -24 56 -54zM220 834c0 -31 -25 -56 -57 -56c-31 0 -55 26 -55 56c0 29 24 54 55 54c32 0 57 -24 57 -54z" />
    <glyph glyph-name="Zacute" unicode="&#x179;" horiz-adv-x="504" 
d="M479 53c0 -30 -25 -53 -55 -53h-343c-33 0 -57 25 -57 56c0 11 7 29 12 38c49 81 246 424 295 506h-251c-31 0 -54 23 -54 52c0 28 23 53 54 53h339c33 0 58 -25 58 -55c0 -15 -6 -27 -12 -37l-298 -509h257c29 0 55 -22 55 -51zM297 907l10 10c10 10 16 15 33 15
c19 0 40 -17 40 -41c0 -10 -4 -19 -13 -28l-75 -78c-12 -13 -22 -20 -39 -20c-22 0 -42 17 -42 42c0 24 57 71 86 100z" />
    <glyph glyph-name="zacute" unicode="&#x17a;" horiz-adv-x="409" 
d="M394 454c0 -11 -3 -24 -11 -35l-232 -324h193c30 0 52 -21 52 -48c0 -26 -22 -47 -52 -47h-277c-29 0 -55 23 -55 53c0 10 2 20 10 31l232 326h-181c-28 0 -51 21 -51 47c0 28 23 48 51 48h265c30 0 56 -19 56 -51zM247 707l10 10c10 10 16 15 33 15c19 0 40 -17 40 -41
c0 -10 -4 -19 -13 -28l-75 -78c-12 -13 -22 -20 -39 -20c-22 0 -42 17 -42 42c0 24 57 71 86 100z" />
    <glyph glyph-name="Zdotaccent" unicode="&#x17b;" horiz-adv-x="504" 
d="M479 53c0 -30 -25 -53 -55 -53h-343c-33 0 -57 25 -57 56c0 11 7 29 12 38c49 81 246 424 295 506h-251c-31 0 -54 23 -54 52c0 28 23 53 54 53h339c33 0 58 -25 58 -55c0 -15 -6 -27 -12 -37l-298 -509h257c29 0 55 -22 55 -51zM308 827c0 -31 -25 -56 -57 -56
c-31 0 -55 26 -55 56c0 29 24 54 55 54c32 0 57 -24 57 -54z" />
    <glyph glyph-name="zdotaccent" unicode="&#x17c;" horiz-adv-x="409" 
d="M394 454c0 -11 -3 -24 -11 -35l-232 -324h193c30 0 52 -21 52 -48c0 -26 -22 -47 -52 -47h-277c-29 0 -55 23 -55 53c0 10 2 20 10 31l232 326h-181c-28 0 -51 21 -51 47c0 28 23 48 51 48h265c30 0 56 -19 56 -51zM260 627c0 -31 -25 -56 -57 -56c-31 0 -55 26 -55 56
c0 29 24 54 55 54c32 0 57 -24 57 -54z" />
    <glyph glyph-name="Zcaron" unicode="&#x17d;" horiz-adv-x="504" 
d="M479 53c0 -30 -25 -53 -55 -53h-343c-33 0 -57 25 -57 56c0 11 7 29 12 38c49 81 246 424 295 506h-251c-31 0 -54 23 -54 52c0 28 23 53 54 53h339c33 0 58 -25 58 -55c0 -15 -6 -27 -12 -37l-298 -509h257c29 0 55 -22 55 -51zM252 842c29 23 59 68 93 68
c24 0 44 -13 44 -37c0 -13 -6 -22 -16 -32c-23 -23 -90 -85 -121 -85s-98 62 -121 85c-10 10 -16 19 -16 32c0 24 20 37 44 37c34 0 64 -45 93 -68z" />
    <glyph glyph-name="zcaron" unicode="&#x17e;" horiz-adv-x="404" 
d="M392 454c0 -11 -3 -24 -11 -35l-232 -324h193c30 0 52 -21 52 -48c0 -26 -22 -47 -52 -47h-277c-29 0 -55 23 -55 53c0 10 2 20 10 31l232 326h-181c-28 0 -51 21 -51 47c0 28 23 48 51 48h265c30 0 56 -19 56 -51zM203 642c29 23 59 68 93 68c24 0 44 -13 44 -37
c0 -13 -6 -22 -16 -32c-23 -23 -90 -85 -121 -85s-98 62 -121 85c-10 10 -16 19 -16 32c0 24 20 37 44 37c34 0 64 -45 93 -68z" />
    <glyph glyph-name="florin" unicode="&#x192;" horiz-adv-x="512" 
d="M503 649c0 -41 -27 -42 -48 -42c-11 0 -24 2 -31 2c-30 0 -55 -16 -61 -49l-20 -108h53c30 0 63 -6 63 -47c0 -43 -35 -45 -65 -45h-68l-69 -369c-17 -118 -61 -190 -174 -190c-43 0 -82 4 -82 37c0 13 6 23 16 29c0 19 14 30 35 30h20c1 0 3 -1 4 -1c43 0 60 23 69 74
l71 390h-51c-32 0 -63 6 -63 46c0 34 23 46 49 46h83c24 141 37 252 195 252c33 0 74 -8 74 -55z" />
    <glyph glyph-name="uni0218" unicode="&#x218;" horiz-adv-x="506" 
d="M355 197c0 54 -28 74 -49 85c-99 48 -269 51 -269 231c0 125 84 201 217 201c54 0 186 -13 186 -79c0 -26 -21 -50 -55 -50c-35 0 -59 27 -125 27c-57 0 -110 -21 -110 -94c0 -55 30 -74 50 -84c101 -52 269 -52 269 -230c0 -136 -100 -213 -234 -213
c-69 0 -199 22 -199 84c0 26 22 51 51 51c30 0 69 -33 149 -33c79 0 119 38 119 104zM317 -104c0 -55 -55 -134 -87 -134c-9 0 -18 5 -18 17c0 21 25 34 37 62c-34 2 -59 17 -59 54c0 31 20 54 63 54c44 0 64 -24 64 -53z" />
    <glyph glyph-name="uni0219" unicode="&#x219;" horiz-adv-x="426" 
d="M48 363c0 90 60 150 177 150c59 0 144 -15 144 -73c0 -27 -18 -41 -44 -41c-32 0 -47 22 -100 22c-25 0 -71 -5 -71 -48c0 -98 233 -50 233 -229c0 -93 -63 -151 -182 -151c-57 0 -163 13 -163 66c0 18 12 59 56 48c18 -4 61 -23 103 -23c45 0 80 22 80 58
c0 94 -233 44 -233 221zM277 -104c0 -55 -55 -134 -87 -134c-9 0 -18 5 -18 17c0 21 25 34 37 62c-34 2 -59 17 -59 54c0 31 20 54 63 54c44 0 64 -24 64 -53z" />
    <glyph glyph-name="uni021A" unicode="&#x21a;" horiz-adv-x="503" 
d="M196 42v560h-121c-32 0 -55 24 -55 51c0 23 24 52 55 52h352c28 0 56 -23 56 -52c0 -27 -26 -51 -56 -51h-121v-560c0 -27 -25 -52 -55 -52c-31 0 -55 25 -55 52zM315 -104c0 -55 -55 -134 -87 -134c-9 0 -18 5 -18 17c0 21 25 34 37 62c-34 2 -59 17 -59 54
c0 31 20 54 63 54c44 0 64 -24 64 -53z" />
    <glyph glyph-name="uni021B" unicode="&#x21b;" horiz-adv-x="341" 
d="M69 205v403c0 28 19 50 54 50c34 0 54 -23 54 -50v-124h89c28 0 51 -21 51 -49c0 -27 -23 -48 -51 -48h-89v-175c0 -88 8 -120 68 -120c7 0 14 1 18 1c43 0 67 -11 67 -45c0 -46 -38 -52 -77 -52c-147 0 -184 72 -184 209zM286 -104c0 -55 -55 -134 -87 -134
c-9 0 -18 5 -18 17c0 21 25 34 37 62c-34 2 -59 17 -59 54c0 31 20 54 63 54c44 0 64 -24 64 -53z" />
    <glyph glyph-name="dotlessj" unicode="&#x237;" horiz-adv-x="265" 
d="M186 467v-467c0 -113 -64 -195 -175 -195c-23 0 -42 14 -47 36v-1c-1 5 -2 10 -2 14c0 28 25 41 43 45c45 10 73 35 73 97v471c0 28 23 51 54 51c30 0 54 -23 54 -51z" />
    <glyph glyph-name="circumflex" unicode="&#x2c6;" horiz-adv-x="416" 
d="M212 625c-26 -21 -62 -65 -88 -65c-20 0 -43 14 -43 36c0 16 18 35 32 46l69 55c8 6 17 11 30 11s22 -5 30 -11l69 -55c14 -11 32 -30 32 -46c0 -22 -23 -36 -43 -36c-26 0 -62 44 -88 65z" />
    <glyph glyph-name="caron" unicode="&#x2c7;" horiz-adv-x="411" 
d="M211 642c29 23 59 68 93 68c24 0 44 -13 44 -37c0 -13 -6 -22 -16 -32c-23 -23 -90 -85 -121 -85s-98 62 -121 85c-10 10 -16 19 -16 32c0 24 20 37 44 37c34 0 64 -45 93 -68z" />
    <glyph glyph-name="breve" unicode="&#x2d8;" horiz-adv-x="387" 
d="M193 639c30 0 47 18 62 36c10 12 20 19 37 19c21 0 44 -11 36 -46c-13 -55 -87 -86 -136 -86c-52 0 -123 34 -135 86c-8 35 15 46 36 46c19 0 29 -10 37 -19c15 -18 32 -36 63 -36z" />
    <glyph glyph-name="dotaccent" unicode="&#x2d9;" horiz-adv-x="264" 
d="M188 627c0 -31 -25 -56 -57 -56c-31 0 -55 26 -55 56c0 29 24 54 55 54c32 0 57 -24 57 -54z" />
    <glyph glyph-name="ring" unicode="&#x2da;" horiz-adv-x="591" 
d="M386 644c0 -58 -46 -104 -104 -104c-59 0 -105 46 -105 104c0 57 46 104 105 104c58 0 104 -47 104 -104zM331 644c0 27 -22 50 -49 50s-49 -23 -49 -50s22 -49 49 -49s49 22 49 49z" />
    <glyph glyph-name="ogonek" unicode="&#x2db;" horiz-adv-x="342" 
d="M270 -161c0 -40 -52 -46 -86 -46c-67 0 -112 30 -112 96c0 36 17 76 42 111h81l-15 -26c-13 -22 -23 -48 -23 -69c0 -22 12 -34 39 -34c22 0 30 3 38 3c18 0 36 -17 36 -35z" />
    <glyph glyph-name="tilde" unicode="&#x2dc;" horiz-adv-x="395" 
d="M342 646c0 -38 -49 -66 -86 -67c-48 0 -76 33 -106 36c-33 2 -37 -31 -64 -31c-18 0 -38 13 -38 34c0 41 41 72 85 72c49 0 74 -34 106 -36c34 0 35 31 63 32c21 0 40 -17 40 -40z" />
    <glyph glyph-name="hungarumlaut" unicode="&#x2dd;" horiz-adv-x="430" 
d="M72 615l63 92c12 15 20 32 44 32c21 0 42 -21 42 -43c0 -8 -3 -14 -8 -21l-60 -90c-11 -17 -22 -27 -42 -27c-23 0 -43 20 -43 43c0 5 1 9 4 14zM225 615l63 92c10 15 20 32 43 32c21 0 44 -22 44 -42c0 -5 -2 -10 -5 -15l-65 -97c-11 -16 -20 -27 -41 -27
c-23 0 -44 20 -44 42c0 5 1 10 5 15z" />
    <glyph glyph-name="uni0400" unicode="&#x400;" horiz-adv-x="494" 
d="M466 53c0 -30 -25 -53 -55 -53h-265c-41 0 -78 14 -78 59v587c0 29 26 59 62 59h271c30 0 55 -24 55 -53s-25 -50 -55 -50h-223v-197h204c27 0 54 -22 54 -51s-24 -52 -54 -52h-204v-200h233c29 0 55 -22 55 -49zM245 907c29 -29 86 -76 86 -100c0 -25 -20 -42 -42 -42
c-17 0 -27 7 -39 20l-75 78c-9 9 -13 18 -13 28c0 24 21 41 40 41c17 0 23 -5 33 -15z" />
    <glyph glyph-name="uni0401" unicode="&#x401;" horiz-adv-x="494" 
d="M466 53c0 -30 -25 -53 -55 -53h-265c-41 0 -78 14 -78 59v587c0 29 26 59 62 59h271c30 0 55 -24 55 -53s-25 -50 -55 -50h-223v-197h204c27 0 54 -22 54 -51s-24 -52 -54 -52h-204v-200h233c29 0 55 -22 55 -49zM417 834c0 -31 -25 -56 -56 -56s-57 26 -57 56
c0 29 26 54 57 54s56 -24 56 -54zM243 834c0 -31 -25 -56 -57 -56c-31 0 -55 26 -55 56c0 29 24 54 55 54c32 0 57 -24 57 -54z" />
    <glyph glyph-name="uni0402" unicode="&#x402;" horiz-adv-x="664" 
d="M156 42v561h-81c-32 0 -55 25 -55 50s24 52 55 52h352c28 0 56 -22 56 -51c0 -28 -26 -51 -56 -51h-161v-171c37 16 78 23 115 23c142 0 225 -78 225 -231c0 -143 -69 -234 -180 -234c-62 0 -107 31 -107 67c0 27 23 48 50 48c21 0 21 -12 49 -12c49 0 78 40 78 129
c0 96 -39 130 -121 130c-36 0 -76 -8 -109 -27v-283c0 -27 -25 -52 -55 -52c-31 0 -55 25 -55 52z" />
    <glyph glyph-name="uni0403" unicode="&#x403;" horiz-adv-x="466" 
d="M293 907l10 10c10 10 16 15 33 15c19 0 40 -17 40 -41c0 -10 -4 -19 -13 -28l-75 -78c-12 -13 -22 -20 -39 -20c-22 0 -42 17 -42 42c0 24 57 71 86 100zM178 603v-560c0 -27 -25 -52 -55 -52c-31 0 -55 25 -55 52v605c0 28 25 57 60 57h272c30 0 54 -24 54 -51
c0 -29 -24 -51 -54 -51h-222z" />
    <glyph glyph-name="uni0404" unicode="&#x404;" horiz-adv-x="502" 
d="M40 250v206c0 156 75 258 240 258c98 0 192 -44 192 -96c0 -26 -22 -48 -51 -48c-19 0 -26 6 -40 16c-24 17 -61 31 -96 31c-102 0 -135 -62 -135 -161v-51h171c28 0 53 -22 53 -51s-23 -53 -53 -53h-171v-51c0 -99 33 -161 135 -161c64 0 101 46 136 46
c29 0 51 -22 51 -47c0 -53 -94 -96 -192 -96c-165 0 -240 102 -240 258z" />
    <glyph glyph-name="uni0405" unicode="&#x405;" horiz-adv-x="506" 
d="M355 197c0 54 -28 74 -49 85c-99 48 -269 51 -269 231c0 125 84 201 217 201c54 0 186 -13 186 -79c0 -26 -21 -50 -55 -50c-35 0 -59 27 -125 27c-57 0 -110 -21 -110 -94c0 -55 30 -74 50 -84c101 -52 269 -52 269 -230c0 -136 -100 -213 -234 -213
c-69 0 -199 22 -199 84c0 26 22 51 51 51c30 0 69 -33 149 -33c79 0 119 38 119 104z" />
    <glyph glyph-name="uni0406" unicode="&#x406;" horiz-adv-x="247" 
d="M68 42v620c0 28 24 52 55 52c30 0 55 -24 55 -52v-620c0 -27 -25 -52 -55 -52c-31 0 -55 25 -55 52z" />
    <glyph glyph-name="uni0407" unicode="&#x407;" horiz-adv-x="247" 
d="M68 42v620c0 28 24 52 55 52c30 0 55 -24 55 -52v-620c0 -27 -25 -52 -55 -52c-31 0 -55 25 -55 52zM267 834c0 -31 -25 -56 -56 -56s-57 26 -57 56c0 29 26 54 57 54s56 -24 56 -54zM93 834c0 -31 -25 -56 -57 -56c-31 0 -55 26 -55 56c0 29 24 54 55 54
c32 0 57 -24 57 -54z" />
    <glyph glyph-name="uni0408" unicode="&#x408;" horiz-adv-x="405" 
d="M337 662v-432c0 -149 -51 -240 -217 -240c-33 0 -100 4 -100 57c0 33 28 51 50 51c17 0 33 -6 61 -6c79 0 96 53 96 138v432c0 29 23 52 55 52c29 0 55 -24 55 -52z" />
    <glyph glyph-name="uni0409" unicode="&#x409;" horiz-adv-x="904" 
d="M437 603h-164l-30 -428c-8 -108 -49 -182 -140 -182c-48 0 -88 0 -88 50c0 37 21 55 49 55c7 0 11 -2 28 -3c26 0 38 25 42 76l36 479c1 34 29 55 58 55h261c32 0 59 -25 59 -55v-194h79c146 0 240 -81 240 -226c0 -120 -63 -230 -240 -230h-127c-34 0 -63 27 -63 60v543
zM548 102h55c126 0 154 54 154 127c0 85 -45 124 -130 124h-79v-251z" />
    <glyph glyph-name="uni040A" unicode="&#x40a;" horiz-adv-x="868" 
d="M178 301v-258c0 -28 -25 -52 -55 -52c-31 0 -55 24 -55 52v619c0 28 24 52 55 52c30 0 55 -24 55 -52v-258h223v256c0 30 26 54 55 54c30 0 55 -25 55 -54v-204h80c146 0 240 -81 240 -226c0 -120 -63 -230 -240 -230h-127c-34 0 -63 27 -63 60v241h-223zM511 353v-251
h80c106 0 130 65 130 127c0 85 -45 124 -130 124h-80z" />
    <glyph glyph-name="uni040B" unicode="&#x40b;" horiz-adv-x="664" 
d="M483 654c0 -28 -26 -51 -56 -51h-161v-173c37 17 76 25 118 25c138 0 222 -81 222 -226v-185c0 -28 -25 -54 -55 -54c-29 0 -55 25 -55 54v184c0 89 -40 124 -120 124c-39 0 -77 -8 -110 -27v-283c0 -27 -25 -52 -55 -52c-31 0 -55 25 -55 52v561h-81
c-32 0 -55 24 -55 50c0 24 24 52 55 52h352c28 0 56 -22 56 -51z" />
    <glyph glyph-name="uni040C" unicode="&#x40c;" horiz-adv-x="536" 
d="M323 907l10 10c10 10 16 15 33 15c19 0 40 -17 40 -41c0 -10 -4 -19 -13 -28l-75 -78c-12 -13 -22 -20 -39 -20c-22 0 -42 17 -42 42c0 24 57 71 86 100zM178 662v-258h35l204 286c12 17 28 24 46 24c33 0 53 -31 53 -55c0 -8 -2 -16 -8 -26l-204 -281l204 -280
c6 -11 8 -19 8 -27c0 -23 -20 -55 -53 -55c-18 0 -34 8 -46 24l-205 287h-34v-258c0 -28 -25 -53 -55 -53c-31 0 -55 25 -55 53v619c0 28 24 52 55 52c30 0 55 -24 55 -52z" />
    <glyph glyph-name="uni040D" unicode="&#x40d;" horiz-adv-x="609" 
d="M253 907c29 -29 86 -76 86 -100c0 -25 -20 -42 -42 -42c-17 0 -27 7 -39 20l-75 78c-9 9 -13 18 -13 28c0 24 21 41 40 41c17 0 23 -5 33 -15zM127 -10c-35 0 -59 26 -59 56v615c0 29 23 53 54 53c30 0 56 -24 56 -53v-444c46 81 210 390 255 467c11 18 33 30 55 30
c33 0 58 -24 58 -56v-615c0 -28 -24 -53 -54 -53s-56 25 -56 53v442l-255 -466c-11 -17 -33 -29 -54 -29z" />
    <glyph glyph-name="uni040E" unicode="&#x40e;" horiz-adv-x="523" 
d="M261 839c30 0 47 18 62 36c10 12 20 19 37 19c21 0 44 -11 36 -46c-13 -55 -87 -86 -136 -86c-52 0 -123 34 -135 86c-8 35 15 46 36 46c19 0 29 -10 37 -19c15 -18 32 -36 63 -36zM499 646l-161 -418c-51 -132 -94 -232 -230 -235c-32 0 -55 20 -55 49c0 24 19 48 51 50
c54 2 79 22 105 82l-186 473c-3 6 -3 14 -3 19c0 28 23 48 54 48c20 0 40 -12 49 -34l88 -227c20 -52 35 -106 52 -159c42 130 87 259 136 386c8 22 29 34 50 34c27 0 54 -21 54 -51c0 -6 -2 -14 -4 -17z" />
    <glyph glyph-name="uni040F" unicode="&#x40f;" horiz-adv-x="599" 
d="M244 -112v112h-121c-31 0 -55 24 -55 52v610c0 29 24 53 55 53c30 0 55 -24 55 -53v-560h243v560c0 29 26 53 55 53c30 0 55 -24 55 -53v-610c0 -28 -26 -52 -55 -52h-122v-112c0 -27 -25 -52 -55 -52c-31 0 -55 25 -55 52z" />
    <glyph glyph-name="uni0410" unicode="&#x410;" horiz-adv-x="569" 
d="M166 149l-37 -120c-7 -24 -34 -38 -52 -38c-31 0 -57 20 -57 51c0 5 1 15 2 19l195 593c11 34 28 60 67 60s55 -25 67 -60l195 -593c2 -4 3 -14 3 -19c0 -31 -25 -51 -57 -51c-36 0 -48 25 -61 61l-32 97h-233zM284 549c-25 -106 -57 -203 -87 -304h173
c-31 101 -65 200 -86 304z" />
    <glyph glyph-name="uni0411" unicode="&#x411;" horiz-adv-x="551" 
d="M420 603h-242v-166h100c146 0 240 -77 240 -217c0 -115 -63 -220 -240 -220h-147c-34 0 -63 27 -63 60v588c0 28 25 57 60 57h292c30 0 54 -24 54 -51c0 -29 -24 -51 -54 -51zM178 102h100c106 0 130 60 130 117c0 78 -45 115 -130 115h-100v-232z" />
    <glyph glyph-name="uni0412" unicode="&#x412;" horiz-adv-x="562" 
d="M178 417h115c50 0 107 31 107 98c0 46 -24 88 -95 88h-127v-186zM296 314h-118v-212h117c83 0 124 41 124 103c0 70 -53 109 -123 109zM296 0h-165c-36 0 -63 27 -63 60v585c0 34 29 60 63 60h169c140 0 210 -93 210 -189c0 -78 -50 -121 -117 -151
c64 -23 136 -61 136 -160c0 -115 -89 -205 -233 -205z" />
    <glyph glyph-name="uni0413" unicode="&#x413;" horiz-adv-x="466" 
d="M178 603v-560c0 -27 -25 -52 -55 -52c-31 0 -55 25 -55 52v605c0 28 25 57 60 57h272c30 0 54 -24 54 -51c0 -29 -24 -51 -54 -51h-222z" />
    <glyph glyph-name="uni0414" unicode="&#x414;" horiz-adv-x="648" 
d="M501 705c32 0 59 -25 59 -55v-548c38 0 66 -21 66 -62v-106c0 -41 -14 -73 -56 -73c-31 0 -54 22 -54 51v88h-386v-88c0 -27 -26 -51 -54 -51c-41 0 -54 31 -54 73v106c0 43 29 62 68 62c33 42 51 127 57 242l15 306c0 34 33 55 58 55h281zM257 343
c-5 -100 -21 -183 -52 -241h245v501h-184z" />
    <glyph glyph-name="uni0415" unicode="&#x415;" horiz-adv-x="494" 
d="M466 53c0 -30 -25 -53 -55 -53h-265c-41 0 -78 14 -78 59v587c0 29 26 59 62 59h271c30 0 55 -24 55 -53s-25 -50 -55 -50h-223v-197h204c27 0 54 -22 54 -51s-24 -52 -54 -52h-204v-200h233c29 0 55 -22 55 -49z" />
    <glyph glyph-name="uni0416" unicode="&#x416;" horiz-adv-x="766" 
d="M438 662v-258h24c54 82 118 184 173 267c14 21 30 41 56 41c34 0 55 -27 55 -53c0 -8 -2 -16 -7 -25l-180 -282l180 -282c5 -9 7 -17 7 -25c0 -26 -21 -53 -55 -53c-29 0 -43 23 -56 41l-173 268h-24v-234c0 -37 -12 -76 -55 -76c-31 0 -55 24 -55 52v258h-24l-174 -268
c-15 -21 -30 -41 -56 -41c-34 0 -54 27 -54 53c0 8 1 16 7 25c59 94 120 188 179 282c-59 94 -120 188 -179 282c-6 9 -7 17 -7 25c0 27 19 53 54 53c27 0 42 -22 56 -41l174 -267h24v235c0 37 11 75 55 75c30 0 55 -24 55 -52z" />
    <glyph glyph-name="uni0417" unicode="&#x417;" horiz-adv-x="505" 
d="M469 198c0 -110 -89 -207 -231 -207c-81 0 -213 31 -213 94c0 27 23 48 51 48c8 0 15 -2 24 -7c37 -19 72 -39 127 -39c88 0 133 50 133 112c0 81 -79 101 -159 109c-27 3 -63 3 -63 51c0 47 34 47 57 49c74 6 150 35 150 112c0 47 -29 98 -109 98c-32 0 -64 -8 -85 -18
c-23 -11 -43 -29 -66 -29c-25 0 -49 20 -49 46c0 59 120 97 206 97c139 0 209 -101 209 -194c0 -73 -43 -122 -116 -156c80 -30 134 -80 134 -166z" />
    <glyph glyph-name="uni0418" unicode="&#x418;" horiz-adv-x="614" 
d="M127 -10c-35 0 -59 26 -59 56v615c0 29 23 53 54 53c30 0 56 -24 56 -53v-444c46 81 210 390 255 467c11 18 33 30 55 30c33 0 58 -24 58 -56v-615c0 -28 -24 -53 -54 -53s-56 25 -56 53v442l-255 -466c-11 -17 -33 -29 -54 -29z" />
    <glyph glyph-name="uni0419" unicode="&#x419;" horiz-adv-x="609" 
d="M304 839c30 0 47 18 62 36c10 12 20 19 37 19c21 0 44 -11 36 -46c-13 -55 -87 -86 -136 -86c-52 0 -123 34 -135 86c-8 35 15 46 36 46c19 0 29 -10 37 -19c15 -18 32 -36 63 -36zM127 -10c-35 0 -59 26 -59 56v615c0 29 23 53 54 53c30 0 56 -24 56 -53v-444
c46 81 210 390 255 467c11 18 33 30 55 30c33 0 58 -24 58 -56v-615c0 -28 -24 -53 -54 -53s-56 25 -56 53v442l-255 -466c-11 -17 -33 -29 -54 -29z" />
    <glyph glyph-name="uni041A" unicode="&#x41a;" horiz-adv-x="536" 
d="M178 662v-258h35l204 286c12 17 28 24 46 24c33 0 53 -31 53 -55c0 -8 -2 -16 -8 -26l-204 -281l204 -280c6 -11 8 -19 8 -27c0 -23 -20 -55 -53 -55c-18 0 -34 8 -46 24l-205 287h-34v-258c0 -28 -25 -53 -55 -53c-31 0 -55 25 -55 53v619c0 28 24 52 55 52
c30 0 55 -24 55 -52z" />
    <glyph glyph-name="uni041B" unicode="&#x41b;" horiz-adv-x="637" 
d="M568 43c-1 -29 -26 -50 -55 -50c-31 0 -55 21 -55 50v560h-185l-30 -428c-8 -108 -49 -182 -140 -182c-46 0 -91 1 -91 51c0 38 26 54 52 54c7 0 11 -2 18 -3h10c26 0 38 25 42 76l36 479c2 34 29 55 58 55h281c32 0 59 -25 59 -55v-607z" />
    <glyph glyph-name="uni041C" unicode="&#x41c;" horiz-adv-x="724" 
d="M661 660v-619c0 -27 -25 -51 -54 -51c-30 0 -56 24 -56 51v416l-138 -284c-10 -21 -30 -31 -52 -31s-41 10 -52 31l-137 284v-416c0 -27 -26 -51 -57 -51c-30 0 -53 24 -53 51v619c0 31 24 54 57 54c26 0 45 -11 56 -32l187 -386l186 387c12 23 33 31 56 31
c32 0 57 -24 57 -54z" />
    <glyph glyph-name="uni041D" unicode="&#x41d;" horiz-adv-x="600" 
d="M531 43c0 -28 -25 -53 -55 -53c-29 0 -55 25 -55 53v258h-243v-258c0 -28 -25 -53 -55 -53c-31 0 -55 25 -55 53v619c0 28 24 52 55 52c30 0 55 -24 55 -52v-258h243v258c0 28 26 52 55 52s55 -24 55 -52v-619z" />
    <glyph glyph-name="uni041E" unicode="&#x41e;" horiz-adv-x="580" 
d="M290 -10c-163 0 -245 116 -245 260v206c0 140 69 258 245 258s245 -118 245 -258v-206c0 -144 -82 -260 -245 -260zM290 612c-99 0 -135 -63 -135 -156v-206c0 -93 42 -157 135 -157c92 0 135 64 135 157v206c0 93 -36 156 -135 156z" />
    <glyph glyph-name="uni041F" unicode="&#x41f;" horiz-adv-x="599" 
d="M531 43c0 -28 -25 -53 -55 -53c-29 0 -55 25 -55 53v560h-243v-560c0 -28 -25 -53 -55 -53c-31 0 -55 25 -55 53v610c0 28 24 53 55 53h353c29 0 55 -25 55 -53v-610z" />
    <glyph glyph-name="uni0420" unicode="&#x420;" horiz-adv-x="550" 
d="M278 250h-100v-206c0 -28 -25 -54 -55 -54c-29 0 -55 25 -55 54v601c0 32 29 60 63 60h147c177 0 240 -110 240 -229c0 -145 -94 -226 -240 -226zM178 602v-250h100c85 0 130 40 130 125c0 62 -24 125 -130 125h-100z" />
    <glyph glyph-name="uni0421" unicode="&#x421;" horiz-adv-x="501" 
d="M40 250v206c0 156 75 258 240 258c98 0 192 -44 192 -96c0 -26 -22 -48 -51 -48c-19 0 -25 7 -40 16l-5 3c-27 19 -56 28 -91 28c-102 0 -135 -62 -135 -161v-206c0 -99 33 -161 135 -161c35 0 64 9 91 27l5 3c15 9 21 16 40 16c29 0 51 -22 51 -47
c0 -53 -94 -96 -192 -96c-165 0 -240 102 -240 258z" />
    <glyph glyph-name="uni0422" unicode="&#x422;" horiz-adv-x="503" 
d="M196 42v560h-121c-32 0 -55 24 -55 51c0 23 24 52 55 52h352c28 0 56 -23 56 -52c0 -27 -26 -51 -56 -51h-121v-560c0 -27 -25 -52 -55 -52c-31 0 -55 25 -55 52z" />
    <glyph glyph-name="uni0423" unicode="&#x423;" horiz-adv-x="523" 
d="M499 646l-161 -418c-51 -132 -94 -232 -230 -235c-32 0 -55 20 -55 49c0 24 19 48 51 50c54 2 79 22 105 82l-186 473c-3 6 -3 14 -3 19c0 28 23 48 54 48c20 0 40 -12 49 -34l88 -227c20 -52 35 -106 52 -159c42 130 87 259 136 386c8 22 29 34 50 34
c27 0 54 -21 54 -51c0 -6 -2 -14 -4 -17z" />
    <glyph glyph-name="uni0424" unicode="&#x424;" horiz-adv-x="770" 
d="M330 42v111h-50c-146 0 -240 81 -240 227c0 119 63 230 240 230h50v52c0 28 27 52 55 52c33 0 55 -24 55 -52v-52h50c177 0 240 -111 240 -230c0 -146 -94 -227 -240 -227h-50v-111c0 -27 -25 -52 -55 -52c-31 0 -55 25 -55 52zM490 507h-50v-251h50c85 0 130 40 130 125
c0 62 -24 126 -130 126zM280 256h50v251h-50c-106 0 -130 -64 -130 -126c0 -85 45 -125 130 -125z" />
    <glyph glyph-name="uni0425" unicode="&#x425;" horiz-adv-x="518" 
d="M259 277c-48 -84 -97 -168 -146 -252c-9 -15 -24 -34 -51 -34c-28 0 -53 25 -53 52c0 10 4 22 8 28c60 99 118 197 178 295l-163 269c-4 8 -7 19 -7 28c0 26 24 51 52 51c25 0 44 -19 56 -40l126 -218l126 218c10 17 31 39 57 40c27 0 51 -23 51 -52c0 -8 -3 -18 -7 -27
l-162 -269l177 -295c4 -6 8 -18 8 -28c0 -27 -25 -52 -52 -52s-42 17 -52 34z" />
    <glyph glyph-name="uni0426" unicode="&#x426;" horiz-adv-x="624" 
d="M123 0c-31 0 -55 24 -55 52v609c0 29 24 53 55 53c30 0 55 -24 55 -53v-559h243v559c0 29 26 53 55 53c30 0 55 -24 55 -53v-559h25c29 0 55 -24 55 -52v-155c0 -29 -26 -53 -55 -53s-55 24 -55 53v105h-49h-1h-328z" />
    <glyph glyph-name="uni0427" unicode="&#x427;" horiz-adv-x="567" 
d="M388 378v282c0 29 24 54 55 54c29 0 55 -24 55 -54v-616c0 -29 -26 -53 -55 -53c-31 0 -55 25 -55 53v230c-38 -18 -79 -24 -117 -24c-140 0 -223 81 -223 226v184c0 29 24 54 55 54c29 0 55 -24 55 -54v-183c0 -89 41 -125 119 -125c38 0 77 9 111 26z" />
    <glyph glyph-name="uni0428" unicode="&#x428;" horiz-adv-x="780" 
d="M711 661v-609c0 -28 -26 -52 -55 -52h-533c-31 0 -55 24 -55 52v609c0 29 24 53 55 53c30 0 55 -24 55 -53v-559h156v560c0 28 24 52 55 52c30 0 55 -24 55 -52v-560h157v559c0 29 26 53 55 53c30 0 55 -24 55 -53z" />
    <glyph glyph-name="uni0429" unicode="&#x429;" horiz-adv-x="804" 
d="M123 0c-31 0 -55 24 -55 52v609c0 29 24 53 55 53c30 0 55 -24 55 -53v-559h156v560c0 28 24 52 55 52c30 0 55 -24 55 -52v-560h157v559c0 29 26 53 55 53c30 0 55 -24 55 -53v-559h25c29 0 55 -24 55 -52v-151c0 -28 -25 -53 -55 -53c-29 0 -55 25 -55 53v101h-558z
" />
    <glyph glyph-name="uni042A" unicode="&#x42a;" horiz-adv-x="679" 
d="M187 60v543h-117c-31 0 -54 22 -54 51c0 27 23 51 54 51h167c34 0 60 -29 60 -57v-192h100c146 0 240 -81 240 -226c0 -120 -63 -230 -240 -230h-147c-34 0 -63 27 -63 60zM297 102h100c106 0 130 65 130 127c0 85 -45 124 -130 124h-100v-251z" />
    <glyph glyph-name="uni042B" unicode="&#x42b;" horiz-adv-x="755" 
d="M178 456h95c146 0 240 -81 240 -226c0 -120 -63 -230 -240 -230h-142c-34 0 -63 27 -63 60v600c0 30 26 54 55 54c30 0 55 -25 55 -54v-204zM178 353v-251h95c106 0 130 65 130 127c0 85 -45 124 -130 124h-95zM576 42v620c0 28 24 52 55 52c30 0 55 -24 55 -52v-620
c0 -27 -25 -51 -55 -51c-31 0 -55 24 -55 51z" />
    <glyph glyph-name="uni042C" unicode="&#x42c;" horiz-adv-x="560" 
d="M178 456h100c146 0 240 -81 240 -226c0 -120 -63 -230 -240 -230h-147c-34 0 -63 27 -63 60v600c0 30 26 54 55 54c30 0 55 -25 55 -54v-204zM178 353v-251h100c106 0 130 65 130 127c0 85 -45 124 -130 124h-100z" />
    <glyph glyph-name="uni042D" unicode="&#x42d;" horiz-adv-x="518" 
d="M474 456v-206c0 -156 -75 -258 -240 -258c-98 0 -192 43 -192 96c0 25 22 47 51 47c18 0 25 -7 40 -16c30 -19 59 -30 96 -30c102 0 135 62 135 161v51h-171c-30 0 -53 24 -53 53s25 51 53 51h171v51c0 99 -33 161 -135 161c-28 0 -54 -6 -76 -19
c-19 -11 -37 -28 -60 -28c-29 0 -51 22 -51 48c0 52 94 96 192 96c165 0 240 -102 240 -258z" />
    <glyph glyph-name="uni042E" unicode="&#x42e;" horiz-adv-x="798" 
d="M518 -10c-156 0 -235 112 -235 250v62h-105v-259c0 -28 -25 -53 -55 -53c-31 0 -55 25 -55 53v619c0 28 24 52 55 52c30 0 55 -24 55 -52v-258h105v61c0 136 66 249 235 249s235 -113 235 -249v-225c0 -138 -79 -250 -235 -250zM518 612c-92 0 -125 -59 -125 -147v-225
c0 -87 39 -147 125 -147c85 0 125 60 125 147v225c0 88 -33 147 -125 147z" />
    <glyph glyph-name="uni042F" unicode="&#x42f;" horiz-adv-x="581" 
d="M65 499c0 102 56 206 233 206h154c33 0 61 -27 61 -60v-601c0 -29 -24 -54 -54 -54s-56 26 -56 54v254h-73l-171 -282c-10 -16 -27 -25 -46 -25c-22 0 -58 22 -58 50c0 10 3 23 8 32l148 235c-91 23 -146 88 -146 191zM175 499c0 -65 41 -100 116 -100h112v204h-106
c-100 0 -122 -54 -122 -104z" />
    <glyph glyph-name="uni0430" unicode="&#x430;" horiz-adv-x="502" 
d="M317 289v44c0 59 -30 88 -92 88c-26 0 -42 -6 -59 -13l-19 -8c-6 -3 -17 -5 -26 -5c-29 0 -41 23 -41 44c0 53 77 74 155 74c135 0 190 -71 190 -204v-203c0 -25 10 -29 25 -32c21 -4 30 -17 30 -36c0 -28 -21 -42 -59 -42c-35 0 -61 14 -80 45c-37 -32 -81 -48 -136 -48
c-109 0 -165 61 -165 154v3c0 100 62 151 187 151c31 0 61 -4 90 -12zM230 219c-70 0 -83 -32 -83 -70v-3c0 -40 20 -63 75 -63c34 0 64 10 95 35v90c-29 7 -62 11 -87 11z" />
    <glyph glyph-name="uni0431" unicode="&#x431;" horiz-adv-x="485" 
d="M40 465c0 128 63 215 211 230c21 2 45 0 99 25c3 1 11 4 21 4c28 0 50 -21 50 -48c0 -63 -122 -69 -166 -73c-57 -5 -107 -23 -107 -158c26 27 63 42 108 42c119 0 188 -80 188 -182v-131c0 -102 -70 -181 -202 -181s-202 79 -202 181v291zM242 87c62 0 94 33 94 87v132
c0 53 -28 86 -90 86c-59 0 -96 -30 -98 -81v-137c0 -54 32 -87 94 -87z" />
    <glyph glyph-name="uni0432" unicode="&#x432;" horiz-adv-x="488" 
d="M437 364c0 -49 -23 -84 -81 -107c64 -24 91 -62 91 -116c0 -82 -60 -141 -181 -141h-144c-31 0 -54 23 -54 50v404c0 27 23 51 54 51h134c122 0 181 -61 181 -141zM340 150c0 32 -14 66 -86 66h-78v-131h88c50 0 76 20 76 65zM176 419v-124h80c62 0 74 30 74 59
c0 45 -27 65 -76 65h-78z" />
    <glyph glyph-name="uni0433" unicode="&#x433;" horiz-adv-x="402" 
d="M176 412v-369c0 -29 -24 -51 -54 -51c-31 0 -54 22 -54 51v415c0 27 22 47 51 47h225c27 0 51 -20 51 -47c0 -26 -23 -46 -51 -46h-168z" />
    <glyph glyph-name="uni0434" unicode="&#x434;" horiz-adv-x="558" 
d="M425 505c34 0 49 -29 49 -51v-365h17c34 0 49 -28 49 -50v-128c0 -25 -25 -51 -54 -51c-40 0 -54 32 -54 68v72h-306v-72c0 -35 -15 -68 -54 -68c-31 0 -54 22 -54 51v128c0 24 17 50 49 50h18c25 32 39 92 43 174l9 192c1 31 27 50 48 50h240zM366 89v326h-129l-6 -153
c-3 -70 -15 -130 -38 -173h173z" />
    <glyph glyph-name="uni0435" unicode="&#x435;" horiz-adv-x="459" 
d="M242 197c-28 0 -57 2 -89 7v-46c0 -45 31 -74 94 -74c37 0 64 10 97 25c3 2 10 5 22 5c34 0 49 -25 49 -45c0 -60 -118 -77 -177 -77c-123 0 -193 74 -193 171v177c0 98 69 173 198 173c121 0 181 -66 181 -166c0 -94 -55 -150 -182 -150zM317 350c0 53 -27 74 -76 74
c-56 0 -88 -30 -88 -78v-59c34 -4 73 -6 88 -6c57 0 76 27 76 69z" />
    <glyph glyph-name="uni0436" unicode="&#x436;" horiz-adv-x="628" 
d="M333 12c-5 -10 -17 -17 -30 -17c-34 0 -43 32 -43 64v149l-27 -12l-117 -180c-11 -16 -26 -23 -44 -23c-31 0 -52 21 -52 49c3 15 9 27 17 39l111 170l-120 185c-7 9 -8 20 -8 29c1 27 24 43 50 43c24 0 41 -16 55 -37c35 -55 73 -110 108 -166h27v137c0 30 15 68 54 68
c41 0 54 -35 54 -68v-137h25c36 55 73 109 109 165c15 23 29 39 54 39c32 0 51 -21 51 -50c-3 -14 -10 -27 -17 -38l-111 -170l120 -185c6 -8 9 -21 9 -30c-1 -27 -24 -42 -51 -42c-29 0 -43 18 -56 38l-105 162l-28 14v-149c0 -23 -15 -42 -35 -47z" />
    <glyph glyph-name="uni0437" unicode="&#x437;" horiz-adv-x="428" 
d="M379 370c0 -54 -26 -92 -89 -112c70 -19 99 -58 99 -118c0 -87 -62 -147 -186 -147c-57 0 -169 12 -169 70c0 21 15 47 46 47c11 0 21 -4 25 -6c26 -11 55 -22 98 -22c50 0 80 15 80 65c0 24 -8 59 -121 67c-23 2 -45 10 -45 42c0 38 35 39 60 42c88 9 96 49 96 70
c0 36 -24 56 -77 56c-48 0 -67 -21 -97 -22c-46 -2 -55 31 -55 44c0 51 94 67 156 67c119 0 179 -60 179 -143z" />
    <glyph glyph-name="uni0438" unicode="&#x438;" horiz-adv-x="550" 
d="M127 -10c-35 0 -59 25 -59 55v414c0 28 22 52 53 52c30 0 55 -24 55 -52v-283l194 306c11 19 32 29 54 29c34 0 57 -23 57 -55v-413c0 -28 -24 -53 -54 -53c-31 0 -54 25 -54 53v281l-194 -306c-12 -17 -31 -28 -52 -28z" />
    <glyph glyph-name="uni0439" unicode="&#x439;" horiz-adv-x="550" 
d="M275 639c30 0 47 18 62 36c10 12 20 19 37 19c21 0 44 -11 36 -46c-13 -55 -87 -86 -136 -86c-52 0 -123 34 -135 86c-8 35 15 46 36 46c19 0 29 -10 37 -19c15 -18 32 -36 63 -36zM127 -10c-35 0 -59 25 -59 55v414c0 28 22 52 53 52c30 0 55 -24 55 -52v-283l194 306
c11 19 32 29 54 29c34 0 57 -23 57 -55v-413c0 -28 -24 -53 -54 -53c-31 0 -54 25 -54 53v281l-194 -306c-12 -17 -31 -28 -52 -28z" />
    <glyph glyph-name="uni043A" unicode="&#x43a;" horiz-adv-x="456" 
d="M176 207v-161c0 -28 -25 -52 -55 -52c-31 0 -53 24 -53 52v414c0 27 22 51 53 51c30 0 55 -24 55 -52v-154h37l115 164c15 21 31 39 57 39c27 0 50 -17 51 -43c0 -9 -3 -22 -9 -30l-131 -184l131 -185c6 -8 9 -20 9 -29c-1 -28 -24 -43 -51 -43c-29 0 -43 18 -56 37
l-122 176h-31z" />
    <glyph glyph-name="uni043B" unicode="&#x43b;" horiz-adv-x="551" 
d="M483 43c0 -29 -24 -50 -54 -50c-31 0 -54 21 -54 50v372h-131c-7 -83 -13 -165 -20 -248c-8 -104 -47 -171 -135 -171c-37 0 -76 7 -76 46c0 32 23 49 46 49c9 0 11 -2 19 -2c26 0 37 24 42 74l26 292c3 30 24 50 48 50h240c34 0 49 -29 49 -51v-411z" />
    <glyph glyph-name="uni043C" unicode="&#x43c;" horiz-adv-x="660" 
d="M330 78h-2c-22 0 -41 12 -51 30l-102 187v-252c0 -28 -25 -51 -54 -51c-30 0 -53 23 -53 51v414c0 31 24 53 57 53c25 0 41 -12 53 -31l151 -267l151 267c11 19 27 31 53 31c32 0 57 -22 57 -53v-414c0 -28 -25 -51 -53 -51c-31 0 -54 23 -54 51v252l-102 -187
c-11 -18 -29 -30 -51 -30z" />
    <glyph glyph-name="uni043D" unicode="&#x43d;" horiz-adv-x="534" 
d="M176 43c0 -29 -24 -51 -54 -51c-31 0 -54 22 -54 51v417c0 27 23 50 54 50c30 0 54 -23 54 -50v-155h182v155c0 27 23 50 54 50c30 0 54 -23 54 -50v-417c0 -29 -24 -51 -54 -51c-31 0 -54 22 -54 51v173h-182v-173z" />
    <glyph glyph-name="uni043E" unicode="&#x43e;" horiz-adv-x="494" 
d="M247 -8c-132 0 -202 80 -202 182v158c0 103 70 182 202 182s202 -79 202 -182v-158c0 -102 -70 -182 -202 -182zM247 87c62 0 94 33 94 87v159c0 53 -32 86 -94 86s-94 -33 -94 -86v-159c0 -54 32 -87 94 -87z" />
    <glyph glyph-name="uni043F" unicode="&#x43f;" horiz-adv-x="524" 
d="M176 43c0 -29 -24 -50 -54 -50c-31 0 -54 21 -54 50v411c0 28 23 51 54 51h280c30 0 54 -23 54 -51v-411c0 -29 -24 -50 -54 -50c-31 0 -54 21 -54 50v372h-172v-372z" />
    <glyph glyph-name="uni0440" unicode="&#x440;" horiz-adv-x="503" 
d="M279 -7c-31 0 -63 5 -99 20v-177c0 -28 -20 -50 -54 -50c-35 0 -54 23 -54 50v527c0 28 -4 43 -14 58c-6 8 -10 15 -10 26c0 29 26 48 50 48c19 0 34 -10 46 -26c46 26 91 44 143 44c110 0 171 -78 171 -192v-123c0 -119 -44 -205 -179 -205zM180 363v-262
c31 -12 65 -17 87 -17c61 0 83 36 83 114v123c0 65 -27 99 -81 99c-28 0 -60 -10 -93 -27c2 -11 4 -21 4 -30z" />
    <glyph glyph-name="uni0441" unicode="&#x441;" horiz-adv-x="416" 
d="M45 180v143c0 105 59 187 193 187c53 0 155 -14 155 -74c0 -21 -14 -42 -48 -42c-8 0 -15 1 -25 4c-22 10 -41 20 -74 20c-67 0 -93 -35 -93 -95v-143c0 -60 26 -96 93 -96c33 0 52 10 74 20c8 3 14 5 24 5c35 0 49 -22 49 -43c0 -59 -102 -74 -156 -74
c-133 0 -192 83 -192 188z" />
    <glyph glyph-name="uni0442" unicode="&#x442;" horiz-adv-x="428" 
d="M268 408v-365c0 -29 -24 -51 -54 -51c-31 0 -54 22 -54 51v365h-89c-29 0 -51 21 -51 48c0 28 22 49 51 49h286c28 0 51 -21 51 -49c0 -27 -23 -48 -51 -48h-89z" />
    <glyph glyph-name="uni0443" unicode="&#x443;" horiz-adv-x="443" 
d="M426 445l-122 -376c-51 -158 -89 -272 -230 -272c-32 0 -55 21 -55 49c0 24 19 47 51 49c53 0 78 36 106 120l-157 428c-3 7 -3 15 -3 20c0 27 23 47 54 47c20 0 41 -11 49 -34l9 -27c34 -101 68 -201 101 -304c30 112 61 221 95 331c7 23 31 34 51 34
c27 0 54 -20 54 -50c0 -5 -1 -10 -3 -15z" />
    <glyph glyph-name="uni0444" unicode="&#x444;" horiz-adv-x="624" 
d="M257 -163v157c-140 5 -212 101 -212 227v72c0 121 72 214 212 219v161c0 27 23 50 54 50c30 0 54 -22 54 -50v-161c140 0 214 -101 214 -219v-72c0 -123 -74 -227 -214 -227v-157c0 -28 -24 -50 -54 -50c-31 0 -54 22 -54 50zM366 417c-1 -8 -1 -16 -1 -23v-305
c73 9 111 52 111 132v73c0 72 -37 118 -110 123zM257 89v327c-73 -5 -109 -51 -109 -122v-73c0 -77 36 -126 109 -132z" />
    <glyph glyph-name="uni0445" unicode="&#x445;" horiz-adv-x="451" 
d="M289 257l134 -189c6 -8 8 -16 8 -24c0 -28 -22 -52 -55 -52c-25 0 -36 10 -51 32l-100 147l-106 -154c-12 -17 -26 -25 -44 -25c-31 0 -55 21 -55 51c0 8 2 16 7 23l135 190l-125 179c-5 8 -9 17 -9 24c0 27 23 51 54 51c30 0 44 -21 56 -38l89 -129l92 137
c12 18 25 30 50 30s53 -21 53 -48c0 -8 -2 -18 -8 -26z" />
    <glyph glyph-name="uni0446" unicode="&#x446;" horiz-adv-x="549" 
d="M466 460v-371c35 0 66 -16 66 -50v-109c0 -37 -12 -72 -54 -72c-31 0 -54 22 -54 50v92h-302c-29 0 -54 21 -54 50v410c0 27 24 50 54 50c43 0 54 -37 54 -75v-346h182v371c0 27 24 50 54 50s54 -21 54 -50z" />
    <glyph glyph-name="uni0447" unicode="&#x447;" horiz-adv-x="493" 
d="M153 460v-133c0 -33 10 -65 73 -65c16 0 54 5 90 11v187c0 27 23 50 54 50c30 0 54 -23 54 -50v-417c0 -29 -24 -51 -54 -51c-31 0 -54 22 -54 51v143c-32 -10 -63 -13 -87 -13c-130 0 -184 58 -184 154v133c0 27 23 50 54 50c30 0 54 -23 54 -50z" />
    <glyph glyph-name="uni0448" unicode="&#x448;" horiz-adv-x="725" 
d="M656 460v-410c0 -28 -24 -50 -54 -50h-480c-31 0 -54 22 -54 50v410c0 29 23 50 54 50c30 0 54 -21 54 -50v-371h132v371c0 27 23 50 54 50c30 0 54 -23 54 -50v-371h132v371c0 29 23 50 54 50c30 0 54 -21 54 -50z" />
    <glyph glyph-name="uni0449" unicode="&#x449;" horiz-adv-x="738" 
d="M656 460v-371c35 -5 66 -35 66 -73v-108c0 -28 -24 -50 -54 -50c-31 0 -54 22 -54 50v92h-492c-31 0 -54 22 -54 50v410c0 29 23 50 54 50c30 0 54 -21 54 -50v-371h132v371c0 27 23 50 54 50c30 0 54 -23 54 -50v-371h132v371c0 29 23 50 54 50c30 0 54 -21 54 -50z" />
    <glyph glyph-name="uni044A" unicode="&#x44a;" horiz-adv-x="555" 
d="M131 412h-68c-28 0 -51 20 -51 46c0 27 24 47 51 47h125c29 0 51 -20 51 -47v-148h92c134 0 189 -57 189 -158c0 -90 -58 -152 -176 -152h-159c-30 0 -54 23 -54 50v362zM331 220h-92v-130h103c46 0 71 21 71 65c0 32 -12 65 -82 65z" />
    <glyph glyph-name="uni044B" unicode="&#x44b;" horiz-adv-x="689" 
d="M620 43c0 -29 -24 -51 -54 -51c-31 0 -54 22 -54 51v417c0 27 23 50 54 50c30 0 54 -23 54 -50v-417zM176 460v-150h92c134 0 189 -57 189 -158c0 -90 -59 -152 -176 -152h-159c-31 0 -54 23 -54 50v410c0 27 23 50 54 50c30 0 54 -23 54 -50zM268 220h-92v-130h103
c46 0 71 21 71 65c0 32 -13 65 -82 65z" />
    <glyph glyph-name="uni044C" unicode="&#x44c;" horiz-adv-x="492" 
d="M176 460v-150h92c134 0 189 -57 189 -158c0 -90 -59 -152 -176 -152h-159c-31 0 -54 23 -54 50v410c0 27 23 50 54 50c30 0 54 -23 54 -50zM268 220h-92v-130h103c46 0 71 21 71 65c0 32 -13 65 -82 65z" />
    <glyph glyph-name="uni044D" unicode="&#x44d;" horiz-adv-x="413" 
d="M264 207h-138c-27 0 -51 20 -51 47c0 26 22 46 51 46h138c0 74 -20 118 -84 118c-47 0 -76 -24 -107 -24c-26 0 -49 20 -49 45c0 55 109 71 164 71c128 0 184 -86 184 -197v-124c0 -111 -56 -196 -184 -196c-55 0 -164 16 -164 70c0 25 21 46 49 46c31 0 60 -25 107 -25
c60 0 84 39 84 105v18z" />
    <glyph glyph-name="uni044E" unicode="&#x44e;" horiz-adv-x="711" 
d="M176 43c0 -29 -24 -51 -54 -51c-31 0 -54 22 -54 51v417c0 27 23 50 54 50c30 0 54 -23 54 -50v-155h95v26c0 103 69 182 199 182c131 0 200 -79 200 -182v-157c0 -102 -69 -182 -200 -182c-130 0 -199 80 -199 182v42h-95v-173zM470 87c61 0 92 33 92 87v158
c0 53 -31 86 -92 86c-60 0 -91 -33 -91 -86v-158c0 -54 31 -87 91 -87z" />
    <glyph glyph-name="uni044F" unicode="&#x44f;" horiz-adv-x="507" 
d="M384 -8c-31 0 -54 23 -54 51v152h-65l-124 -179c-12 -16 -26 -24 -44 -24c-30 0 -51 17 -52 44c0 9 3 22 8 30l99 140c-73 21 -103 71 -103 146c0 91 60 153 181 153h154c30 0 54 -24 54 -51v-411c0 -28 -24 -51 -54 -51zM156 349c0 -31 13 -65 87 -65h87v130h-98
c-50 0 -76 -20 -76 -65z" />
    <glyph glyph-name="uni0450" unicode="&#x450;" horiz-adv-x="459" 
d="M242 197c-28 0 -57 2 -89 7v-46c0 -45 31 -74 94 -74c37 0 64 10 97 25c3 2 10 5 22 5c34 0 49 -25 49 -45c0 -60 -118 -77 -177 -77c-123 0 -193 74 -193 171v177c0 98 69 173 198 173c121 0 181 -66 181 -166c0 -94 -55 -150 -182 -150zM317 350c0 53 -27 74 -76 74
c-56 0 -88 -30 -88 -78v-59c34 -4 73 -6 88 -6c57 0 76 27 76 69zM214 707c29 -29 86 -76 86 -100c0 -25 -20 -42 -42 -42c-17 0 -27 7 -39 20l-75 78c-9 9 -13 18 -13 28c0 24 21 41 40 41c17 0 23 -5 33 -15z" />
    <glyph glyph-name="uni0451" unicode="&#x451;" horiz-adv-x="459" 
d="M242 197c-28 0 -57 2 -89 7v-46c0 -45 31 -74 94 -74c37 0 64 10 97 25c3 2 10 5 22 5c34 0 49 -25 49 -45c0 -60 -118 -77 -177 -77c-123 0 -193 74 -193 171v177c0 98 69 173 198 173c121 0 181 -66 181 -166c0 -94 -55 -150 -182 -150zM317 350c0 53 -27 74 -76 74
c-56 0 -88 -30 -88 -78v-59c34 -4 73 -6 88 -6c57 0 76 27 76 69zM383 634c0 -31 -25 -56 -56 -56s-57 26 -57 56c0 29 26 54 57 54s56 -24 56 -54zM209 634c0 -31 -25 -56 -57 -56c-31 0 -55 26 -55 56c0 29 24 54 55 54c32 0 57 -24 57 -54z" />
    <glyph glyph-name="uni0452" unicode="&#x452;" horiz-adv-x="602" 
d="M424 30v258c0 68 -21 101 -72 101c-35 0 -75 -15 -101 -45v-281c0 -37 -12 -70 -53 -70c-31 0 -54 21 -54 50v516h-77c-27 0 -47 19 -47 43c0 23 20 43 47 43h77v33c0 23 23 51 53 51s54 -22 54 -51v-33h75c25 0 46 -20 46 -43s-21 -43 -46 -43h-75v-107
c31 21 69 33 110 33c117 0 171 -81 171 -196v-221c0 -157 -52 -258 -175 -270c-29 0 -50 21 -50 48s25 39 43 44c46 12 74 53 74 140z" />
    <glyph glyph-name="uni0453" unicode="&#x453;" horiz-adv-x="402" 
d="M268 707l10 10c10 10 16 15 33 15c19 0 40 -17 40 -41c0 -10 -4 -19 -13 -28l-75 -78c-12 -13 -22 -20 -39 -20c-22 0 -42 17 -42 42c0 24 57 71 86 100zM176 412v-369c0 -29 -24 -51 -54 -51c-31 0 -54 22 -54 51v415c0 27 22 47 51 47h225c27 0 51 -20 51 -47
c0 -26 -23 -46 -51 -46h-168z" />
    <glyph glyph-name="uni0454" unicode="&#x454;" horiz-adv-x="416" 
d="M291 207h-138v-22c0 -63 25 -101 88 -101c29 0 46 8 66 15l20 7c4 1 8 2 13 2c35 0 53 -17 53 -42c0 -59 -106 -73 -161 -73c-129 0 -187 84 -187 192v133c0 108 57 192 188 192c54 0 160 -14 160 -74c0 -25 -21 -42 -52 -42c-4 0 -8 1 -12 2c-30 8 -50 22 -88 22
c-63 0 -88 -37 -88 -100v-18h138c27 0 51 -20 51 -46c0 -27 -23 -47 -51 -47z" />
    <glyph glyph-name="uni0455" unicode="&#x455;" horiz-adv-x="431" 
d="M48 363c0 90 60 150 177 150c59 0 144 -15 144 -73c0 -27 -18 -41 -44 -41c-32 0 -47 22 -100 22c-25 0 -71 -5 -71 -48c0 -98 233 -50 233 -229c0 -93 -63 -151 -182 -151c-57 0 -163 13 -163 66c0 18 12 59 56 48c18 -4 61 -23 103 -23c45 0 80 22 80 58
c0 94 -233 44 -233 221z" />
    <glyph glyph-name="uni0456" unicode="&#x456;" horiz-adv-x="265" 
d="M195 656c-1 -33 -28 -59 -63 -59c-36 0 -63 27 -63 59c0 33 27 59 63 59c35 0 63 -27 63 -59zM186 43c0 -29 -24 -50 -54 -50c-31 0 -54 21 -54 50v417c0 27 23 50 54 50c30 0 54 -23 54 -50v-417z" />
    <glyph glyph-name="uni0457" unicode="&#x457;" horiz-adv-x="265" 
d="M186 43c0 -29 -24 -51 -54 -51c-31 0 -54 22 -54 51v417c0 27 23 50 54 50c30 0 54 -23 54 -50v-417zM283 624c0 -32 -27 -58 -59 -58c-33 0 -60 27 -60 58s27 57 60 57c32 0 59 -25 59 -57zM99 624c0 -32 -26 -58 -59 -58s-58 27 -58 58s25 57 58 57s59 -25 59 -57z" />
    <glyph glyph-name="uni0458" unicode="&#x458;" horiz-adv-x="265" 
d="M192 460v-471c0 -111 -66 -191 -175 -191c-29 0 -49 21 -49 48s25 40 43 44c45 9 73 35 73 96v474c0 27 23 50 54 50c30 0 54 -23 54 -50zM201 656c0 -33 -28 -59 -63 -59c-36 0 -63 27 -63 59c0 33 27 59 63 59c35 0 63 -27 63 -59z" />
    <glyph glyph-name="uni0459" unicode="&#x459;" horiz-adv-x="761" 
d="M416 505c34 0 49 -29 49 -51v-144h72c134 0 189 -57 189 -158c0 -90 -58 -152 -176 -152h-139c-30 0 -54 23 -54 50v365h-110l-21 -248c-9 -104 -46 -171 -135 -171c-37 0 -72 -2 -72 44c0 36 22 51 48 51c4 0 5 -1 10 -1c27 0 40 19 45 73l26 292c3 30 24 50 48 50h220z
M537 220h-72v-130h83c45 0 71 22 71 65c0 32 -12 65 -82 65z" />
    <glyph glyph-name="uni045A" unicode="&#x45a;" horiz-adv-x="742" 
d="M176 43c0 -29 -24 -51 -54 -51c-31 0 -54 22 -54 51v417c0 27 23 50 54 50c30 0 54 -23 54 -50v-155h162v155c0 27 23 50 54 50c30 0 54 -23 54 -50v-155h72c134 0 189 -55 189 -153c0 -90 -59 -152 -176 -152h-139c-31 0 -54 23 -54 50v166h-162v-173zM518 216h-72v-126
h83c46 0 71 21 71 65c0 29 -13 61 -82 61z" />
    <glyph glyph-name="uni045B" unicode="&#x45b;" horiz-adv-x="602" 
d="M372 602c0 -23 -21 -43 -46 -43h-75v-104c31 19 69 30 110 30c117 0 171 -71 171 -171v-271c0 -29 -25 -51 -54 -51c-31 0 -54 22 -54 51v270c0 50 -21 76 -72 76c-35 0 -75 -15 -101 -45v-301c0 -29 -23 -51 -53 -51c-31 0 -54 22 -54 51v516h-77c-27 0 -47 19 -47 43
c0 23 20 43 47 43h77v33c0 26 22 51 53 51c30 0 54 -22 54 -51v-33h75c25 0 46 -20 46 -43z" />
    <glyph glyph-name="uni045C" unicode="&#x45c;" horiz-adv-x="456" 
d="M287 707l10 10c10 10 16 15 33 15c19 0 40 -17 40 -41c0 -10 -4 -19 -13 -28l-75 -78c-12 -13 -22 -20 -39 -20c-22 0 -42 17 -42 42c0 24 57 71 86 100zM176 207v-161c0 -28 -25 -52 -55 -52c-31 0 -53 24 -53 52v414c0 27 22 51 53 51c30 0 55 -24 55 -52v-154h37
l115 164c15 21 31 39 57 39c27 0 50 -17 51 -43c0 -9 -3 -22 -9 -30l-131 -184l131 -185c6 -8 9 -20 9 -29c-1 -28 -24 -43 -51 -43c-29 0 -43 18 -56 37l-122 176h-31z" />
    <glyph glyph-name="uni045D" unicode="&#x45d;" horiz-adv-x="550" 
d="M246 707c29 -29 86 -76 86 -100c0 -25 -20 -42 -42 -42c-17 0 -27 7 -39 20l-75 78c-9 9 -13 18 -13 28c0 24 21 41 40 41c17 0 23 -5 33 -15zM127 -10c-35 0 -59 25 -59 55v414c0 28 22 52 53 52c30 0 55 -24 55 -52v-283l194 306c11 19 32 29 54 29c34 0 57 -23 57 -55
v-413c0 -28 -24 -53 -54 -53c-31 0 -54 25 -54 53v281l-194 -306c-12 -17 -31 -28 -52 -28z" />
    <glyph glyph-name="uni045E" unicode="&#x45e;" horiz-adv-x="443" 
d="M426 445l-122 -376c-51 -158 -89 -272 -230 -272c-32 0 -55 21 -55 49c0 24 19 47 51 49c53 0 78 36 106 120l-157 428c-3 7 -3 15 -3 20c0 27 23 47 54 47c20 0 41 -11 49 -34l9 -27c34 -101 68 -201 101 -304c30 112 61 221 95 331c7 23 31 34 51 34
c27 0 54 -20 54 -50c0 -5 -1 -10 -3 -15zM221 639c30 0 47 18 62 36c10 12 20 19 37 19c21 0 44 -11 36 -46c-13 -55 -87 -86 -136 -86c-52 0 -123 34 -135 86c-8 35 15 46 36 46c19 0 29 -10 37 -19c15 -18 32 -36 63 -36z" />
    <glyph glyph-name="uni045F" unicode="&#x45f;" horiz-adv-x="524" 
d="M316 -92c0 -28 -24 -50 -54 -50c-31 0 -54 22 -54 50v92h-86c-29 0 -54 21 -54 50v412c0 27 24 50 54 50c43 0 54 -36 54 -76v-347h172v347c0 41 9 76 54 76c30 0 54 -22 54 -50v-412c0 -28 -24 -50 -54 -50h-86v-92z" />
    <glyph glyph-name="uni0462" unicode="&#x462;" horiz-adv-x="664" 
d="M483 611c0 -25 -24 -46 -51 -46h-166v-128h100c146 0 240 -77 240 -217c0 -115 -63 -220 -240 -220h-147c-46 0 -63 39 -63 82v483h-86c-29 0 -50 23 -50 45c0 23 22 48 50 48h86v52c0 26 24 52 55 52c30 0 55 -24 55 -52v-52h166c26 0 51 -21 51 -47zM266 102h100
c106 0 130 60 130 117c0 78 -45 115 -130 115h-100v-232z" />
    <glyph glyph-name="uni0463" unicode="&#x463;" horiz-adv-x="602" 
d="M372 555c0 -23 -21 -43 -46 -43h-74v-155h87c136 0 194 -65 194 -174c0 -111 -60 -183 -181 -183h-154c-41 0 -54 32 -54 69v443h-63c-26 0 -61 16 -61 44c0 27 28 42 61 42h63v56c0 35 15 65 54 65c38 0 54 -31 54 -65v-56h74c17 0 46 -21 46 -43zM339 268h-87v-178h98
c49 0 76 30 76 92c0 41 -13 86 -87 86z" />
    <glyph glyph-name="uni0490" unicode="&#x490;" horiz-adv-x="466" 
d="M68 648c0 28 25 57 60 57h216v79c0 28 24 53 55 53c30 0 55 -25 55 -53v-130c0 -29 -24 -51 -54 -51h-222v-560c0 -27 -25 -52 -55 -52c-31 0 -55 25 -55 52v605z" />
    <glyph glyph-name="uni0491" unicode="&#x491;" horiz-adv-x="412" 
d="M290 505v83c0 26 24 51 54 51c41 0 54 -35 54 -72v-105c0 -41 -38 -50 -77 -50h-145v-369c0 -26 -25 -50 -54 -50c-31 0 -54 21 -54 50v415c0 27 22 47 51 47h171z" />
    <glyph glyph-name="Wgrave" unicode="&#x1e80;" horiz-adv-x="803" 
d="M502 51l-59 248c-16 68 -28 137 -42 206c-31 -153 -66 -304 -101 -456c-8 -27 -25 -58 -68 -58c-35 0 -61 29 -68 59c-52 204 -102 409 -151 613c0 30 32 48 60 48c22 0 44 -12 51 -39c22 -94 45 -188 68 -281c16 -65 27 -132 41 -197c15 68 26 141 43 210l59 244
c10 42 22 66 66 66c42 0 56 -26 66 -66l58 -244c16 -70 27 -141 43 -211c14 66 26 132 42 198l67 280c7 25 26 40 49 40c28 0 63 -15 63 -49c0 -2 0 -6 -2 -12l-149 -600c-9 -31 -29 -59 -68 -59s-61 29 -68 60zM399 907c29 -29 86 -76 86 -100c0 -25 -20 -42 -42 -42
c-17 0 -27 7 -39 20l-75 78c-9 9 -13 18 -13 28c0 24 21 41 40 41c17 0 23 -5 33 -15z" />
    <glyph glyph-name="wgrave" unicode="&#x1e81;" horiz-adv-x="675" 
d="M654 452l-116 -408c-10 -34 -26 -51 -64 -51c-27 0 -55 14 -61 41l-75 317c-24 -107 -47 -212 -75 -317c-8 -30 -28 -41 -61 -41c-36 0 -56 19 -65 52l-116 407c-1 4 -1 7 -1 10c0 25 23 48 54 48c22 0 44 -13 50 -36l49 -188c13 -51 20 -103 30 -155
c13 60 22 120 37 179l39 157c6 25 28 43 60 43c31 0 51 -18 57 -43l39 -157c14 -59 24 -119 38 -179c10 52 17 104 30 155l48 188c5 20 29 36 51 36c28 0 53 -21 53 -50c0 -1 -1 -6 -1 -8zM336 707c29 -29 86 -76 86 -100c0 -25 -20 -42 -42 -42c-17 0 -27 7 -39 20l-75 78
c-9 9 -13 18 -13 28c0 24 21 41 40 41c17 0 23 -5 33 -15z" />
    <glyph glyph-name="Wacute" unicode="&#x1e82;" horiz-adv-x="803" 
d="M502 51l-59 248c-16 68 -28 137 -42 206c-31 -153 -66 -304 -101 -456c-8 -27 -25 -58 -68 -58c-35 0 -61 29 -68 59c-52 204 -102 409 -151 613c0 30 32 48 60 48c22 0 44 -12 51 -39c22 -94 45 -188 68 -281c16 -65 27 -132 41 -197c15 68 26 141 43 210l59 244
c10 42 22 66 66 66c42 0 56 -26 66 -66l58 -244c16 -70 27 -141 43 -211c14 66 26 132 42 198l67 280c7 25 26 40 49 40c28 0 63 -15 63 -49c0 -2 0 -6 -2 -12l-149 -600c-9 -31 -29 -59 -68 -59s-61 29 -68 60zM402 907l10 10c10 10 16 15 33 15c19 0 40 -17 40 -41
c0 -10 -4 -19 -13 -28l-75 -78c-12 -13 -22 -20 -39 -20c-22 0 -42 17 -42 42c0 24 57 71 86 100z" />
    <glyph glyph-name="wacute" unicode="&#x1e83;" horiz-adv-x="675" 
d="M654 452l-116 -408c-10 -34 -26 -51 -64 -51c-27 0 -55 14 -61 41l-75 317c-24 -107 -47 -212 -75 -317c-8 -30 -28 -41 -61 -41c-36 0 -56 19 -65 52l-116 407c-1 4 -1 7 -1 10c0 25 23 48 54 48c22 0 44 -13 50 -36l49 -188c13 -51 20 -103 30 -155
c13 60 22 120 37 179l39 157c6 25 28 43 60 43c31 0 51 -18 57 -43l39 -157c14 -59 24 -119 38 -179c10 52 17 104 30 155l48 188c5 20 29 36 51 36c28 0 53 -21 53 -50c0 -1 -1 -6 -1 -8zM338 707l10 10c10 10 16 15 33 15c19 0 40 -17 40 -41c0 -10 -4 -19 -13 -28
l-75 -78c-12 -13 -22 -20 -39 -20c-22 0 -42 17 -42 42c0 24 57 71 86 100z" />
    <glyph glyph-name="Wdieresis" unicode="&#x1e84;" horiz-adv-x="803" 
d="M502 51l-59 248c-16 68 -28 137 -42 206c-31 -153 -66 -304 -101 -456c-8 -27 -25 -58 -68 -58c-35 0 -61 29 -68 59c-52 204 -102 409 -151 613c0 30 32 48 60 48c22 0 44 -12 51 -39c22 -94 45 -188 68 -281c16 -65 27 -132 41 -197c15 68 26 141 43 210l59 244
c10 42 22 66 66 66c42 0 56 -26 66 -66l58 -244c16 -70 27 -141 43 -211c14 66 26 132 42 198l67 280c7 25 26 40 49 40c28 0 63 -15 63 -49c0 -2 0 -6 -2 -12l-149 -600c-9 -31 -29 -59 -68 -59s-61 29 -68 60zM544 834c0 -31 -25 -56 -56 -56s-57 26 -57 56
c0 29 26 54 57 54s56 -24 56 -54zM370 834c0 -31 -25 -56 -57 -56c-31 0 -55 26 -55 56c0 29 24 54 55 54c32 0 57 -24 57 -54z" />
    <glyph glyph-name="wdieresis" unicode="&#x1e85;" horiz-adv-x="675" 
d="M654 452l-116 -408c-10 -34 -26 -51 -64 -51c-27 0 -55 14 -61 41l-75 317c-24 -107 -47 -212 -75 -317c-8 -30 -28 -41 -61 -41c-36 0 -56 19 -65 52l-116 407c-1 4 -1 7 -1 10c0 25 23 48 54 48c22 0 44 -13 50 -36l49 -188c13 -51 20 -103 30 -155
c13 60 22 120 37 179l39 157c6 25 28 43 60 43c31 0 51 -18 57 -43l39 -157c14 -59 24 -119 38 -179c10 52 17 104 30 155l48 188c5 20 29 36 51 36c28 0 53 -21 53 -50c0 -1 -1 -6 -1 -8zM480 634c0 -31 -25 -56 -56 -56s-57 26 -57 56c0 29 26 54 57 54s56 -24 56 -54z
M306 634c0 -31 -25 -56 -57 -56c-31 0 -55 26 -55 56c0 29 24 54 55 54c32 0 57 -24 57 -54z" />
    <glyph glyph-name="Ygrave" unicode="&#x1ef2;" horiz-adv-x="503" 
d="M251 -10c-31 0 -56 25 -56 54v232l-177 361c-2 6 -5 16 -5 24c0 29 28 53 56 53c17 0 35 -7 44 -23l138 -288l138 288c9 16 27 23 44 23c29 0 56 -24 56 -53c0 -7 -3 -17 -5 -24l-177 -362v-231c0 -28 -24 -54 -56 -54zM220 907c29 -29 86 -76 86 -100
c0 -25 -20 -42 -42 -42c-17 0 -27 7 -39 20l-75 78c-9 9 -13 18 -13 28c0 24 21 41 40 41c17 0 23 -5 33 -15z" />
    <glyph glyph-name="ygrave" unicode="&#x1ef3;" horiz-adv-x="443" 
d="M426 445l-122 -376c-51 -158 -89 -272 -230 -272c-32 0 -55 21 -55 49c0 24 19 47 51 49c53 0 78 36 106 120l-157 428c-3 7 -3 15 -3 20c0 27 23 47 54 47c20 0 41 -11 49 -34l9 -27c34 -101 68 -201 101 -304c30 112 61 221 95 331c7 23 31 34 51 34
c27 0 54 -20 54 -50c0 -5 -1 -10 -3 -15zM219 707c29 -29 86 -76 86 -100c0 -25 -20 -42 -42 -42c-17 0 -27 7 -39 20l-75 78c-9 9 -13 18 -13 28c0 24 21 41 40 41c17 0 23 -5 33 -15z" />
    <glyph glyph-name="endash" unicode="&#x2013;" horiz-adv-x="451" 
d="M417 289c0 -27 -24 -48 -52 -48h-280c-30 0 -52 21 -52 48s22 50 52 50h280c29 0 52 -23 52 -50z" />
    <glyph glyph-name="emdash" unicode="&#x2014;" horiz-adv-x="550" 
d="M517 289c0 -27 -24 -48 -52 -48h-380c-30 0 -52 21 -52 48s22 50 52 50h380c29 0 52 -23 52 -50z" />
    <glyph glyph-name="quoteleft" unicode="&#x2018;" horiz-adv-x="249" 
d="M171 694c-2 -33 -25 -48 -35 -91c33 -5 57 -32 57 -65c0 -35 -31 -65 -69 -65c-37 0 -68 28 -68 67c0 64 46 185 85 185c13 0 32 -5 30 -31z" />
    <glyph glyph-name="quoteright" unicode="&#x2019;" horiz-adv-x="250" 
d="M78 504c1 33 25 48 35 91c-33 5 -57 32 -57 65c0 35 30 65 69 65c36 0 68 -28 68 -67c0 -64 -47 -185 -85 -185c-13 0 -33 5 -30 31z" />
    <glyph glyph-name="quotesinglbase" unicode="&#x201a;" horiz-adv-x="250" 
d="M78 -99c1 33 25 48 35 91c-33 5 -57 32 -57 65c0 35 30 65 69 65c36 0 68 -28 68 -67c0 -64 -47 -185 -85 -185c-13 0 -33 5 -30 31z" />
    <glyph glyph-name="quotedblleft" unicode="&#x201c;" horiz-adv-x="419" 
d="M171 694c-2 -33 -25 -48 -35 -91c33 -5 57 -32 57 -65c0 -35 -31 -65 -69 -65c-37 0 -68 28 -68 67c0 64 46 185 85 185c13 0 32 -5 30 -31zM341 694c-1 -33 -25 -48 -35 -91c33 -5 57 -32 57 -65c0 -35 -30 -65 -69 -65c-36 0 -68 28 -68 67c0 64 47 185 85 185
c14 0 33 -5 30 -31z" />
    <glyph glyph-name="quotedblright" unicode="&#x201d;" horiz-adv-x="419" 
d="M248 504c2 33 25 48 35 91c-33 5 -57 32 -57 65c0 35 31 65 69 65c37 0 68 -28 68 -67c0 -64 -46 -185 -85 -185c-13 0 -32 5 -30 31zM78 504c1 33 25 48 35 91c-33 5 -57 32 -57 65c0 35 30 65 69 65c36 0 68 -28 68 -67c0 -64 -47 -185 -85 -185c-14 0 -33 5 -30 31z
" />
    <glyph glyph-name="quotedblbase" unicode="&#x201e;" horiz-adv-x="419" 
d="M248 -99c2 33 25 47 35 90c-33 5 -57 33 -57 65c0 36 31 65 69 65c37 0 68 -28 68 -67c0 -63 -46 -184 -85 -184c-13 0 -32 5 -30 31zM78 -99c1 33 25 47 35 90c-33 5 -57 33 -57 65c0 36 30 65 69 65c36 0 68 -28 68 -67c0 -63 -47 -184 -85 -184c-14 0 -33 5 -30 31z
" />
    <glyph glyph-name="dagger" unicode="&#x2020;" horiz-adv-x="452" 
d="M466 469c0 -36 -28 -48 -56 -48h-130v-469c0 3 8 -63 -55 -63c-36 0 -54 30 -54 65v467h-120c-27 0 -66 5 -66 48c0 35 31 48 66 48h120v142c0 22 10 65 54 65c46 0 55 -36 55 -61v-146h130c23 0 56 -23 56 -48z" />
    <glyph glyph-name="daggerdbl" unicode="&#x2021;" horiz-adv-x="594" 
d="M534 52c0 -27 -24 -48 -52 -48h-134v-151c0 -30 -22 -62 -55 -62c-37 0 -55 30 -55 62v151h-134c-30 0 -52 21 -52 48c0 28 22 48 52 48h134v321h-134c-30 0 -52 21 -52 48s22 49 52 49h134v154c0 28 26 51 55 52c30 0 55 -24 55 -52v-154h134c28 0 52 -22 52 -49
s-24 -48 -52 -48h-134v-321h134c28 0 52 -20 52 -48z" />
    <glyph glyph-name="bullet" unicode="&#x2022;" horiz-adv-x="303" 
d="M237 274c0 -48 -39 -87 -86 -87s-86 39 -86 87c0 46 39 85 86 85s86 -39 86 -85z" />
    <glyph glyph-name="ellipsis" unicode="&#x2026;" horiz-adv-x="686" 
d="M193 56c0 -35 -31 -66 -69 -66s-68 31 -68 66c0 36 30 66 68 66s69 -30 69 -66zM411 56c0 -35 -31 -66 -68 -66c-38 0 -69 31 -69 66c0 36 31 66 69 66c37 0 68 -30 68 -66zM630 56c0 -35 -31 -66 -69 -66s-68 31 -68 66c0 36 30 66 68 66s69 -30 69 -66z" />
    <glyph glyph-name="guilsinglleft" unicode="&#x2039;" horiz-adv-x="318" 
d="M137 258l135 -198c4 -6 5 -12 5 -17c0 -27 -18 -51 -45 -51c-18 0 -26 8 -38 27l-158 237l152 229c10 16 19 26 37 26c20 0 43 -20 43 -47c0 -6 -1 -13 -5 -19z" />
    <glyph glyph-name="guilsinglright" unicode="&#x203a;" horiz-adv-x="318" 
d="M46 60l135 198l-126 187c-4 6 -5 13 -5 19c0 27 22 47 43 47c18 0 27 -10 37 -26l152 -229l-158 -237c-12 -19 -20 -27 -38 -27c-27 0 -45 24 -45 51c0 5 1 11 5 17z" />
    <glyph glyph-name="fraction" unicode="&#x2044;" horiz-adv-x="139" 
d="M207 652l-232 -653c-4 -16 -15 -25 -27 -22c-11 3 -19 16 -17 30c0 7 0 7 1 17l232 651c4 16 15 25 27 22c11 -3 19 -16 17 -29c0 -5 0 -11 -1 -16z" />
    <glyph glyph-name="zerosuperior" unicode="&#x2070;" 
d="M130 705c-39 0 -54 -27 -54 -64v-147c0 -35 19 -58 54 -58c34 0 53 23 53 58v147c0 37 -15 64 -53 64zM130 754c75 0 108 -53 108 -117v-143c0 -60 -39 -107 -108 -107c-70 0 -108 47 -108 107v143c0 64 32 117 108 117z" />
    <glyph glyph-name="foursuperior" unicode="&#x2074;" 
d="M214 463v-50c0 -15 -12 -26 -27 -26s-27 11 -27 26v50h-117c-17 0 -28 13 -28 28c0 2 1 10 4 15l96 231c4 10 14 16 24 16c13 0 27 -12 27 -26c0 -3 0 -6 -1 -9c-15 -34 -71 -171 -86 -205h81v87c0 15 12 26 27 26s27 -11 27 -26v-87h14c15 0 26 -11 26 -25
s-11 -25 -26 -25h-14z" />
    <glyph glyph-name="fivesuperior" unicode="&#x2075;" 
d="M236 507c0 -57 -32 -119 -108 -119c-22 0 -105 5 -105 42c0 13 11 25 26 25c17 0 33 -19 67 -19c50 0 66 34 66 69c0 43 -25 63 -56 63c-13 0 -22 -3 -32 -8c-5 -3 -18 -15 -31 -15c-16 0 -28 12 -28 28l5 144c1 17 16 28 31 28h120c13 0 31 -7 31 -26
c0 -18 -16 -24 -31 -24h-101l-3 -87c12 6 26 8 40 8c64 0 109 -41 109 -109z" />
    <glyph glyph-name="sixsuperior" unicode="&#x2076;" 
d="M74 596c19 15 40 19 61 19c58 0 107 -37 107 -111c0 -64 -37 -117 -112 -117c-87 0 -112 72 -112 171c0 123 38 191 117 191c20 0 85 -4 85 -35c0 -12 -10 -23 -25 -23c-14 0 -30 9 -53 10c-55 0 -66 -46 -68 -105zM73 543v-9c0 -50 10 -96 59 -96c41 0 55 32 55 65
c0 43 -22 62 -56 62c-23 0 -46 -9 -58 -22z" />
    <glyph glyph-name="sevensuperior" unicode="&#x2077;" 
d="M237 718c0 -4 0 -9 -2 -13l-125 -301c-3 -9 -11 -17 -24 -17c-15 0 -28 9 -28 24c0 3 0 8 2 11l113 271h-124c-14 0 -27 11 -27 26c0 14 12 26 27 26h160c15 0 28 -12 28 -27z" />
    <glyph glyph-name="eightsuperior" unicode="&#x2078;" 
d="M248 492c0 -60 -49 -105 -118 -105s-119 43 -119 103c0 42 24 69 56 88c-26 17 -43 42 -43 77c0 58 48 93 105 93c59 0 106 -37 106 -92c0 -31 -16 -56 -43 -75c32 -19 56 -46 56 -89zM181 655c0 27 -23 46 -51 46c-30 0 -52 -19 -52 -46c0 -29 24 -47 53 -53
c28 7 50 26 50 53zM193 492c0 35 -31 55 -65 62c-35 -7 -62 -29 -62 -62c0 -32 27 -56 64 -56s63 25 63 56z" />
    <glyph glyph-name="ninesuperior" unicode="&#x2079;" 
d="M185 540c-19 -15 -40 -20 -60 -20c-58 0 -107 37 -107 112c0 63 35 117 110 117c88 0 114 -71 114 -174c0 -122 -38 -188 -118 -188c-20 0 -84 4 -84 35c0 11 9 23 24 23c13 0 30 -10 54 -10c54 0 66 46 67 105zM187 593v9c0 52 -14 96 -61 96c-40 0 -54 -32 -54 -66
c0 -42 22 -61 56 -61c24 0 46 9 59 22z" />
    <glyph glyph-name="parenleftsuperior" unicode="&#x207d;" horiz-adv-x="148" 
d="M84 565c0 -65 14 -129 47 -185c3 -5 6 -10 6 -17c0 -13 -8 -27 -26 -27c-10 0 -18 4 -23 13c-41 64 -58 142 -58 216c0 73 17 151 58 216c5 8 13 12 23 12c18 0 26 -13 26 -27c0 -6 -3 -11 -6 -16c-33 -56 -47 -121 -47 -185z" />
    <glyph glyph-name="parenrightsuperior" unicode="&#x207e;" horiz-adv-x="147" 
d="M63 565c0 64 -15 129 -47 185c-3 5 -6 10 -6 16c0 14 8 27 26 27c9 0 18 -4 23 -12c41 -65 58 -143 58 -216c0 -74 -17 -152 -58 -216c-5 -9 -14 -13 -23 -13c-18 0 -26 14 -26 27c0 7 3 12 6 17c32 56 47 120 47 185z" />
    <glyph glyph-name="zeroinferior" unicode="&#x2080;" 
d="M130 273c-39 0 -54 -27 -54 -64v-147c0 -35 19 -58 54 -58c34 0 53 23 53 58v147c0 37 -15 64 -53 64zM130 322c75 0 108 -53 108 -117v-143c0 -60 -39 -107 -108 -107c-70 0 -108 47 -108 107v143c0 64 32 117 108 117z" />
    <glyph glyph-name="oneinferior" unicode="&#x2081;" 
d="M133 -19v267l-51 -32c-8 -5 -16 -10 -26 -10c-11 0 -24 8 -24 23c0 10 4 18 12 23l99 60c5 4 10 5 15 5c17 0 30 -12 30 -28v-308c0 -13 -13 -26 -28 -26s-27 13 -27 26z" />
    <glyph glyph-name="twoinferior" unicode="&#x2082;" 
d="M239 -15c0 -14 -12 -25 -27 -25h-164c-17 0 -28 11 -28 27c0 6 0 15 3 21c19 42 52 74 86 106c31 29 74 61 74 104c0 30 -19 55 -54 55c-18 0 -32 -3 -45 -9c-12 -5 -21 -14 -33 -14c-13 0 -26 10 -26 25c0 31 67 47 104 47c68 0 108 -44 108 -99c0 -42 -16 -70 -38 -93
c-37 -41 -85 -75 -111 -120h124c15 0 27 -11 27 -25z" />
    <glyph glyph-name="threeinferior" unicode="&#x2083;" 
d="M219 266c-26 -32 -51 -63 -76 -95c54 -5 93 -41 93 -99c0 -53 -33 -116 -113 -116c-22 0 -100 5 -100 42c0 13 11 25 26 25c18 0 34 -19 67 -19c50 0 66 35 66 66c0 39 -27 55 -63 55c-14 0 -16 -6 -28 -6c-13 0 -23 12 -23 24c0 4 1 11 2 14l82 103h-95
c-16 0 -27 12 -27 26c0 12 11 27 27 27h139c15 0 29 -12 29 -29c0 -7 -2 -13 -6 -18z" />
    <glyph glyph-name="fourinferior" unicode="&#x2084;" 
d="M214 31v-50c0 -15 -12 -26 -27 -26s-27 11 -27 26v50h-117c-17 0 -28 13 -28 28c0 2 1 10 4 15l96 231c4 10 14 16 24 16c13 0 27 -12 27 -26c0 -3 0 -6 -1 -9c-15 -34 -71 -171 -86 -205h81v87c0 15 12 26 27 26s27 -11 27 -26v-87h14c15 0 26 -11 26 -25
s-11 -25 -26 -25h-14z" />
    <glyph glyph-name="fiveinferior" unicode="&#x2085;" 
d="M236 75c0 -57 -32 -119 -108 -119c-22 0 -105 5 -105 42c0 13 11 25 26 25c17 0 33 -19 67 -19c50 0 66 34 66 69c0 43 -25 63 -56 63c-13 0 -22 -3 -32 -8c-5 -3 -18 -15 -31 -15c-16 0 -28 12 -28 28l5 144c1 17 16 28 31 28h120c13 0 31 -7 31 -26
c0 -18 -16 -24 -31 -24h-101l-3 -87c12 6 26 8 40 8c64 0 109 -41 109 -109z" />
    <glyph glyph-name="sixinferior" unicode="&#x2086;" 
d="M74 164c19 15 40 19 61 19c58 0 107 -37 107 -111c0 -64 -37 -117 -112 -117c-87 0 -112 72 -112 171c0 123 38 191 117 191c20 0 85 -4 85 -35c0 -12 -10 -23 -25 -23c-14 0 -30 9 -53 10c-55 0 -66 -46 -68 -105zM73 111v-9c0 -50 10 -96 59 -96c41 0 55 32 55 65
c0 43 -22 62 -56 62c-23 0 -46 -9 -58 -22z" />
    <glyph glyph-name="seveninferior" unicode="&#x2087;" 
d="M237 286c0 -4 0 -9 -2 -13l-125 -301c-3 -9 -11 -17 -24 -17c-15 0 -28 9 -28 24c0 3 0 8 2 11l113 271h-124c-14 0 -27 11 -27 26c0 14 12 26 27 26h160c15 0 28 -12 28 -27z" />
    <glyph glyph-name="eightinferior" unicode="&#x2088;" 
d="M248 60c0 -60 -49 -105 -118 -105s-119 43 -119 103c0 42 24 69 56 88c-26 17 -43 42 -43 77c0 58 48 93 105 93c59 0 106 -37 106 -92c0 -31 -16 -56 -43 -75c32 -19 56 -46 56 -89zM181 223c0 27 -23 46 -51 46c-30 0 -52 -19 -52 -46c0 -29 24 -47 53 -53
c28 7 50 26 50 53zM193 60c0 35 -31 55 -65 62c-35 -7 -62 -29 -62 -62c0 -32 27 -56 64 -56s63 25 63 56z" />
    <glyph glyph-name="nineinferior" unicode="&#x2089;" 
d="M185 108c-19 -15 -40 -20 -60 -20c-58 0 -107 37 -107 112c0 63 35 117 110 117c88 0 114 -71 114 -174c0 -122 -38 -188 -118 -188c-20 0 -84 4 -84 35c0 11 9 23 24 23c13 0 30 -10 54 -10c54 0 66 46 67 105zM187 161v9c0 52 -14 96 -61 96c-40 0 -54 -32 -54 -66
c0 -42 22 -61 56 -61c24 0 46 9 59 22z" />
    <glyph glyph-name="parenleftinferior" unicode="&#x208d;" horiz-adv-x="148" 
d="M84 133c0 -65 14 -129 47 -185c3 -5 6 -10 6 -17c0 -13 -8 -27 -26 -27c-10 0 -18 4 -23 13c-41 64 -58 142 -58 216c0 73 17 151 58 216c5 8 13 12 23 12c18 0 26 -13 26 -27c0 -6 -3 -11 -6 -16c-33 -56 -47 -121 -47 -185z" />
    <glyph glyph-name="parenrightinferior" unicode="&#x208e;" horiz-adv-x="147" 
d="M63 133c0 64 -15 129 -47 185c-3 5 -6 10 -6 16c0 14 8 27 26 27c9 0 18 -4 23 -12c41 -65 58 -143 58 -216c0 -74 -17 -152 -58 -216c-5 -9 -14 -13 -23 -13c-18 0 -26 14 -26 27c0 7 3 12 6 17c32 56 47 120 47 185z" />
    <glyph glyph-name="Euro" unicode="&#x20ac;" horiz-adv-x="520" 
d="M49 454h41v37c0 135 68 223 215 223c96 0 187 -44 187 -96c0 -26 -22 -48 -51 -48c-19 0 -25 7 -40 16c-30 22 -57 31 -91 31c-84 0 -110 -48 -110 -126v-37h167c20 0 39 -16 39 -37s-17 -37 -39 -37h-167v-56h127c20 0 39 -16 39 -37s-17 -37 -39 -37h-127v-35
c0 -78 26 -126 110 -126c34 0 61 9 93 32c15 8 21 14 38 14c29 0 51 -22 51 -47c0 -53 -91 -97 -187 -97c-147 0 -215 89 -215 224v35h-41c-22 0 -39 16 -39 37s19 37 39 37h41v56h-41c-22 0 -39 16 -39 37s19 37 39 37z" />
    <glyph glyph-name="uni20B4" unicode="&#x20b4;" horiz-adv-x="520" 
d="M56 454h253c28 30 44 59 44 93c0 47 -28 65 -89 65c-78 0 -98 -27 -131 -27c-32 0 -55 24 -55 50c0 66 129 79 191 79c116 0 186 -46 186 -155c0 -41 -11 -74 -30 -105h39c20 0 39 -16 39 -37s-17 -37 -39 -37h-104c-19 -18 -41 -37 -63 -56h167c20 0 39 -16 39 -37
s-17 -37 -39 -37h-243c-26 -30 -41 -58 -41 -94c0 -45 25 -65 88 -65c72 0 100 29 141 29c32 0 54 -22 54 -49c0 -65 -129 -82 -197 -82c-113 0 -190 47 -190 157c0 38 9 71 28 104h-48c-22 0 -39 16 -39 37s19 37 39 37h110c19 18 41 36 63 56h-173c-22 0 -39 16 -39 37
s19 37 39 37z" />
    <glyph glyph-name="uni20BD" unicode="&#x20bd;" horiz-adv-x="520" 
d="M49 338h31v307c0 32 29 60 63 60h112c177 0 240 -110 240 -229c0 -149 -100 -216 -254 -216h-51v-52h127c20 0 39 -16 39 -37s-17 -37 -39 -37h-127v-90c0 -21 -26 -53 -55 -53s-55 24 -55 53v90h-31c-22 0 -39 16 -39 37s19 37 39 37h31v56h-31c-22 0 -39 16 -39 37
s19 37 39 37zM190 602v-250h65c85 0 130 40 130 125c0 62 -24 125 -130 125h-65z" />
    <glyph glyph-name="trademark" unicode="&#x2122;" horiz-adv-x="783" 
d="M736 673v-355c0 -20 -18 -37 -37 -37c-21 0 -38 17 -38 37v229l-72 -146c-8 -16 -21 -23 -36 -23c-16 0 -30 9 -37 23l-72 146v-229c0 -20 -18 -37 -37 -37c-21 0 -37 17 -37 37v355c0 23 16 40 39 40c17 0 31 -9 38 -23l106 -217l106 217v-1c8 17 23 24 38 24
c20 0 39 -20 39 -40zM328 670c0 -22 -17 -38 -38 -38h-82v-313c0 -21 -17 -38 -39 -38s-39 17 -39 38v313h-82c-22 0 -38 16 -38 38c0 21 16 38 38 38h242c21 0 38 -17 38 -38z" />
    <glyph glyph-name="estimated" unicode="&#x212e;" horiz-adv-x="903" 
d="M825 317h-605c-3 0 -5 -1 -5 -4v-183c0 -8 4 -15 9 -21c57 -61 139 -99 229 -99c96 0 182 43 240 111h55c-68 -79 -176 -131 -296 -131c-206 0 -374 150 -374 336s168 336 374 336s373 -150 373 -336v-9zM689 341v184c0 9 -4 16 -10 22c-58 58 -138 95 -226 95
c-90 0 -170 -38 -228 -98c-6 -6 -10 -14 -10 -23v-180c0 -3 2 -5 5 -5h464c3 0 5 2 5 5z" />
    <glyph glyph-name="arrowleft" unicode="&#x2190;" horiz-adv-x="579" 
d="M64 322c-18 20 -19 40 0 61l174 199c14 16 23 29 47 29c25 0 53 -22 53 -50c0 -8 -1 -19 -8 -27l-124 -132h272c29 0 51 -23 51 -49c0 -27 -24 -49 -51 -49h-271l127 -136c8 -9 9 -19 9 -27c0 -28 -26 -51 -54 -51c-24 0 -33 12 -48 29z" />
    <glyph glyph-name="arrowup" unicode="&#x2191;" horiz-adv-x="649" 
d="M319 78c-41 0 -52 31 -52 69v317c-46 -39 -91 -79 -136 -118c-8 -7 -17 -7 -24 -8c-39 -5 -57 32 -57 50c0 23 13 32 30 46l207 167c10 7 19 11 29 11c9 -1 25 -2 36 -11l217 -174c19 -15 30 -23 30 -45c0 -32 -26 -53 -56 -53c-8 0 -18 0 -27 8l-146 127v-317
c0 -35 -12 -69 -51 -69z" />
    <glyph glyph-name="arrowright" unicode="&#x2192;" horiz-adv-x="579" 
d="M47 353c0 36 32 49 69 49h253l-123 132c-7 8 -8 19 -8 27c0 30 36 46 56 46c22 0 32 -12 44 -25l174 -199c9 -11 14 -21 14 -31s-5 -20 -14 -30l-177 -203c-15 -17 -24 -29 -48 -29c-28 0 -53 27 -53 51c0 5 0 11 3 18c36 51 88 98 132 145h-253c-30 0 -69 17 -69 49z
" />
    <glyph glyph-name="arrowdown" unicode="&#x2193;" horiz-adv-x="649" 
d="M319 615c39 0 51 -34 51 -69v-317l146 127c9 8 19 8 27 8c28 0 56 -23 56 -53c0 -22 -11 -30 -30 -45l-217 -174c-11 -9 -27 -11 -36 -11c-10 0 -19 4 -29 11l-207 167c-17 14 -30 23 -30 46c0 18 15 50 57 50c7 -1 16 -1 24 -8l136 -119v318c0 38 11 69 52 69z" />
    <glyph glyph-name="uni2196" unicode="&#x2196;" horiz-adv-x="549" 
d="M470 152c-10 -10 -23 -16 -36 -16c-19 0 -35 15 -50 28l-224 225c-5 -62 -8 -124 -13 -187c0 -23 -30 -41 -53 -41c-28 0 -49 21 -49 45c0 7 1 14 2 22l30 271c4 34 29 43 66 47l250 28c8 1 16 2 23 2c39 0 43 -39 37 -63c-8 -30 -30 -38 -53 -40l-167 -12
c75 -74 149 -149 224 -224c14 -14 27 -29 27 -49c0 -13 -4 -26 -14 -36z" />
    <glyph glyph-name="uni2197" unicode="&#x2197;" horiz-adv-x="552" 
d="M69 156c-10 9 -15 22 -15 35c0 19 13 36 27 50l224 225l-179 12c-27 2 -41 32 -41 54c0 31 23 46 45 46c7 0 14 0 22 -1c88 -11 176 -19 264 -29c19 -2 31 -11 37 -25l6 -9c2 -10 4 -21 5 -32c9 -85 19 -170 29 -256c1 -8 1 -15 1 -22c0 -26 -23 -46 -49 -46
c-21 0 -53 17 -53 42l-14 193c-75 -74 -150 -150 -224 -224c-14 -14 -30 -28 -50 -28c-12 0 -25 5 -35 15z" />
    <glyph glyph-name="uni2198" unicode="&#x2198;" horiz-adv-x="549" 
d="M78 539c9 10 22 15 35 15c19 0 35 -14 50 -27l224 -226c5 63 9 125 13 188c2 24 31 41 54 41c28 0 48 -23 48 -45c0 -7 -1 -14 -2 -22l-29 -271c-2 -19 -10 -34 -35 -43c-10 -3 -21 -3 -32 -4l-249 -28c-9 -1 -17 -2 -24 -2c-11 0 -31 7 -37 26c-11 37 -7 59 24 72
c59 13 132 12 196 16l-224 225c-14 14 -27 31 -27 50c0 12 5 25 15 35z" />
    <glyph glyph-name="uni2199" unicode="&#x2199;" horiz-adv-x="552" 
d="M480 535c10 -10 15 -23 15 -35c0 -19 -13 -36 -27 -50l-224 -225l179 -12c27 -2 40 -32 40 -54c0 -31 -22 -47 -44 -47c-7 0 -14 1 -22 2c-88 11 -176 19 -264 29c-19 2 -31 11 -37 25l-6 9c-2 10 -4 21 -5 32c-9 85 -19 170 -29 256c-1 8 -2 15 -2 21c0 26 24 47 50 47
c20 0 53 -17 53 -42l14 -193c75 74 149 150 224 224c14 14 30 28 50 28c12 0 25 -5 35 -15z" />
    <glyph glyph-name="minus" unicode="&#x2212;" horiz-adv-x="520" 
d="M106 405h308c27 0 54 -22 54 -51s-24 -52 -54 -52h-308c-31 0 -54 23 -54 52s26 51 54 51z" />
    <glyph glyph-name="triagup" unicode="&#x25b2;" horiz-adv-x="758" 
d="M646 0h-534c-56 0 -69 21 -44 72l275 549c25 51 47 51 72 0l275 -549c25 -51 12 -72 -44 -72z" />
    <glyph glyph-name="triagrt" unicode="&#x25ba;" horiz-adv-x="785" 
d="M55 65v547c0 56 21 69 72 44l564 -282c51 -25 51 -47 0 -72l-564 -281c-51 -25 -72 -12 -72 44z" />
    <glyph glyph-name="triagdn" unicode="&#x25bc;" horiz-adv-x="758" 
d="M112 678h534c56 0 69 -21 44 -72l-275 -549c-25 -51 -47 -51 -72 0l-275 549c-25 51 -12 72 44 72z" />
    <glyph glyph-name="triaglf" unicode="&#x25c4;" horiz-adv-x="785" 
d="M94 374l564 282c51 25 72 12 72 -44v-547c0 -56 -21 -69 -72 -44l-564 281c-51 25 -51 47 0 72z" />
    <glyph glyph-name="uni2639" unicode="&#x2639;" horiz-adv-x="733" 
d="M678 253c0 -168 -139 -311 -311 -311c-171 0 -312 141 -312 311c0 171 141 311 312 311s311 -141 311 -311zM633 253c0 146 -121 266 -266 266s-266 -118 -266 -266c0 -147 120 -266 266 -266c145 0 266 120 266 266zM287 317c0 -21 -18 -39 -40 -39c-21 0 -39 18 -39 39
c0 22 18 40 39 40c22 0 40 -18 40 -40zM525 317c0 -21 -17 -39 -39 -39s-40 18 -40 39c0 22 18 40 40 40s39 -18 39 -40zM253 78l-30 17c33 61 80 95 144 95c63 0 111 -33 143 -95l-30 -17c-26 45 -63 70 -113 70s-88 -24 -114 -70z" />
    <glyph glyph-name="uni263A" unicode="&#x263a;" horiz-adv-x="733" 
d="M678 253c0 -168 -139 -311 -311 -311c-171 0 -312 141 -312 311c0 171 141 311 312 311s311 -141 311 -311zM633 253c0 146 -121 266 -266 266s-266 -118 -266 -266c0 -147 120 -266 266 -266c145 0 266 120 266 266zM287 317c0 -21 -18 -39 -40 -39c-21 0 -39 18 -39 39
c0 22 18 40 39 40c22 0 40 -18 40 -40zM525 317c0 -21 -17 -39 -39 -39s-40 18 -40 39c0 22 18 40 40 40s39 -18 39 -40zM223 153l30 17c26 -46 64 -70 114 -70s87 24 113 70l30 -17c-32 -62 -80 -95 -143 -95c-64 0 -111 33 -144 95z" />
    <glyph glyph-name="uni263B" unicode="&#x263b;" horiz-adv-x="732" 
d="M677 253c0 -170 -139 -311 -311 -311c-171 0 -311 140 -311 311c0 172 141 311 311 311c171 0 311 -140 311 -311zM286 317c0 22 -17 40 -39 40s-40 -18 -40 -40c0 -21 18 -39 40 -39s39 18 39 39zM525 317c0 22 -18 40 -39 40c-22 0 -40 -18 -40 -40
c0 -21 18 -39 40 -39c21 0 39 18 39 39zM253 170l-30 -17c33 -62 79 -95 143 -95c63 0 111 33 144 95l-31 17c-25 -46 -63 -70 -113 -70c-49 0 -87 24 -113 70z" />
    <glyph glyph-name="uni2661" unicode="&#x2661;" horiz-adv-x="642" 
d="M312 393c2 -11 5 -17 9 -18c4 2 6 8 9 18c28 91 76 123 131 123c59 0 126 -37 126 -142c0 -57 -20 -80 -115 -206c-56 -74 -62 -83 -113 -164c-10 -16 -19 -29 -38 -29s-28 13 -38 29c-53 84 -55 87 -113 164c-95 126 -115 149 -115 206c0 105 68 142 125 142
s108 -37 132 -123zM317 25c1 -3 2 -5 4 -5s2 2 4 5l131 187c72 103 91 120 91 165c0 70 -46 99 -85 99c-52 0 -75 -52 -93 -94c-12 -28 -26 -49 -48 -49c-20 0 -33 16 -48 49c-20 46 -42 94 -93 94c-39 0 -85 -29 -85 -99c0 -45 19 -62 91 -165z" />
    <glyph glyph-name="uni2665" unicode="&#x2665;" horiz-adv-x="642" 
d="M312 393c7 -25 13 -23 20 0c25 87 73 123 127 123c69 0 128 -50 128 -130c0 -69 -44 -130 -105 -209c-72 -93 -72 -92 -121 -173c-9 -15 -19 -29 -39 -29s-29 13 -39 29c-51 81 -55 87 -113 164c-95 126 -115 149 -115 206c0 105 67 142 126 142c54 0 107 -36 131 -123z
" />
    <glyph glyph-name="uni266A" unicode="&#x266a;" horiz-adv-x="510" 
d="M242 189v477c188 0 245 -33 245 -190c0 -39 -8 -49 -24 -50c-16 1 -23 9 -24 25c0 68 -55 103 -135 103h-13v-408c0 -103 -46 -164 -153 -164c-70 0 -115 43 -115 109c0 68 55 121 134 121c26 0 54 -7 85 -23z" />
    <glyph glyph-name="uni266B" unicode="&#x266b;" horiz-adv-x="760" 
d="M266 145v396c0 56 23 87 76 104l236 73c53 17 76 0 76 -56v-461c0 -109 -50 -162 -150 -162c-72 0 -117 45 -117 109c0 65 56 120 135 120c28 0 35 -2 83 -21v323c0 21 -9 27 -29 21l-233 -72c-20 -6 -29 -18 -29 -39v-378c0 -109 -51 -165 -152 -165
c-70 0 -115 44 -115 109c0 68 55 121 134 121c25 0 53 -7 85 -22z" />
    <glyph glyph-name="typography.com.ua" unicode="&#xe020;" horiz-adv-x="885" 
d="M840 471c-5 -32 -26 -32 -42 -30c-8 1 -21 2 -28 2c-34 0 -63 -24 -70 -64l-27 -155h83c21 0 37 -17 37 -37c0 -21 -16 -38 -37 -38h-97l-37 -213c-18 -100 -52 -168 -145 -168c-46 0 -81 1 -81 36c0 23 16 37 39 37c6 0 19 -1 29 -1c51 0 68 29 79 90l38 219h-128v-119
c0 -22 -17 -39 -39 -39s-39 17 -39 39v119h-250c-24 0 -41 20 -41 43c0 3 3 17 8 27l192 481c6 14 20 23 34 23c17 0 39 -15 39 -43c0 -2 0 -5 -2 -10l-179 -446h199v251c0 22 17 39 39 39c21 0 39 -17 39 -39v-251h141l30 167c13 75 68 123 159 123c39 0 62 -9 57 -43z" />
    <glyph glyph-name="commaaccent" unicode="&#xf6c3;" horiz-adv-x="330" 
d="M233 -104c0 -55 -55 -134 -87 -134c-9 0 -18 5 -18 17c0 21 25 34 37 62c-34 2 -59 17 -59 54c0 31 20 54 63 54c44 0 64 -24 64 -53z" />
    <glyph glyph-name="commainferior" unicode="&#xf6e1;" horiz-adv-x="125" 
d="M39 -90c0 17 12 24 17 46c-16 2 -28 16 -28 32c0 18 15 33 34 33c18 0 34 -14 34 -34c0 -32 -23 -92 -42 -92c-7 0 -17 2 -15 15z" />
    <glyph glyph-name="commasuperior" unicode="&#xf6e2;" horiz-adv-x="125" 
d="M39 342c0 17 12 24 17 46c-16 2 -28 16 -28 32c0 18 15 33 34 33c18 0 34 -14 34 -34c0 -32 -23 -92 -42 -92c-7 0 -17 2 -15 15z" />
    <glyph glyph-name="hypheninferior" unicode="&#xf6e5;" horiz-adv-x="209" 
d="M192 108c0 -13 -11 -24 -25 -24h-125c-15 0 -26 11 -26 24c0 14 11 25 26 25h125c14 0 25 -11 25 -25z" />
    <glyph glyph-name="hyphensuperior" unicode="&#xf6e6;" horiz-adv-x="209" 
d="M192 540c0 -13 -11 -24 -25 -24h-125c-15 0 -26 11 -26 24c0 14 11 25 26 25h125c14 0 25 -11 25 -25z" />
    <glyph glyph-name="periodinferior" unicode="&#xf6e7;" horiz-adv-x="125" 
d="M96 -12c0 -18 -15 -33 -34 -33s-34 15 -34 33s15 33 34 33s34 -15 34 -33z" />
    <glyph glyph-name="periodsuperior" unicode="&#xf6e8;" horiz-adv-x="125" 
d="M96 420c0 -18 -15 -33 -34 -33s-34 15 -34 33s15 33 34 33s34 -15 34 -33z" />
    <glyph glyph-name="R.salt" unicode="&#xe0052;" horiz-adv-x="577" 
d="M178 378h110c53 0 112 39 112 120c0 54 -27 105 -105 105h-117v-225zM479 184c10 -78 11 -91 47 -112c18 -10 34 -21 30 -47c-4 -28 -29 -32 -53 -32c-112 0 -124 91 -134 177c-5 43 -13 105 -118 105h-73v-233c0 -27 -25 -52 -55 -52c-31 0 -55 25 -55 52v603
c0 34 29 60 63 60h169c140 0 210 -103 210 -207c0 -91 -54 -139 -128 -174c65 -29 89 -75 97 -140z" />
    <glyph glyph-name="uni0414.BUL" unicode="&#xe0414;" horiz-adv-x="688" 
d="M22 -88v128c0 32 23 57 54 57h17l183 557c11 32 30 60 67 60c46 0 60 -39 75 -85c58 -177 117 -354 175 -532h18c31 0 55 -25 55 -57v-128c0 -29 -25 -51 -56 -51s-54 22 -54 51v88h-426v-88c0 -29 -24 -51 -54 -51c-31 0 -54 22 -54 51zM343 549
c-37 -154 -88 -302 -134 -452h267l-105 340c-11 35 -20 75 -28 112z" />
    <glyph glyph-name="uni0416.BUL" unicode="&#xe0416;" horiz-adv-x="776" 
d="M388 -10c-30 0 -55 25 -55 53v196l-37 50l-178 -275c-12 -16 -27 -24 -45 -24c-34 0 -53 32 -53 55c0 8 1 17 8 27l197 305l-187 253c-11 12 -11 20 -11 31c0 26 26 53 53 53c18 0 34 -10 45 -24l208 -287v259c0 28 25 52 55 52s55 -24 55 -52v-259l207 287
c11 14 28 24 45 24c27 0 54 -27 54 -53c0 -11 -1 -19 -11 -31l-188 -253l198 -305c7 -10 8 -19 8 -27c0 -23 -20 -55 -53 -55c-18 0 -34 8 -46 24l-178 275l-36 -50v-196c0 -28 -25 -53 -55 -53z" />
    <glyph glyph-name="uni041B.BUL" unicode="&#xe041b;" horiz-adv-x="569" 
d="M284 549c-41 -176 -102 -348 -155 -520c-8 -24 -34 -38 -52 -38c-31 0 -57 20 -57 51c0 5 1 15 2 19l195 593c11 34 28 60 67 60s55 -25 67 -60l195 -593c2 -4 3 -14 3 -19c0 -31 -25 -51 -57 -51c-20 0 -47 15 -54 38l-124 401c-12 38 -21 80 -30 119z" />
    <glyph glyph-name="uni0432.BUL" unicode="&#xe0432;" horiz-adv-x="488" 
d="M58 179v321c0 123 66 198 186 198c103 0 180 -57 180 -173c0 -85 -44 -133 -94 -160c84 -26 117 -86 117 -165c0 -122 -63 -208 -197 -208c-122 0 -192 70 -192 187zM340 200c0 59 -23 112 -109 112h-65v-136c0 -58 29 -89 84 -89c61 0 90 41 90 113zM166 503v-101h70
c27 0 82 30 82 114c0 60 -33 87 -79 87c-51 0 -73 -34 -73 -100z" />
    <glyph glyph-name="uni0433.BUL" unicode="&#xe0433;" horiz-adv-x="426" 
d="M381 364c0 -179 -233 -126 -233 -223c0 -40 31 -57 76 -57s76 17 107 23c46 8 56 -31 56 -47c0 -54 -106 -67 -164 -67c-118 0 -181 58 -181 151c0 177 233 138 233 224c0 35 -24 53 -74 53c-47 0 -67 -22 -98 -22c-27 0 -44 16 -44 41c0 58 85 73 144 73
c117 0 178 -60 178 -149z" />
    <glyph glyph-name="uni0434.BUL" unicode="&#xe0434;" horiz-adv-x="510" 
d="M333 120v227c0 45 -35 71 -90 71c-62 0 -90 -34 -90 -90v-149c0 -59 23 -95 83 -95c35 0 70 11 97 36zM441 347v-384c0 -105 -59 -187 -194 -187c-52 0 -154 16 -154 71c0 25 21 45 49 45c6 0 13 -1 23 -4c22 -11 42 -20 74 -20c67 0 94 35 94 95v57
c-33 -17 -69 -27 -113 -27c-133 0 -175 80 -175 186v149c0 105 66 185 198 185c125 0 198 -73 198 -166z" />
    <glyph glyph-name="uni0436.BUL" unicode="&#xe0436;" horiz-adv-x="658" 
d="M383 673v-330c46 47 93 92 140 138c14 14 27 27 49 27c27 0 53 -18 53 -46c0 -13 -5 -26 -14 -34l-139 -134l162 -228c6 -8 9 -21 9 -30c-2 -27 -24 -43 -52 -43c-19 0 -35 7 -45 23l-11 17c-44 64 -89 128 -134 192l-18 -19v-163c0 -26 -25 -50 -54 -50
c-31 0 -54 21 -54 50v163l-19 19c-45 -64 -89 -127 -133 -192c-15 -22 -32 -39 -58 -39s-49 15 -50 42c0 9 3 22 8 30c54 76 108 152 161 228c-46 44 -91 89 -137 134c-10 9 -14 20 -14 34c0 26 23 46 52 46c23 0 37 -14 50 -27l140 -138v309c0 38 11 71 54 71
c30 0 54 -22 54 -50z" />
    <glyph glyph-name="uni0437.BUL" unicode="&#xe0437;" horiz-adv-x="428" 
d="M194 -131c58 0 89 36 89 115c0 37 -8 126 -105 133c-22 2 -61 1 -61 46c0 44 37 43 60 44c84 6 96 78 96 120c0 59 -23 94 -82 94c-27 0 -52 -7 -72 -16c-8 -3 -14 -6 -24 -6c-30 0 -51 23 -51 47c0 51 96 67 153 67c123 0 182 -74 182 -184c0 -78 -30 -138 -108 -164
c83 -26 118 -86 118 -179c0 -123 -60 -209 -194 -209c-57 0 -160 15 -160 69c0 27 27 47 53 46c6 0 14 -3 19 -5c22 -8 57 -18 87 -18z" />
    <glyph glyph-name="uni0438.BUL" unicode="&#xe0438;" horiz-adv-x="529" 
d="M381 32c-45 -29 -94 -40 -140 -40c-113 0 -172 78 -172 193v276c0 28 19 49 54 49c34 0 54 -21 54 -49v-276c0 -64 26 -100 78 -100c30 0 62 10 94 27c-1 9 -2 17 -2 24v325c0 28 18 49 54 49s54 -21 54 -49v-335c0 -35 8 -39 18 -53c6 -7 11 -15 11 -27
c0 -29 -25 -48 -51 -48c-22 0 -39 14 -52 34z" />
    <glyph glyph-name="uni0439.BUL" unicode="&#xe0439;" horiz-adv-x="529" 
d="M381 32c-45 -29 -94 -40 -140 -40c-113 0 -172 78 -172 193v276c0 28 19 49 54 49c34 0 54 -21 54 -49v-276c0 -64 26 -100 78 -100c30 0 62 10 94 27c-1 9 -2 17 -2 24v325c0 28 18 49 54 49s54 -21 54 -49v-335c0 -35 8 -39 18 -53c6 -7 11 -15 11 -27
c0 -29 -25 -48 -51 -48c-22 0 -39 14 -52 34zM264 639c30 0 47 18 62 36c10 12 20 19 37 19c21 0 44 -11 36 -46c-13 -55 -87 -86 -136 -86c-52 0 -123 34 -135 86c-8 35 15 46 36 46c19 0 29 -10 37 -19c15 -18 32 -36 63 -36z" />
    <glyph glyph-name="uni043A.BUL" unicode="&#xe043a;" horiz-adv-x="463" 
d="M177 673v-345l144 153c13 14 29 28 51 28c29 0 52 -20 52 -47c0 -13 -5 -25 -14 -34l-135 -140c53 -74 106 -148 158 -222c6 -8 9 -21 9 -30c-2 -27 -24 -43 -52 -43c-31 0 -37 11 -58 42l-132 190c-8 -7 -15 -16 -23 -23v-137c0 -37 -12 -72 -54 -72
c-31 0 -54 21 -54 50v605c0 39 9 75 54 75c30 0 54 -22 54 -50z" />
    <glyph glyph-name="uni043B.BUL" unicode="&#xe043b;" horiz-adv-x="450" 
d="M292 457l136 -401c2 -6 2 -10 2 -14c0 -30 -25 -49 -53 -49c-21 0 -44 14 -50 34c-38 118 -72 234 -100 355c-14 -55 -25 -110 -42 -164l-61 -191c-7 -22 -30 -34 -50 -34c-32 0 -53 21 -53 53c0 2 0 5 1 8l139 404c13 37 30 53 66 53c34 0 51 -16 65 -54z" />
    <glyph glyph-name="uni043F.BUL" unicode="&#xe043f;" horiz-adv-x="529" 
d="M180 364v-321c0 -28 -18 -50 -54 -50s-54 22 -54 50v321c0 44 -7 46 -13 56c-8 12 -12 18 -12 30c0 26 22 46 52 46c19 0 35 -11 47 -29c45 31 94 44 138 44c116 0 174 -77 174 -192v-276c0 -28 -20 -50 -54 -50c-35 0 -54 22 -54 50v276c0 63 -29 100 -79 100
c-30 0 -61 -11 -94 -31c2 -9 3 -17 3 -24z" />
    <glyph glyph-name="uni0442.BUL" unicode="&#xe0442;" horiz-adv-x="798" 
d="M620 43v294c0 45 -26 81 -75 81c-34 0 -69 -18 -95 -44c2 -11 4 -23 4 -35v-296c0 -28 -18 -50 -54 -50s-54 22 -54 50v274c0 59 -10 101 -68 101c-34 0 -71 -15 -100 -33c1 -7 2 -15 2 -21v-321c0 -28 -18 -50 -54 -50s-54 22 -54 50v321c0 44 -7 46 -13 56
c-8 12 -12 19 -12 29c0 28 23 47 51 47c20 0 35 -11 46 -27c45 28 93 44 141 44s85 -16 116 -47c48 30 93 47 148 47c113 0 179 -70 179 -174v-296c0 -28 -18 -50 -54 -50s-54 22 -54 50z" />
    <glyph glyph-name="uni0446.BUL" unicode="&#xe0446;" horiz-adv-x="559" 
d="M347 166v295c0 28 19 49 54 49c34 0 54 -21 54 -49v-295c0 -64 10 -71 22 -75c34 -12 69 -17 69 -56v-131c0 -26 -25 -50 -54 -50c-31 0 -54 22 -54 50v102c-17 2 -36 19 -43 24c-52 -26 -106 -37 -152 -37c-116 0 -174 77 -174 192v276c0 28 19 49 54 49
c34 0 54 -21 54 -49v-276c0 -64 27 -100 77 -100c31 0 65 10 98 28c-4 16 -5 34 -5 53z" />
    <glyph glyph-name="uni0448.BUL" unicode="&#xe0448;" horiz-adv-x="792" 
d="M176 461v-295c0 -46 25 -82 76 -82c31 0 67 19 93 44c-3 11 -3 23 -3 36v275c0 35 6 71 54 71c34 0 54 -21 54 -49v-276c0 -59 10 -101 68 -101c32 0 69 15 98 32v323c0 35 6 71 54 71c46 0 54 -36 54 -71v-318c0 -36 33 -46 33 -76c0 -28 -26 -46 -50 -46s-43 13 -57 32
c-44 -25 -92 -41 -139 -41c-49 0 -86 15 -116 46c-48 -29 -96 -46 -145 -46c-118 0 -182 70 -182 174v275c0 35 6 71 54 71c34 0 54 -21 54 -49z" />
    <glyph glyph-name="uni0449.BUL" unicode="&#xe0449;" horiz-adv-x="828" 
d="M761 -147c-31 0 -54 22 -54 51v102c-18 4 -32 13 -44 26c-44 -25 -97 -43 -152 -43c-49 0 -86 16 -116 47c-48 -29 -96 -47 -145 -47c-118 0 -182 71 -182 175v297c0 28 19 49 54 49c34 0 54 -21 54 -49v-295c0 -46 25 -82 76 -82c32 0 67 16 94 38c-3 13 -4 27 -4 42
v297c0 28 19 49 54 49c34 0 54 -21 54 -49v-276c0 -59 10 -101 68 -101c35 0 73 15 102 34c-3 15 -4 31 -4 48v295c0 28 18 49 54 49s54 -21 54 -49v-295c0 -53 13 -81 37 -81c30 0 54 -22 54 -50v-131c0 -29 -24 -51 -54 -51z" />
    <glyph glyph-name="uni044A.BUL" unicode="&#xe044a;" horiz-adv-x="554" 
d="M328 -7c-130 0 -195 79 -195 181v238h-71c-28 0 -51 20 -51 46c0 27 24 47 51 47h125c44 0 54 -38 54 -72v-120c25 13 56 20 87 20c124 0 195 -75 195 -171c0 -97 -71 -169 -195 -169zM322 238c-55 0 -81 -25 -81 -67c0 -52 29 -84 87 -84c56 0 87 29 87 77
c0 46 -29 74 -93 74z" />
    <glyph glyph-name="uni044C.BUL" unicode="&#xe044c;" horiz-adv-x="492" 
d="M176 460v-147c25 13 55 20 87 20c123 0 195 -75 195 -171c0 -97 -72 -169 -195 -169c-130 0 -195 79 -195 181v286c0 27 23 50 54 50c30 0 54 -23 54 -50zM257 238c-57 0 -81 -24 -81 -67c0 -52 29 -84 87 -84c55 0 87 29 87 77c0 46 -30 74 -93 74z" />
    <glyph glyph-name="uni044E.BUL" unicode="&#xe044e;" horiz-adv-x="715" 
d="M176 678v-373h100v26c0 103 68 182 197 182c128 0 197 -79 197 -182v-157c0 -102 -69 -182 -197 -182c-129 0 -197 80 -197 182v42h-100v-173c0 -29 -23 -51 -53 -51c-31 0 -54 22 -54 51v635c0 26 22 51 53 51c30 0 54 -22 54 -51zM473 87c58 0 89 33 89 87v158
c0 53 -31 86 -89 86c-59 0 -89 -33 -89 -86v-158c0 -54 30 -87 89 -87z" />
    <glyph glyph-name="uni0431.SRB" unicode="&#xf0431;" horiz-adv-x="484" 
d="M40 300c0 60 29 112 87 143c-45 26 -71 62 -71 116c0 83 64 132 182 139c38 3 68 2 111 35c5 4 16 13 32 13c26 0 46 -22 46 -48c0 -61 -100 -86 -187 -93c-27 -2 -76 -8 -76 -58c0 -47 39 -64 93 -67c127 -11 187 -85 187 -180v-126c0 -102 -70 -182 -202 -182
s-202 80 -202 182v126zM242 87c62 0 94 33 94 87v127c0 53 -32 86 -94 86s-94 -33 -94 -86v-127c0 -54 32 -87 94 -87z" />
    <glyph glyph-name="uni0434.tri" unicode="&#xf0434;" horiz-adv-x="558" 
d="M346 457l125 -368h15c27 0 54 -22 54 -50v-109c0 -37 -12 -72 -54 -72c-40 0 -54 30 -54 67v75h-306v-75c0 -35 -15 -67 -54 -67c-31 0 -54 22 -54 50v131c0 28 23 50 54 50h16l127 369c16 36 32 53 66 53c33 0 52 -16 65 -54zM281 382c-19 -69 -35 -138 -56 -206
l-27 -87h163l-39 128c-17 54 -28 110 -41 165z" />
    <glyph glyph-name="parenright.denominator" horiz-adv-x="147" 
d="M63 173c0 64 -15 129 -47 185c-3 5 -6 10 -6 16c0 14 8 27 26 27c9 0 18 -4 23 -12c41 -65 58 -143 58 -216c0 -74 -17 -152 -58 -216c-5 -9 -14 -13 -23 -13c-18 0 -26 14 -26 27c0 7 3 12 6 17c32 56 47 120 47 185z" />
    <glyph glyph-name="hyphen.denominator" horiz-adv-x="209" 
d="M192 148c0 -13 -11 -24 -25 -24h-125c-15 0 -26 11 -26 24c0 14 11 25 26 25h125c14 0 25 -11 25 -25z" />
    <glyph glyph-name="parenleft.denominator" horiz-adv-x="148" 
d="M84 173c0 -65 14 -129 47 -185c3 -5 6 -10 6 -17c0 -13 -8 -27 -26 -27c-10 0 -18 4 -23 13c-41 64 -58 142 -58 216c0 73 17 151 58 216c5 8 13 12 23 12c18 0 26 -13 26 -27c0 -6 -3 -11 -6 -16c-33 -56 -47 -121 -47 -185z" />
    </font>
</defs>
</svg>
