<?xml version="1.0" standalone="no"?>
<!DOCTYPE svg PUBLIC "-//W3C//DTD SVG 1.1//EN" "http://www.w3.org/Graphics/SVG/1.1/DTD/svg11.dtd" >
<svg xmlns="http://www.w3.org/2000/svg" xmlns:xlink="http://www.w3.org/1999/xlink" version="1.1">
<metadata>
Created by FontForge 20190801 at Fri Nov 28 12:28:59 2014
 By Jimmy Wärting
(c) 2014 Sergiy S. Tkachenko / 4th february
(c) 2014 FirstSiteGuide.com
http://creativecommons.org/licenses/by-nd/4.0/
</metadata>
<defs>
<font id="BloggerSans-MediumItalic" horiz-adv-x="260" >
  <font-face 
    font-family="Blogger Sans Medium"
    font-weight="500"
    font-style="italic"
    font-stretch="squinchy"
    units-per-em="1000"
    panose-1="2 0 5 6 3 0 0 2 0 4"
    ascent="760"
    descent="-240"
    x-height="505"
    cap-height="706"
    bbox="-69 -238 965.659 948"
    underline-thickness="20"
    underline-position="-143"
    stemh="75"
    stemv="78"
    unicode-range="U+0020-F0434"
  />
<missing-glyph horiz-adv-x="760" 
 />
    <glyph glyph-name="ff" unicode="ff" horiz-adv-x="688" 
d="M46 -165l98 697c18 129 110 188 216 191c21 1 107 0 99 -56c-4 -30 -32 -48 -60 -48c-18 0 -36 6 -59 6c-51 0 -80 -39 -87 -86l-8 -55h89c28 0 48 -21 44 -49c-4 -27 -30 -48 -58 -48h-89l-77 -552c-4 -27 -27 -49 -61 -49c-35 0 -51 22 -47 49zM385 -165l98 697
c18 129 110 188 216 191c21 1 107 0 99 -56c-4 -30 -32 -48 -60 -48c-18 0 -36 6 -59 6c-51 0 -80 -39 -87 -86l-8 -55h89c28 0 48 -21 44 -49c-4 -27 -30 -48 -58 -48h-89l-77 -552c-4 -27 -27 -49 -61 -49c-35 0 -51 22 -47 49z" />
    <glyph glyph-name="fi" unicode="fi" horiz-adv-x="604" 
d="M46 -165l98 697c18 129 110 188 216 191c21 1 107 0 99 -56c-4 -30 -32 -48 -60 -48c-18 0 -36 6 -59 6c-51 0 -80 -39 -87 -86l-8 -55h89c28 0 48 -21 44 -49c-4 -27 -30 -48 -58 -48h-89l-77 -552c-4 -27 -27 -49 -61 -49c-35 0 -51 22 -47 49zM626 656
c-5 -33 -36 -59 -71 -59c-33 0 -55 24 -55 53c0 35 33 65 72 65c35 0 59 -27 54 -59zM432 102l50 358c4 27 30 50 61 50c30 0 51 -23 47 -50l-50 -352c-2 -21 -3 -30 8 -44c5 -6 10 -12 10 -22c0 -30 -26 -50 -63 -50c-32 0 -77 13 -63 110z" />
    <glyph glyph-name="fl" unicode="fl" horiz-adv-x="587" 
d="M46 -165l98 697c18 129 110 188 216 191c21 1 107 0 99 -56c-4 -30 -32 -48 -60 -48c-18 0 -36 6 -59 6c-51 0 -80 -39 -87 -86l-8 -55h89c28 0 48 -21 44 -49c-4 -27 -30 -48 -58 -48h-89l-77 -552c-4 -27 -27 -49 -61 -49c-35 0 -51 22 -47 49zM486 -8
c-32 0 -77 13 -63 110l80 571c4 27 30 50 61 50c30 0 51 -22 47 -50l-80 -565c-2 -21 -3 -30 8 -44c5 -6 10 -12 10 -22c0 -30 -26 -50 -63 -50z" />
    <glyph glyph-name="ffi" unicode="ffi" horiz-adv-x="943" 
d="M46 -165l98 697c18 129 110 188 216 191c21 1 107 0 99 -56c-4 -30 -32 -48 -60 -48c-18 0 -36 6 -59 6c-51 0 -80 -39 -87 -86l-8 -55h89c28 0 48 -21 44 -49c-4 -27 -30 -48 -58 -48h-89l-77 -552c-4 -27 -27 -49 -61 -49c-35 0 -51 22 -47 49zM385 -165l98 697
c18 129 110 188 216 191c21 1 107 0 99 -56c-4 -30 -32 -48 -60 -48c-18 0 -36 6 -59 6c-51 0 -80 -39 -87 -86l-8 -55h89c28 0 48 -21 44 -49c-4 -27 -30 -48 -58 -48h-89l-77 -552c-4 -27 -27 -49 -61 -49c-35 0 -51 22 -47 49zM965 656c-5 -33 -36 -59 -71 -59
c-33 0 -55 24 -55 53c0 35 33 65 72 65c35 0 59 -27 54 -59zM771 102l50 358c4 27 30 50 61 50c30 0 51 -23 47 -50l-50 -352c-2 -21 -3 -30 8 -44c5 -6 10 -12 10 -22c0 -30 -26 -50 -63 -50c-32 0 -77 13 -63 110z" />
    <glyph glyph-name="ffl" unicode="ffl" horiz-adv-x="926" 
d="M46 -165l98 697c18 129 110 188 216 191c21 1 107 0 99 -56c-4 -30 -32 -48 -60 -48c-18 0 -36 6 -59 6c-51 0 -80 -39 -87 -86l-8 -55h89c28 0 48 -21 44 -49c-4 -27 -30 -48 -58 -48h-89l-77 -552c-4 -27 -27 -49 -61 -49c-35 0 -51 22 -47 49zM385 -165l98 697
c18 129 110 188 216 191c21 1 107 0 99 -56c-4 -30 -32 -48 -60 -48c-18 0 -36 6 -59 6c-51 0 -80 -39 -87 -86l-8 -55h89c28 0 48 -21 44 -49c-4 -27 -30 -48 -58 -48h-89l-77 -552c-4 -27 -27 -49 -61 -49c-35 0 -51 22 -47 49zM825 -8c-32 0 -77 13 -63 110l80 571
c4 27 30 50 61 50c30 0 51 -22 47 -50l-80 -565c-2 -21 -3 -30 8 -44c5 -6 10 -12 10 -22c0 -30 -26 -50 -63 -50z" />
    <glyph glyph-name="uni0457_uni0457" unicode="&#x457;&#x457;" horiz-adv-x="520" 
d="M407 630c0 -35 -33 -64 -68 -64c-33 0 -56 27 -52 58c5 31 35 57 68 57c30 0 52 -22 52 -51zM187 631c0 -35 -32 -65 -68 -65c-33 0 -54 27 -50 58c5 31 33 57 66 57c31 0 52 -22 52 -50zM92 102l50 358c4 27 30 50 61 50c30 0 51 -23 47 -50l-49 -352
c-3 -21 -3 -30 8 -44c5 -6 9 -12 9 -22c0 -30 -25 -50 -62 -50c-32 0 -78 13 -64 110zM626 630c0 -35 -33 -64 -68 -64c-33 0 -56 27 -52 58c5 31 35 57 68 57c30 0 52 -22 52 -51zM347 102l50 358c4 27 30 50 61 50c30 0 51 -23 47 -50l-49 -352c-3 -21 -3 -30 8 -44
c5 -6 9 -12 9 -22c0 -30 -25 -50 -62 -50c-32 0 -78 13 -64 110z" />
    <glyph glyph-name=".notdef" horiz-adv-x="760" 
 />
    <glyph glyph-name="space" unicode=" " horiz-adv-x="300" 
 />
    <glyph glyph-name="exclam" unicode="!" horiz-adv-x="247" 
d="M108 215l53 447c4 27 31 52 62 52c30 0 52 -25 48 -52l-73 -447c-4 -24 -28 -44 -51 -44c-26 0 -42 20 -39 44zM202 64c0 -39 -38 -74 -78 -74c-39 0 -65 31 -60 67c5 35 39 65 78 65c34 0 60 -27 60 -58z" />
    <glyph glyph-name="quotedbl" unicode="&#x22;" horiz-adv-x="362" 
d="M126 494l56 226c8 24 37 41 64 38c28 -5 44 -29 34 -53c-14 -37 -68 -189 -83 -226c-7 -18 -29 -31 -48 -28s-28 24 -23 43zM264 494l57 226c7 24 37 41 64 38c27 -5 44 -29 33 -53c-14 -37 -68 -189 -82 -226c-8 -18 -30 -31 -48 -28c-20 3 -29 24 -24 43z" />
    <glyph glyph-name="numbersign" unicode="#" horiz-adv-x="561" 
d="M190 491h48l63 170c10 27 34 50 63 50c26 -3 40 -30 39 -50v-3c-17 -55 -41 -112 -62 -167h77l63 170c10 27 34 50 63 50c27 -3 40 -30 39 -50v-4c-17 -55 -41 -112 -62 -166c32 0 65 -10 65 -44c0 -33 -29 -58 -62 -58h-40l-27 -70h27c21 0 47 -21 47 -47
c0 -39 -33 -56 -72 -56h-39l-64 -172c-11 -30 -35 -50 -64 -50c-8 1 -15 8 -14 18c-18 3 -26 19 -24 38l62 166h-76l-65 -172c-10 -28 -47 -44 -67 -44c-23 0 -39 19 -36 43l64 173c-35 0 -62 12 -62 44c0 33 32 59 62 59h38l26 70h-24c-24 0 -47 19 -47 46
c0 31 31 56 61 56zM304 389l-27 -70h77l26 70h-76z" />
    <glyph glyph-name="dollar" unicode="$" horiz-adv-x="513" 
d="M227 -28l7 48c-74 2 -180 25 -180 80c0 29 24 54 62 54c37 0 68 -28 132 -31l26 188c-80 27 -165 59 -165 165c0 122 86 198 218 207l7 50c2 14 15 26 29 26s25 -12 23 -26l-7 -50c60 -4 150 -20 150 -73c0 -29 -26 -55 -62 -55c-32 0 -47 21 -103 26l-25 -178
c83 -29 166 -58 166 -162c0 -127 -96 -205 -219 -219l-7 -50c-2 -14 -16 -26 -30 -26c-15 0 -24 12 -22 26zM389 219c0 39 -22 56 -40 64l-25 11l-24 -168c57 10 89 43 89 93zM265 433l25 -12l22 159c-48 -7 -88 -29 -88 -85c0 -38 23 -54 41 -62z" />
    <glyph glyph-name="percent" unicode="%" horiz-adv-x="723" 
d="M531 -10c-99 0 -141 73 -127 168c13 94 76 167 174 167c97 0 141 -73 128 -167c-14 -95 -77 -168 -175 -168zM666 645l-424 -622c-16 -22 -42 -30 -66 -24c-24 9 -33 36 -22 61l5 10l424 621c16 21 42 29 65 22s35 -31 25 -55c-2 -4 -5 -10 -7 -13zM543 77
c39 0 62 30 70 83c7 49 -8 78 -47 78c-40 0 -62 -29 -69 -78c-8 -53 6 -83 46 -83zM257 467c39 0 62 30 70 83c7 49 -8 78 -47 78c-40 0 -62 -29 -69 -78c-8 -53 6 -83 46 -83zM245 380c-98 0 -141 73 -128 168c14 94 76 167 175 167c98 0 141 -73 127 -167
c-13 -95 -76 -168 -174 -168z" />
    <glyph glyph-name="ampersand" unicode="&#x26;" horiz-adv-x="662" 
d="M626 47c0 -28 -25 -55 -58 -55c-37 0 -61 40 -90 85c-58 -47 -126 -86 -215 -86c-121 0 -197 74 -197 172c0 115 89 184 173 231c-33 45 -53 92 -53 138c0 110 104 180 208 180c93 0 160 -63 160 -126c0 -40 -43 -59 -64 -59c-58 0 -27 84 -100 84c-32 0 -96 -31 -96 -70
c0 -35 29 -74 55 -108l149 -195c39 52 70 126 110 126c23 0 50 -18 50 -46c0 -38 -55 -111 -99 -162l58 -82c5 -6 9 -15 9 -27zM419 154l-125 165c-59 -32 -119 -70 -119 -138c0 -50 34 -94 96 -94c58 0 106 29 148 67z" />
    <glyph glyph-name="quotesingle" unicode="'" horiz-adv-x="242" 
d="M133 494l57 226c7 24 37 41 64 38c27 -5 44 -29 33 -53c-14 -37 -68 -189 -82 -226c-8 -18 -30 -31 -48 -28c-20 3 -29 24 -24 43z" />
    <glyph glyph-name="parenleft" unicode="(" horiz-adv-x="296" 
d="M201 226c-18 -129 -9 -258 42 -370c4 -10 9 -20 7 -33c-4 -27 -25 -54 -61 -54c-19 0 -33 8 -42 25c-64 129 -76 285 -55 432c20 146 76 303 176 432c14 17 31 25 50 25c36 0 49 -27 45 -55c-2 -12 -9 -22 -16 -32c-82 -112 -128 -241 -146 -370z" />
    <glyph glyph-name="parenright" unicode=")" horiz-adv-x="295" 
d="M157 226c19 129 8 258 -42 370c-4 10 -9 20 -7 32c4 28 24 55 61 55c18 0 34 -8 42 -25c63 -129 76 -286 55 -432c-20 -147 -77 -303 -176 -432c-14 -17 -32 -25 -50 -25c-37 0 -49 27 -45 54c2 13 9 23 16 33c81 112 128 241 146 370z" />
    <glyph glyph-name="asterisk" unicode="*" horiz-adv-x="515" 
d="M365 508l73 -89c5 -7 3 -14 3 -20c0 -23 -21 -48 -50 -48c-42 0 -67 69 -93 107c-27 -38 -52 -107 -94 -107c-29 0 -50 25 -50 48c0 6 -2 13 3 20l72 89l-88 18c-25 5 -51 21 -51 48c0 32 25 48 45 48c4 0 8 0 11 -1c37 -13 74 -29 111 -42l-9 90c-1 3 -1 6 -1 8
c0 19 12 54 50 54s50 -35 50 -54c0 -2 0 -5 -1 -8l-9 -90c37 13 74 29 111 42c3 1 7 1 11 1c20 0 45 -16 45 -48c0 -27 -26 -43 -51 -48z" />
    <glyph glyph-name="plus" unicode="+" horiz-adv-x="520" 
d="M246 153v149h-140c-31 0 -54 23 -54 52s26 51 54 51h140v149c0 27 23 52 54 52c30 0 54 -23 54 -52v-149h140c27 0 54 -22 54 -51s-24 -52 -54 -52h-140v-149c0 -29 -24 -51 -54 -51c-31 0 -54 25 -54 51z" />
    <glyph glyph-name="comma" unicode="," horiz-adv-x="250" 
d="M64 -99c5 33 31 48 47 91c-32 5 -52 32 -47 65c4 35 39 65 78 65c36 0 64 -28 58 -67c-9 -64 -73 -185 -111 -185c-13 0 -32 5 -25 31z" />
    <glyph glyph-name="hyphen" unicode="-" horiz-adv-x="419" 
d="M425 297c0 -27 -23 -48 -51 -48h-249c-30 0 -52 21 -52 48s22 49 52 49h249c28 0 51 -22 51 -49z" />
    <glyph glyph-name="period" unicode="." horiz-adv-x="250" 
d="M202 64c0 -39 -38 -74 -78 -74c-39 0 -65 31 -60 67c5 35 39 65 78 65c34 0 60 -27 60 -58z" />
    <glyph glyph-name="slash" unicode="/" horiz-adv-x="320" 
d="M432 689l-354 -699c-11 -21 -33 -34 -54 -34c-26 0 -46 20 -46 43c0 8 1 11 3 15l360 710c11 22 31 34 52 34c28 0 46 -23 46 -47c0 -8 -2 -17 -7 -22z" />
    <glyph glyph-name="zero" unicode="0" horiz-adv-x="520" 
d="M348 626c-77 0 -114 -53 -125 -128l-41 -294c-10 -69 21 -115 91 -115c69 0 113 46 123 115l41 294c11 75 -13 128 -89 128zM362 724c150 0 201 -105 183 -234l-40 -286c-17 -119 -107 -214 -246 -214c-140 0 -203 95 -186 214l40 286c18 129 98 234 249 234z" />
    <glyph glyph-name="one" unicode="1" horiz-adv-x="520" 
d="M272 43l75 534l-110 -64c-19 -10 -36 -20 -55 -20c-23 0 -47 15 -43 46c3 20 15 36 31 45l214 121c13 7 22 9 33 9c33 0 56 -24 51 -55l-86 -616c-4 -27 -33 -52 -63 -52c-31 0 -51 25 -47 52z" />
    <glyph glyph-name="two" unicode="2" horiz-adv-x="520" 
d="M487 55c0 -30 -30 -55 -62 -55h-329c-30 0 -49 20 -49 47c0 20 6 37 14 50c49 84 124 148 200 211c75 63 180 129 180 224c0 53 -32 94 -95 94c-36 0 -65 -6 -92 -17c-24 -10 -46 -28 -69 -28c-25 0 -47 18 -47 44c0 65 145 99 223 99c123 0 190 -76 190 -173
c0 -91 -44 -154 -104 -211c-86 -81 -192 -150 -257 -240h249c28 0 48 -19 48 -45z" />
    <glyph glyph-name="three" unicode="3" horiz-adv-x="520" 
d="M524 612c-59 -63 -120 -126 -179 -189c97 -10 162 -72 162 -171c0 -111 -85 -260 -261 -260c-43 0 -189 10 -189 78c0 30 27 56 59 56c36 0 62 -38 129 -38c115 0 151 86 151 150c0 65 -46 92 -111 92c-28 0 -34 -11 -57 -11c-24 0 -41 20 -41 43c0 9 5 26 9 32l193 207
h-191c-28 0 -47 20 -47 45c0 27 29 60 62 60h279c28 0 51 -20 51 -50c0 -17 -7 -31 -19 -44z" />
    <glyph glyph-name="four" unicode="4" horiz-adv-x="520" 
d="M449 143l-14 -101c-4 -29 -31 -51 -61 -51c-31 0 -51 22 -47 51l14 101h-235c-33 0 -52 26 -48 55c1 4 6 20 13 31l257 462c11 19 33 31 53 31c26 0 50 -24 46 -52c0 -5 -1 -11 -5 -18c-39 -67 -190 -342 -229 -409h162l25 174c4 29 30 51 61 51c29 0 51 -22 47 -51
l-24 -174h27c29 0 49 -23 45 -50c-4 -28 -30 -50 -59 -50h-28z" />
    <glyph glyph-name="five" unicode="5" horiz-adv-x="520" 
d="M508 263c0 -122 -81 -271 -253 -271c-43 0 -198 11 -198 79c0 29 26 55 59 55s61 -38 129 -38c117 0 153 88 153 161c0 71 -41 104 -96 104c-26 0 -46 -6 -66 -16c-12 -6 -41 -30 -67 -30c-32 0 -52 23 -47 56l50 287c6 35 39 56 69 56h241c24 0 54 -12 54 -45
c0 -40 -37 -55 -68 -55h-202c-10 -57 -20 -115 -31 -173c26 12 54 16 83 16c115 0 190 -70 190 -186z" />
    <glyph glyph-name="six" unicode="6" horiz-adv-x="520" 
d="M206 409c43 29 86 38 127 38c105 0 186 -63 186 -188c0 -140 -90 -268 -260 -268c-138 0 -185 102 -185 246c0 273 93 477 298 477c37 0 159 -7 159 -65c0 -25 -24 -51 -56 -51c-28 0 -57 18 -104 20c-109 0 -145 -92 -165 -209zM188 302l-2 -18
c-12 -100 -7 -191 92 -191c97 0 131 82 131 154c0 68 -37 100 -97 100c-47 0 -95 -19 -124 -45z" />
    <glyph glyph-name="seven" unicode="7" horiz-adv-x="520" 
d="M567 658c0 -7 -3 -21 -9 -32l-334 -602c-9 -17 -27 -33 -54 -33c-29 0 -52 18 -49 47c1 6 3 16 7 23l303 541h-249c-28 0 -49 23 -45 52s30 52 60 52h320c28 0 50 -21 50 -48z" />
    <glyph glyph-name="eight" unicode="8" horiz-adv-x="520" 
d="M527 225c0 -132 -117 -235 -268 -235c-137 0 -225 87 -208 207c12 83 67 138 135 175c-46 35 -74 85 -64 154c16 116 122 187 237 187c118 0 201 -75 186 -184c-9 -63 -47 -113 -108 -150c52 -33 90 -83 90 -154zM438 536c0 48 -39 82 -91 82c-59 0 -109 -38 -117 -92
c-8 -57 36 -94 91 -105c63 14 117 56 117 115zM417 213c0 62 -54 99 -114 111c-72 -14 -133 -58 -143 -123c-9 -65 40 -113 113 -113c80 0 144 57 144 125z" />
    <glyph glyph-name="nine" unicode="9" horiz-adv-x="520" 
d="M413 296c-42 -29 -86 -39 -127 -39c-104 0 -186 62 -186 188c0 139 86 269 257 269c139 0 188 -102 188 -250c0 -276 -92 -473 -298 -473c-38 0 -159 7 -159 64c0 25 23 51 56 51c26 0 57 -19 104 -19c108 0 145 91 165 209zM430 403l3 18c17 104 0 191 -94 191
s-129 -83 -129 -155c0 -67 37 -99 97 -99c47 0 95 18 123 45z" />
    <glyph glyph-name="colon" unicode=":" horiz-adv-x="250" 
d="M244 364c0 -39 -38 -74 -78 -74c-39 0 -65 31 -60 67c5 35 39 65 78 65c34 0 60 -27 60 -58zM202 64c0 -39 -38 -74 -78 -74c-39 0 -65 31 -60 67c5 35 39 65 78 65c34 0 60 -27 60 -58z" />
    <glyph glyph-name="semicolon" unicode=";" horiz-adv-x="250" 
d="M64 -99c5 33 31 48 47 91c-32 5 -52 32 -47 65c4 35 39 65 78 65c36 0 64 -28 58 -67c-9 -64 -73 -185 -111 -185c-13 0 -32 5 -25 31zM244 364c0 -39 -38 -74 -78 -74c-39 0 -65 31 -60 67c5 35 39 65 78 65c34 0 60 -27 60 -58z" />
    <glyph glyph-name="less" unicode="&#x3c;" horiz-adv-x="645" 
d="M264 352l309 -161c18 -9 30 -27 30 -43c0 -29 -27 -56 -58 -56c-11 0 -36 11 -56 21l-338 181c-21 13 -39 22 -39 50c0 40 23 50 54 66l390 181c17 8 48 22 59 21c28 0 46 -20 46 -46c0 -23 -20 -43 -43 -54z" />
    <glyph glyph-name="equal" unicode="=" horiz-adv-x="520" 
d="M146 404h308c27 0 54 -23 54 -52s-24 -51 -54 -51h-308c-31 0 -54 22 -54 51s26 52 54 52zM146 406h308c27 0 54 -22 54 -51s-24 -51 -54 -51h-308c-31 0 -54 22 -54 51s26 51 54 51z" />
    <glyph glyph-name="greater" unicode="&#x3e;" horiz-adv-x="645" 
d="M126 191l354 161l-309 160c-18 9 -29 26 -29 44c0 29 27 57 58 57c10 0 34 -10 50 -19l344 -184c22 -12 39 -23 39 -50c0 -40 -25 -50 -55 -66l-395 -183c-21 -11 -49 -19 -58 -19c-25 0 -42 21 -42 46c0 22 19 42 43 53z" />
    <glyph glyph-name="question" unicode="?" horiz-adv-x="482" 
d="M335 256c-7 -8 -11 -24 -12 -35c-9 -27 -32 -52 -62 -52c-34 0 -52 27 -46 65c12 55 62 101 102 139l25 24c33 32 69 71 75 122c8 59 -22 108 -97 108c-30 0 -61 -5 -89 -17c-25 -11 -42 -28 -65 -28c-24 0 -46 18 -46 44c0 68 142 99 220 99c119 0 188 -73 188 -174
c0 -162 -137 -221 -193 -295zM313 63c0 -39 -38 -73 -78 -73c-35 0 -60 26 -60 59c0 39 38 72 79 72c34 0 59 -26 59 -58z" />
    <glyph glyph-name="at" unicode="@" horiz-adv-x="764" 
d="M529 14c-37 -15 -103 -27 -159 -27c-195 0 -294 133 -267 327c27 190 158 323 366 323c214 0 306 -141 282 -314c-14 -96 -61 -166 -159 -166c-46 0 -74 15 -91 41c-39 -38 -70 -51 -108 -51c-91 0 -138 71 -124 170c13 96 76 165 181 165c111 0 127 -77 125 -162
c-1 -34 -3 -77 29 -77c30 0 44 31 50 74c18 133 -45 236 -195 236c-148 0 -241 -99 -261 -240c-20 -140 45 -236 201 -236c58 0 88 15 124 27c27 6 55 4 62 -24c7 -35 -26 -55 -56 -66zM409 232c22 0 43 10 68 28c-3 33 -2 33 0 60c2 32 6 75 -41 75c-41 0 -63 -32 -70 -83
s6 -80 43 -80z" />
    <glyph glyph-name="A" unicode="A" horiz-adv-x="569" 
d="M187 149l-54 -120c-11 -24 -40 -38 -58 -38c-28 0 -50 18 -50 45c0 8 3 20 5 25l278 593c16 34 37 60 76 60s51 -25 58 -60l112 -593c1 -2 1 -7 1 -11c0 -36 -30 -59 -65 -59c-36 0 -44 25 -52 61l-18 97h-233zM361 549c-40 -106 -86 -203 -130 -304h173
c-17 101 -37 200 -43 304z" />
    <glyph glyph-name="B" unicode="B" horiz-adv-x="562" 
d="M237 417h115c50 0 111 31 121 98c6 46 -12 88 -83 88h-127zM340 314h-118l-29 -212h117c83 0 129 41 138 103c10 70 -38 109 -108 109zM296 0h-165c-36 0 -59 27 -54 60l82 585c5 34 37 60 71 60h169c140 0 197 -93 184 -189c-11 -78 -67 -121 -138 -151
c60 -23 127 -61 113 -160c-16 -115 -118 -205 -262 -205z" />
    <glyph glyph-name="C" unicode="C" horiz-adv-x="502" 
d="M75 250l29 206c22 156 111 258 276 258c94 0 179 -41 179 -91c0 -28 -27 -53 -58 -53c-19 0 -25 6 -38 16l-4 3c-25 19 -52 28 -87 28c-102 0 -144 -62 -158 -161l-29 -206c-14 -99 10 -161 112 -161c35 0 64 11 95 27l6 3c17 8 23 16 42 16c26 0 45 -19 45 -42
c0 -55 -104 -101 -206 -101c-165 0 -226 102 -204 258z" />
    <glyph glyph-name="D" unicode="D" horiz-adv-x="574" 
d="M571 267c-20 -139 -111 -267 -327 -267h-113c-34 0 -59 27 -54 60l82 586c4 32 37 60 71 60h113c215 0 272 -123 253 -259zM461 267l25 180c12 87 -21 156 -140 156h-83l-70 -501h83c121 0 172 74 185 165z" />
    <glyph glyph-name="E" unicode="E" horiz-adv-x="494" 
d="M474 58c0 -32 -30 -58 -63 -58h-265c-41 0 -76 14 -70 59l83 587c4 29 34 59 70 59h271c30 0 52 -24 48 -53s-32 -50 -62 -50h-223l-28 -197h204c27 0 51 -22 47 -51s-32 -52 -62 -52h-204l-28 -200h233c27 0 49 -20 49 -44z" />
    <glyph glyph-name="F" unicode="F" horiz-adv-x="494" 
d="M220 302l-36 -260c-4 -27 -33 -52 -63 -52c-31 0 -51 25 -47 52l85 604c4 29 34 59 70 59h271c30 0 52 -24 48 -52c-4 -29 -32 -50 -62 -50h-223l-28 -198h204c27 0 51 -22 47 -51s-32 -52 -62 -52h-204z" />
    <glyph glyph-name="G" unicode="G" horiz-adv-x="540" 
d="M214 456l-29 -206c-14 -99 10 -161 112 -161c41 0 73 11 102 29l26 185h-75c-23 0 -43 20 -43 45c0 31 29 56 58 56h114c37 0 67 -19 61 -58l-32 -230c-12 -87 -133 -124 -229 -124c-165 0 -226 102 -204 258l29 206c22 156 111 258 276 258c94 0 179 -41 179 -91
c0 -28 -27 -53 -58 -53c-19 0 -25 6 -38 16l-4 3c-24 18 -52 28 -87 28c-102 0 -144 -62 -158 -161z" />
    <glyph glyph-name="H" unicode="H" horiz-adv-x="600" 
d="M537 43c-4 -28 -33 -53 -63 -53c-29 0 -51 25 -47 53l36 258h-243l-36 -258c-4 -28 -33 -53 -63 -53c-31 0 -51 25 -47 53l87 619c4 28 31 52 62 52c30 0 52 -24 48 -52l-36 -258h243l36 258c4 28 33 52 62 52s52 -24 48 -52z" />
    <glyph glyph-name="I" unicode="I" horiz-adv-x="247" 
d="M74 42l87 620c4 28 31 52 62 52c30 0 52 -24 48 -52l-87 -620c-4 -27 -33 -52 -63 -52c-31 0 -51 25 -47 52z" />
    <glyph glyph-name="J" unicode="J" horiz-adv-x="405" 
d="M430 662l-61 -432c-21 -149 -85 -240 -251 -240c-33 0 -99 4 -92 57c5 33 36 51 58 51c17 0 32 -6 60 -6c79 0 103 53 115 138l61 432c4 29 30 52 62 52c29 0 52 -24 48 -52z" />
    <glyph glyph-name="K" unicode="K" horiz-adv-x="527" 
d="M419 14l-164 288l-40 -41l-31 -218c-4 -28 -32 -52 -62 -52c-31 0 -52 24 -48 52l87 619c4 28 31 52 62 52c30 0 52 -24 48 -52l-34 -240l263 268c12 12 31 24 50 24c20 0 46 -18 46 -46c0 -10 -2 -23 -19 -40l-241 -244c60 -104 121 -208 182 -312c4 -7 5 -14 5 -20
c0 -27 -22 -61 -61 -61c-19 0 -34 7 -43 23z" />
    <glyph glyph-name="L" unicode="L" horiz-adv-x="475" 
d="M471 56c0 -31 -29 -56 -61 -56h-282c-32 0 -57 25 -52 57l85 605c4 28 32 52 63 52c30 0 52 -24 48 -52l-79 -561h232c25 0 46 -19 46 -45z" />
    <glyph glyph-name="M" unicode="M" horiz-adv-x="729" 
d="M756 660l-87 -619c-4 -27 -32 -51 -61 -51c-30 0 -53 24 -49 51l59 416l-179 -284c-13 -21 -34 -31 -56 -31s-40 10 -47 31l-98 284l-58 -416c-4 -27 -33 -51 -64 -51c-30 0 -50 24 -46 51l87 619c4 31 31 54 64 54c26 0 44 -11 52 -32l133 -386l240 387
c15 23 37 31 60 31c32 0 54 -24 50 -54z" />
    <glyph glyph-name="N" unicode="N" horiz-adv-x="620" 
d="M490 -10c-21 0 -42 12 -49 29l-195 469l-62 -445c-4 -28 -34 -53 -64 -53c-31 0 -50 25 -46 53l86 615c5 32 32 56 66 56c22 0 43 -12 51 -30c33 -77 159 -389 194 -469l63 446c4 29 33 53 63 53s51 -24 47 -53l-87 -615c-4 -30 -32 -56 -67 -56z" />
    <glyph glyph-name="O" unicode="O" horiz-adv-x="580" 
d="M289 -10c-163 0 -229 116 -209 260l29 206c20 140 105 258 281 258s229 -118 209 -258l-29 -206c-20 -144 -118 -260 -281 -260zM376 612c-99 0 -144 -63 -157 -156l-29 -206c-13 -93 20 -157 113 -157c92 0 144 64 157 157l29 206c13 93 -14 156 -113 156z" />
    <glyph glyph-name="P" unicode="P" horiz-adv-x="550" 
d="M313 250h-100l-29 -206c-4 -28 -33 -54 -63 -54c-29 0 -51 25 -47 54l85 601c4 32 37 60 71 60h147c177 0 225 -110 208 -229c-21 -145 -126 -226 -272 -226zM262 602l-35 -250h100c85 0 136 40 148 125c9 62 -7 125 -113 125h-100z" />
    <glyph glyph-name="Q" unicode="Q" horiz-adv-x="580" 
d="M373 -175c-90 0 -135 67 -133 169c-128 21 -178 127 -160 256l29 206c20 140 105 258 281 258s229 -118 209 -258l-29 -206c-18 -126 -94 -230 -221 -253c-3 -55 15 -75 51 -75h29c32 0 52 -18 47 -49c-6 -47 -49 -48 -103 -48zM376 612c-99 0 -144 -63 -157 -156
l-29 -206c-13 -93 20 -157 113 -157c92 0 144 64 157 157l29 206c13 93 -14 156 -113 156z" />
    <glyph glyph-name="R" unicode="R" horiz-adv-x="595" 
d="M609 528c0 -118 -71 -194 -177 -220c38 -79 77 -156 115 -235c3 -4 5 -16 5 -22c0 -33 -36 -59 -65 -59c-20 0 -36 8 -43 24l-134 282h-90l-36 -254c-4 -28 -33 -53 -63 -53c-29 0 -51 24 -47 53l85 601c4 32 36 60 69 60h174c155 0 207 -87 207 -177zM497 515
c0 44 -24 87 -114 87h-121l-28 -203h127c87 0 136 42 136 116z" />
    <glyph glyph-name="S" unicode="S" horiz-adv-x="506" 
d="M384 212c0 43 -22 61 -39 70c-86 45 -239 51 -239 203c0 139 100 229 248 229c52 0 176 -12 176 -74c0 -28 -26 -55 -63 -55c-35 0 -55 27 -121 27c-63 0 -125 -25 -125 -109c0 -43 24 -60 40 -69c87 -48 239 -52 239 -202c0 -152 -119 -241 -266 -241
c-67 0 -188 21 -188 79c0 28 28 56 59 56c30 0 64 -33 144 -33c89 0 135 46 135 119z" />
    <glyph glyph-name="T" unicode="T" horiz-adv-x="503" 
d="M202 42l79 560h-121c-32 0 -52 24 -48 51c3 23 31 52 62 52h352c28 0 53 -23 49 -52c-4 -27 -33 -51 -63 -51h-121l-79 -560c-4 -27 -32 -52 -62 -52c-31 0 -52 25 -48 52z" />
    <glyph glyph-name="U" unicode="U" horiz-adv-x="592" 
d="M565 235c-20 -142 -123 -245 -271 -245c-152 0 -221 104 -201 245l60 425c4 31 31 54 63 54c29 0 51 -24 47 -54l-60 -425c-12 -84 20 -142 106 -142c85 0 133 59 145 142l60 425c4 29 30 54 61 54c32 0 54 -25 50 -54z" />
    <glyph glyph-name="V" unicode="V" horiz-adv-x="556" 
d="M217 676c30 -173 65 -345 82 -520c15 38 30 81 47 118l181 402c10 23 39 38 59 38c30 0 50 -18 50 -46c0 -8 -3 -20 -5 -24l-278 -593c-17 -36 -38 -60 -77 -60c-38 0 -51 25 -58 60l-111 593c-1 2 -1 8 -1 11c0 35 31 59 65 59c19 0 42 -15 46 -38z" />
    <glyph glyph-name="W" unicode="W" horiz-adv-x="803" 
d="M509 51l-24 248c-7 68 -9 137 -13 206c-53 -153 -109 -304 -165 -456c-12 -27 -33 -58 -76 -58c-35 0 -57 29 -60 59c-23 204 -45 409 -65 613c4 30 39 48 67 48c22 0 42 -12 45 -39c9 -94 19 -188 29 -281c7 -65 8 -132 13 -197c25 68 46 141 73 210l93 244
c16 42 31 66 75 66c42 0 53 -26 57 -66l23 -244c7 -70 8 -141 14 -211c23 66 45 132 70 198l106 280c11 25 32 40 55 40c26 0 56 -14 56 -44c0 -7 -1 -11 -4 -17l-233 -600c-14 -31 -37 -59 -76 -59s-57 29 -60 60z" />
    <glyph glyph-name="X" unicode="X" horiz-adv-x="527" 
d="M302 277c-59 -84 -120 -168 -181 -252c-11 -15 -29 -34 -56 -34c-26 0 -46 22 -46 47c0 12 7 26 12 33c74 99 146 197 220 295l-125 269c-3 6 -4 15 -4 22c0 29 30 57 60 57c25 0 41 -19 50 -40l95 -218l157 218c12 17 37 39 63 40c24 0 44 -20 44 -46
c0 -12 -5 -23 -11 -33l-200 -269l135 -295c3 -5 5 -14 5 -23c0 -29 -31 -57 -60 -57c-27 0 -40 17 -47 34z" />
    <glyph glyph-name="Y" unicode="Y" horiz-adv-x="503" 
d="M250 -10c-31 0 -53 25 -49 54l33 232l-126 361c-1 6 -3 16 -2 24c4 29 36 53 64 53c17 0 34 -7 40 -23l98 -288l178 288c12 16 31 23 48 23c29 0 52 -24 48 -53c-1 -7 -5 -18 -9 -24l-227 -362l-33 -231c-4 -28 -31 -54 -63 -54z" />
    <glyph glyph-name="Z" unicode="Z" horiz-adv-x="504" 
d="M487 58c0 -32 -30 -58 -63 -58h-343c-33 0 -53 25 -49 56c2 11 11 29 18 38c60 81 305 424 366 506h-251c-31 0 -51 23 -47 52c4 28 31 53 62 53h339c33 0 54 -25 50 -55c-2 -15 -10 -27 -17 -37l-370 -509h257c27 0 48 -19 48 -46z" />
    <glyph glyph-name="bracketleft" unicode="[" horiz-adv-x="314" 
d="M284 -59c0 -44 -39 -58 -73 -58h-102c-28 0 -50 24 -46 51l114 813c5 37 38 50 74 50h102c25 0 49 -23 45 -49c-5 -39 -41 -51 -72 -51h-47l-100 -714h47c31 0 58 -11 58 -42z" />
    <glyph glyph-name="backslash" unicode="\" horiz-adv-x="320" 
d="M234 -10c-53 233 -106 466 -158 699c-1 3 -2 8 -2 11c0 30 27 58 59 58c22 0 41 -12 45 -34l7 -33l153 -677c1 -1 0 -3 0 -5c0 -27 -29 -53 -59 -53c-22 0 -40 13 -45 34z" />
    <glyph glyph-name="bracketright" unicode="]" horiz-adv-x="314" 
d="M232 -66c-4 -28 -32 -51 -61 -51h-102c-32 0 -65 12 -60 51c6 39 40 49 73 49h47l101 714h-47c-31 0 -65 11 -59 51c5 37 42 49 74 49h102c26 0 50 -25 46 -50z" />
    <glyph glyph-name="asciicircum" unicode="^" horiz-adv-x="346" 
d="M259 616l-109 -111c-8 -10 -25 -18 -39 -18c-27 0 -43 16 -39 41c2 14 13 30 28 44l129 130c11 12 26 20 45 20c18 0 31 -8 39 -20c15 -20 77 -110 92 -130c11 -14 17 -30 17 -44c-4 -25 -24 -41 -51 -41c-15 0 -30 8 -36 18c-14 20 -62 92 -76 111z" />
    <glyph glyph-name="underscore" unicode="_" horiz-adv-x="620" 
d="M15 -127h590c27 0 54 -23 54 -52s-24 -51 -54 -51h-590c-31 0 -54 22 -54 51s26 52 54 52z" />
    <glyph glyph-name="grave" unicode="`" horiz-adv-x="217" 
d="M221 707c24 -28 72 -74 72 -98c0 -25 -24 -44 -48 -44c-17 0 -26 7 -36 20l-64 78c-6 8 -9 16 -9 24c0 26 25 45 46 45c17 0 23 -5 31 -15z" />
    <glyph glyph-name="a" unicode="a" horiz-adv-x="502" 
d="M216 -8c-113 0 -161 78 -145 193l17 120c17 119 81 208 224 208c130 0 175 -74 157 -204l-29 -203c-4 -29 9 -31 21 -32c19 -2 25 -13 25 -28c0 -34 -23 -50 -64 -50c-33 0 -59 11 -75 45c-42 -32 -78 -49 -131 -49zM250 85c29 0 49 8 84 33l30 215c8 57 -7 85 -66 85
c-64 0 -91 -34 -102 -113l-17 -120c-9 -67 12 -100 71 -100z" />
    <glyph glyph-name="b" unicode="b" horiz-adv-x="510" 
d="M232 388l-33 -233c-7 -45 24 -73 80 -73c61 0 94 33 102 87l26 186c6 45 -15 72 -73 72c-41 0 -75 -14 -102 -39zM91 155l73 519c3 26 26 49 61 49c34 0 51 -23 47 -49l-27 -195c36 22 74 34 125 34c120 0 157 -70 144 -161l-25 -178c-14 -102 -91 -182 -223 -182
c-126 0 -188 72 -175 163z" />
    <glyph glyph-name="c" unicode="c" horiz-adv-x="418" 
d="M71 180l20 143c15 105 85 187 219 187c53 0 153 -14 145 -74c-3 -21 -20 -42 -54 -42c-8 0 -15 1 -25 4c-20 10 -38 20 -71 20c-67 0 -98 -35 -106 -95l-20 -143c-9 -60 12 -96 79 -96c33 0 54 10 77 20c8 3 15 5 25 5c35 0 46 -22 43 -43c-9 -59 -113 -74 -167 -74
c-133 0 -180 83 -165 188z" />
    <glyph glyph-name="d" unicode="d" horiz-adv-x="513" 
d="M295 509c32 0 63 -5 97 -19l26 184c4 27 26 49 61 49c34 0 51 -22 47 -49l-78 -553c-3 -21 3 -32 16 -47c5 -6 7 -13 7 -21c0 -35 -31 -54 -57 -54c-24 0 -41 14 -52 35c-50 -25 -97 -42 -147 -42c-111 0 -160 78 -144 193l17 120c17 119 72 204 207 204zM342 131l38 270
c-31 12 -65 17 -85 17c-61 0 -88 -36 -99 -113l-17 -120c-9 -65 12 -100 67 -100c26 0 59 9 95 25c-1 8 0 15 1 21z" />
    <glyph glyph-name="e" unicode="e" horiz-adv-x="460" 
d="M269 197c-28 0 -56 2 -88 7l-6 -46c-6 -45 21 -74 84 -74c37 0 65 10 100 25c3 2 11 5 23 5c34 0 45 -25 42 -45c-8 -60 -128 -77 -187 -77c-123 0 -183 74 -169 171l24 177c14 98 94 173 223 173c121 0 172 -66 157 -166c-13 -94 -76 -150 -203 -150zM366 350
c7 53 -17 74 -66 74c-56 0 -92 -30 -99 -78l-8 -59c33 -4 72 -6 87 -6c57 0 80 27 86 69z" />
    <glyph glyph-name="f" unicode="f" horiz-adv-x="349" 
d="M46 -165l98 697c18 129 110 188 216 191c21 1 107 0 99 -56c-4 -30 -32 -48 -60 -48c-18 0 -36 6 -59 6c-51 0 -80 -39 -87 -86l-8 -55h89c28 0 48 -21 44 -49c-4 -27 -30 -48 -58 -48h-89l-77 -552c-4 -27 -27 -49 -61 -49c-35 0 -51 22 -47 49z" />
    <glyph glyph-name="g" unicode="g" horiz-adv-x="529" 
d="M364 120l32 227c6 45 -26 71 -81 71c-62 0 -94 -34 -102 -90l-21 -149c-8 -59 10 -95 70 -95c35 0 71 11 102 36zM504 347l-55 -384c-14 -105 -85 -187 -220 -187c-52 0 -151 16 -144 71c4 25 28 45 56 45c6 0 12 -1 22 -4c20 -11 39 -20 71 -20c67 0 99 35 108 95l8 57
c-36 -17 -73 -27 -117 -27c-133 0 -164 80 -149 186l21 149c15 105 92 185 224 185c125 0 188 -73 175 -166z" />
    <glyph glyph-name="h" unicode="h" horiz-adv-x="527" 
d="M505 343l-33 -235c-3 -21 -3 -30 8 -44c5 -6 10 -12 10 -22c0 -30 -26 -50 -63 -50c-32 0 -77 13 -64 110l35 245c7 48 -14 75 -62 75c-35 0 -77 -14 -107 -45l-47 -334c-4 -29 -30 -50 -60 -50c-31 0 -51 21 -47 50l89 635c4 26 29 51 60 51c30 0 51 -22 47 -51
l-28 -199c34 21 74 34 115 34c117 0 161 -70 147 -170z" />
    <glyph glyph-name="i" unicode="i" horiz-adv-x="265" 
d="M287 656c-5 -33 -36 -59 -71 -59c-33 0 -55 24 -55 53c0 35 33 65 72 65c35 0 59 -27 54 -59zM93 102l50 358c4 27 30 50 61 50c30 0 51 -23 47 -50l-50 -352c-2 -21 -3 -30 8 -44c5 -6 10 -12 10 -22c0 -30 -26 -50 -63 -50c-32 0 -77 13 -63 110z" />
    <glyph glyph-name="j" unicode="j" horiz-adv-x="265" 
d="M251 460l-66 -471c-16 -111 -93 -191 -202 -191c-27 0 -43 18 -43 42c0 31 30 46 50 50c46 9 77 35 86 96l67 474c4 27 30 50 61 50c30 0 51 -23 47 -50zM288 662c0 -36 -34 -65 -72 -65c-33 0 -55 24 -55 53c0 35 33 65 72 65c32 0 55 -24 55 -53z" />
    <glyph glyph-name="k" unicode="k" horiz-adv-x="463" 
d="M272 673l-49 -345l166 153c15 14 33 28 55 28c26 0 45 -18 45 -42c0 -15 -7 -28 -19 -39l-155 -140c43 -74 85 -148 127 -222c5 -8 7 -21 5 -30c-5 -27 -30 -43 -58 -43c-31 0 -35 11 -52 42l-105 190c-9 -7 -18 -16 -27 -23l-19 -137c-5 -37 -22 -72 -64 -72
c-31 0 -51 21 -47 50l85 605c5 39 20 75 65 75c30 0 51 -22 47 -50z" />
    <glyph glyph-name="l" unicode="l" horiz-adv-x="248" 
d="M147 -8c-32 0 -77 13 -63 110l80 571c4 27 30 50 61 50c30 0 51 -22 47 -50l-80 -565c-2 -21 -3 -30 8 -44c5 -6 10 -12 10 -22c0 -30 -26 -50 -63 -50z" />
    <glyph glyph-name="m" unicode="m" horiz-adv-x="798" 
d="M634 102l33 235c7 45 -14 81 -63 81c-34 0 -72 -18 -102 -44c1 -11 2 -23 0 -35l-42 -296c-4 -28 -25 -50 -61 -50s-51 22 -47 50l38 274c9 59 5 101 -53 101c-34 0 -73 -15 -105 -33c0 -7 0 -15 -1 -21l-45 -321c-4 -28 -25 -50 -61 -50s-51 22 -47 50l45 321
c6 44 0 46 -5 56c-6 12 -9 19 -8 29c4 28 30 47 58 47c20 0 33 -11 42 -27c49 28 99 44 147 44s83 -16 109 -47c53 30 100 47 155 47c113 0 170 -70 155 -174l-33 -231c-3 -21 -3 -30 8 -44c5 -6 10 -12 10 -22c0 -30 -26 -50 -63 -50c-32 0 -78 13 -64 110z" />
    <glyph glyph-name="n" unicode="n" horiz-adv-x="529" 
d="M503 319l-30 -211c-3 -21 -3 -30 8 -44c5 -6 10 -12 10 -22c0 -30 -26 -50 -63 -50c-32 0 -77 13 -64 110l31 217c9 63 -15 100 -65 100c-30 0 -63 -11 -99 -31c1 -9 1 -17 0 -24l-45 -321c-4 -28 -25 -50 -61 -50s-51 22 -47 50l45 321c6 44 0 46 -5 56s-8 16 -8 25
c0 28 26 51 59 51c19 0 33 -11 43 -29c49 31 100 44 144 44c116 0 163 -77 147 -192z" />
    <glyph glyph-name="o" unicode="o" horiz-adv-x="494" 
d="M246 -8c-132 0 -191 80 -177 182l22 158c15 103 96 182 228 182s192 -79 177 -182l-23 -158c-14 -102 -95 -182 -227 -182zM259 87c62 0 98 33 106 87l23 159c7 53 -20 86 -82 86s-99 -33 -106 -86l-23 -159c-7 -54 20 -87 82 -87z" />
    <glyph glyph-name="p" unicode="p" horiz-adv-x="503" 
d="M278 -7c-31 0 -62 5 -96 20l-25 -177c-4 -28 -27 -50 -61 -50c-35 0 -51 23 -47 50l74 527c4 28 2 43 -6 58c-5 8 -8 15 -6 26c4 29 32 48 56 48c19 0 33 -10 43 -26c49 26 97 44 149 44c110 0 160 -78 144 -192l-17 -123c-17 -119 -73 -205 -208 -205zM231 363l-37 -262
c29 -12 63 -17 85 -17c61 0 88 36 99 114l17 123c9 65 -13 99 -67 99c-28 0 -62 -10 -97 -27c1 -11 1 -21 0 -30z" />
    <glyph glyph-name="q" unicode="q" horiz-adv-x="510" 
d="M350 120l32 227c6 45 -26 71 -81 71c-62 0 -94 -34 -102 -90l-21 -149c-8 -59 10 -95 71 -95c34 0 70 11 101 36zM490 347l-71 -501c-4 -28 -25 -50 -61 -50s-51 22 -47 50l25 179c-36 -21 -72 -32 -119 -32c-130 0 -162 80 -147 186l21 149c15 105 92 185 224 185
c125 0 188 -73 175 -166z" />
    <glyph glyph-name="r" unicode="r" horiz-adv-x="357" 
d="M347 409c-42 1 -69 2 -115 -23c0 -9 0 -16 -1 -23l-45 -320c-4 -29 -31 -51 -61 -51c-31 0 -51 22 -47 51l45 320c4 28 2 43 -6 58c-5 8 -8 15 -6 27c4 28 31 47 59 47c18 0 32 -12 42 -29c48 27 102 43 137 43c51 0 64 -21 60 -49c-5 -32 -33 -53 -62 -51z" />
    <glyph glyph-name="s" unicode="s" horiz-adv-x="426" 
d="M97 343c0 99 70 170 200 170c56 0 134 -14 134 -67c0 -30 -21 -47 -50 -47c-32 0 -44 22 -97 22c-27 0 -78 -6 -78 -54c0 -85 203 -52 203 -202c0 -104 -73 -172 -205 -172c-55 0 -154 12 -154 62c0 16 17 64 63 52c17 -4 58 -23 100 -23c48 0 88 25 88 64
c0 82 -204 46 -204 195z" />
    <glyph glyph-name="t" unicode="t" horiz-adv-x="341" 
d="M98 205l57 403c4 28 26 50 61 50c34 0 51 -23 47 -50l-17 -124h88c28 0 49 -21 45 -49c-4 -27 -30 -48 -58 -48h-89l-25 -175c-12 -88 -9 -120 51 -120c7 0 15 1 19 1c43 0 65 -11 60 -45c-6 -46 -45 -52 -84 -52c-147 0 -174 72 -155 209z" />
    <glyph glyph-name="u" unicode="u" horiz-adv-x="529" 
d="M386 32c-49 -29 -100 -40 -146 -40c-113 0 -161 78 -145 193l39 276c4 28 26 49 61 49c34 0 51 -21 47 -49l-39 -276c-9 -64 12 -100 64 -100c30 0 64 10 98 27c0 9 0 17 1 24l46 325c4 28 25 49 61 49s51 -21 47 -49l-47 -335c-5 -35 2 -39 10 -53c5 -7 9 -15 8 -27
c-4 -29 -32 -48 -58 -48c-22 0 -37 14 -47 34z" />
    <glyph glyph-name="v" unicode="v" horiz-adv-x="450" 
d="M493 456l-16 -39c-61 -123 -119 -247 -179 -371c-18 -38 -39 -53 -72 -53c-36 0 -52 15 -59 52c-25 124 -51 249 -76 374l-6 39v5c0 26 32 48 61 48c20 0 41 -13 45 -35c10 -59 21 -119 31 -178s14 -118 22 -177c23 59 44 118 70 177s53 118 80 178c9 20 34 34 55 34
c28 0 46 -20 45 -48c0 -2 -1 -4 -1 -6z" />
    <glyph glyph-name="w" unicode="w" horiz-adv-x="675" 
d="M717 452l-173 -408c-15 -34 -33 -51 -71 -51c-27 0 -53 14 -56 41l-30 317c-39 -107 -77 -212 -120 -317c-12 -30 -33 -41 -66 -41c-36 0 -53 19 -58 52l-59 407v5c0 27 28 53 61 53c22 0 42 -13 45 -36l23 -188c6 -51 5 -103 8 -155c22 60 39 120 62 179l61 157
c10 25 34 43 66 43c31 0 48 -18 51 -43l17 -157c6 -59 8 -119 13 -179c17 52 32 104 52 155l74 188c8 20 34 36 56 36c26 0 47 -19 47 -44c0 -7 -2 -12 -3 -14z" />
    <glyph glyph-name="x" unicode="x" horiz-adv-x="451" 
d="M326 257l107 -189c4 -6 5 -13 5 -19c0 -30 -27 -57 -63 -57c-25 0 -34 10 -46 32l-79 147l-128 -154c-14 -17 -30 -25 -48 -25c-28 0 -48 18 -48 45c0 10 3 20 11 29l161 190l-99 179c-4 7 -6 15 -6 22c0 26 28 53 61 53c30 0 41 -21 51 -38l71 -129l111 137
c15 18 29 30 54 30c23 0 47 -19 47 -44c0 -8 -3 -20 -12 -30z" />
    <glyph glyph-name="y" unicode="y" horiz-adv-x="529" 
d="M530 461l-71 -498c-15 -105 -85 -187 -220 -187c-50 0 -144 15 -144 66c0 27 26 50 56 50c6 0 13 0 22 -4c22 -9 39 -20 71 -20c67 0 100 35 108 95l8 57c-36 -17 -73 -27 -117 -27c-133 0 -164 80 -149 186l39 282c4 28 26 49 61 49c34 0 51 -21 47 -49l-39 -282
c-8 -59 10 -95 70 -95c35 0 71 11 102 36l48 341c3 28 24 49 60 49s52 -21 48 -49z" />
    <glyph glyph-name="z" unicode="z" horiz-adv-x="409" 
d="M458 460c0 -12 -4 -27 -16 -41l-278 -324h193c30 0 49 -21 45 -48c-3 -26 -28 -47 -58 -47h-277c-29 0 -52 23 -48 53c2 10 6 20 15 31l278 326h-182c-28 0 -48 21 -44 47c4 28 30 48 58 48h265c27 0 49 -17 49 -45z" />
    <glyph glyph-name="braceleft" unicode="{" horiz-adv-x="427" 
d="M103 193c-24 0 -48 10 -43 49c6 39 34 47 56 48c39 2 63 17 75 74c10 51 16 89 36 181c17 82 93 131 191 131c34 0 73 -6 66 -56c-7 -48 -43 -45 -65 -42c-8 1 -20 2 -26 2c-27 0 -56 -17 -62 -48c-2 -7 -27 -146 -32 -164c-12 -56 -43 -99 -102 -126
c49 -26 72 -69 67 -127l-14 -164c-4 -30 22 -48 47 -48c5 0 22 2 27 2c22 2 60 6 53 -42c-7 -49 -47 -56 -81 -56c-96 0 -160 51 -154 131l14 182c4 58 -20 73 -53 73z" />
    <glyph glyph-name="bar" unicode="|" horiz-adv-x="247" 
d="M47 -182l125 890c3 26 29 49 58 49c28 0 48 -23 44 -49l-125 -890c-4 -26 -30 -49 -58 -49c-29 0 -48 23 -44 49z" />
    <glyph glyph-name="braceright" unicode="}" horiz-adv-x="427" 
d="M381 193c-37 -1 -63 -17 -74 -73l-37 -182c-16 -79 -94 -131 -191 -131c-34 0 -72 7 -65 57c6 44 36 43 65 42c4 -1 18 -2 26 -2c31 0 56 19 61 47l32 164c11 58 45 101 101 127c-48 25 -70 71 -65 126c4 67 14 158 14 164c2 31 -21 48 -48 48c-6 0 -18 -1 -27 -2
c-23 -3 -59 -6 -53 42c7 50 47 56 81 56c98 0 161 -49 155 -131c-7 -107 -12 -139 -15 -181c-4 -57 16 -72 54 -74c22 -1 48 -9 42 -48c-5 -40 -34 -48 -56 -49z" />
    <glyph glyph-name="asciitilde" unicode="~" horiz-adv-x="475" 
d="M464 354c0 -49 -68 -85 -116 -86c-57 0 -84 39 -120 43c-39 3 -49 -38 -83 -38c-21 0 -41 16 -39 41c7 50 61 87 114 87c59 0 83 -41 121 -43c41 0 47 37 81 39c23 0 42 -18 42 -43z" />
    <glyph glyph-name="exclamdown" unicode="&#xa1;" horiz-adv-x="247" 
d="M45 -163l73 447c3 24 25 44 51 44c23 0 41 -20 38 -44l-52 -447c-4 -27 -33 -52 -63 -52c-31 0 -51 25 -47 52zM255 442c-5 -35 -40 -65 -77 -65c-39 0 -65 30 -60 65c5 36 39 67 78 67c37 0 64 -31 59 -67z" />
    <glyph glyph-name="cent" unicode="&#xa2;" horiz-adv-x="471" 
d="M226 -28l7 51c-118 8 -160 87 -146 187l13 93c14 99 78 178 198 186l6 44c2 14 15 26 30 26s24 -12 22 -26l-6 -44c50 -6 108 -23 108 -70c0 -23 -19 -45 -53 -45c-7 0 -14 1 -23 4l-10 5c-11 5 -21 9 -35 12l-39 -279c26 4 49 23 73 23c29 0 43 -18 43 -36
c0 -54 -74 -75 -129 -79l-7 -52c-2 -14 -15 -26 -30 -26c-14 0 -24 12 -22 26zM195 210c-7 -51 7 -84 51 -93l39 278c-46 -9 -70 -42 -77 -92z" />
    <glyph glyph-name="yen" unicode="&#xa5;" horiz-adv-x="508" 
d="M141 369h63c-30 84 -59 169 -89 254c-2 6 -5 13 -6 21l-1 12c5 31 31 57 63 57c29 0 37 -14 47 -37l93 -273l168 273c15 20 32 37 57 37c29 0 48 -22 48 -47c0 -8 -2 -15 -5 -22l-172 -275h62c18 0 34 -14 34 -33c0 -23 -21 -41 -45 -41h-98l-11 -20l-5 -36h107
c18 0 34 -14 34 -33c0 -23 -21 -41 -45 -41h-107l-17 -121c-2 -16 -17 -30 -34 -32c-4 -12 -16 -22 -30 -22s-25 10 -25 22c-16 3 -25 17 -23 32l17 121h-109c-20 0 -34 14 -34 33c0 23 23 41 45 41h109l5 37l-8 19h-99c-20 0 -34 14 -34 33c0 23 23 41 45 41z" />
    <glyph glyph-name="dieresis" unicode="&#xa8;" horiz-adv-x="423" 
d="M452 640c0 -34 -31 -62 -65 -62c-31 0 -53 26 -49 56c4 29 34 54 65 54c28 0 49 -21 49 -48zM278 640c0 -34 -31 -62 -66 -62c-31 0 -51 26 -47 56c4 29 32 54 63 54c29 0 50 -21 50 -48z" />
    <glyph glyph-name="copyright" unicode="&#xa9;" horiz-adv-x="740" 
d="M720 313c-27 -189 -154 -322 -352 -322s-287 133 -260 322c26 189 153 322 351 322s287 -133 261 -322zM660 313c21 154 -51 262 -210 262s-261 -108 -282 -262c-22 -154 50 -262 209 -262s261 108 283 262zM270 283l9 61c11 82 65 147 169 147c39 0 114 -12 108 -54
c-2 -17 -19 -32 -37 -32c-4 0 -7 1 -12 2c-18 11 -34 19 -62 19c-56 0 -82 -30 -89 -82l-9 -61c-7 -53 11 -82 67 -82c28 0 46 9 66 18c6 2 10 3 14 3c18 0 30 -16 27 -33c-6 -41 -84 -53 -123 -53c-104 0 -139 64 -128 147z" />
    <glyph glyph-name="guillemotleft" unicode="&#xab;" horiz-adv-x="431" 
d="M168 258l111 -208c3 -6 3 -12 3 -17c-3 -22 -22 -41 -46 -41c-18 0 -25 8 -35 27l-124 237l184 229c12 16 23 26 41 26s36 -16 33 -37c-1 -6 -3 -13 -8 -19zM328 256l73 -142c3 -6 3 -13 2 -19c-3 -21 -25 -37 -43 -37s-25 10 -33 26l-90 172l138 172c12 16 23 26 41 26
s36 -16 33 -37c-1 -6 -3 -13 -8 -19z" />
    <glyph glyph-name="registered" unicode="&#xae;" horiz-adv-x="700" 
d="M699 472c0 -195 -121 -341 -331 -341c-165 0 -249 101 -249 246c0 196 122 348 332 348c165 0 248 -104 248 -253zM639 463c0 119 -66 202 -196 202c-167 0 -263 -122 -263 -279c0 -115 66 -195 196 -195c166 0 263 116 263 272zM535 499c0 -49 -25 -82 -66 -99l49 -94
c-1 -3 2 -8 2 -13c0 -12 -16 -22 -33 -22s-29 5 -35 12l-54 106h-32l-12 -88c-2 -16 -22 -30 -40 -30c-17 0 -33 12 -30 30l34 245c3 18 24 39 44 39h72c75 0 101 -42 101 -86zM464 492c0 14 -7 29 -36 29h-43l-10 -69h46c28 0 43 15 43 40z" />
    <glyph glyph-name="macron" unicode="&#xaf;" horiz-adv-x="423" 
d="M477 638c0 -27 -26 -48 -53 -48h-259c-27 0 -44 19 -41 43c4 24 27 44 54 44h259c23 0 40 -18 40 -39z" />
    <glyph glyph-name="degree" unicode="&#xb0;" horiz-adv-x="392" 
d="M257 436c-91 0 -132 62 -121 140s69 140 161 140s132 -62 121 -140s-69 -140 -161 -140zM267 502c47 0 72 26 79 76c7 45 -12 72 -59 72c-48 0 -73 -27 -80 -72c-7 -51 12 -76 60 -76z" />
    <glyph glyph-name="plusminus" unicode="&#xb1;" horiz-adv-x="520" 
d="M246 188v149h-124c-35 0 -70 14 -70 52c0 35 37 51 70 51h124v132c0 32 12 69 54 69c39 0 54 -34 54 -69v-132h124c27 0 70 -20 70 -51c0 -38 -35 -52 -70 -52h-124v-132c0 -38 -16 -68 -54 -68c-31 0 -54 25 -54 51zM106 102h388c27 0 54 -22 54 -51s-24 -51 -54 -51
h-388c-31 0 -54 22 -54 51s26 51 54 51z" />
    <glyph glyph-name="acute" unicode="&#xb4;" horiz-adv-x="296" 
d="M267 707l12 10c12 10 18 15 35 15s35 -15 35 -36c0 -12 -6 -22 -18 -33l-86 -78c-14 -13 -24 -20 -41 -20c-21 0 -37 15 -37 37c0 27 67 75 100 105z" />
    <glyph glyph-name="periodcentered" unicode="&#xb7;" horiz-adv-x="275" 
d="M243 284c0 -40 -38 -73 -79 -73c-37 0 -64 29 -59 66c5 35 40 65 77 65c35 0 61 -27 61 -58z" />
    <glyph glyph-name="cedilla" unicode="&#xb8;" horiz-adv-x="320" 
d="M244 -110c0 -54 -42 -104 -127 -104c-39 0 -92 11 -92 45c0 21 15 27 33 27s34 -7 53 -7c23 0 60 10 60 35c0 36 -92 13 -92 56c0 6 0 4 2 12l25 78h63l-20 -68c72 -4 95 -37 95 -74z" />
    <glyph glyph-name="ordmasculine" unicode="&#xba;" horiz-adv-x="404" 
d="M249 332c-104 0 -148 66 -136 152l11 77c12 87 74 153 178 153s148 -66 136 -153l-11 -77c-12 -86 -74 -152 -178 -152zM290 626c-44 0 -64 -25 -70 -69l-10 -75c-6 -39 9 -63 51 -63c41 0 64 24 69 63l10 75c7 44 -6 69 -50 69z" />
    <glyph glyph-name="guillemotright" unicode="&#xbb;" horiz-adv-x="431" 
d="M166 50l169 208l-103 197c-4 6 -4 13 -3 19c3 21 25 37 43 37s26 -10 34 -26l119 -229l-191 -237c-14 -19 -24 -27 -42 -27c-24 0 -37 19 -34 41c1 5 3 11 8 17zM62 114l113 142l-73 142c-4 6 -4 13 -3 19c3 21 25 37 43 37s26 -10 34 -26l89 -172l-138 -172
c-12 -16 -22 -26 -40 -26s-36 16 -33 37c1 6 3 13 8 19z" />
    <glyph glyph-name="questiondown" unicode="&#xbf;" horiz-adv-x="482" 
d="M219 243c7 9 10 24 12 35c4 26 33 52 62 52c26 0 46 -23 46 -52c0 -54 -59 -111 -103 -152l-25 -23c-38 -35 -75 -82 -75 -139c0 -51 29 -91 97 -91c30 0 61 5 89 17c25 11 43 28 65 28c24 0 47 -18 47 -44c0 -68 -142 -99 -220 -99c-119 0 -188 73 -188 174
c0 160 140 225 193 294zM239 436c0 39 38 74 79 74c35 0 60 -27 60 -60c0 -38 -37 -72 -78 -72c-35 0 -61 27 -61 58z" />
    <glyph glyph-name="Agrave" unicode="&#xc0;" horiz-adv-x="569" 
d="M187 149l-54 -120c-11 -24 -40 -38 -58 -38c-28 0 -50 18 -50 45c0 8 3 20 5 25l278 593c16 34 37 60 76 60s51 -25 58 -60l112 -593c1 -2 1 -7 1 -11c0 -36 -30 -59 -65 -59c-36 0 -44 25 -52 61l-18 97h-233zM361 549c-40 -106 -86 -203 -130 -304h173
c-17 101 -37 200 -43 304zM373 907c24 -28 72 -74 72 -98c0 -25 -24 -44 -48 -44c-17 0 -26 7 -36 20l-64 78c-6 8 -9 16 -9 24c0 26 25 45 46 45c17 0 23 -5 31 -15z" />
    <glyph glyph-name="Aacute" unicode="&#xc1;" horiz-adv-x="569" 
d="M187 149l-54 -120c-11 -24 -40 -38 -58 -38c-28 0 -50 18 -50 45c0 8 3 20 5 25l278 593c16 34 37 60 76 60s51 -25 58 -60l112 -593c1 -2 1 -7 1 -11c0 -36 -30 -59 -65 -59c-36 0 -44 25 -52 61l-18 97h-233zM361 549c-40 -106 -86 -203 -130 -304h173
c-17 101 -37 200 -43 304zM455 907l12 10c12 10 18 15 35 15s35 -15 35 -36c0 -12 -6 -22 -18 -33l-86 -78c-14 -13 -24 -20 -41 -20c-21 0 -37 15 -37 37c0 27 67 75 100 105z" />
    <glyph glyph-name="Acircumflex" unicode="&#xc2;" horiz-adv-x="569" 
d="M187 149l-54 -120c-11 -24 -40 -38 -58 -38c-28 0 -50 18 -50 45c0 8 3 20 5 25l278 593c16 34 37 60 76 60s51 -25 58 -60l112 -593c1 -2 1 -7 1 -11c0 -36 -30 -59 -65 -59c-36 0 -44 25 -52 61l-18 97h-233zM361 549c-40 -106 -86 -203 -130 -304h173
c-17 101 -37 200 -43 304zM400 825c-29 -21 -71 -65 -97 -65c-18 0 -38 13 -38 32c0 18 22 38 39 50l77 55c9 6 18 11 31 11s22 -5 29 -11l61 -55c12 -10 26 -28 26 -43c0 -24 -27 -39 -49 -39c-26 0 -56 44 -79 65z" />
    <glyph glyph-name="Atilde" unicode="&#xc3;" horiz-adv-x="569" 
d="M187 149l-54 -120c-11 -24 -40 -38 -58 -38c-28 0 -50 18 -50 45c0 8 3 20 5 25l278 593c16 34 37 60 76 60s51 -25 58 -60l112 -593c1 -2 1 -7 1 -11c0 -36 -30 -59 -65 -59c-36 0 -44 25 -52 61l-18 97h-233zM361 549c-40 -106 -86 -203 -130 -304h173
c-17 101 -37 200 -43 304zM551 851c0 -41 -57 -71 -96 -72c-48 0 -72 33 -101 36c-33 2 -41 -31 -68 -31c-17 0 -34 12 -34 30c0 42 48 76 95 76c49 0 70 -34 101 -36c34 0 40 31 68 32c19 0 35 -15 35 -35z" />
    <glyph glyph-name="Adieresis" unicode="&#xc4;" horiz-adv-x="569" 
d="M187 149l-54 -120c-11 -24 -40 -38 -58 -38c-28 0 -50 18 -50 45c0 8 3 20 5 25l278 593c16 34 37 60 76 60s51 -25 58 -60l112 -593c1 -2 1 -7 1 -11c0 -36 -30 -59 -65 -59c-36 0 -44 25 -52 61l-18 97h-233zM361 549c-40 -106 -86 -203 -130 -304h173
c-17 101 -37 200 -43 304zM545 840c0 -34 -31 -62 -65 -62c-31 0 -53 26 -49 56c4 29 34 54 65 54c28 0 49 -21 49 -48zM371 840c0 -34 -31 -62 -66 -62c-31 0 -51 26 -47 56c4 29 32 54 63 54c29 0 50 -21 50 -48z" />
    <glyph glyph-name="Aring" unicode="&#xc5;" horiz-adv-x="569" 
d="M496 737c0 -40 -20 -74 -51 -96c36 -194 73 -387 109 -580c1 -2 1 -7 1 -11c0 -36 -30 -59 -65 -59c-36 0 -44 25 -52 61l-18 97h-233l-54 -120c-11 -24 -40 -38 -58 -38c-28 0 -50 18 -50 45c0 20 9 32 17 49l261 556c-18 17 -29 42 -29 70c0 66 61 123 128 123
c55 0 94 -44 94 -97zM361 549c-40 -106 -86 -203 -130 -304h173c-17 101 -37 200 -43 304zM439 730c0 26 -19 47 -45 47c-32 0 -60 -27 -60 -59c0 -26 19 -46 45 -46c30 0 60 26 60 58z" />
    <glyph glyph-name="AE" unicode="&#xc6;" horiz-adv-x="747" 
d="M434 0c-41 0 -75 14 -69 59l13 90h-190l-54 -120c-11 -23 -39 -39 -58 -39c-33 0 -54 21 -50 52c1 5 3 15 5 19l275 583c15 32 41 61 76 61h372c30 0 51 -24 47 -53c-4 -28 -32 -50 -62 -50h-188l-28 -197h169c27 0 51 -22 47 -51s-31 -52 -61 -52h-169l-28 -200h198
c29 0 52 -22 48 -49c-4 -30 -33 -53 -63 -53h-230zM441 602h-29c-12 0 -19 -4 -22 -14l-157 -343h158z" />
    <glyph glyph-name="Ccedilla" unicode="&#xc7;" horiz-adv-x="502" 
d="M376 -110c0 -55 -44 -100 -115 -104c-47 0 -103 17 -103 45c0 19 12 25 30 25c14 0 41 -6 66 -6c32 0 50 18 50 35c0 38 -93 14 -93 56c0 6 2 10 3 13l13 42c-125 19 -171 115 -152 254l29 206c22 156 112 258 277 258c94 0 179 -41 179 -91c0 -28 -27 -53 -58 -53
c-19 0 -25 7 -38 16c-21 19 -57 31 -92 31c-102 0 -143 -62 -157 -161l-29 -206c-14 -99 10 -161 112 -161c64 0 107 46 142 46c25 0 45 -19 45 -42c0 -58 -97 -92 -195 -100c-2 -10 -4 -20 -8 -29c68 -4 94 -33 94 -74z" />
    <glyph glyph-name="Egrave" unicode="&#xc8;" horiz-adv-x="494" 
d="M474 58c0 -32 -30 -58 -63 -58h-265c-41 0 -76 14 -70 59l83 587c4 29 34 59 70 59h271c30 0 52 -24 48 -53s-32 -50 -62 -50h-223l-28 -197h204c27 0 51 -22 47 -51s-32 -52 -62 -52h-204l-28 -200h233c27 0 49 -20 49 -44zM372 907c24 -28 72 -74 72 -98
c0 -25 -24 -44 -48 -44c-17 0 -26 7 -36 20l-64 78c-6 8 -9 16 -9 24c0 26 25 45 46 45c17 0 23 -5 31 -15z" />
    <glyph glyph-name="Eacute" unicode="&#xc9;" horiz-adv-x="494" 
d="M474 58c0 -32 -30 -58 -63 -58h-265c-41 0 -76 14 -70 59l83 587c4 29 34 59 70 59h271c30 0 52 -24 48 -53s-32 -50 -62 -50h-223l-28 -197h204c27 0 51 -22 47 -51s-32 -52 -62 -52h-204l-28 -200h233c27 0 49 -20 49 -44zM428 907l12 10c12 10 18 15 35 15
s35 -15 35 -36c0 -12 -6 -22 -18 -33l-86 -78c-14 -13 -24 -20 -41 -20c-21 0 -37 15 -37 37c0 27 67 75 100 105z" />
    <glyph glyph-name="Ecircumflex" unicode="&#xca;" horiz-adv-x="494" 
d="M474 58c0 -32 -30 -58 -63 -58h-265c-41 0 -76 14 -70 59l83 587c4 29 34 59 70 59h271c30 0 52 -24 48 -53s-32 -50 -62 -50h-223l-28 -197h204c27 0 51 -22 47 -51s-32 -52 -62 -52h-204l-28 -200h233c27 0 49 -20 49 -44zM389 825c-29 -21 -71 -65 -97 -65
c-18 0 -38 13 -38 32c0 18 22 38 39 50l77 55c9 6 18 11 31 11s22 -5 29 -11l61 -55c12 -10 26 -28 26 -43c0 -24 -27 -39 -49 -39c-26 0 -56 44 -79 65z" />
    <glyph glyph-name="Edieresis" unicode="&#xcb;" horiz-adv-x="494" 
d="M474 58c0 -32 -30 -58 -63 -58h-265c-41 0 -76 14 -70 59l83 587c4 29 34 59 70 59h271c30 0 52 -24 48 -53s-32 -50 -62 -50h-223l-28 -197h204c27 0 51 -22 47 -51s-32 -52 -62 -52h-204l-28 -200h233c27 0 49 -20 49 -44zM532 840c0 -34 -31 -62 -65 -62
c-31 0 -53 26 -49 56c4 29 34 54 65 54c28 0 49 -21 49 -48zM358 840c0 -34 -31 -62 -66 -62c-31 0 -51 26 -47 56c4 29 32 54 63 54c29 0 50 -21 50 -48z" />
    <glyph glyph-name="Igrave" unicode="&#xcc;" horiz-adv-x="247" 
d="M74 42l87 620c4 28 31 52 62 52c30 0 52 -24 48 -52l-87 -620c-4 -27 -33 -52 -63 -52c-31 0 -51 25 -47 52zM221 907c24 -28 72 -74 72 -98c0 -25 -24 -44 -48 -44c-17 0 -26 7 -36 20l-64 78c-6 8 -9 16 -9 24c0 26 25 45 46 45c17 0 23 -5 31 -15z" />
    <glyph glyph-name="Iacute" unicode="&#xcd;" horiz-adv-x="247" 
d="M74 42l87 620c4 28 31 52 62 52c30 0 52 -24 48 -52l-87 -620c-4 -27 -33 -52 -63 -52c-31 0 -51 25 -47 52zM282 907l12 10c12 10 18 15 35 15s35 -15 35 -36c0 -12 -6 -22 -18 -33l-86 -78c-14 -13 -24 -20 -41 -20c-21 0 -37 15 -37 37c0 27 67 75 100 105z" />
    <glyph glyph-name="Icircumflex" unicode="&#xce;" horiz-adv-x="247" 
d="M74 42l87 620c4 28 31 52 62 52c30 0 52 -24 48 -52l-87 -620c-4 -27 -33 -52 -63 -52c-31 0 -51 25 -47 52zM240 825c-29 -21 -71 -65 -97 -65c-18 0 -38 13 -38 32c0 18 22 38 39 50l77 55c9 6 18 11 31 11s22 -5 29 -11l61 -55c12 -10 26 -28 26 -43
c0 -24 -27 -39 -49 -39c-26 0 -56 44 -79 65z" />
    <glyph glyph-name="Idieresis" unicode="&#xcf;" horiz-adv-x="247" 
d="M74 42l87 620c4 28 31 52 62 52c30 0 52 -24 48 -52l-87 -620c-4 -27 -33 -52 -63 -52c-31 0 -51 25 -47 52zM385 840c0 -34 -31 -62 -65 -62c-31 0 -53 26 -49 56c4 29 34 54 65 54c28 0 49 -21 49 -48zM211 840c0 -34 -31 -62 -66 -62c-31 0 -51 26 -47 56
c4 29 32 54 63 54c29 0 50 -21 50 -48z" />
    <glyph glyph-name="Eth" unicode="&#xd0;" horiz-adv-x="595" 
d="M592 267c-20 -139 -111 -267 -327 -267h-113c-34 0 -59 27 -54 60l34 244h-24c-29 0 -49 22 -45 49c3 26 30 49 59 49h24l34 243c4 33 37 60 71 60h113c215 0 272 -122 253 -258zM415 358c0 -29 -27 -54 -58 -54h-115l-28 -202h83c121 0 172 74 185 165l25 180
c12 87 -21 156 -140 156h-83l-28 -201h115c26 0 44 -20 44 -44z" />
    <glyph glyph-name="Ntilde" unicode="&#xd1;" horiz-adv-x="620" 
d="M490 -10c-21 0 -42 12 -49 29l-195 469l-62 -445c-4 -28 -34 -53 -64 -53c-31 0 -50 25 -46 53l86 615c5 32 32 56 66 56c22 0 43 -12 51 -30c33 -77 159 -389 194 -469l63 446c4 29 33 53 63 53s51 -24 47 -53l-87 -615c-4 -30 -32 -56 -67 -56zM577 851
c0 -41 -57 -71 -96 -72c-48 0 -72 33 -101 36c-33 2 -41 -31 -68 -31c-17 0 -34 12 -34 30c0 42 48 76 95 76c49 0 70 -34 101 -36c34 0 40 31 68 32c19 0 35 -15 35 -35z" />
    <glyph glyph-name="Ograve" unicode="&#xd2;" horiz-adv-x="580" 
d="M289 -10c-163 0 -229 116 -209 260l29 206c20 140 105 258 281 258s229 -118 209 -258l-29 -206c-20 -144 -118 -260 -281 -260zM376 612c-99 0 -144 -63 -157 -156l-29 -206c-13 -93 20 -157 113 -157c92 0 144 64 157 157l29 206c13 93 -14 156 -113 156zM385 907
c24 -28 72 -74 72 -98c0 -25 -24 -44 -48 -44c-17 0 -26 7 -36 20l-64 78c-6 8 -9 16 -9 24c0 26 25 45 46 45c17 0 23 -5 31 -15z" />
    <glyph glyph-name="Oacute" unicode="&#xd3;" horiz-adv-x="580" 
d="M289 -10c-163 0 -229 116 -209 260l29 206c20 140 105 258 281 258s229 -118 209 -258l-29 -206c-20 -144 -118 -260 -281 -260zM376 612c-99 0 -144 -63 -157 -156l-29 -206c-13 -93 20 -157 113 -157c92 0 144 64 157 157l29 206c13 93 -14 156 -113 156zM446 907
l12 10c12 10 18 15 35 15s35 -15 35 -36c0 -12 -6 -22 -18 -33l-86 -78c-14 -13 -24 -20 -41 -20c-21 0 -37 15 -37 37c0 27 67 75 100 105z" />
    <glyph glyph-name="Ocircumflex" unicode="&#xd4;" horiz-adv-x="580" 
d="M289 -10c-163 0 -229 116 -209 260l29 206c20 140 105 258 281 258s229 -118 209 -258l-29 -206c-20 -144 -118 -260 -281 -260zM376 612c-99 0 -144 -63 -157 -156l-29 -206c-13 -93 20 -157 113 -157c92 0 144 64 157 157l29 206c13 93 -14 156 -113 156zM406 825
c-29 -21 -71 -65 -97 -65c-18 0 -38 13 -38 32c0 18 22 38 39 50l77 55c9 6 18 11 31 11s22 -5 29 -11l61 -55c12 -10 26 -28 26 -43c0 -24 -27 -39 -49 -39c-26 0 -56 44 -79 65z" />
    <glyph glyph-name="Otilde" unicode="&#xd5;" horiz-adv-x="580" 
d="M289 -10c-163 0 -229 116 -209 260l29 206c20 140 105 258 281 258s229 -118 209 -258l-29 -206c-20 -144 -118 -260 -281 -260zM376 612c-99 0 -144 -63 -157 -156l-29 -206c-13 -93 20 -157 113 -157c92 0 144 64 157 157l29 206c13 93 -14 156 -113 156zM557 851
c0 -41 -57 -71 -96 -72c-48 0 -72 33 -101 36c-33 2 -41 -31 -68 -31c-17 0 -34 12 -34 30c0 42 48 76 95 76c49 0 70 -34 101 -36c34 0 40 31 68 32c19 0 35 -15 35 -35z" />
    <glyph glyph-name="Odieresis" unicode="&#xd6;" horiz-adv-x="580" 
d="M289 -10c-163 0 -229 116 -209 260l29 206c20 140 105 258 281 258s229 -118 209 -258l-29 -206c-20 -144 -118 -260 -281 -260zM376 612c-99 0 -144 -63 -157 -156l-29 -206c-13 -93 20 -157 113 -157c92 0 144 64 157 157l29 206c13 93 -14 156 -113 156zM551 840
c0 -34 -31 -62 -65 -62c-31 0 -53 26 -49 56c4 29 34 54 65 54c28 0 49 -21 49 -48zM377 840c0 -34 -31 -62 -66 -62c-31 0 -51 26 -47 56c4 29 32 54 63 54c29 0 50 -21 50 -48z" />
    <glyph glyph-name="multiply" unicode="&#xd7;" horiz-adv-x="500" 
d="M492 474l-138 -120l104 -120c13 -16 10 -40 -8 -55c-17 -16 -43 -15 -55 0l-103 120l-137 -120c-16 -15 -42 -16 -55 0c-14 15 -10 39 8 55l137 120l-104 120c-13 14 -10 40 8 55c17 16 41 16 55 0l103 -120l137 120c18 16 42 16 55 0c14 -15 10 -41 -7 -55z" />
    <glyph glyph-name="Oslash" unicode="&#xd8;" horiz-adv-x="571" 
d="M41 39l50 61c-19 42 -24 93 -16 150l29 206c20 140 106 258 282 258c80 0 134 -24 167 -65l39 46c10 12 27 15 38 7c10 -8 11 -24 1 -36l-52 -61c18 -42 23 -94 15 -149l-29 -206c-20 -144 -118 -260 -281 -260c-76 0 -131 25 -166 66l-38 -46c-10 -12 -27 -15 -38 -7
c-10 8 -11 24 -1 36zM371 612c-99 0 -144 -63 -157 -156l-29 -206c-2 -15 -4 -30 -3 -42l293 349c-15 34 -48 55 -104 55zM484 456c2 13 2 26 3 39l-292 -347c17 -35 50 -55 103 -55c92 0 144 64 157 157z" />
    <glyph glyph-name="Ugrave" unicode="&#xd9;" horiz-adv-x="592" 
d="M565 235c-20 -142 -123 -245 -271 -245c-152 0 -221 104 -201 245l60 425c4 31 31 54 63 54c29 0 51 -24 47 -54l-60 -425c-12 -84 20 -142 106 -142c85 0 133 59 145 142l60 425c4 29 30 54 61 54c32 0 54 -25 50 -54zM389 907c24 -28 72 -74 72 -98
c0 -25 -24 -44 -48 -44c-17 0 -26 7 -36 20l-64 78c-6 8 -9 16 -9 24c0 26 25 45 46 45c17 0 23 -5 31 -15z" />
    <glyph glyph-name="Uacute" unicode="&#xda;" horiz-adv-x="592" 
d="M565 235c-20 -142 -123 -245 -271 -245c-152 0 -221 104 -201 245l60 425c4 31 31 54 63 54c29 0 51 -24 47 -54l-60 -425c-12 -84 20 -142 106 -142c85 0 133 59 145 142l60 425c4 29 30 54 61 54c32 0 54 -25 50 -54zM461 907l12 10c12 10 18 15 35 15s35 -15 35 -36
c0 -12 -6 -22 -18 -33l-86 -78c-14 -13 -24 -20 -41 -20c-21 0 -37 15 -37 37c0 27 67 75 100 105z" />
    <glyph glyph-name="Ucircumflex" unicode="&#xdb;" horiz-adv-x="592" 
d="M565 235c-20 -142 -123 -245 -271 -245c-152 0 -221 104 -201 245l60 425c4 31 31 54 63 54c29 0 51 -24 47 -54l-60 -425c-12 -84 20 -142 106 -142c85 0 133 59 145 142l60 425c4 29 30 54 61 54c32 0 54 -25 50 -54zM412 825c-29 -21 -71 -65 -97 -65
c-18 0 -38 13 -38 32c0 18 22 38 39 50l77 55c9 6 18 11 31 11s22 -5 29 -11l61 -55c12 -10 26 -28 26 -43c0 -24 -27 -39 -49 -39c-26 0 -56 44 -79 65z" />
    <glyph glyph-name="Udieresis" unicode="&#xdc;" horiz-adv-x="592" 
d="M565 235c-20 -142 -123 -245 -271 -245c-152 0 -221 104 -201 245l60 425c4 31 31 54 63 54c29 0 51 -24 47 -54l-60 -425c-12 -84 20 -142 106 -142c85 0 133 59 145 142l60 425c4 29 30 54 61 54c32 0 54 -25 50 -54zM556 840c0 -34 -31 -62 -65 -62
c-31 0 -53 26 -49 56c4 29 34 54 65 54c28 0 49 -21 49 -48zM382 840c0 -34 -31 -62 -66 -62c-31 0 -51 26 -47 56c4 29 32 54 63 54c29 0 50 -21 50 -48z" />
    <glyph glyph-name="Yacute" unicode="&#xdd;" horiz-adv-x="503" 
d="M250 -10c-31 0 -53 25 -49 54l33 232l-126 361c-1 6 -3 16 -2 24c4 29 36 53 64 53c17 0 34 -7 40 -23l98 -288l178 288c12 16 31 23 48 23c29 0 52 -24 48 -53c-1 -7 -5 -18 -9 -24l-227 -362l-33 -231c-4 -28 -31 -54 -63 -54zM401 907l12 10c12 10 18 15 35 15
s35 -15 35 -36c0 -12 -6 -22 -18 -33l-86 -78c-14 -13 -24 -20 -41 -20c-21 0 -37 15 -37 37c0 27 67 75 100 105z" />
    <glyph glyph-name="Thorn" unicode="&#xde;" horiz-adv-x="550" 
d="M74 43l87 619c4 29 32 53 62 53s52 -25 48 -53l-11 -76h100c177 0 225 -108 209 -225c-20 -142 -125 -221 -271 -221h-100l-14 -97c-4 -28 -33 -53 -63 -53s-51 25 -47 53zM246 483l-34 -241h100c85 0 135 38 147 120c8 59 -7 121 -113 121h-100z" />
    <glyph glyph-name="germandbls" unicode="&#xdf;" horiz-adv-x="577" 
d="M564 189c0 -126 -98 -193 -232 -193c-70 0 -107 21 -107 52c0 24 18 52 57 52c23 0 47 -10 75 -10c44 0 94 24 94 90c0 119 -168 81 -168 173c0 124 165 49 165 196c0 49 -35 73 -86 73c-68 0 -104 -41 -116 -128l-71 -505c-4 -27 -30 -50 -61 -50c-30 0 -51 23 -47 50
l70 502c20 141 107 226 243 226c103 0 176 -51 176 -149c0 -86 -48 -138 -104 -166c-23 -12 -59 -22 -59 -32c0 -7 12 -10 33 -18c75 -34 138 -78 138 -163z" />
    <glyph glyph-name="agrave" unicode="&#xe0;" horiz-adv-x="502" 
d="M216 -8c-113 0 -161 78 -145 193l17 120c17 119 81 208 224 208c130 0 175 -74 157 -204l-29 -203c-4 -29 9 -31 21 -32c19 -2 25 -13 25 -28c0 -34 -23 -50 -64 -50c-33 0 -59 11 -75 45c-42 -32 -78 -49 -131 -49zM250 85c29 0 49 8 84 33l30 215c8 57 -7 85 -66 85
c-64 0 -91 -34 -102 -113l-17 -120c-9 -67 12 -100 71 -100zM338 707c24 -28 72 -74 72 -98c0 -25 -24 -44 -48 -44c-17 0 -26 7 -36 20l-64 78c-6 8 -9 16 -9 24c0 26 25 45 46 45c17 0 23 -5 31 -15z" />
    <glyph glyph-name="aacute" unicode="&#xe1;" horiz-adv-x="502" 
d="M216 -8c-113 0 -161 78 -145 193l17 120c17 119 81 208 224 208c130 0 175 -74 157 -204l-29 -203c-4 -29 9 -31 21 -32c19 -2 25 -13 25 -28c0 -34 -23 -50 -64 -50c-33 0 -59 11 -75 45c-42 -32 -78 -49 -131 -49zM250 85c29 0 49 8 84 33l30 215c8 57 -7 85 -66 85
c-64 0 -91 -34 -102 -113l-17 -120c-9 -67 12 -100 71 -100zM365 707l12 10c12 10 18 15 35 15s35 -15 35 -36c0 -12 -6 -22 -18 -33l-86 -78c-14 -13 -24 -20 -41 -20c-21 0 -37 15 -37 37c0 27 67 75 100 105z" />
    <glyph glyph-name="acircumflex" unicode="&#xe2;" horiz-adv-x="502" 
d="M216 -8c-113 0 -161 78 -145 193l17 120c17 119 81 208 224 208c130 0 175 -74 157 -204l-29 -203c-4 -29 9 -31 21 -32c19 -2 25 -13 25 -28c0 -34 -23 -50 -64 -50c-33 0 -59 11 -75 45c-42 -32 -78 -49 -131 -49zM250 85c29 0 49 8 84 33l30 215c8 57 -7 85 -66 85
c-64 0 -91 -34 -102 -113l-17 -120c-9 -67 12 -100 71 -100zM338 625c-29 -21 -71 -65 -97 -65c-18 0 -38 13 -38 32c0 18 22 38 39 50l77 55c9 6 18 11 31 11s22 -5 29 -11l61 -55c12 -10 26 -28 26 -43c0 -24 -27 -39 -49 -39c-26 0 -56 44 -79 65z" />
    <glyph glyph-name="atilde" unicode="&#xe3;" horiz-adv-x="502" 
d="M216 -8c-113 0 -161 78 -145 193l17 120c17 119 81 208 224 208c130 0 175 -74 157 -204l-29 -203c-4 -29 9 -31 21 -32c19 -2 25 -13 25 -28c0 -34 -23 -50 -64 -50c-33 0 -59 11 -75 45c-42 -32 -78 -49 -131 -49zM250 85c29 0 49 8 84 33l30 215c8 57 -7 85 -66 85
c-64 0 -91 -34 -102 -113l-17 -120c-9 -67 12 -100 71 -100zM490 651c0 -41 -57 -71 -96 -72c-48 0 -72 33 -101 36c-33 2 -41 -31 -68 -31c-17 0 -34 12 -34 30c0 42 48 76 95 76c49 0 70 -34 101 -36c34 0 40 31 68 32c19 0 35 -15 35 -35z" />
    <glyph glyph-name="adieresis" unicode="&#xe4;" horiz-adv-x="502" 
d="M216 -8c-113 0 -161 78 -145 193l17 120c17 119 81 208 224 208c130 0 175 -74 157 -204l-29 -203c-4 -29 9 -31 21 -32c19 -2 25 -13 25 -28c0 -34 -23 -50 -64 -50c-33 0 -59 11 -75 45c-42 -32 -78 -49 -131 -49zM250 85c29 0 49 8 84 33l30 215c8 57 -7 85 -66 85
c-64 0 -91 -34 -102 -113l-17 -120c-9 -67 12 -100 71 -100zM483 640c0 -34 -31 -62 -65 -62c-31 0 -53 26 -49 56c4 29 34 54 65 54c28 0 49 -21 49 -48zM309 640c0 -34 -31 -62 -66 -62c-31 0 -51 26 -47 56c4 29 32 54 63 54c29 0 50 -21 50 -48z" />
    <glyph glyph-name="aring" unicode="&#xe5;" horiz-adv-x="502" 
d="M216 -8c-113 0 -161 78 -145 193l17 120c17 119 81 208 224 208c130 0 175 -74 157 -204l-29 -203c-4 -29 9 -31 21 -32c19 -2 25 -13 25 -28c0 -34 -23 -50 -64 -50c-33 0 -59 11 -75 45c-42 -32 -78 -49 -131 -49zM250 85c29 0 49 8 84 33l30 215c8 57 -7 85 -66 85
c-64 0 -91 -34 -102 -113l-17 -120c-9 -67 12 -100 71 -100zM447 656c0 -64 -56 -116 -119 -116c-59 0 -99 46 -91 104c8 57 61 104 120 104c53 0 90 -41 90 -92zM392 650c0 24 -18 44 -43 44c-27 0 -52 -23 -56 -50s15 -49 42 -49c30 0 57 25 57 55z" />
    <glyph glyph-name="ae" unicode="&#xe6;" horiz-adv-x="712" 
d="M529 192c-26 0 -57 2 -86 6l-6 -40c-6 -45 22 -74 84 -74c38 0 65 11 101 25c6 2 12 5 21 5c28 0 47 -23 44 -47c-8 -57 -131 -75 -185 -75c-65 0 -108 23 -131 61c-53 -41 -110 -61 -174 -61c-113 0 -170 66 -146 157l1 3c14 102 84 154 212 154c30 0 59 -3 85 -10l5 37
c9 60 -18 88 -80 88c-31 0 -50 -8 -72 -18c-6 -2 -18 -9 -33 -9c-29 0 -39 23 -37 43c2 54 88 76 165 76c67 0 107 -22 128 -66c34 40 86 66 156 66c116 0 168 -66 154 -167c-14 -96 -77 -154 -206 -154zM629 360c0 41 -24 59 -67 59c-56 0 -92 -28 -98 -73l-8 -59
c31 -3 72 -6 89 -6c62 0 84 32 84 79zM324 120l12 85c-28 8 -60 12 -85 12c-70 0 -91 -30 -93 -66v-3c-5 -37 8 -63 64 -63c37 0 68 11 102 35z" />
    <glyph glyph-name="ccedilla" unicode="&#xe7;" horiz-adv-x="418" 
d="M337 -110c0 -59 -49 -104 -127 -104c-39 0 -92 13 -92 45c0 19 14 25 30 25c13 0 40 -6 66 -6c34 0 50 18 50 35c0 36 -92 20 -92 56c0 12 8 35 16 56c-97 17 -130 92 -117 183l20 143c15 105 85 187 219 187c51 0 145 -13 145 -68c0 -29 -24 -48 -58 -48
c-4 0 -8 1 -12 2l-20 8c-17 7 -33 14 -60 14c-67 0 -98 -35 -106 -95l-20 -143c-8 -60 13 -96 79 -96c44 0 69 25 102 25c30 0 42 -18 42 -36c0 -60 -91 -77 -150 -80c-4 -10 -6 -19 -9 -29c68 -4 94 -33 94 -74z" />
    <glyph glyph-name="egrave" unicode="&#xe8;" horiz-adv-x="460" 
d="M269 197c-28 0 -56 2 -88 7l-6 -46c-6 -45 21 -74 84 -74c37 0 65 10 100 25c3 2 11 5 23 5c34 0 45 -25 42 -45c-8 -60 -128 -77 -187 -77c-123 0 -183 74 -169 171l24 177c14 98 94 173 223 173c121 0 172 -66 157 -166c-13 -94 -76 -150 -203 -150zM366 350
c7 53 -17 74 -66 74c-56 0 -92 -30 -99 -78l-8 -59c33 -4 72 -6 87 -6c57 0 80 27 86 69zM307 707c24 -28 72 -74 72 -98c0 -25 -24 -44 -48 -44c-17 0 -26 7 -36 20l-64 78c-6 8 -9 16 -9 24c0 26 25 45 46 45c17 0 23 -5 31 -15z" />
    <glyph glyph-name="eacute" unicode="&#xe9;" horiz-adv-x="460" 
d="M269 197c-28 0 -56 2 -88 7l-6 -46c-6 -45 21 -74 84 -74c37 0 65 10 100 25c3 2 11 5 23 5c34 0 45 -25 42 -45c-8 -60 -128 -77 -187 -77c-123 0 -183 74 -169 171l24 177c14 98 94 173 223 173c121 0 172 -66 157 -166c-13 -94 -76 -150 -203 -150zM366 350
c7 53 -17 74 -66 74c-56 0 -92 -30 -99 -78l-8 -59c33 -4 72 -6 87 -6c57 0 80 27 86 69zM371 707l12 10c12 10 18 15 35 15s35 -15 35 -36c0 -12 -6 -22 -18 -33l-86 -78c-14 -13 -24 -20 -41 -20c-21 0 -37 15 -37 37c0 27 67 75 100 105z" />
    <glyph glyph-name="ecircumflex" unicode="&#xea;" horiz-adv-x="460" 
d="M269 197c-28 0 -56 2 -88 7l-6 -46c-6 -45 21 -74 84 -74c37 0 65 10 100 25c3 2 11 5 23 5c34 0 45 -25 42 -45c-8 -60 -128 -77 -187 -77c-123 0 -183 74 -169 171l24 177c14 98 94 173 223 173c121 0 172 -66 157 -166c-13 -94 -76 -150 -203 -150zM366 350
c7 53 -17 74 -66 74c-56 0 -92 -30 -99 -78l-8 -59c33 -4 72 -6 87 -6c57 0 80 27 86 69zM322 625c-29 -21 -71 -65 -97 -65c-18 0 -38 13 -38 32c0 18 22 38 39 50l77 55c9 6 18 11 31 11s22 -5 29 -11l61 -55c12 -10 26 -28 26 -43c0 -24 -27 -39 -49 -39
c-26 0 -56 44 -79 65z" />
    <glyph glyph-name="edieresis" unicode="&#xeb;" horiz-adv-x="460" 
d="M269 197c-28 0 -56 2 -88 7l-6 -46c-6 -45 21 -74 84 -74c37 0 65 10 100 25c3 2 11 5 23 5c34 0 45 -25 42 -45c-8 -60 -128 -77 -187 -77c-123 0 -183 74 -169 171l24 177c14 98 94 173 223 173c121 0 172 -66 157 -166c-13 -94 -76 -150 -203 -150zM366 350
c7 53 -17 74 -66 74c-56 0 -92 -30 -99 -78l-8 -59c33 -4 72 -6 87 -6c57 0 80 27 86 69zM463 640c0 -34 -31 -62 -65 -62c-31 0 -53 26 -49 56c4 29 34 54 65 54c28 0 49 -21 49 -48zM289 640c0 -34 -31 -62 -66 -62c-31 0 -51 26 -47 56c4 29 32 54 63 54
c29 0 50 -21 50 -48z" />
    <glyph glyph-name="igrave" unicode="&#xec;" horiz-adv-x="265" 
d="M194 707c24 -28 72 -74 72 -98c0 -25 -24 -44 -48 -44c-17 0 -26 7 -36 20l-64 78c-6 8 -9 16 -9 24c0 26 25 45 46 45c17 0 23 -5 31 -15zM93 102l50 358c4 27 30 50 61 50c30 0 51 -23 47 -50l-50 -352c-2 -21 -3 -30 8 -44c5 -6 10 -12 10 -22c0 -30 -26 -50 -63 -50
c-32 0 -77 13 -63 110z" />
    <glyph glyph-name="iacute" unicode="&#xed;" horiz-adv-x="265" 
d="M271 707l12 10c12 10 18 15 35 15s35 -15 35 -36c0 -12 -6 -22 -18 -33l-86 -78c-14 -13 -24 -20 -41 -20c-21 0 -37 15 -37 37c0 27 67 75 100 105zM93 102l50 358c4 27 30 50 61 50c30 0 51 -23 47 -50l-50 -352c-2 -21 -3 -30 8 -44c5 -6 10 -12 10 -22
c0 -30 -26 -50 -63 -50c-32 0 -77 13 -63 110z" />
    <glyph glyph-name="icircumflex" unicode="&#xee;" horiz-adv-x="265" 
d="M93 102l50 358c4 27 30 50 61 50c30 0 51 -23 47 -50l-50 -352c-2 -21 -3 -30 8 -44c5 -6 10 -12 10 -22c0 -30 -26 -50 -63 -50c-32 0 -77 13 -63 110zM220 625c-29 -21 -71 -65 -97 -65c-18 0 -38 13 -38 32c0 18 22 38 39 50l77 55c9 6 18 11 31 11s22 -5 29 -11
l61 -55c12 -10 26 -28 26 -43c0 -24 -27 -39 -49 -39c-26 0 -56 44 -79 65z" />
    <glyph glyph-name="idieresis" unicode="&#xef;" horiz-adv-x="265" 
d="M366 640c0 -34 -31 -62 -65 -62c-31 0 -53 26 -49 56c4 29 34 54 65 54c28 0 49 -21 49 -48zM192 640c0 -34 -31 -62 -66 -62c-31 0 -51 26 -47 56c4 29 32 54 63 54c29 0 50 -21 50 -48zM93 102l50 358c4 27 30 50 61 50c30 0 51 -23 47 -50l-50 -352
c-2 -21 -3 -30 8 -44c5 -6 10 -12 10 -22c0 -30 -26 -50 -63 -50c-32 0 -77 13 -63 110z" />
    <glyph glyph-name="eth" unicode="&#xf0;" horiz-adv-x="537" 
d="M607 665c0 0 4 -1 3 -9c-1 -11 -7 -21 -18 -27l-64 -39c20 -63 24 -153 8 -269c-37 -266 -129 -331 -262 -331c-162 0 -219 96 -201 223c18 126 101 227 233 227c34 0 88 -8 128 -38c6 56 5 97 -1 127l-55 -31c-12 -8 -21 -10 -26 -10c-15 -2 -31 14 -27 33
c2 11 7 22 18 28l65 38c-22 24 -53 29 -80 32c-19 1 -44 4 -35 46c6 29 21 43 76 43c57 0 100 -21 131 -63l56 35c8 5 16 8 26 9c26 1 25 -24 25 -24zM420 279l3 20c-27 28 -84 46 -124 46c-63 0 -106 -48 -117 -127c-11 -74 14 -131 100 -131c84 0 118 58 138 192z" />
    <glyph glyph-name="ntilde" unicode="&#xf1;" horiz-adv-x="529" 
d="M503 319l-30 -211c-3 -21 -3 -30 8 -44c5 -6 10 -12 10 -22c0 -30 -26 -50 -63 -50c-32 0 -77 13 -64 110l31 217c9 63 -15 100 -65 100c-30 0 -63 -11 -99 -31c1 -9 1 -17 0 -24l-45 -321c-4 -28 -25 -50 -61 -50s-51 22 -47 50l45 321c6 44 0 46 -5 56s-8 16 -8 25
c0 28 26 51 59 51c19 0 33 -11 43 -29c49 31 100 44 144 44c116 0 163 -77 147 -192zM491 651c0 -41 -57 -71 -96 -72c-48 0 -72 33 -101 36c-33 2 -41 -31 -68 -31c-17 0 -34 12 -34 30c0 42 48 76 95 76c49 0 70 -34 101 -36c34 0 40 31 68 32c19 0 35 -15 35 -35z" />
    <glyph glyph-name="ograve" unicode="&#xf2;" horiz-adv-x="494" 
d="M246 -8c-132 0 -191 80 -177 182l22 158c15 103 96 182 228 182s192 -79 177 -182l-23 -158c-14 -102 -95 -182 -227 -182zM259 87c62 0 98 33 106 87l23 159c7 53 -20 86 -82 86s-99 -33 -106 -86l-23 -159c-7 -54 20 -87 82 -87zM314 707c24 -28 72 -74 72 -98
c0 -25 -24 -44 -48 -44c-17 0 -26 7 -36 20l-64 78c-6 8 -9 16 -9 24c0 26 25 45 46 45c17 0 23 -5 31 -15z" />
    <glyph glyph-name="oacute" unicode="&#xf3;" horiz-adv-x="494" 
d="M246 -8c-132 0 -191 80 -177 182l22 158c15 103 96 182 228 182s192 -79 177 -182l-23 -158c-14 -102 -95 -182 -227 -182zM259 87c62 0 98 33 106 87l23 159c7 53 -20 86 -82 86s-99 -33 -106 -86l-23 -159c-7 -54 20 -87 82 -87zM366 707l12 10c12 10 18 15 35 15
s35 -15 35 -36c0 -12 -6 -22 -18 -33l-86 -78c-14 -13 -24 -20 -41 -20c-21 0 -37 15 -37 37c0 27 67 75 100 105z" />
    <glyph glyph-name="ocircumflex" unicode="&#xf4;" horiz-adv-x="494" 
d="M246 -8c-132 0 -191 80 -177 182l22 158c15 103 96 182 228 182s192 -79 177 -182l-23 -158c-14 -102 -95 -182 -227 -182zM259 87c62 0 98 33 106 87l23 159c7 53 -20 86 -82 86s-99 -33 -106 -86l-23 -159c-7 -54 20 -87 82 -87zM334 625c-29 -21 -71 -65 -97 -65
c-18 0 -38 13 -38 32c0 18 22 38 39 50l77 55c9 6 18 11 31 11s22 -5 29 -11l61 -55c12 -10 26 -28 26 -43c0 -24 -27 -39 -49 -39c-26 0 -56 44 -79 65z" />
    <glyph glyph-name="otilde" unicode="&#xf5;" horiz-adv-x="494" 
d="M246 -8c-132 0 -191 80 -177 182l22 158c15 103 96 182 228 182s192 -79 177 -182l-23 -158c-14 -102 -95 -182 -227 -182zM259 87c62 0 98 33 106 87l23 159c7 53 -20 86 -82 86s-99 -33 -106 -86l-23 -159c-7 -54 20 -87 82 -87zM486 651c0 -41 -57 -71 -96 -72
c-48 0 -72 33 -101 36c-33 2 -41 -31 -68 -31c-17 0 -34 12 -34 30c0 42 48 76 95 76c49 0 70 -34 101 -36c34 0 40 31 68 32c19 0 35 -15 35 -35z" />
    <glyph glyph-name="odieresis" unicode="&#xf6;" horiz-adv-x="494" 
d="M246 -8c-132 0 -191 80 -177 182l22 158c15 103 96 182 228 182s192 -79 177 -182l-23 -158c-14 -102 -95 -182 -227 -182zM259 87c62 0 98 33 106 87l23 159c7 53 -20 86 -82 86s-99 -33 -106 -86l-23 -159c-7 -54 20 -87 82 -87zM479 640c0 -34 -31 -62 -65 -62
c-31 0 -53 26 -49 56c4 29 34 54 65 54c28 0 49 -21 49 -48zM305 640c0 -34 -31 -62 -66 -62c-31 0 -51 26 -47 56c4 29 32 54 63 54c29 0 50 -21 50 -48z" />
    <glyph glyph-name="oslash" unicode="&#xf8;" horiz-adv-x="494" 
d="M58 21l34 40c-22 30 -28 70 -22 113l22 158c14 103 96 182 228 182c53 0 94 -13 123 -35l30 35c6 7 14 11 22 11c14 0 24 -12 24 -24c0 -6 -3 -11 -8 -17l-35 -42c18 -30 26 -68 20 -110l-22 -158c-14 -102 -96 -181 -228 -181c-52 0 -91 11 -121 32l-28 -34
c-6 -7 -14 -11 -23 -11c-14 0 -23 11 -23 23c0 7 3 12 7 18zM178 176c3 -1 6 -2 9 -2c62 74 124 148 186 221c-14 15 -36 24 -67 24c-62 0 -99 -33 -106 -86zM260 87c62 0 99 33 106 87l19 139c1 8 3 16 3 24l-193 -229c14 -14 35 -21 65 -21z" />
    <glyph glyph-name="ugrave" unicode="&#xf9;" horiz-adv-x="529" 
d="M386 32c-49 -29 -100 -40 -146 -40c-113 0 -161 78 -145 193l39 276c4 28 26 49 61 49c34 0 51 -21 47 -49l-39 -276c-9 -64 12 -100 64 -100c30 0 64 10 98 27c0 9 0 17 1 24l46 325c4 28 25 49 61 49s51 -21 47 -49l-47 -335c-5 -35 2 -39 10 -53c5 -7 9 -15 8 -27
c-4 -29 -32 -48 -58 -48c-22 0 -37 14 -47 34zM323 707c24 -28 72 -74 72 -98c0 -25 -24 -44 -48 -44c-17 0 -26 7 -36 20l-64 78c-6 8 -9 16 -9 24c0 26 25 45 46 45c17 0 23 -5 31 -15z" />
    <glyph glyph-name="uacute" unicode="&#xfa;" horiz-adv-x="529" 
d="M386 32c-49 -29 -100 -40 -146 -40c-113 0 -161 78 -145 193l39 276c4 28 26 49 61 49c34 0 51 -21 47 -49l-39 -276c-9 -64 12 -100 64 -100c30 0 64 10 98 27c0 9 0 17 1 24l46 325c4 28 25 49 61 49s51 -21 47 -49l-47 -335c-5 -35 2 -39 10 -53c5 -7 9 -15 8 -27
c-4 -29 -32 -48 -58 -48c-22 0 -37 14 -47 34zM402 707l12 10c12 10 18 15 35 15s35 -15 35 -36c0 -12 -6 -22 -18 -33l-86 -78c-14 -13 -24 -20 -41 -20c-21 0 -37 15 -37 37c0 27 67 75 100 105z" />
    <glyph glyph-name="ucircumflex" unicode="&#xfb;" horiz-adv-x="529" 
d="M386 32c-49 -29 -100 -40 -146 -40c-113 0 -161 78 -145 193l39 276c4 28 26 49 61 49c34 0 51 -21 47 -49l-39 -276c-9 -64 12 -100 64 -100c30 0 64 10 98 27c0 9 0 17 1 24l46 325c4 28 25 49 61 49s51 -21 47 -49l-47 -335c-5 -35 2 -39 10 -53c5 -7 9 -15 8 -27
c-4 -29 -32 -48 -58 -48c-22 0 -37 14 -47 34zM351 625c-29 -21 -71 -65 -97 -65c-18 0 -38 13 -38 32c0 18 22 38 39 50l77 55c9 6 18 11 31 11s22 -5 29 -11l61 -55c12 -10 26 -28 26 -43c0 -24 -27 -39 -49 -39c-26 0 -56 44 -79 65z" />
    <glyph glyph-name="udieresis" unicode="&#xfc;" horiz-adv-x="529" 
d="M386 32c-49 -29 -100 -40 -146 -40c-113 0 -161 78 -145 193l39 276c4 28 26 49 61 49c34 0 51 -21 47 -49l-39 -276c-9 -64 12 -100 64 -100c30 0 64 10 98 27c0 9 0 17 1 24l46 325c4 28 25 49 61 49s51 -21 47 -49l-47 -335c-5 -35 2 -39 10 -53c5 -7 9 -15 8 -27
c-4 -29 -32 -48 -58 -48c-22 0 -37 14 -47 34zM497 640c0 -34 -31 -62 -65 -62c-31 0 -53 26 -49 56c4 29 34 54 65 54c28 0 49 -21 49 -48zM323 640c0 -34 -31 -62 -66 -62c-31 0 -51 26 -47 56c4 29 32 54 63 54c29 0 50 -21 50 -48z" />
    <glyph glyph-name="yacute" unicode="&#xfd;" horiz-adv-x="529" 
d="M530 461l-71 -498c-15 -105 -85 -187 -220 -187c-50 0 -144 15 -144 66c0 27 26 50 56 50c6 0 13 0 22 -4c22 -9 39 -20 71 -20c67 0 100 35 108 95l8 57c-36 -17 -73 -27 -117 -27c-133 0 -164 80 -149 186l39 282c4 28 26 49 61 49c34 0 51 -21 47 -49l-39 -282
c-8 -59 10 -95 70 -95c35 0 71 11 102 36l48 341c3 28 24 49 60 49s52 -21 48 -49zM413 707l12 10c12 10 18 15 35 15s35 -15 35 -36c0 -12 -6 -22 -18 -33l-86 -78c-14 -13 -24 -20 -41 -20c-21 0 -37 15 -37 37c0 27 67 75 100 105z" />
    <glyph glyph-name="thorn" unicode="&#xfe;" horiz-adv-x="510" 
d="M232 388l-35 -250c20 -25 50 -39 91 -39c58 0 87 27 93 73l26 183c6 45 -15 72 -73 72c-41 0 -75 -14 -102 -39zM46 -167l118 841c4 26 26 49 61 49c34 0 51 -23 47 -49l-27 -195c37 22 74 34 125 34c120 0 158 -70 145 -161l-25 -178c-13 -91 -70 -161 -190 -161
c-51 0 -85 13 -116 35l-30 -215c-4 -26 -27 -50 -61 -50c-35 0 -51 24 -47 50z" />
    <glyph glyph-name="ydieresis" unicode="&#xff;" horiz-adv-x="529" 
d="M530 461l-71 -498c-15 -105 -85 -187 -220 -187c-50 0 -144 15 -144 66c0 27 26 50 56 50c6 0 13 0 22 -4c22 -9 39 -20 71 -20c67 0 100 35 108 95l8 57c-36 -17 -73 -27 -117 -27c-133 0 -164 80 -149 186l39 282c4 28 26 49 61 49c34 0 51 -21 47 -49l-39 -282
c-8 -59 10 -95 70 -95c35 0 71 11 102 36l48 341c3 28 24 49 60 49s52 -21 48 -49zM497 640c0 -34 -31 -62 -65 -62c-31 0 -53 26 -49 56c4 29 34 54 65 54c28 0 49 -21 49 -48zM323 640c0 -34 -31 -62 -66 -62c-31 0 -51 26 -47 56c4 29 32 54 63 54c29 0 50 -21 50 -48z
" />
    <glyph glyph-name="Amacron" unicode="&#x100;" horiz-adv-x="569" 
d="M187 149l-54 -120c-11 -24 -40 -38 -58 -38c-28 0 -50 18 -50 45c0 8 3 20 5 25l278 593c16 34 37 60 76 60s51 -25 58 -60l112 -593c1 -2 1 -7 1 -11c0 -36 -30 -59 -65 -59c-36 0 -44 25 -52 61l-18 97h-233zM361 549c-40 -106 -86 -203 -130 -304h173
c-17 101 -37 200 -43 304zM578 838c0 -27 -26 -48 -53 -48h-259c-27 0 -44 19 -41 43c4 24 27 44 54 44h259c23 0 40 -18 40 -39z" />
    <glyph glyph-name="amacron" unicode="&#x101;" horiz-adv-x="502" 
d="M216 -8c-113 0 -161 78 -145 193l17 120c17 119 81 208 224 208c130 0 175 -74 157 -204l-29 -203c-4 -29 9 -31 21 -32c19 -2 25 -13 25 -28c0 -34 -23 -50 -64 -50c-33 0 -59 11 -75 45c-42 -32 -78 -49 -131 -49zM250 85c29 0 49 8 84 33l30 215c8 57 -7 85 -66 85
c-64 0 -91 -34 -102 -113l-17 -120c-9 -67 12 -100 71 -100zM505 638c0 -27 -26 -48 -53 -48h-259c-27 0 -44 19 -41 43c4 24 27 44 54 44h259c23 0 40 -18 40 -39z" />
    <glyph glyph-name="Abreve" unicode="&#x102;" horiz-adv-x="569" 
d="M187 149l-54 -120c-11 -24 -40 -38 -58 -38c-28 0 -50 18 -50 45c0 8 3 20 5 25l278 593c16 34 37 60 76 60s51 -25 58 -60l112 -593c1 -2 1 -7 1 -11c0 -36 -30 -59 -65 -59c-36 0 -44 25 -52 61l-18 97h-233zM361 549c-40 -106 -86 -203 -130 -304h173
c-17 101 -37 200 -43 304zM402 839c30 0 49 18 67 36c12 12 23 19 40 19c21 0 42 -11 29 -46c-21 -55 -99 -86 -148 -86c-52 0 -118 34 -123 86c-3 35 22 46 43 46c19 0 27 -10 34 -19c13 -18 27 -36 58 -36z" />
    <glyph glyph-name="abreve" unicode="&#x103;" horiz-adv-x="502" 
d="M216 -8c-113 0 -161 78 -145 193l17 120c17 119 81 208 224 208c130 0 175 -74 157 -204l-29 -203c-4 -29 9 -31 21 -32c19 -2 25 -13 25 -28c0 -34 -23 -50 -64 -50c-33 0 -59 11 -75 45c-42 -32 -78 -49 -131 -49zM250 85c29 0 49 8 84 33l30 215c8 57 -7 85 -66 85
c-64 0 -91 -34 -102 -113l-17 -120c-9 -67 12 -100 71 -100zM341 639c30 0 49 18 67 36c12 12 23 19 40 19c21 0 42 -11 29 -46c-21 -55 -99 -86 -148 -86c-52 0 -118 34 -123 86c-3 35 22 46 43 46c19 0 27 -10 34 -19c13 -18 27 -36 58 -36z" />
    <glyph glyph-name="Aogonek" unicode="&#x104;" horiz-adv-x="569" 
d="M585 -157c0 -43 -56 -50 -93 -50c-61 0 -99 26 -99 81c0 44 28 92 61 132c-23 23 -27 99 -34 143h-233c-35 -77 -63 -156 -115 -156c-26 0 -47 18 -47 43c0 8 3 20 5 25l279 593c15 32 38 60 75 60c30 0 46 -17 53 -43l10 -38l107 -572c1 -2 1 -7 1 -11
c0 -21 -11 -34 -22 -45c-29 -31 -52 -75 -52 -106c0 -17 9 -29 30 -29c18 0 31 4 43 4c18 0 31 -14 31 -31zM361 549c-40 -106 -86 -203 -130 -304h173c-17 101 -37 200 -43 304z" />
    <glyph glyph-name="aogonek" unicode="&#x105;" horiz-adv-x="502" 
d="M469 309l-29 -203c-3 -25 6 -30 21 -32c29 -4 23 -39 14 -55c-13 -23 -34 -49 -45 -70c-18 -36 -20 -78 25 -78c12 0 20 3 26 3c18 0 32 -15 32 -31c0 -43 -57 -50 -93 -50c-61 0 -100 26 -100 81c0 43 26 87 63 128c-16 7 -28 20 -36 39c-42 -32 -78 -49 -131 -49
c-113 0 -161 78 -145 193l17 120c17 119 81 208 224 208c130 0 175 -74 157 -204zM250 85c29 0 49 8 84 33l30 215c8 57 -7 85 -66 85c-64 0 -91 -34 -102 -113l-17 -120c-9 -67 12 -100 71 -100z" />
    <glyph glyph-name="Cacute" unicode="&#x106;" horiz-adv-x="502" 
d="M75 250l29 206c22 156 111 258 276 258c94 0 179 -41 179 -91c0 -28 -27 -53 -58 -53c-19 0 -25 6 -38 16l-4 3c-25 19 -52 28 -87 28c-102 0 -144 -62 -158 -161l-29 -206c-14 -99 10 -161 112 -161c35 0 64 11 95 27l6 3c17 8 23 16 42 16c26 0 45 -19 45 -42
c0 -55 -104 -101 -206 -101c-165 0 -226 102 -204 258zM439 907l12 10c12 10 18 15 35 15s35 -15 35 -36c0 -12 -6 -22 -18 -33l-86 -78c-14 -13 -24 -20 -41 -20c-21 0 -37 15 -37 37c0 27 67 75 100 105z" />
    <glyph glyph-name="cacute" unicode="&#x107;" horiz-adv-x="418" 
d="M71 180l20 143c15 105 85 187 219 187c53 0 153 -14 145 -74c-3 -21 -20 -42 -54 -42c-8 0 -15 1 -25 4c-20 10 -38 20 -71 20c-67 0 -98 -35 -106 -95l-20 -143c-9 -60 12 -96 79 -96c33 0 54 10 77 20c8 3 15 5 25 5c35 0 46 -22 43 -43c-9 -59 -113 -74 -167 -74
c-133 0 -180 83 -165 188zM356 707l12 10c12 10 18 15 35 15s35 -15 35 -36c0 -12 -6 -22 -18 -33l-86 -78c-14 -13 -24 -20 -41 -20c-21 0 -37 15 -37 37c0 27 67 75 100 105z" />
    <glyph glyph-name="Ccircumflex" unicode="&#x108;" horiz-adv-x="502" 
d="M75 250l29 206c22 156 111 258 276 258c94 0 179 -41 179 -91c0 -28 -27 -53 -58 -53c-19 0 -25 6 -38 16l-4 3c-25 19 -52 28 -87 28c-102 0 -144 -62 -158 -161l-29 -206c-14 -99 10 -161 112 -161c35 0 64 11 95 27l6 3c17 8 23 16 42 16c26 0 45 -19 45 -42
c0 -55 -104 -101 -206 -101c-165 0 -226 102 -204 258zM380 825c-29 -21 -71 -65 -97 -65c-18 0 -38 13 -38 32c0 18 22 38 39 50l77 55c9 6 18 11 31 11s22 -5 29 -11l61 -55c12 -10 26 -28 26 -43c0 -24 -27 -39 -49 -39c-26 0 -56 44 -79 65z" />
    <glyph glyph-name="ccircumflex" unicode="&#x109;" horiz-adv-x="418" 
d="M71 180l20 143c15 105 85 187 219 187c53 0 153 -14 145 -74c-3 -21 -20 -42 -54 -42c-8 0 -15 1 -25 4c-20 10 -38 20 -71 20c-67 0 -98 -35 -106 -95l-20 -143c-9 -60 12 -96 79 -96c33 0 54 10 77 20c8 3 15 5 25 5c35 0 46 -22 43 -43c-9 -59 -113 -74 -167 -74
c-133 0 -180 83 -165 188zM313 625c-29 -21 -71 -65 -97 -65c-18 0 -38 13 -38 32c0 18 22 38 39 50l77 55c9 6 18 11 31 11s22 -5 29 -11l61 -55c12 -10 26 -28 26 -43c0 -24 -27 -39 -49 -39c-26 0 -56 44 -79 65z" />
    <glyph glyph-name="Cdotaccent" unicode="&#x10a;" horiz-adv-x="502" 
d="M75 250l29 206c22 156 111 258 276 258c94 0 179 -41 179 -91c0 -28 -27 -53 -58 -53c-19 0 -25 6 -38 16l-4 3c-25 19 -52 28 -87 28c-102 0 -144 -62 -158 -161l-29 -206c-14 -99 10 -161 112 -161c35 0 64 11 95 27l6 3c17 8 23 16 42 16c26 0 45 -19 45 -42
c0 -55 -104 -101 -206 -101c-165 0 -226 102 -204 258zM424 833c0 -34 -31 -62 -66 -62c-31 0 -51 26 -47 56c4 29 32 54 63 54c29 0 50 -21 50 -48z" />
    <glyph glyph-name="cdotaccent" unicode="&#x10b;" horiz-adv-x="418" 
d="M71 180l20 143c15 105 85 187 219 187c53 0 153 -14 145 -74c-3 -21 -20 -42 -54 -42c-8 0 -15 1 -25 4c-20 10 -38 20 -71 20c-67 0 -98 -35 -106 -95l-20 -143c-9 -60 12 -96 79 -96c33 0 54 10 77 20c8 3 15 5 25 5c35 0 46 -22 43 -43c-9 -59 -113 -74 -167 -74
c-133 0 -180 83 -165 188zM353 633c0 -34 -31 -62 -66 -62c-31 0 -51 26 -47 56c4 29 32 54 63 54c29 0 50 -21 50 -48z" />
    <glyph glyph-name="Ccaron" unicode="&#x10c;" horiz-adv-x="502" 
d="M75 250l29 206c22 156 111 258 276 258c94 0 179 -41 179 -91c0 -28 -27 -53 -58 -53c-19 0 -25 6 -38 16l-4 3c-25 19 -52 28 -87 28c-102 0 -144 -62 -158 -161l-29 -206c-14 -99 10 -161 112 -161c35 0 64 11 95 27l6 3c17 8 23 16 42 16c26 0 45 -19 45 -42
c0 -55 -104 -101 -206 -101c-165 0 -226 102 -204 258zM400 842c32 23 69 68 103 68c22 0 39 -11 39 -32c0 -16 -8 -25 -21 -37c-26 -23 -102 -85 -133 -85s-89 62 -109 85c-7 9 -12 17 -12 28c0 26 23 41 50 41c34 0 57 -45 83 -68z" />
    <glyph glyph-name="ccaron" unicode="&#x10d;" horiz-adv-x="418" 
d="M71 180l20 143c15 105 85 187 219 187c53 0 153 -14 145 -74c-3 -21 -20 -42 -54 -42c-8 0 -15 1 -25 4c-20 10 -38 20 -71 20c-67 0 -98 -35 -106 -95l-20 -143c-9 -60 12 -96 79 -96c33 0 54 10 77 20c8 3 15 5 25 5c35 0 46 -22 43 -43c-9 -59 -113 -74 -167 -74
c-133 0 -180 83 -165 188zM327 642c32 23 69 68 103 68c22 0 39 -11 39 -32c0 -16 -8 -25 -21 -37c-26 -23 -102 -85 -133 -85s-89 62 -109 85c-7 9 -12 17 -12 28c0 26 23 41 50 41c34 0 57 -45 83 -68z" />
    <glyph glyph-name="Dcaron" unicode="&#x10e;" horiz-adv-x="574" 
d="M571 267c-20 -139 -111 -267 -327 -267h-113c-34 0 -59 27 -54 60l82 586c4 32 37 60 71 60h113c215 0 272 -123 253 -259zM461 267l25 180c12 87 -21 156 -140 156h-83l-70 -501h83c121 0 172 74 185 165zM405 842c32 23 69 68 103 68c22 0 39 -11 39 -32
c0 -16 -8 -25 -21 -37c-26 -23 -102 -85 -133 -85s-89 62 -109 85c-7 9 -12 17 -12 28c0 26 23 41 50 41c34 0 57 -45 83 -68z" />
    <glyph glyph-name="dcaron" unicode="&#x10f;" horiz-adv-x="657" 
d="M295 509c32 0 63 -5 97 -19l26 184c4 27 26 49 61 49c34 0 51 -22 47 -49l-78 -553c-3 -21 3 -32 16 -47c5 -6 7 -13 7 -21c0 -35 -31 -54 -57 -54c-24 0 -41 14 -52 35c-50 -25 -97 -42 -147 -42c-111 0 -160 78 -144 193l17 120c17 119 72 204 207 204zM342 131l38 270
c-31 12 -65 17 -85 17c-61 0 -88 -36 -99 -113l-17 -120c-9 -65 12 -100 67 -100c26 0 59 9 95 25c-1 8 0 15 1 21zM587 504c5 33 32 48 48 91c-33 5 -53 32 -48 65c5 35 39 65 78 65c36 0 64 -28 58 -67c-9 -64 -73 -185 -111 -185c-13 0 -32 5 -25 31z" />
    <glyph glyph-name="Dcroat" unicode="&#x110;" horiz-adv-x="595" 
d="M592 267c-20 -139 -111 -267 -327 -267h-113c-34 0 -59 27 -54 60l34 244h-24c-29 0 -49 22 -45 49c3 26 30 49 59 49h24l34 243c4 33 37 60 71 60h113c215 0 272 -122 253 -258zM415 358c0 -29 -27 -54 -58 -54h-115l-28 -202h83c121 0 172 74 185 165l25 180
c12 87 -21 156 -140 156h-83l-28 -201h115c26 0 44 -20 44 -44z" />
    <glyph glyph-name="dcroat" unicode="&#x111;" horiz-adv-x="540" 
d="M295 509c32 0 63 -5 97 -19l10 69h-100c-24 0 -40 19 -36 43c3 23 24 43 48 43h100l4 29c4 27 26 49 61 49c34 0 51 -22 47 -49l-4 -29h56c22 0 38 -20 35 -43s-25 -43 -47 -43h-56l-62 -438c-3 -21 2 -33 16 -47c5 -8 8 -16 7 -27c-5 -31 -33 -48 -57 -48s-41 14 -52 35
c-50 -25 -97 -42 -147 -42c-111 0 -160 78 -144 193l17 120c17 119 72 204 207 204zM342 131l38 270c-31 12 -65 17 -85 17c-61 0 -88 -36 -99 -113l-17 -120c-9 -65 12 -100 67 -100c26 0 59 9 95 25c-1 8 0 15 1 21z" />
    <glyph glyph-name="Emacron" unicode="&#x112;" horiz-adv-x="494" 
d="M474 58c0 -32 -30 -58 -63 -58h-265c-41 0 -76 14 -70 59l83 587c4 29 34 59 70 59h271c30 0 52 -24 48 -53s-32 -50 -62 -50h-223l-28 -197h204c27 0 51 -22 47 -51s-32 -52 -62 -52h-204l-28 -200h233c27 0 49 -20 49 -44zM541 838c0 -27 -26 -48 -53 -48h-259
c-27 0 -44 19 -41 43c4 24 27 44 54 44h259c23 0 40 -18 40 -39z" />
    <glyph glyph-name="emacron" unicode="&#x113;" horiz-adv-x="460" 
d="M269 197c-28 0 -56 2 -88 7l-6 -46c-6 -45 21 -74 84 -74c37 0 65 10 100 25c3 2 11 5 23 5c34 0 45 -25 42 -45c-8 -60 -128 -77 -187 -77c-123 0 -183 74 -169 171l24 177c14 98 94 173 223 173c121 0 172 -66 157 -166c-13 -94 -76 -150 -203 -150zM366 350
c7 53 -17 74 -66 74c-56 0 -92 -30 -99 -78l-8 -59c33 -4 72 -6 87 -6c57 0 80 27 86 69zM495 638c0 -27 -26 -48 -53 -48h-259c-27 0 -44 19 -41 43c4 24 27 44 54 44h259c23 0 40 -18 40 -39z" />
    <glyph glyph-name="Ebreve" unicode="&#x114;" horiz-adv-x="494" 
d="M474 58c0 -32 -30 -58 -63 -58h-265c-41 0 -76 14 -70 59l83 587c4 29 34 59 70 59h271c30 0 52 -24 48 -53s-32 -50 -62 -50h-223l-28 -197h204c27 0 51 -22 47 -51s-32 -52 -62 -52h-204l-28 -200h233c27 0 49 -20 49 -44zM365 839c30 0 49 18 67 36c12 12 23 19 40 19
c21 0 42 -11 29 -46c-21 -55 -99 -86 -148 -86c-52 0 -118 34 -123 86c-3 35 22 46 43 46c19 0 27 -10 34 -19c13 -18 27 -36 58 -36z" />
    <glyph glyph-name="ebreve" unicode="&#x115;" horiz-adv-x="460" 
d="M269 197c-28 0 -56 2 -88 7l-6 -46c-6 -45 21 -74 84 -74c37 0 65 10 100 25c3 2 11 5 23 5c34 0 45 -25 42 -45c-8 -60 -128 -77 -187 -77c-123 0 -183 74 -169 171l24 177c14 98 94 173 223 173c121 0 172 -66 157 -166c-13 -94 -76 -150 -203 -150zM366 350
c7 53 -17 74 -66 74c-56 0 -92 -30 -99 -78l-8 -59c33 -4 72 -6 87 -6c57 0 80 27 86 69zM319 639c30 0 49 18 67 36c12 12 23 19 40 19c21 0 42 -11 29 -46c-21 -55 -99 -86 -148 -86c-52 0 -118 34 -123 86c-3 35 22 46 43 46c19 0 27 -10 34 -19c13 -18 27 -36 58 -36z
" />
    <glyph glyph-name="Edotaccent" unicode="&#x116;" horiz-adv-x="494" 
d="M474 58c0 -32 -30 -58 -63 -58h-265c-41 0 -76 14 -70 59l83 587c4 29 34 59 70 59h271c30 0 52 -24 48 -53s-32 -50 -62 -50h-223l-28 -197h204c27 0 51 -22 47 -51s-32 -52 -62 -52h-204l-28 -200h233c27 0 49 -20 49 -44zM420 833c0 -34 -31 -62 -66 -62
c-31 0 -51 26 -47 56c4 29 32 54 63 54c29 0 50 -21 50 -48z" />
    <glyph glyph-name="edotaccent" unicode="&#x117;" horiz-adv-x="460" 
d="M269 197c-28 0 -56 2 -88 7l-6 -46c-6 -45 21 -74 84 -74c37 0 65 10 100 25c3 2 11 5 23 5c34 0 45 -25 42 -45c-8 -60 -128 -77 -187 -77c-123 0 -183 74 -169 171l24 177c14 98 94 173 223 173c121 0 172 -66 157 -166c-13 -94 -76 -150 -203 -150zM366 350
c7 53 -17 74 -66 74c-56 0 -92 -30 -99 -78l-8 -59c33 -4 72 -6 87 -6c57 0 80 27 86 69zM374 633c0 -34 -31 -62 -66 -62c-31 0 -51 26 -47 56c4 29 32 54 63 54c29 0 50 -21 50 -48z" />
    <glyph glyph-name="Eogonek" unicode="&#x118;" horiz-adv-x="494" 
d="M464 -157c0 -43 -57 -50 -93 -50c-61 0 -100 26 -100 81c0 43 25 86 59 126h-164c-48 0 -97 6 -90 59l83 587c4 29 34 59 70 59h271c18 0 48 -25 48 -50c0 -29 -30 -53 -62 -53h-223l-28 -197h204c16 0 47 -22 47 -48c0 -29 -29 -55 -61 -55h-204l-29 -200h233
c24 0 49 -21 49 -45c0 -31 -30 -57 -63 -57l-25 -37c-13 -19 -23 -42 -26 -58c-3 -20 6 -35 30 -35c17 0 30 4 42 4c18 0 32 -14 32 -31z" />
    <glyph glyph-name="eogonek" unicode="&#x119;" horiz-adv-x="460" 
d="M402 -157c0 -43 -57 -50 -93 -50c-61 0 -99 26 -99 81c0 40 20 81 54 120c-10 0 -20 -1 -27 -1c-135 0 -181 82 -166 188l22 159c14 98 94 173 223 173c107 0 160 -56 160 -140c0 -108 -62 -176 -206 -176c-28 0 -57 2 -88 7l-6 -46c-6 -44 20 -74 83 -74
c37 0 66 10 101 25c3 2 10 5 22 5c26 0 44 -20 44 -41c0 -26 -25 -38 -50 -53c-65 -40 -78 -86 -78 -121c0 -17 9 -29 30 -29c17 0 31 4 43 4c18 0 31 -14 31 -31zM368 364c0 43 -24 60 -67 60c-56 0 -92 -30 -99 -78l-8 -59c33 -4 72 -6 87 -6c68 0 87 36 87 83z" />
    <glyph glyph-name="Ecaron" unicode="&#x11a;" horiz-adv-x="494" 
d="M474 58c0 -32 -30 -58 -63 -58h-265c-41 0 -76 14 -70 59l83 587c4 29 34 59 70 59h271c30 0 52 -24 48 -53s-32 -50 -62 -50h-223l-28 -197h204c27 0 51 -22 47 -51s-32 -52 -62 -52h-204l-28 -200h233c27 0 49 -20 49 -44zM392 842c32 23 69 68 103 68
c22 0 39 -11 39 -32c0 -16 -8 -25 -21 -37c-26 -23 -102 -85 -133 -85s-89 62 -109 85c-7 9 -12 17 -12 28c0 26 23 41 50 41c34 0 57 -45 83 -68z" />
    <glyph glyph-name="ecaron" unicode="&#x11b;" horiz-adv-x="460" 
d="M269 197c-28 0 -56 2 -88 7l-6 -46c-6 -45 21 -74 84 -74c37 0 65 10 100 25c3 2 11 5 23 5c34 0 45 -25 42 -45c-8 -60 -128 -77 -187 -77c-123 0 -183 74 -169 171l24 177c14 98 94 173 223 173c121 0 172 -66 157 -166c-13 -94 -76 -150 -203 -150zM366 350
c7 53 -17 74 -66 74c-56 0 -92 -30 -99 -78l-8 -59c33 -4 72 -6 87 -6c57 0 80 27 86 69zM319 642c32 23 69 68 103 68c22 0 39 -11 39 -32c0 -16 -8 -25 -21 -37c-26 -23 -102 -85 -133 -85s-89 62 -109 85c-7 9 -12 17 -12 28c0 26 23 41 50 41c34 0 57 -45 83 -68z" />
    <glyph glyph-name="Gcircumflex" unicode="&#x11c;" horiz-adv-x="540" 
d="M214 456l-29 -206c-14 -99 10 -161 112 -161c41 0 73 11 102 29l26 185h-75c-23 0 -43 20 -43 45c0 31 29 56 58 56h114c37 0 67 -19 61 -58l-32 -230c-12 -87 -133 -124 -229 -124c-165 0 -226 102 -204 258l29 206c22 156 111 258 276 258c94 0 179 -41 179 -91
c0 -28 -27 -53 -58 -53c-19 0 -25 6 -38 16l-4 3c-24 18 -52 28 -87 28c-102 0 -144 -62 -158 -161zM386 825c-29 -21 -71 -65 -97 -65c-18 0 -38 13 -38 32c0 18 22 38 39 50l77 55c9 6 18 11 31 11s22 -5 29 -11l61 -55c12 -10 26 -28 26 -43c0 -24 -27 -39 -49 -39
c-26 0 -56 44 -79 65z" />
    <glyph glyph-name="gcircumflex" unicode="&#x11d;" horiz-adv-x="529" 
d="M364 120l32 227c6 45 -26 71 -81 71c-62 0 -94 -34 -102 -90l-21 -149c-8 -59 10 -95 70 -95c35 0 71 11 102 36zM504 347l-55 -384c-14 -105 -85 -187 -220 -187c-52 0 -151 16 -144 71c4 25 28 45 56 45c6 0 12 -1 22 -4c20 -11 39 -20 71 -20c67 0 99 35 108 95l8 57
c-36 -17 -73 -27 -117 -27c-133 0 -164 80 -149 186l21 149c15 105 92 185 224 185c125 0 188 -73 175 -166zM343 625c-29 -21 -71 -65 -97 -65c-18 0 -38 13 -38 32c0 18 22 38 39 50l77 55c9 6 18 11 31 11s22 -5 29 -11l61 -55c12 -10 26 -28 26 -43
c0 -24 -27 -39 -49 -39c-26 0 -56 44 -79 65z" />
    <glyph glyph-name="Gbreve" unicode="&#x11e;" horiz-adv-x="540" 
d="M214 456l-29 -206c-14 -99 10 -161 112 -161c41 0 73 11 102 29l26 185h-75c-23 0 -43 20 -43 45c0 31 29 56 58 56h114c37 0 67 -19 61 -58l-32 -230c-12 -87 -133 -124 -229 -124c-165 0 -226 102 -204 258l29 206c22 156 111 258 276 258c94 0 179 -41 179 -91
c0 -28 -27 -53 -58 -53c-19 0 -25 6 -38 16l-4 3c-24 18 -52 28 -87 28c-102 0 -144 -62 -158 -161zM388 839c30 0 49 18 67 36c12 12 23 19 40 19c21 0 42 -11 29 -46c-21 -55 -99 -86 -148 -86c-52 0 -118 34 -123 86c-3 35 22 46 43 46c19 0 27 -10 34 -19
c13 -18 27 -36 58 -36z" />
    <glyph glyph-name="gbreve" unicode="&#x11f;" horiz-adv-x="529" 
d="M364 120l32 227c6 45 -26 71 -81 71c-62 0 -94 -34 -102 -90l-21 -149c-8 -59 10 -95 70 -95c35 0 71 11 102 36zM504 347l-55 -384c-14 -105 -85 -187 -220 -187c-52 0 -151 16 -144 71c4 25 28 45 56 45c6 0 12 -1 22 -4c20 -11 39 -20 71 -20c67 0 99 35 108 95l8 57
c-36 -17 -73 -27 -117 -27c-133 0 -164 80 -149 186l21 149c15 105 92 185 224 185c125 0 188 -73 175 -166zM355 639c30 0 49 18 67 36c12 12 23 19 40 19c21 0 42 -11 29 -46c-21 -55 -99 -86 -148 -86c-52 0 -118 34 -123 86c-3 35 22 46 43 46c19 0 27 -10 34 -19
c13 -18 27 -36 58 -36z" />
    <glyph glyph-name="Gdotaccent" unicode="&#x120;" horiz-adv-x="540" 
d="M214 456l-29 -206c-14 -99 10 -161 112 -161c41 0 73 11 102 29l26 185h-75c-23 0 -43 20 -43 45c0 31 29 56 58 56h114c37 0 67 -19 61 -58l-32 -230c-12 -87 -133 -124 -229 -124c-165 0 -226 102 -204 258l29 206c22 156 111 258 276 258c94 0 179 -41 179 -91
c0 -28 -27 -53 -58 -53c-19 0 -25 6 -38 16l-4 3c-24 18 -52 28 -87 28c-102 0 -144 -62 -158 -161zM443 833c0 -34 -31 -62 -66 -62c-31 0 -51 26 -47 56c4 29 32 54 63 54c29 0 50 -21 50 -48z" />
    <glyph glyph-name="gdotaccent" unicode="&#x121;" horiz-adv-x="529" 
d="M364 120l32 227c6 45 -26 71 -81 71c-62 0 -94 -34 -102 -90l-21 -149c-8 -59 10 -95 70 -95c35 0 71 11 102 36zM504 347l-55 -384c-14 -105 -85 -187 -220 -187c-52 0 -151 16 -144 71c4 25 28 45 56 45c6 0 12 -1 22 -4c20 -11 39 -20 71 -20c67 0 99 35 108 95l8 57
c-36 -17 -73 -27 -117 -27c-133 0 -164 80 -149 186l21 149c15 105 92 185 224 185c125 0 188 -73 175 -166zM401 633c0 -34 -31 -62 -66 -62c-31 0 -51 26 -47 56c4 29 32 54 63 54c29 0 50 -21 50 -48z" />
    <glyph glyph-name="uni0122" unicode="&#x122;" horiz-adv-x="540" 
d="M214 456l-29 -206c-14 -99 10 -161 112 -161c41 0 73 11 102 29l26 185h-75c-23 0 -43 20 -43 45c0 31 29 56 58 56h114c37 0 67 -19 61 -58l-32 -230c-12 -87 -133 -124 -229 -124c-165 0 -226 102 -204 258l29 206c22 156 111 258 276 258c94 0 179 -41 179 -91
c0 -28 -27 -53 -58 -53c-19 0 -25 6 -38 16l-4 3c-24 18 -52 28 -87 28c-102 0 -144 -62 -158 -161zM330 -97c0 -54 -72 -141 -106 -141c-9 0 -18 5 -16 17c3 21 30 34 46 62c-34 2 -57 17 -52 54c5 31 28 54 71 54c40 0 57 -21 57 -46z" />
    <glyph glyph-name="uni0123" unicode="&#x123;" horiz-adv-x="529" 
d="M278 614c0 54 73 141 107 141c8 0 16 -4 16 -15c0 -23 -29 -34 -46 -64c30 -2 52 -16 52 -46c0 -35 -23 -62 -71 -62c-40 0 -58 21 -58 46zM364 120l32 227c6 45 -26 71 -81 71c-62 0 -94 -34 -102 -90l-21 -149c-8 -59 10 -95 70 -95c35 0 71 11 102 36zM504 347
l-55 -384c-14 -105 -85 -187 -220 -187c-52 0 -151 16 -144 71c4 25 28 45 56 45c6 0 12 -1 22 -4c20 -11 39 -20 71 -20c67 0 99 35 108 95l8 57c-36 -17 -73 -27 -117 -27c-133 0 -164 80 -149 186l21 149c15 105 92 185 224 185c125 0 188 -73 175 -166z" />
    <glyph glyph-name="Hcircumflex" unicode="&#x124;" horiz-adv-x="600" 
d="M537 43c-4 -28 -33 -53 -63 -53c-29 0 -51 25 -47 53l36 258h-243l-36 -258c-4 -28 -33 -53 -63 -53c-31 0 -51 25 -47 53l87 619c4 28 31 52 62 52c30 0 52 -24 48 -52l-36 -258h243l36 258c4 28 33 52 62 52s52 -24 48 -52zM416 825c-29 -21 -71 -65 -97 -65
c-18 0 -38 13 -38 32c0 18 22 38 39 50l77 55c9 6 18 11 31 11s22 -5 29 -11l61 -55c12 -10 26 -28 26 -43c0 -24 -27 -39 -49 -39c-26 0 -56 44 -79 65z" />
    <glyph glyph-name="Itilde" unicode="&#x128;" horiz-adv-x="247" 
d="M74 42l87 620c4 28 31 52 62 52c30 0 52 -24 48 -52l-87 -620c-4 -27 -33 -52 -63 -52c-31 0 -51 25 -47 52zM391 851c0 -41 -57 -71 -96 -72c-48 0 -72 33 -101 36c-33 2 -41 -31 -68 -31c-17 0 -34 12 -34 30c0 42 48 76 95 76c49 0 70 -34 101 -36c34 0 40 31 68 32
c19 0 35 -15 35 -35z" />
    <glyph glyph-name="itilde" unicode="&#x129;" horiz-adv-x="265" 
d="M372 651c0 -41 -57 -71 -96 -72c-48 0 -72 33 -101 36c-33 2 -41 -31 -68 -31c-17 0 -34 12 -34 30c0 42 48 76 95 76c49 0 70 -34 101 -36c34 0 40 31 68 32c19 0 35 -15 35 -35zM93 102l50 358c4 27 30 50 61 50c30 0 51 -23 47 -50l-50 -352c-2 -21 -3 -30 8 -44
c5 -6 10 -12 10 -22c0 -30 -26 -50 -63 -50c-32 0 -77 13 -63 110z" />
    <glyph glyph-name="Imacron" unicode="&#x12a;" horiz-adv-x="247" 
d="M74 42l87 620c4 28 31 52 62 52c30 0 52 -24 48 -52l-87 -620c-4 -27 -33 -52 -63 -52c-31 0 -51 25 -47 52zM418 838c0 -27 -26 -48 -53 -48h-259c-27 0 -44 19 -41 43c4 24 27 44 54 44h259c23 0 40 -18 40 -39z" />
    <glyph glyph-name="imacron" unicode="&#x12b;" horiz-adv-x="265" 
d="M399 638c0 -27 -26 -48 -53 -48h-259c-27 0 -44 19 -41 43c4 24 27 44 54 44h259c23 0 40 -18 40 -39zM93 102l50 358c4 27 30 50 61 50c30 0 51 -23 47 -50l-50 -352c-2 -21 -3 -30 8 -44c5 -6 10 -12 10 -22c0 -30 -26 -50 -63 -50c-32 0 -77 13 -63 110z" />
    <glyph glyph-name="Ibreve" unicode="&#x12c;" horiz-adv-x="247" 
d="M74 42l87 620c4 28 31 52 62 52c30 0 52 -24 48 -52l-87 -620c-4 -27 -33 -52 -63 -52c-31 0 -51 25 -47 52zM242 839c30 0 49 18 67 36c12 12 23 19 40 19c21 0 42 -11 29 -46c-21 -55 -99 -86 -148 -86c-52 0 -118 34 -123 86c-3 35 22 46 43 46c19 0 27 -10 34 -19
c13 -18 27 -36 58 -36z" />
    <glyph glyph-name="ibreve" unicode="&#x12d;" horiz-adv-x="265" 
d="M223 639c30 0 49 18 67 36c12 12 23 19 40 19c21 0 42 -11 29 -46c-21 -55 -99 -86 -148 -86c-52 0 -118 34 -123 86c-3 35 22 46 43 46c19 0 27 -10 34 -19c13 -18 27 -36 58 -36zM93 102l50 358c4 27 30 50 61 50c30 0 51 -23 47 -50l-50 -352c-2 -21 -3 -30 8 -44
c5 -6 10 -12 10 -22c0 -30 -26 -50 -63 -50c-32 0 -77 13 -63 110z" />
    <glyph glyph-name="Iogonek" unicode="&#x12e;" horiz-adv-x="247" 
d="M211 -157c0 -43 -56 -50 -93 -50c-61 0 -100 26 -100 81c0 44 27 90 67 131c-9 10 -13 23 -11 37l87 620c4 28 31 52 62 52c30 0 52 -24 48 -52l-84 -595c-4 -31 -21 -52 -40 -79c-23 -27 -41 -64 -41 -89c0 -17 9 -29 31 -29c18 0 30 4 42 4c19 0 32 -14 32 -31z" />
    <glyph glyph-name="iogonek" unicode="&#x12f;" horiz-adv-x="265" 
d="M217 -157c0 -43 -56 -50 -93 -50c-61 0 -100 26 -100 81c0 45 29 92 70 133c-9 9 -12 22 -10 36l56 399c5 36 24 68 64 68c30 0 51 -23 47 -50l-54 -380c-6 -38 -17 -61 -43 -92c-24 -28 -42 -62 -42 -89c0 -17 9 -29 31 -29c18 0 30 4 42 4c19 0 32 -14 32 -31zM288 662
c0 -36 -34 -65 -72 -65c-33 0 -55 24 -55 53c0 35 32 65 71 65c33 0 56 -24 56 -53z" />
    <glyph glyph-name="Idotaccent" unicode="&#x130;" horiz-adv-x="247" 
d="M74 42l87 620c4 28 31 52 62 52c30 0 52 -24 48 -52l-87 -620c-4 -27 -33 -52 -63 -52c-31 0 -51 25 -47 52zM297 833c0 -34 -31 -62 -66 -62c-31 0 -51 26 -47 56c4 29 32 54 63 54c29 0 50 -21 50 -48z" />
    <glyph glyph-name="dotlessi" unicode="&#x131;" horiz-adv-x="265" 
d="M93 102l50 358c4 27 30 50 61 50c30 0 51 -23 47 -50l-50 -352c-2 -21 -3 -30 8 -44c5 -6 10 -12 10 -22c0 -30 -26 -50 -63 -50c-32 0 -77 13 -63 110z" />
    <glyph glyph-name="Jcircumflex" unicode="&#x134;" horiz-adv-x="405" 
d="M430 662l-61 -432c-21 -149 -85 -240 -251 -240c-33 0 -99 4 -92 57c5 33 36 51 58 51c17 0 32 -6 60 -6c79 0 103 53 115 138l61 432c4 29 30 52 62 52c29 0 52 -24 48 -52zM397 825c-29 -21 -71 -65 -97 -65c-18 0 -38 13 -38 32c0 18 22 38 39 50l77 55
c9 6 18 11 31 11s22 -5 29 -11l61 -55c12 -10 26 -28 26 -43c0 -24 -27 -39 -49 -39c-26 0 -56 44 -79 65z" />
    <glyph glyph-name="jcircumflex" unicode="&#x135;" horiz-adv-x="265" 
d="M251 467l-65 -467c-16 -113 -92 -195 -203 -195c-23 0 -40 14 -42 36v-1v10c0 30 30 45 50 49c46 10 77 35 86 97l66 471c4 28 31 51 62 51c30 0 50 -23 46 -51zM220 625c-29 -21 -71 -65 -97 -65c-18 0 -38 13 -38 32c0 18 22 38 39 50l77 55c9 6 18 11 31 11
s22 -5 29 -11l61 -55c12 -10 26 -28 26 -43c0 -24 -27 -39 -49 -39c-26 0 -56 44 -79 65z" />
    <glyph glyph-name="uni0136" unicode="&#x136;" horiz-adv-x="527" 
d="M419 14l-164 288l-40 -41l-31 -218c-4 -28 -32 -52 -62 -52c-31 0 -52 24 -48 52l87 619c4 28 31 52 62 52c30 0 52 -24 48 -52l-34 -240l263 268c12 12 31 24 50 24c20 0 46 -18 46 -46c0 -10 -2 -23 -19 -40l-241 -244c60 -104 121 -208 182 -312c4 -7 5 -14 5 -20
c0 -27 -22 -61 -61 -61c-19 0 -34 7 -43 23zM346 -97c0 -54 -72 -141 -106 -141c-9 0 -18 5 -16 17c3 21 30 34 46 62c-34 2 -57 17 -52 54c5 31 28 54 71 54c40 0 57 -21 57 -46z" />
    <glyph glyph-name="uni0137" unicode="&#x137;" horiz-adv-x="463" 
d="M272 673l-49 -345l166 153c15 14 33 28 55 28c26 0 45 -18 45 -42c0 -15 -7 -28 -19 -39l-155 -140c43 -74 85 -148 127 -222c5 -8 7 -21 5 -30c-5 -27 -30 -43 -58 -43c-31 0 -35 11 -52 42l-105 190c-9 -7 -18 -16 -27 -23l-19 -137c-5 -37 -22 -72 -64 -72
c-31 0 -51 21 -47 50l85 605c5 39 20 75 65 75c30 0 51 -22 47 -50zM309 -97c0 -54 -72 -141 -106 -141c-9 0 -18 5 -16 17c3 21 30 34 46 62c-34 2 -57 17 -52 54c5 31 28 54 71 54c40 0 57 -21 57 -46z" />
    <glyph glyph-name="Lacute" unicode="&#x139;" horiz-adv-x="475" 
d="M471 56c0 -31 -29 -56 -61 -56h-282c-32 0 -57 25 -52 57l85 605c4 28 32 52 63 52c30 0 52 -24 48 -52l-79 -561h232c25 0 46 -19 46 -45zM310 907l12 10c12 10 18 15 35 15s35 -15 35 -36c0 -12 -6 -22 -18 -33l-86 -78c-14 -13 -24 -20 -41 -20c-21 0 -37 15 -37 37
c0 27 67 75 100 105z" />
    <glyph glyph-name="lacute" unicode="&#x13a;" horiz-adv-x="248" 
d="M147 -8c-32 0 -77 13 -63 110l80 571c4 27 30 50 61 50c30 0 51 -22 47 -50l-80 -565c-2 -21 -3 -30 8 -44c5 -6 10 -12 10 -22c0 -30 -26 -50 -63 -50zM290 903l12 10c12 10 18 15 35 15s35 -15 35 -36c0 -12 -6 -22 -18 -33l-86 -78c-14 -13 -24 -20 -41 -20
c-21 0 -37 15 -37 37c0 27 67 75 100 105z" />
    <glyph glyph-name="uni013B" unicode="&#x13b;" horiz-adv-x="475" 
d="M471 56c0 -31 -29 -56 -61 -56h-282c-32 0 -57 25 -52 57l85 605c4 28 32 52 63 52c30 0 52 -24 48 -52l-79 -561h232c25 0 46 -19 46 -45zM310 -97c0 -54 -72 -141 -106 -141c-9 0 -18 5 -16 17c3 21 30 34 46 62c-34 2 -57 17 -52 54c5 31 28 54 71 54
c40 0 57 -21 57 -46z" />
    <glyph glyph-name="uni013C" unicode="&#x13c;" horiz-adv-x="248" 
d="M147 -8c-32 0 -77 13 -63 110l80 571c4 27 30 50 61 50c30 0 51 -22 47 -50l-80 -565c-2 -21 -3 -30 8 -44c5 -6 10 -12 10 -22c0 -30 -26 -50 -63 -50zM174 -97c0 -54 -72 -141 -106 -141c-9 0 -18 5 -16 17c3 21 30 34 46 62c-34 2 -57 17 -52 54c5 31 28 54 71 54
c40 0 57 -21 57 -46z" />
    <glyph glyph-name="Lcaron" unicode="&#x13d;" horiz-adv-x="475" 
d="M471 56c0 -31 -29 -56 -61 -56h-282c-32 0 -57 25 -52 57l85 605c4 28 32 52 63 52c30 0 52 -24 48 -52l-79 -561h232c25 0 46 -19 46 -45zM383 504c5 33 32 48 48 91c-33 5 -53 32 -48 65c5 35 39 65 78 65c36 0 64 -28 58 -67c-9 -64 -73 -185 -111 -185
c-13 0 -32 5 -25 31z" />
    <glyph glyph-name="lcaron" unicode="&#x13e;" horiz-adv-x="407" 
d="M147 -8c-32 0 -77 13 -63 110l80 571c4 27 30 50 61 50c30 0 51 -22 47 -50l-80 -565c-2 -21 -3 -30 8 -44c5 -6 10 -12 10 -22c0 -30 -26 -50 -63 -50zM340 504c5 33 32 48 48 91c-33 5 -53 32 -48 65c5 35 39 65 78 65c36 0 64 -28 58 -67c-9 -64 -73 -185 -111 -185
c-13 0 -32 5 -25 31z" />
    <glyph glyph-name="Lslash" unicode="&#x141;" horiz-adv-x="519" 
d="M507 56c0 -31 -29 -56 -61 -56h-282c-32 0 -56 25 -52 57l31 217l-25 -15c-9 -6 -19 -12 -28 -12c-23 0 -43 13 -39 41c2 12 10 26 23 33l82 49l41 292c4 28 32 52 63 52c30 0 51 -24 47 -52l-31 -220l64 39c11 6 20 11 34 11c15 0 29 -11 32 -28c0 -4 1 -8 0 -13
c-2 -12 -10 -24 -22 -32l-121 -73l-34 -245h232c25 0 46 -19 46 -45z" />
    <glyph glyph-name="lslash" unicode="&#x142;" horiz-adv-x="357" 
d="M406 464c0 -4 1 -8 0 -13c-2 -12 -10 -24 -22 -32l-111 -67l-34 -244c-3 -21 -4 -30 7 -44c6 -7 12 -13 10 -27c-4 -28 -29 -45 -63 -45c-32 0 -77 13 -63 110l25 179l-37 -22c-9 -6 -19 -12 -28 -12c-23 0 -43 13 -39 41c2 12 10 26 23 33l94 56l42 296
c4 27 30 50 61 50c30 0 51 -22 47 -50l-32 -225l54 33c11 6 20 11 34 11c15 0 29 -11 32 -28z" />
    <glyph glyph-name="Nacute" unicode="&#x143;" horiz-adv-x="620" 
d="M490 -10c-21 0 -42 12 -49 29l-195 469l-62 -445c-4 -28 -34 -53 -64 -53c-31 0 -50 25 -46 53l86 615c5 32 32 56 66 56c22 0 43 -12 51 -30c33 -77 159 -389 194 -469l63 446c4 29 33 53 63 53s51 -24 47 -53l-87 -615c-4 -30 -32 -56 -67 -56zM478 907l12 10
c12 10 18 15 35 15s35 -15 35 -36c0 -12 -6 -22 -18 -33l-86 -78c-14 -13 -24 -20 -41 -20c-21 0 -37 15 -37 37c0 27 67 75 100 105z" />
    <glyph glyph-name="nacute" unicode="&#x144;" horiz-adv-x="529" 
d="M503 319l-30 -211c-3 -21 -3 -30 8 -44c5 -6 10 -12 10 -22c0 -30 -26 -50 -63 -50c-32 0 -77 13 -64 110l31 217c9 63 -15 100 -65 100c-30 0 -63 -11 -99 -31c1 -9 1 -17 0 -24l-45 -321c-4 -28 -25 -50 -61 -50s-51 22 -47 50l45 321c6 44 0 46 -5 56s-8 16 -8 25
c0 28 26 51 59 51c19 0 33 -11 43 -29c49 31 100 44 144 44c116 0 163 -77 147 -192zM364 707l12 10c12 10 18 15 35 15s35 -15 35 -36c0 -12 -6 -22 -18 -33l-86 -78c-14 -13 -24 -20 -41 -20c-21 0 -37 15 -37 37c0 27 67 75 100 105z" />
    <glyph glyph-name="uni0145" unicode="&#x145;" horiz-adv-x="620" 
d="M490 -10c-21 0 -42 12 -49 29l-195 469l-62 -445c-4 -28 -34 -53 -64 -53c-31 0 -50 25 -46 53l86 615c5 32 32 56 66 56c22 0 43 -12 51 -30c33 -77 159 -389 194 -469l63 446c4 29 33 53 63 53s51 -24 47 -53l-87 -615c-4 -30 -32 -56 -67 -56zM360 -97
c0 -54 -72 -141 -106 -141c-9 0 -18 5 -16 17c3 21 30 34 46 62c-34 2 -57 17 -52 54c5 31 28 54 71 54c40 0 57 -21 57 -46z" />
    <glyph glyph-name="uni0146" unicode="&#x146;" horiz-adv-x="529" 
d="M503 319l-30 -211c-3 -21 -3 -30 8 -44c5 -6 10 -12 10 -22c0 -30 -26 -50 -63 -50c-32 0 -77 13 -64 110l31 217c9 63 -15 100 -65 100c-30 0 -63 -11 -99 -31c1 -9 1 -17 0 -24l-45 -321c-4 -28 -25 -50 -61 -50s-51 22 -47 50l45 321c6 44 0 46 -5 56s-8 16 -8 25
c0 28 26 51 59 51c19 0 33 -11 43 -29c49 31 100 44 144 44c116 0 163 -77 147 -192zM314 -97c0 -54 -72 -141 -106 -141c-9 0 -18 5 -16 17c3 21 30 34 46 62c-34 2 -57 17 -52 54c5 31 28 54 71 54c40 0 57 -21 57 -46z" />
    <glyph glyph-name="Ncaron" unicode="&#x147;" horiz-adv-x="620" 
d="M490 -10c-21 0 -42 12 -49 29l-195 469l-62 -445c-4 -28 -34 -53 -64 -53c-31 0 -50 25 -46 53l86 615c5 32 32 56 66 56c22 0 43 -12 51 -30c33 -77 159 -389 194 -469l63 446c4 29 33 53 63 53s51 -24 47 -53l-87 -615c-4 -30 -32 -56 -67 -56zM428 842
c32 23 69 68 103 68c22 0 39 -11 39 -32c0 -16 -8 -25 -21 -37c-26 -23 -102 -85 -133 -85s-89 62 -109 85c-7 9 -12 17 -12 28c0 26 23 41 50 41c34 0 57 -45 83 -68z" />
    <glyph glyph-name="ncaron" unicode="&#x148;" horiz-adv-x="529" 
d="M503 319l-30 -211c-3 -21 -3 -30 8 -44c5 -6 10 -12 10 -22c0 -30 -26 -50 -63 -50c-32 0 -77 13 -64 110l31 217c9 63 -15 100 -65 100c-30 0 -63 -11 -99 -31c1 -9 1 -17 0 -24l-45 -321c-4 -28 -25 -50 -61 -50s-51 22 -47 50l45 321c6 44 0 46 -5 56s-8 16 -8 25
c0 28 26 51 59 51c19 0 33 -11 43 -29c49 31 100 44 144 44c116 0 163 -77 147 -192zM354 642c32 23 69 68 103 68c22 0 39 -11 39 -32c0 -16 -8 -25 -21 -37c-26 -23 -102 -85 -133 -85s-89 62 -109 85c-7 9 -12 17 -12 28c0 26 23 41 50 41c34 0 57 -45 83 -68z" />
    <glyph glyph-name="Omacron" unicode="&#x14c;" horiz-adv-x="580" 
d="M289 -10c-163 0 -229 116 -209 260l29 206c20 140 105 258 281 258s229 -118 209 -258l-29 -206c-20 -144 -118 -260 -281 -260zM376 612c-99 0 -144 -63 -157 -156l-29 -206c-13 -93 20 -157 113 -157c92 0 144 64 157 157l29 206c13 93 -14 156 -113 156zM584 838
c0 -27 -26 -48 -53 -48h-259c-27 0 -44 19 -41 43c4 24 27 44 54 44h259c23 0 40 -18 40 -39z" />
    <glyph glyph-name="omacron" unicode="&#x14d;" horiz-adv-x="494" 
d="M246 -8c-132 0 -191 80 -177 182l22 158c15 103 96 182 228 182s192 -79 177 -182l-23 -158c-14 -102 -95 -182 -227 -182zM259 87c62 0 98 33 106 87l23 159c7 53 -20 86 -82 86s-99 -33 -106 -86l-23 -159c-7 -54 20 -87 82 -87zM513 638c0 -27 -26 -48 -53 -48h-259
c-27 0 -44 19 -41 43c4 24 27 44 54 44h259c23 0 40 -18 40 -39z" />
    <glyph glyph-name="Obreve" unicode="&#x14e;" horiz-adv-x="580" 
d="M289 -10c-163 0 -229 116 -209 260l29 206c20 140 105 258 281 258s229 -118 209 -258l-29 -206c-20 -144 -118 -260 -281 -260zM376 612c-99 0 -144 -63 -157 -156l-29 -206c-13 -93 20 -157 113 -157c92 0 144 64 157 157l29 206c13 93 -14 156 -113 156zM408 839
c30 0 49 18 67 36c12 12 23 19 40 19c21 0 42 -11 29 -46c-21 -55 -99 -86 -148 -86c-52 0 -118 34 -123 86c-3 35 22 46 43 46c19 0 27 -10 34 -19c13 -18 27 -36 58 -36z" />
    <glyph glyph-name="obreve" unicode="&#x14f;" horiz-adv-x="494" 
d="M246 -8c-132 0 -191 80 -177 182l22 158c15 103 96 182 228 182s192 -79 177 -182l-23 -158c-14 -102 -95 -182 -227 -182zM259 87c62 0 98 33 106 87l23 159c7 53 -20 86 -82 86s-99 -33 -106 -86l-23 -159c-7 -54 20 -87 82 -87zM337 639c30 0 49 18 67 36
c12 12 23 19 40 19c21 0 42 -11 29 -46c-21 -55 -99 -86 -148 -86c-52 0 -118 34 -123 86c-3 35 22 46 43 46c19 0 27 -10 34 -19c13 -18 27 -36 58 -36z" />
    <glyph glyph-name="Ohungarumlaut" unicode="&#x150;" horiz-adv-x="580" 
d="M289 -10c-163 0 -229 116 -209 260l29 206c20 140 105 258 281 258s229 -118 209 -258l-29 -206c-20 -144 -118 -260 -281 -260zM376 612c-99 0 -144 -63 -157 -156l-29 -206c-13 -93 20 -157 113 -157c92 0 144 64 157 157l29 206c13 93 -14 156 -113 156zM286 815
l76 92c14 15 25 32 49 32c19 0 36 -19 36 -39c0 -10 -4 -16 -12 -25l-72 -90c-14 -17 -26 -27 -46 -27c-21 0 -37 18 -37 38c0 10 2 14 6 19zM439 815l76 92c12 15 25 32 48 32c19 0 38 -20 38 -39c0 -7 -3 -12 -8 -18l-78 -97c-13 -16 -24 -27 -45 -27s-38 18 -38 38
c0 9 3 14 7 19z" />
    <glyph glyph-name="ohungarumlaut" unicode="&#x151;" horiz-adv-x="494" 
d="M246 -8c-132 0 -191 80 -177 182l22 158c15 103 96 182 228 182s192 -79 177 -182l-23 -158c-14 -102 -95 -182 -227 -182zM259 87c62 0 98 33 106 87l23 159c7 53 -20 86 -82 86s-99 -33 -106 -86l-23 -159c-7 -54 20 -87 82 -87zM217 615l76 92c14 15 25 32 49 32
c19 0 36 -19 36 -39c0 -10 -4 -16 -12 -25l-72 -90c-14 -17 -26 -27 -46 -27c-21 0 -37 18 -37 38c0 10 2 14 6 19zM370 615l76 92c12 15 25 32 48 32c19 0 38 -20 38 -39c0 -7 -3 -12 -8 -18l-78 -97c-13 -16 -24 -27 -45 -27s-38 18 -38 38c0 9 3 14 7 19z" />
    <glyph glyph-name="OE" unicode="&#x152;" horiz-adv-x="756" 
d="M746 58c0 -32 -30 -58 -63 -58h-235c-32 0 -59 8 -64 34c-36 -27 -79 -44 -130 -44c-149 0 -210 108 -191 241l34 244c18 131 97 239 259 239c53 0 92 -15 120 -40c11 16 31 31 55 31h241c30 0 52 -24 48 -53c-4 -28 -32 -50 -62 -50h-193l-28 -197h174
c27 0 51 -22 47 -51s-31 -52 -61 -52h-174l-28 -200h203c26 0 48 -20 48 -44zM341 612c-85 0 -122 -55 -134 -137l-34 -244c-12 -81 16 -138 95 -138c78 0 124 57 135 138l34 244c12 82 -11 137 -96 137z" />
    <glyph glyph-name="oe" unicode="&#x153;" horiz-adv-x="731" 
d="M227 -7c-126 0 -187 80 -173 181l22 158c14 102 98 182 224 182c71 0 117 -27 141 -69c34 42 88 68 159 68c102 0 156 -56 156 -142c0 -108 -61 -179 -208 -179c-24 0 -55 2 -86 7l-6 -41c-6 -45 22 -74 84 -74c39 0 65 11 101 25h-1c3 2 12 5 22 5c26 0 44 -20 44 -42
c0 -61 -129 -79 -185 -79c-69 0 -114 26 -136 67c-35 -42 -88 -67 -158 -67zM244 87c62 0 98 33 106 87l23 159c7 53 -20 86 -82 86s-99 -33 -107 -86l-22 -159c-8 -54 20 -87 82 -87zM648 360c0 41 -25 59 -67 59c-56 0 -93 -28 -99 -73l-8 -59c34 -4 72 -6 89 -6
c63 0 85 32 85 79z" />
    <glyph glyph-name="Racute" unicode="&#x154;" horiz-adv-x="595" 
d="M609 528c0 -118 -71 -194 -177 -220c38 -79 77 -156 115 -235c3 -4 5 -16 5 -22c0 -33 -36 -59 -65 -59c-20 0 -36 8 -43 24l-134 282h-90l-36 -254c-4 -28 -33 -53 -63 -53c-29 0 -51 24 -47 53l85 601c4 32 36 60 69 60h174c155 0 207 -87 207 -177zM497 515
c0 44 -24 87 -114 87h-121l-28 -203h127c87 0 136 42 136 116zM425 907l12 10c12 10 18 15 35 15s35 -15 35 -36c0 -12 -6 -22 -18 -33l-86 -78c-14 -13 -24 -20 -41 -20c-21 0 -37 15 -37 37c0 27 67 75 100 105z" />
    <glyph glyph-name="racute" unicode="&#x155;" horiz-adv-x="357" 
d="M347 409c-42 1 -69 2 -115 -23c0 -9 0 -16 -1 -23l-45 -320c-4 -29 -31 -51 -61 -51c-31 0 -51 22 -47 51l45 320c4 28 2 43 -6 58c-5 8 -8 15 -6 27c4 28 31 47 59 47c18 0 32 -12 42 -29c48 27 102 43 137 43c51 0 64 -21 60 -49c-5 -32 -33 -53 -62 -51zM338 707
l12 10c12 10 18 15 35 15s35 -15 35 -36c0 -12 -6 -22 -18 -33l-86 -78c-14 -13 -24 -20 -41 -20c-21 0 -37 15 -37 37c0 27 67 75 100 105z" />
    <glyph glyph-name="uni0156" unicode="&#x156;" horiz-adv-x="595" 
d="M609 528c0 -118 -71 -194 -177 -220c38 -79 77 -156 115 -235c3 -4 5 -16 5 -22c0 -33 -36 -59 -65 -59c-20 0 -36 8 -43 24l-134 282h-90l-36 -254c-4 -28 -33 -53 -63 -53c-29 0 -51 24 -47 53l85 601c4 32 36 60 69 60h174c155 0 207 -87 207 -177zM497 515
c0 44 -24 87 -114 87h-121l-28 -203h127c87 0 136 42 136 116zM347 -97c0 -54 -72 -141 -106 -141c-9 0 -18 5 -16 17c3 21 30 34 46 62c-34 2 -57 17 -52 54c5 31 28 54 71 54c40 0 57 -21 57 -46z" />
    <glyph glyph-name="uni0157" unicode="&#x157;" horiz-adv-x="357" 
d="M347 409c-42 1 -69 2 -115 -23c0 -9 0 -16 -1 -23l-45 -320c-4 -29 -31 -51 -61 -51c-31 0 -51 22 -47 51l45 320c4 28 2 43 -6 58c-5 8 -8 15 -6 27c4 28 31 47 59 47c18 0 32 -12 42 -29c48 27 102 43 137 43c51 0 64 -21 60 -49c-5 -32 -33 -53 -62 -51zM175 -97
c0 -54 -72 -141 -106 -141c-9 0 -18 5 -16 17c3 21 30 34 46 62c-34 2 -57 17 -52 54c5 31 28 54 71 54c40 0 57 -21 57 -46z" />
    <glyph glyph-name="Rcaron" unicode="&#x158;" horiz-adv-x="595" 
d="M609 528c0 -118 -71 -194 -177 -220c38 -79 77 -156 115 -235c3 -4 5 -16 5 -22c0 -33 -36 -59 -65 -59c-20 0 -36 8 -43 24l-134 282h-90l-36 -254c-4 -28 -33 -53 -63 -53c-29 0 -51 24 -47 53l85 601c4 32 36 60 69 60h174c155 0 207 -87 207 -177zM497 515
c0 44 -24 87 -114 87h-121l-28 -203h127c87 0 136 42 136 116zM406 842c32 23 69 68 103 68c22 0 39 -11 39 -32c0 -16 -8 -25 -21 -37c-26 -23 -102 -85 -133 -85s-89 62 -109 85c-7 9 -12 17 -12 28c0 26 23 41 50 41c34 0 57 -45 83 -68z" />
    <glyph glyph-name="rcaron" unicode="&#x159;" horiz-adv-x="357" 
d="M347 409c-42 1 -69 2 -115 -23c0 -9 0 -16 -1 -23l-45 -320c-4 -29 -31 -51 -61 -51c-31 0 -51 22 -47 51l45 320c4 28 2 43 -6 58c-5 8 -8 15 -6 27c4 28 31 47 59 47c18 0 32 -12 42 -29c48 27 102 43 137 43c51 0 64 -21 60 -49c-5 -32 -33 -53 -62 -51zM269 642
c32 23 69 68 103 68c22 0 39 -11 39 -32c0 -16 -8 -25 -21 -37c-26 -23 -102 -85 -133 -85s-89 62 -109 85c-7 9 -12 17 -12 28c0 26 23 41 50 41c34 0 57 -45 83 -68z" />
    <glyph glyph-name="Sacute" unicode="&#x15a;" horiz-adv-x="506" 
d="M384 212c0 43 -22 61 -39 70c-86 45 -239 51 -239 203c0 139 100 229 248 229c52 0 176 -12 176 -74c0 -28 -26 -55 -63 -55c-35 0 -55 27 -121 27c-63 0 -125 -25 -125 -109c0 -43 24 -60 40 -69c87 -48 239 -52 239 -202c0 -152 -119 -241 -266 -241
c-67 0 -188 21 -188 79c0 28 28 56 59 56c30 0 64 -33 144 -33c89 0 135 46 135 119zM421 907l12 10c12 10 18 15 35 15s35 -15 35 -36c0 -12 -6 -22 -18 -33l-86 -78c-14 -13 -24 -20 -41 -20c-21 0 -37 15 -37 37c0 27 67 75 100 105z" />
    <glyph glyph-name="sacute" unicode="&#x15b;" horiz-adv-x="426" 
d="M97 343c0 99 70 170 200 170c56 0 134 -14 134 -67c0 -30 -21 -47 -50 -47c-32 0 -44 22 -97 22c-27 0 -78 -6 -78 -54c0 -85 203 -52 203 -202c0 -104 -73 -172 -205 -172c-55 0 -154 12 -154 62c0 16 17 64 63 52c17 -4 58 -23 100 -23c48 0 88 25 88 64
c0 82 -204 46 -204 195zM349 707l12 10c12 10 18 15 35 15s35 -15 35 -36c0 -12 -6 -22 -18 -33l-86 -78c-14 -13 -24 -20 -41 -20c-21 0 -37 15 -37 37c0 27 67 75 100 105z" />
    <glyph glyph-name="Scircumflex" unicode="&#x15c;" horiz-adv-x="506" 
d="M384 212c0 43 -22 61 -39 70c-86 45 -239 51 -239 203c0 139 100 229 248 229c52 0 176 -12 176 -74c0 -28 -26 -55 -63 -55c-35 0 -55 27 -121 27c-63 0 -125 -25 -125 -109c0 -43 24 -60 40 -69c87 -48 239 -52 239 -202c0 -152 -119 -241 -266 -241
c-67 0 -188 21 -188 79c0 28 28 56 59 56c30 0 64 -33 144 -33c89 0 135 46 135 119zM369 825c-29 -21 -71 -65 -97 -65c-18 0 -38 13 -38 32c0 18 22 38 39 50l77 55c9 6 18 11 31 11s22 -5 29 -11l61 -55c12 -10 26 -28 26 -43c0 -24 -27 -39 -49 -39c-26 0 -56 44 -79 65
z" />
    <glyph glyph-name="scircumflex" unicode="&#x15d;" horiz-adv-x="426" 
d="M97 343c0 99 70 170 200 170c56 0 134 -14 134 -67c0 -30 -21 -47 -50 -47c-32 0 -44 22 -97 22c-27 0 -78 -6 -78 -54c0 -85 203 -52 203 -202c0 -104 -73 -172 -205 -172c-55 0 -154 12 -154 62c0 16 17 64 63 52c17 -4 58 -23 100 -23c48 0 88 25 88 64
c0 82 -204 46 -204 195zM299 625c-29 -21 -71 -65 -97 -65c-18 0 -38 13 -38 32c0 18 22 38 39 50l77 55c9 6 18 11 31 11s22 -5 29 -11l61 -55c12 -10 26 -28 26 -43c0 -24 -27 -39 -49 -39c-26 0 -56 44 -79 65z" />
    <glyph glyph-name="Scedilla" unicode="&#x15e;" horiz-adv-x="506" 
d="M352 -110c0 -56 -48 -104 -124 -104c-40 0 -96 15 -96 44c0 20 14 26 31 26c13 0 40 -6 66 -6c33 0 50 18 50 35c0 38 -92 15 -92 56c0 6 2 10 3 13l11 39c-68 5 -155 28 -155 77c0 28 28 56 59 56c30 0 66 -33 144 -33c89 0 135 46 135 120c0 43 -21 59 -38 69
c-91 42 -240 53 -240 203c0 139 100 229 248 229c52 0 176 -12 176 -74c0 -22 -27 -55 -63 -55c-35 0 -55 27 -121 27c-63 0 -125 -25 -125 -109c0 -43 24 -60 40 -69c91 -50 239 -52 239 -202c0 -140 -102 -228 -234 -239c-4 -10 -6 -19 -8 -29c68 -4 94 -33 94 -74z" />
    <glyph glyph-name="scedilla" unicode="&#x15f;" horiz-adv-x="426" 
d="M97 343c0 99 70 170 200 170c56 0 134 -14 134 -67c0 -30 -21 -47 -50 -47c-32 0 -44 22 -97 22c-27 0 -78 -6 -78 -54c0 -85 203 -52 203 -202c0 -97 -64 -163 -183 -171c-2 -10 -5 -20 -8 -30c68 -4 94 -33 94 -74c0 -56 -47 -104 -123 -104c-40 0 -96 11 -96 44
c0 20 13 26 31 26c14 0 41 -6 66 -6c32 0 50 18 50 35c0 37 -92 18 -92 59c0 12 10 35 14 52c-52 5 -112 19 -112 58c0 17 17 65 63 53c17 -4 58 -23 100 -23c48 0 88 25 88 64c0 82 -204 46 -204 195z" />
    <glyph glyph-name="Scaron" unicode="&#x160;" horiz-adv-x="506" 
d="M384 212c0 43 -22 61 -39 70c-86 45 -239 51 -239 203c0 139 100 229 248 229c52 0 176 -12 176 -74c0 -28 -26 -55 -63 -55c-35 0 -55 27 -121 27c-63 0 -125 -25 -125 -109c0 -43 24 -60 40 -69c87 -48 239 -52 239 -202c0 -152 -119 -241 -266 -241
c-67 0 -188 21 -188 79c0 28 28 56 59 56c30 0 64 -33 144 -33c89 0 135 46 135 119zM371 842c32 23 69 68 103 68c22 0 39 -11 39 -32c0 -16 -8 -25 -21 -37c-26 -23 -102 -85 -133 -85s-89 62 -109 85c-7 9 -12 17 -12 28c0 26 23 41 50 41c34 0 57 -45 83 -68z" />
    <glyph glyph-name="scaron" unicode="&#x161;" horiz-adv-x="426" 
d="M97 343c0 99 70 170 200 170c56 0 134 -14 134 -67c0 -30 -21 -47 -50 -47c-32 0 -44 22 -97 22c-27 0 -78 -6 -78 -54c0 -85 203 -52 203 -202c0 -104 -73 -172 -205 -172c-55 0 -154 12 -154 62c0 16 17 64 63 52c17 -4 58 -23 100 -23c48 0 88 25 88 64
c0 82 -204 46 -204 195zM310 642c32 23 69 68 103 68c22 0 39 -11 39 -32c0 -16 -8 -25 -21 -37c-26 -23 -102 -85 -133 -85s-89 62 -109 85c-7 9 -12 17 -12 28c0 26 23 41 50 41c34 0 57 -45 83 -68z" />
    <glyph glyph-name="uni0162" unicode="&#x162;" horiz-adv-x="503" 
d="M371 -110c0 -56 -48 -104 -124 -104c-45 0 -95 19 -95 45c0 19 14 25 30 25c13 0 40 -6 66 -6c34 0 50 18 50 35c0 38 -92 15 -92 56c0 6 2 10 3 13l13 44c-15 8 -24 25 -21 44l79 560h-121c-22 0 -48 24 -48 47c0 24 30 56 63 56h352c18 0 49 -23 49 -49
c0 -23 -33 -54 -64 -54h-121l-79 -560c-2 -13 -10 -26 -21 -34l-13 -44c69 -4 94 -33 94 -74z" />
    <glyph glyph-name="uni0163" unicode="&#x163;" horiz-adv-x="341" 
d="M263 608l-17 -124h88c25 0 45 -19 45 -44c0 -29 -28 -53 -58 -53h-89l-28 -198c-8 -71 0 -97 54 -97c7 0 14 1 18 1c39 0 62 -10 62 -38c0 -51 -43 -59 -83 -59c-12 0 -25 1 -37 3c-5 -13 -7 -25 -9 -35c68 -4 94 -33 94 -74c0 -59 -49 -104 -128 -104
c-39 0 -91 13 -91 44c0 20 13 26 31 26c14 0 41 -6 66 -6c32 0 50 18 50 35c0 14 -11 22 -38 27c-36 7 -54 5 -54 30c0 18 11 47 20 69c-65 28 -75 94 -61 194l57 403c4 28 26 50 61 50c34 0 51 -23 47 -50z" />
    <glyph glyph-name="Tcaron" unicode="&#x164;" horiz-adv-x="503" 
d="M202 42l79 560h-121c-32 0 -52 24 -48 51c3 23 31 52 62 52h352c28 0 53 -23 49 -52c-4 -27 -33 -51 -63 -51h-121l-79 -560c-4 -27 -32 -52 -62 -52c-31 0 -52 25 -48 52zM369 842c32 23 69 68 103 68c22 0 39 -11 39 -32c0 -16 -8 -25 -21 -37
c-26 -23 -102 -85 -133 -85s-89 62 -109 85c-7 9 -12 17 -12 28c0 26 23 41 50 41c34 0 57 -45 83 -68z" />
    <glyph glyph-name="tcaron" unicode="&#x165;" horiz-adv-x="499" 
d="M98 205l57 403c4 28 26 50 61 50c34 0 51 -23 47 -50l-17 -124h88c28 0 49 -21 45 -49c-4 -27 -30 -48 -58 -48h-89l-25 -175c-12 -88 -9 -120 51 -120c7 0 15 1 19 1c43 0 65 -11 60 -45c-6 -46 -45 -52 -84 -52c-147 0 -174 72 -155 209zM432 504c5 33 32 48 48 91
c-33 5 -53 32 -48 65c5 35 39 65 78 65c36 0 64 -28 58 -67c-9 -64 -73 -185 -111 -185c-13 0 -32 5 -25 31z" />
    <glyph glyph-name="Utilde" unicode="&#x168;" horiz-adv-x="592" 
d="M565 235c-20 -142 -123 -245 -271 -245c-152 0 -221 104 -201 245l60 425c4 31 31 54 63 54c29 0 51 -24 47 -54l-60 -425c-12 -84 20 -142 106 -142c85 0 133 59 145 142l60 425c4 29 30 54 61 54c32 0 54 -25 50 -54zM563 851c0 -41 -57 -71 -96 -72
c-48 0 -72 33 -101 36c-33 2 -41 -31 -68 -31c-17 0 -34 12 -34 30c0 42 48 76 95 76c49 0 70 -34 101 -36c34 0 40 31 68 32c19 0 35 -15 35 -35z" />
    <glyph glyph-name="utilde" unicode="&#x169;" horiz-adv-x="529" 
d="M386 32c-49 -29 -100 -40 -146 -40c-113 0 -161 78 -145 193l39 276c4 28 26 49 61 49c34 0 51 -21 47 -49l-39 -276c-9 -64 12 -100 64 -100c30 0 64 10 98 27c0 9 0 17 1 24l46 325c4 28 25 49 61 49s51 -21 47 -49l-47 -335c-5 -35 2 -39 10 -53c5 -7 9 -15 8 -27
c-4 -29 -32 -48 -58 -48c-22 0 -37 14 -47 34zM503 651c0 -41 -57 -71 -96 -72c-48 0 -72 33 -101 36c-33 2 -41 -31 -68 -31c-17 0 -34 12 -34 30c0 42 48 76 95 76c49 0 70 -34 101 -36c34 0 40 31 68 32c19 0 35 -15 35 -35z" />
    <glyph glyph-name="Umacron" unicode="&#x16a;" horiz-adv-x="592" 
d="M565 235c-20 -142 -123 -245 -271 -245c-152 0 -221 104 -201 245l60 425c4 31 31 54 63 54c29 0 51 -24 47 -54l-60 -425c-12 -84 20 -142 106 -142c85 0 133 59 145 142l60 425c4 29 30 54 61 54c32 0 54 -25 50 -54zM590 838c0 -27 -26 -48 -53 -48h-259
c-27 0 -44 19 -41 43c4 24 27 44 54 44h259c23 0 40 -18 40 -39z" />
    <glyph glyph-name="umacron" unicode="&#x16b;" horiz-adv-x="529" 
d="M386 32c-49 -29 -100 -40 -146 -40c-113 0 -161 78 -145 193l39 276c4 28 26 49 61 49c34 0 51 -21 47 -49l-39 -276c-9 -64 12 -100 64 -100c30 0 64 10 98 27c0 9 0 17 1 24l46 325c4 28 25 49 61 49s51 -21 47 -49l-47 -335c-5 -35 2 -39 10 -53c5 -7 9 -15 8 -27
c-4 -29 -32 -48 -58 -48c-22 0 -37 14 -47 34zM530 638c0 -27 -26 -48 -53 -48h-259c-27 0 -44 19 -41 43c4 24 27 44 54 44h259c23 0 40 -18 40 -39z" />
    <glyph glyph-name="Ubreve" unicode="&#x16c;" horiz-adv-x="592" 
d="M565 235c-20 -142 -123 -245 -271 -245c-152 0 -221 104 -201 245l60 425c4 31 31 54 63 54c29 0 51 -24 47 -54l-60 -425c-12 -84 20 -142 106 -142c85 0 133 59 145 142l60 425c4 29 30 54 61 54c32 0 54 -25 50 -54zM414 839c30 0 49 18 67 36c12 12 23 19 40 19
c21 0 42 -11 29 -46c-21 -55 -99 -86 -148 -86c-52 0 -118 34 -123 86c-3 35 22 46 43 46c19 0 27 -10 34 -19c13 -18 27 -36 58 -36z" />
    <glyph glyph-name="ubreve" unicode="&#x16d;" horiz-adv-x="529" 
d="M386 32c-49 -29 -100 -40 -146 -40c-113 0 -161 78 -145 193l39 276c4 28 26 49 61 49c34 0 51 -21 47 -49l-39 -276c-9 -64 12 -100 64 -100c30 0 64 10 98 27c0 9 0 17 1 24l46 325c4 28 25 49 61 49s51 -21 47 -49l-47 -335c-5 -35 2 -39 10 -53c5 -7 9 -15 8 -27
c-4 -29 -32 -48 -58 -48c-22 0 -37 14 -47 34zM354 639c30 0 49 18 67 36c12 12 23 19 40 19c21 0 42 -11 29 -46c-21 -55 -99 -86 -148 -86c-52 0 -118 34 -123 86c-3 35 22 46 43 46c19 0 27 -10 34 -19c13 -18 27 -36 58 -36z" />
    <glyph glyph-name="Uring" unicode="&#x16e;" horiz-adv-x="592" 
d="M565 235c-20 -142 -123 -245 -271 -245c-152 0 -221 104 -201 245l60 425c4 31 31 54 63 54c29 0 51 -24 47 -54l-60 -425c-12 -84 20 -142 106 -142c85 0 133 59 145 142l60 425c4 29 30 54 61 54c32 0 54 -25 50 -54zM519 856c0 -64 -56 -116 -119 -116
c-59 0 -99 46 -91 104c8 57 61 104 120 104c53 0 90 -41 90 -92zM464 850c0 24 -18 44 -43 44c-27 0 -52 -23 -56 -50s15 -49 42 -49c30 0 57 25 57 55z" />
    <glyph glyph-name="uring" unicode="&#x16f;" horiz-adv-x="529" 
d="M386 32c-49 -29 -100 -40 -146 -40c-113 0 -161 78 -145 193l39 276c4 28 26 49 61 49c34 0 51 -21 47 -49l-39 -276c-9 -64 12 -100 64 -100c30 0 64 10 98 27c0 9 0 17 1 24l46 325c4 28 25 49 61 49s51 -21 47 -49l-47 -335c-5 -35 2 -39 10 -53c5 -7 9 -15 8 -27
c-4 -29 -32 -48 -58 -48c-22 0 -37 14 -47 34zM460 656c0 -64 -56 -116 -119 -116c-59 0 -99 46 -91 104c8 57 61 104 120 104c53 0 90 -41 90 -92zM405 650c0 24 -18 44 -43 44c-27 0 -52 -23 -56 -50s15 -49 42 -49c30 0 57 25 57 55z" />
    <glyph glyph-name="Uhungarumlaut" unicode="&#x170;" horiz-adv-x="592" 
d="M565 235c-20 -142 -123 -245 -271 -245c-152 0 -221 104 -201 245l60 425c4 31 31 54 63 54c29 0 51 -24 47 -54l-60 -425c-12 -84 20 -142 106 -142c85 0 133 59 145 142l60 425c4 29 30 54 61 54c32 0 54 -25 50 -54zM297 815l76 92c14 15 25 32 49 32
c19 0 36 -19 36 -39c0 -10 -4 -16 -12 -25l-72 -90c-14 -17 -26 -27 -46 -27c-21 0 -37 18 -37 38c0 10 2 14 6 19zM450 815l76 92c12 15 25 32 48 32c19 0 38 -20 38 -39c0 -7 -3 -12 -8 -18l-78 -97c-13 -16 -24 -27 -45 -27s-38 18 -38 38c0 9 3 14 7 19z" />
    <glyph glyph-name="uhungarumlaut" unicode="&#x171;" horiz-adv-x="529" 
d="M386 32c-49 -29 -100 -40 -146 -40c-113 0 -161 78 -145 193l39 276c4 28 26 49 61 49c34 0 51 -21 47 -49l-39 -276c-9 -64 12 -100 64 -100c30 0 64 10 98 27c0 9 0 17 1 24l46 325c4 28 25 49 61 49s51 -21 47 -49l-47 -335c-5 -35 2 -39 10 -53c5 -7 9 -15 8 -27
c-4 -29 -32 -48 -58 -48c-22 0 -37 14 -47 34zM232 615l76 92c14 15 25 32 49 32c19 0 36 -19 36 -39c0 -10 -4 -16 -12 -25l-72 -90c-14 -17 -26 -27 -46 -27c-21 0 -37 18 -37 38c0 10 2 14 6 19zM385 615l76 92c12 15 25 32 48 32c19 0 38 -20 38 -39c0 -7 -3 -12 -8 -18
l-78 -97c-13 -16 -24 -27 -45 -27s-38 18 -38 38c0 9 3 14 7 19z" />
    <glyph glyph-name="Uogonek" unicode="&#x172;" horiz-adv-x="592" 
d="M565 235c-14 -101 -71 -182 -154 -220c-26 -35 -62 -80 -62 -116c0 -17 9 -29 31 -29c18 0 30 4 42 4c18 0 31 -14 31 -31c0 -43 -55 -50 -92 -50c-61 0 -100 26 -100 81c0 39 21 79 53 117h-19c-152 0 -222 103 -202 244l60 425c4 31 31 54 63 54c29 0 51 -24 47 -54
l-60 -425c-12 -84 20 -142 106 -142c85 0 133 59 145 142l60 425c4 29 30 54 61 54c32 0 54 -25 50 -54z" />
    <glyph glyph-name="uogonek" unicode="&#x173;" horiz-adv-x="529" 
d="M242 461l-39 -276c-9 -64 13 -100 64 -100c30 0 64 10 98 27c-1 8 0 16 1 24l46 325c3 25 25 49 61 49s51 -21 47 -49l-47 -335c-7 -49 18 -48 18 -75c0 -16 -9 -27 -17 -36l-12 -14c-26 -30 -49 -70 -49 -102c0 -17 10 -29 31 -29c18 0 30 4 42 4c18 0 32 -14 32 -31
c0 -43 -56 -50 -93 -50c-61 0 -100 26 -100 81c0 47 31 95 74 138c-5 6 -9 12 -13 20c-49 -29 -100 -39 -146 -39c-123 0 -160 84 -142 210l36 258c3 25 25 49 61 49s51 -21 47 -49z" />
    <glyph glyph-name="Wcircumflex" unicode="&#x174;" horiz-adv-x="803" 
d="M509 51l-24 248c-7 68 -9 137 -13 206c-53 -153 -109 -304 -165 -456c-12 -27 -33 -58 -76 -58c-35 0 -57 29 -60 59c-23 204 -45 409 -65 613c4 30 39 48 67 48c22 0 42 -12 45 -39c9 -94 19 -188 29 -281c7 -65 8 -132 13 -197c25 68 46 141 73 210l93 244
c16 42 31 66 75 66c42 0 53 -26 57 -66l23 -244c7 -70 8 -141 14 -211c23 66 45 132 70 198l106 280c11 25 32 40 55 40c26 0 56 -14 56 -44c0 -7 -1 -11 -4 -17l-233 -600c-14 -31 -37 -59 -76 -59s-57 29 -60 60zM517 825c-29 -21 -71 -65 -97 -65c-18 0 -38 13 -38 32
c0 18 22 38 39 50l77 55c9 6 18 11 31 11s22 -5 29 -11l61 -55c12 -10 26 -28 26 -43c0 -24 -27 -39 -49 -39c-26 0 -56 44 -79 65z" />
    <glyph glyph-name="wcircumflex" unicode="&#x175;" horiz-adv-x="675" 
d="M717 452l-173 -408c-15 -34 -33 -51 -71 -51c-27 0 -53 14 -56 41l-30 317c-39 -107 -77 -212 -120 -317c-12 -30 -33 -41 -66 -41c-36 0 -53 19 -58 52l-59 407v5c0 27 28 53 61 53c22 0 42 -13 45 -36l23 -188c6 -51 5 -103 8 -155c22 60 39 120 62 179l61 157
c10 25 34 43 66 43c31 0 48 -18 51 -43l17 -157c6 -59 8 -119 13 -179c17 52 32 104 52 155l74 188c8 20 34 36 56 36c26 0 47 -19 47 -44c0 -7 -2 -12 -3 -14zM424 625c-29 -21 -71 -65 -97 -65c-18 0 -38 13 -38 32c0 18 22 38 39 50l77 55c9 6 18 11 31 11s22 -5 29 -11
l61 -55c12 -10 26 -28 26 -43c0 -24 -27 -39 -49 -39c-26 0 -56 44 -79 65z" />
    <glyph glyph-name="Ycircumflex" unicode="&#x176;" horiz-adv-x="503" 
d="M250 -10c-31 0 -53 25 -49 54l33 232l-126 361c-1 6 -3 16 -2 24c4 29 36 53 64 53c17 0 34 -7 40 -23l98 -288l178 288c12 16 31 23 48 23c29 0 52 -24 48 -53c-1 -7 -5 -18 -9 -24l-227 -362l-33 -231c-4 -28 -31 -54 -63 -54zM367 825c-29 -21 -71 -65 -97 -65
c-18 0 -38 13 -38 32c0 18 22 38 39 50l77 55c9 6 18 11 31 11s22 -5 29 -11l61 -55c12 -10 26 -28 26 -43c0 -24 -27 -39 -49 -39c-26 0 -56 44 -79 65z" />
    <glyph glyph-name="ycircumflex" unicode="&#x177;" horiz-adv-x="529" 
d="M530 461l-71 -498c-15 -105 -85 -187 -220 -187c-50 0 -144 15 -144 66c0 27 26 50 56 50c6 0 13 0 22 -4c22 -9 39 -20 71 -20c67 0 100 35 108 95l8 57c-36 -17 -73 -27 -117 -27c-133 0 -164 80 -149 186l39 282c4 28 26 49 61 49c34 0 51 -21 47 -49l-39 -282
c-8 -59 10 -95 70 -95c35 0 71 11 102 36l48 341c3 28 24 49 60 49s52 -21 48 -49zM361 625c-29 -21 -71 -65 -97 -65c-18 0 -38 13 -38 32c0 18 22 38 39 50l77 55c9 6 18 11 31 11s22 -5 29 -11l61 -55c12 -10 26 -28 26 -43c0 -24 -27 -39 -49 -39c-26 0 -56 44 -79 65z
" />
    <glyph glyph-name="Ydieresis" unicode="&#x178;" horiz-adv-x="503" 
d="M250 -10c-31 0 -53 25 -49 54l33 232l-126 361c-1 6 -3 16 -2 24c4 29 36 53 64 53c17 0 34 -7 40 -23l98 -288l178 288c12 16 31 23 48 23c29 0 52 -24 48 -53c-1 -7 -5 -18 -9 -24l-227 -362l-33 -231c-4 -28 -31 -54 -63 -54zM512 840c0 -34 -31 -62 -65 -62
c-31 0 -53 26 -49 56c4 29 34 54 65 54c28 0 49 -21 49 -48zM338 840c0 -34 -31 -62 -66 -62c-31 0 -51 26 -47 56c4 29 32 54 63 54c29 0 50 -21 50 -48z" />
    <glyph glyph-name="Zacute" unicode="&#x179;" horiz-adv-x="504" 
d="M487 58c0 -32 -30 -58 -63 -58h-343c-33 0 -53 25 -49 56c2 11 11 29 18 38c60 81 305 424 366 506h-251c-31 0 -51 23 -47 52c4 28 31 53 62 53h339c33 0 54 -25 50 -55c-2 -15 -10 -27 -17 -37l-370 -509h257c27 0 48 -19 48 -46zM424 907l12 10c12 10 18 15 35 15
s35 -15 35 -36c0 -12 -6 -22 -18 -33l-86 -78c-14 -13 -24 -20 -41 -20c-21 0 -37 15 -37 37c0 27 67 75 100 105z" />
    <glyph glyph-name="zacute" unicode="&#x17a;" horiz-adv-x="409" 
d="M458 460c0 -12 -4 -27 -16 -41l-278 -324h193c30 0 49 -21 45 -48c-3 -26 -28 -47 -58 -47h-277c-29 0 -52 23 -48 53c2 10 6 20 15 31l278 326h-182c-28 0 -48 21 -44 47c4 28 30 48 58 48h265c27 0 49 -17 49 -45zM346 707l12 10c12 10 18 15 35 15s35 -15 35 -36
c0 -12 -6 -22 -18 -33l-86 -78c-14 -13 -24 -20 -41 -20c-21 0 -37 15 -37 37c0 27 67 75 100 105z" />
    <glyph glyph-name="Zdotaccent" unicode="&#x17b;" horiz-adv-x="504" 
d="M487 58c0 -32 -30 -58 -63 -58h-343c-33 0 -53 25 -49 56c2 11 11 29 18 38c60 81 305 424 366 506h-251c-31 0 -51 23 -47 52c4 28 31 53 62 53h339c33 0 54 -25 50 -55c-2 -15 -10 -27 -17 -37l-370 -509h257c27 0 48 -19 48 -46zM425 833c0 -34 -31 -62 -66 -62
c-31 0 -51 26 -47 56c4 29 32 54 63 54c29 0 50 -21 50 -48z" />
    <glyph glyph-name="zdotaccent" unicode="&#x17c;" horiz-adv-x="409" 
d="M458 460c0 -12 -4 -27 -16 -41l-278 -324h193c30 0 49 -21 45 -48c-3 -26 -28 -47 -58 -47h-277c-29 0 -52 23 -48 53c2 10 6 20 15 31l278 326h-182c-28 0 -48 21 -44 47c4 28 30 48 58 48h265c27 0 49 -17 49 -45zM349 633c0 -34 -31 -62 -66 -62c-31 0 -51 26 -47 56
c4 29 32 54 63 54c29 0 50 -21 50 -48z" />
    <glyph glyph-name="Zcaron" unicode="&#x17d;" horiz-adv-x="504" 
d="M487 58c0 -32 -30 -58 -63 -58h-343c-33 0 -53 25 -49 56c2 11 11 29 18 38c60 81 305 424 366 506h-251c-31 0 -51 23 -47 52c4 28 31 53 62 53h339c33 0 54 -25 50 -55c-2 -15 -10 -27 -17 -37l-370 -509h257c27 0 48 -19 48 -46zM370 842c32 23 69 68 103 68
c22 0 39 -11 39 -32c0 -16 -8 -25 -21 -37c-26 -23 -102 -85 -133 -85s-89 62 -109 85c-7 9 -12 17 -12 28c0 26 23 41 50 41c34 0 57 -45 83 -68z" />
    <glyph glyph-name="zcaron" unicode="&#x17e;" horiz-adv-x="404" 
d="M458 460c0 -12 -4 -27 -16 -41l-278 -324h193c30 0 49 -21 45 -48c-3 -26 -28 -47 -58 -47h-277c-29 0 -52 23 -48 53c2 10 6 20 15 31l278 326h-182c-28 0 -48 21 -44 47c4 28 30 48 58 48h265c27 0 49 -17 49 -45zM293 642c32 23 69 68 103 68c22 0 39 -11 39 -32
c0 -16 -8 -25 -21 -37c-26 -23 -102 -85 -133 -85s-89 62 -109 85c-7 9 -12 17 -12 28c0 26 23 41 50 41c34 0 57 -45 83 -68z" />
    <glyph glyph-name="florin" unicode="&#x192;" horiz-adv-x="512" 
d="M595 657c0 -49 -31 -50 -55 -50c-11 0 -23 2 -30 2c-30 0 -57 -16 -68 -49l-35 -108h53c27 0 57 -5 57 -40c0 -50 -39 -52 -72 -52h-68l-121 -369c-34 -118 -88 -190 -201 -190c-40 0 -77 4 -77 33c0 15 8 26 20 33c3 19 19 30 40 30h20c1 0 3 -1 4 -1c43 0 63 23 79 74
l126 390h-51c-30 0 -57 5 -57 39c0 39 27 53 56 53h83c43 141 72 252 230 252c31 0 67 -7 67 -47z" />
    <glyph glyph-name="uni0218" unicode="&#x218;" horiz-adv-x="506" 
d="M384 212c0 43 -22 61 -39 70c-86 45 -239 51 -239 203c0 139 100 229 248 229c52 0 176 -12 176 -74c0 -28 -26 -55 -63 -55c-35 0 -55 27 -121 27c-63 0 -125 -25 -125 -109c0 -43 24 -60 40 -69c87 -48 239 -52 239 -202c0 -152 -119 -241 -266 -241
c-67 0 -188 21 -188 79c0 28 28 56 59 56c30 0 64 -33 144 -33c89 0 135 46 135 119zM303 -97c0 -54 -72 -141 -106 -141c-9 0 -18 5 -16 17c3 21 30 34 46 62c-34 2 -57 17 -52 54c5 31 28 54 71 54c40 0 57 -21 57 -46z" />
    <glyph glyph-name="uni0219" unicode="&#x219;" horiz-adv-x="426" 
d="M97 343c0 99 70 170 200 170c56 0 134 -14 134 -67c0 -30 -21 -47 -50 -47c-32 0 -44 22 -97 22c-27 0 -78 -6 -78 -54c0 -85 203 -52 203 -202c0 -104 -73 -172 -205 -172c-55 0 -154 12 -154 62c0 16 17 64 63 52c17 -4 58 -23 100 -23c48 0 88 25 88 64
c0 82 -204 46 -204 195zM263 -97c0 -54 -72 -141 -106 -141c-9 0 -18 5 -16 17c3 21 30 34 46 62c-34 2 -57 17 -52 54c5 31 28 54 71 54c40 0 57 -21 57 -46z" />
    <glyph glyph-name="uni021A" unicode="&#x21a;" horiz-adv-x="503" 
d="M202 42l79 560h-121c-32 0 -52 24 -48 51c3 23 31 52 62 52h352c28 0 53 -23 49 -52c-4 -27 -33 -51 -63 -51h-121l-79 -560c-4 -27 -32 -52 -62 -52c-31 0 -52 25 -48 52zM301 -97c0 -54 -72 -141 -106 -141c-9 0 -18 5 -16 17c3 21 30 34 46 62c-34 2 -57 17 -52 54
c5 31 28 54 71 54c40 0 57 -21 57 -46z" />
    <glyph glyph-name="uni021B" unicode="&#x21b;" horiz-adv-x="341" 
d="M98 205l57 403c4 28 26 50 61 50c34 0 51 -23 47 -50l-17 -124h88c28 0 49 -21 45 -49c-4 -27 -30 -48 -58 -48h-89l-25 -175c-12 -88 -9 -120 51 -120c7 0 15 1 19 1c43 0 65 -11 60 -45c-6 -46 -45 -52 -84 -52c-147 0 -174 72 -155 209zM272 -97
c0 -54 -72 -141 -106 -141c-9 0 -18 5 -16 17c3 21 30 34 46 62c-34 2 -57 17 -52 54c5 31 28 54 71 54c40 0 57 -21 57 -46z" />
    <glyph glyph-name="dotlessj" unicode="&#x237;" horiz-adv-x="265" 
d="M251 467l-65 -467c-16 -113 -92 -195 -203 -195c-23 0 -40 14 -42 36v-1v10c0 30 30 45 50 49c46 10 77 35 86 97l66 471c4 28 31 51 62 51c30 0 50 -23 46 -51z" />
    <glyph glyph-name="circumflex" unicode="&#x2c6;" horiz-adv-x="416" 
d="M299 625c-29 -21 -71 -65 -97 -65c-18 0 -38 13 -38 32c0 18 22 38 39 50l77 55c9 6 18 11 31 11s22 -5 29 -11l61 -55c12 -10 26 -28 26 -43c0 -24 -27 -39 -49 -39c-26 0 -56 44 -79 65z" />
    <glyph glyph-name="caron" unicode="&#x2c7;" horiz-adv-x="411" 
d="M301 642c32 23 69 68 103 68c22 0 39 -11 39 -32c0 -16 -8 -25 -21 -37c-26 -23 -102 -85 -133 -85s-89 62 -109 85c-7 9 -12 17 -12 28c0 26 23 41 50 41c34 0 57 -45 83 -68z" />
    <glyph glyph-name="breve" unicode="&#x2d8;" horiz-adv-x="387" 
d="M283 639c30 0 49 18 67 36c12 12 23 19 40 19c21 0 42 -11 29 -46c-21 -55 -99 -86 -148 -86c-52 0 -118 34 -123 86c-3 35 22 46 43 46c19 0 27 -10 34 -19c13 -18 27 -36 58 -36z" />
    <glyph glyph-name="dotaccent" unicode="&#x2d9;" horiz-adv-x="264" 
d="M277 633c0 -34 -31 -62 -66 -62c-31 0 -51 26 -47 56c4 29 32 54 63 54c29 0 50 -21 50 -48z" />
    <glyph glyph-name="ring" unicode="&#x2da;" horiz-adv-x="591" 
d="M477 656c0 -64 -56 -116 -119 -116c-59 0 -99 46 -91 104c8 57 61 104 120 104c53 0 90 -41 90 -92zM422 650c0 24 -18 44 -43 44c-27 0 -52 -23 -56 -50s15 -49 42 -49c30 0 57 25 57 55z" />
    <glyph glyph-name="ogonek" unicode="&#x2db;" horiz-adv-x="342" 
d="M248 -158c0 -42 -57 -49 -93 -49c-61 0 -100 26 -100 81c0 43 25 86 59 126h81l-19 -26c-18 -25 -33 -53 -33 -75c0 -18 11 -28 35 -28c22 0 30 3 38 3c17 0 32 -15 32 -32z" />
    <glyph glyph-name="tilde" unicode="&#x2dc;" horiz-adv-x="395" 
d="M434 651c0 -41 -57 -71 -96 -72c-48 0 -72 33 -101 36c-33 2 -41 -31 -68 -31c-17 0 -34 12 -34 30c0 42 48 76 95 76c49 0 70 -34 101 -36c34 0 40 31 68 32c19 0 35 -15 35 -35z" />
    <glyph glyph-name="hungarumlaut" unicode="&#x2dd;" horiz-adv-x="430" 
d="M158 615l76 92c14 15 25 32 49 32c19 0 36 -19 36 -39c0 -10 -4 -16 -12 -25l-72 -90c-14 -17 -26 -27 -46 -27c-21 0 -37 18 -37 38c0 10 2 14 6 19zM311 615l76 92c12 15 25 32 48 32c19 0 38 -20 38 -39c0 -7 -3 -12 -8 -18l-78 -97c-13 -16 -24 -27 -45 -27
s-38 18 -38 38c0 9 3 14 7 19z" />
    <glyph glyph-name="uni0400" unicode="&#x400;" horiz-adv-x="494" 
d="M474 58c0 -32 -30 -58 -63 -58h-265c-41 0 -76 14 -70 59l83 587c4 29 34 59 70 59h271c30 0 52 -24 48 -53s-32 -50 -62 -50h-223l-28 -197h204c27 0 51 -22 47 -51s-32 -52 -62 -52h-204l-28 -200h233c27 0 49 -20 49 -44zM372 907c24 -28 72 -74 72 -98
c0 -25 -24 -44 -48 -44c-17 0 -26 7 -36 20l-64 78c-6 8 -9 16 -9 24c0 26 25 45 46 45c17 0 23 -5 31 -15z" />
    <glyph glyph-name="uni0401" unicode="&#x401;" horiz-adv-x="494" 
d="M474 58c0 -32 -30 -58 -63 -58h-265c-41 0 -76 14 -70 59l83 587c4 29 34 59 70 59h271c30 0 52 -24 48 -53s-32 -50 -62 -50h-223l-28 -197h204c27 0 51 -22 47 -51s-32 -52 -62 -52h-204l-28 -200h233c27 0 49 -20 49 -44zM535 840c0 -34 -31 -62 -65 -62
c-31 0 -53 26 -49 56c4 29 34 54 65 54c28 0 49 -21 49 -48zM361 840c0 -34 -31 -62 -66 -62c-31 0 -51 26 -47 56c4 29 32 54 63 54c29 0 50 -21 50 -48z" />
    <glyph glyph-name="uni0402" unicode="&#x402;" horiz-adv-x="664" 
d="M162 42l79 561h-82c-32 0 -51 25 -47 50c3 25 31 52 62 52h352c28 0 53 -22 49 -51c-4 -28 -34 -51 -64 -51h-161l-24 -171c40 16 82 23 119 23c125 0 196 -65 196 -190c0 -161 -88 -275 -217 -275c-62 0 -102 31 -97 67c4 27 29 48 56 48c21 0 20 -12 48 -12
c62 0 99 59 99 159c0 73 -35 100 -106 100c-36 0 -77 -8 -113 -27l-39 -283c-4 -27 -33 -52 -63 -52c-31 0 -51 25 -47 52z" />
    <glyph glyph-name="uni0403" unicode="&#x403;" horiz-adv-x="466" 
d="M420 907l12 10c12 10 18 15 35 15s35 -15 35 -36c0 -12 -6 -22 -18 -33l-86 -78c-14 -13 -24 -20 -41 -20c-21 0 -37 15 -37 37c0 27 67 75 100 105zM262 603l-78 -560c-4 -27 -33 -52 -63 -52c-31 0 -51 25 -47 52l85 605c4 28 33 57 68 57h272c30 0 50 -24 47 -51
c-4 -29 -32 -51 -62 -51h-222z" />
    <glyph glyph-name="uni0404" unicode="&#x404;" horiz-adv-x="502" 
d="M75 250l29 206c22 156 111 258 276 258c94 0 179 -41 179 -91c0 -28 -27 -53 -58 -53c-19 0 -25 6 -38 16c-22 17 -56 31 -91 31c-102 0 -144 -62 -158 -161l-7 -51h171c25 0 46 -19 46 -45c0 -32 -28 -59 -61 -59h-171l-7 -51c-14 -99 10 -161 112 -161
c64 0 108 46 143 46c26 0 45 -19 45 -42c0 -55 -104 -101 -206 -101c-165 0 -226 102 -204 258z" />
    <glyph glyph-name="uni0405" unicode="&#x405;" horiz-adv-x="506" 
d="M384 212c0 43 -22 61 -39 70c-86 45 -239 51 -239 203c0 139 100 229 248 229c52 0 176 -12 176 -74c0 -28 -26 -55 -63 -55c-35 0 -55 27 -121 27c-63 0 -125 -25 -125 -109c0 -43 24 -60 40 -69c87 -48 239 -52 239 -202c0 -152 -119 -241 -266 -241
c-67 0 -188 21 -188 79c0 28 28 56 59 56c30 0 64 -33 144 -33c89 0 135 46 135 119z" />
    <glyph glyph-name="uni0406" unicode="&#x406;" horiz-adv-x="247" 
d="M74 42l87 620c4 28 31 52 62 52c30 0 52 -24 48 -52l-87 -620c-4 -27 -33 -52 -63 -52c-31 0 -51 25 -47 52z" />
    <glyph glyph-name="uni0407" unicode="&#x407;" horiz-adv-x="247" 
d="M74 42l87 620c4 28 31 52 62 52c30 0 52 -24 48 -52l-87 -620c-4 -27 -33 -52 -63 -52c-31 0 -51 25 -47 52zM385 840c0 -34 -31 -62 -65 -62c-31 0 -53 26 -49 56c4 29 34 54 65 54c28 0 49 -21 49 -48zM211 840c0 -34 -31 -62 -66 -62c-31 0 -51 26 -47 56
c4 29 32 54 63 54c29 0 50 -21 50 -48z" />
    <glyph glyph-name="uni0408" unicode="&#x408;" horiz-adv-x="405" 
d="M430 662l-61 -432c-21 -149 -85 -240 -251 -240c-33 0 -99 4 -92 57c5 33 36 51 58 51c17 0 32 -6 60 -6c79 0 103 53 115 138l61 432c4 29 30 52 62 52c29 0 52 -24 48 -52z" />
    <glyph glyph-name="uni0409" unicode="&#x409;" horiz-adv-x="904" 
d="M521 603h-164l-90 -428c-23 -108 -74 -182 -165 -182c-45 0 -82 0 -82 41c0 42 26 64 58 64c7 0 10 -3 27 -3c26 0 42 25 53 76l103 479c6 34 37 55 66 55h261c32 0 55 -25 51 -55l-27 -194h79c131 0 211 -69 211 -192c0 -128 -73 -264 -275 -264h-127
c-34 0 -60 27 -55 60zM562 102h55c126 0 174 54 174 150c0 69 -40 101 -115 101h-79z" />
    <glyph glyph-name="uni040A" unicode="&#x40a;" horiz-adv-x="868" 
d="M220 301l-36 -258c-4 -28 -32 -52 -62 -52c-31 0 -52 24 -48 52l87 619c4 28 31 52 62 52c30 0 52 -24 48 -52l-36 -258h223l36 256c4 30 33 54 62 54c30 0 52 -25 48 -54l-29 -204h80c131 0 211 -69 211 -192c0 -128 -73 -264 -275 -264h-127c-34 0 -60 27 -55 60
l34 241h-223zM561 353l-36 -251h80c131 0 150 91 150 150c0 69 -39 101 -114 101h-80z" />
    <glyph glyph-name="uni040B" unicode="&#x40b;" horiz-adv-x="664" 
d="M575 659c0 -30 -31 -56 -63 -56h-161l-25 -173c40 17 80 25 122 25c138 0 210 -81 190 -226l-26 -185c-4 -28 -33 -54 -63 -54c-29 0 -51 25 -47 54l26 184c12 89 -23 124 -103 124c-39 0 -78 -8 -113 -27l-40 -283c-4 -27 -33 -52 -63 -52c-31 0 -51 25 -47 52l79 561
h-81c-32 0 -52 24 -48 50c3 24 31 52 62 52h352c26 0 49 -20 49 -46z" />
    <glyph glyph-name="uni040C" unicode="&#x40c;" horiz-adv-x="536" 
d="M450 907l12 10c12 10 18 15 35 15s35 -15 35 -36c0 -12 -6 -22 -18 -33l-86 -78c-14 -13 -24 -20 -41 -20c-21 0 -37 15 -37 37c0 27 67 75 100 105zM271 662l-36 -258h35l244 286c14 17 31 24 49 24c33 0 49 -31 46 -55c-2 -8 -5 -16 -12 -26l-244 -281l165 -280
c4 -11 5 -19 4 -27c-3 -23 -28 -55 -61 -55c-18 0 -33 8 -42 24l-165 287h-34l-36 -258c-4 -28 -33 -53 -63 -53c-31 0 -51 25 -47 53l87 619c4 28 31 52 62 52c30 0 52 -24 48 -52z" />
    <glyph glyph-name="uni040D" unicode="&#x40d;" horiz-adv-x="609" 
d="M380 907c24 -28 72 -74 72 -98c0 -25 -24 -44 -48 -44c-17 0 -26 7 -36 20l-64 78c-6 8 -9 16 -9 24c0 26 25 45 46 45c17 0 23 -5 31 -15zM125 -10c-35 0 -55 26 -51 56l87 615c4 29 30 53 61 53c30 0 53 -24 49 -53l-62 -444c57 81 264 390 320 467c13 18 37 30 59 30
c33 0 55 -24 50 -56l-86 -615c-4 -28 -32 -53 -62 -53s-52 25 -48 53l62 442l-321 -466c-13 -17 -37 -29 -58 -29z" />
    <glyph glyph-name="uni040E" unicode="&#x40e;" horiz-adv-x="523" 
d="M379 839c30 0 49 18 67 36c12 12 23 19 40 19c21 0 42 -11 29 -46c-21 -55 -99 -86 -148 -86c-52 0 -118 34 -123 86c-3 35 22 46 43 46c19 0 27 -10 34 -19c13 -18 27 -36 58 -36zM590 646l-220 -418c-69 -132 -127 -232 -263 -235c-30 0 -49 18 -49 43
c0 27 24 54 59 56c54 3 82 22 116 82l-120 473c-1 3 -1 8 -1 10c0 34 28 57 62 57c20 0 38 -12 44 -34l56 -227c13 -52 20 -106 30 -159c60 130 123 259 190 386c11 22 34 34 55 34c25 0 47 -19 47 -45c0 -10 -4 -19 -6 -23z" />
    <glyph glyph-name="uni040F" unicode="&#x40f;" horiz-adv-x="599" 
d="M228 -112l16 112h-121c-31 0 -52 24 -48 52l86 610c4 29 31 53 62 53c30 0 52 -24 48 -53l-79 -560h243l79 560c4 29 33 53 62 53c30 0 52 -24 48 -53l-86 -610c-4 -28 -33 -52 -62 -52h-122l-16 -112c-4 -27 -32 -52 -62 -52c-31 0 -52 25 -48 52z" />
    <glyph glyph-name="uni0410" unicode="&#x410;" horiz-adv-x="569" 
d="M187 149l-54 -120c-11 -24 -40 -38 -58 -38c-28 0 -50 18 -50 45c0 8 3 20 5 25l278 593c16 34 37 60 76 60s51 -25 58 -60l112 -593c1 -2 1 -7 1 -11c0 -36 -30 -59 -65 -59c-36 0 -44 25 -52 61l-18 97h-233zM361 549c-40 -106 -86 -203 -130 -304h173
c-17 101 -37 200 -43 304z" />
    <glyph glyph-name="uni0411" unicode="&#x411;" horiz-adv-x="551" 
d="M505 603h-242l-23 -166h100c131 0 212 -66 212 -185c0 -124 -73 -252 -274 -252h-147c-34 0 -59 27 -54 60l82 588c4 28 33 57 68 57h292c28 0 48 -21 48 -46c0 -31 -29 -56 -62 -56zM193 102h100c128 0 148 81 148 137c0 64 -40 95 -116 95h-100z" />
    <glyph glyph-name="uni0412" unicode="&#x412;" horiz-adv-x="562" 
d="M237 417h115c50 0 111 31 121 98c6 46 -12 88 -83 88h-127zM340 314h-118l-29 -212h117c83 0 129 41 138 103c10 70 -38 109 -108 109zM296 0h-165c-36 0 -59 27 -54 60l82 585c5 34 37 60 71 60h169c140 0 197 -93 184 -189c-11 -78 -67 -121 -138 -151
c60 -23 127 -61 113 -160c-16 -115 -118 -205 -262 -205z" />
    <glyph glyph-name="uni0413" unicode="&#x413;" horiz-adv-x="466" 
d="M262 603l-78 -560c-4 -27 -33 -52 -63 -52c-31 0 -51 25 -47 52l85 605c4 28 33 57 68 57h272c30 0 50 -24 47 -51c-4 -29 -32 -51 -62 -51h-222z" />
    <glyph glyph-name="uni0414" unicode="&#x414;" horiz-adv-x="648" 
d="M600 705c32 0 56 -25 52 -55l-77 -548c38 0 63 -21 57 -62l-15 -106c-6 -41 -24 -73 -66 -73c-31 0 -51 22 -47 51l12 88h-386l-12 -88c-4 -27 -33 -51 -61 -51c-41 0 -50 31 -44 73l15 106c6 43 38 62 77 62c38 42 68 127 90 242l59 306c4 34 40 55 65 55h281zM305 343
c-19 -100 -46 -183 -85 -241h245l70 501h-184z" />
    <glyph glyph-name="uni0415" unicode="&#x415;" horiz-adv-x="494" 
d="M474 58c0 -32 -30 -58 -63 -58h-265c-41 0 -76 14 -70 59l83 587c4 29 34 59 70 59h271c30 0 52 -24 48 -53s-32 -50 -62 -50h-223l-28 -197h204c27 0 51 -22 47 -51s-32 -52 -62 -52h-204l-28 -200h233c27 0 49 -20 49 -44z" />
    <glyph glyph-name="uni0416" unicode="&#x416;" horiz-adv-x="766" 
d="M531 662l-36 -258h24c65 82 144 184 211 267c17 21 35 41 61 41c31 0 48 -24 48 -47c0 -10 -2 -20 -11 -31l-219 -282l140 -282c3 -6 4 -14 4 -20c0 -27 -26 -58 -63 -58c-29 0 -40 23 -50 41l-136 268h-23l-33 -234c-5 -37 -23 -76 -66 -76c-31 0 -52 24 -48 52l36 258
h-24l-211 -268c-18 -21 -36 -41 -62 -41c-31 0 -47 23 -47 47c0 14 4 22 11 31c72 94 146 188 219 282c-46 94 -94 188 -140 282c-3 6 -4 13 -4 18c0 30 24 60 62 60c27 0 39 -22 50 -41l137 -267h24l33 235c5 37 22 75 66 75c30 0 51 -24 47 -52z" />
    <glyph glyph-name="uni0417" unicode="&#x417;" horiz-adv-x="505" 
d="M499 219c0 -118 -107 -228 -262 -228c-78 0 -200 29 -200 89c0 29 28 53 58 53c8 0 15 -2 23 -7c34 -19 67 -39 122 -39c96 0 150 58 150 125c0 70 -71 88 -145 96c-24 3 -57 3 -57 42c0 56 39 56 65 58c80 7 167 38 167 125c0 42 -26 85 -97 85c-32 0 -65 -8 -87 -18
c-25 -11 -47 -29 -70 -29s-43 18 -43 41c0 62 131 102 220 102c126 0 183 -87 183 -172s-52 -140 -139 -178c67 -27 112 -72 112 -145z" />
    <glyph glyph-name="uni0418" unicode="&#x418;" horiz-adv-x="614" 
d="M125 -10c-35 0 -55 26 -51 56l87 615c4 29 30 53 61 53c30 0 53 -24 49 -53l-62 -444c57 81 264 390 320 467c13 18 37 30 59 30c33 0 55 -24 50 -56l-86 -615c-4 -28 -32 -53 -62 -53s-52 25 -48 53l62 442l-321 -466c-13 -17 -37 -29 -58 -29z" />
    <glyph glyph-name="uni0419" unicode="&#x419;" horiz-adv-x="609" 
d="M422 839c30 0 49 18 67 36c12 12 23 19 40 19c21 0 42 -11 29 -46c-21 -55 -99 -86 -148 -86c-52 0 -118 34 -123 86c-3 35 22 46 43 46c19 0 27 -10 34 -19c13 -18 27 -36 58 -36zM125 -10c-35 0 -55 26 -51 56l87 615c4 29 30 53 61 53c30 0 53 -24 49 -53l-62 -444
c57 81 264 390 320 467c13 18 37 30 59 30c33 0 55 -24 50 -56l-86 -615c-4 -28 -32 -53 -62 -53s-52 25 -48 53l62 442l-321 -466c-13 -17 -37 -29 -58 -29z" />
    <glyph glyph-name="uni041A" unicode="&#x41a;" horiz-adv-x="536" 
d="M271 662l-36 -258h35l244 286c14 17 31 24 49 24c33 0 49 -31 46 -55c-2 -8 -5 -16 -12 -26l-244 -281l165 -280c4 -11 5 -19 4 -27c-3 -23 -28 -55 -61 -55c-18 0 -33 8 -42 24l-165 287h-34l-36 -258c-4 -28 -33 -53 -63 -53c-31 0 -51 25 -47 53l87 619
c4 28 31 52 62 52c30 0 52 -24 48 -52z" />
    <glyph glyph-name="uni041B" unicode="&#x41b;" horiz-adv-x="637" 
d="M574 43c-5 -29 -33 -50 -62 -50c-31 0 -52 21 -48 50l79 560h-186l-90 -428c-23 -108 -74 -182 -165 -182c-43 0 -85 1 -85 43c0 43 31 62 60 62c7 0 11 -2 18 -3h10c26 0 42 25 53 76l103 479c7 34 37 55 66 55h281c32 0 55 -25 51 -55z" />
    <glyph glyph-name="uni041C" unicode="&#x41c;" horiz-adv-x="724" 
d="M756 660l-87 -619c-4 -27 -32 -51 -61 -51c-30 0 -53 24 -49 51l59 416l-179 -284c-13 -21 -34 -31 -56 -31s-40 10 -47 31l-98 284l-58 -416c-4 -27 -33 -51 -64 -51c-30 0 -50 24 -46 51l87 619c4 31 31 54 64 54c26 0 44 -11 52 -32l133 -386l240 387
c15 23 37 31 60 31c32 0 54 -24 50 -54z" />
    <glyph glyph-name="uni041D" unicode="&#x41d;" horiz-adv-x="600" 
d="M537 43c-4 -28 -33 -53 -63 -53c-29 0 -51 25 -47 53l36 258h-243l-36 -258c-4 -28 -33 -53 -63 -53c-31 0 -51 25 -47 53l87 619c4 28 31 52 62 52c30 0 52 -24 48 -52l-36 -258h243l36 258c4 28 33 52 62 52s52 -24 48 -52z" />
    <glyph glyph-name="uni041E" unicode="&#x41e;" horiz-adv-x="580" 
d="M289 -10c-163 0 -229 116 -209 260l29 206c20 140 105 258 281 258s229 -118 209 -258l-29 -206c-20 -144 -118 -260 -281 -260zM376 612c-99 0 -144 -63 -157 -156l-29 -206c-13 -93 20 -157 113 -157c92 0 144 64 157 157l29 206c13 93 -14 156 -113 156z" />
    <glyph glyph-name="uni041F" unicode="&#x41f;" horiz-adv-x="599" 
d="M537 43c-4 -28 -33 -53 -63 -53c-29 0 -51 25 -47 53l79 560h-243l-79 -560c-4 -28 -33 -53 -63 -53c-31 0 -51 25 -47 53l86 610c4 28 31 53 62 53h353c29 0 52 -25 48 -53z" />
    <glyph glyph-name="uni0420" unicode="&#x420;" horiz-adv-x="550" 
d="M313 250h-100l-29 -206c-4 -28 -33 -54 -63 -54c-29 0 -51 25 -47 54l85 601c4 32 37 60 71 60h147c177 0 225 -110 208 -229c-21 -145 -126 -226 -272 -226zM262 602l-35 -250h100c85 0 136 40 148 125c9 62 -7 125 -113 125h-100z" />
    <glyph glyph-name="uni0421" unicode="&#x421;" horiz-adv-x="501" 
d="M75 250l29 206c22 156 111 258 276 258c94 0 179 -41 179 -91c0 -28 -27 -53 -58 -53c-19 0 -25 6 -38 16l-4 3c-25 19 -52 28 -87 28c-102 0 -144 -62 -158 -161l-29 -206c-14 -99 10 -161 112 -161c35 0 64 11 95 27l6 3c17 8 23 16 42 16c26 0 45 -19 45 -42
c0 -55 -104 -101 -206 -101c-165 0 -226 102 -204 258z" />
    <glyph glyph-name="uni0422" unicode="&#x422;" horiz-adv-x="503" 
d="M202 42l79 560h-121c-32 0 -52 24 -48 51c3 23 31 52 62 52h352c28 0 53 -23 49 -52c-4 -27 -33 -51 -63 -51h-121l-79 -560c-4 -27 -32 -52 -62 -52c-31 0 -52 25 -48 52z" />
    <glyph glyph-name="uni0423" unicode="&#x423;" horiz-adv-x="523" 
d="M590 646l-220 -418c-69 -132 -127 -232 -263 -235c-30 0 -49 18 -49 43c0 27 24 54 59 56c54 3 82 22 116 82l-120 473c-1 3 -1 8 -1 10c0 34 28 57 62 57c20 0 38 -12 44 -34l56 -227c13 -52 20 -106 30 -159c60 130 123 259 190 386c11 22 34 34 55 34
c25 0 47 -19 47 -45c0 -10 -4 -19 -6 -23z" />
    <glyph glyph-name="uni0424" unicode="&#x424;" horiz-adv-x="770" 
d="M336 42l16 111h-50c-146 0 -229 81 -208 227c16 119 95 230 272 230h50l7 52c4 28 34 52 62 52c33 0 52 -24 48 -52l-7 -52h50c177 0 224 -111 208 -230c-21 -146 -126 -227 -272 -227h-50l-16 -111c-4 -27 -32 -52 -62 -52c-31 0 -52 25 -48 52zM561 507h-50l-35 -251
h50c85 0 136 40 148 125c8 62 -7 126 -113 126zM316 256h50l35 251h-50c-106 0 -139 -64 -147 -126c-12 -85 27 -125 112 -125z" />
    <glyph glyph-name="uni0425" unicode="&#x425;" horiz-adv-x="518" 
d="M298 277c-59 -84 -120 -168 -181 -252c-11 -15 -29 -34 -56 -34c-26 0 -46 22 -46 47c0 12 7 26 12 33c74 99 146 197 220 295l-125 269c-3 6 -4 15 -4 22c0 29 30 57 60 57c25 0 41 -19 50 -40l95 -218l157 218c12 17 37 39 63 40c24 0 44 -20 44 -46
c0 -12 -5 -23 -11 -33l-200 -269l135 -295c3 -5 5 -14 5 -23c0 -29 -31 -57 -60 -57c-27 0 -40 17 -47 34z" />
    <glyph glyph-name="uni0426" unicode="&#x426;" horiz-adv-x="624" 
d="M123 0c-31 0 -52 24 -48 52l86 609c4 29 31 53 62 53c30 0 52 -24 48 -53l-79 -559h243l79 559c4 29 33 53 62 53c30 0 52 -24 48 -53l-79 -559h25c29 0 52 -24 48 -52l-22 -155c-4 -29 -34 -53 -63 -53s-51 24 -47 53l15 105h-49h-1h-328z" />
    <glyph glyph-name="uni0427" unicode="&#x427;" horiz-adv-x="567" 
d="M441 378l40 282c4 29 32 54 63 54c29 0 51 -24 47 -54l-86 -616c-4 -29 -34 -53 -63 -53c-31 0 -51 25 -47 53l32 230c-41 -18 -82 -24 -120 -24c-140 0 -212 81 -192 226l26 184c4 29 32 54 63 54c29 0 51 -24 47 -54l-25 -183c-12 -89 23 -125 101 -125
c38 0 78 9 114 26z" />
    <glyph glyph-name="uni0428" unicode="&#x428;" horiz-adv-x="780" 
d="M804 661l-86 -609c-4 -28 -33 -52 -62 -52h-533c-31 0 -52 24 -48 52l86 609c4 29 31 53 62 53c30 0 52 -24 48 -53l-79 -559h156l79 560c4 28 31 52 62 52c30 0 52 -24 48 -52l-79 -560h157l79 559c4 29 33 53 62 53c30 0 52 -24 48 -53z" />
    <glyph glyph-name="uni0429" unicode="&#x429;" horiz-adv-x="804" 
d="M123 0c-31 0 -52 24 -48 52l86 609c4 29 31 53 62 53c30 0 52 -24 48 -53l-79 -559h156l79 560c4 28 31 52 62 52c30 0 52 -24 48 -52l-79 -560h157l79 559c4 29 33 53 62 53c30 0 52 -24 48 -53l-79 -559h25c29 0 52 -24 48 -52l-22 -151c-4 -28 -32 -53 -62 -53
c-29 0 -52 25 -48 53l14 101h-557z" />
    <glyph glyph-name="uni042A" unicode="&#x42a;" horiz-adv-x="679" 
d="M195 60l76 543h-117c-28 0 -47 19 -47 45c0 30 28 57 62 57h167c34 0 56 -29 52 -57l-27 -192h100c131 0 211 -69 211 -192c0 -128 -73 -264 -275 -264h-147c-34 0 -60 27 -55 60zM311 102h100c130 0 150 91 150 150c0 69 -40 101 -115 101h-100z" />
    <glyph glyph-name="uni042B" unicode="&#x42b;" horiz-adv-x="755" 
d="M242 456h95c132 0 212 -69 212 -192c0 -128 -73 -264 -276 -264h-142c-34 0 -59 27 -54 60l84 600c4 30 34 54 63 54c30 0 51 -25 47 -54zM228 353l-35 -251h95c130 0 149 91 149 150c0 69 -39 101 -114 101h-95zM582 42l87 620c4 28 32 52 63 52c30 0 51 -24 47 -52
l-87 -620c-4 -27 -32 -51 -62 -51c-31 0 -52 24 -48 51z" />
    <glyph glyph-name="uni042C" unicode="&#x42c;" horiz-adv-x="560" 
d="M242 456h100c132 0 212 -69 212 -192c0 -128 -73 -264 -276 -264h-147c-34 0 -59 27 -54 60l84 600c4 30 34 54 63 54c30 0 51 -25 47 -54zM228 353l-35 -251h100c130 0 149 91 149 150c0 69 -39 101 -114 101h-100z" />
    <glyph glyph-name="uni042D" unicode="&#x42d;" horiz-adv-x="518" 
d="M538 456l-29 -206c-22 -156 -111 -258 -276 -258c-94 0 -179 40 -179 91c0 27 27 52 58 52c18 0 24 -7 38 -16c27 -19 55 -30 92 -30c102 0 143 62 157 161l7 51h-171c-27 0 -46 21 -46 47c0 32 31 57 61 57h171l7 51c14 99 -10 161 -112 161c-28 0 -55 -6 -79 -19
c-20 -11 -41 -28 -64 -28c-26 0 -45 19 -45 43c0 54 104 101 206 101c165 0 226 -102 204 -258z" />
    <glyph glyph-name="uni042E" unicode="&#x42e;" horiz-adv-x="798" 
d="M516 -10c-156 0 -219 112 -199 250l9 62h-106l-36 -259c-4 -28 -33 -53 -63 -53c-31 0 -51 25 -47 53l87 619c4 28 31 52 62 52c30 0 52 -24 48 -52l-36 -258h105l8 61c19 136 101 249 270 249s219 -113 200 -249l-31 -225c-20 -138 -115 -250 -271 -250zM604 612
c-92 0 -134 -59 -146 -147l-31 -225c-13 -87 18 -147 104 -147c85 0 134 60 146 147l31 225c13 88 -12 147 -104 147z" />
    <glyph glyph-name="uni042F" unicode="&#x42f;" horiz-adv-x="581" 
d="M135 499c15 102 85 206 262 206h154c33 0 57 -27 53 -60l-85 -601c-4 -29 -31 -54 -61 -54s-53 26 -49 54l36 254h-73l-211 -282c-12 -16 -30 -25 -49 -25c-22 0 -55 22 -51 50c1 10 6 23 13 32l180 235c-87 23 -133 88 -119 191zM245 499c-9 -65 27 -100 102 -100h112
l29 204h-106c-100 0 -130 -54 -137 -104z" />
    <glyph glyph-name="uni0430" unicode="&#x430;" horiz-adv-x="502" 
d="M216 -8c-113 0 -161 78 -145 193l17 120c17 119 81 208 224 208c130 0 175 -74 157 -204l-29 -203c-4 -29 9 -31 21 -32c19 -2 25 -13 25 -28c0 -34 -23 -50 -64 -50c-33 0 -59 11 -75 45c-42 -32 -78 -49 -131 -49zM250 85c29 0 49 8 84 33l30 215c8 57 -7 85 -66 85
c-64 0 -91 -34 -102 -113l-17 -120c-9 -67 12 -100 71 -100z" />
    <glyph glyph-name="uni0431" unicode="&#x431;" horiz-adv-x="485" 
d="M105 465c18 128 94 215 244 230c21 2 44 0 102 25c3 1 12 4 22 4c25 0 43 -18 43 -42c0 -69 -130 -75 -176 -79c-58 -5 -110 -23 -129 -158c29 27 68 42 113 42c119 0 178 -80 163 -182l-19 -131c-15 -102 -95 -181 -227 -181s-191 79 -177 181zM254 87
c62 0 98 33 106 87l19 132c7 53 -16 86 -78 86c-59 0 -100 -30 -109 -81l-20 -137c-8 -54 20 -87 82 -87z" />
    <glyph glyph-name="uni0432" unicode="&#x432;" horiz-adv-x="488" 
d="M254 -8c-136 0 -200 80 -185 182l23 158c15 103 100 182 234 182c114 0 164 -60 164 -131c0 -58 -26 -99 -98 -126c52 -20 76 -54 76 -100c0 -89 -78 -165 -214 -165zM275 85c58 0 87 25 87 75c0 28 -15 56 -78 56h-101l-6 -42c-8 -54 30 -89 98 -89zM200 333l-5 -38h102
c78 0 84 44 84 70c0 37 -24 54 -68 54c-62 0 -106 -33 -113 -86z" />
    <glyph glyph-name="uni0433" unicode="&#x433;" horiz-adv-x="426" 
d="M434 384c0 -209 -267 -140 -267 -248c0 -32 31 -52 72 -52c42 0 89 19 107 23c40 9 49 -23 49 -42c0 -58 -113 -72 -172 -72c-108 0 -163 50 -163 130c0 211 268 143 268 256c0 37 -42 42 -65 42c-53 0 -71 -22 -103 -22c-24 0 -39 12 -39 35c0 63 93 79 155 79
c105 0 158 -51 158 -129z" />
    <glyph glyph-name="uni0434" unicode="&#x434;" horiz-adv-x="537" 
d="M536 321c-37 -265 -130 -331 -261 -331c-165 0 -219 104 -199 243c19 138 103 247 235 247c34 0 88 -8 129 -38c4 42 -3 73 -7 87c-14 48 -57 86 -135 90c-25 1 -42 6 -35 46c6 29 22 43 74 43c100 0 164 -51 190 -118c23 -59 25 -153 9 -269zM420 279l8 60
c-27 28 -83 46 -123 46c-63 0 -108 -56 -121 -147c-12 -87 12 -151 99 -151c83 0 119 59 137 192z" />
    <glyph glyph-name="uni0435" unicode="&#x435;" horiz-adv-x="459" 
d="M269 197c-28 0 -56 2 -88 7l-6 -46c-6 -45 21 -74 84 -74c37 0 65 10 100 25c3 2 11 5 23 5c34 0 45 -25 42 -45c-8 -60 -128 -77 -187 -77c-123 0 -183 74 -169 171l24 177c14 98 94 173 223 173c121 0 172 -66 157 -166c-13 -94 -76 -150 -203 -150zM366 350
c7 53 -17 74 -66 74c-56 0 -92 -30 -99 -78l-8 -59c33 -4 72 -6 87 -6c57 0 80 27 86 69z" />
    <glyph glyph-name="uni0436" unicode="&#x436;" horiz-adv-x="628" 
d="M335 12c-7 -10 -20 -17 -33 -17c-34 0 -38 32 -34 64l21 149l-28 -12l-143 -180c-13 -16 -29 -23 -47 -23c-31 0 -49 21 -45 49c5 15 12 27 22 39l135 170l-94 185c-5 9 -6 20 -4 29c5 27 30 43 56 43c24 0 39 -16 50 -37c28 -55 58 -110 85 -166h27l19 137
c4 30 25 68 64 68c41 0 49 -35 44 -68l-19 -137h25c44 55 88 109 132 165c18 23 35 39 60 39c32 0 48 -21 44 -50c-5 -14 -14 -27 -23 -38l-135 -170l95 -185c4 -8 6 -21 4 -30c-5 -27 -30 -42 -57 -42c-29 0 -40 18 -50 38l-82 162l-27 14l-21 -149c-3 -23 -21 -42 -41 -47
z" />
    <glyph glyph-name="uni0437" unicode="&#x437;" horiz-adv-x="428" 
d="M432 388c0 -62 -29 -107 -106 -130c58 -17 84 -51 84 -100c0 -95 -71 -165 -208 -165c-55 0 -160 11 -160 65c0 22 19 52 53 52c11 0 20 -4 24 -6c24 -11 52 -22 95 -22c57 0 90 18 90 73c0 23 -15 52 -112 59c-21 2 -40 9 -40 35c0 45 38 46 66 49c89 9 107 49 107 78
c0 31 -22 48 -70 48s-70 -21 -100 -22c-41 -2 -49 26 -49 40c0 54 101 71 166 71c108 0 160 -52 160 -125z" />
    <glyph glyph-name="uni0438" unicode="&#x438;" horiz-adv-x="529" 
d="M386 32c-49 -29 -100 -40 -146 -40c-113 0 -161 78 -145 193l39 276c4 28 26 49 61 49c34 0 51 -21 47 -49l-39 -276c-9 -64 12 -100 64 -100c30 0 64 10 98 27c0 9 0 17 1 24l46 325c4 28 25 49 61 49s51 -21 47 -49l-47 -335c-5 -35 2 -39 10 -53c5 -7 9 -15 8 -27
c-4 -29 -32 -48 -58 -48c-22 0 -37 14 -47 34z" />
    <glyph glyph-name="uni0439" unicode="&#x439;" horiz-adv-x="529" 
d="M355 639c30 0 49 18 67 36c12 12 23 19 40 19c21 0 42 -11 29 -46c-21 -55 -99 -86 -148 -86c-52 0 -118 34 -123 86c-3 35 22 46 43 46c19 0 27 -10 34 -19c13 -18 27 -36 58 -36zM386 32c-49 -29 -100 -40 -146 -40c-113 0 -161 78 -145 193l39 276c4 28 26 49 61 49
c34 0 51 -21 47 -49l-39 -276c-9 -64 12 -100 64 -100c30 0 64 10 98 27c0 9 0 17 1 24l46 325c4 28 25 49 61 49s51 -21 47 -49l-47 -335c-5 -35 2 -39 10 -53c5 -7 9 -15 8 -27c-4 -29 -32 -48 -58 -48c-22 0 -37 14 -47 34z" />
    <glyph glyph-name="uni043A" unicode="&#x43a;" horiz-adv-x="456" 
d="M206 207l-23 -161c-4 -28 -32 -52 -62 -52c-31 0 -50 24 -46 52l58 414c4 27 29 51 60 51c30 0 52 -24 48 -52l-22 -154h37l138 164c18 21 37 39 63 39c25 0 45 -16 45 -39c0 -9 -5 -24 -13 -34l-157 -184l105 -185c5 -8 7 -20 5 -29c-5 -28 -30 -43 -57 -43
c-29 0 -41 18 -51 37l-97 176h-31z" />
    <glyph glyph-name="uni043B" unicode="&#x43b;" horiz-adv-x="551" 
d="M489 43c-4 -29 -31 -50 -61 -50c-31 0 -51 21 -47 50l52 372h-131c-19 -83 -37 -165 -55 -248c-23 -104 -71 -171 -159 -171c-35 0 -70 6 -70 40c0 35 28 55 53 55c9 0 11 -2 19 -2c26 0 41 24 53 74l67 292c7 30 31 50 55 50h240c34 0 44 -29 41 -51z" />
    <glyph glyph-name="uni043C" unicode="&#x43c;" horiz-adv-x="660" 
d="M341 78h-2c-22 0 -40 12 -47 30l-76 187l-35 -252c-4 -28 -32 -51 -61 -51c-30 0 -50 23 -46 51l58 414c4 31 32 53 65 53c25 0 39 -12 48 -31l114 -267l188 267c14 19 32 31 58 31c32 0 53 -22 49 -53l-58 -414c-4 -28 -32 -51 -60 -51c-31 0 -51 23 -47 51l35 252
l-128 -187c-13 -18 -33 -30 -55 -30z" />
    <glyph glyph-name="uni043D" unicode="&#x43d;" horiz-adv-x="534" 
d="M182 43c-4 -29 -31 -51 -61 -51c-31 0 -51 22 -47 51l59 417c3 27 30 50 61 50c30 0 51 -23 47 -50l-22 -155h182l22 155c3 27 30 50 61 50c30 0 51 -23 47 -50l-59 -417c-4 -29 -31 -51 -61 -51c-31 0 -51 22 -47 51l24 173h-182z" />
    <glyph glyph-name="uni043E" unicode="&#x43e;" horiz-adv-x="494" 
d="M246 -8c-132 0 -191 80 -177 182l22 158c15 103 96 182 228 182s192 -79 177 -182l-23 -158c-14 -102 -95 -182 -227 -182zM259 87c62 0 98 33 106 87l23 159c7 53 -20 86 -82 86s-99 -33 -106 -86l-23 -159c-7 -54 20 -87 82 -87z" />
    <glyph glyph-name="uni043F" unicode="&#x43f;" horiz-adv-x="524" 
d="M182 43c-4 -29 -31 -50 -61 -50c-31 0 -51 21 -47 50l58 411c4 28 30 51 61 51h280c30 0 51 -23 47 -51l-58 -411c-4 -29 -31 -50 -61 -50c-31 0 -51 21 -47 50l52 372h-172z" />
    <glyph glyph-name="uni0440" unicode="&#x440;" horiz-adv-x="503" 
d="M278 -7c-31 0 -62 5 -96 20l-25 -177c-4 -28 -27 -50 -61 -50c-35 0 -51 23 -47 50l74 527c4 28 2 43 -6 58c-5 8 -8 15 -6 26c4 29 32 48 56 48c19 0 33 -10 43 -26c49 26 97 44 149 44c110 0 160 -78 144 -192l-17 -123c-17 -119 -73 -205 -208 -205zM231 363l-37 -262
c29 -12 63 -17 85 -17c61 0 88 36 99 114l17 123c9 65 -13 99 -67 99c-28 0 -62 -10 -97 -27c1 -11 1 -21 0 -30z" />
    <glyph glyph-name="uni0441" unicode="&#x441;" horiz-adv-x="416" 
d="M71 180l20 143c15 105 85 187 219 187c53 0 153 -14 145 -74c-3 -21 -20 -42 -54 -42c-8 0 -15 1 -25 4c-20 10 -38 20 -71 20c-67 0 -98 -35 -106 -95l-20 -143c-9 -60 12 -96 79 -96c33 0 54 10 77 20c8 3 15 5 25 5c35 0 46 -22 43 -43c-9 -59 -113 -74 -167 -74
c-133 0 -180 83 -165 188z" />
    <glyph glyph-name="uni0442" unicode="&#x442;" horiz-adv-x="798" 
d="M634 102l33 235c7 45 -14 81 -63 81c-34 0 -72 -18 -102 -44c1 -11 2 -23 0 -35l-42 -296c-4 -28 -25 -50 -61 -50s-51 22 -47 50l38 274c9 59 5 101 -53 101c-34 0 -73 -15 -105 -33c0 -7 0 -15 -1 -21l-45 -321c-4 -28 -25 -50 -61 -50s-51 22 -47 50l45 321
c6 44 0 46 -5 56c-6 12 -9 19 -8 29c4 28 30 47 58 47c20 0 33 -11 42 -27c49 28 99 44 147 44s83 -16 109 -47c53 30 100 47 155 47c113 0 170 -70 155 -174l-33 -231c-3 -21 -3 -30 8 -44c5 -6 10 -12 10 -22c0 -30 -26 -50 -63 -50c-32 0 -78 13 -64 110z" />
    <glyph glyph-name="uni0443" unicode="&#x443;" horiz-adv-x="529" 
d="M530 461l-71 -498c-15 -105 -85 -187 -220 -187c-50 0 -144 15 -144 66c0 27 26 50 56 50c6 0 13 0 22 -4c22 -9 39 -20 71 -20c67 0 100 35 108 95l8 57c-36 -17 -73 -27 -117 -27c-133 0 -164 80 -149 186l39 282c4 28 26 49 61 49c34 0 51 -21 47 -49l-39 -282
c-8 -59 10 -95 70 -95c35 0 71 11 102 36l48 341c3 28 24 49 60 49s52 -21 48 -49z" />
    <glyph glyph-name="uni0444" unicode="&#x444;" horiz-adv-x="624" 
d="M234 -163l22 157c-139 5 -198 101 -180 227l10 72c17 121 102 214 242 219l23 161c4 27 30 50 61 50c30 0 51 -22 47 -50l-23 -161c141 0 200 -101 184 -219l-10 -72c-17 -123 -106 -227 -246 -227l-22 -157c-4 -28 -31 -50 -61 -50c-31 0 -51 22 -47 50zM424 417
c-2 -8 -3 -16 -4 -23l-43 -305c74 9 119 52 130 132l10 73c10 72 -20 118 -93 123zM269 89l46 327c-74 -5 -116 -51 -126 -122l-10 -73c-11 -77 18 -126 90 -132z" />
    <glyph glyph-name="uni0445" unicode="&#x445;" horiz-adv-x="451" 
d="M326 257l107 -189c4 -6 5 -13 5 -19c0 -30 -27 -57 -63 -57c-25 0 -34 10 -46 32l-79 147l-128 -154c-14 -17 -30 -25 -48 -25c-28 0 -48 18 -48 45c0 10 3 20 11 29l161 190l-99 179c-4 7 -6 15 -6 22c0 26 28 53 61 53c30 0 41 -21 51 -38l71 -129l111 137
c15 18 29 30 54 30c23 0 47 -19 47 -44c0 -8 -3 -20 -12 -30z" />
    <glyph glyph-name="uni0446" unicode="&#x446;" horiz-adv-x="559" 
d="M370 166l42 295c4 28 26 49 61 49c34 0 51 -21 47 -49l-42 -295c-9 -64 1 -71 12 -75c32 -12 66 -17 61 -56l-18 -131c-4 -26 -32 -50 -61 -50c-31 0 -51 22 -47 50l14 102c-17 2 -33 19 -40 24c-55 -26 -111 -37 -157 -37c-116 0 -163 77 -147 192l39 276
c4 28 26 49 61 49c34 0 51 -21 47 -49l-39 -276c-9 -64 13 -100 63 -100c31 0 67 10 102 28c-2 16 0 34 2 53z" />
    <glyph glyph-name="uni0447" unicode="&#x447;" horiz-adv-x="493" 
d="M217 460l-19 -133c-4 -33 1 -65 64 -65c16 0 55 5 92 11l26 187c4 27 30 50 61 50c30 0 51 -23 47 -50l-58 -417c-4 -29 -32 -51 -62 -51c-31 0 -50 22 -46 51l20 143c-34 -10 -65 -13 -89 -13c-130 0 -177 58 -163 154l19 133c4 27 30 50 61 50c30 0 51 -23 47 -50z" />
    <glyph glyph-name="uni0448" unicode="&#x448;" horiz-adv-x="792" 
d="M240 461l-41 -295c-6 -46 13 -82 64 -82c31 0 70 19 100 44c-2 11 0 23 2 36l38 275c5 35 16 71 64 71c34 0 51 -21 47 -49l-38 -276c-8 -59 -5 -101 53 -101c32 0 71 15 103 32l45 323c5 35 16 71 64 71c46 0 49 -36 44 -71l-44 -318c-5 -34 22 -45 22 -72
c0 -30 -31 -50 -57 -50c-24 0 -41 13 -52 32c-48 -25 -98 -41 -145 -41c-49 0 -84 15 -109 46c-52 -29 -103 -46 -152 -46c-118 0 -172 70 -157 174l38 275c5 35 16 71 64 71c34 0 51 -21 47 -49z" />
    <glyph glyph-name="uni0449" unicode="&#x449;" horiz-adv-x="828" 
d="M740 -147c-31 0 -51 22 -47 51l14 102c-17 4 -30 13 -40 26c-47 -25 -103 -43 -158 -43c-49 0 -84 16 -109 47c-52 -29 -103 -47 -152 -47c-118 0 -172 71 -157 175l41 297c4 28 26 49 61 49c34 0 51 -21 47 -49l-41 -295c-7 -46 13 -82 64 -82c32 0 70 16 100 38
c-1 13 0 27 2 42l41 297c4 28 26 49 61 49c34 0 51 -21 47 -49l-38 -276c-9 -59 -5 -101 53 -101c35 0 75 15 107 34c-1 15 0 31 3 48l41 295c4 28 25 49 61 49s51 -21 47 -49l-41 -295c-8 -53 2 -81 26 -81c30 0 50 -22 46 -50l-18 -131c-4 -29 -31 -51 -61 -51z" />
    <glyph glyph-name="uni044A" unicode="&#x44a;" horiz-adv-x="555" 
d="M327 -7c-130 0 -183 79 -169 181l33 238h-71c-26 0 -45 18 -45 41c0 29 29 52 58 52h125c44 0 49 -38 44 -72l-17 -120c27 13 59 20 90 20c112 0 173 -65 173 -150c0 -107 -85 -190 -221 -190zM356 238c-62 0 -92 -30 -92 -81c0 -43 25 -70 76 -70c63 0 99 34 99 88
c0 39 -25 63 -83 63z" />
    <glyph glyph-name="uni044B" unicode="&#x44b;" horiz-adv-x="689" 
d="M626 43c-4 -29 -31 -51 -61 -51c-31 0 -51 22 -47 51l58 417c4 27 31 50 62 50c30 0 51 -23 47 -50zM241 460l-21 -147c27 13 58 20 90 20c112 0 172 -65 172 -150c0 -107 -85 -190 -220 -190c-130 0 -184 79 -170 181l41 286c4 27 30 50 61 50c30 0 51 -23 47 -50z
M290 238c-65 0 -91 -30 -91 -81c0 -43 25 -70 76 -70c61 0 99 34 99 88c0 39 -27 63 -84 63z" />
    <glyph glyph-name="uni044C" unicode="&#x44c;" horiz-adv-x="492" 
d="M241 460l-21 -147c27 13 58 20 90 20c112 0 172 -65 172 -150c0 -107 -85 -190 -220 -190c-130 0 -184 79 -170 181l41 286c4 27 30 50 61 50c30 0 51 -23 47 -50zM290 238c-65 0 -91 -30 -91 -81c0 -43 25 -70 76 -70c61 0 99 34 99 88c0 39 -27 63 -84 63z" />
    <glyph glyph-name="uni044D" unicode="&#x44d;" horiz-adv-x="413" 
d="M293 207h-138c-25 0 -45 18 -45 42c0 28 27 51 58 51h138c10 74 -4 118 -68 118c-47 0 -79 -24 -110 -24c-24 0 -43 18 -43 40c0 59 117 76 174 76c128 0 173 -86 157 -197l-18 -124c-16 -111 -83 -196 -211 -196c-54 0 -155 15 -155 66c0 26 26 50 56 50
c31 0 56 -25 103 -25c60 0 88 39 99 105z" />
    <glyph glyph-name="uni044E" unicode="&#x44e;" horiz-adv-x="711" 
d="M182 43c-4 -29 -31 -51 -61 -51c-31 0 -51 22 -47 51l59 417c3 27 30 50 61 50c30 0 51 -23 47 -50l-22 -155h95l4 26c14 103 94 182 224 182c131 0 190 -79 175 -182l-23 -157c-14 -102 -94 -182 -225 -182c-130 0 -189 80 -174 182l6 42h-95zM482 87c61 0 96 33 104 87
l23 158c7 53 -19 86 -80 86c-60 0 -96 -33 -103 -86l-22 -158c-8 -54 18 -87 78 -87z" />
    <glyph glyph-name="uni044F" unicode="&#x44f;" horiz-adv-x="507" 
d="M383 -8c-31 0 -51 23 -47 51l21 152h-65l-149 -179c-14 -16 -29 -24 -47 -24c-30 0 -49 17 -46 44c1 9 6 22 12 30l118 140c-69 21 -92 71 -82 146c13 91 82 153 203 153h154c30 0 51 -24 47 -51l-58 -411c-4 -28 -31 -51 -61 -51zM204 339c0 -27 15 -55 79 -55h87
l18 130h-98c-57 0 -86 -25 -86 -75z" />
    <glyph glyph-name="uni0450" unicode="&#x450;" horiz-adv-x="459" 
d="M269 197c-28 0 -56 2 -88 7l-6 -46c-6 -45 21 -74 84 -74c37 0 65 10 100 25c3 2 11 5 23 5c34 0 45 -25 42 -45c-8 -60 -128 -77 -187 -77c-123 0 -183 74 -169 171l24 177c14 98 94 173 223 173c121 0 172 -66 157 -166c-13 -94 -76 -150 -203 -150zM366 350
c7 53 -17 74 -66 74c-56 0 -92 -30 -99 -78l-8 -59c33 -4 72 -6 87 -6c57 0 80 27 86 69zM313 707c24 -28 72 -74 72 -98c0 -25 -24 -44 -48 -44c-17 0 -26 7 -36 20l-64 78c-6 8 -9 16 -9 24c0 26 25 45 46 45c17 0 23 -5 31 -15z" />
    <glyph glyph-name="uni0451" unicode="&#x451;" horiz-adv-x="459" 
d="M269 197c-28 0 -56 2 -88 7l-6 -46c-6 -45 21 -74 84 -74c37 0 65 10 100 25c3 2 11 5 23 5c34 0 45 -25 42 -45c-8 -60 -128 -77 -187 -77c-123 0 -183 74 -169 171l24 177c14 98 94 173 223 173c121 0 172 -66 157 -166c-13 -94 -76 -150 -203 -150zM366 350
c7 53 -17 74 -66 74c-56 0 -92 -30 -99 -78l-8 -59c33 -4 72 -6 87 -6c57 0 80 27 86 69zM473 640c0 -34 -31 -62 -65 -62c-31 0 -53 26 -49 56c4 29 34 54 65 54c28 0 49 -21 49 -48zM299 640c0 -34 -31 -62 -66 -62c-31 0 -51 26 -47 56c4 29 32 54 63 54
c29 0 50 -21 50 -48z" />
    <glyph glyph-name="uni0452" unicode="&#x452;" horiz-adv-x="602" 
d="M428 30l36 258c10 68 -7 101 -58 101c-35 0 -77 -15 -107 -45l-39 -281c-5 -37 -22 -70 -63 -70c-31 0 -51 21 -47 50l73 516h-78c-24 0 -41 17 -41 38c0 25 24 48 53 48h77l5 33c3 23 30 51 60 51s51 -22 47 -51l-5 -33h75c24 0 41 -18 41 -39c0 -25 -26 -47 -53 -47
h-75l-15 -107c34 21 74 33 115 33c117 0 159 -81 143 -196l-31 -221c-22 -157 -88 -258 -213 -270c-26 0 -43 18 -43 42c0 32 29 45 49 50c48 12 82 53 94 140z" />
    <glyph glyph-name="uni0453" unicode="&#x453;" horiz-adv-x="426" 
d="M347 707l12 10c12 10 18 15 35 15s35 -15 35 -36c0 -12 -6 -22 -18 -33l-86 -78c-14 -13 -24 -20 -41 -20c-21 0 -37 15 -37 37c0 27 67 75 100 105zM434 384c0 78 -53 129 -158 129c-62 0 -155 -16 -155 -79c0 -23 15 -35 39 -35c32 0 50 22 103 22c23 0 65 -5 65 -42
c0 -113 -268 -45 -268 -256c0 -80 55 -130 163 -130c59 0 172 14 172 72c0 19 -9 51 -49 42c-18 -4 -65 -23 -107 -23c-41 0 -72 20 -72 52c0 108 267 39 267 248z" />
    <glyph glyph-name="uni0454" unicode="&#x454;" horiz-adv-x="416" 
d="M320 207h-138l-3 -22c-9 -63 11 -101 74 -101c29 0 47 8 69 15l20 7c4 1 8 2 13 2c32 0 48 -15 48 -37c0 -63 -115 -78 -172 -78c-129 0 -175 84 -160 192l19 133c15 108 84 192 215 192c52 0 150 -13 150 -68c0 -29 -24 -48 -58 -48c-4 0 -8 1 -12 2
c-29 8 -47 22 -85 22c-63 0 -92 -37 -102 -100l-3 -18h138c25 0 45 -18 45 -41c0 -29 -28 -52 -58 -52z" />
    <glyph glyph-name="uni0455" unicode="&#x455;" horiz-adv-x="431" 
d="M97 343c0 99 70 170 200 170c56 0 134 -14 134 -67c0 -30 -21 -47 -50 -47c-32 0 -44 22 -97 22c-27 0 -78 -6 -78 -54c0 -85 203 -52 203 -202c0 -104 -73 -172 -205 -172c-55 0 -154 12 -154 62c0 16 17 64 63 52c17 -4 58 -23 100 -23c48 0 88 25 88 64
c0 82 -204 46 -204 195z" />
    <glyph glyph-name="uni0456" unicode="&#x456;" horiz-adv-x="265" 
d="M287 656c-5 -33 -36 -59 -71 -59c-33 0 -55 24 -55 53c0 35 33 65 72 65c35 0 59 -27 54 -59zM93 102l50 358c4 27 30 50 61 50c30 0 51 -23 47 -50l-50 -352c-2 -21 -3 -30 8 -44c5 -6 10 -12 10 -22c0 -30 -26 -50 -63 -50c-32 0 -77 13 -63 110z" />
    <glyph glyph-name="uni0457" unicode="&#x457;" horiz-adv-x="265" 
d="M371 630c0 -35 -33 -64 -68 -64c-33 0 -56 27 -52 58c5 31 35 57 68 57c30 0 52 -22 52 -51zM187 631c0 -35 -32 -65 -68 -65c-33 0 -54 27 -50 58c5 31 33 57 66 57c31 0 52 -22 52 -50zM92 102l50 358c4 27 30 50 61 50c30 0 51 -23 47 -50l-49 -352
c-3 -21 -3 -30 8 -44c5 -6 9 -12 9 -22c0 -30 -25 -50 -62 -50c-32 0 -78 13 -64 110z" />
    <glyph glyph-name="uni0458" unicode="&#x458;" horiz-adv-x="265" 
d="M257 460l-66 -471c-16 -111 -93 -191 -202 -191c-27 0 -43 18 -43 42c0 31 30 46 50 50c46 9 77 35 86 96l67 474c4 27 30 50 61 50c30 0 51 -23 47 -50zM294 662c0 -36 -34 -65 -72 -65c-33 0 -55 24 -55 53c0 35 33 65 72 65c32 0 55 -24 55 -53z" />
    <glyph glyph-name="uni0459" unicode="&#x459;" horiz-adv-x="761" 
d="M487 505c34 0 45 -29 42 -51l-20 -144h72c119 0 169 -48 169 -131c0 -105 -68 -179 -200 -179h-139c-30 0 -51 23 -47 50l51 365h-109l-56 -248c-23 -104 -70 -171 -159 -171c-34 0 -67 -2 -67 36c0 41 27 59 56 59c4 0 5 -1 10 -1c27 0 43 19 55 73l67 292
c7 30 31 50 55 50h220zM568 220h-72l-18 -130h83c51 0 81 27 81 76c0 28 -14 54 -74 54z" />
    <glyph glyph-name="uni045A" unicode="&#x45a;" horiz-adv-x="742" 
d="M182 43c-4 -29 -31 -51 -61 -51c-31 0 -51 22 -47 51l59 417c3 27 30 50 61 50c30 0 51 -23 47 -50l-22 -155h162l22 155c3 27 30 50 61 50c30 0 51 -23 47 -50l-22 -155h72c134 0 181 -55 167 -153c-12 -90 -80 -152 -197 -152h-139c-31 0 -51 23 -47 50l23 166h-162z
M548 216h-72l-17 -126h83c46 0 74 21 80 65c4 29 -5 61 -74 61z" />
    <glyph glyph-name="uni045B" unicode="&#x45b;" horiz-adv-x="602" 
d="M457 606c0 -25 -26 -47 -53 -47h-75l-14 -104c33 19 73 30 114 30c117 0 161 -71 147 -171l-38 -271c-4 -29 -32 -51 -61 -51c-31 0 -51 22 -47 51l38 270c7 50 -11 76 -62 76c-35 0 -77 -15 -107 -45l-42 -301c-4 -29 -30 -51 -60 -51c-31 0 -51 22 -47 51l73 516h-78
c-27 0 -44 19 -41 43c4 23 26 43 53 43h77l5 33c4 26 29 51 60 51c30 0 51 -22 47 -51l-5 -33h75c23 0 41 -18 41 -39z" />
    <glyph glyph-name="uni045C" unicode="&#x45c;" horiz-adv-x="456" 
d="M386 707l12 10c12 10 18 15 35 15s35 -15 35 -36c0 -12 -6 -22 -18 -33l-86 -78c-14 -13 -24 -20 -41 -20c-21 0 -37 15 -37 37c0 27 67 75 100 105zM206 207l-23 -161c-4 -28 -32 -52 -62 -52c-31 0 -50 24 -46 52l58 414c4 27 29 51 60 51c30 0 52 -24 48 -52l-22 -154
h37l138 164c18 21 37 39 63 39c25 0 45 -16 45 -39c0 -9 -5 -24 -13 -34l-157 -184l105 -185c5 -8 7 -20 5 -29c-5 -28 -30 -43 -57 -43c-29 0 -41 18 -51 37l-97 176h-31z" />
    <glyph glyph-name="uni045D" unicode="&#x45d;" horiz-adv-x="529" 
d="M332 707c24 -28 72 -74 72 -98c0 -25 -24 -44 -48 -44c-17 0 -26 7 -36 20l-64 78c-6 8 -9 16 -9 24c0 26 25 45 46 45c17 0 23 -5 31 -15zM386 32c-49 -29 -100 -40 -146 -40c-113 0 -161 78 -145 193l39 276c4 28 26 49 61 49c34 0 51 -21 47 -49l-39 -276
c-9 -64 12 -100 64 -100c30 0 64 10 98 27c0 9 0 17 1 24l46 325c4 28 25 49 61 49s51 -21 47 -49l-47 -335c-5 -35 2 -39 10 -53c5 -7 9 -15 8 -27c-4 -29 -32 -48 -58 -48c-22 0 -37 14 -47 34z" />
    <glyph glyph-name="uni045E" unicode="&#x45e;" horiz-adv-x="529" 
d="M530 461l-71 -498c-15 -105 -85 -187 -220 -187c-50 0 -144 15 -144 66c0 27 26 50 56 50c6 0 13 0 22 -4c22 -9 39 -20 71 -20c67 0 100 35 108 95l8 57c-36 -17 -73 -27 -117 -27c-133 0 -164 80 -149 186l39 282c4 28 26 49 61 49c34 0 51 -21 47 -49l-39 -282
c-8 -59 10 -95 70 -95c35 0 71 11 102 36l48 341c3 28 24 49 60 49s52 -21 48 -49zM355 639c30 0 49 18 67 36c12 12 23 19 40 19c21 0 42 -11 29 -46c-21 -55 -99 -86 -148 -86c-52 0 -118 34 -123 86c-3 35 22 46 43 46c19 0 27 -10 34 -19c13 -18 27 -36 58 -36z" />
    <glyph glyph-name="uni045F" unicode="&#x45f;" horiz-adv-x="524" 
d="M303 -92c-4 -28 -31 -50 -61 -50c-31 0 -51 22 -47 50l13 92h-86c-29 0 -51 21 -47 50l58 412c4 27 31 50 61 50c43 0 49 -36 43 -76l-49 -347h172l49 347c6 41 20 76 65 76c30 0 51 -22 47 -50l-58 -412c-4 -28 -31 -50 -61 -50h-86z" />
    <glyph glyph-name="uni0462" unicode="&#x462;" horiz-adv-x="664" 
d="M569 616c0 -28 -29 -51 -58 -51h-166l-18 -128h100c132 0 212 -66 212 -185c0 -124 -72 -252 -273 -252h-147c-46 0 -58 39 -52 82l68 483h-86c-27 0 -44 20 -44 41c0 24 27 52 57 52h86l7 52c4 26 32 52 63 52c30 0 51 -24 47 -52l-7 -52h166c24 0 45 -19 45 -42z
M280 102h100c128 0 148 81 148 137c0 64 -40 95 -115 95h-100z" />
    <glyph glyph-name="uni0463" unicode="&#x463;" horiz-adv-x="602" 
d="M450 558c0 -24 -25 -46 -52 -46h-74l-22 -155h87c120 0 173 -54 173 -144c0 -124 -72 -213 -210 -213h-154c-41 0 -49 32 -44 69l62 443h-63c-24 0 -55 15 -55 40c0 29 32 46 67 46h63l8 56c5 35 24 65 63 65c38 0 50 -31 45 -65l-8 -56h74c16 0 40 -19 40 -40zM377 268
h-87l-25 -178h98c58 0 90 39 90 109c0 35 -15 69 -76 69z" />
    <glyph glyph-name="uni0490" unicode="&#x490;" horiz-adv-x="466" 
d="M159 648c4 28 33 57 68 57h216l11 79c4 28 32 53 63 53c30 0 51 -25 47 -53l-18 -130c-4 -29 -31 -51 -61 -51h-222l-79 -560c-4 -27 -32 -52 -62 -52c-31 0 -52 25 -48 52z" />
    <glyph glyph-name="uni0491" unicode="&#x491;" horiz-adv-x="412" 
d="M361 505l12 83c4 26 31 51 61 51c41 0 49 -35 44 -72l-15 -105c-6 -41 -45 -50 -84 -50h-145l-52 -369c-4 -26 -32 -50 -61 -50c-31 0 -51 21 -47 50l58 415c4 27 29 47 58 47h171z" />
    <glyph glyph-name="Wgrave" unicode="&#x1e80;" horiz-adv-x="803" 
d="M509 51l-24 248c-7 68 -9 137 -13 206c-53 -153 -109 -304 -165 -456c-12 -27 -33 -58 -76 -58c-35 0 -57 29 -60 59c-23 204 -45 409 -65 613c4 30 39 48 67 48c22 0 42 -12 45 -39c9 -94 19 -188 29 -281c7 -65 8 -132 13 -197c25 68 46 141 73 210l93 244
c16 42 31 66 75 66c42 0 53 -26 57 -66l23 -244c7 -70 8 -141 14 -211c23 66 45 132 70 198l106 280c11 25 32 40 55 40c26 0 56 -14 56 -44c0 -7 -1 -11 -4 -17l-233 -600c-14 -31 -37 -59 -76 -59s-57 29 -60 60zM526 907c24 -28 72 -74 72 -98c0 -25 -24 -44 -48 -44
c-17 0 -26 7 -36 20l-64 78c-6 8 -9 16 -9 24c0 26 25 45 46 45c17 0 23 -5 31 -15z" />
    <glyph glyph-name="wgrave" unicode="&#x1e81;" horiz-adv-x="675" 
d="M717 452l-173 -408c-15 -34 -33 -51 -71 -51c-27 0 -53 14 -56 41l-30 317c-39 -107 -77 -212 -120 -317c-12 -30 -33 -41 -66 -41c-36 0 -53 19 -58 52l-59 407v5c0 27 28 53 61 53c22 0 42 -13 45 -36l23 -188c6 -51 5 -103 8 -155c22 60 39 120 62 179l61 157
c10 25 34 43 66 43c31 0 48 -18 51 -43l17 -157c6 -59 8 -119 13 -179c17 52 32 104 52 155l74 188c8 20 34 36 56 36c26 0 47 -19 47 -44c0 -7 -2 -12 -3 -14zM435 707c24 -28 72 -74 72 -98c0 -25 -24 -44 -48 -44c-17 0 -26 7 -36 20l-64 78c-6 8 -9 16 -9 24
c0 26 25 45 46 45c17 0 23 -5 31 -15z" />
    <glyph glyph-name="Wacute" unicode="&#x1e82;" horiz-adv-x="803" 
d="M509 51l-24 248c-7 68 -9 137 -13 206c-53 -153 -109 -304 -165 -456c-12 -27 -33 -58 -76 -58c-35 0 -57 29 -60 59c-23 204 -45 409 -65 613c4 30 39 48 67 48c22 0 42 -12 45 -39c9 -94 19 -188 29 -281c7 -65 8 -132 13 -197c25 68 46 141 73 210l93 244
c16 42 31 66 75 66c42 0 53 -26 57 -66l23 -244c7 -70 8 -141 14 -211c23 66 45 132 70 198l106 280c11 25 32 40 55 40c26 0 56 -14 56 -44c0 -7 -1 -11 -4 -17l-233 -600c-14 -31 -37 -59 -76 -59s-57 29 -60 60zM529 907l12 10c12 10 18 15 35 15s35 -15 35 -36
c0 -12 -6 -22 -18 -33l-86 -78c-14 -13 -24 -20 -41 -20c-21 0 -37 15 -37 37c0 27 67 75 100 105z" />
    <glyph glyph-name="wacute" unicode="&#x1e83;" horiz-adv-x="675" 
d="M717 452l-173 -408c-15 -34 -33 -51 -71 -51c-27 0 -53 14 -56 41l-30 317c-39 -107 -77 -212 -120 -317c-12 -30 -33 -41 -66 -41c-36 0 -53 19 -58 52l-59 407v5c0 27 28 53 61 53c22 0 42 -13 45 -36l23 -188c6 -51 5 -103 8 -155c22 60 39 120 62 179l61 157
c10 25 34 43 66 43c31 0 48 -18 51 -43l17 -157c6 -59 8 -119 13 -179c17 52 32 104 52 155l74 188c8 20 34 36 56 36c26 0 47 -19 47 -44c0 -7 -2 -12 -3 -14zM437 707l12 10c12 10 18 15 35 15s35 -15 35 -36c0 -12 -6 -22 -18 -33l-86 -78c-14 -13 -24 -20 -41 -20
c-21 0 -37 15 -37 37c0 27 67 75 100 105z" />
    <glyph glyph-name="Wdieresis" unicode="&#x1e84;" horiz-adv-x="803" 
d="M509 51l-24 248c-7 68 -9 137 -13 206c-53 -153 -109 -304 -165 -456c-12 -27 -33 -58 -76 -58c-35 0 -57 29 -60 59c-23 204 -45 409 -65 613c4 30 39 48 67 48c22 0 42 -12 45 -39c9 -94 19 -188 29 -281c7 -65 8 -132 13 -197c25 68 46 141 73 210l93 244
c16 42 31 66 75 66c42 0 53 -26 57 -66l23 -244c7 -70 8 -141 14 -211c23 66 45 132 70 198l106 280c11 25 32 40 55 40c26 0 56 -14 56 -44c0 -7 -1 -11 -4 -17l-233 -600c-14 -31 -37 -59 -76 -59s-57 29 -60 60zM662 840c0 -34 -31 -62 -65 -62c-31 0 -53 26 -49 56
c4 29 34 54 65 54c28 0 49 -21 49 -48zM488 840c0 -34 -31 -62 -66 -62c-31 0 -51 26 -47 56c4 29 32 54 63 54c29 0 50 -21 50 -48z" />
    <glyph glyph-name="wdieresis" unicode="&#x1e85;" horiz-adv-x="675" 
d="M717 452l-173 -408c-15 -34 -33 -51 -71 -51c-27 0 -53 14 -56 41l-30 317c-39 -107 -77 -212 -120 -317c-12 -30 -33 -41 -66 -41c-36 0 -53 19 -58 52l-59 407v5c0 27 28 53 61 53c22 0 42 -13 45 -36l23 -188c6 -51 5 -103 8 -155c22 60 39 120 62 179l61 157
c10 25 34 43 66 43c31 0 48 -18 51 -43l17 -157c6 -59 8 -119 13 -179c17 52 32 104 52 155l74 188c8 20 34 36 56 36c26 0 47 -19 47 -44c0 -7 -2 -12 -3 -14zM570 640c0 -34 -31 -62 -65 -62c-31 0 -53 26 -49 56c4 29 34 54 65 54c28 0 49 -21 49 -48zM396 640
c0 -34 -31 -62 -66 -62c-31 0 -51 26 -47 56c4 29 32 54 63 54c29 0 50 -21 50 -48z" />
    <glyph glyph-name="Ygrave" unicode="&#x1ef2;" horiz-adv-x="503" 
d="M250 -10c-31 0 -53 25 -49 54l33 232l-126 361c-1 6 -3 16 -2 24c4 29 36 53 64 53c17 0 34 -7 40 -23l98 -288l178 288c12 16 31 23 48 23c29 0 52 -24 48 -53c-1 -7 -5 -18 -9 -24l-227 -362l-33 -231c-4 -28 -31 -54 -63 -54zM347 907c24 -28 72 -74 72 -98
c0 -25 -24 -44 -48 -44c-17 0 -26 7 -36 20l-64 78c-6 8 -9 16 -9 24c0 26 25 45 46 45c17 0 23 -5 31 -15z" />
    <glyph glyph-name="ygrave" unicode="&#x1ef3;" horiz-adv-x="529" 
d="M530 461l-71 -498c-15 -105 -85 -187 -220 -187c-50 0 -144 15 -144 66c0 27 26 50 56 50c6 0 13 0 22 -4c22 -9 39 -20 71 -20c67 0 100 35 108 95l8 57c-36 -17 -73 -27 -117 -27c-133 0 -164 80 -149 186l39 282c4 28 26 49 61 49c34 0 51 -21 47 -49l-39 -282
c-8 -59 10 -95 70 -95c35 0 71 11 102 36l48 341c3 28 24 49 60 49s52 -21 48 -49zM348 707c24 -28 72 -74 72 -98c0 -25 -24 -44 -48 -44c-17 0 -26 7 -36 20l-64 78c-6 8 -9 16 -9 24c0 26 25 45 46 45c17 0 23 -5 31 -15z" />
    <glyph glyph-name="endash" unicode="&#x2013;" horiz-adv-x="451" 
d="M457 289c0 -27 -24 -48 -52 -48h-280c-30 0 -52 21 -52 48s22 50 52 50h280c29 0 52 -23 52 -50z" />
    <glyph glyph-name="emdash" unicode="&#x2014;" horiz-adv-x="550" 
d="M557 289c0 -27 -24 -48 -52 -48h-380c-30 0 -52 21 -52 48s22 50 52 50h380c29 0 52 -23 52 -50z" />
    <glyph glyph-name="quoteleft" unicode="&#x2018;" horiz-adv-x="249" 
d="M268 694c-7 -33 -32 -48 -48 -91c33 -5 53 -32 48 -65c-5 -35 -40 -65 -78 -65c-37 0 -64 28 -59 67c9 64 72 185 111 185c13 0 32 -5 26 -31z" />
    <glyph glyph-name="quoteright" unicode="&#x2019;" horiz-adv-x="250" 
d="M149 504c5 33 32 48 48 91c-33 5 -53 32 -48 65c5 35 39 65 78 65c36 0 64 -28 58 -67c-9 -64 -73 -185 -111 -185c-13 0 -32 5 -25 31z" />
    <glyph glyph-name="quotesinglbase" unicode="&#x201a;" horiz-adv-x="250" 
d="M64 -99c5 33 31 48 47 91c-32 5 -52 32 -47 65c4 35 39 65 78 65c36 0 64 -28 58 -67c-9 -64 -73 -185 -111 -185c-13 0 -32 5 -25 31z" />
    <glyph glyph-name="quotedblleft" unicode="&#x201c;" horiz-adv-x="419" 
d="M268 694c-7 -33 -32 -48 -48 -91c33 -5 53 -32 48 -65c-5 -35 -40 -65 -78 -65c-37 0 -64 28 -59 67c9 64 72 185 111 185c13 0 32 -5 26 -31zM438 694c-6 -33 -32 -48 -48 -91c33 -5 53 -32 48 -65c-5 -35 -39 -65 -78 -65c-36 0 -64 28 -59 67c9 64 73 185 111 185
c14 0 33 -5 26 -31z" />
    <glyph glyph-name="quotedblright" unicode="&#x201d;" horiz-adv-x="419" 
d="M319 504c6 33 32 48 48 91c-33 5 -53 32 -48 65c5 35 40 65 78 65c37 0 64 -28 58 -67c-9 -64 -72 -185 -111 -185c-13 0 -31 5 -25 31zM149 504c5 33 32 48 48 91c-33 5 -53 32 -48 65c5 35 39 65 78 65c36 0 64 -28 58 -67c-9 -64 -73 -185 -111 -185
c-14 0 -32 5 -25 31z" />
    <glyph glyph-name="quotedblbase" unicode="&#x201e;" horiz-adv-x="419" 
d="M234 -99c6 33 31 47 47 90c-32 5 -52 33 -48 65c5 36 41 65 79 65c37 0 64 -28 58 -67c-9 -63 -72 -184 -111 -184c-13 0 -31 5 -25 31zM64 -99c5 33 31 47 47 90c-32 5 -52 33 -48 65c5 36 40 65 79 65c36 0 64 -28 58 -67c-9 -63 -73 -184 -111 -184
c-14 0 -32 5 -25 31z" />
    <glyph glyph-name="dagger" unicode="&#x2020;" horiz-adv-x="452" 
d="M532 472c0 -37 -32 -51 -63 -51h-130l-66 -469c0 3 -1 -63 -64 -63c-36 0 -50 30 -45 65l66 467h-120c-25 0 -60 4 -60 41c0 40 35 55 73 55h120l20 142c3 22 19 65 63 65c46 0 50 -36 47 -61l-21 -146h130c22 0 50 -21 50 -45z" />
    <glyph glyph-name="daggerdbl" unicode="&#x2021;" horiz-adv-x="594" 
d="M542 57c0 -29 -29 -53 -59 -53h-134l-21 -151c-4 -30 -31 -62 -64 -62c-37 0 -51 30 -46 62l21 151h-134c-30 0 -49 21 -45 48c4 28 29 48 59 48h134l45 321h-134c-30 0 -49 21 -46 48c4 27 29 49 59 49h134l22 154c4 28 33 51 62 52c30 0 52 -24 48 -52l-22 -154h134
c28 0 49 -22 45 -49c-3 -27 -30 -48 -58 -48h-134l-45 -321h134c25 0 45 -18 45 -43z" />
    <glyph glyph-name="bullet" unicode="&#x2022;" horiz-adv-x="303" 
d="M277 283c0 -52 -48 -96 -99 -96c-47 0 -81 39 -74 87c6 46 51 85 98 85c43 0 75 -34 75 -76z" />
    <glyph glyph-name="ellipsis" unicode="&#x2026;" horiz-adv-x="686" 
d="M202 63c0 -38 -38 -73 -79 -73c-38 0 -64 31 -59 66c5 36 39 66 77 66c35 0 61 -26 61 -59zM420 63c0 -38 -38 -73 -78 -73c-38 0 -65 31 -60 66c5 36 40 66 78 66c34 0 60 -26 60 -59zM639 63c0 -38 -38 -73 -79 -73c-38 0 -64 31 -59 66c5 36 39 66 77 66
c35 0 61 -26 61 -59z" />
    <glyph glyph-name="guilsinglleft" unicode="&#x2039;" horiz-adv-x="318" 
d="M173 258l107 -198c4 -6 4 -12 3 -17c-4 -27 -25 -51 -52 -51c-18 0 -25 8 -35 27l-124 237l184 229c12 16 23 26 41 26c20 0 40 -20 36 -47c-1 -6 -2 -13 -7 -19z" />
    <glyph glyph-name="guilsinglright" unicode="&#x203a;" horiz-adv-x="318" 
d="M54 60l163 198l-100 187c-3 6 -3 13 -2 19c4 27 29 47 50 47c18 0 25 -10 33 -26l119 -229l-191 -237c-14 -19 -23 -27 -41 -27c-27 0 -42 24 -38 51c0 5 2 11 7 17z" />
    <glyph glyph-name="Euro" unicode="&#x20ac;" horiz-adv-x="520" 
d="M112 454h41l6 37c19 135 99 223 246 223c96 0 181 -44 173 -96c-3 -26 -28 -48 -57 -48c-19 0 -24 7 -38 16c-27 22 -53 31 -87 31c-84 0 -116 -48 -127 -126l-5 -37h166c20 0 37 -16 34 -37s-22 -37 -44 -37h-167l-8 -56h127c20 0 37 -16 34 -37s-22 -37 -44 -37h-127
l-5 -35c-11 -78 8 -126 92 -126c34 0 62 9 98 32c16 8 23 14 40 14c29 0 47 -22 44 -47c-7 -53 -105 -97 -201 -97c-147 0 -202 89 -183 224l5 35h-41c-22 0 -37 16 -34 37s24 37 44 37h41l8 56h-41c-22 0 -37 16 -34 37s24 37 44 37z" />
    <glyph glyph-name="uni20B4" unicode="&#x20b4;" horiz-adv-x="520" 
d="M120 454h253c37 35 58 66 58 104c0 39 -26 54 -81 54c-78 0 -102 -27 -135 -27c-29 0 -48 21 -48 45c0 70 138 84 202 84c105 0 167 -39 167 -130c0 -52 -17 -90 -47 -130h39c18 0 34 -14 34 -33c0 -23 -21 -41 -45 -41h-104c-21 -18 -46 -37 -70 -56h167
c18 0 34 -14 34 -33c0 -23 -21 -41 -45 -41h-243c-35 -35 -55 -66 -55 -105c0 -37 24 -54 80 -54c72 0 104 29 145 29c29 0 47 -19 47 -43c0 -70 -138 -88 -209 -88c-102 0 -170 41 -170 133c0 45 14 84 45 128h-48c-20 0 -34 14 -34 33c0 23 23 41 45 41h110
c21 18 46 36 70 56h-173c-20 0 -34 14 -34 33c0 23 23 41 45 41z" />
    <glyph glyph-name="uni20BD" unicode="&#x20bd;" horiz-adv-x="520" 
d="M97 338h31l43 307c4 32 37 60 71 60h112c156 0 211 -91 211 -194c0 -172 -115 -251 -287 -251h-51l-7 -52h127c18 0 34 -14 34 -33c0 -23 -21 -41 -45 -41h-126l-13 -90c-3 -21 -34 -53 -63 -53s-51 24 -47 53l13 90h-32c-20 0 -34 14 -34 33c0 23 23 41 45 41h31l7 56
h-31c-20 0 -34 14 -34 33c0 23 23 41 45 41zM275 602l-35 -250h65c98 0 149 50 149 148c0 52 -24 102 -114 102h-65z" />
    <glyph glyph-name="trademark" unicode="&#x2122;" horiz-adv-x="783" 
d="M831 673l-50 -355c-3 -20 -23 -37 -42 -37c-21 0 -36 17 -33 37l32 229l-92 -146c-10 -16 -25 -23 -40 -23c-16 0 -28 9 -33 23l-52 146l-32 -229c-3 -20 -23 -37 -42 -37c-21 0 -35 17 -32 37l50 355c3 23 21 40 44 40c17 0 30 -9 35 -23l76 -217l136 217v-1
c10 17 26 24 41 24c20 0 37 -20 34 -40zM423 674c0 -24 -21 -42 -44 -42h-82l-44 -313c-3 -21 -22 -38 -44 -38s-37 17 -34 38l44 313h-82c-20 0 -33 14 -33 33c0 24 20 43 44 43h242c19 0 33 -15 33 -34z" />
    <glyph glyph-name="estimated" unicode="&#x212e;" horiz-adv-x="903" 
d="M825 317h-605c-3 0 -5 -1 -5 -4v-183c0 -8 4 -15 9 -21c57 -61 139 -99 229 -99c96 0 182 43 240 111h55c-68 -79 -176 -131 -296 -131c-206 0 -374 150 -374 336s168 336 374 336s373 -150 373 -336v-9zM689 341v184c0 9 -4 16 -10 22c-58 58 -138 95 -226 95
c-90 0 -170 -38 -228 -98c-6 -6 -10 -14 -10 -23v-180c0 -3 2 -5 5 -5h464c3 0 5 2 5 5z" />
    <glyph glyph-name="arrowleft" unicode="&#x2190;" horiz-adv-x="579" 
d="M64 322c-18 20 -19 40 0 61l174 199c14 16 23 29 47 29c25 0 53 -22 53 -50c0 -8 -1 -19 -8 -27l-124 -132h272c29 0 51 -23 51 -49c0 -27 -24 -49 -51 -49h-271l127 -136c8 -9 9 -19 9 -27c0 -28 -26 -51 -54 -51c-24 0 -33 12 -48 29z" />
    <glyph glyph-name="arrowup" unicode="&#x2191;" horiz-adv-x="649" 
d="M319 78c-41 0 -52 31 -52 69v317c-46 -39 -91 -79 -136 -118c-8 -7 -17 -7 -24 -8c-39 -5 -57 32 -57 50c0 23 13 32 30 46l207 167c10 7 19 11 29 11c9 -1 25 -2 36 -11l217 -174c19 -15 30 -23 30 -45c0 -32 -26 -53 -56 -53c-8 0 -18 0 -27 8l-146 127v-317
c0 -35 -12 -69 -51 -69z" />
    <glyph glyph-name="arrowright" unicode="&#x2192;" horiz-adv-x="579" 
d="M47 353c0 36 32 49 69 49h253l-123 132c-7 8 -8 19 -8 27c0 30 36 46 56 46c22 0 32 -12 44 -25l174 -199c9 -11 14 -21 14 -31s-5 -20 -14 -30l-177 -203c-15 -17 -24 -29 -48 -29c-28 0 -53 27 -53 51c0 5 0 11 3 18c36 51 88 98 132 145h-253c-30 0 -69 17 -69 49z
" />
    <glyph glyph-name="arrowdown" unicode="&#x2193;" horiz-adv-x="649" 
d="M319 615c39 0 51 -34 51 -69v-317l146 127c9 8 19 8 27 8c28 0 56 -23 56 -53c0 -22 -11 -30 -30 -45l-217 -174c-11 -9 -27 -11 -36 -11c-10 0 -19 4 -29 11l-207 167c-17 14 -30 23 -30 46c0 18 15 50 57 50c7 -1 16 -1 24 -8l136 -119v318c0 38 11 69 52 69z" />
    <glyph glyph-name="uni2196" unicode="&#x2196;" horiz-adv-x="549" 
d="M470 152c-10 -10 -23 -16 -36 -16c-19 0 -35 15 -50 28l-224 225c-5 -62 -8 -124 -13 -187c0 -23 -30 -41 -53 -41c-28 0 -49 21 -49 45c0 7 1 14 2 22l30 271c4 34 29 43 66 47l250 28c8 1 16 2 23 2c39 0 43 -39 37 -63c-8 -30 -30 -38 -53 -40l-167 -12
c75 -74 149 -149 224 -224c14 -14 27 -29 27 -49c0 -13 -4 -26 -14 -36z" />
    <glyph glyph-name="uni2197" unicode="&#x2197;" horiz-adv-x="552" 
d="M69 156c-10 9 -15 22 -15 35c0 19 13 36 27 50l224 225l-179 12c-27 2 -41 32 -41 54c0 31 23 46 45 46c7 0 14 0 22 -1c88 -11 176 -19 264 -29c19 -2 31 -11 37 -25l6 -9c2 -10 4 -21 5 -32c9 -85 19 -170 29 -256c1 -8 1 -15 1 -22c0 -26 -23 -46 -49 -46
c-21 0 -53 17 -53 42l-14 193c-75 -74 -150 -150 -224 -224c-14 -14 -30 -28 -50 -28c-12 0 -25 5 -35 15z" />
    <glyph glyph-name="uni2198" unicode="&#x2198;" horiz-adv-x="549" 
d="M78 539c9 10 22 15 35 15c19 0 35 -14 50 -27l224 -226c5 63 9 125 13 188c2 24 31 41 54 41c28 0 48 -23 48 -45c0 -7 -1 -14 -2 -22l-29 -271c-2 -19 -10 -34 -35 -43c-10 -3 -21 -3 -32 -4l-249 -28c-9 -1 -17 -2 -24 -2c-11 0 -31 7 -37 26c-11 37 -7 59 24 72
c59 13 132 12 196 16l-224 225c-14 14 -27 31 -27 50c0 12 5 25 15 35z" />
    <glyph glyph-name="uni2199" unicode="&#x2199;" horiz-adv-x="552" 
d="M480 535c10 -10 15 -23 15 -35c0 -19 -13 -36 -27 -50l-224 -225l179 -12c27 -2 40 -32 40 -54c0 -31 -22 -47 -44 -47c-7 0 -14 1 -22 2c-88 11 -176 19 -264 29c-19 2 -31 11 -37 25l-6 9c-2 10 -4 21 -5 32c-9 85 -19 170 -29 256c-1 8 -2 15 -2 21c0 26 24 47 50 47
c20 0 53 -17 53 -42l14 -193c75 74 149 150 224 224c14 14 30 28 50 28c12 0 25 -5 35 -15z" />
    <glyph glyph-name="minus" unicode="&#x2212;" horiz-adv-x="520" 
d="M163 405h308c25 0 47 -20 47 -46c0 -31 -29 -57 -62 -57h-308c-28 0 -47 20 -47 46c0 32 32 57 62 57z" />
    <glyph glyph-name="triagup" unicode="&#x25b2;" horiz-adv-x="758" 
d="M646 0h-534c-56 0 -69 21 -44 72l275 549c25 51 47 51 72 0l275 -549c25 -51 12 -72 -44 -72z" />
    <glyph glyph-name="triagrt" unicode="&#x25ba;" horiz-adv-x="785" 
d="M55 65v547c0 56 21 69 72 44l564 -282c51 -25 51 -47 0 -72l-564 -281c-51 -25 -72 -12 -72 44z" />
    <glyph glyph-name="triagdn" unicode="&#x25bc;" horiz-adv-x="758" 
d="M112 678h534c56 0 69 -21 44 -72l-275 -549c-25 -51 -47 -51 -72 0l-275 549c-25 51 -12 72 44 72z" />
    <glyph glyph-name="triaglf" unicode="&#x25c4;" horiz-adv-x="785" 
d="M94 374l564 282c51 25 72 12 72 -44v-547c0 -56 -21 -69 -72 -44l-564 281c-51 25 -51 47 0 72z" />
    <glyph glyph-name="uni2639" unicode="&#x2639;" horiz-adv-x="733" 
d="M678 253c0 -168 -139 -311 -311 -311c-171 0 -312 141 -312 311c0 171 141 311 312 311s311 -141 311 -311zM633 253c0 146 -121 266 -266 266s-266 -118 -266 -266c0 -147 120 -266 266 -266c145 0 266 120 266 266zM287 317c0 -21 -18 -39 -40 -39c-21 0 -39 18 -39 39
c0 22 18 40 39 40c22 0 40 -18 40 -40zM525 317c0 -21 -17 -39 -39 -39s-40 18 -40 39c0 22 18 40 40 40s39 -18 39 -40zM253 78l-30 17c33 61 80 95 144 95c63 0 111 -33 143 -95l-30 -17c-26 45 -63 70 -113 70s-88 -24 -114 -70z" />
    <glyph glyph-name="uni263A" unicode="&#x263a;" horiz-adv-x="733" 
d="M678 253c0 -168 -139 -311 -311 -311c-171 0 -312 141 -312 311c0 171 141 311 312 311s311 -141 311 -311zM633 253c0 146 -121 266 -266 266s-266 -118 -266 -266c0 -147 120 -266 266 -266c145 0 266 120 266 266zM287 317c0 -21 -18 -39 -40 -39c-21 0 -39 18 -39 39
c0 22 18 40 39 40c22 0 40 -18 40 -40zM525 317c0 -21 -17 -39 -39 -39s-40 18 -40 39c0 22 18 40 40 40s39 -18 39 -40zM223 153l30 17c26 -46 64 -70 114 -70s87 24 113 70l30 -17c-32 -62 -80 -95 -143 -95c-64 0 -111 33 -144 95z" />
    <glyph glyph-name="uni263B" unicode="&#x263b;" horiz-adv-x="732" 
d="M677 253c0 -170 -139 -311 -311 -311c-171 0 -311 140 -311 311c0 172 141 311 311 311c171 0 311 -140 311 -311zM286 317c0 22 -17 40 -39 40s-40 -18 -40 -40c0 -21 18 -39 40 -39s39 18 39 39zM525 317c0 22 -18 40 -39 40c-22 0 -40 -18 -40 -40
c0 -21 18 -39 40 -39c21 0 39 18 39 39zM253 170l-30 -17c33 -62 79 -95 143 -95c63 0 111 33 144 95l-31 17c-25 -46 -63 -70 -113 -70c-49 0 -87 24 -113 70z" />
    <glyph glyph-name="uni2661" unicode="&#x2661;" horiz-adv-x="642" 
d="M312 393c2 -11 5 -17 9 -18c4 2 6 8 9 18c28 91 76 123 131 123c59 0 126 -37 126 -142c0 -57 -20 -80 -115 -206c-56 -74 -62 -83 -113 -164c-10 -16 -19 -29 -38 -29s-28 13 -38 29c-53 84 -55 87 -113 164c-95 126 -115 149 -115 206c0 105 68 142 125 142
s108 -37 132 -123zM317 25c1 -3 2 -5 4 -5s2 2 4 5l131 187c72 103 91 120 91 165c0 70 -46 99 -85 99c-52 0 -75 -52 -93 -94c-12 -28 -26 -49 -48 -49c-20 0 -33 16 -48 49c-20 46 -42 94 -93 94c-39 0 -85 -29 -85 -99c0 -45 19 -62 91 -165z" />
    <glyph glyph-name="uni2665" unicode="&#x2665;" horiz-adv-x="642" 
d="M312 393c7 -25 13 -23 20 0c25 87 73 123 127 123c69 0 128 -50 128 -130c0 -69 -44 -130 -105 -209c-72 -93 -72 -92 -121 -173c-9 -15 -19 -29 -39 -29s-29 13 -39 29c-51 81 -55 87 -113 164c-95 126 -115 149 -115 206c0 105 67 142 126 142c54 0 107 -36 131 -123z
" />
    <glyph glyph-name="uni266A" unicode="&#x266a;" horiz-adv-x="510" 
d="M242 189v477c188 0 245 -33 245 -190c0 -39 -8 -49 -24 -50c-16 1 -23 9 -24 25c0 68 -55 103 -135 103h-13v-408c0 -103 -46 -164 -153 -164c-70 0 -115 43 -115 109c0 68 55 121 134 121c26 0 54 -7 85 -23z" />
    <glyph glyph-name="uni266B" unicode="&#x266b;" horiz-adv-x="760" 
d="M266 145v396c0 56 23 87 76 104l236 73c53 17 76 0 76 -56v-461c0 -109 -50 -162 -150 -162c-72 0 -117 45 -117 109c0 65 56 120 135 120c28 0 35 -2 83 -21v323c0 21 -9 27 -29 21l-233 -72c-20 -6 -29 -18 -29 -39v-378c0 -109 -51 -165 -152 -165
c-70 0 -115 44 -115 109c0 68 55 121 134 121c25 0 53 -7 85 -22z" />
    <glyph glyph-name="typography.com.ua" unicode="&#xe020;" horiz-adv-x="885" 
d="M840 471c-5 -32 -26 -32 -42 -30c-8 1 -21 2 -28 2c-34 0 -63 -24 -70 -64l-27 -155h83c21 0 37 -17 37 -37c0 -21 -16 -38 -37 -38h-97l-37 -213c-18 -100 -52 -168 -145 -168c-46 0 -81 1 -81 36c0 23 16 37 39 37c6 0 19 -1 29 -1c51 0 68 29 79 90l38 219h-128v-119
c0 -22 -17 -39 -39 -39s-39 17 -39 39v119h-250c-24 0 -41 20 -41 43c0 3 3 17 8 27l192 481c6 14 20 23 34 23c17 0 39 -15 39 -43c0 -2 0 -5 -2 -10l-179 -446h199v251c0 22 17 39 39 39c21 0 39 -17 39 -39v-251h141l30 167c13 75 68 123 159 123c39 0 62 -9 57 -43z" />
    <glyph glyph-name="commaaccent" unicode="&#xf6c3;" horiz-adv-x="330" 
d="M219 -97c0 -54 -72 -141 -106 -141c-9 0 -18 5 -16 17c3 21 30 34 46 62c-34 2 -57 17 -52 54c5 31 28 54 71 54c40 0 57 -21 57 -46z" />
    <glyph glyph-name="R.salt" unicode="&#xe0052;" horiz-adv-x="577" 
d="M231 378h110c58 0 130 45 130 137c0 46 -23 88 -91 88h-117zM504 156c0 -53 4 -67 32 -84c16 -10 31 -21 23 -47c-8 -28 -33 -32 -57 -32c-98 0 -109 75 -109 188c0 41 -9 94 -103 94h-73l-33 -233c-4 -27 -33 -52 -63 -52c-31 0 -51 25 -47 52l85 603c5 34 37 60 71 60
h169c126 0 183 -88 183 -181c0 -107 -66 -161 -155 -200c60 -28 77 -73 77 -168z" />
    <glyph glyph-name="uni0414.BUL" unicode="&#xe0414;" horiz-adv-x="688" 
d="M10 -88l18 128c5 32 31 57 62 57h17l262 557c15 32 38 60 75 60c46 0 54 -39 63 -85c33 -177 67 -354 100 -532h18c31 0 52 -25 47 -57l-18 -128c-4 -29 -32 -51 -63 -51s-51 22 -47 51l12 88h-426l-12 -88c-4 -29 -31 -51 -61 -51c-31 0 -51 22 -47 51zM421 549
c-59 -154 -131 -302 -198 -452h267l-57 340c-6 35 -10 75 -12 112z" />
    <glyph glyph-name="uni0416.BUL" unicode="&#xe0416;" horiz-adv-x="776" 
d="M387 -10c-30 0 -52 25 -48 53l27 196l-29 50l-217 -275c-14 -16 -30 -24 -48 -24c-34 0 -49 32 -46 55c1 8 4 17 12 27l240 305l-152 253c-9 12 -8 20 -6 31c3 26 33 53 60 53c18 0 33 -10 42 -24l168 -287l36 259c4 28 32 52 62 52s52 -24 48 -52l-36 -259l247 287
c13 14 31 24 48 24c27 0 50 -27 47 -53c-2 -11 -4 -19 -15 -31l-224 -253l155 -305c6 -10 5 -19 4 -27c-3 -23 -27 -55 -60 -55c-18 0 -34 7 -43 24l-140 275l-43 -50l-27 -196c-4 -28 -32 -53 -62 -53z" />
    <glyph glyph-name="uni041B.BUL" unicode="&#xe041b;" horiz-adv-x="569" 
d="M361 549c-66 -176 -150 -348 -228 -520c-11 -24 -40 -38 -58 -38c-28 0 -50 18 -50 45c0 8 3 20 5 25l278 593c16 34 37 60 76 60s51 -25 58 -60l112 -593c1 -2 1 -7 1 -11c0 -36 -30 -59 -65 -59c-20 0 -44 15 -48 38l-68 401c-6 38 -10 80 -13 119z" />
    <glyph glyph-name="uni0432.BUL" unicode="&#xe0432;" horiz-adv-x="488" 
d="M83 179l45 321c18 123 94 198 214 198c103 0 172 -57 156 -173c-12 -85 -63 -133 -116 -160c80 -26 104 -86 93 -165c-17 -122 -92 -208 -226 -208c-122 0 -182 70 -166 187zM370 222c0 48 -22 90 -95 90h-65l-19 -136c-8 -58 17 -89 72 -89c73 0 107 55 107 135z
M237 503l-14 -101h70c27 0 86 30 98 114c8 60 -21 87 -67 87c-51 0 -78 -34 -87 -100z" />
    <glyph glyph-name="uni0433.BUL" unicode="&#xe0433;" horiz-adv-x="426" 
d="M434 384c0 -211 -267 -137 -267 -251c0 -34 27 -49 68 -49c45 0 79 17 111 23c41 7 50 -24 50 -41c0 -59 -114 -73 -174 -73c-107 0 -162 50 -162 130c0 207 267 152 267 253c0 29 -22 45 -67 45c-47 0 -70 -22 -101 -22c-25 0 -39 14 -39 35c0 63 93 79 155 79
c106 0 159 -52 159 -129z" />
    <glyph glyph-name="uni0434.BUL" unicode="&#xe0434;" horiz-adv-x="510" 
d="M350 120l32 227c6 45 -26 71 -81 71c-62 0 -94 -34 -102 -90l-21 -149c-8 -59 10 -95 70 -95c35 0 71 11 102 36zM490 347l-55 -384c-14 -105 -85 -187 -220 -187c-52 0 -151 16 -144 71c4 25 28 45 56 45c6 0 12 -1 22 -4c20 -11 39 -20 71 -20c67 0 99 35 108 95l8 57
c-36 -17 -73 -27 -117 -27c-133 0 -164 80 -149 186l21 149c15 105 92 185 224 185c125 0 188 -73 175 -166z" />
    <glyph glyph-name="uni0436.BUL" unicode="&#xe0436;" horiz-adv-x="658" 
d="M478 673l-46 -330c52 47 106 92 159 138c16 14 31 27 53 27c25 0 47 -16 47 -41c0 -14 -8 -29 -20 -39l-157 -134l130 -228c5 -8 6 -21 4 -30c-5 -27 -30 -43 -58 -43c-19 0 -34 7 -42 23l-8 17c-32 65 -71 128 -107 192l-21 -19l-23 -163c-4 -26 -32 -50 -61 -50
c-31 0 -51 21 -47 50l23 163l-16 19c-54 -64 -107 -127 -160 -192c-18 -22 -38 -39 -64 -39c-24 0 -44 14 -44 38c0 10 5 25 13 34c64 76 129 152 193 228c-40 44 -79 89 -119 134c-7 7 -10 17 -10 27c0 30 29 53 60 53c23 0 35 -14 46 -27l121 -138l43 309
c5 38 21 71 64 71c30 0 51 -22 47 -50z" />
    <glyph glyph-name="uni0437.BUL" unicode="&#xe0437;" horiz-adv-x="428" 
d="M176 -131c58 0 94 36 105 115c5 37 10 126 -86 133c-22 2 -61 1 -55 46c6 44 43 43 66 44c85 6 107 78 113 120c8 59 -10 94 -69 94c-27 0 -53 -7 -74 -16c-8 -3 -15 -6 -25 -6c-30 0 -47 23 -44 47c7 51 105 67 162 67c123 0 172 -74 156 -184
c-10 -78 -49 -138 -131 -164c80 -26 106 -86 93 -179c-17 -123 -89 -209 -223 -209c-57 0 -158 15 -150 69c3 27 33 47 59 46c6 0 14 -3 18 -5c21 -8 55 -18 85 -18z" />
    <glyph glyph-name="uni0438.BUL" unicode="&#xe0438;" horiz-adv-x="529" 
d="M386 32c-49 -29 -100 -40 -146 -40c-113 0 -161 78 -145 193l39 276c4 28 26 49 61 49c34 0 51 -21 47 -49l-39 -276c-9 -64 12 -100 64 -100c30 0 64 10 98 27c0 9 0 17 1 24l46 325c4 28 25 49 61 49s51 -21 47 -49l-47 -335c-5 -35 2 -39 10 -53c5 -7 9 -15 8 -27
c-4 -29 -32 -48 -58 -48c-22 0 -37 14 -47 34z" />
    <glyph glyph-name="uni0439.BUL" unicode="&#xe0439;" horiz-adv-x="529" 
d="M386 32c-49 -29 -100 -40 -146 -40c-113 0 -161 78 -145 193l39 276c4 28 26 49 61 49c34 0 51 -21 47 -49l-39 -276c-9 -64 12 -100 64 -100c30 0 64 10 98 27c0 9 0 17 1 24l46 325c4 28 25 49 61 49s51 -21 47 -49l-47 -335c-5 -35 2 -39 10 -53c5 -7 9 -15 8 -27
c-4 -29 -32 -48 -58 -48c-22 0 -37 14 -47 34zM354 639c30 0 49 18 67 36c12 12 23 19 40 19c21 0 42 -11 29 -46c-21 -55 -99 -86 -148 -86c-52 0 -118 34 -123 86c-3 35 22 46 43 46c19 0 27 -10 34 -19c13 -18 27 -36 58 -36z" />
    <glyph glyph-name="uni043A.BUL" unicode="&#xe043a;" horiz-adv-x="463" 
d="M272 673l-49 -345l166 153c15 14 33 28 55 28c26 0 45 -18 45 -42c0 -15 -7 -28 -19 -39l-155 -140c43 -74 85 -148 127 -222c5 -8 7 -21 5 -30c-5 -27 -30 -43 -58 -43c-31 0 -35 11 -52 42l-105 190c-9 -7 -18 -16 -27 -23l-19 -137c-5 -37 -22 -72 -64 -72
c-31 0 -51 21 -47 50l85 605c5 39 20 75 65 75c30 0 51 -22 47 -50z" />
    <glyph glyph-name="uni043B.BUL" unicode="&#xe043b;" horiz-adv-x="450" 
d="M356 457l80 -401c0 -3 1 -6 1 -8c0 -33 -31 -55 -61 -55c-21 0 -41 14 -45 34c-21 118 -39 234 -50 355c-22 -55 -40 -110 -65 -164l-88 -191c-10 -22 -35 -34 -55 -34c-29 0 -46 18 -46 45c0 10 1 13 3 16l196 404c18 37 37 53 73 53c34 0 49 -16 57 -54z" />
    <glyph glyph-name="uni043F.BUL" unicode="&#xe043f;" horiz-adv-x="529" 
d="M503 319l-30 -211c-3 -21 -3 -30 8 -44c5 -6 10 -12 10 -22c0 -30 -26 -50 -63 -50c-32 0 -77 13 -64 110l31 217c9 63 -15 100 -65 100c-30 0 -63 -11 -99 -31c1 -9 1 -17 0 -24l-45 -321c-4 -28 -25 -50 -61 -50s-51 22 -47 50l45 321c6 44 0 46 -5 56s-8 16 -8 25
c0 28 26 51 59 51c19 0 33 -11 43 -29c49 31 100 44 144 44c116 0 163 -77 147 -192z" />
    <glyph glyph-name="uni0442.BUL" unicode="&#xe0442;" horiz-adv-x="798" 
d="M634 102l33 235c7 45 -14 81 -63 81c-34 0 -72 -18 -102 -44c1 -11 2 -23 0 -35l-42 -296c-4 -28 -25 -50 -61 -50s-51 22 -47 50l38 274c9 59 5 101 -53 101c-34 0 -73 -15 -105 -33c0 -7 0 -15 -1 -21l-45 -321c-4 -28 -25 -50 -61 -50s-51 22 -47 50l45 321
c6 44 0 46 -5 56c-6 12 -9 19 -8 29c4 28 30 47 58 47c20 0 33 -11 42 -27c49 28 99 44 147 44s83 -16 109 -47c53 30 100 47 155 47c113 0 170 -70 155 -174l-33 -231c-3 -21 -3 -30 8 -44c5 -6 10 -12 10 -22c0 -30 -26 -50 -63 -50c-32 0 -78 13 -64 110z" />
    <glyph glyph-name="uni0446.BUL" unicode="&#xe0446;" horiz-adv-x="559" 
d="M370 166l42 295c4 28 26 49 61 49c34 0 51 -21 47 -49l-42 -295c-9 -64 1 -71 12 -75c32 -12 66 -17 61 -56l-18 -131c-4 -26 -32 -50 -61 -50c-31 0 -51 22 -47 50l14 102c-17 2 -33 19 -40 24c-55 -26 -111 -37 -157 -37c-116 0 -163 77 -147 192l39 276
c4 28 26 49 61 49c34 0 51 -21 47 -49l-39 -276c-9 -64 13 -100 63 -100c31 0 67 10 102 28c-2 16 0 34 2 53z" />
    <glyph glyph-name="uni0448.BUL" unicode="&#xe0448;" horiz-adv-x="792" 
d="M240 461l-41 -295c-6 -46 13 -82 64 -82c31 0 70 19 100 44c-2 11 0 23 2 36l38 275c5 35 16 71 64 71c34 0 51 -21 47 -49l-38 -276c-8 -59 -5 -101 53 -101c32 0 71 15 103 32l45 323c5 35 16 71 64 71c46 0 49 -36 44 -71l-44 -318c-5 -34 22 -45 22 -72
c0 -30 -31 -50 -57 -50c-24 0 -41 13 -52 32c-48 -25 -98 -41 -145 -41c-49 0 -84 15 -109 46c-52 -29 -103 -46 -152 -46c-118 0 -172 70 -157 174l38 275c5 35 16 71 64 71c34 0 51 -21 47 -49z" />
    <glyph glyph-name="uni0449.BUL" unicode="&#xe0449;" horiz-adv-x="828" 
d="M740 -147c-31 0 -51 22 -47 51l14 102c-17 4 -30 13 -40 26c-47 -25 -103 -43 -158 -43c-49 0 -84 16 -109 47c-52 -29 -103 -47 -152 -47c-118 0 -172 71 -157 175l41 297c4 28 26 49 61 49c34 0 51 -21 47 -49l-41 -295c-7 -46 13 -82 64 -82c32 0 70 16 100 38
c-1 13 0 27 2 42l41 297c4 28 26 49 61 49c34 0 51 -21 47 -49l-38 -276c-9 -59 -5 -101 53 -101c35 0 75 15 107 34c-1 15 0 31 3 48l41 295c4 28 25 49 61 49s51 -21 47 -49l-41 -295c-8 -53 2 -81 26 -81c30 0 50 -22 46 -50l-18 -131c-4 -29 -31 -51 -61 -51z" />
    <glyph glyph-name="uni044A.BUL" unicode="&#xe044a;" horiz-adv-x="554" 
d="M327 -7c-130 0 -183 79 -169 181l33 238h-71c-26 0 -45 18 -45 41c0 29 29 52 58 52h125c44 0 49 -38 44 -72l-17 -120c27 13 59 20 90 20c112 0 173 -65 173 -150c0 -107 -85 -190 -221 -190zM356 238c-62 0 -92 -30 -92 -81c0 -43 25 -70 76 -70c63 0 99 34 99 88
c0 39 -25 63 -83 63z" />
    <glyph glyph-name="uni044C.BUL" unicode="&#xe044c;" horiz-adv-x="492" 
d="M241 460l-21 -147c27 13 58 20 90 20c112 0 172 -65 172 -150c0 -107 -85 -190 -220 -190c-130 0 -184 79 -170 181l41 286c4 27 30 50 61 50c30 0 51 -23 47 -50zM290 238c-65 0 -91 -30 -91 -81c0 -43 25 -70 76 -70c61 0 99 34 99 88c0 39 -27 63 -84 63z" />
    <glyph glyph-name="uni044E.BUL" unicode="&#xe044e;" horiz-adv-x="715" 
d="M271 678l-52 -373h100l4 26c14 103 93 182 222 182c128 0 187 -79 172 -182l-23 -157c-14 -102 -94 -182 -222 -182c-129 0 -187 80 -172 182l6 42h-100l-24 -173c-4 -29 -30 -51 -60 -51c-31 0 -51 22 -47 51l89 635c4 26 29 51 60 51c30 0 51 -22 47 -51zM485 87
c58 0 93 33 101 87l23 158c7 53 -19 86 -77 86c-59 0 -94 -33 -101 -86l-22 -158c-8 -54 17 -87 76 -87z" />
    <glyph glyph-name="uni0431.SRB" unicode="&#xf0431;" horiz-adv-x="484" 
d="M82 300c9 60 45 112 107 143c-41 26 -62 62 -54 116c11 83 82 132 201 139c39 3 68 2 116 35c6 4 18 13 34 13c26 0 43 -22 39 -48c-8 -61 -112 -86 -200 -93c-27 -2 -77 -8 -84 -58c-7 -47 30 -64 83 -67c126 -11 175 -85 162 -180l-17 -126
c-15 -102 -96 -182 -228 -182s-191 80 -177 182zM254 87c62 0 98 33 106 87l18 127c8 53 -20 86 -82 86s-99 -33 -106 -86l-17 -127c-8 -54 19 -87 81 -87z" />
    <glyph glyph-name="uni0434.tri" unicode="&#xf0434;" horiz-adv-x="558" 
d="M410 457l73 -368h15c27 0 51 -22 47 -50l-15 -109c-5 -37 -22 -72 -64 -72c-40 0 -50 30 -45 67l11 75h-306l-11 -75c-5 -35 -24 -67 -63 -67c-31 0 -51 22 -47 50l18 131c4 28 30 50 61 50h16l179 369c21 36 40 53 74 53c33 0 49 -16 57 -54zM335 382
c-29 -69 -54 -138 -85 -206l-39 -87h162l-21 128c-9 54 -12 110 -17 165z" />
    <glyph glyph-name="parenright.caps" horiz-adv-x="295" 
d="M173 336c18 127 7 254 -42 365c-5 9 -9 20 -8 32c4 26 24 53 61 53c18 0 34 -8 42 -24c63 -127 77 -282 56 -426c-20 -144 -76 -298 -175 -426c-14 -16 -32 -24 -50 -24c-37 0 -49 27 -45 53c1 12 9 22 16 33c81 110 128 237 145 364z" />
    <glyph glyph-name="parenleft.caps" horiz-adv-x="296" 
d="M216 336c-18 -127 -7 -254 43 -364c5 -11 9 -21 7 -33c-3 -26 -24 -53 -60 -53c-19 0 -34 8 -43 24c-64 128 -76 282 -56 426s76 299 176 426c13 16 30 24 49 24c36 0 50 -27 46 -53c-2 -12 -9 -23 -16 -32c-82 -111 -128 -238 -146 -365z" />
    <glyph glyph-name="twosuperior" unicode="&#xb2;" 
d="M298 420c0 -16 -14 -28 -30 -28h-164c-16 0 -25 9 -25 23c0 10 2 19 6 25c25 42 62 74 101 106c37 31 89 64 89 112c0 26 -15 47 -46 47c-18 0 -33 -3 -47 -9c-13 -5 -23 -14 -35 -14s-22 9 -22 22c0 33 72 50 110 50c62 0 96 -38 96 -87c0 -45 -22 -77 -52 -105
c-43 -41 -96 -75 -128 -120h124c13 0 23 -10 23 -22z" />
    <glyph glyph-name="threesuperior" unicode="&#xb3;" 
d="M317 698c-30 -32 -60 -63 -89 -95c48 -5 80 -36 80 -85c0 -56 -42 -130 -131 -130c-21 0 -94 5 -94 39c0 14 14 28 30 28c18 0 31 -19 64 -19c57 0 76 43 76 74c0 33 -23 47 -56 47c-14 0 -17 -6 -29 -6s-20 10 -20 21c0 5 3 13 5 17l96 103h-95c-15 0 -24 10 -24 23
s14 30 32 30h139c14 0 25 -11 25 -26c0 -8 -3 -15 -9 -21z" />
    <glyph glyph-name="onesuperior" unicode="&#xb9;" 
d="M191 413l38 267l-56 -32c-8 -5 -17 -10 -27 -10c-11 0 -23 8 -21 23c2 10 6 18 15 23l108 60c5 4 10 5 15 5c17 0 29 -12 27 -28l-44 -308c-2 -13 -16 -26 -31 -26s-26 13 -24 26z" />
    <glyph glyph-name="fraction" unicode="&#x2044;" horiz-adv-x="139" 
d="M299 652l-323 -653c-7 -15 -19 -25 -31 -22c-8 2 -14 12 -14 23c0 14 1 15 6 24l321 651c8 16 19 25 31 22c8 -2 14 -12 14 -23s-2 -17 -4 -22z" />
    <glyph glyph-name="zerosuperior" unicode="&#x2070;" 
d="M229 705c-39 0 -58 -27 -63 -64l-21 -147c-4 -35 11 -58 46 -58c34 0 56 23 61 58l21 147c5 37 -6 64 -44 64zM236 754c75 0 101 -53 92 -117l-21 -143c-8 -60 -54 -107 -123 -107c-70 0 -101 47 -93 107l20 143c10 64 49 117 125 117z" />
    <glyph glyph-name="foursuperior" unicode="&#x2074;" 
d="M279 463l-7 -50c-2 -15 -16 -26 -31 -26s-25 11 -23 26l7 50h-117c-17 0 -26 13 -24 28c0 2 3 10 6 15l129 231c5 10 16 16 26 16c13 0 25 -12 23 -26c0 -3 -1 -6 -2 -9c-20 -34 -95 -171 -115 -205h81l12 87c3 15 16 26 31 26s25 -11 23 -26l-12 -87h14
c15 0 25 -11 23 -25s-15 -25 -30 -25h-14z" />
    <glyph glyph-name="fivesuperior" unicode="&#x2075;" 
d="M308 523c0 -61 -40 -135 -126 -135c-21 0 -99 5 -99 39c0 14 14 28 30 28c17 0 30 -19 64 -19c58 0 77 43 77 80c0 35 -21 52 -48 52c-13 0 -22 -3 -33 -8c-6 -3 -21 -15 -34 -15c-16 0 -26 12 -24 28l26 144c3 17 20 28 35 28h120c12 0 27 -6 27 -23
c0 -20 -18 -27 -35 -27h-101l-15 -87c13 6 27 8 41 8c58 0 95 -35 95 -93z" />
    <glyph glyph-name="sixsuperior" unicode="&#x2076;" 
d="M158 596c21 15 42 19 63 19c52 0 93 -32 93 -94c0 -70 -45 -134 -130 -134c-68 0 -92 52 -92 123c0 137 46 239 148 239c19 0 81 -4 81 -33c0 -13 -13 -25 -29 -25c-14 0 -29 9 -51 10c-55 0 -73 -46 -83 -105zM149 543l-1 -9c-6 -50 -3 -96 46 -96c48 0 65 41 65 77
c0 34 -19 50 -49 50c-23 0 -47 -9 -61 -22z" />
    <glyph glyph-name="sevensuperior" unicode="&#x2077;" 
d="M339 721c0 -7 -2 -12 -4 -16l-168 -301c-4 -9 -13 -17 -26 -17c-15 0 -27 9 -25 24c1 3 1 8 3 11l152 271h-124c-14 0 -26 11 -24 26c2 14 16 26 31 26h160c14 0 25 -11 25 -24z" />
    <glyph glyph-name="eightsuperior" unicode="&#x2078;" 
d="M318 504c0 -66 -59 -117 -134 -117c-69 0 -113 43 -105 103c6 42 34 69 69 88c-24 17 -37 42 -32 77c8 58 61 93 118 93c59 0 100 -37 93 -92c-5 -31 -24 -56 -54 -75c26 -17 45 -41 45 -77zM273 660c0 24 -19 41 -45 41c-30 0 -55 -19 -58 -46c-4 -29 17 -47 45 -53
c32 8 58 29 58 58zM262 498c0 31 -26 50 -57 56c-36 -7 -66 -29 -70 -62c-5 -32 19 -56 56 -56c40 0 71 28 71 62z" />
    <glyph glyph-name="ninesuperior" unicode="&#x2079;" 
d="M261 540c-21 -15 -43 -20 -63 -20c-52 0 -93 32 -93 94c0 70 43 135 128 135c70 0 94 -51 94 -125c0 -138 -46 -237 -149 -237c-19 0 -79 4 -79 33c0 11 11 25 27 25c13 0 29 -10 53 -10c54 0 73 46 82 105zM271 593l1 9c6 52 -1 96 -48 96s-64 -42 -64 -78
c0 -33 18 -49 48 -49c24 0 47 9 63 22z" />
    <glyph glyph-name="parenleftsuperior" unicode="&#x207d;" horiz-adv-x="148" 
d="M163 565c-9 -65 -4 -129 21 -185c3 -5 5 -10 4 -17c-2 -13 -12 -27 -30 -27c-10 0 -17 4 -21 13c-32 64 -38 142 -28 216c11 73 39 151 89 216c6 8 14 12 24 12c18 0 25 -13 23 -27c-1 -6 -5 -11 -9 -16c-40 -56 -64 -121 -73 -185z" />
    </font>
</defs>
</svg>
