<?xml version="1.0" standalone="no"?>
<!DOCTYPE svg PUBLIC "-//W3C//DTD SVG 1.1//EN" "http://www.w3.org/Graphics/SVG/1.1/DTD/svg11.dtd" >
<svg xmlns="http://www.w3.org/2000/svg" xmlns:xlink="http://www.w3.org/1999/xlink" version="1.1">
<metadata>
Created by FontForge 20190801 at Fri Nov 28 12:09:03 2014
 By Jimmy Wärting
(c) 2014 Sergiy S. Tkachenko / 4th february
(c) 2014 FirstSiteGuide.com
http://creativecommons.org/licenses/by-nd/4.0/
</metadata>
<defs>
<font id="BloggerSans" horiz-adv-x="250" >
  <font-face 
    font-family="Blogger Sans"
    font-weight="400"
    font-stretch="squinchy"
    units-per-em="1000"
    panose-1="2 0 5 6 3 0 0 2 0 4"
    ascent="760"
    descent="-240"
    x-height="505"
    cap-height="706"
    bbox="-59.3074 -243 840.678 943"
    underline-thickness="20"
    underline-position="-143"
    stemh="75"
    stemv="78"
    unicode-range="U+0020-F0434"
  />
<missing-glyph horiz-adv-x="760" 
 />
    <glyph glyph-name="ff" unicode="ff" horiz-adv-x="598" 
d="M343 33v504c0 127 75 184 175 188c16 1 91 1 91 -45c0 -23 -18 -37 -38 -37c-17 0 -33 7 -61 7c-59 0 -89 -48 -89 -105v-62h104c20 0 36 -16 36 -37s-17 -37 -36 -37h-104v-376c0 -21 -13 -38 -39 -38s-39 17 -39 38zM74 33v504c0 127 75 184 175 188c16 1 91 1 91 -45
c0 -23 -18 -37 -38 -37c-17 0 -33 7 -61 7c-59 0 -89 -48 -89 -105v-62h104c20 0 36 -16 36 -37s-17 -37 -36 -37h-104v-376c0 -21 -13 -38 -39 -38s-39 17 -39 38z" />
    <glyph glyph-name="fi" unicode="fi" horiz-adv-x="517" 
d="M450 668c0 -26 -21 -48 -48 -48s-48 22 -48 48c0 27 21 48 48 48s48 -21 48 -48zM441 31c0 -22 -17 -39 -39 -39s-39 17 -39 39v441c0 21 17 39 39 39s39 -18 39 -39v-441zM74 33v504c0 127 67 184 155 188c16 1 91 1 91 -45c0 -23 -18 -37 -38 -37c-17 0 -33 7 -61 7
c-45 0 -69 -48 -69 -105v-62h104c20 0 36 -16 36 -37s-16 -37 -36 -37h-104v-376c0 -21 -14 -38 -39 -38s-39 17 -39 38z" />
    <glyph glyph-name="fl" unicode="fl" horiz-adv-x="517" 
d="M74 33v504c0 127 67 184 155 188c16 1 91 1 91 -45c0 -23 -18 -37 -38 -37c-17 0 -33 7 -61 7c-45 0 -69 -48 -69 -105v-62h104c20 0 36 -16 36 -37s-16 -37 -36 -37h-104v-376c0 -21 -14 -38 -39 -38s-39 17 -39 38zM363 94v592c0 21 17 39 39 39s39 -17 39 -39v-592
c0 -22 3 -35 14 -47c2 -4 7 -11 7 -19c0 -20 -16 -36 -36 -36c-25 0 -63 12 -63 102z" />
    <glyph glyph-name="ffi" unicode="ffi" horiz-adv-x="754" 
d="M688 668c0 -26 -21 -48 -48 -48s-48 22 -48 48c0 27 21 48 48 48s48 -21 48 -48zM679 31c0 -22 -17 -39 -39 -39s-39 17 -39 39v441c0 21 17 39 39 39s39 -18 39 -39v-441zM332 33v504c0 127 67 184 155 188c12 1 71 1 71 -45c0 -23 -18 -37 -38 -37c-11 0 -23 7 -41 7
c-45 0 -69 -48 -69 -105v-62h104c20 0 36 -16 36 -37s-16 -37 -36 -37h-104v-376c0 -21 -14 -38 -39 -38s-39 17 -39 38zM74 33v504c0 127 75 184 175 188c16 1 91 1 91 -45c0 -23 -18 -37 -38 -37c-17 0 -33 7 -61 7c-59 0 -89 -48 -89 -105v-62h104c19 0 36 -16 36 -37
s-17 -37 -36 -37h-104v-376c0 -21 -13 -38 -39 -38s-39 17 -39 38z" />
    <glyph glyph-name="ffl" unicode="ffl" horiz-adv-x="785" 
d="M342 33v504c0 127 67 184 155 188c16 1 91 1 91 -45c0 -23 -18 -37 -38 -37c-17 0 -33 7 -61 7c-45 0 -69 -48 -69 -105v-62h104c20 0 36 -16 36 -37s-16 -37 -36 -37h-104v-376c0 -21 -14 -38 -39 -38s-39 17 -39 38zM631 94v592c0 21 17 39 39 39s39 -17 39 -39v-592
c0 -22 2 -35 14 -47c3 -4 7 -11 7 -19c0 -20 -16 -36 -36 -36c-25 0 -63 12 -63 102zM74 33v504c0 127 75 184 175 188c16 1 91 1 91 -45c0 -23 -18 -37 -38 -37c-17 0 -33 7 -61 7c-59 0 -89 -48 -89 -105v-62h104c20 0 36 -16 36 -37s-17 -37 -36 -37h-104v-376
c0 -21 -13 -38 -39 -38s-39 17 -39 38z" />
    <glyph glyph-name="uni0457_uni0457" unicode="&#x457;&#x457;" horiz-adv-x="480" 
d="M161 31c0 -22 -17 -39 -39 -39s-39 17 -39 39v441c0 21 17 39 39 39s39 -18 39 -39v-441zM81 619c0 -30 -23 -54 -53 -54c-29 0 -52 25 -52 54c0 28 23 52 52 52c30 0 53 -23 53 -52zM396 31c0 -22 -17 -39 -39 -39s-39 17 -39 39v441c0 21 17 39 39 39s39 -18 39 -39
v-441zM504 619c0 -30 -24 -54 -53 -54s-53 25 -53 54c0 28 24 52 53 52s53 -23 53 -52zM292 619c0 -30 -23 -54 -53 -54c-29 0 -52 25 -52 54c0 28 24 52 52 52c30 0 53 -23 53 -52z" />
    <glyph glyph-name=".notdef" horiz-adv-x="760" 
 />
    <glyph glyph-name="space" unicode=" " horiz-adv-x="300" 
 />
    <glyph glyph-name="exclam" unicode="!" horiz-adv-x="227" 
d="M83 202l-10 473c0 21 18 40 40 40s40 -19 40 -40l-10 -473c0 -17 -14 -32 -30 -32c-17 0 -30 15 -30 32zM168 45c0 -30 -24 -55 -53 -55c-30 0 -54 25 -54 55c0 29 24 53 54 53c29 0 53 -24 53 -53z" />
    <glyph glyph-name="quotedbl" unicode="&#x22;" horiz-adv-x="342" 
d="M56 485l29 243c4 19 25 33 47 30c23 -4 39 -23 34 -42l-56 -241c-3 -15 -18 -26 -32 -24c-15 3 -24 19 -22 34zM186 485l29 243c4 19 25 33 47 30c23 -4 39 -23 34 -42l-56 -241c-3 -15 -18 -26 -32 -24c-15 3 -24 19 -22 34z" />
    <glyph glyph-name="numbersign" unicode="#" horiz-adv-x="541" 
d="M111 483h60l45 201c5 18 19 28 37 28c18 -2 34 -18 33 -37c0 -2 0 -5 -1 -8l-41 -184h107l45 201c5 18 19 28 37 28c19 -2 34 -18 33 -37c0 -2 0 -5 -1 -8l-41 -184h35c20 0 39 -17 39 -39s-17 -39 -39 -39h-52l-23 -102h45c20 0 39 -17 39 -39s-17 -39 -39 -39h-62
l-45 -203c-5 -19 -19 -29 -37 -29c-19 2 -34 18 -34 38l2 9l41 185h-107l-45 -203c-5 -19 -19 -29 -37 -29c-18 2 -34 18 -34 38l2 9l41 185h-33c-22 0 -39 17 -39 39s19 39 39 39h50l23 102h-43c-22 0 -39 17 -39 39s19 39 39 39zM227 405l-23 -102h107l23 102h-107z" />
    <glyph glyph-name="dollar" unicode="$" horiz-adv-x="500" 
d="M225 -28v48c-68 2 -176 22 -176 74c0 20 16 39 37 39c26 0 63 -32 139 -35v228c-87 29 -175 62 -175 181c0 105 67 168 175 177v49c0 14 12 26 26 26s26 -12 26 -26v-49c58 -4 146 -19 146 -67c0 -20 -15 -38 -40 -38c-29 0 -50 22 -106 27v-215c86 -29 175 -63 175 -181
c0 -108 -73 -174 -175 -188v-50c0 -14 -12 -26 -26 -26s-26 12 -26 26zM368 202c0 58 -32 80 -57 92c-11 5 -22 10 -34 14v-207c60 10 91 45 91 101zM191 423c10 -5 22 -10 34 -15v197c-50 -7 -92 -31 -92 -92c0 -57 35 -79 58 -90z" />
    <glyph glyph-name="percent" unicode="%" horiz-adv-x="703" 
d="M196 396c-91 0 -141 70 -141 160s49 160 141 160s141 -70 141 -160s-49 -160 -141 -160zM507 -10c-92 0 -141 70 -141 160s49 160 141 160c91 0 141 -70 141 -160s-49 -160 -141 -160zM552 664l-337 -647c-9 -17 -26 -23 -43 -19c-18 7 -28 27 -23 46l4 8l337 646
c9 16 26 22 43 17c17 -6 28 -26 22 -44c0 -2 -1 -5 -3 -7zM196 458c50 0 73 36 73 100c0 60 -23 96 -73 96s-73 -36 -73 -96c0 -64 23 -100 73 -100zM507 52c50 0 73 36 73 100c0 60 -23 96 -73 96s-73 -36 -73 -96c0 -64 23 -100 73 -100z" />
    <glyph glyph-name="ampersand" unicode="&#x26;" horiz-adv-x="642" 
d="M595 30c0 -21 -16 -40 -38 -40c-16 0 -24 8 -35 21l-64 76c-50 -51 -113 -97 -204 -97c-123 0 -207 82 -207 190s77 169 150 213c-49 53 -82 106 -82 164c0 97 81 156 170 156c90 0 162 -65 162 -130c0 -21 -19 -38 -38 -38c-18 0 -31 13 -36 30c-9 33 -40 67 -85 67
c-50 0 -95 -33 -95 -87c0 -44 44 -91 79 -133l185 -213c24 37 43 78 60 116c10 24 19 25 35 25c19 0 37 -17 37 -38c0 -41 -46 -116 -81 -165l78 -93c6 -7 9 -15 9 -24zM409 146l-166 190c-58 -32 -119 -76 -119 -148c0 -67 49 -126 124 -126c69 0 118 36 161 84z" />
    <glyph glyph-name="quotesingle" unicode="'" horiz-adv-x="222" 
d="M56 485l29 243c4 19 25 33 47 30c23 -4 39 -23 34 -42l-56 -241c-3 -15 -18 -26 -32 -24c-15 3 -24 19 -22 34z" />
    <glyph glyph-name="parenleft" unicode="(" horiz-adv-x="276" 
d="M144 221c0 -136 29 -273 96 -392c5 -9 10 -18 10 -27c0 -21 -12 -42 -38 -42c-13 0 -25 6 -33 19c-80 132 -114 292 -114 442s34 310 114 442c8 13 20 19 33 19c26 0 38 -21 38 -42c0 -9 -5 -18 -10 -27c-67 -119 -96 -256 -96 -392z" />
    <glyph glyph-name="parenright" unicode=")" horiz-adv-x="275" 
d="M131 221c0 136 -29 273 -96 392c-5 9 -10 18 -10 27c0 21 12 42 38 42c13 0 25 -6 33 -19c80 -132 114 -292 114 -442s-34 -310 -114 -442c-8 -13 -20 -19 -33 -19c-26 0 -38 21 -38 42c0 9 5 18 10 27c67 119 96 256 96 392z" />
    <glyph glyph-name="asterisk" unicode="*" horiz-adv-x="495" 
d="M437 595c8 -22 -8 -39 -26 -45l-116 -32l75 -95c12 -15 15 -37 -6 -51c-20 -15 -40 -5 -50 9l-67 103c-22 -32 -45 -71 -67 -103c-11 -14 -30 -22 -50 -9c-19 13 -17 36 -6 51l76 95l-117 32c-18 6 -33 23 -26 45c8 24 29 28 47 22c38 -14 76 -31 114 -44l-6 122
c-1 18 10 37 35 37s36 -19 35 -37l-6 -122c38 13 76 30 114 44c18 6 39 2 47 -22z" />
    <glyph glyph-name="plus" unicode="+" horiz-adv-x="500" 
d="M211 145v170h-160c-22 0 -39 17 -39 39s19 39 39 39h160v170c0 20 17 39 39 39s39 -17 39 -39v-170h160c20 0 39 -17 39 -39s-17 -39 -39 -39h-160v-170c0 -22 -17 -39 -39 -39s-39 19 -39 39z" />
    <glyph glyph-name="comma" unicode="," horiz-adv-x="230" 
d="M168 45c0 -67 -49 -164 -76 -164c-10 0 -19 4 -19 17c0 32 25 50 37 92c-28 3 -49 26 -49 55s24 53 54 53c29 0 53 -24 53 -53z" />
    <glyph glyph-name="hyphen" unicode="-" horiz-adv-x="399" 
d="M360 295c0 -20 -16 -36 -36 -36h-249c-21 0 -37 16 -37 36s16 37 37 37h249c20 0 36 -17 36 -37z" />
    <glyph glyph-name="period" unicode="." horiz-adv-x="230" 
d="M168 45c0 -30 -24 -55 -53 -55c-30 0 -54 25 -54 55c0 29 24 53 54 53c29 0 53 -24 53 -53z" />
    <glyph glyph-name="slash" unicode="/" horiz-adv-x="280" 
d="M303 707l-257 -725c-6 -18 -24 -28 -42 -25c-20 4 -33 23 -30 44c0 2 1 5 2 8l257 724c6 18 24 27 42 24c19 -4 33 -23 30 -43c0 -2 -1 -5 -2 -7z" />
    <glyph glyph-name="zero" unicode="0" horiz-adv-x="500" 
d="M250 652c-87 0 -122 -62 -122 -148v-306c0 -80 43 -134 122 -134s122 54 122 134v306c0 86 -35 148 -122 148zM250 725c140 0 201 -103 201 -229v-298c0 -116 -71 -208 -201 -208s-201 92 -201 208v298c0 126 61 229 201 229z" />
    <glyph glyph-name="one" unicode="1" horiz-adv-x="500" 
d="M271 31v581l-123 -79c-14 -9 -30 -20 -44 -20c-17 0 -35 16 -35 34c0 14 6 27 18 35l197 126c8 5 15 7 24 7c24 0 43 -19 43 -43v-641c0 -21 -18 -40 -40 -40s-40 19 -40 40z" />
    <glyph glyph-name="two" unicode="2" horiz-adv-x="500" 
d="M454 38c0 -21 -17 -38 -39 -38h-329c-24 0 -41 18 -41 42c0 13 1 28 6 39c54 129 180 216 266 315c29 33 55 75 55 127c0 73 -42 129 -124 129c-38 0 -68 -7 -95 -19c-25 -11 -42 -28 -60 -28c-19 0 -38 15 -38 37c0 16 9 27 26 38c52 33 105 45 168 45
c127 0 201 -85 201 -191c0 -83 -30 -138 -72 -185c-82 -92 -188 -167 -238 -273h275c22 0 39 -17 39 -38z" />
    <glyph glyph-name="three" unicode="3" horiz-adv-x="500" 
d="M416 632l-168 -217c115 -3 200 -72 200 -196c0 -103 -59 -228 -203 -228c-41 0 -193 10 -193 74c0 20 16 38 37 38c7 0 14 -2 21 -6c29 -17 61 -34 113 -34c112 0 146 81 146 152c0 92 -58 129 -136 129c-18 0 -32 -2 -43 -6c-6 -2 -8 -6 -17 -6c-26 0 -45 35 -26 61
l179 233h-222c-22 0 -39 17 -39 39s17 41 39 41h279c25 0 43 -18 43 -45c0 -11 -3 -20 -10 -29z" />
    <glyph glyph-name="four" unicode="4" horiz-adv-x="500" 
d="M404 149v-119c0 -22 -17 -39 -39 -39s-39 17 -39 39v119h-250c-24 0 -41 20 -41 43c0 3 3 17 8 27l192 481c6 14 20 23 34 23c19 0 39 -18 39 -40c0 -4 0 -9 -2 -13l-179 -446h199v196c0 22 17 39 39 39c21 0 39 -17 39 -39v-196h43c21 0 37 -17 37 -37
c0 -21 -16 -38 -37 -38h-43z" />
    <glyph glyph-name="five" unicode="5" horiz-adv-x="500" 
d="M448 225c0 -112 -59 -234 -202 -234c-41 0 -194 10 -194 74c0 20 16 38 37 38c7 0 14 -2 21 -6c27 -16 60 -34 113 -34c112 0 146 79 146 158c0 100 -55 147 -126 147c-29 0 -52 -8 -73 -20c-22 -12 -34 -28 -54 -28c-22 0 -41 18 -40 43l10 299c1 28 24 44 46 44h241
c22 0 46 -10 46 -38c0 -27 -24 -37 -46 -37h-216l-8 -216c29 17 61 24 96 24c119 0 203 -80 203 -214z" />
    <glyph glyph-name="six" unicode="6" horiz-adv-x="500" 
d="M123 390c39 35 90 47 135 47c111 0 201 -73 201 -217c0 -125 -68 -230 -208 -230c-163 0 -210 143 -210 342c0 247 72 383 220 383c34 0 154 -7 154 -55c0 -18 -16 -37 -36 -37c-6 0 -13 2 -22 5c-22 7 -51 15 -83 15c-122 0 -151 -114 -151 -253zM121 305v-24
c0 -111 23 -213 134 -213c94 0 125 73 125 150c0 98 -50 143 -125 143c-55 0 -107 -24 -134 -56z" />
    <glyph glyph-name="seven" unicode="7" horiz-adv-x="500" 
d="M450 665c0 -6 -1 -15 -4 -22l-249 -627c-6 -16 -20 -25 -36 -25c-20 0 -38 14 -40 35c0 6 1 13 3 19l235 582h-271c-20 0 -38 18 -38 39c0 23 17 40 38 40h320c23 0 42 -18 42 -41z" />
    <glyph glyph-name="eight" unicode="8" horiz-adv-x="500" 
d="M471 195c0 -118 -91 -205 -221 -205c-128 0 -222 84 -222 201c0 89 54 145 123 182c-56 34 -98 86 -98 162c0 110 89 179 196 179c110 0 196 -73 196 -177c0 -68 -36 -120 -97 -158c69 -37 123 -93 123 -184zM368 533c0 65 -52 110 -118 110c-67 0 -119 -45 -119 -110
c0 -68 57 -111 121 -123c64 14 116 59 116 123zM392 196c0 82 -71 128 -145 142c-78 -16 -140 -67 -140 -143s62 -132 143 -132c83 0 142 58 142 133z" />
    <glyph glyph-name="nine" unicode="9" horiz-adv-x="500" 
d="M377 315c-39 -35 -90 -47 -135 -47c-110 0 -201 70 -201 219c0 123 62 228 204 228c164 0 214 -140 214 -350c0 -248 -70 -375 -220 -375c-35 0 -154 7 -154 55c0 18 16 37 36 37c6 0 13 -2 22 -5c22 -7 51 -15 83 -15c122 0 151 114 151 253zM379 400v24
c0 120 -36 213 -137 213c-90 0 -122 -74 -122 -151c0 -97 50 -142 126 -142c55 0 106 24 133 56z" />
    <glyph glyph-name="colon" unicode=":" horiz-adv-x="230" 
d="M168 45c0 -30 -24 -55 -53 -55c-30 0 -54 25 -54 55c0 29 24 53 54 53c29 0 53 -24 53 -53zM168 345c0 -30 -24 -55 -53 -55c-30 0 -54 25 -54 55c0 29 24 53 54 53c29 0 53 -24 53 -53z" />
    <glyph glyph-name="semicolon" unicode=";" horiz-adv-x="230" 
d="M168 45c0 -67 -49 -164 -76 -164c-10 0 -19 4 -19 17c0 32 25 50 37 92c-28 3 -49 26 -49 55s24 53 54 53c29 0 53 -24 53 -53zM168 345c0 -30 -24 -55 -53 -55c-30 0 -54 25 -54 55c0 29 24 53 54 53c29 0 53 -24 53 -53z" />
    <glyph glyph-name="less" unicode="&#x3c;" horiz-adv-x="625" 
d="M171 352l358 -180c16 -8 28 -22 28 -36c0 -27 -27 -51 -52 -38l-396 205c-22 13 -41 21 -41 49c0 29 18 36 41 50l396 205c27 9 52 -11 52 -38c0 -15 -12 -29 -28 -37z" />
    <glyph glyph-name="equal" unicode="=" horiz-adv-x="500" 
d="M91 303h318c20 0 39 -17 39 -39s-17 -39 -39 -39h-318c-22 0 -39 17 -39 39s19 39 39 39zM91 483h318c20 0 39 -17 39 -39s-17 -39 -39 -39h-318c-22 0 -39 17 -39 39s19 39 39 39z" />
    <glyph glyph-name="greater" unicode="&#x3e;" horiz-adv-x="625" 
d="M96 172l358 180l-358 180c-16 8 -28 22 -28 37c0 27 27 51 52 38l396 -205c23 -14 41 -21 41 -50c0 -28 -19 -36 -41 -49l-396 -205c-25 -13 -52 11 -52 38c0 14 12 28 28 36z" />
    <glyph glyph-name="question" unicode="?" horiz-adv-x="462" 
d="M273 249c-5 -11 -6 -26 -6 -39c0 -21 -18 -40 -40 -40s-40 19 -40 40c0 13 1 28 6 39c22 61 69 100 106 147c29 33 55 75 55 127c0 73 -42 129 -124 129c-38 0 -68 -7 -95 -19c-25 -11 -42 -28 -60 -28c-19 0 -38 15 -38 37c0 16 9 27 26 38c52 33 105 45 168 45
c127 0 201 -85 201 -191c0 -83 -30 -138 -72 -185c-30 -35 -69 -62 -87 -100zM281 45c0 -30 -24 -55 -53 -55c-30 0 -54 25 -54 55c0 29 24 53 54 53c29 0 53 -24 53 -53z" />
    <glyph glyph-name="at" unicode="@" horiz-adv-x="744" 
d="M512 14c-35 -15 -94 -27 -150 -27c-185 0 -298 132 -298 326c0 189 108 322 306 322c203 0 310 -141 310 -314c0 -94 -32 -163 -121 -163c-44 0 -73 16 -92 43c-37 -39 -72 -53 -110 -53c-85 0 -133 71 -133 165c0 98 52 165 150 165s127 -66 136 -160
c3 -36 9 -88 49 -88c33 0 43 34 43 84c0 142 -79 249 -231 249c-149 0 -229 -103 -229 -252s80 -252 234 -252c71 0 101 22 126 29c18 5 41 4 48 -22c7 -28 -15 -42 -38 -52zM432 320c-3 36 -6 86 -62 86c-48 0 -68 -36 -68 -96c0 -58 19 -92 62 -92c27 0 53 13 78 37
c-5 20 -8 42 -10 65z" />
    <glyph glyph-name="A" unicode="A" horiz-adv-x="549" 
d="M147 159l-42 -139c-6 -18 -24 -30 -38 -30c-23 0 -42 16 -42 40c0 4 1 12 2 15l195 617c9 30 23 53 52 53c30 0 43 -22 53 -53l195 -617c1 -3 2 -11 2 -15c0 -24 -18 -40 -42 -40c-15 0 -34 12 -39 30l-43 139h-253zM274 576l-103 -339h206z" />
    <glyph glyph-name="B" unicode="B" horiz-adv-x="542" 
d="M153 405h115c65 0 137 38 137 119c0 53 -30 103 -120 103h-132v-222zM271 327h-118v-249h122c100 0 149 49 149 121c0 83 -65 128 -153 128zM286 0h-165c-27 0 -48 22 -48 48v609c0 27 22 48 48 48h169c130 0 195 -89 195 -182c0 -86 -55 -129 -129 -160
c67 -21 148 -51 148 -163c0 -113 -83 -200 -218 -200z" />
    <glyph glyph-name="C" unicode="C" horiz-adv-x="482" 
d="M45 246v214c0 154 71 255 225 255c91 0 177 -39 177 -86c0 -19 -15 -35 -36 -35c-14 0 -20 7 -36 17c-30 21 -61 31 -100 31c-113 0 -150 -70 -150 -182v-214c0 -112 37 -182 150 -182c39 0 70 10 100 31c17 10 22 17 36 17c21 0 36 -16 36 -35c0 -47 -86 -86 -177 -86
c-154 0 -225 101 -225 255z" />
    <glyph glyph-name="D" unicode="D" horiz-adv-x="554" 
d="M508 264c0 -137 -69 -264 -274 -264h-113c-26 0 -48 22 -48 48v610c0 26 22 48 48 48h113c204 0 274 -121 274 -255v-187zM428 264v187c0 99 -47 177 -177 177h-98v-550h98c132 0 177 83 177 186z" />
    <glyph glyph-name="E" unicode="E" horiz-adv-x="474" 
d="M441 41c0 -23 -18 -41 -40 -41h-265c-33 0 -63 11 -63 47v611c0 23 20 47 47 47h271c22 0 40 -18 40 -40s-18 -38 -40 -38h-238v-234h219c20 0 39 -17 39 -39s-17 -39 -39 -39h-219v-237h248c21 0 40 -17 40 -37z" />
    <glyph glyph-name="F" unicode="F" horiz-adv-x="474" 
d="M153 315v-285c0 -21 -18 -40 -40 -40s-40 19 -40 40v628c0 23 20 47 47 47h271c22 0 40 -18 40 -40s-18 -38 -40 -38h-238v-234h219c20 0 39 -17 39 -39s-17 -39 -39 -39h-219z" />
    <glyph glyph-name="G" unicode="G" horiz-adv-x="520" 
d="M125 460v-214c0 -112 37 -182 150 -182c48 0 83 14 113 37v215h-97c-20 0 -38 17 -38 38s18 38 38 38h119c32 0 57 -14 57 -46v-239c0 -81 -108 -116 -197 -116c-154 0 -225 101 -225 255v214c0 154 71 255 225 255c91 0 177 -39 177 -86c0 -19 -15 -35 -36 -35
c-14 0 -20 7 -36 17c-30 21 -61 31 -100 31c-113 0 -150 -70 -150 -182z" />
    <glyph glyph-name="H" unicode="H" horiz-adv-x="580" 
d="M506 31c0 -22 -18 -41 -40 -41c-21 0 -40 19 -40 41v283h-273v-283c0 -22 -18 -41 -40 -41s-40 19 -40 41v644c0 21 18 40 40 40s40 -19 40 -40v-283h273v283c0 21 19 40 40 40s40 -19 40 -40v-644z" />
    <glyph glyph-name="I" unicode="I" horiz-adv-x="227" 
d="M73 30v645c0 21 18 40 40 40s40 -19 40 -40v-645c0 -21 -18 -40 -40 -40s-40 19 -40 40z" />
    <glyph glyph-name="J" unicode="J" horiz-adv-x="385" 
d="M312 675v-450c0 -146 -47 -235 -202 -235c-28 0 -85 3 -85 45c0 25 20 39 35 39c11 0 30 -7 61 -7c92 0 111 61 111 158v450c0 22 17 40 40 40c21 0 40 -19 40 -40z" />
    <glyph glyph-name="K" unicode="K" horiz-adv-x="498" 
d="M420 9l-217 315l-50 -61v-232c0 -22 -18 -41 -40 -41s-40 19 -40 41v644c0 21 18 40 40 40s40 -19 40 -40v-291l253 312c7 10 22 19 36 19c15 0 37 -12 35 -40c-1 -11 -4 -18 -9 -25l-215 -264l233 -334c4 -7 5 -12 5 -19c0 -19 -8 -43 -37 -43c-15 0 -25 6 -34 19z" />
    <glyph glyph-name="L" unicode="L" horiz-adv-x="448" 
d="M438 39c0 -22 -17 -39 -38 -39h-282c-24 0 -45 20 -45 45v630c0 21 18 40 40 40s40 -19 40 -40v-598h247c20 0 38 -17 38 -38z" />
    <glyph glyph-name="M" unicode="M" horiz-adv-x="699" 
d="M628 673v-644c0 -21 -18 -39 -39 -39c-22 0 -41 18 -41 39v487l-161 -344c-8 -16 -22 -24 -39 -24c-16 0 -30 8 -38 24l-161 344v-487c0 -21 -19 -39 -42 -39c-21 0 -38 18 -38 39v644c0 24 18 42 42 42c20 0 34 -9 43 -26l195 -418l195 419c10 18 25 25 42 25
c24 0 42 -19 42 -42z" />
    <glyph glyph-name="N" unicode="N" horiz-adv-x="600" 
d="M482 -10c-16 0 -33 9 -41 23l-288 533v-515c0 -22 -19 -41 -41 -41s-39 19 -39 41v640c0 25 18 44 43 44c17 0 34 -9 42 -24l288 -532v515c0 22 19 41 41 41s39 -19 39 -41v-640c0 -24 -18 -44 -44 -44z" />
    <glyph glyph-name="O" unicode="O" horiz-adv-x="551" 
d="M275 -10c-153 0 -230 114 -230 256v214c0 139 65 255 230 255s230 -116 230 -255v-214c0 -142 -77 -256 -230 -256zM275 637c-110 0 -150 -71 -150 -177v-214c0 -105 47 -178 150 -178s150 73 150 178v214c0 106 -40 177 -150 177z" />
    <glyph glyph-name="P" unicode="P" horiz-adv-x="530" 
d="M268 260h-115v-228c0 -22 -18 -42 -40 -42c-21 0 -40 19 -40 42v625c0 26 22 48 48 48h147c166 0 225 -107 225 -224c0 -142 -88 -221 -225 -221zM153 627v-289h115c95 0 145 46 145 144c0 72 -27 145 -145 145h-115z" />
    <glyph glyph-name="Q" unicode="Q" horiz-adv-x="551" 
d="M383 -177c-88 0 -139 68 -145 170c-128 16 -193 123 -193 253v214c0 139 65 255 230 255s230 -116 230 -255v-214c0 -129 -63 -234 -188 -252c2 -73 30 -99 79 -99c10 0 23 1 29 1c23 0 39 -14 39 -37c0 -35 -35 -36 -81 -36zM275 637c-110 0 -150 -71 -150 -177v-214
c0 -105 47 -178 150 -178s150 73 150 178v214c0 106 -40 177 -150 177z" />
    <glyph glyph-name="R" unicode="R" horiz-adv-x="575" 
d="M511 505c0 -106 -60 -171 -155 -190l160 -263c3 -6 5 -15 5 -23c0 -21 -27 -38 -43 -38c-14 0 -26 7 -33 19l-177 300h-115v-278c0 -22 -19 -42 -41 -42c-21 0 -39 19 -39 42v625c0 26 21 48 46 48h174c165 0 218 -101 218 -200zM431 505c0 59 -26 122 -142 122h-136
v-240h142c88 0 136 41 136 118z" />
    <glyph glyph-name="S" unicode="S" horiz-adv-x="486" 
d="M360 191c0 65 -32 88 -57 101c-95 50 -261 51 -261 228c0 121 78 195 202 195c50 0 171 -12 171 -68c0 -20 -15 -38 -40 -38c-31 0 -57 28 -125 28c-64 0 -125 -25 -125 -112c0 -66 35 -88 58 -100c96 -50 261 -52 261 -227c0 -132 -93 -208 -219 -208
c-64 0 -184 20 -184 74c0 20 16 39 36 39c28 0 71 -35 149 -35c89 0 134 45 134 123z" />
    <glyph glyph-name="T" unicode="T" horiz-adv-x="483" 
d="M201 30v597h-136c-23 0 -40 18 -40 39c0 17 18 39 40 39h352c21 0 41 -17 41 -39c0 -21 -19 -39 -41 -39h-136v-597c0 -21 -18 -40 -40 -40s-40 19 -40 40z" />
    <glyph glyph-name="U" unicode="U" horiz-adv-x="572" 
d="M507 230c0 -139 -82 -240 -221 -240c-142 0 -221 102 -221 240v443c0 24 18 42 41 42c21 0 39 -19 39 -42v-443c0 -96 45 -162 141 -162s140 68 140 162v443c0 22 17 42 39 42c24 0 42 -20 42 -42v-443z" />
    <glyph glyph-name="V" unicode="V" horiz-adv-x="529" 
d="M95 685l169 -556l169 556c5 18 24 30 39 30c24 0 42 -16 42 -40c0 -4 -1 -12 -2 -15l-195 -617c-10 -31 -23 -53 -53 -53c-29 0 -43 23 -52 53l-195 617c-1 3 -2 11 -2 15c0 24 19 40 42 40c14 0 32 -12 38 -30z" />
    <glyph glyph-name="W" unicode="W" horiz-adv-x="776" 
d="M503 47l-115 503l-116 -504c-7 -26 -20 -56 -53 -56c-29 0 -47 26 -54 56l-149 619c-1 0 -1 11 -1 11c0 22 24 35 45 35c16 0 31 -9 36 -29l124 -533l116 508c9 37 18 58 52 58c32 0 43 -23 51 -58l116 -508l124 533c6 18 18 29 34 29c21 0 48 -11 48 -36
c0 -2 -1 -6 -2 -11l-149 -618c-7 -29 -23 -56 -53 -56s-47 28 -54 57z" />
    <glyph glyph-name="X" unicode="X" horiz-adv-x="500" 
d="M250 303l-159 -284c-7 -13 -19 -29 -38 -29c-20 0 -38 20 -38 41c0 8 3 17 6 22l182 314l-167 287c-3 6 -5 15 -5 22c0 20 17 39 37 39c18 0 33 -17 43 -35l139 -249l139 249c9 15 24 35 44 35c19 0 36 -18 36 -40c0 -7 -2 -15 -5 -21l-167 -287l182 -314
c3 -5 6 -14 6 -22c0 -21 -18 -41 -37 -41s-31 15 -39 29z" />
    <glyph glyph-name="Y" unicode="Y" horiz-adv-x="476" 
d="M238 -10c-23 0 -41 19 -41 42v245l-178 378c-2 5 -4 13 -4 19c0 22 20 41 41 41c12 0 25 -5 31 -16l151 -329l151 329c6 11 19 16 31 16c21 0 41 -19 41 -41c0 -6 -2 -14 -4 -19l-178 -380v-243c0 -22 -18 -42 -41 -42z" />
    <glyph glyph-name="Z" unicode="Z" horiz-adv-x="484" 
d="M454 41c0 -23 -18 -41 -40 -41h-343c-24 0 -42 20 -42 44c0 9 6 25 10 32l308 549h-277c-22 0 -39 17 -39 40c0 21 17 40 39 40h339c25 0 43 -19 43 -43c0 -12 -5 -22 -10 -31l-310 -551h282c21 0 40 -17 40 -39z" />
    <glyph glyph-name="bracketleft" unicode="[" horiz-adv-x="294" 
d="M268 -83c0 -29 -27 -38 -51 -38h-102c-20 0 -38 18 -38 38v846c0 28 24 38 52 38h102c18 0 37 -17 37 -37c0 -29 -26 -38 -50 -38h-62v-772h62c26 0 50 -9 50 -37z" />
    <glyph glyph-name="backslash" unicode="\" horiz-adv-x="280" 
d="M233 -18l-257 725c-1 2 -2 5 -2 7c-3 20 11 39 30 43c18 3 36 -6 42 -24l257 -724c1 -3 2 -6 2 -8c3 -21 -10 -40 -30 -44c-18 -3 -36 7 -42 25z" />
    <glyph glyph-name="bracketright" unicode="]" horiz-adv-x="294" 
d="M216 -83c0 -21 -17 -38 -38 -38h-102c-25 0 -52 9 -52 38s26 37 51 37h62v772h-62c-24 0 -51 8 -51 38c0 28 27 37 52 37h102c19 0 38 -19 38 -38v-846z" />
    <glyph glyph-name="asciicircum" unicode="^" horiz-adv-x="326" 
d="M162 650l-105 -130c-4 -7 -15 -13 -25 -13c-18 0 -30 11 -30 27c1 12 8 25 19 38l111 136c7 9 17 15 30 15s23 -6 30 -15l111 -136c11 -13 18 -26 19 -38c0 -16 -12 -27 -30 -27c-10 0 -21 6 -25 13z" />
    <glyph glyph-name="underscore" unicode="_" horiz-adv-x="600" 
d="M5 -161h590c20 0 39 -17 39 -39s-17 -39 -39 -39h-590c-22 0 -39 17 -39 39s19 39 39 39z" />
    <glyph glyph-name="grave" unicode="`" horiz-adv-x="197" 
d="M95 705l78 -81c4 -5 5 -10 5 -15c0 -21 -16 -35 -33 -35c-13 0 -21 7 -32 18l-81 86c-4 5 -5 12 -5 17c0 19 17 33 31 33c18 0 23 -10 37 -23z" />
    <glyph glyph-name="a" unicode="a" horiz-adv-x="482" 
d="M322 281v57c0 73 -35 107 -107 107c-35 0 -54 -9 -76 -21c-3 -1 -15 -8 -26 -8c-19 0 -27 18 -28 33c-4 46 71 65 140 65c125 0 175 -70 175 -202v-220c0 -20 6 -30 18 -30c3 0 4 1 8 1c19 0 29 -17 29 -34c0 -25 -23 -34 -45 -34c-33 0 -60 19 -75 50
c-38 -35 -83 -53 -137 -53c-103 0 -153 61 -153 151v4c0 98 58 148 176 148c36 0 70 -5 101 -14zM220 229c-82 0 -98 -38 -98 -83v-4c0 -47 21 -80 88 -80c43 0 77 14 112 44v108c-33 10 -72 15 -102 15z" />
    <glyph glyph-name="b" unicode="b" horiz-adv-x="485" 
d="M152 396v-246c0 -54 40 -86 105 -86c72 0 105 40 105 106v188c0 55 -29 88 -96 88c-50 0 -86 -19 -114 -50zM74 150v537c0 20 14 38 39 38s39 -18 39 -38v-214c37 26 79 41 133 41c114 0 155 -68 155 -156v-188c0 -100 -61 -178 -183 -178c-116 0 -183 70 -183 158z" />
    <glyph glyph-name="c" unicode="c" horiz-adv-x="393" 
d="M45 176v151c0 103 54 184 179 184c47 0 139 -14 139 -61c0 -18 -15 -34 -34 -34c-5 0 -10 1 -16 3c-24 12 -46 23 -81 23c-78 0 -109 -42 -109 -115v-151c0 -73 31 -115 109 -115c35 0 57 11 81 23c6 2 11 3 16 3c19 0 34 -16 34 -34c0 -47 -92 -61 -139 -61
c-125 0 -179 81 -179 184z" />
    <glyph glyph-name="d" unicode="d" horiz-adv-x="488" 
d="M212 510c33 0 75 -7 111 -19v196c0 21 14 38 39 38s39 -17 39 -38v-573c0 -28 6 -45 26 -60c4 -6 7 -11 7 -20c0 -21 -18 -35 -35 -35c-23 0 -41 13 -53 32c-44 -22 -92 -39 -142 -39c-105 0 -159 77 -159 189v127c0 119 40 202 167 202zM323 114v307
c-33 14 -77 21 -101 21c-73 0 -99 -41 -99 -134v-127c0 -78 31 -119 97 -119c32 0 71 11 105 29c-2 8 -2 16 -2 23z" />
    <glyph glyph-name="e" unicode="e" horiz-adv-x="435" 
d="M232 61c42 0 69 12 104 28c2 1 7 3 14 3c20 0 35 -17 35 -35c0 -49 -108 -65 -162 -65c-113 0 -178 72 -178 166v187c0 96 64 169 183 169c111 0 166 -64 166 -163c0 -92 -50 -148 -169 -148c-30 0 -67 3 -102 9v-59c0 -56 37 -92 109 -92zM317 351c0 65 -33 92 -91 92
c-65 0 -103 -35 -103 -91v-76c37 -5 85 -7 105 -7c76 0 89 41 89 82z" />
    <glyph glyph-name="f" unicode="f" horiz-adv-x="329" 
d="M74 33v504c0 127 75 184 175 188c16 1 91 1 91 -45c0 -23 -18 -37 -38 -37c-17 0 -33 7 -61 7c-59 0 -89 -48 -89 -105v-62h104c20 0 36 -16 36 -37s-16 -37 -36 -37h-104v-376c0 -21 -14 -38 -39 -38s-39 17 -39 38z" />
    <glyph glyph-name="g" unicode="g" horiz-adv-x="493" 
d="M231 514c46 0 93 -12 131 -34c22 41 58 58 80 58c21 0 37 -15 37 -35c0 -10 -4 -17 -7 -20c-38 -37 -54 -48 -54 -97v-62c0 -102 -61 -180 -181 -180c-30 0 -56 4 -79 13c-9 -17 -12 -34 -12 -46c0 -35 32 -44 54 -44h42c114 0 200 -47 200 -147
c0 -101 -87 -163 -205 -163c-113 0 -192 57 -192 154c0 49 19 87 53 120c-23 23 -30 54 -30 77c0 24 8 55 38 82c-35 33 -54 82 -54 141c0 104 59 183 179 183zM340 385c0 10 1 20 2 29c-31 19 -64 30 -101 30c-74 0 -111 -41 -111 -115c0 -68 32 -113 107 -113
c71 0 103 40 103 106v63zM202 -5c-17 0 -32 2 -45 5c-24 -21 -34 -46 -34 -78c0 -60 39 -93 116 -93c72 0 125 29 125 89c0 53 -40 77 -120 77h-42z" />
    <glyph glyph-name="h" unicode="h" horiz-adv-x="507" 
d="M151 31c0 -22 -16 -39 -38 -39s-39 17 -39 39v661c0 20 16 39 38 39s39 -17 39 -39v-220c34 26 77 42 125 42c107 0 156 -69 156 -166v-317c0 -22 -18 -39 -39 -39c-22 0 -39 17 -39 39v316c0 61 -25 94 -87 94c-41 0 -87 -18 -116 -57v-353z" />
    <glyph glyph-name="i" unicode="i" horiz-adv-x="245" 
d="M170 668c0 -26 -21 -48 -48 -48s-48 22 -48 48c0 27 21 48 48 48s48 -21 48 -48zM161 31c0 -22 -17 -39 -39 -39s-39 17 -39 39v441c0 21 17 39 39 39s39 -18 39 -39v-441z" />
    <glyph glyph-name="j" unicode="j" horiz-adv-x="245" 
d="M161 472v-487c0 -105 -51 -174 -141 -187c-8 -1 -13 -1 -19 -1c-16 0 -29 10 -33 26c-7 27 15 40 30 43c54 12 85 42 85 115v491c0 21 17 39 39 39s39 -18 39 -39zM170 668c0 -26 -21 -48 -48 -48s-48 22 -48 48c0 27 21 48 48 48s48 -21 48 -48z" />
    <glyph glyph-name="k" unicode="k" horiz-adv-x="439" 
d="M152 686v-373l181 188c5 6 15 9 24 9c21 0 37 -16 37 -36c0 -10 -3 -19 -10 -26l-147 -150l169 -250c4 -6 6 -16 6 -23c-1 -20 -17 -33 -37 -33c-13 0 -24 6 -32 19l-155 236l-36 -37v-179c0 -22 -17 -39 -39 -39s-39 17 -39 39v655c0 22 17 39 39 39s39 -17 39 -39z" />
    <glyph glyph-name="l" unicode="l" horiz-adv-x="228" 
d="M74 94v592c0 21 17 39 39 39s39 -17 39 -39v-592c0 -22 2 -35 14 -47c3 -4 7 -11 7 -19c0 -20 -16 -36 -36 -36c-25 0 -63 12 -63 102z" />
    <glyph glyph-name="m" unicode="m" horiz-adv-x="778" 
d="M625 31v311c0 56 -30 100 -91 100c-43 0 -86 -23 -110 -53c3 -14 5 -29 5 -45v-313c0 -21 -13 -38 -39 -38s-39 17 -39 38v290c0 71 -12 121 -83 121c-44 0 -88 -19 -116 -40c2 -12 3 -22 3 -31v-340c0 -21 -13 -38 -39 -38s-39 17 -39 38v340c0 55 -9 55 -18 70
c-2 4 -7 10 -7 20c0 20 16 35 37 35c17 0 30 -11 40 -27c44 28 94 45 146 45c55 0 91 -18 116 -51c42 32 89 51 145 51c108 0 167 -69 167 -170v-313c0 -21 -13 -38 -39 -38s-39 17 -39 38z" />
    <glyph glyph-name="n" unicode="n" horiz-adv-x="509" 
d="M155 371v-340c0 -21 -13 -38 -39 -38s-39 17 -39 38v340c0 55 -9 55 -18 70c-2 4 -7 10 -7 20c0 20 16 35 37 35c18 0 31 -12 42 -29c44 31 95 45 143 45c106 0 159 -76 159 -189v-292c0 -21 -14 -38 -39 -38s-39 17 -39 38v292c0 76 -32 119 -92 119
c-39 0 -77 -16 -111 -42c2 -11 3 -21 3 -29z" />
    <glyph glyph-name="o" unicode="o" horiz-adv-x="464" 
d="M232 -8c-122 0 -187 78 -187 178v167c0 100 65 178 187 178s187 -78 187 -178v-167c0 -100 -65 -178 -187 -178zM232 64c72 0 109 40 109 106v168c0 65 -37 105 -109 105s-109 -40 -109 -105v-168c0 -66 37 -106 109 -106z" />
    <glyph glyph-name="p" unicode="p" horiz-adv-x="478" 
d="M266 -7c-34 0 -75 7 -111 19v-189c0 -21 -14 -38 -39 -38s-39 17 -39 38v546c0 33 -4 52 -16 70c-4 6 -7 11 -7 20c0 21 18 35 35 35c16 0 29 -10 39 -24c45 24 94 44 146 44c105 0 159 -77 159 -189v-130c0 -119 -40 -202 -167 -202zM155 369v-287
c32 -15 76 -21 101 -21c73 0 99 41 99 134v130c0 78 -31 119 -97 119c-34 0 -74 -13 -108 -34c3 -15 5 -29 5 -41z" />
    <glyph glyph-name="q" unicode="q" horiz-adv-x="485" 
d="M333 107v246c0 56 -40 89 -105 89c-72 0 -105 -41 -105 -109v-158c0 -71 27 -114 98 -114c41 0 82 14 112 46zM411 353v-530c0 -21 -13 -38 -39 -38s-39 17 -39 38v207c-36 -23 -77 -37 -128 -37c-121 0 -160 78 -160 182v158c0 102 61 181 183 181
c116 0 183 -71 183 -161z" />
    <glyph glyph-name="r" unicode="r" horiz-adv-x="337" 
d="M155 369v-338c0 -22 -17 -39 -39 -39s-39 17 -39 39v338c0 33 -4 52 -16 70c-4 6 -7 11 -7 20c0 21 17 35 36 35c16 0 30 -11 40 -27c43 27 99 43 137 43c40 0 52 -17 52 -38c0 -25 -18 -41 -39 -40c-41 1 -77 1 -127 -36c1 -10 2 -19 2 -27z" />
    <glyph glyph-name="s" unicode="s" horiz-adv-x="406" 
d="M53 370c0 86 56 144 162 144c52 0 133 -14 133 -56c0 -19 -15 -36 -36 -36c-7 0 -12 2 -18 5c-21 10 -40 18 -76 18c-61 0 -89 -24 -89 -70c0 -31 13 -47 47 -64c69 -34 186 -43 186 -173c0 -90 -57 -146 -168 -146c-51 0 -147 12 -147 58c0 17 13 36 37 36
c6 0 7 -1 10 -2c28 -11 60 -23 100 -23c55 0 92 22 92 74c0 36 -17 51 -37 62c-63 34 -196 41 -196 173z" />
    <glyph glyph-name="t" unicode="t" horiz-adv-x="321" 
d="M74 203v418c0 21 14 38 39 38s39 -17 39 -38v-138h104c20 0 36 -16 36 -37s-16 -37 -36 -37h-104v-199c0 -103 10 -141 82 -141c6 0 13 1 19 1c23 0 52 -4 52 -36c0 -34 -29 -38 -57 -38c-140 0 -174 69 -174 207z" />
    <glyph glyph-name="u" unicode="u" horiz-adv-x="509" 
d="M352 123v350c0 21 13 38 39 38s39 -17 39 -38v-350c0 -55 10 -55 18 -70c2 -4 7 -11 7 -20c0 -19 -16 -35 -37 -35c-19 0 -32 12 -43 30c-44 -25 -95 -36 -142 -36c-106 0 -159 76 -159 189v292c0 21 14 38 39 38s39 -17 39 -38v-292c0 -76 32 -119 92 -119
c39 0 77 12 110 33c-1 10 -2 20 -2 28z" />
    <glyph glyph-name="v" unicode="v" horiz-adv-x="430" 
d="M404 462l-136 -423c-11 -33 -25 -47 -51 -47c-27 0 -40 14 -51 46l-139 427c-8 24 15 46 38 46c15 0 29 -9 35 -26l117 -377l115 377c5 15 20 26 35 26c24 0 44 -23 37 -49z" />
    <glyph glyph-name="w" unicode="w" horiz-adv-x="655" 
d="M629 465l-115 -428c-9 -30 -21 -45 -50 -45c-21 0 -40 12 -46 34l-90 351l-89 -351c-7 -24 -22 -34 -47 -34c-27 0 -42 17 -50 45l-116 431c-1 2 -1 4 -1 6c0 19 17 37 39 37c16 0 31 -10 36 -28l94 -368c31 121 60 239 90 361c5 20 21 35 45 35c23 0 38 -15 43 -35
c29 -122 60 -240 91 -361l93 368c4 16 19 28 36 28c20 0 38 -17 38 -39c0 -2 -1 -5 -1 -7z" />
    <glyph glyph-name="x" unicode="x" horiz-adv-x="431" 
d="M261 258l140 -208c4 -6 5 -12 5 -17c0 -22 -16 -41 -40 -41c-18 0 -26 8 -38 27l-113 174l-118 -181c-9 -14 -19 -20 -32 -20c-22 0 -40 16 -40 39c0 6 1 11 5 17l140 208l-131 198c-4 5 -6 12 -6 17c0 21 17 40 39 40s34 -19 44 -34l101 -155l105 163c10 16 19 26 37 26
s38 -16 38 -37c0 -6 -1 -13 -5 -19z" />
    <glyph glyph-name="y" unicode="y" horiz-adv-x="412" 
d="M397 460l-122 -397c-48 -156 -86 -263 -216 -266c-23 0 -40 16 -40 38c0 18 14 36 37 37c63 3 91 37 121 130l-159 459c-2 3 -2 10 -2 14c0 21 17 36 39 36c15 0 29 -9 35 -26l125 -379l109 379c6 17 21 26 36 26c20 0 39 -16 39 -39c0 -4 -1 -8 -2 -12z" />
    <glyph glyph-name="z" unicode="z" horiz-adv-x="384" 
d="M367 465c0 -9 -3 -19 -9 -28l-247 -365h221c21 0 37 -16 37 -36s-16 -36 -37 -36h-277c-21 0 -40 18 -40 42c0 8 2 17 7 25l248 366h-209c-20 0 -36 16 -36 36c0 21 16 36 36 36h265c22 0 41 -15 41 -40z" />
    <glyph glyph-name="braceleft" unicode="{" horiz-adv-x="417" 
d="M70 205c-23 0 -39 12 -39 36s16 36 39 36c51 0 75 28 79 90c4 61 7 130 11 185c5 76 69 123 157 123c28 0 59 -5 59 -43c0 -35 -26 -32 -42 -30c-8 1 -20 2 -27 2c-35 0 -69 -23 -71 -64l-8 -167c-3 -62 -27 -109 -72 -132c45 -23 69 -70 72 -132l8 -167
c2 -41 36 -64 70 -64c7 0 20 1 28 2c16 2 42 5 42 -30c0 -38 -31 -43 -59 -43c-88 0 -152 47 -157 123l-11 185c-4 62 -28 90 -79 90z" />
    <glyph glyph-name="bar" unicode="|" horiz-adv-x="227" 
d="M77 -204v927c0 19 16 36 36 36s36 -17 36 -36v-927c0 -19 -16 -36 -36 -36s-36 17 -36 36z" />
    <glyph glyph-name="braceright" unicode="}" horiz-adv-x="417" 
d="M347 205c-51 0 -75 -28 -79 -90l-11 -185c-5 -76 -69 -123 -157 -123c-28 0 -59 5 -59 43c0 35 26 32 42 30c8 -1 21 -2 28 -2c34 0 68 23 70 64l8 167c3 62 26 109 71 132c-45 23 -68 70 -71 132l-8 167c-2 41 -36 64 -71 64c-7 0 -19 -1 -27 -2c-16 -2 -42 -5 -42 30
c0 38 31 43 59 43c88 0 152 -47 157 -123c4 -55 7 -124 11 -185c4 -62 28 -90 79 -90c23 0 39 -12 39 -36s-16 -36 -39 -36z" />
    <glyph glyph-name="asciitilde" unicode="~" horiz-adv-x="454" 
d="M393 352c0 -42 -56 -70 -99 -73c-51 0 -84 35 -120 39c-44 0 -50 -33 -77 -33c-18 0 -33 13 -36 33c0 44 47 78 99 78c50 0 81 -35 120 -39c45 0 48 30 77 34c19 0 36 -17 36 -39z" />
    <glyph glyph-name="exclamdown" unicode="&#xa1;" horiz-adv-x="227" 
d="M73 -175l10 473c0 17 13 32 30 32c16 0 30 -15 30 -32l10 -473c0 -21 -18 -40 -40 -40s-40 19 -40 40zM168 455c0 -29 -24 -53 -53 -53c-30 0 -54 24 -54 53c0 30 24 55 54 55c29 0 53 -25 53 -55z" />
    <glyph glyph-name="cent" unicode="&#xa2;" horiz-adv-x="500" 
d="M224 -28v51c-106 11 -152 87 -152 183v101c0 95 46 171 152 182v44c0 14 11 26 26 26s26 -12 26 -26v-43c48 -4 114 -21 114 -60c0 -18 -15 -34 -34 -34c-5 0 -10 1 -16 3c-20 10 -39 19 -64 22v-330c25 3 44 13 64 23c6 2 11 3 16 3c19 0 34 -16 34 -34
c0 -40 -66 -56 -114 -60v-51c0 -14 -12 -26 -26 -26s-26 12 -26 26zM150 206c0 -61 21 -100 74 -112v324c-53 -11 -74 -50 -74 -111v-101z" />
    <glyph glyph-name="yen" unicode="&#xa5;" horiz-adv-x="476" 
d="M79 369h74l-134 286c-2 5 -4 13 -4 19c0 22 20 41 41 41c12 0 25 -5 31 -16l151 -329l151 329c6 11 19 16 31 16c21 0 41 -19 41 -41c0 -6 -2 -14 -4 -19l-135 -286h75c20 0 39 -16 39 -37s-17 -37 -39 -37h-109l-9 -20v-36h118c20 0 39 -16 39 -37s-17 -37 -39 -37h-118
v-133c0 -22 -18 -42 -41 -42s-41 19 -41 42v133h-118c-22 0 -39 16 -39 37s19 37 39 37h118v38l-9 18h-109c-22 0 -39 16 -39 37s19 37 39 37z" />
    <glyph glyph-name="dieresis" unicode="&#xa8;" horiz-adv-x="403" 
d="M335 639c0 -27 -21 -49 -47 -49s-48 23 -48 49c0 25 22 47 48 47s47 -21 47 -47zM166 639c0 -27 -21 -49 -48 -49c-26 0 -46 23 -46 49c0 25 20 47 46 47c27 0 48 -21 48 -47z" />
    <glyph glyph-name="copyright" unicode="&#xa9;" horiz-adv-x="740" 
d="M676 313c0 -189 -108 -322 -306 -322s-306 133 -306 322s108 322 306 322s306 -133 306 -322zM616 313c0 154 -87 262 -246 262s-246 -108 -246 -262s87 -262 246 -262s246 108 246 262zM236 283v61c0 82 43 147 143 147c38 0 111 -11 111 -49c0 -14 -12 -27 -27 -27
c-4 0 -8 1 -13 2c-19 11 -36 19 -64 19c-63 0 -88 -34 -88 -92v-61c0 -59 25 -92 88 -92c28 0 45 9 64 18c5 2 9 3 13 3c15 0 27 -13 27 -28c0 -37 -73 -48 -111 -48c-100 0 -143 64 -143 147z" />
    <glyph glyph-name="guillemotleft" unicode="&#xab;" horiz-adv-x="431" 
d="M132 258l140 -208c4 -6 5 -12 5 -17c0 -22 -16 -41 -40 -41c-18 0 -26 8 -38 27l-158 237l152 229c10 16 19 26 37 26s38 -16 38 -37c0 -6 -1 -13 -5 -19zM292 256l93 -142c4 -6 5 -13 5 -19c0 -21 -20 -37 -38 -37s-27 10 -37 26l-114 172l114 172c10 16 19 26 37 26
s38 -16 38 -37c0 -6 -1 -13 -5 -19z" />
    <glyph glyph-name="registered" unicode="&#xae;" horiz-adv-x="700" 
d="M636 423c0 -171 -100 -292 -286 -292s-286 121 -286 292c0 177 100 302 286 302s286 -125 286 -302zM576 423c0 142 -79 242 -226 242s-226 -100 -226 -242c0 -136 79 -232 226 -232s226 96 226 232zM461 486c0 -43 -20 -72 -52 -87l64 -97c2 -6 3 -6 3 -12
c0 -11 -20 -19 -32 -19c-11 0 -21 4 -26 10l-69 108h-47v-93c0 -13 -15 -25 -31 -25c-15 0 -29 11 -29 25v255c0 18 16 34 33 34h77c81 0 109 -50 109 -99zM401 486c0 19 -9 40 -51 40h-48v-79h51c32 0 48 14 48 39z" />
    <glyph glyph-name="degree" unicode="&#xb0;" horiz-adv-x="392" 
d="M196 436c-91 0 -141 62 -141 140s49 140 141 140s141 -62 141 -140s-49 -140 -141 -140zM196 498c50 0 73 28 73 80c0 48 -23 76 -73 76s-73 -28 -73 -76c0 -53 23 -80 73 -80z" />
    <glyph glyph-name="plusminus" unicode="&#xb1;" horiz-adv-x="500" 
d="M211 175v170h-160c-22 0 -39 17 -39 39s19 39 39 39h160v170c0 20 17 39 39 39s39 -17 39 -39v-170h160c20 0 39 -17 39 -39s-17 -39 -39 -39h-160v-170c0 -22 -17 -39 -39 -39s-39 19 -39 39zM51 78h398c20 0 39 -17 39 -39s-17 -39 -39 -39h-398c-22 0 -39 17 -39 39
s19 39 39 39z" />
    <glyph glyph-name="acute" unicode="&#xb4;" horiz-adv-x="276" 
d="M82 624l78 81c14 13 19 23 37 23c14 0 31 -14 31 -33c0 -5 -1 -12 -5 -17l-81 -86c-12 -11 -19 -18 -32 -18c-18 0 -33 14 -33 35c0 5 1 10 5 15z" />
    <glyph glyph-name="periodcentered" unicode="&#xb7;" horiz-adv-x="255" 
d="M178 274c0 -30 -24 -54 -54 -54c-29 0 -53 24 -53 54c0 29 24 53 53 53c30 0 54 -24 54 -53z" />
    <glyph glyph-name="cedilla" unicode="&#xb8;" horiz-adv-x="300" 
d="M245 -128c0 -49 -45 -96 -139 -83c-31 4 -60 24 -48 47c9 17 24 8 53 2c47 -9 69 19 69 41c0 24 -21 34 -60 36c-31 2 -41 8 -37 32l13 73h49l-10 -60c82 -1 110 -36 110 -88z" />
    <glyph glyph-name="ordmasculine" unicode="&#xba;" horiz-adv-x="384" 
d="M192 346c-94 0 -142 62 -142 144v80c0 82 48 145 142 145s142 -63 142 -145v-80c0 -82 -48 -144 -142 -144zM192 652c-55 0 -75 -32 -75 -86v-78c0 -50 23 -80 75 -80s75 30 75 80v78c0 54 -20 86 -75 86z" />
    <glyph glyph-name="guillemotright" unicode="&#xbb;" horiz-adv-x="431" 
d="M159 50l140 208l-131 197c-4 6 -5 13 -5 19c0 21 20 37 38 37s27 -10 37 -26l152 -229l-158 -237c-12 -19 -20 -27 -38 -27c-24 0 -40 19 -40 41c0 5 1 11 5 17zM46 114l93 142l-93 142c-4 6 -5 13 -5 19c0 21 20 37 38 37s27 -10 37 -26l114 -172l-114 -172
c-10 -16 -19 -26 -37 -26s-38 16 -38 37c0 6 1 13 5 19z" />
    <glyph glyph-name="questiondown" unicode="&#xbf;" horiz-adv-x="462" 
d="M196 251c-18 -38 -57 -65 -87 -100c-42 -47 -72 -102 -72 -185c0 -106 74 -191 201 -191c63 0 116 12 168 45c17 11 26 22 26 38c0 22 -19 37 -38 37c-18 0 -35 -17 -60 -28c-27 -12 -57 -19 -95 -19c-82 0 -124 56 -124 129c0 52 26 94 55 127c37 47 84 86 106 147
c5 11 6 26 6 39c0 21 -18 40 -40 40s-40 -19 -40 -40c0 -13 -1 -28 -6 -39zM188 455c0 30 24 55 53 55c30 0 54 -25 54 -55c0 -29 -24 -53 -54 -53c-29 0 -53 24 -53 53z" />
    <glyph glyph-name="Agrave" unicode="&#xc0;" horiz-adv-x="549" 
d="M147 159l-42 -139c-6 -18 -24 -30 -38 -30c-23 0 -42 16 -42 40c0 4 1 12 2 15l195 617c9 30 23 53 52 53c30 0 43 -22 53 -53l195 -617c1 -3 2 -11 2 -15c0 -24 -18 -40 -42 -40c-15 0 -34 12 -39 30l-43 139h-253zM274 576l-103 -339h206zM227 905l78 -81
c4 -5 5 -10 5 -15c0 -21 -16 -35 -33 -35c-13 0 -21 7 -32 18l-81 86c-4 5 -5 12 -5 17c0 19 17 33 31 33c18 0 23 -10 37 -23z" />
    <glyph glyph-name="Aacute" unicode="&#xc1;" horiz-adv-x="549" 
d="M105 20l42 139h253l43 -139c5 -18 24 -30 39 -30c24 0 42 16 42 40c0 4 -1 12 -2 15l-195 617c-10 31 -23 53 -53 53c-29 0 -43 -23 -52 -53l-195 -617c-1 -3 -2 -11 -2 -15c0 -24 19 -40 42 -40c14 0 32 12 38 30zM171 237l103 339l103 -339h-206zM247 824l78 81
c14 13 19 23 37 23c14 0 31 -14 31 -33c0 -5 -1 -12 -5 -17l-81 -86c-12 -11 -19 -18 -32 -18c-18 0 -33 14 -33 35c0 5 1 10 5 15z" />
    <glyph glyph-name="Acircumflex" unicode="&#xc2;" horiz-adv-x="549" 
d="M147 159l-42 -139c-6 -18 -24 -30 -38 -30c-23 0 -42 16 -42 40c0 4 1 12 2 15l195 617c9 30 23 53 52 53c30 0 43 -22 53 -53l195 -617c1 -3 2 -11 2 -15c0 -24 -18 -40 -42 -40c-15 0 -34 12 -39 30l-43 139h-253zM274 576l-103 -339h206zM274 836l-75 -61
c-3 -4 -13 -6 -19 -6c-13 0 -25 13 -25 26c0 11 8 21 18 30l79 67c6 4 13 8 22 8s16 -4 22 -8l79 -67c10 -9 18 -19 18 -30c0 -13 -12 -26 -26 -26c-5 0 -15 2 -18 6z" />
    <glyph glyph-name="Atilde" unicode="&#xc3;" horiz-adv-x="549" 
d="M105 20l42 139h253l43 -139c5 -18 24 -30 39 -30c24 0 42 16 42 40c0 4 -1 12 -2 15l-195 617c-10 31 -23 53 -53 53c-29 0 -43 -23 -52 -53l-195 -617c-1 -3 -2 -11 -2 -15c0 -24 19 -40 42 -40c14 0 32 12 38 30zM171 237l103 339l103 -339h-206zM412 850
c0 -35 -46 -59 -82 -61c-43 0 -70 29 -100 32c-37 0 -42 -27 -64 -27c-15 0 -28 11 -30 27c0 37 39 65 82 65c42 0 68 -29 100 -32c38 0 40 25 64 28c16 0 30 -14 30 -32z" />
    <glyph glyph-name="Adieresis" unicode="&#xc4;" horiz-adv-x="549" 
d="M147 159l-42 -139c-6 -18 -24 -30 -38 -30c-23 0 -42 16 -42 40c0 4 1 12 2 15l195 617c9 30 23 53 52 53c30 0 43 -22 53 -53l195 -617c1 -3 2 -11 2 -15c0 -24 -18 -40 -42 -40c-15 0 -34 12 -39 30l-43 139h-253zM274 576l-103 -339h206zM406 839
c0 -27 -21 -49 -47 -49s-48 23 -48 49c0 25 22 47 48 47s47 -21 47 -47zM237 839c0 -27 -21 -49 -48 -49c-26 0 -46 23 -46 49c0 25 20 47 46 47c27 0 48 -21 48 -47z" />
    <glyph glyph-name="Aring" unicode="&#xc5;" horiz-adv-x="549" 
d="M385 725c0 -39 -20 -72 -49 -92l186 -588c1 -3 2 -11 2 -15c0 -24 -18 -40 -42 -40c-15 0 -34 12 -39 30l-43 139h-253l-42 -139c-6 -18 -24 -30 -38 -30c-23 0 -42 16 -42 40c0 4 1 12 2 15l186 588c-30 20 -49 53 -49 92c0 60 49 110 111 110c61 0 110 -49 110 -110z
M274 576l-103 -339h206zM335 725c0 33 -27 61 -60 61s-60 -28 -60 -61s27 -60 60 -60s60 26 60 60z" />
    <glyph glyph-name="AE" unicode="&#xc6;" horiz-adv-x="722" 
d="M414 0c-33 0 -63 11 -63 47v112h-204l-42 -139c-5 -18 -24 -30 -38 -30c-24 0 -42 16 -42 40c0 4 1 12 2 15l193 607c9 30 24 53 52 53h367c22 0 40 -18 40 -40s-18 -38 -40 -38h-208v-234h189c20 0 39 -17 39 -39s-17 -39 -39 -39h-189v-237h218c21 0 40 -17 40 -37
c0 -23 -18 -41 -40 -41h-235zM351 627h-50c-9 0 -13 -3 -13 -10l-117 -380h180v390z" />
    <glyph glyph-name="Ccedilla" unicode="&#xc7;" horiz-adv-x="482" 
d="M366 -128c0 -49 -45 -96 -139 -83c-31 4 -60 24 -48 47c9 17 24 8 53 2c47 -9 69 19 69 41c0 24 -21 34 -60 36c-31 2 -41 8 -37 32l9 49c-115 22 -168 116 -168 250v214c0 154 71 255 225 255c91 0 177 -39 177 -86c0 -19 -15 -35 -36 -35c-14 0 -20 7 -36 17
c-30 21 -61 31 -100 31c-113 0 -150 -70 -150 -182v-214c0 -112 37 -182 150 -182c39 0 70 10 100 31c17 10 22 17 36 17c21 0 36 -16 36 -35c0 -47 -86 -86 -177 -86h-9l-5 -31c82 -1 110 -36 110 -88z" />
    <glyph glyph-name="Egrave" unicode="&#xc8;" horiz-adv-x="474" 
d="M441 41c0 -23 -18 -41 -40 -41h-265c-33 0 -63 11 -63 47v611c0 23 20 47 47 47h271c22 0 40 -18 40 -40s-18 -38 -40 -38h-238v-234h219c20 0 39 -17 39 -39s-17 -39 -39 -39h-219v-237h248c21 0 40 -17 40 -37zM229 905l78 -81c4 -5 5 -10 5 -15c0 -21 -16 -35 -33 -35
c-13 0 -21 7 -32 18l-81 86c-4 5 -5 12 -5 17c0 19 17 33 31 33c18 0 23 -10 37 -23z" />
    <glyph glyph-name="Eacute" unicode="&#xc9;" horiz-adv-x="474" 
d="M441 41c0 -23 -18 -41 -40 -41h-265c-33 0 -63 11 -63 47v611c0 23 20 47 47 47h271c22 0 40 -18 40 -40s-18 -38 -40 -38h-238v-234h219c20 0 39 -17 39 -39s-17 -39 -39 -39h-219v-237h248c21 0 40 -17 40 -37zM207 824l78 81c14 13 19 23 37 23c14 0 31 -14 31 -33
c0 -5 -1 -12 -5 -17l-81 -86c-12 -11 -19 -18 -32 -18c-18 0 -33 14 -33 35c0 5 1 10 5 15z" />
    <glyph glyph-name="Ecircumflex" unicode="&#xca;" horiz-adv-x="474" 
d="M441 41c0 -23 -18 -41 -40 -41h-265c-33 0 -63 11 -63 47v611c0 23 20 47 47 47h271c22 0 40 -18 40 -40s-18 -38 -40 -38h-238v-234h219c20 0 39 -17 39 -39s-17 -39 -39 -39h-219v-237h248c21 0 40 -17 40 -37zM261 836l-75 -61c-3 -4 -13 -6 -19 -6
c-13 0 -25 13 -25 26c0 11 8 21 18 30l79 67c6 4 13 8 22 8s16 -4 22 -8l79 -67c10 -9 18 -19 18 -30c0 -13 -12 -26 -26 -26c-5 0 -15 2 -18 6z" />
    <glyph glyph-name="Edieresis" unicode="&#xcb;" horiz-adv-x="474" 
d="M441 41c0 -23 -18 -41 -40 -41h-265c-33 0 -63 11 -63 47v611c0 23 20 47 47 47h271c22 0 40 -18 40 -40s-18 -38 -40 -38h-238v-234h219c20 0 39 -17 39 -39s-17 -39 -39 -39h-219v-237h248c21 0 40 -17 40 -37zM392 839c0 -27 -21 -49 -47 -49s-48 23 -48 49
c0 25 22 47 48 47s47 -21 47 -47zM223 839c0 -27 -21 -49 -48 -49c-26 0 -46 23 -46 49c0 25 20 47 46 47c27 0 48 -21 48 -47z" />
    <glyph glyph-name="Igrave" unicode="&#xcc;" horiz-adv-x="227" 
d="M73 30v645c0 21 18 40 40 40s40 -19 40 -40v-645c0 -21 -18 -40 -40 -40s-40 19 -40 40zM79 905l78 -81c4 -5 5 -10 5 -15c0 -21 -16 -35 -33 -35c-13 0 -21 7 -32 18l-81 86c-4 5 -5 12 -5 17c0 19 17 33 31 33c18 0 23 -10 37 -23z" />
    <glyph glyph-name="Iacute" unicode="&#xcd;" horiz-adv-x="227" 
d="M73 30v645c0 21 18 40 40 40s40 -19 40 -40v-645c0 -21 -18 -40 -40 -40s-40 19 -40 40zM70 824l78 81c14 13 19 23 37 23c14 0 31 -14 31 -33c0 -5 -1 -12 -5 -17l-81 -86c-12 -11 -19 -18 -32 -18c-18 0 -33 14 -33 35c0 5 1 10 5 15z" />
    <glyph glyph-name="Icircumflex" unicode="&#xce;" horiz-adv-x="227" 
d="M73 30v645c0 21 18 40 40 40s40 -19 40 -40v-645c0 -21 -18 -40 -40 -40s-40 19 -40 40zM114 836l-75 -61c-3 -4 -13 -6 -19 -6c-13 0 -25 13 -25 26c0 11 8 21 18 30l79 67c6 4 13 8 22 8s16 -4 22 -8l79 -67c10 -9 18 -19 18 -30c0 -13 -12 -26 -26 -26
c-5 0 -15 2 -18 6z" />
    <glyph glyph-name="Idieresis" unicode="&#xcf;" horiz-adv-x="227" 
d="M73 30v645c0 21 18 40 40 40s40 -19 40 -40v-645c0 -21 -18 -40 -40 -40s-40 19 -40 40zM245 839c0 -27 -21 -49 -47 -49s-48 23 -48 49c0 25 22 47 48 47s47 -21 47 -47zM76 839c0 -27 -21 -49 -48 -49c-26 0 -46 23 -46 49c0 25 20 47 46 47c27 0 48 -21 48 -47z" />
    <glyph glyph-name="Eth" unicode="&#xd0;" horiz-adv-x="574" 
d="M528 264c0 -137 -69 -264 -274 -264h-113c-26 0 -48 22 -48 48v269h-39c-21 0 -37 16 -37 36s16 37 37 37h39v268c0 26 22 48 48 48h113c204 0 274 -121 274 -255v-187zM339 353c0 -20 -16 -36 -36 -36h-130v-239h98c132 0 177 83 177 186v187c0 99 -47 177 -177 177h-98
v-238h130c20 0 36 -17 36 -37z" />
    <glyph glyph-name="Ntilde" unicode="&#xd1;" horiz-adv-x="600" 
d="M482 -10c-16 0 -33 9 -41 23l-288 533v-515c0 -22 -19 -41 -41 -41s-39 19 -39 41v640c0 25 18 44 43 44c17 0 34 -9 42 -24l288 -532v515c0 22 19 41 41 41s39 -19 39 -41v-640c0 -24 -18 -44 -44 -44zM438 850c0 -35 -46 -59 -82 -61c-43 0 -70 29 -100 32
c-37 0 -42 -27 -64 -27c-15 0 -28 11 -30 27c0 37 39 65 82 65c42 0 68 -29 100 -32c38 0 40 25 64 28c16 0 30 -14 30 -32z" />
    <glyph glyph-name="Ograve" unicode="&#xd2;" horiz-adv-x="551" 
d="M275 -10c-153 0 -230 114 -230 256v214c0 139 65 255 230 255s230 -116 230 -255v-214c0 -142 -77 -256 -230 -256zM275 637c-110 0 -150 -71 -150 -177v-214c0 -105 47 -178 150 -178s150 73 150 178v214c0 106 -40 177 -150 177zM247 905l78 -81c4 -5 5 -10 5 -15
c0 -21 -16 -35 -33 -35c-13 0 -21 7 -32 18l-81 86c-4 5 -5 12 -5 17c0 19 17 33 31 33c18 0 23 -10 37 -23z" />
    <glyph glyph-name="Oacute" unicode="&#xd3;" horiz-adv-x="551" 
d="M275 -10c-153 0 -230 114 -230 256v214c0 139 65 255 230 255s230 -116 230 -255v-214c0 -142 -77 -256 -230 -256zM275 637c-110 0 -150 -71 -150 -177v-214c0 -105 47 -178 150 -178s150 73 150 178v214c0 106 -40 177 -150 177zM234 824l78 81c14 13 19 23 37 23
c14 0 31 -14 31 -33c0 -5 -1 -12 -5 -17l-81 -86c-12 -11 -19 -18 -32 -18c-18 0 -33 14 -33 35c0 5 1 10 5 15z" />
    <glyph glyph-name="Ocircumflex" unicode="&#xd4;" horiz-adv-x="551" 
d="M275 -10c-153 0 -230 114 -230 256v214c0 139 65 255 230 255s230 -116 230 -255v-214c0 -142 -77 -256 -230 -256zM275 637c-110 0 -150 -71 -150 -177v-214c0 -105 47 -178 150 -178s150 73 150 178v214c0 106 -40 177 -150 177zM275 836l-75 -61c-3 -4 -13 -6 -19 -6
c-13 0 -25 13 -25 26c0 11 8 21 18 30l79 67c6 4 13 8 22 8s16 -4 22 -8l79 -67c10 -9 18 -19 18 -30c0 -13 -12 -26 -26 -26c-5 0 -15 2 -18 6z" />
    <glyph glyph-name="Otilde" unicode="&#xd5;" horiz-adv-x="551" 
d="M275 -10c-153 0 -230 114 -230 256v214c0 139 65 255 230 255s230 -116 230 -255v-214c0 -142 -77 -256 -230 -256zM275 637c-110 0 -150 -71 -150 -177v-214c0 -105 47 -178 150 -178s150 73 150 178v214c0 106 -40 177 -150 177zM413 850c0 -35 -46 -59 -82 -61
c-43 0 -70 29 -100 32c-37 0 -42 -27 -64 -27c-15 0 -28 11 -30 27c0 37 39 65 82 65c42 0 68 -29 100 -32c38 0 40 25 64 28c16 0 30 -14 30 -32z" />
    <glyph glyph-name="Odieresis" unicode="&#xd6;" horiz-adv-x="551" 
d="M275 -10c-153 0 -230 114 -230 256v214c0 139 65 255 230 255s230 -116 230 -255v-214c0 -142 -77 -256 -230 -256zM275 637c-110 0 -150 -71 -150 -177v-214c0 -105 47 -178 150 -178s150 73 150 178v214c0 106 -40 177 -150 177zM407 839c0 -27 -21 -49 -47 -49
s-48 23 -48 49c0 25 22 47 48 47s47 -21 47 -47zM238 839c0 -27 -21 -49 -48 -49c-26 0 -46 23 -46 49c0 25 20 47 46 47c27 0 48 -21 48 -47z" />
    <glyph glyph-name="multiply" unicode="&#xd7;" horiz-adv-x="500" 
d="M425 474l-120 -120l120 -120c16 -16 16 -40 0 -55c-15 -16 -41 -15 -55 0l-120 120l-120 -120c-14 -15 -40 -16 -55 0c-16 15 -16 39 0 55l120 120l-120 120c-15 14 -16 40 0 55c15 16 39 16 55 0l120 -120l120 120c16 16 40 16 55 0c16 -15 15 -41 0 -55z" />
    <glyph glyph-name="Oslash" unicode="&#xd8;" horiz-adv-x="551" 
d="M25 39l49 70c-19 40 -29 86 -29 137v214c0 139 65 255 230 255c80 0 136 -27 173 -71l36 51c8 12 25 15 37 7c11 -8 15 -24 6 -36l-49 -70c18 -39 27 -86 27 -136v-214c0 -142 -77 -256 -230 -256c-75 0 -132 27 -171 72l-36 -52c-8 -12 -25 -15 -37 -7
c-11 8 -15 24 -6 36zM275 637c-110 0 -150 -71 -150 -177v-214c0 -20 1 -40 5 -57l270 386c-23 39 -63 62 -125 62zM425 460c0 19 -2 37 -5 54l-268 -384c24 -39 65 -62 123 -62c103 0 150 73 150 178v214z" />
    <glyph glyph-name="Ugrave" unicode="&#xd9;" horiz-adv-x="572" 
d="M507 230c0 -139 -82 -240 -221 -240c-142 0 -221 102 -221 240v443c0 24 18 42 41 42c21 0 39 -19 39 -42v-443c0 -96 45 -162 141 -162s140 68 140 162v443c0 22 17 42 39 42c24 0 42 -20 42 -42v-443zM244 905l78 -81c4 -5 5 -10 5 -15c0 -21 -16 -35 -33 -35
c-13 0 -21 7 -32 18l-81 86c-4 5 -5 12 -5 17c0 19 17 33 31 33c18 0 23 -10 37 -23z" />
    <glyph glyph-name="Uacute" unicode="&#xda;" horiz-adv-x="572" 
d="M507 230c0 -139 -82 -240 -221 -240c-142 0 -221 102 -221 240v443c0 24 18 42 41 42c21 0 39 -19 39 -42v-443c0 -96 45 -162 141 -162s140 68 140 162v443c0 22 17 42 39 42c24 0 42 -20 42 -42v-443zM251 824l78 81c14 13 19 23 37 23c14 0 31 -14 31 -33
c0 -5 -1 -12 -5 -17l-81 -86c-12 -11 -19 -18 -32 -18c-18 0 -33 14 -33 35c0 5 1 10 5 15z" />
    <glyph glyph-name="Ucircumflex" unicode="&#xdb;" horiz-adv-x="572" 
d="M507 230c0 -139 -82 -240 -221 -240c-142 0 -221 102 -221 240v443c0 24 18 42 41 42c21 0 39 -19 39 -42v-443c0 -96 45 -162 141 -162s140 68 140 162v443c0 22 17 42 39 42c24 0 42 -20 42 -42v-443zM286 836l-75 -61c-3 -4 -13 -6 -19 -6c-13 0 -25 13 -25 26
c0 11 8 21 18 30l79 67c6 4 13 8 22 8s16 -4 22 -8l79 -67c10 -9 18 -19 18 -30c0 -13 -12 -26 -26 -26c-5 0 -15 2 -18 6z" />
    <glyph glyph-name="Udieresis" unicode="&#xdc;" horiz-adv-x="572" 
d="M507 230c0 -139 -82 -240 -221 -240c-142 0 -221 102 -221 240v443c0 24 18 42 41 42c21 0 39 -19 39 -42v-443c0 -96 45 -162 141 -162s140 68 140 162v443c0 22 17 42 39 42c24 0 42 -20 42 -42v-443zM417 839c0 -27 -21 -49 -47 -49s-48 23 -48 49c0 25 22 47 48 47
s47 -21 47 -47zM248 839c0 -27 -21 -49 -48 -49c-26 0 -46 23 -46 49c0 25 20 47 46 47c27 0 48 -21 48 -47z" />
    <glyph glyph-name="Yacute" unicode="&#xdd;" horiz-adv-x="476" 
d="M238 -10c-23 0 -41 19 -41 42v245l-178 378c-2 5 -4 13 -4 19c0 22 20 41 41 41c12 0 25 -5 31 -16l151 -329l151 329c6 11 19 16 31 16c21 0 41 -19 41 -41c0 -6 -2 -14 -4 -19l-178 -380v-243c0 -22 -18 -42 -41 -42zM168 824l78 81c14 13 19 23 37 23
c14 0 31 -14 31 -33c0 -5 -1 -12 -5 -17l-81 -86c-12 -11 -19 -18 -32 -18c-18 0 -33 14 -33 35c0 5 1 10 5 15z" />
    <glyph glyph-name="Thorn" unicode="&#xde;" horiz-adv-x="530" 
d="M73 30v645c0 21 18 40 40 40s40 -19 40 -40v-89h115c166 0 225 -108 225 -225c0 -142 -88 -221 -225 -221h-115v-110c0 -21 -18 -40 -40 -40s-40 19 -40 40zM153 508v-290h115c95 0 145 46 145 144c0 72 -27 146 -145 146h-115z" />
    <glyph glyph-name="germandbls" unicode="&#xdf;" horiz-adv-x="544" 
d="M513 163c0 -103 -63 -167 -178 -167c-23 0 -128 1 -128 46c0 16 10 36 40 36c23 0 57 -11 87 -11c46 0 101 26 101 94c0 76 -69 117 -119 134c-39 13 -93 23 -93 74c0 33 18 50 37 60c38 20 116 35 116 116c0 66 -47 102 -113 102c-78 0 -112 -49 -112 -150v-523
c0 -21 -17 -39 -39 -39s-39 18 -39 39v520c0 140 70 225 196 225c105 0 183 -59 183 -166c0 -72 -36 -118 -87 -141c-25 -11 -69 -21 -64 -38c4 -12 25 -15 64 -29c84 -31 148 -86 148 -182z" />
    <glyph glyph-name="agrave" unicode="&#xe0;" horiz-adv-x="482" 
d="M322 281v57c0 73 -35 107 -107 107c-35 0 -54 -9 -76 -21c-3 -1 -15 -8 -26 -8c-19 0 -27 18 -28 33c-4 46 71 65 140 65c125 0 175 -70 175 -202v-220c0 -20 6 -30 18 -30c3 0 4 1 8 1c19 0 29 -17 29 -34c0 -25 -23 -34 -45 -34c-33 0 -60 19 -75 50
c-38 -35 -83 -53 -137 -53c-103 0 -153 61 -153 151v4c0 98 58 148 176 148c36 0 70 -5 101 -14zM220 229c-82 0 -98 -38 -98 -83v-4c0 -47 21 -80 88 -80c43 0 77 14 112 44v108c-33 10 -72 15 -102 15zM213 705l78 -81c4 -5 5 -10 5 -15c0 -21 -16 -35 -33 -35
c-13 0 -21 7 -32 18l-81 86c-4 5 -5 12 -5 17c0 19 17 33 31 33c18 0 23 -10 37 -23z" />
    <glyph glyph-name="aacute" unicode="&#xe1;" horiz-adv-x="482" 
d="M322 338v-57c-31 9 -65 14 -101 14c-118 0 -176 -50 -176 -148v-4c0 -90 50 -151 153 -151c54 0 99 18 137 53c15 -31 42 -50 75 -50c22 0 45 9 45 34c0 17 -10 34 -29 34c-4 0 -5 -1 -8 -1c-12 0 -18 10 -18 30v220c0 132 -50 202 -175 202c-69 0 -144 -19 -140 -65
c1 -15 9 -33 28 -33c11 0 23 7 26 8c22 12 41 21 76 21c72 0 107 -34 107 -107zM220 229c30 0 69 -5 102 -15v-108c-35 -30 -69 -44 -112 -44c-67 0 -88 33 -88 80v4c0 45 16 83 98 83zM200 624l78 81c14 13 19 23 37 23c14 0 31 -14 31 -33c0 -5 -1 -12 -5 -17l-81 -86
c-12 -11 -19 -18 -32 -18c-18 0 -33 14 -33 35c0 5 1 10 5 15z" />
    <glyph glyph-name="acircumflex" unicode="&#xe2;" horiz-adv-x="482" 
d="M322 281v57c0 73 -35 107 -107 107c-35 0 -54 -9 -76 -21c-3 -1 -15 -8 -26 -8c-19 0 -27 18 -28 33c-4 46 71 65 140 65c125 0 175 -70 175 -202v-220c0 -20 6 -30 18 -30c3 0 4 1 8 1c19 0 29 -17 29 -34c0 -25 -23 -34 -45 -34c-33 0 -60 19 -75 50
c-38 -35 -83 -53 -137 -53c-103 0 -153 61 -153 151v4c0 98 58 148 176 148c36 0 70 -5 101 -14zM220 229c-82 0 -98 -38 -98 -83v-4c0 -47 21 -80 88 -80c43 0 77 14 112 44v108c-33 10 -72 15 -102 15zM241 636l-75 -61c-3 -4 -13 -6 -19 -6c-13 0 -25 13 -25 26
c0 11 8 21 18 30l79 67c6 4 13 8 22 8s16 -4 22 -8l79 -67c10 -9 18 -19 18 -30c0 -13 -12 -26 -26 -26c-5 0 -15 2 -18 6z" />
    <glyph glyph-name="atilde" unicode="&#xe3;" horiz-adv-x="482" 
d="M322 338v-57c-31 9 -65 14 -101 14c-118 0 -176 -50 -176 -148v-4c0 -90 50 -151 153 -151c54 0 99 18 137 53c15 -31 42 -50 75 -50c22 0 45 9 45 34c0 17 -10 34 -29 34c-4 0 -5 -1 -8 -1c-12 0 -18 10 -18 30v220c0 132 -50 202 -175 202c-69 0 -144 -19 -140 -65
c1 -15 9 -33 28 -33c11 0 23 7 26 8c22 12 41 21 76 21c72 0 107 -34 107 -107zM220 229c30 0 69 -5 102 -15v-108c-35 -30 -69 -44 -112 -44c-67 0 -88 33 -88 80v4c0 45 16 83 98 83zM379 650c0 -35 -46 -59 -82 -61c-43 0 -70 29 -100 32c-37 0 -42 -27 -64 -27
c-15 0 -28 11 -30 27c0 37 39 65 82 65c42 0 68 -29 100 -32c38 0 40 25 64 28c16 0 30 -14 30 -32z" />
    <glyph glyph-name="adieresis" unicode="&#xe4;" horiz-adv-x="482" 
d="M322 281v57c0 73 -35 107 -107 107c-35 0 -54 -9 -76 -21c-3 -1 -15 -8 -26 -8c-19 0 -27 18 -28 33c-4 46 71 65 140 65c125 0 175 -70 175 -202v-220c0 -20 6 -30 18 -30c3 0 4 1 8 1c19 0 29 -17 29 -34c0 -25 -23 -34 -45 -34c-33 0 -60 19 -75 50
c-38 -35 -83 -53 -137 -53c-103 0 -153 61 -153 151v4c0 98 58 148 176 148c36 0 70 -5 101 -14zM220 229c-82 0 -98 -38 -98 -83v-4c0 -47 21 -80 88 -80c43 0 77 14 112 44v108c-33 10 -72 15 -102 15zM372 639c0 -27 -21 -49 -47 -49s-48 23 -48 49c0 25 22 47 48 47
s47 -21 47 -47zM203 639c0 -27 -21 -49 -48 -49c-26 0 -46 23 -46 49c0 25 20 47 46 47c27 0 48 -21 48 -47z" />
    <glyph glyph-name="aring" unicode="&#xe5;" horiz-adv-x="482" 
d="M322 338v-57c-31 9 -65 14 -101 14c-118 0 -176 -50 -176 -148v-4c0 -90 50 -151 153 -151c54 0 99 18 137 53c15 -31 42 -50 75 -50c22 0 45 9 45 34c0 17 -10 34 -29 34c-4 0 -5 -1 -8 -1c-12 0 -18 10 -18 30v220c0 132 -50 202 -175 202c-69 0 -144 -19 -140 -65
c1 -15 9 -33 28 -33c11 0 23 7 26 8c22 12 41 21 76 21c72 0 107 -34 107 -107zM220 229c30 0 69 -5 102 -15v-108c-35 -30 -69 -44 -112 -44c-67 0 -88 33 -88 80v4c0 45 16 83 98 83zM341 644c0 -55 -44 -99 -99 -99c-56 0 -100 44 -100 99s44 99 100 99
c55 0 99 -44 99 -99zM296 644c0 30 -24 55 -54 55s-54 -25 -54 -55s24 -54 54 -54s54 24 54 54z" />
    <glyph glyph-name="ae" unicode="&#xe6;" horiz-adv-x="712" 
d="M502 203c-30 0 -67 3 -102 9v-59c0 -56 37 -92 109 -92c42 0 69 12 104 28c3 1 7 3 14 3c20 0 35 -17 35 -35c0 -49 -109 -65 -159 -65c-66 0 -112 27 -138 71c-47 -48 -101 -71 -167 -71c-103 0 -153 61 -153 151v4c0 98 58 148 176 148c36 0 70 -5 101 -14v57
c0 73 -35 107 -107 107c-35 0 -54 -9 -76 -21c-3 -1 -15 -8 -26 -8c-19 0 -27 18 -28 33c-4 46 71 65 140 65c70 0 113 -28 136 -82c24 49 73 82 148 82c106 0 162 -64 162 -163c0 -92 -50 -148 -169 -148zM594 351c0 65 -33 92 -91 92c-65 0 -103 -35 -103 -91v-76
c37 -4 85 -7 105 -7c75 0 89 41 89 82zM322 106v108c-33 10 -72 15 -102 15c-82 0 -98 -38 -98 -83v-4c0 -47 21 -80 88 -80c43 0 77 14 112 44z" />
    <glyph glyph-name="ccedilla" unicode="&#xe7;" horiz-adv-x="393" 
d="M334 -128c0 -49 -45 -96 -139 -83c-31 4 -60 24 -48 47c9 17 24 8 53 2c47 -9 69 19 69 41c0 24 -21 34 -60 36c-31 2 -41 8 -37 32l8 49c-94 16 -135 90 -135 180v151c0 103 54 184 179 184c47 0 139 -14 139 -61c0 -18 -15 -34 -34 -34c-5 0 -10 1 -16 3
c-24 12 -46 23 -81 23c-78 0 -109 -42 -109 -115v-151c0 -73 31 -115 109 -115c35 0 57 11 81 23c6 2 11 3 16 3c19 0 34 -16 34 -34c0 -46 -85 -60 -134 -61l-5 -32c82 -1 110 -36 110 -88z" />
    <glyph glyph-name="egrave" unicode="&#xe8;" horiz-adv-x="435" 
d="M232 61c42 0 69 12 104 28c2 1 7 3 14 3c20 0 35 -17 35 -35c0 -49 -108 -65 -162 -65c-113 0 -178 72 -178 166v187c0 96 64 169 183 169c111 0 166 -64 166 -163c0 -92 -50 -148 -169 -148c-30 0 -67 3 -102 9v-59c0 -56 37 -92 109 -92zM317 351c0 65 -33 92 -91 92
c-65 0 -103 -35 -103 -91v-76c37 -5 85 -7 105 -7c76 0 89 41 89 82zM170 705l78 -81c4 -5 5 -10 5 -15c0 -21 -16 -35 -33 -35c-13 0 -21 7 -32 18l-81 86c-4 5 -5 12 -5 17c0 19 17 33 31 33c18 0 23 -10 37 -23z" />
    <glyph glyph-name="eacute" unicode="&#xe9;" horiz-adv-x="435" 
d="M232 61c-72 0 -109 36 -109 92v59c35 -6 72 -9 102 -9c119 0 169 56 169 148c0 99 -55 163 -166 163c-119 0 -183 -73 -183 -169v-187c0 -94 65 -166 178 -166c54 0 162 16 162 65c0 18 -15 35 -35 35c-7 0 -12 -2 -14 -3c-35 -16 -62 -28 -104 -28zM317 351
c0 -41 -13 -82 -89 -82c-20 0 -68 2 -105 7v76c0 56 38 91 103 91c58 0 91 -27 91 -92zM184 624l78 81c14 13 19 23 37 23c14 0 31 -14 31 -33c0 -5 -1 -12 -5 -17l-81 -86c-12 -11 -19 -18 -32 -18c-18 0 -33 14 -33 35c0 5 1 10 5 15z" />
    <glyph glyph-name="ecircumflex" unicode="&#xea;" horiz-adv-x="435" 
d="M232 61c42 0 69 12 104 28c2 1 7 3 14 3c20 0 35 -17 35 -35c0 -49 -108 -65 -162 -65c-113 0 -178 72 -178 166v187c0 96 64 169 183 169c111 0 166 -64 166 -163c0 -92 -50 -148 -169 -148c-30 0 -67 3 -102 9v-59c0 -56 37 -92 109 -92zM317 351c0 65 -33 92 -91 92
c-65 0 -103 -35 -103 -91v-76c37 -5 85 -7 105 -7c76 0 89 41 89 82zM217 636l-75 -61c-3 -4 -13 -6 -19 -6c-13 0 -25 13 -25 26c0 11 8 21 18 30l79 67c6 4 13 8 22 8s16 -4 22 -8l79 -67c10 -9 18 -19 18 -30c0 -13 -12 -26 -26 -26c-5 0 -15 2 -18 6z" />
    <glyph glyph-name="edieresis" unicode="&#xeb;" horiz-adv-x="435" 
d="M232 61c-72 0 -109 36 -109 92v59c35 -6 72 -9 102 -9c119 0 169 56 169 148c0 99 -55 163 -166 163c-119 0 -183 -73 -183 -169v-187c0 -94 65 -166 178 -166c54 0 162 16 162 65c0 18 -15 35 -35 35c-7 0 -12 -2 -14 -3c-35 -16 -62 -28 -104 -28zM317 351
c0 -41 -13 -82 -89 -82c-20 0 -68 2 -105 7v76c0 56 38 91 103 91c58 0 91 -27 91 -92zM349 639c0 -27 -21 -49 -47 -49s-48 23 -48 49c0 25 22 47 48 47s47 -21 47 -47zM180 639c0 -27 -21 -49 -48 -49c-26 0 -46 23 -46 49c0 25 20 47 46 47c27 0 48 -21 48 -47z" />
    <glyph glyph-name="igrave" unicode="&#xec;" horiz-adv-x="245" 
d="M161 31c0 -22 -17 -39 -39 -39s-39 17 -39 39v441c0 21 17 39 39 39s39 -18 39 -39v-441zM83 705l78 -81c4 -5 5 -10 5 -15c0 -21 -16 -35 -33 -35c-13 0 -21 7 -32 18l-81 86c-4 5 -5 12 -5 17c0 19 17 33 31 33c18 0 23 -10 37 -23z" />
    <glyph glyph-name="iacute" unicode="&#xed;" horiz-adv-x="245" 
d="M161 31c0 -22 -17 -39 -39 -39s-39 17 -39 39v441c0 21 17 39 39 39s39 -18 39 -39v-441zM87 624l78 81c14 13 19 23 37 23c14 0 31 -14 31 -33c0 -5 -1 -12 -5 -17l-81 -86c-12 -11 -19 -18 -32 -18c-18 0 -33 14 -33 35c0 5 1 10 5 15z" />
    <glyph glyph-name="icircumflex" unicode="&#xee;" horiz-adv-x="245" 
d="M161 31c0 -22 -17 -39 -39 -39s-39 17 -39 39v441c0 21 17 39 39 39s39 -18 39 -39v-441zM123 636l-75 -61c-3 -4 -13 -6 -19 -6c-13 0 -25 13 -25 26c0 11 8 21 18 30l79 67c6 4 13 8 22 8s16 -4 22 -8l79 -67c10 -9 18 -19 18 -30c0 -13 -12 -26 -26 -26
c-5 0 -15 2 -18 6z" />
    <glyph glyph-name="idieresis" unicode="&#xef;" horiz-adv-x="245" 
d="M161 31c0 -22 -17 -39 -39 -39s-39 17 -39 39v441c0 21 17 39 39 39s39 -18 39 -39v-441zM254 639c0 -27 -21 -49 -47 -49s-48 23 -48 49c0 25 22 47 48 47s47 -21 47 -47zM85 639c0 -27 -21 -49 -48 -49c-26 0 -46 23 -46 49c0 25 20 47 46 47c27 0 48 -21 48 -47z" />
    <glyph glyph-name="eth" unicode="&#xf0;" horiz-adv-x="500" 
d="M493 647c0 0 3 -1 2 -8c-1 -10 -6 -19 -15 -24l-60 -32c25 -62 39 -148 39 -258c0 -270 -77 -335 -201 -335c-151 0 -217 95 -217 221c0 125 64 226 186 226c38 0 103 -10 150 -47c0 71 -8 122 -21 158l-65 -35c-11 -6 -19 -7 -23 -7c-14 0 -29 16 -27 33
c1 10 6 19 15 24l71 38c-30 33 -67 38 -101 42c-13 1 -30 3 -28 34c2 22 12 32 55 32c58 0 104 -24 139 -73l53 29c7 4 14 6 23 6c24 -1 25 -24 25 -24zM379 281v28c-32 34 -99 56 -145 56c-72 0 -115 -56 -115 -149c0 -86 37 -152 134 -152c96 0 126 65 126 217z" />
    <glyph glyph-name="ntilde" unicode="&#xf1;" horiz-adv-x="509" 
d="M155 371v-340c0 -21 -13 -38 -39 -38s-39 17 -39 38v340c0 55 -9 55 -18 70c-2 4 -7 10 -7 20c0 20 16 35 37 35c18 0 31 -12 42 -29c44 31 95 45 143 45c106 0 159 -76 159 -189v-292c0 -21 -14 -38 -39 -38s-39 17 -39 38v292c0 76 -32 119 -92 119
c-39 0 -77 -16 -111 -42c2 -11 3 -21 3 -29zM381 650c0 -35 -46 -59 -82 -61c-43 0 -70 29 -100 32c-37 0 -42 -27 -64 -27c-15 0 -28 11 -30 27c0 37 39 65 82 65c42 0 68 -29 100 -32c38 0 40 25 64 28c16 0 30 -14 30 -32z" />
    <glyph glyph-name="ograve" unicode="&#xf2;" horiz-adv-x="464" 
d="M232 -8c-122 0 -187 78 -187 178v167c0 100 65 178 187 178s187 -78 187 -178v-167c0 -100 -65 -178 -187 -178zM232 64c72 0 109 40 109 106v168c0 65 -37 105 -109 105s-109 -40 -109 -105v-168c0 -66 37 -106 109 -106zM197 705l78 -81c4 -5 5 -10 5 -15
c0 -21 -16 -35 -33 -35c-13 0 -21 7 -32 18l-81 86c-4 5 -5 12 -5 17c0 19 17 33 31 33c18 0 23 -10 37 -23z" />
    <glyph glyph-name="oacute" unicode="&#xf3;" horiz-adv-x="464" 
d="M232 -8c-122 0 -187 78 -187 178v167c0 100 65 178 187 178s187 -78 187 -178v-167c0 -100 -65 -178 -187 -178zM232 64c72 0 109 40 109 106v168c0 65 -37 105 -109 105s-109 -40 -109 -105v-168c0 -66 37 -106 109 -106zM161 624l78 81c14 13 19 23 37 23
c14 0 31 -14 31 -33c0 -5 -1 -12 -5 -17l-81 -86c-12 -11 -19 -18 -32 -18c-18 0 -33 14 -33 35c0 5 1 10 5 15z" />
    <glyph glyph-name="ocircumflex" unicode="&#xf4;" horiz-adv-x="464" 
d="M232 -8c-122 0 -187 78 -187 178v167c0 100 65 178 187 178s187 -78 187 -178v-167c0 -100 -65 -178 -187 -178zM232 64c72 0 109 40 109 106v168c0 65 -37 105 -109 105s-109 -40 -109 -105v-168c0 -66 37 -106 109 -106zM232 636l-75 -61c-3 -4 -13 -6 -19 -6
c-13 0 -25 13 -25 26c0 11 8 21 18 30l79 67c6 4 13 8 22 8s16 -4 22 -8l79 -67c10 -9 18 -19 18 -30c0 -13 -12 -26 -26 -26c-5 0 -15 2 -18 6z" />
    <glyph glyph-name="otilde" unicode="&#xf5;" horiz-adv-x="464" 
d="M232 -8c-122 0 -187 78 -187 178v167c0 100 65 178 187 178s187 -78 187 -178v-167c0 -100 -65 -178 -187 -178zM232 64c72 0 109 40 109 106v168c0 65 -37 105 -109 105s-109 -40 -109 -105v-168c0 -66 37 -106 109 -106zM370 650c0 -35 -46 -59 -82 -61
c-43 0 -70 29 -100 32c-37 0 -42 -27 -64 -27c-15 0 -28 11 -30 27c0 37 39 65 82 65c42 0 68 -29 100 -32c38 0 40 25 64 28c16 0 30 -14 30 -32z" />
    <glyph glyph-name="odieresis" unicode="&#xf6;" horiz-adv-x="464" 
d="M232 -8c-122 0 -187 78 -187 178v167c0 100 65 178 187 178s187 -78 187 -178v-167c0 -100 -65 -178 -187 -178zM232 64c72 0 109 40 109 106v168c0 65 -37 105 -109 105s-109 -40 -109 -105v-168c0 -66 37 -106 109 -106zM363 639c0 -27 -21 -49 -47 -49s-48 23 -48 49
c0 25 22 47 48 47s47 -21 47 -47zM194 639c0 -27 -21 -49 -48 -49c-26 0 -46 23 -46 49c0 25 20 47 46 47c27 0 48 -21 48 -47z" />
    <glyph glyph-name="oslash" unicode="&#xf8;" horiz-adv-x="464" 
d="M40 21l33 47c-19 28 -28 64 -28 102v167c0 100 65 178 187 178c53 0 95 -15 126 -40l27 39c8 11 24 15 36 6c13 -9 15 -24 7 -36l-35 -49c17 -28 26 -62 26 -98v-167c0 -100 -65 -178 -187 -178c-51 0 -92 14 -123 37l-26 -38c-8 -11 -25 -14 -36 -6c-12 8 -15 24 -7 36z
M123 170c0 -10 1 -19 2 -27l189 270c-18 19 -45 30 -82 30c-72 0 -109 -40 -109 -105v-168zM232 64c72 0 109 40 109 106v168c0 7 0 13 -1 20l-188 -268c18 -17 45 -26 80 -26z" />
    <glyph glyph-name="ugrave" unicode="&#xf9;" horiz-adv-x="509" 
d="M352 123v350c0 21 13 38 39 38s39 -17 39 -38v-350c0 -55 10 -55 18 -70c2 -4 7 -11 7 -20c0 -19 -16 -35 -37 -35c-19 0 -32 12 -43 30c-44 -25 -95 -36 -142 -36c-106 0 -159 76 -159 189v292c0 21 14 38 39 38s39 -17 39 -38v-292c0 -76 32 -119 92 -119
c39 0 77 12 110 33c-1 10 -2 20 -2 28zM206 705l78 -81c4 -5 5 -10 5 -15c0 -21 -16 -35 -33 -35c-13 0 -21 7 -32 18l-81 86c-4 5 -5 12 -5 17c0 19 17 33 31 33c18 0 23 -10 37 -23z" />
    <glyph glyph-name="uacute" unicode="&#xfa;" horiz-adv-x="509" 
d="M352 123v350c0 21 13 38 39 38s39 -17 39 -38v-350c0 -55 10 -55 18 -70c2 -4 7 -11 7 -20c0 -19 -16 -35 -37 -35c-19 0 -32 12 -43 30c-44 -25 -95 -36 -142 -36c-106 0 -159 76 -159 189v292c0 21 14 38 39 38s39 -17 39 -38v-292c0 -76 32 -119 92 -119
c39 0 77 12 110 33c-1 10 -2 20 -2 28zM217 624l78 81c14 13 19 23 37 23c14 0 31 -14 31 -33c0 -5 -1 -12 -5 -17l-81 -86c-12 -11 -19 -18 -32 -18c-18 0 -33 14 -33 35c0 5 1 10 5 15z" />
    <glyph glyph-name="ucircumflex" unicode="&#xfb;" horiz-adv-x="509" 
d="M352 123v350c0 21 13 38 39 38s39 -17 39 -38v-350c0 -55 10 -55 18 -70c2 -4 7 -11 7 -20c0 -19 -16 -35 -37 -35c-19 0 -32 12 -43 30c-44 -25 -95 -36 -142 -36c-106 0 -159 76 -159 189v292c0 21 14 38 39 38s39 -17 39 -38v-292c0 -76 32 -119 92 -119
c39 0 77 12 110 33c-1 10 -2 20 -2 28zM254 636l-75 -61c-3 -4 -13 -6 -19 -6c-13 0 -25 13 -25 26c0 11 8 21 18 30l79 67c6 4 13 8 22 8s16 -4 22 -8l79 -67c10 -9 18 -19 18 -30c0 -13 -12 -26 -26 -26c-5 0 -15 2 -18 6z" />
    <glyph glyph-name="udieresis" unicode="&#xfc;" horiz-adv-x="509" 
d="M352 123v350c0 21 13 38 39 38s39 -17 39 -38v-350c0 -55 10 -55 18 -70c2 -4 7 -11 7 -20c0 -19 -16 -35 -37 -35c-19 0 -32 12 -43 30c-44 -25 -95 -36 -142 -36c-106 0 -159 76 -159 189v292c0 21 14 38 39 38s39 -17 39 -38v-292c0 -76 32 -119 92 -119
c39 0 77 12 110 33c-1 10 -2 20 -2 28zM386 639c0 -27 -21 -49 -47 -49s-48 23 -48 49c0 25 22 47 48 47s47 -21 47 -47zM217 639c0 -27 -21 -49 -48 -49c-26 0 -46 23 -46 49c0 25 20 47 46 47c27 0 48 -21 48 -47z" />
    <glyph glyph-name="yacute" unicode="&#xfd;" horiz-adv-x="412" 
d="M397 460l-122 -397c-48 -156 -86 -263 -216 -266c-23 0 -40 16 -40 38c0 18 14 36 37 37c63 3 91 37 121 130l-159 459c-2 3 -2 10 -2 14c0 21 17 36 39 36c15 0 29 -9 35 -26l125 -379l109 379c6 17 21 26 36 26c20 0 39 -16 39 -39c0 -4 -1 -8 -2 -12zM183 624l78 81
c14 13 19 23 37 23c14 0 31 -14 31 -33c0 -5 -1 -12 -5 -17l-81 -86c-12 -11 -19 -18 -32 -18c-18 0 -33 14 -33 35c0 5 1 10 5 15z" />
    <glyph glyph-name="thorn" unicode="&#xfe;" horiz-adv-x="485" 
d="M152 396v-264c28 -31 64 -50 114 -50c67 0 96 33 96 88v188c0 55 -29 88 -96 88c-50 0 -86 -19 -114 -50zM74 -179v866c0 20 14 38 39 38s39 -18 39 -38v-214c37 26 79 41 133 41c114 0 155 -68 155 -156v-188c0 -88 -41 -156 -155 -156c-54 0 -96 15 -133 41v-234
c0 -20 -14 -38 -39 -38s-39 18 -39 38z" />
    <glyph glyph-name="ydieresis" unicode="&#xff;" horiz-adv-x="412" 
d="M397 460l-122 -397c-48 -156 -86 -263 -216 -266c-23 0 -40 16 -40 38c0 18 14 36 37 37c63 3 91 37 121 130l-159 459c-2 3 -2 10 -2 14c0 21 17 36 39 36c15 0 29 -9 35 -26l125 -379l109 379c6 17 21 26 36 26c20 0 39 -16 39 -39c0 -4 -1 -8 -2 -12zM337 639
c0 -27 -21 -49 -47 -49s-48 23 -48 49c0 25 22 47 48 47s47 -21 47 -47zM168 639c0 -27 -21 -49 -48 -49c-26 0 -46 23 -46 49c0 25 20 47 46 47c27 0 48 -21 48 -47z" />
    <glyph glyph-name="Abreve" unicode="&#x102;" horiz-adv-x="549" 
d="M147 159l-42 -139c-6 -18 -24 -30 -38 -30c-23 0 -42 16 -42 40c0 4 1 12 2 15l195 617c9 30 23 53 52 53c30 0 43 -22 53 -53l195 -617c1 -3 2 -11 2 -15c0 -24 -18 -40 -42 -40c-15 0 -34 12 -39 30l-43 139h-253zM274 576l-103 -339h206zM274 833c22 0 44 11 65 41
c7 11 19 16 30 16c17 0 33 -11 26 -37c-13 -54 -76 -81 -121 -81s-108 27 -122 81c-6 26 10 37 27 37c11 0 23 -5 30 -16c21 -30 42 -41 65 -41z" />
    <glyph glyph-name="abreve" unicode="&#x103;" horiz-adv-x="482" 
d="M322 338v-57c-31 9 -65 14 -101 14c-118 0 -176 -50 -176 -148v-4c0 -90 50 -151 153 -151c54 0 99 18 137 53c15 -31 42 -50 75 -50c22 0 45 9 45 34c0 17 -10 34 -29 34c-4 0 -5 -1 -8 -1c-12 0 -18 10 -18 30v220c0 132 -50 202 -175 202c-69 0 -144 -19 -140 -65
c1 -15 9 -33 28 -33c11 0 23 7 26 8c22 12 41 21 76 21c72 0 107 -34 107 -107zM220 229c30 0 69 -5 102 -15v-108c-35 -30 -69 -44 -112 -44c-67 0 -88 33 -88 80v4c0 45 16 83 98 83zM241 633c22 0 44 11 65 41c7 11 19 16 30 16c17 0 33 -11 26 -37
c-13 -54 -76 -81 -121 -81s-108 27 -122 81c-6 26 10 37 27 37c11 0 23 -5 30 -16c21 -30 42 -41 65 -41z" />
    <glyph glyph-name="Aogonek" unicode="&#x104;" horiz-adv-x="549" 
d="M592 -156c0 -34 -46 -39 -77 -39c-62 0 -103 28 -103 90c0 35 18 76 41 108c-5 4 -8 10 -10 17l-43 139h-253l-42 -139c-6 -18 -24 -30 -38 -30c-23 0 -42 16 -42 40c0 4 1 12 2 15l195 617c9 30 23 53 52 53c30 0 43 -22 53 -53l195 -617c1 -3 2 -11 2 -15
c0 -14 -8 -23 -15 -31c-20 -23 -30 -60 -30 -88c0 -25 14 -45 44 -45c24 0 31 5 42 5c15 0 27 -13 27 -27zM274 576l-103 -339h206z" />
    <glyph glyph-name="aogonek" unicode="&#x105;" horiz-adv-x="482" 
d="M518 -156c0 -34 -46 -39 -77 -39c-62 0 -103 28 -103 90c0 35 16 73 41 106c-19 8 -34 23 -44 44c-38 -35 -83 -53 -137 -53c-103 0 -153 61 -153 151v4c0 98 58 148 176 148c36 0 70 -5 101 -14v57c0 73 -35 107 -107 107c-35 0 -54 -9 -76 -21c-3 -1 -15 -8 -26 -8
c-19 0 -27 18 -28 33c-4 46 71 65 140 65c125 0 175 -70 175 -202v-220c0 -20 6 -30 18 -30c3 0 4 1 8 1c19 0 29 -17 29 -34c0 -15 -10 -21 -19 -29c-21 -21 -31 -61 -31 -89c0 -25 14 -45 44 -45c24 0 31 5 42 5c15 0 27 -13 27 -27zM220 229c-82 0 -98 -38 -98 -83v-4
c0 -47 21 -80 88 -80c43 0 77 14 112 44v108c-33 10 -72 15 -102 15z" />
    <glyph glyph-name="Cacute" unicode="&#x106;" horiz-adv-x="482" 
d="M45 246v214c0 154 71 255 225 255c91 0 177 -39 177 -86c0 -19 -15 -35 -36 -35c-14 0 -20 7 -36 17c-30 21 -61 31 -100 31c-113 0 -150 -70 -150 -182v-214c0 -112 37 -182 150 -182c39 0 70 10 100 31c17 10 22 17 36 17c21 0 36 -16 36 -35c0 -47 -86 -86 -177 -86
c-154 0 -225 101 -225 255zM238 824l78 81c14 13 19 23 37 23c14 0 31 -14 31 -33c0 -5 -1 -12 -5 -17l-81 -86c-12 -11 -19 -18 -32 -18c-18 0 -33 14 -33 35c0 5 1 10 5 15z" />
    <glyph glyph-name="cacute" unicode="&#x107;" horiz-adv-x="393" 
d="M45 176v151c0 103 54 184 179 184c47 0 139 -14 139 -61c0 -18 -15 -34 -34 -34c-5 0 -10 1 -16 3c-24 12 -46 23 -81 23c-78 0 -109 -42 -109 -115v-151c0 -73 31 -115 109 -115c35 0 57 11 81 23c6 2 11 3 16 3c19 0 34 -16 34 -34c0 -47 -92 -61 -139 -61
c-125 0 -179 81 -179 184zM176 624l78 81c14 13 19 23 37 23c14 0 31 -14 31 -33c0 -5 -1 -12 -5 -17l-81 -86c-12 -11 -19 -18 -32 -18c-18 0 -33 14 -33 35c0 5 1 10 5 15z" />
    <glyph glyph-name="Ccaron" unicode="&#x10c;" horiz-adv-x="482" 
d="M45 246v214c0 154 71 255 225 255c91 0 177 -39 177 -86c0 -19 -15 -35 -36 -35c-14 0 -20 7 -36 17c-30 21 -61 31 -100 31c-113 0 -150 -70 -150 -182v-214c0 -112 37 -182 150 -182c39 0 70 10 100 31c17 10 22 17 36 17c21 0 36 -16 36 -35c0 -47 -86 -86 -177 -86
c-154 0 -225 101 -225 255zM276 762c-10 0 -18 4 -24 9l-88 73c-13 11 -20 20 -20 34c0 17 15 29 31 29c6 0 12 -3 18 -7l83 -67l83 67c6 4 12 7 18 7c16 0 31 -12 31 -29c0 -14 -7 -23 -20 -34l-88 -73c-6 -5 -14 -9 -24 -9z" />
    <glyph glyph-name="ccaron" unicode="&#x10d;" horiz-adv-x="393" 
d="M45 176v151c0 103 54 184 179 184c47 0 139 -14 139 -61c0 -18 -15 -34 -34 -34c-5 0 -10 1 -16 3c-24 12 -46 23 -81 23c-78 0 -109 -42 -109 -115v-151c0 -73 31 -115 109 -115c35 0 57 11 81 23c6 2 11 3 16 3c19 0 34 -16 34 -34c0 -47 -92 -61 -139 -61
c-125 0 -179 81 -179 184zM223 562c-10 0 -18 4 -24 9l-88 73c-13 11 -20 20 -20 34c0 17 15 29 31 29c6 0 12 -3 18 -7l83 -67l83 67c6 4 12 7 18 7c16 0 31 -12 31 -29c0 -14 -7 -23 -20 -34l-88 -73c-6 -5 -14 -9 -24 -9z" />
    <glyph glyph-name="Dcaron" unicode="&#x10e;" horiz-adv-x="554" 
d="M508 264c0 -137 -69 -264 -274 -264h-113c-26 0 -48 22 -48 48v610c0 26 22 48 48 48h113c204 0 274 -121 274 -255v-187zM428 264v187c0 99 -47 177 -177 177h-98v-550h98c132 0 177 83 177 186zM277 762c-10 0 -18 4 -24 9l-88 73c-13 11 -20 20 -20 34
c0 17 15 29 31 29c6 0 12 -3 18 -7l83 -67l83 67c6 4 12 7 18 7c16 0 31 -12 31 -29c0 -14 -7 -23 -20 -34l-88 -73c-6 -5 -14 -9 -24 -9z" />
    <glyph glyph-name="dcaron" unicode="&#x10f;" horiz-adv-x="605" 
d="M212 510c33 0 75 -7 111 -19v196c0 21 14 38 39 38s39 -17 39 -38v-573c0 -28 6 -45 26 -60c4 -6 7 -11 7 -20c0 -21 -18 -35 -35 -35c-23 0 -41 13 -53 32c-44 -22 -92 -39 -142 -39c-105 0 -159 77 -159 189v127c0 119 40 202 167 202zM323 114v307
c-33 14 -77 21 -101 21c-73 0 -99 -41 -99 -134v-127c0 -78 31 -119 97 -119c32 0 71 11 105 29c-2 8 -2 16 -2 23zM581 672c0 -67 -49 -164 -76 -164c-10 0 -19 4 -19 17c0 32 25 50 37 92c-28 3 -49 26 -49 55s24 53 54 53c29 0 53 -24 53 -53z" />
    <glyph glyph-name="Dcroat" unicode="&#x110;" horiz-adv-x="574" 
d="M528 264c0 -137 -69 -264 -274 -264h-113c-26 0 -48 22 -48 48v269h-39c-21 0 -37 16 -37 36s16 37 37 37h39v268c0 26 22 48 48 48h113c204 0 274 -121 274 -255v-187zM339 353c0 -20 -16 -36 -36 -36h-130v-239h98c132 0 177 83 177 186v187c0 99 -47 177 -177 177h-98
v-238h130c20 0 36 -17 36 -37z" />
    <glyph glyph-name="dcroat" unicode="&#x111;" horiz-adv-x="488" 
d="M484 606c0 -20 -16 -36 -36 -36h-47v-456c0 -28 6 -45 26 -60c4 -6 7 -11 7 -20c0 -21 -18 -35 -35 -35c-23 0 -41 13 -53 32c-44 -22 -92 -39 -142 -39c-105 0 -159 77 -159 189v127c0 119 40 202 167 202c33 0 75 -7 111 -19v79h-124c-21 0 -37 16 -37 36s16 37 37 37
h124v44c0 21 14 38 39 38s39 -17 39 -38v-44h47c20 0 36 -17 36 -37zM323 114v307c-33 14 -77 21 -101 21c-73 0 -99 -41 -99 -134v-127c0 -78 31 -119 97 -119c32 0 71 11 105 29c-2 8 -2 16 -2 23z" />
    <glyph glyph-name="Eogonek" unicode="&#x118;" horiz-adv-x="474" 
d="M483 -156c0 -34 -46 -39 -77 -39c-62 0 -103 28 -103 90c0 35 15 73 38 105h-205c-33 0 -63 11 -63 47v611c0 23 20 47 47 47h271c22 0 40 -18 40 -40s-18 -38 -40 -38h-238v-234h219c20 0 39 -17 39 -39s-17 -39 -39 -39h-219v-237h248c21 0 40 -17 40 -37
c0 -23 -18 -41 -40 -41c-13 -27 -31 -61 -31 -89c0 -25 14 -45 44 -45c24 0 31 5 42 5c15 0 27 -13 27 -27z" />
    <glyph glyph-name="eogonek" unicode="&#x119;" horiz-adv-x="435" 
d="M394 -156c0 -34 -46 -39 -77 -39c-62 0 -103 28 -103 90c0 33 12 68 33 98c-9 0 -17 -1 -24 -1c-113 0 -178 72 -178 166v187c0 96 64 169 183 169c111 0 166 -64 166 -163c0 -92 -50 -148 -169 -148c-30 0 -67 3 -102 9v-59c0 -56 37 -92 109 -92c42 0 69 12 104 28
c2 1 7 3 14 3c20 0 35 -17 35 -35c0 -26 -34 -34 -66 -53s-38 -64 -38 -93c0 -25 14 -45 44 -45c24 0 31 5 42 5c15 0 27 -13 27 -27zM317 351c0 65 -33 92 -91 92c-65 0 -103 -35 -103 -91v-76c37 -5 85 -7 105 -7c76 0 89 41 89 82z" />
    <glyph glyph-name="Ecaron" unicode="&#x11a;" horiz-adv-x="474" 
d="M441 41c0 -23 -18 -41 -40 -41h-265c-33 0 -63 11 -63 47v611c0 23 20 47 47 47h271c22 0 40 -18 40 -40s-18 -38 -40 -38h-238v-234h219c20 0 39 -17 39 -39s-17 -39 -39 -39h-219v-237h248c21 0 40 -17 40 -37zM267 762c-10 0 -18 4 -24 9l-88 73c-13 11 -20 20 -20 34
c0 17 15 29 31 29c6 0 12 -3 18 -7l83 -67l83 67c6 4 12 7 18 7c16 0 31 -12 31 -29c0 -14 -7 -23 -20 -34l-88 -73c-6 -5 -14 -9 -24 -9z" />
    <glyph glyph-name="ecaron" unicode="&#x11b;" horiz-adv-x="435" 
d="M232 61c-72 0 -109 36 -109 92v59c35 -6 72 -9 102 -9c119 0 169 56 169 148c0 99 -55 163 -166 163c-119 0 -183 -73 -183 -169v-187c0 -94 65 -166 178 -166c54 0 162 16 162 65c0 18 -15 35 -35 35c-7 0 -12 -2 -14 -3c-35 -16 -62 -28 -104 -28zM317 351
c0 -41 -13 -82 -89 -82c-20 0 -68 2 -105 7v76c0 56 38 91 103 91c58 0 91 -27 91 -92zM217 562c-10 0 -18 4 -24 9l-88 73c-13 11 -20 20 -20 34c0 17 15 29 31 29c6 0 12 -3 18 -7l83 -67l83 67c6 4 12 7 18 7c16 0 31 -12 31 -29c0 -14 -7 -23 -20 -34l-88 -73
c-6 -5 -14 -9 -24 -9z" />
    <glyph glyph-name="Gbreve" unicode="&#x11e;" horiz-adv-x="520" 
d="M125 460v-214c0 -112 37 -182 150 -182c48 0 83 14 113 37v215h-97c-20 0 -38 17 -38 38s18 38 38 38h119c32 0 57 -14 57 -46v-239c0 -81 -108 -116 -197 -116c-154 0 -225 101 -225 255v214c0 154 71 255 225 255c91 0 177 -39 177 -86c0 -19 -15 -35 -36 -35
c-14 0 -20 7 -36 17c-30 21 -61 31 -100 31c-113 0 -150 -70 -150 -182zM260 833c22 0 44 11 65 41c7 11 19 16 30 16c17 0 33 -11 26 -37c-13 -54 -76 -81 -121 -81s-108 27 -122 81c-6 26 10 37 27 37c11 0 23 -5 30 -16c21 -30 42 -41 65 -41z" />
    <glyph glyph-name="gbreve" unicode="&#x11f;" horiz-adv-x="493" 
d="M231 514c46 0 93 -12 131 -34c22 41 58 58 80 58c21 0 37 -15 37 -35c0 -10 -4 -17 -7 -20c-38 -37 -54 -48 -54 -97v-62c0 -102 -61 -180 -181 -180c-30 0 -56 4 -79 13c-9 -17 -12 -34 -12 -46c0 -35 32 -44 54 -44h42c114 0 200 -47 200 -147
c0 -101 -87 -163 -205 -163c-113 0 -192 57 -192 154c0 49 19 87 53 120c-23 23 -30 54 -30 77c0 24 8 55 38 82c-35 33 -54 82 -54 141c0 104 59 183 179 183zM340 385c0 10 1 20 2 29c-31 19 -64 30 -101 30c-74 0 -111 -41 -111 -115c0 -68 32 -113 107 -113
c71 0 103 40 103 106v63zM202 -5c-17 0 -32 2 -45 5c-24 -21 -34 -46 -34 -78c0 -60 39 -93 116 -93c72 0 125 29 125 89c0 53 -40 77 -120 77h-42zM246 633c22 0 44 11 65 41c7 11 19 16 30 16c17 0 33 -11 26 -37c-13 -54 -76 -81 -121 -81s-108 27 -122 81
c-6 26 10 37 27 37c11 0 23 -5 30 -16c21 -30 42 -41 65 -41z" />
    <glyph glyph-name="Idotaccent" unicode="&#x130;" horiz-adv-x="227" 
d="M73 30v645c0 21 18 40 40 40s40 -19 40 -40v-645c0 -21 -18 -40 -40 -40s-40 19 -40 40zM161 839c0 -27 -21 -49 -48 -49c-26 0 -46 23 -46 49c0 25 20 47 46 47c27 0 48 -21 48 -47z" />
    <glyph glyph-name="dotlessi" unicode="&#x131;" horiz-adv-x="245" 
d="M161 31c0 -22 -17 -39 -39 -39s-39 17 -39 39v441c0 21 17 39 39 39s39 -18 39 -39v-441z" />
    <glyph glyph-name="Lacute" unicode="&#x139;" horiz-adv-x="448" 
d="M438 39c0 -22 -17 -39 -38 -39h-282c-24 0 -45 20 -45 45v630c0 21 18 40 40 40s40 -19 40 -40v-598h247c20 0 38 -17 38 -38zM94 824l78 81c14 13 19 23 37 23c14 0 31 -14 31 -33c0 -5 -1 -12 -5 -17l-81 -86c-12 -11 -19 -18 -32 -18c-18 0 -33 14 -33 35
c0 5 1 10 5 15z" />
    <glyph glyph-name="lacute" unicode="&#x13a;" horiz-adv-x="228" 
d="M74 94v592c0 21 17 39 39 39s39 -17 39 -39v-592c0 -22 2 -35 14 -47c3 -4 7 -11 7 -19c0 -20 -16 -36 -36 -36c-25 0 -63 12 -63 102zM86 810l78 81c14 13 19 23 37 23c14 0 31 -14 31 -33c0 -5 -1 -12 -5 -17l-81 -86c-12 -11 -19 -18 -32 -18c-18 0 -33 14 -33 35
c0 5 1 10 5 15z" />
    <glyph glyph-name="Lcaron" unicode="&#x13d;" horiz-adv-x="448" 
d="M438 39c0 -22 -17 -39 -38 -39h-282c-24 0 -45 20 -45 45v630c0 21 18 40 40 40s40 -19 40 -40v-598h247c20 0 38 -17 38 -38zM397 672c0 -67 -49 -164 -76 -164c-10 0 -19 4 -19 17c0 32 25 50 37 92c-28 3 -49 26 -49 55s24 53 54 53c29 0 53 -24 53 -53z" />
    <glyph glyph-name="lcaron" unicode="&#x13e;" horiz-adv-x="359" 
d="M74 94v592c0 21 17 39 39 39s39 -17 39 -39v-592c0 -22 2 -35 14 -47c3 -4 7 -11 7 -19c0 -20 -16 -36 -36 -36c-25 0 -63 12 -63 102zM334 672c0 -67 -49 -164 -76 -164c-10 0 -19 4 -19 17c0 32 25 50 37 92c-28 3 -49 26 -49 55s24 53 54 53c29 0 53 -24 53 -53z" />
    <glyph glyph-name="Lslash" unicode="&#x141;" horiz-adv-x="494" 
d="M484 39c0 -22 -17 -39 -38 -39h-282c-24 0 -45 20 -45 45v247l-40 -26c-7 -5 -15 -11 -23 -11c-21 0 -41 12 -41 38c0 11 6 23 17 30l87 57v295c0 21 18 40 40 40s40 -19 40 -40v-243l54 36c9 6 16 10 29 10c14 0 28 -10 33 -25c1 -4 2 -8 2 -12c0 -11 -6 -22 -16 -29
l-102 -67v-268h247c20 0 38 -17 38 -38z" />
    <glyph glyph-name="lslash" unicode="&#x142;" horiz-adv-x="337" 
d="M120 94v199l-41 -27c-7 -5 -15 -11 -23 -11c-21 0 -41 12 -41 38c0 11 6 23 17 30l88 57v306c0 21 17 39 39 39s39 -17 39 -39v-254l55 36c9 6 16 10 29 10c14 0 28 -10 33 -25c1 -4 2 -8 2 -12c0 -11 -6 -22 -16 -29l-103 -68v-250c0 -22 2 -35 14 -47c3 -4 7 -11 7 -19
c0 -20 -16 -36 -36 -36c-25 0 -63 12 -63 102z" />
    <glyph glyph-name="Nacute" unicode="&#x143;" horiz-adv-x="600" 
d="M482 -10c-16 0 -33 9 -41 23l-288 533v-515c0 -22 -19 -41 -41 -41s-39 19 -39 41v640c0 25 18 44 43 44c17 0 34 -9 42 -24l288 -532v515c0 22 19 41 41 41s39 -19 39 -41v-640c0 -24 -18 -44 -44 -44zM270 824l78 81c14 13 19 23 37 23c14 0 31 -14 31 -33
c0 -5 -1 -12 -5 -17l-81 -86c-12 -11 -19 -18 -32 -18c-18 0 -33 14 -33 35c0 5 1 10 5 15z" />
    <glyph glyph-name="nacute" unicode="&#x144;" horiz-adv-x="509" 
d="M155 371v-340c0 -21 -13 -38 -39 -38s-39 17 -39 38v340c0 55 -9 55 -18 70c-2 4 -7 10 -7 20c0 20 16 35 37 35c18 0 31 -12 42 -29c44 31 95 45 143 45c106 0 159 -76 159 -189v-292c0 -21 -14 -38 -39 -38s-39 17 -39 38v292c0 76 -32 119 -92 119
c-39 0 -77 -16 -111 -42c2 -11 3 -21 3 -29zM184 624l78 81c14 13 19 23 37 23c14 0 31 -14 31 -33c0 -5 -1 -12 -5 -17l-81 -86c-12 -11 -19 -18 -32 -18c-18 0 -33 14 -33 35c0 5 1 10 5 15z" />
    <glyph glyph-name="Ncaron" unicode="&#x147;" horiz-adv-x="600" 
d="M482 -10c-16 0 -33 9 -41 23l-288 533v-515c0 -22 -19 -41 -41 -41s-39 19 -39 41v640c0 25 18 44 43 44c17 0 34 -9 42 -24l288 -532v515c0 22 19 41 41 41s39 -19 39 -41v-640c0 -24 -18 -44 -44 -44zM300 762c-10 0 -18 4 -24 9l-88 73c-13 11 -20 20 -20 34
c0 17 15 29 31 29c6 0 12 -3 18 -7l83 -67l83 67c6 4 12 7 18 7c16 0 31 -12 31 -29c0 -14 -7 -23 -20 -34l-88 -73c-6 -5 -14 -9 -24 -9z" />
    <glyph glyph-name="ncaron" unicode="&#x148;" horiz-adv-x="509" 
d="M155 371v-340c0 -21 -13 -38 -39 -38s-39 17 -39 38v340c0 55 -9 55 -18 70c-2 4 -7 10 -7 20c0 20 16 35 37 35c18 0 31 -12 42 -29c44 31 95 45 143 45c106 0 159 -76 159 -189v-292c0 -21 -14 -38 -39 -38s-39 17 -39 38v292c0 76 -32 119 -92 119
c-39 0 -77 -16 -111 -42c2 -11 3 -21 3 -29zM254 562c-10 0 -18 4 -24 9l-88 73c-13 11 -20 20 -20 34c0 17 15 29 31 29c6 0 12 -3 18 -7l83 -67l83 67c6 4 12 7 18 7c16 0 31 -12 31 -29c0 -14 -7 -23 -20 -34l-88 -73c-6 -5 -14 -9 -24 -9z" />
    <glyph glyph-name="Ohungarumlaut" unicode="&#x150;" horiz-adv-x="551" 
d="M275 -10c-153 0 -230 114 -230 256v214c0 139 65 255 230 255s230 -116 230 -255v-214c0 -142 -77 -256 -230 -256zM275 637c-110 0 -150 -71 -150 -177v-214c0 -105 47 -178 150 -178s150 73 150 178v214c0 106 -40 177 -150 177zM171 812l63 94c11 14 16 29 36 29
c17 0 33 -17 33 -35c0 -3 -1 -7 -2 -10l-65 -99c-11 -14 -18 -24 -33 -24c-19 0 -34 14 -34 33c0 4 0 8 2 12zM306 812l63 94c9 14 17 29 35 29c15 0 35 -16 35 -33c0 -4 -1 -8 -3 -12l-65 -99c-11 -14 -17 -24 -33 -24c-19 0 -34 14 -34 33c0 4 0 8 2 12z" />
    <glyph glyph-name="ohungarumlaut" unicode="&#x151;" horiz-adv-x="464" 
d="M232 -8c-122 0 -187 78 -187 178v167c0 100 65 178 187 178s187 -78 187 -178v-167c0 -100 -65 -178 -187 -178zM232 64c72 0 109 40 109 106v168c0 65 -37 105 -109 105s-109 -40 -109 -105v-168c0 -66 37 -106 109 -106zM135 612l63 94c11 14 16 29 36 29
c17 0 33 -17 33 -35c0 -3 -1 -7 -2 -10l-65 -99c-11 -14 -18 -24 -33 -24c-19 0 -34 14 -34 33c0 4 0 8 2 12zM270 612l63 94c9 14 17 29 35 29c15 0 35 -16 35 -33c0 -4 -1 -8 -3 -12l-65 -99c-11 -14 -17 -24 -33 -24c-19 0 -34 14 -34 33c0 4 0 8 2 12z" />
    <glyph glyph-name="OE" unicode="&#x152;" horiz-adv-x="756" 
d="M723 41c0 -23 -18 -41 -40 -41h-235c-33 0 -62 10 -63 45c-32 -34 -75 -55 -130 -55c-139 0 -210 106 -210 236v254c0 129 59 235 210 235c57 0 100 -19 130 -50c4 20 22 40 47 40h241c22 0 40 -18 40 -40s-18 -38 -40 -38h-208v-234h189c20 0 39 -17 39 -39
s-17 -39 -39 -39h-189v-237h218c21 0 40 -17 40 -37zM255 637c-96 0 -130 -63 -130 -157v-254c0 -93 41 -158 130 -158s130 65 130 158v254c0 94 -34 157 -130 157z" />
    <glyph glyph-name="oe" unicode="&#x153;" horiz-adv-x="731" 
d="M228 -8c-116 0 -183 79 -183 178v167c0 99 67 178 183 178c75 0 125 -33 151 -85c24 51 74 84 149 84c105 0 162 -64 162 -163c0 -92 -50 -148 -169 -148c-29 0 -67 3 -102 9v-59c0 -56 37 -92 109 -92c42 0 69 12 104 28c2 1 7 3 14 3c20 0 35 -17 35 -35
c0 -49 -109 -65 -159 -65c-72 0 -120 33 -144 83c-25 -51 -76 -83 -150 -83zM232 64c72 0 109 40 109 106v168c0 65 -37 105 -109 105s-109 -40 -109 -105v-168c0 -66 37 -106 109 -106zM613 351c0 65 -33 92 -91 92c-65 0 -103 -35 -103 -91v-76c37 -4 85 -7 105 -7
c76 0 89 41 89 82z" />
    <glyph glyph-name="Racute" unicode="&#x154;" horiz-adv-x="575" 
d="M511 505c0 -106 -60 -171 -155 -190l160 -263c3 -6 5 -15 5 -23c0 -21 -27 -38 -43 -38c-14 0 -26 7 -33 19l-177 300h-115v-278c0 -22 -19 -42 -41 -42c-21 0 -39 19 -39 42v625c0 26 21 48 46 48h174c165 0 218 -101 218 -200zM431 505c0 59 -26 122 -142 122h-136
v-240h142c88 0 136 41 136 118zM217 824l78 81c14 13 19 23 37 23c14 0 31 -14 31 -33c0 -5 -1 -12 -5 -17l-81 -86c-12 -11 -19 -18 -32 -18c-18 0 -33 14 -33 35c0 5 1 10 5 15z" />
    <glyph glyph-name="racute" unicode="&#x155;" horiz-adv-x="337" 
d="M155 369v-338c0 -22 -17 -39 -39 -39s-39 17 -39 39v338c0 33 -4 52 -16 70c-4 6 -7 11 -7 20c0 21 17 35 36 35c16 0 30 -11 40 -27c43 27 99 43 137 43c40 0 52 -17 52 -38c0 -25 -18 -41 -39 -40c-41 1 -77 1 -127 -36c1 -10 2 -19 2 -27zM162 624l78 81
c14 13 19 23 37 23c14 0 31 -14 31 -33c0 -5 -1 -12 -5 -17l-81 -86c-12 -11 -19 -18 -32 -18c-18 0 -33 14 -33 35c0 5 1 10 5 15z" />
    <glyph glyph-name="Rcaron" unicode="&#x158;" horiz-adv-x="575" 
d="M511 505c0 -106 -60 -171 -155 -190l160 -263c3 -6 5 -15 5 -23c0 -21 -27 -38 -43 -38c-14 0 -26 7 -33 19l-177 300h-115v-278c0 -22 -19 -42 -41 -42c-21 0 -39 19 -39 42v625c0 26 21 48 46 48h174c165 0 218 -101 218 -200zM431 505c0 59 -26 122 -142 122h-136
v-240h142c88 0 136 41 136 118zM287 762c-10 0 -18 4 -24 9l-88 73c-13 11 -20 20 -20 34c0 17 15 29 31 29c6 0 12 -3 18 -7l83 -67l83 67c6 4 12 7 18 7c16 0 31 -12 31 -29c0 -14 -7 -23 -20 -34l-88 -73c-6 -5 -14 -9 -24 -9z" />
    <glyph glyph-name="rcaron" unicode="&#x159;" horiz-adv-x="337" 
d="M155 369v-338c0 -22 -17 -39 -39 -39s-39 17 -39 39v338c0 33 -4 52 -16 70c-4 6 -7 11 -7 20c0 21 17 35 36 35c16 0 30 -11 40 -27c43 27 99 43 137 43c40 0 52 -17 52 -38c0 -25 -18 -41 -39 -40c-41 1 -77 1 -127 -36c1 -10 2 -19 2 -27zM169 562c-10 0 -18 4 -24 9
l-88 73c-13 11 -20 20 -20 34c0 17 15 29 31 29c6 0 12 -3 18 -7l83 -67l83 67c6 4 12 7 18 7c16 0 31 -12 31 -29c0 -14 -7 -23 -20 -34l-88 -73c-6 -5 -14 -9 -24 -9z" />
    <glyph glyph-name="Sacute" unicode="&#x15a;" horiz-adv-x="486" 
d="M360 191c0 65 -32 88 -57 101c-95 50 -261 51 -261 228c0 121 78 195 202 195c50 0 171 -12 171 -68c0 -20 -15 -38 -40 -38c-31 0 -57 28 -125 28c-64 0 -125 -25 -125 -112c0 -66 35 -88 58 -100c96 -50 261 -52 261 -227c0 -132 -93 -208 -219 -208
c-64 0 -184 20 -184 74c0 20 16 39 36 39c28 0 71 -35 149 -35c89 0 134 45 134 123zM218 824l78 81c14 13 19 23 37 23c14 0 31 -14 31 -33c0 -5 -1 -12 -5 -17l-81 -86c-12 -11 -19 -18 -32 -18c-18 0 -33 14 -33 35c0 5 1 10 5 15z" />
    <glyph glyph-name="sacute" unicode="&#x15b;" horiz-adv-x="406" 
d="M53 370c0 86 56 144 162 144c52 0 133 -14 133 -56c0 -19 -15 -36 -36 -36c-7 0 -12 2 -18 5c-21 10 -40 18 -76 18c-61 0 -89 -24 -89 -70c0 -31 13 -47 47 -64c69 -34 186 -43 186 -173c0 -90 -57 -146 -168 -146c-51 0 -147 12 -147 58c0 17 13 36 37 36
c6 0 7 -1 10 -2c28 -11 60 -23 100 -23c55 0 92 22 92 74c0 36 -17 51 -37 62c-63 34 -196 41 -196 173zM176 624l78 81c14 13 19 23 37 23c14 0 31 -14 31 -33c0 -5 -1 -12 -5 -17l-81 -86c-12 -11 -19 -18 -32 -18c-18 0 -33 14 -33 35c0 5 1 10 5 15z" />
    <glyph glyph-name="Scedilla" unicode="&#x15e;" horiz-adv-x="486" 
d="M359 -128c0 -49 -45 -96 -139 -83c-31 4 -60 24 -48 47c9 17 24 8 53 2c47 -9 69 19 69 41c0 24 -21 34 -60 36c-31 2 -41 8 -37 32l7 44c-66 3 -163 24 -163 73c0 20 16 39 36 39c28 0 71 -35 149 -35c89 0 134 45 134 123c0 65 -32 88 -57 101c-95 50 -261 51 -261 228
c0 121 78 195 202 195c50 0 171 -12 171 -68c0 -20 -15 -38 -40 -38c-31 0 -57 28 -125 28c-64 0 -125 -25 -125 -112c0 -66 35 -88 58 -100c96 -50 261 -52 261 -227c0 -122 -79 -196 -190 -206l-5 -32c82 -1 110 -36 110 -88z" />
    <glyph glyph-name="scedilla" unicode="&#x15f;" horiz-adv-x="406" 
d="M320 -128c0 -49 -45 -96 -139 -83c-31 4 -60 24 -48 47c9 17 24 8 53 2c47 -9 69 19 69 41c0 24 -21 34 -60 36c-31 2 -41 8 -37 32l8 46c-52 4 -119 18 -119 57c0 17 13 36 37 36c6 0 7 -1 10 -2c28 -11 60 -23 100 -23c55 0 92 22 92 74c0 36 -17 51 -37 62
c-63 34 -196 41 -196 173c0 86 56 144 162 144c52 0 133 -14 133 -56c0 -19 -15 -36 -36 -36c-7 0 -12 2 -18 5c-21 10 -40 18 -76 18c-61 0 -89 -24 -89 -70c0 -31 13 -47 47 -64c69 -34 186 -43 186 -173c0 -84 -50 -138 -147 -145l-5 -33c82 -1 110 -36 110 -88z" />
    <glyph glyph-name="Scaron" unicode="&#x160;" horiz-adv-x="486" 
d="M360 191c0 65 -32 88 -57 101c-95 50 -261 51 -261 228c0 121 78 195 202 195c50 0 171 -12 171 -68c0 -20 -15 -38 -40 -38c-31 0 -57 28 -125 28c-64 0 -125 -25 -125 -112c0 -66 35 -88 58 -100c96 -50 261 -52 261 -227c0 -132 -93 -208 -219 -208
c-64 0 -184 20 -184 74c0 20 16 39 36 39c28 0 71 -35 149 -35c89 0 134 45 134 123zM243 762c-10 0 -18 4 -24 9l-88 73c-13 11 -20 20 -20 34c0 17 15 29 31 29c6 0 12 -3 18 -7l83 -67l83 67c6 4 12 7 18 7c16 0 31 -12 31 -29c0 -14 -7 -23 -20 -34l-88 -73
c-6 -5 -14 -9 -24 -9z" />
    <glyph glyph-name="scaron" unicode="&#x161;" horiz-adv-x="406" 
d="M53 370c0 86 56 144 162 144c52 0 133 -14 133 -56c0 -19 -15 -36 -36 -36c-7 0 -12 2 -18 5c-21 10 -40 18 -76 18c-61 0 -89 -24 -89 -70c0 -31 13 -47 47 -64c69 -34 186 -43 186 -173c0 -90 -57 -146 -168 -146c-51 0 -147 12 -147 58c0 17 13 36 37 36
c6 0 7 -1 10 -2c28 -11 60 -23 100 -23c55 0 92 22 92 74c0 36 -17 51 -37 62c-63 34 -196 41 -196 173zM203 562c-10 0 -18 4 -24 9l-88 73c-13 11 -20 20 -20 34c0 17 15 29 31 29c6 0 12 -3 18 -7l83 -67l83 67c6 4 12 7 18 7c16 0 31 -12 31 -29c0 -14 -7 -23 -20 -34
l-88 -73c-6 -5 -14 -9 -24 -9z" />
    <glyph glyph-name="uni0162" unicode="&#x162;" horiz-adv-x="483" 
d="M378 -128c0 -49 -45 -96 -139 -83c-31 4 -60 24 -48 47c9 17 24 8 53 2c47 -9 69 19 69 41c0 24 -21 34 -60 36c-31 2 -41 8 -37 32l8 47c-14 6 -23 20 -23 36v597h-136c-23 0 -40 18 -40 39c0 17 18 39 40 39h352c21 0 41 -17 41 -39c0 -21 -19 -39 -41 -39h-136v-597
c0 -7 -2 -13 -5 -18l-8 -52c82 -1 110 -36 110 -88z" />
    <glyph glyph-name="uni0163" unicode="&#x163;" horiz-adv-x="321" 
d="M302 -128c0 -49 -45 -96 -139 -83c-31 4 -60 24 -48 47c9 17 24 8 53 2c47 -9 69 19 69 41c0 24 -21 34 -60 36c-31 2 -39 8 -37 32c2 22 5 45 11 66c-60 29 -77 92 -77 190v418c0 21 14 38 39 38s39 -17 39 -38v-138h104c20 0 36 -16 36 -37s-16 -37 -36 -37h-104v-199
c0 -103 10 -141 82 -141c6 0 13 1 19 1c23 0 52 -4 52 -36c0 -34 -29 -38 -57 -38c-20 0 -37 2 -53 4c-4 -16 -5 -29 -3 -40c82 -1 110 -36 110 -88z" />
    <glyph glyph-name="Tcaron" unicode="&#x164;" horiz-adv-x="483" 
d="M201 30v597h-136c-23 0 -40 18 -40 39c0 17 18 39 40 39h352c21 0 41 -17 41 -39c0 -21 -19 -39 -41 -39h-136v-597c0 -21 -18 -40 -40 -40s-40 19 -40 40zM241 762c-10 0 -18 4 -24 9l-88 73c-13 11 -20 20 -20 34c0 17 15 29 31 29c6 0 12 -3 18 -7l83 -67l83 67
c6 4 12 7 18 7c16 0 31 -12 31 -29c0 -14 -7 -23 -20 -34l-88 -73c-6 -5 -14 -9 -24 -9z" />
    <glyph glyph-name="tcaron" unicode="&#x165;" horiz-adv-x="431" 
d="M74 203v418c0 21 14 38 39 38s39 -17 39 -38v-138h104c20 0 36 -16 36 -37s-16 -37 -36 -37h-104v-199c0 -103 10 -141 82 -141c6 0 13 1 19 1c23 0 52 -4 52 -36c0 -34 -29 -38 -57 -38c-140 0 -174 69 -174 207zM414 672c0 -67 -49 -164 -76 -164c-10 0 -19 4 -19 17
c0 32 25 50 37 92c-28 3 -49 26 -49 55s24 53 54 53c29 0 53 -24 53 -53z" />
    <glyph glyph-name="Uring" unicode="&#x16e;" horiz-adv-x="572" 
d="M507 230c0 -139 -82 -240 -221 -240c-142 0 -221 102 -221 240v443c0 24 18 42 41 42c21 0 39 -19 39 -42v-443c0 -96 45 -162 141 -162s140 68 140 162v443c0 22 17 42 39 42c24 0 42 -20 42 -42v-443zM385 844c0 -55 -44 -99 -99 -99c-56 0 -100 44 -100 99
s44 99 100 99c55 0 99 -44 99 -99zM340 844c0 30 -24 55 -54 55s-54 -25 -54 -55s24 -54 54 -54s54 24 54 54z" />
    <glyph glyph-name="uring" unicode="&#x16f;" horiz-adv-x="509" 
d="M352 123v350c0 21 13 38 39 38s39 -17 39 -38v-350c0 -55 10 -55 18 -70c2 -4 7 -11 7 -20c0 -19 -16 -35 -37 -35c-19 0 -32 12 -43 30c-44 -25 -95 -36 -142 -36c-106 0 -159 76 -159 189v292c0 21 14 38 39 38s39 -17 39 -38v-292c0 -76 32 -119 92 -119
c39 0 77 12 110 33c-1 10 -2 20 -2 28zM354 644c0 -55 -44 -99 -99 -99c-56 0 -100 44 -100 99s44 99 100 99c55 0 99 -44 99 -99zM309 644c0 30 -24 55 -54 55s-54 -25 -54 -55s24 -54 54 -54s54 24 54 54z" />
    <glyph glyph-name="Uhungarumlaut" unicode="&#x170;" horiz-adv-x="572" 
d="M507 230c0 -139 -82 -240 -221 -240c-142 0 -221 102 -221 240v443c0 24 18 42 41 42c21 0 39 -19 39 -42v-443c0 -96 45 -162 141 -162s140 68 140 162v443c0 22 17 42 39 42c24 0 42 -20 42 -42v-443zM190 812l63 94c11 14 16 29 36 29c17 0 33 -17 33 -35
c0 -3 -1 -7 -2 -10l-65 -99c-11 -14 -18 -24 -33 -24c-19 0 -34 14 -34 33c0 4 0 8 2 12zM325 812l63 94c9 14 17 29 35 29c15 0 35 -16 35 -33c0 -4 -1 -8 -3 -12l-65 -99c-11 -14 -17 -24 -33 -24c-19 0 -34 14 -34 33c0 4 0 8 2 12z" />
    <glyph glyph-name="uhungarumlaut" unicode="&#x171;" horiz-adv-x="509" 
d="M352 123v350c0 21 13 38 39 38s39 -17 39 -38v-350c0 -55 10 -55 18 -70c2 -4 7 -11 7 -20c0 -19 -16 -35 -37 -35c-19 0 -32 12 -43 30c-44 -25 -95 -36 -142 -36c-106 0 -159 76 -159 189v292c0 21 14 38 39 38s39 -17 39 -38v-292c0 -76 32 -119 92 -119
c39 0 77 12 110 33c-1 10 -2 20 -2 28zM156 612l63 94c11 14 16 29 36 29c17 0 33 -17 33 -35c0 -3 -1 -7 -2 -10l-65 -99c-11 -14 -18 -24 -33 -24c-19 0 -34 14 -34 33c0 4 0 8 2 12zM291 612l63 94c9 14 17 29 35 29c15 0 35 -16 35 -33c0 -4 -1 -8 -3 -12l-65 -99
c-11 -14 -17 -24 -33 -24c-19 0 -34 14 -34 33c0 4 0 8 2 12z" />
    <glyph glyph-name="ycircumflex" unicode="&#x177;" horiz-adv-x="411" 
d="M396 460l-122 -397c-48 -156 -86 -263 -216 -266c-23 0 -40 16 -40 38c0 18 14 36 37 37c63 3 91 37 121 130l-159 459c-2 3 -2 10 -2 14c0 21 17 36 39 36c15 0 29 -9 35 -26l125 -379l109 379c6 17 21 26 36 26c20 0 39 -16 39 -39c0 -4 -1 -8 -2 -12zM180 636l-75 -61
c-3 -4 -13 -6 -19 -6c-13 0 -25 13 -25 26c0 11 8 21 18 30l79 67c6 4 13 8 22 8s16 -4 22 -8l79 -67c10 -9 18 -19 18 -30c0 -13 -12 -26 -26 -26c-5 0 -15 2 -18 6z" />
    <glyph glyph-name="Ydieresis" unicode="&#x178;" horiz-adv-x="476" 
d="M238 -10c-23 0 -41 19 -41 42v245l-178 378c-2 5 -4 13 -4 19c0 22 20 41 41 41c12 0 25 -5 31 -16l151 -329l151 329c6 11 19 16 31 16c21 0 41 -19 41 -41c0 -6 -2 -14 -4 -19l-178 -380v-243c0 -22 -18 -42 -41 -42zM369 839c0 -27 -21 -49 -47 -49s-48 23 -48 49
c0 25 22 47 48 47s47 -21 47 -47zM200 839c0 -27 -21 -49 -48 -49c-26 0 -46 23 -46 49c0 25 20 47 46 47c27 0 48 -21 48 -47z" />
    <glyph glyph-name="Zacute" unicode="&#x179;" horiz-adv-x="484" 
d="M454 41c0 -23 -18 -41 -40 -41h-343c-24 0 -42 20 -42 44c0 9 6 25 10 32l308 549h-277c-22 0 -39 17 -39 40c0 21 17 40 39 40h339c25 0 43 -19 43 -43c0 -12 -5 -22 -10 -31l-310 -551h282c21 0 40 -17 40 -39zM211 824l78 81c14 13 19 23 37 23c14 0 31 -14 31 -33
c0 -5 -1 -12 -5 -17l-81 -86c-12 -11 -19 -18 -32 -18c-18 0 -33 14 -33 35c0 5 1 10 5 15z" />
    <glyph glyph-name="zacute" unicode="&#x17a;" horiz-adv-x="384" 
d="M367 465c0 -9 -3 -19 -9 -28l-247 -365h221c21 0 37 -16 37 -36s-16 -36 -37 -36h-277c-21 0 -40 18 -40 42c0 8 2 17 7 25l248 366h-209c-20 0 -36 16 -36 36c0 21 16 36 36 36h265c22 0 41 -15 41 -40zM172 624l78 81c14 13 19 23 37 23c14 0 31 -14 31 -33
c0 -5 -1 -12 -5 -17l-81 -86c-12 -11 -19 -18 -32 -18c-18 0 -33 14 -33 35c0 5 1 10 5 15z" />
    <glyph glyph-name="Zdotaccent" unicode="&#x17b;" horiz-adv-x="484" 
d="M454 41c0 -23 -18 -41 -40 -41h-343c-24 0 -42 20 -42 44c0 9 6 25 10 32l308 549h-277c-22 0 -39 17 -39 40c0 21 17 40 39 40h339c25 0 43 -19 43 -43c0 -12 -5 -22 -10 -31l-310 -551h282c21 0 40 -17 40 -39zM289 839c0 -27 -21 -49 -48 -49c-26 0 -46 23 -46 49
c0 25 20 47 46 47c27 0 48 -21 48 -47z" />
    <glyph glyph-name="zdotaccent" unicode="&#x17c;" horiz-adv-x="384" 
d="M367 465c0 -9 -3 -19 -9 -28l-247 -365h221c21 0 37 -16 37 -36s-16 -36 -37 -36h-277c-21 0 -40 18 -40 42c0 8 2 17 7 25l248 366h-209c-20 0 -36 16 -36 36c0 21 16 36 36 36h265c22 0 41 -15 41 -40zM239 639c0 -27 -21 -49 -48 -49c-26 0 -46 23 -46 49
c0 25 20 47 46 47c27 0 48 -21 48 -47z" />
    <glyph glyph-name="Zcaron" unicode="&#x17d;" horiz-adv-x="484" 
d="M454 41c0 -23 -18 -41 -40 -41h-343c-24 0 -42 20 -42 44c0 9 6 25 10 32l308 549h-277c-22 0 -39 17 -39 40c0 21 17 40 39 40h339c25 0 43 -19 43 -43c0 -12 -5 -22 -10 -31l-310 -551h282c21 0 40 -17 40 -39zM242 762c-10 0 -18 4 -24 9l-88 73c-13 11 -20 20 -20 34
c0 17 15 29 31 29c6 0 12 -3 18 -7l83 -67l83 67c6 4 12 7 18 7c16 0 31 -12 31 -29c0 -14 -7 -23 -20 -34l-88 -73c-6 -5 -14 -9 -24 -9z" />
    <glyph glyph-name="zcaron" unicode="&#x17e;" horiz-adv-x="384" 
d="M367 465c0 -9 -3 -19 -9 -28l-247 -365h221c21 0 37 -16 37 -36s-16 -36 -37 -36h-277c-21 0 -40 18 -40 42c0 8 2 17 7 25l248 366h-209c-20 0 -36 16 -36 36c0 21 16 36 36 36h265c22 0 41 -15 41 -40zM193 562c-10 0 -18 4 -24 9l-88 73c-13 11 -20 20 -20 34
c0 17 15 29 31 29c6 0 12 -3 18 -7l83 -67l83 67c6 4 12 7 18 7c16 0 31 -12 31 -29c0 -14 -7 -23 -20 -34l-88 -73c-6 -5 -14 -9 -24 -9z" />
    <glyph glyph-name="florin" unicode="&#x192;" horiz-adv-x="492" 
d="M478 672c0 -35 -26 -32 -42 -30c-8 1 -20 2 -27 2c-35 0 -64 -24 -71 -64l-22 -131h84c18 0 34 -10 34 -35s-16 -34 -34 -34h-97l-74 -422c-18 -100 -52 -168 -145 -168c-46 0 -81 1 -81 36c0 23 16 37 39 37c6 0 19 -1 29 -1c51 0 68 29 79 90l75 428h-84
c-18 0 -34 10 -34 35s16 34 34 34h96l25 143c13 75 69 123 157 123c28 0 59 -5 59 -43z" />
    <glyph glyph-name="uni0218" unicode="&#x218;" horiz-adv-x="486" 
d="M360 191c0 65 -32 88 -57 101c-95 50 -261 51 -261 228c0 121 78 195 202 195c50 0 171 -12 171 -68c0 -20 -15 -38 -40 -38c-31 0 -57 28 -125 28c-64 0 -125 -25 -125 -112c0 -66 35 -88 58 -100c96 -50 261 -52 261 -227c0 -132 -93 -208 -219 -208
c-64 0 -184 20 -184 74c0 20 16 39 36 39c28 0 71 -35 149 -35c89 0 134 45 134 123zM297 -104c0 -55 -49 -134 -76 -134c-10 0 -19 5 -19 17c0 22 25 34 37 62c-28 2 -49 26 -49 55c0 30 24 53 54 53c29 0 53 -24 53 -53z" />
    <glyph glyph-name="uni0219" unicode="&#x219;" horiz-adv-x="406" 
d="M53 370c0 86 56 144 162 144c52 0 133 -14 133 -56c0 -19 -15 -36 -36 -36c-7 0 -12 2 -18 5c-21 10 -40 18 -76 18c-61 0 -89 -24 -89 -70c0 -31 13 -47 47 -64c69 -34 186 -43 186 -173c0 -90 -57 -146 -168 -146c-51 0 -147 12 -147 58c0 17 13 36 37 36
c6 0 7 -1 10 -2c28 -11 60 -23 100 -23c55 0 92 22 92 74c0 36 -17 51 -37 62c-63 34 -196 41 -196 173zM257 -104c0 -55 -49 -134 -76 -134c-10 0 -19 5 -19 17c0 22 25 34 37 62c-28 2 -49 26 -49 55c0 30 24 53 54 53c29 0 53 -24 53 -53z" />
    <glyph glyph-name="uni021A" unicode="&#x21a;" horiz-adv-x="483" 
d="M201 30v597h-136c-23 0 -40 18 -40 39c0 17 18 39 40 39h352c21 0 41 -17 41 -39c0 -21 -19 -39 -41 -39h-136v-597c0 -21 -18 -40 -40 -40s-40 19 -40 40zM295 -104c0 -55 -49 -134 -76 -134c-10 0 -19 5 -19 17c0 22 25 34 37 62c-28 2 -49 26 -49 55c0 30 24 53 54 53
c29 0 53 -24 53 -53z" />
    <glyph glyph-name="uni021B" unicode="&#x21b;" horiz-adv-x="321" 
d="M74 203v418c0 21 14 38 39 38s39 -17 39 -38v-138h104c20 0 36 -16 36 -37s-16 -37 -36 -37h-104v-199c0 -103 10 -141 82 -141c6 0 13 1 19 1c23 0 52 -4 52 -36c0 -34 -29 -38 -57 -38c-140 0 -174 69 -174 207zM274 -104c0 -55 -49 -134 -76 -134c-10 0 -19 5 -19 17
c0 22 25 34 37 62c-28 2 -49 26 -49 55c0 30 24 53 54 53c29 0 53 -24 53 -53z" />
    <glyph glyph-name="dotlessj" unicode="&#x237;" horiz-adv-x="245" 
d="M161 472v-487c0 -105 -51 -174 -141 -187c-8 -1 -13 -1 -19 -1c-16 0 -29 10 -33 26c-7 27 15 40 30 43c54 12 85 42 85 115v491c0 21 17 39 39 39s39 -18 39 -39z" />
    <glyph glyph-name="circumflex" unicode="&#x2c6;" horiz-adv-x="396" 
d="M197 636l-75 -61c-3 -4 -13 -6 -19 -6c-13 0 -25 13 -25 26c0 11 8 21 18 30l79 67c6 4 13 8 22 8s16 -4 22 -8l79 -67c10 -9 18 -19 18 -30c0 -13 -12 -26 -26 -26c-5 0 -15 2 -18 6z" />
    <glyph glyph-name="caron" unicode="&#x2c7;" horiz-adv-x="391" 
d="M195 562c-10 0 -18 4 -24 9l-88 73c-13 11 -20 20 -20 34c0 17 15 29 31 29c6 0 12 -3 18 -7l83 -67l83 67c6 4 12 7 18 7c16 0 31 -12 31 -29c0 -14 -7 -23 -20 -34l-88 -73c-6 -5 -14 -9 -24 -9z" />
    <glyph glyph-name="breve" unicode="&#x2d8;" horiz-adv-x="368" 
d="M183 633c22 0 44 11 65 41c7 11 19 16 30 16c17 0 33 -11 26 -37c-13 -54 -76 -81 -121 -81s-108 27 -122 81c-6 26 10 37 27 37c11 0 23 -5 30 -16c21 -30 42 -41 65 -41z" />
    <glyph glyph-name="dotaccent" unicode="&#x2d9;" horiz-adv-x="238" 
d="M166 639c0 -27 -21 -49 -48 -49c-26 0 -46 23 -46 49c0 25 20 47 46 47c27 0 48 -21 48 -47z" />
    <glyph glyph-name="ring" unicode="&#x2da;" horiz-adv-x="571" 
d="M381 644c0 -55 -44 -99 -99 -99c-56 0 -100 44 -100 99s44 99 100 99c55 0 99 -44 99 -99zM336 644c0 30 -24 55 -54 55s-54 -25 -54 -55s24 -54 54 -54s54 24 54 54z" />
    <glyph glyph-name="ogonek" unicode="&#x2db;" horiz-adv-x="322" 
d="M249 -156c0 -34 -46 -39 -77 -39c-62 0 -103 28 -103 90c0 35 15 73 38 105h60c-13 -27 -31 -61 -31 -89c0 -25 14 -45 44 -45c24 0 31 5 42 5c15 0 27 -13 27 -27z" />
    <glyph glyph-name="tilde" unicode="&#x2dc;" horiz-adv-x="375" 
d="M333 650c0 -35 -46 -59 -82 -61c-43 0 -70 29 -100 32c-37 0 -42 -27 -64 -27c-15 0 -28 11 -30 27c0 37 39 65 82 65c42 0 68 -29 100 -32c38 0 40 25 64 28c16 0 30 -14 30 -32z" />
    <glyph glyph-name="hungarumlaut" unicode="&#x2dd;" horiz-adv-x="410" 
d="M73 612l63 94c11 14 16 29 36 29c17 0 33 -17 33 -35c0 -3 -1 -7 -2 -10l-65 -99c-11 -14 -18 -24 -33 -24c-19 0 -34 14 -34 33c0 4 0 8 2 12zM208 612l63 94c9 14 17 29 35 29c15 0 35 -16 35 -33c0 -4 -1 -8 -3 -12l-65 -99c-11 -14 -17 -24 -33 -24
c-19 0 -34 14 -34 33c0 4 0 8 2 12z" />
    <glyph glyph-name="uni0400" unicode="&#x400;" horiz-adv-x="474" 
d="M441 41c0 -23 -18 -41 -40 -41h-265c-33 0 -63 11 -63 47v611c0 23 20 47 47 47h271c22 0 40 -18 40 -40s-18 -38 -40 -38h-238v-234h219c20 0 39 -17 39 -39s-17 -39 -39 -39h-219v-237h248c21 0 40 -17 40 -37zM229 906l78 -81c4 -5 5 -10 5 -15c0 -21 -16 -35 -33 -35
c-13 0 -21 7 -32 18l-81 86c-4 5 -5 12 -5 17c0 19 17 33 31 33c18 0 23 -10 37 -23z" />
    <glyph glyph-name="uni0401" unicode="&#x401;" horiz-adv-x="474" 
d="M441 41c0 -23 -18 -41 -40 -41h-265c-33 0 -63 11 -63 47v611c0 23 20 47 47 47h271c22 0 40 -18 40 -40s-18 -38 -40 -38h-238v-234h219c20 0 39 -17 39 -39s-17 -39 -39 -39h-219v-237h248c21 0 40 -17 40 -37zM399 840c0 -27 -21 -49 -47 -49s-48 23 -48 49
c0 25 22 47 48 47s47 -21 47 -47zM230 840c0 -27 -21 -49 -48 -49c-26 0 -46 23 -46 49c0 25 20 47 46 47c27 0 48 -21 48 -47z" />
    <glyph glyph-name="uni0402" unicode="&#x402;" horiz-adv-x="644" 
d="M161 30v598h-96c-23 0 -40 19 -40 38s18 40 40 40h352c21 0 41 -17 41 -39c0 -21 -19 -39 -41 -39h-176v-209c40 18 88 26 130 26c133 0 210 -76 210 -226c0 -140 -67 -229 -175 -229c-59 0 -102 27 -102 60c0 20 16 35 35 35c21 0 20 -17 59 -17c65 0 103 46 103 149
c0 110 -43 150 -136 150c-44 0 -90 -9 -124 -28v-309c0 -21 -18 -40 -40 -40s-40 19 -40 40z" />
    <glyph glyph-name="uni0403" unicode="&#x403;" horiz-adv-x="430" 
d="M153 628v-597c0 -21 -18 -40 -40 -40s-40 19 -40 40v630c0 22 19 45 45 45h272c22 0 39 -18 39 -39c0 -22 -17 -39 -39 -39h-237zM223 825l78 81c14 13 19 23 37 23c14 0 31 -14 31 -33c0 -5 -1 -12 -5 -17l-81 -86c-12 -11 -19 -18 -32 -18c-18 0 -33 14 -33 35
c0 5 1 10 5 15z" />
    <glyph glyph-name="uni0404" unicode="&#x404;" horiz-adv-x="482" 
d="M45 246v214c0 154 71 255 225 255c91 0 177 -39 177 -86c0 -19 -15 -35 -36 -35c-14 0 -20 7 -36 17c-30 21 -61 31 -100 31c-113 0 -150 -70 -150 -182v-67h186c20 0 38 -17 38 -39s-16 -40 -38 -40h-186v-68c0 -112 37 -182 150 -182c39 0 70 10 100 31
c17 10 22 17 36 17c21 0 36 -16 36 -35c0 -47 -86 -86 -177 -86c-154 0 -225 101 -225 255z" />
    <glyph glyph-name="uni0405" unicode="&#x405;" horiz-adv-x="486" 
d="M360 191c0 65 -32 88 -57 101c-95 50 -261 51 -261 228c0 121 78 195 202 195c50 0 171 -12 171 -68c0 -20 -15 -38 -40 -38c-31 0 -57 28 -125 28c-64 0 -125 -25 -125 -112c0 -66 35 -88 58 -100c96 -50 261 -52 261 -227c0 -132 -93 -208 -219 -208
c-64 0 -184 20 -184 74c0 20 16 39 36 39c28 0 71 -35 149 -35c89 0 134 45 134 123z" />
    <glyph glyph-name="uni0406" unicode="&#x406;" horiz-adv-x="227" 
d="M73 30v645c0 21 18 40 40 40s40 -19 40 -40v-645c0 -21 -18 -40 -40 -40s-40 19 -40 40z" />
    <glyph glyph-name="uni0407" unicode="&#x407;" horiz-adv-x="227" 
d="M73 30v645c0 21 18 40 40 40s40 -19 40 -40v-645c0 -21 -18 -40 -40 -40s-40 19 -40 40zM245 840c0 -27 -21 -49 -47 -49s-48 23 -48 49c0 25 22 47 48 47s47 -21 47 -47zM76 840c0 -27 -21 -49 -48 -49c-26 0 -46 23 -46 49c0 25 20 47 46 47c27 0 48 -21 48 -47z" />
    <glyph glyph-name="uni0408" unicode="&#x408;" horiz-adv-x="385" 
d="M312 675v-450c0 -146 -47 -235 -202 -235c-28 0 -85 3 -85 45c0 25 20 39 35 39c11 0 30 -7 61 -7c92 0 111 61 111 158v450c0 22 17 40 40 40c21 0 40 -19 40 -40z" />
    <glyph glyph-name="uni0409" unicode="&#x409;" horiz-adv-x="877" 
d="M435 573h1v55h-194l-31 -459c-7 -107 -43 -177 -125 -177c-39 0 -76 1 -76 40c0 29 18 41 37 41c13 0 13 -3 28 -3c36 0 52 30 57 93l36 504c3 29 23 39 38 39h270c21 0 40 -18 40 -39v-221h94c137 0 225 -79 225 -221c0 -117 -59 -225 -225 -225h-127
c-26 0 -48 22 -48 48v525zM516 131h-1v-53h95c118 0 145 74 145 146c0 98 -50 144 -145 144h-94v-237z" />
    <glyph glyph-name="uni040A" unicode="&#x40a;" horiz-adv-x="848" 
d="M153 314v-283c0 -22 -18 -41 -40 -41s-40 19 -40 41v644c0 21 18 40 40 40s40 -19 40 -40v-283h253v281c0 23 19 42 40 42c22 0 40 -20 40 -42v-227h95c137 0 225 -79 225 -221c0 -117 -59 -225 -225 -225h-127c-26 0 -48 22 -48 48v266h-253zM486 368v-290h95
c118 0 145 74 145 146c0 98 -50 144 -145 144h-95z" />
    <glyph glyph-name="uni040B" unicode="&#x40b;" horiz-adv-x="644" 
d="M458 667c0 -21 -19 -39 -41 -39h-176v-209c40 18 88 26 130 26c133 0 210 -79 210 -221v-192c0 -22 -18 -42 -40 -42c-21 0 -40 19 -40 42v191c0 104 -45 144 -137 144c-43 0 -89 -9 -123 -28v-309c0 -21 -18 -40 -40 -40s-40 19 -40 40v598h-96c-23 0 -40 18 -40 39
c0 17 18 39 40 39h352c21 0 41 -17 41 -39z" />
    <glyph glyph-name="uni040C" unicode="&#x40c;" horiz-adv-x="516" 
d="M153 675v-283h58l209 304c9 13 20 19 33 19c24 0 38 -25 38 -43c0 -6 -1 -12 -5 -19l-210 -301l210 -300c4 -7 5 -13 5 -19c0 -18 -14 -43 -38 -43c-13 0 -24 6 -33 19l-210 305h-57v-283c0 -22 -18 -41 -40 -41s-40 19 -40 41v644c0 21 18 40 40 40s40 -19 40 -40z
M241 825l78 81c14 13 19 23 37 23c14 0 31 -14 31 -33c0 -5 -1 -12 -5 -17l-81 -86c-12 -11 -19 -18 -32 -18c-18 0 -33 14 -33 35c0 5 1 10 5 15z" />
    <glyph glyph-name="uni040D" unicode="&#x40d;" horiz-adv-x="589" 
d="M117 -10c16 0 33 9 41 23l278 528v-510c0 -22 19 -41 41 -41s39 19 39 41v640c0 25 -18 44 -43 44c-17 0 -34 -9 -42 -24l-278 -527v510c0 22 -19 41 -41 41s-39 -19 -39 -41v-640c0 -24 18 -44 44 -44zM238 906l78 -81c4 -5 5 -10 5 -15c0 -21 -16 -35 -33 -35
c-13 0 -21 7 -32 18l-81 86c-4 5 -5 12 -5 17c0 19 17 33 31 33c18 0 23 -10 37 -23z" />
    <glyph glyph-name="uni040E" unicode="&#x40e;" horiz-adv-x="503" 
d="M476 664l-162 -436c-48 -138 -86 -233 -216 -236c-23 0 -40 16 -40 38c0 18 14 36 37 37c63 3 91 28 121 100l-189 498c-2 3 -2 10 -2 14c0 21 17 36 39 36c15 0 29 -9 35 -26l155 -418l149 418c6 17 21 26 36 26c20 0 39 -16 39 -39c0 -4 -1 -10 -2 -12zM251 834
c22 0 44 11 65 41c7 11 19 16 30 16c17 0 33 -11 26 -37c-13 -54 -76 -81 -121 -81s-108 27 -122 81c-6 26 10 37 27 37c11 0 23 -5 30 -16c21 -30 42 -41 65 -41z" />
    <glyph glyph-name="uni040F" unicode="&#x40f;" horiz-adv-x="579" 
d="M249 -120v120h-136c-22 0 -40 19 -40 40v635c0 22 18 41 40 41s40 -19 40 -41v-597h273v597c0 22 19 41 40 41c22 0 40 -19 40 -41v-635c0 -21 -19 -40 -40 -40h-137v-120c0 -21 -18 -40 -40 -40s-40 19 -40 40z" />
    <glyph glyph-name="uni0410" unicode="&#x410;" horiz-adv-x="549" 
d="M147 159l-42 -139c-6 -18 -24 -30 -38 -30c-23 0 -42 16 -42 40c0 4 1 12 2 15l195 617c9 30 23 53 52 53c30 0 43 -22 53 -53l195 -617c1 -3 2 -11 2 -15c0 -24 -18 -40 -42 -40c-15 0 -34 12 -39 30l-43 139h-253zM274 576l-103 -339h206z" />
    <glyph glyph-name="uni0411" unicode="&#x411;" horiz-adv-x="531" 
d="M410 628h-257v-202h115c137 0 225 -75 225 -211c0 -112 -59 -215 -225 -215h-147c-26 0 -48 22 -48 48v613c0 22 19 45 45 45h292c22 0 39 -18 39 -39c0 -22 -17 -39 -39 -39zM153 78h115c118 0 145 69 145 136c0 91 -50 134 -145 134h-115v-270z" />
    <glyph glyph-name="uni0412" unicode="&#x412;" horiz-adv-x="542" 
d="M153 405h115c65 0 137 38 137 119c0 53 -30 103 -120 103h-132v-222zM271 327h-118v-249h122c100 0 149 49 149 121c0 83 -65 128 -153 128zM286 0h-165c-27 0 -48 22 -48 48v609c0 27 22 48 48 48h169c130 0 195 -89 195 -182c0 -86 -55 -129 -129 -160
c67 -21 148 -51 148 -163c0 -113 -83 -200 -218 -200z" />
    <glyph glyph-name="uni0413" unicode="&#x413;" horiz-adv-x="430" 
d="M153 628v-597c0 -21 -18 -40 -40 -40s-40 19 -40 40v630c0 22 19 45 45 45h272c22 0 39 -18 39 -39c0 -22 -17 -39 -39 -39h-237z" />
    <glyph glyph-name="uni0414" unicode="&#x414;" horiz-adv-x="628" 
d="M495 706c22 0 40 -18 40 -39v-589h25c23 0 41 -22 41 -51v-128c0 -22 -18 -39 -41 -39c-22 0 -39 17 -39 39v101h-416v-101c0 -22 -17 -39 -39 -39s-39 17 -39 39v128c0 29 17 51 39 51h29c33 45 51 139 57 265l15 324c2 29 23 39 38 39h290zM232 343
c-5 -113 -24 -205 -59 -265h282v550h-213z" />
    <glyph glyph-name="uni0415" unicode="&#x415;" horiz-adv-x="474" 
d="M441 41c0 -23 -18 -41 -40 -41h-265c-33 0 -63 11 -63 47v611c0 23 20 47 47 47h271c22 0 40 -18 40 -40s-18 -38 -40 -38h-238v-234h219c20 0 39 -17 39 -39s-17 -39 -39 -39h-219v-237h248c21 0 40 -17 40 -37z" />
    <glyph glyph-name="uni0416" unicode="&#x416;" horiz-adv-x="746" 
d="M413 675v-283h46l191 304c9 13 20 19 33 19c24 0 38 -25 38 -43c0 -6 -1 -12 -5 -19l-185 -301l185 -300c4 -7 5 -13 5 -19c0 -18 -14 -43 -38 -43c-13 0 -24 6 -33 19l-191 305h-46v-283c0 -22 -18 -41 -40 -41s-40 19 -40 41v283h-46l-191 -305c-9 -13 -20 -19 -33 -19
c-24 0 -38 25 -38 43c0 6 1 12 5 19l184 300l-184 301c-4 7 -5 13 -5 19c0 18 14 43 38 43c13 0 24 -6 33 -19l190 -304h47v283c0 21 18 40 40 40s40 -19 40 -40z" />
    <glyph glyph-name="uni0417" unicode="&#x417;" horiz-adv-x="485" 
d="M444 194c0 -109 -83 -204 -217 -204c-73 0 -197 28 -197 84c0 20 16 36 35 36c7 0 11 -2 20 -7c36 -21 72 -41 131 -41c100 0 149 58 149 131c0 92 -78 123 -173 128c-22 1 -49 3 -49 38c0 37 29 36 46 38c77 7 161 38 161 129c0 57 -32 117 -124 117
c-32 0 -65 -7 -91 -20c-23 -11 -41 -28 -60 -28c-17 0 -34 14 -34 34c0 51 112 86 190 86c130 0 195 -97 195 -190c0 -79 -47 -131 -119 -162c80 -27 137 -79 137 -169z" />
    <glyph glyph-name="uni0418" unicode="&#x418;" horiz-adv-x="589" 
d="M117 -10c-26 0 -44 20 -44 44v640c0 22 17 41 39 41s41 -19 41 -41v-510l278 527c8 15 25 24 42 24c25 0 43 -19 43 -44v-640c0 -22 -17 -41 -39 -41s-41 19 -41 41v510l-278 -528c-8 -14 -25 -23 -41 -23z" />
    <glyph glyph-name="uni0419" unicode="&#x419;" horiz-adv-x="589" 
d="M117 -10c16 0 33 9 41 23l278 528v-510c0 -22 19 -41 41 -41s39 19 39 41v640c0 25 -18 44 -43 44c-17 0 -34 -9 -42 -24l-278 -527v510c0 22 -19 41 -41 41s-39 -19 -39 -41v-640c0 -24 18 -44 44 -44zM294 834c22 0 44 11 65 41c7 11 19 16 30 16c17 0 33 -11 26 -37
c-13 -54 -76 -81 -121 -81s-108 27 -122 81c-6 26 10 37 27 37c11 0 23 -5 30 -16c21 -30 42 -41 65 -41z" />
    <glyph glyph-name="uni041A" unicode="&#x41a;" horiz-adv-x="516" 
d="M153 675v-283h58l209 304c9 13 20 19 33 19c24 0 38 -25 38 -43c0 -6 -1 -12 -5 -19l-210 -301l210 -300c4 -7 5 -13 5 -19c0 -18 -14 -43 -38 -43c-13 0 -24 6 -33 19l-210 305h-57v-283c0 -22 -18 -41 -40 -41s-40 19 -40 41v644c0 21 18 40 40 40s40 -19 40 -40z" />
    <glyph glyph-name="uni041B" unicode="&#x41b;" horiz-adv-x="610" 
d="M536 31c-1 -22 -19 -39 -40 -39c-23 0 -40 17 -40 39v597h-214l-31 -459c-7 -107 -43 -177 -125 -177c-39 0 -76 1 -76 40c0 29 18 41 37 41c13 0 13 -3 28 -3c36 0 52 30 57 93l36 504c3 29 23 39 38 39h290c22 0 40 -18 40 -39v-636z" />
    <glyph glyph-name="uni041C" unicode="&#x41c;" horiz-adv-x="690" 
d="M624 673v-644c0 -21 -18 -39 -39 -39c-22 0 -41 18 -41 39v487l-161 -344c-8 -16 -22 -24 -39 -24c-16 0 -30 8 -38 24l-161 344v-487c0 -21 -19 -39 -42 -39c-21 0 -38 18 -38 39v644c0 24 18 42 42 42c20 0 34 -9 43 -26l195 -418l195 419c10 18 25 25 42 25
c24 0 42 -19 42 -42z" />
    <glyph glyph-name="uni041D" unicode="&#x41d;" horiz-adv-x="580" 
d="M506 31c0 -22 -18 -41 -40 -41c-21 0 -40 19 -40 41v283h-273v-283c0 -22 -18 -41 -40 -41s-40 19 -40 41v644c0 21 18 40 40 40s40 -19 40 -40v-283h273v283c0 21 19 40 40 40s40 -19 40 -40v-644z" />
    <glyph glyph-name="uni041E" unicode="&#x41e;" horiz-adv-x="551" 
d="M275 -10c-153 0 -230 114 -230 256v214c0 139 65 255 230 255s230 -116 230 -255v-214c0 -142 -77 -256 -230 -256zM275 637c-110 0 -150 -71 -150 -177v-214c0 -105 47 -178 150 -178s150 73 150 178v214c0 106 -40 177 -150 177z" />
    <glyph glyph-name="uni041F" unicode="&#x41f;" horiz-adv-x="579" 
d="M506 31c0 -22 -18 -41 -40 -41c-21 0 -40 19 -40 41v597h-273v-597c0 -22 -18 -41 -40 -41s-40 19 -40 41v635c0 21 18 40 40 40h353c21 0 40 -19 40 -40v-635z" />
    <glyph glyph-name="uni0420" unicode="&#x420;" horiz-adv-x="530" 
d="M268 260h-115v-228c0 -22 -18 -42 -40 -42c-21 0 -40 19 -40 42v625c0 26 22 48 48 48h147c166 0 225 -107 225 -224c0 -142 -88 -221 -225 -221zM153 627v-289h115c95 0 145 46 145 144c0 72 -27 145 -145 145h-115z" />
    <glyph glyph-name="uni0421" unicode="&#x421;" horiz-adv-x="481" 
d="M45 246v214c0 154 71 255 225 255c91 0 177 -39 177 -86c0 -19 -15 -35 -36 -35c-14 0 -20 7 -36 17c-30 21 -61 31 -100 31c-113 0 -150 -70 -150 -182v-214c0 -112 37 -182 150 -182c39 0 70 10 100 31c17 10 22 17 36 17c21 0 36 -16 36 -35c0 -47 -86 -86 -177 -86
c-154 0 -225 101 -225 255z" />
    <glyph glyph-name="uni0422" unicode="&#x422;" horiz-adv-x="483" 
d="M201 30v597h-136c-23 0 -40 18 -40 39c0 17 18 39 40 39h352c21 0 41 -17 41 -39c0 -21 -19 -39 -41 -39h-136v-597c0 -21 -18 -40 -40 -40s-40 19 -40 40z" />
    <glyph glyph-name="uni0423" unicode="&#x423;" horiz-adv-x="503" 
d="M476 664l-162 -436c-48 -138 -86 -233 -216 -236c-23 0 -40 16 -40 38c0 18 14 36 37 37c63 3 91 28 121 100l-189 498c-2 3 -2 10 -2 14c0 21 17 36 39 36c15 0 29 -9 35 -26l155 -418l149 418c6 17 21 26 36 26c20 0 39 -16 39 -39c0 -4 -1 -10 -2 -12z" />
    <glyph glyph-name="uni0424" unicode="&#x424;" horiz-adv-x="750" 
d="M335 30v130h-65c-137 0 -225 79 -225 221c0 117 59 225 225 225h65v69c0 21 20 40 40 40c24 0 40 -19 40 -40v-69h65c166 0 225 -108 225 -225c0 -142 -88 -221 -225 -221h-65v-130c0 -21 -18 -40 -40 -40s-40 19 -40 40zM480 528h-65v-290h65c95 0 145 46 145 144
c0 72 -27 146 -145 146zM270 238h65v290h-65c-118 0 -145 -74 -145 -146c0 -98 50 -144 145 -144z" />
    <glyph glyph-name="uni0425" unicode="&#x425;" horiz-adv-x="483" 
d="M241 303l-159 -284c-7 -13 -19 -29 -38 -29c-20 0 -38 20 -38 41c0 8 3 17 6 22l182 314l-167 287c-3 6 -5 15 -5 22c0 20 17 39 37 39c18 0 33 -17 43 -35l139 -249l139 249c9 15 24 35 44 35c19 0 36 -18 36 -40c0 -7 -2 -15 -5 -21l-167 -287l182 -314
c3 -5 6 -14 6 -22c0 -21 -18 -41 -37 -41s-31 15 -39 29z" />
    <glyph glyph-name="uni0426" unicode="&#x426;" horiz-adv-x="604" 
d="M113 0c-22 0 -40 19 -40 40v634c0 22 18 41 40 41s40 -19 40 -41v-596h273v596c0 22 19 41 40 41c22 0 40 -19 40 -41v-596h40c21 0 40 -19 40 -40v-157c0 -22 -19 -41 -40 -41s-40 19 -40 41v119h-37h-3h-353z" />
    <glyph glyph-name="uni0427" unicode="&#x427;" horiz-adv-x="547" 
d="M393 365v308c0 22 18 42 40 42c21 0 40 -19 40 -42v-641c0 -23 -19 -42 -40 -42c-22 0 -40 20 -40 42v254c-41 -18 -89 -26 -130 -26c-133 0 -210 79 -210 221v192c0 22 18 42 40 42c21 0 40 -19 40 -42v-191c0 -104 45 -144 137 -144c42 0 89 9 123 27z" />
    <glyph glyph-name="uni0428" unicode="&#x428;" horiz-adv-x="760" 
d="M686 674v-634c0 -21 -19 -40 -40 -40h-533c-22 0 -40 19 -40 40v634c0 22 18 41 40 41s40 -19 40 -41v-596h186v597c0 21 18 40 40 40s40 -19 40 -40v-597h187v596c0 22 19 41 40 41c22 0 40 -19 40 -41z" />
    <glyph glyph-name="uni0429" unicode="&#x429;" horiz-adv-x="784" 
d="M686 674v-596h40c21 0 40 -19 40 -40v-157c0 -22 -18 -41 -40 -41c-21 0 -40 19 -40 41v119h-573c-22 0 -40 19 -40 40v634c0 22 18 41 40 41s40 -19 40 -41v-596h186v597c0 21 18 40 40 40s40 -19 40 -40v-597h187v596c0 22 19 41 40 41c22 0 40 -19 40 -41z" />
    <glyph glyph-name="uni042A" unicode="&#x42a;" horiz-adv-x="654" 
d="M192 48v580h-137c-22 0 -39 17 -39 39c0 21 17 39 39 39h172c26 0 45 -23 45 -45v-215h115c137 0 225 -79 225 -221c0 -117 -59 -225 -225 -225h-147c-26 0 -48 22 -48 48zM272 78h115c118 0 145 74 145 146c0 98 -50 144 -145 144h-115v-290z" />
    <glyph glyph-name="uni042B" unicode="&#x42b;" horiz-adv-x="725" 
d="M153 446h115c137 0 225 -79 225 -221c0 -117 -59 -225 -225 -225h-147c-26 0 -48 22 -48 48v625c0 23 19 42 40 42c22 0 40 -20 40 -42v-227zM153 368v-290h115c118 0 145 74 145 146c0 98 -50 144 -145 144h-115zM571 30v645c0 21 18 40 40 40s40 -19 40 -40v-645
c0 -21 -18 -40 -40 -40s-40 19 -40 40z" />
    <glyph glyph-name="uni042C" unicode="&#x42c;" horiz-adv-x="535" 
d="M153 446h115c137 0 225 -79 225 -221c0 -117 -59 -225 -225 -225h-147c-26 0 -48 22 -48 48v625c0 23 19 42 40 42c22 0 40 -20 40 -42v-227zM153 368v-290h115c118 0 145 74 145 146c0 98 -50 144 -145 144h-115z" />
    <glyph glyph-name="uni042D" unicode="&#x42d;" horiz-adv-x="498" 
d="M452 460v-214c0 -154 -71 -255 -225 -255c-91 0 -177 39 -177 86c0 19 15 35 36 35c14 0 19 -7 36 -17c30 -21 61 -31 100 -31c113 0 150 70 150 182v68h-186c-22 0 -38 18 -38 40s18 39 38 39h186v67c0 112 -37 182 -150 182c-39 0 -70 -10 -100 -31
c-16 -10 -22 -17 -36 -17c-21 0 -36 16 -36 35c0 47 86 86 177 86c154 0 225 -101 225 -255z" />
    <glyph glyph-name="uni042E" unicode="&#x42e;" horiz-adv-x="758" 
d="M493 -10c-146 0 -220 110 -220 246v79h-120v-284c0 -22 -18 -41 -40 -41s-40 19 -40 41v644c0 21 18 40 40 40s40 -19 40 -40v-283h120v78c0 134 62 245 220 245s220 -111 220 -245v-234c0 -136 -74 -246 -220 -246zM493 637c-103 0 -140 -67 -140 -167v-234
c0 -99 44 -168 140 -168s140 69 140 168v234c0 100 -37 167 -140 167z" />
    <glyph glyph-name="uni042F" unicode="&#x42f;" horiz-adv-x="561" 
d="M70 505c0 99 53 201 218 201h154c25 0 46 -22 46 -48v-626c0 -23 -17 -42 -39 -42s-41 20 -41 42v278h-96l-176 -300c-7 -12 -19 -19 -33 -19c-16 0 -43 17 -43 38c0 8 2 17 5 23l160 263c-96 19 -155 84 -155 190zM150 505c0 -77 48 -118 136 -118h122v241h-116
c-116 0 -142 -64 -142 -123z" />
    <glyph glyph-name="uni0430" unicode="&#x430;" horiz-adv-x="482" 
d="M322 281v57c0 73 -35 107 -107 107c-35 0 -54 -9 -76 -21c-3 -1 -15 -8 -26 -8c-19 0 -27 18 -28 33c-4 46 71 65 140 65c125 0 175 -70 175 -202v-220c0 -20 6 -30 18 -30c3 0 4 1 8 1c19 0 29 -17 29 -34c0 -25 -23 -34 -45 -34c-33 0 -60 19 -75 50
c-38 -35 -83 -53 -137 -53c-103 0 -153 61 -153 151v4c0 98 58 148 176 148c36 0 70 -5 101 -14zM220 229c-82 0 -98 -38 -98 -83v-4c0 -47 21 -80 88 -80c43 0 77 14 112 44v108c-33 10 -72 15 -102 15z" />
    <glyph glyph-name="uni0431" unicode="&#x431;" horiz-adv-x="465" 
d="M45 477c0 127 59 202 198 216c36 4 36 -3 104 28c2 1 7 3 14 3c20 0 35 -16 35 -36c0 -51 -101 -60 -152 -64c-43 -4 -121 -13 -121 -142v-51c27 34 68 55 124 55c108 0 172 -78 172 -178v-138c0 -100 -65 -178 -187 -178s-187 78 -187 178v307zM232 64
c72 0 109 40 109 106v139c0 65 -32 105 -104 105c-70 0 -112 -38 -114 -100v-144c0 -66 37 -106 109 -106z" />
    <glyph glyph-name="uni0432" unicode="&#x432;" horiz-adv-x="468" 
d="M412 364c0 -51 -21 -87 -70 -106c56 -20 80 -60 80 -116c0 -84 -55 -142 -166 -142h-144c-22 0 -39 18 -39 39v427c0 21 17 39 39 39h134c112 0 166 -59 166 -141zM345 145c0 38 -16 78 -102 78h-92v-156h103c60 0 91 24 91 78zM151 438v-149h95c75 0 89 36 89 71
c0 54 -32 78 -91 78h-93z" />
    <glyph glyph-name="uni0433" unicode="&#x433;" horiz-adv-x="372" 
d="M151 435v-404c0 -22 -17 -39 -39 -39s-39 17 -39 39v439c0 20 16 35 36 35h225c19 0 36 -15 36 -35s-16 -35 -36 -35h-183z" />
    <glyph glyph-name="uni0434" unicode="&#x434;" horiz-adv-x="538" 
d="M410 505c22 0 39 -18 39 -39v-400h27c22 0 39 -17 39 -39v-128c0 -22 -17 -39 -39 -39s-39 17 -39 39v101h-336v-101c0 -22 -17 -39 -39 -39s-39 17 -39 39v128c0 22 17 39 39 39h19c31 31 47 101 52 197l9 203c3 29 23 39 38 39h230zM206 263c-3 -83 -17 -151 -45 -197
h210v373h-158z" />
    <glyph glyph-name="uni0435" unicode="&#x435;" horiz-adv-x="433" 
d="M232 61c42 0 69 12 104 28c2 1 7 3 14 3c20 0 35 -17 35 -35c0 -49 -108 -65 -162 -65c-113 0 -178 72 -178 166v187c0 96 64 169 183 169c111 0 166 -64 166 -163c0 -92 -50 -148 -169 -148c-30 0 -67 3 -102 9v-59c0 -56 37 -92 109 -92zM317 351c0 65 -33 92 -91 92
c-65 0 -103 -35 -103 -91v-76c37 -5 85 -7 105 -7c76 0 89 41 89 82z" />
    <glyph glyph-name="uni0436" unicode="&#x436;" horiz-adv-x="608" 
d="M343 31c0 -22 -17 -39 -39 -39s-39 17 -39 39v197h-37l-134 -217c-9 -13 -19 -19 -32 -19c-21 0 -36 13 -37 33c0 7 2 17 6 23l125 203l-125 203c-5 6 -6 16 -6 23c1 20 17 33 37 33c13 0 24 -6 32 -19l121 -197h50v178c0 21 17 39 39 39s39 -18 39 -39v-178h49l122 197
c7 13 19 19 32 19c21 0 36 -13 37 -33c0 -7 -2 -17 -6 -23l-125 -203l125 -203c4 -6 6 -16 6 -23c-1 -20 -17 -33 -37 -33c-13 0 -24 6 -32 19l-134 217h-37v-197z" />
    <glyph glyph-name="uni0437" unicode="&#x437;" horiz-adv-x="408" 
d="M354 371c0 -59 -27 -100 -95 -113c74 -14 105 -57 105 -122c0 -87 -56 -144 -171 -144c-52 0 -154 12 -154 59c0 15 10 35 40 35c7 0 6 -1 8 -2c25 -10 64 -23 109 -23c59 0 92 22 92 80c0 28 -8 75 -117 81c-22 1 -49 3 -49 34s27 31 46 33c99 8 110 59 110 87
c0 45 -28 69 -92 69c-38 0 -62 -9 -83 -18c-6 -3 -11 -5 -18 -5c-21 0 -36 17 -36 35c0 43 86 57 140 57c110 0 165 -59 165 -143z" />
    <glyph glyph-name="uni0438" unicode="&#x438;" horiz-adv-x="530" 
d="M117 -10c-26 0 -44 20 -44 44v437c0 22 16 41 38 41s40 -19 40 -41v-337l222 354c8 15 24 24 41 24c25 0 42 -19 42 -44v-437c0 -22 -17 -41 -39 -41s-39 19 -39 41v337l-221 -355c-9 -14 -24 -23 -40 -23z" />
    <glyph glyph-name="uni0439" unicode="&#x439;" horiz-adv-x="530" 
d="M117 -10c16 0 31 9 40 23l221 355v-337c0 -22 17 -41 39 -41s39 19 39 41v437c0 25 -17 44 -42 44c-17 0 -33 -9 -41 -24l-222 -354v337c0 22 -18 41 -40 41s-38 -19 -38 -41v-437c0 -24 18 -44 44 -44zM265 633c22 0 44 11 65 41c7 11 19 16 30 16c17 0 33 -11 26 -37
c-13 -54 -76 -81 -121 -81s-108 27 -122 81c-6 26 10 37 27 37c11 0 23 -5 30 -16c21 -30 42 -41 65 -41z" />
    <glyph glyph-name="uni043A" unicode="&#x43a;" horiz-adv-x="436" 
d="M151 31c0 -22 -17 -39 -39 -39s-39 17 -39 39v441c0 21 17 39 39 39s39 -18 39 -39v-178h61l130 197c8 13 19 19 32 19c20 0 36 -13 37 -33c0 -7 -2 -17 -6 -23l-137 -203l137 -203c4 -6 6 -16 6 -23c-1 -20 -17 -33 -37 -33c-13 0 -24 6 -32 19l-143 217h-48v-197z" />
    <glyph glyph-name="uni043B" unicode="&#x43b;" horiz-adv-x="524" 
d="M451 31c0 -22 -17 -39 -39 -39s-39 17 -39 39v408h-159l-22 -276c-8 -101 -41 -168 -120 -168c-31 0 -61 1 -61 35c0 27 19 38 37 38c6 0 6 -1 13 -1c36 0 52 29 57 90l26 309c3 29 23 39 38 39h230c22 0 39 -18 39 -39v-435z" />
    <glyph glyph-name="uni043C" unicode="&#x43c;" horiz-adv-x="640" 
d="M320 83h-2c-16 0 -30 9 -38 24l-130 235v-311c0 -21 -18 -39 -39 -39s-38 18 -38 39v438c0 24 18 42 42 42c19 0 31 -10 40 -26l164 -299l164 299c9 16 21 26 40 26c24 0 42 -18 42 -42v-438c0 -21 -18 -39 -38 -39c-22 0 -39 18 -39 39v311l-130 -235
c-8 -15 -22 -24 -38 -24z" />
    <glyph glyph-name="uni043D" unicode="&#x43d;" horiz-adv-x="514" 
d="M151 31c0 -22 -17 -39 -39 -39s-39 17 -39 39v441c0 21 17 39 39 39s39 -18 39 -39v-178h212v178c0 21 17 39 39 39s39 -18 39 -39v-441c0 -22 -17 -39 -39 -39s-39 17 -39 39v197h-212v-197z" />
    <glyph glyph-name="uni043E" unicode="&#x43e;" horiz-adv-x="465" 
d="M232 -8c-122 0 -187 78 -187 178v167c0 100 65 178 187 178s187 -78 187 -178v-167c0 -100 -65 -178 -187 -178zM232 64c72 0 109 40 109 106v168c0 65 -37 105 -109 105s-109 -40 -109 -105v-168c0 -66 37 -106 109 -106z" />
    <glyph glyph-name="uni043F" unicode="&#x43f;" horiz-adv-x="504" 
d="M151 31c0 -22 -17 -39 -39 -39s-39 17 -39 39v435c0 21 17 39 39 39h280c22 0 39 -18 39 -39v-435c0 -22 -17 -39 -39 -39s-39 17 -39 39v408h-202v-408z" />
    <glyph glyph-name="uni0440" unicode="&#x440;" horiz-adv-x="478" 
d="M266 -7c-34 0 -75 7 -111 19v-189c0 -21 -14 -38 -39 -38s-39 17 -39 38v546c0 33 -4 52 -16 70c-4 6 -7 11 -7 20c0 21 18 35 35 35c16 0 29 -10 39 -24c45 24 94 44 146 44c105 0 159 -77 159 -189v-130c0 -119 -40 -202 -167 -202zM155 369v-287
c32 -15 76 -21 101 -21c73 0 99 41 99 134v130c0 78 -31 119 -97 119c-34 0 -74 -13 -108 -34c3 -15 5 -29 5 -41z" />
    <glyph glyph-name="uni0441" unicode="&#x441;" horiz-adv-x="390" 
d="M45 176v151c0 103 54 184 179 184c47 0 139 -14 139 -61c0 -18 -15 -34 -34 -34c-5 0 -10 1 -16 3c-24 12 -46 23 -81 23c-78 0 -109 -42 -109 -115v-151c0 -73 31 -115 109 -115c35 0 57 11 81 23c6 2 11 3 16 3c19 0 34 -16 34 -34c0 -47 -92 -61 -139 -61
c-125 0 -179 81 -179 184z" />
    <glyph glyph-name="uni0442" unicode="&#x442;" horiz-adv-x="408" 
d="M243 431v-400c0 -22 -17 -39 -39 -39s-39 17 -39 39v400h-104c-20 0 -36 16 -36 37s16 37 36 37h286c20 0 36 -16 36 -37s-16 -37 -36 -37h-104z" />
    <glyph glyph-name="uni0443" unicode="&#x443;" horiz-adv-x="412" 
d="M397 460l-122 -397c-48 -156 -86 -263 -216 -266c-23 0 -40 16 -40 38c0 18 14 36 37 37c63 3 91 37 121 130l-159 459c-2 3 -2 10 -2 14c0 21 17 36 39 36c15 0 29 -9 35 -26l125 -379l109 379c6 17 21 26 36 26c20 0 39 -16 39 -39c0 -4 -1 -8 -2 -12z" />
    <glyph glyph-name="uni0444" unicode="&#x444;" horiz-adv-x="585" 
d="M252 -176v168c-136 0 -207 98 -207 228v76c0 124 71 218 207 218v172c0 21 17 39 39 39s39 -17 39 -39v-172h2c136 0 207 -94 207 -218v-76c0 -130 -71 -228 -207 -228h-2v-168c0 -22 -17 -39 -39 -39s-39 18 -39 39zM332 442h-2v-378h2c86 0 129 60 129 156v77
c0 89 -43 145 -129 145zM252 64v378c-86 0 -129 -56 -129 -145v-77c0 -96 43 -156 129 -156z" />
    <glyph glyph-name="uni0445" unicode="&#x445;" horiz-adv-x="431" 
d="M261 258l140 -208c4 -6 5 -12 5 -17c0 -22 -16 -41 -40 -41c-18 0 -26 8 -38 27l-113 174l-118 -181c-9 -14 -19 -20 -32 -20c-22 0 -40 16 -40 39c0 6 1 11 5 17l140 208l-131 198c-4 5 -6 12 -6 17c0 21 17 40 39 40s34 -19 44 -34l101 -155l105 163c10 16 19 26 37 26
s38 -16 38 -37c0 -6 -1 -13 -5 -19z" />
    <glyph glyph-name="uni0446" unicode="&#x446;" horiz-adv-x="529" 
d="M441 472v-406h27c22 0 39 -17 39 -39v-128c0 -22 -17 -39 -39 -39s-39 17 -39 39v101h-317c-22 0 -39 18 -39 39v433c0 22 17 39 39 39s39 -17 39 -39v-406h212v406c0 22 17 39 39 39s39 -17 39 -39z" />
    <glyph glyph-name="uni0447" unicode="&#x447;" horiz-adv-x="468" 
d="M123 472v-141c0 -41 12 -82 88 -82c20 0 66 6 105 14v209c0 21 17 39 39 39s39 -18 39 -39v-441c0 -22 -17 -39 -39 -39s-39 17 -39 39v166c-36 -9 -73 -14 -102 -14c-119 0 -169 56 -169 148v141c0 21 17 39 39 39s39 -18 39 -39z" />
    <glyph glyph-name="uni0448" unicode="&#x448;" horiz-adv-x="705" 
d="M631 472v-433c0 -21 -17 -39 -39 -39h-480c-22 0 -39 18 -39 39v433c0 22 17 39 39 39s39 -17 39 -39v-406h162v406c0 21 17 39 39 39s39 -18 39 -39v-406h162v406c0 22 17 39 39 39s39 -17 39 -39z" />
    <glyph glyph-name="uni0449" unicode="&#x449;" horiz-adv-x="718" 
d="M631 472v-406h27c22 0 39 -17 39 -39v-128c0 -22 -17 -39 -39 -39s-39 17 -39 39v101h-507c-22 0 -39 18 -39 39v433c0 22 17 39 39 39s39 -17 39 -39v-406h162v406c0 21 17 39 39 39s39 -18 39 -39v-406h162v406c0 22 17 39 39 39s39 -17 39 -39z" />
    <glyph glyph-name="uni044A" unicode="&#x44a;" horiz-adv-x="528" 
d="M129 435h-83c-20 0 -36 15 -36 35s17 35 36 35h125c20 0 36 -15 36 -35v-171h102c127 0 179 -55 179 -152c0 -87 -55 -147 -166 -147h-154c-22 0 -39 18 -39 39v396zM309 233h-102v-166h113c59 0 91 26 91 83c0 40 -16 83 -102 83z" />
    <glyph glyph-name="uni044B" unicode="&#x44b;" horiz-adv-x="654" 
d="M151 472v-173h102c127 0 179 -55 179 -152c0 -87 -55 -147 -166 -147h-154c-22 0 -39 18 -39 39v433c0 21 17 39 39 39s39 -18 39 -39zM580 31c0 -22 -17 -39 -39 -39s-39 17 -39 39v441c0 21 17 39 39 39s39 -18 39 -39v-441zM253 233h-102v-166h113c59 0 91 26 91 83
c0 40 -16 83 -102 83z" />
    <glyph glyph-name="uni044C" unicode="&#x44c;" horiz-adv-x="472" 
d="M151 472v-173h102c127 0 179 -55 179 -152c0 -87 -55 -147 -166 -147h-154c-22 0 -39 18 -39 39v433c0 21 17 39 39 39s39 -18 39 -39zM253 233h-102v-166h113c59 0 91 26 91 83c0 40 -16 83 -102 83z" />
    <glyph glyph-name="uni044D" unicode="&#x44d;" horiz-adv-x="393" 
d="M269 219h-153c-20 0 -36 15 -36 35s16 35 36 35h153v28c0 79 -28 125 -99 125c-39 0 -64 -11 -91 -23c-6 -2 -11 -3 -16 -3c-19 0 -34 16 -34 34c0 47 99 61 149 61c118 0 169 -85 169 -194v-131c0 -109 -51 -194 -169 -194c-50 0 -149 14 -149 61c0 18 15 34 34 34
c5 0 10 -1 16 -3c27 -12 52 -23 91 -23c71 0 99 46 99 125v33z" />
    <glyph glyph-name="uni044E" unicode="&#x44e;" horiz-adv-x="681" 
d="M151 31c0 -22 -17 -39 -39 -39s-39 17 -39 39v441c0 21 17 39 39 39s39 -18 39 -39v-178h110v42c0 100 65 178 187 178s187 -78 187 -178v-166c0 -100 -65 -178 -187 -178s-187 78 -187 178v58h-110v-197zM448 64c72 0 109 40 109 106v167c0 65 -37 105 -109 105
s-109 -40 -109 -105v-167c0 -66 37 -106 109 -106z" />
    <glyph glyph-name="uni044F" unicode="&#x44f;" horiz-adv-x="487" 
d="M374 -8c-22 0 -39 18 -39 39v175h-88l-128 -195c-9 -13 -19 -19 -32 -19c-21 0 -36 13 -37 33c0 7 2 17 6 23l110 164c-79 17 -112 68 -112 146c0 87 55 147 166 147h154c22 0 39 -18 39 -39v-435c0 -21 -17 -39 -39 -39zM131 355c0 -40 16 -83 102 -83h102v166h-113
c-59 0 -91 -26 -91 -83z" />
    <glyph glyph-name="uni0450" unicode="&#x450;" horiz-adv-x="433" 
d="M232 61c-72 0 -109 36 -109 92v59c35 -6 72 -9 102 -9c119 0 169 56 169 148c0 99 -55 163 -166 163c-119 0 -183 -73 -183 -169v-187c0 -94 65 -166 178 -166c54 0 162 16 162 65c0 18 -15 35 -35 35c-7 0 -12 -2 -14 -3c-35 -16 -62 -28 -104 -28zM317 351
c0 -41 -13 -82 -89 -82c-20 0 -68 2 -105 7v76c0 56 38 91 103 91c58 0 91 -27 91 -92zM187 705l78 -81c4 -5 5 -10 5 -15c0 -21 -16 -35 -33 -35c-13 0 -21 7 -32 18l-81 86c-4 5 -5 12 -5 17c0 19 17 33 31 33c18 0 23 -10 37 -23z" />
    <glyph glyph-name="uni0451" unicode="&#x451;" horiz-adv-x="433" 
d="M232 61c-72 0 -109 36 -109 92v59c35 -6 72 -9 102 -9c119 0 169 56 169 148c0 99 -55 163 -166 163c-119 0 -183 -73 -183 -169v-187c0 -94 65 -166 178 -166c54 0 162 16 162 65c0 18 -15 35 -35 35c-7 0 -12 -2 -14 -3c-35 -16 -62 -28 -104 -28zM317 351
c0 -41 -13 -82 -89 -82c-20 0 -68 2 -105 7v76c0 56 38 91 103 91c58 0 91 -27 91 -92zM369 639c0 -27 -21 -49 -47 -49s-48 23 -48 49c0 25 22 47 48 47s47 -21 47 -47zM200 639c0 -27 -21 -49 -48 -49c-26 0 -46 23 -46 49c0 25 20 47 46 47c27 0 48 -21 48 -47z" />
    <glyph glyph-name="uni0452" unicode="&#x452;" horiz-adv-x="582" 
d="M429 21v276c0 76 -25 114 -87 114c-41 0 -87 -18 -116 -57v-323c0 -22 -16 -39 -38 -39s-39 17 -39 39v539h-87c-21 0 -37 16 -37 36s16 37 37 37h87v49c0 20 16 39 38 39s39 -17 39 -39v-49h85c20 0 36 -17 36 -37s-16 -36 -36 -36h-85v-128c34 26 77 42 125 42
c107 0 156 -77 156 -186v-273c0 -129 -51 -210 -141 -227c-8 -1 -13 -1 -19 -1c-16 0 -29 10 -33 26c-7 27 15 40 30 43c54 16 85 58 85 155z" />
    <glyph glyph-name="uni0453" unicode="&#x453;" horiz-adv-x="372" 
d="M151 435v-404c0 -22 -17 -39 -39 -39s-39 17 -39 39v439c0 20 16 35 36 35h225c19 0 36 -15 36 -35s-16 -35 -36 -35h-183zM194 624l78 81c14 13 19 23 37 23c14 0 31 -14 31 -33c0 -5 -1 -12 -5 -17l-81 -86c-12 -11 -19 -18 -32 -18c-18 0 -33 14 -33 35c0 5 1 10 5 15
z" />
    <glyph glyph-name="uni0454" unicode="&#x454;" horiz-adv-x="390" 
d="M276 219h-153v-33c0 -79 28 -125 99 -125c39 0 64 11 91 23c6 2 11 3 16 3c19 0 34 -16 34 -34c0 -47 -99 -61 -149 -61c-118 0 -169 85 -169 194v131c0 109 51 194 169 194c50 0 149 -14 149 -61c0 -18 -15 -34 -34 -34c-5 0 -10 1 -16 3c-27 12 -52 23 -91 23
c-71 0 -99 -46 -99 -125v-28h153c20 0 36 -15 36 -35s-16 -35 -36 -35z" />
    <glyph glyph-name="uni0455" unicode="&#x455;" horiz-adv-x="416" 
d="M53 370c0 86 56 144 162 144c52 0 133 -14 133 -56c0 -19 -15 -36 -36 -36c-7 0 -12 2 -18 5c-21 10 -40 18 -76 18c-61 0 -89 -24 -89 -70c0 -31 13 -47 47 -64c69 -34 186 -43 186 -173c0 -90 -57 -146 -168 -146c-51 0 -147 12 -147 58c0 17 13 36 37 36
c6 0 7 -1 10 -2c28 -11 60 -23 100 -23c55 0 92 22 92 74c0 36 -17 51 -37 62c-63 34 -196 41 -196 173z" />
    <glyph glyph-name="uni0456" unicode="&#x456;" horiz-adv-x="245" 
d="M170 668c0 -26 -21 -48 -48 -48s-48 22 -48 48c0 27 21 48 48 48s48 -21 48 -48zM161 31c0 -22 -17 -39 -39 -39s-39 17 -39 39v441c0 21 17 39 39 39s39 -18 39 -39v-441z" />
    <glyph glyph-name="uni0457" unicode="&#x457;" horiz-adv-x="245" 
d="M161 31c0 -22 -17 -39 -39 -39s-39 17 -39 39v441c0 21 17 39 39 39s39 -18 39 -39v-441zM269 619c0 -30 -24 -54 -53 -54s-53 25 -53 54c0 28 24 52 53 52s53 -23 53 -52zM81 619c0 -30 -23 -54 -53 -54c-29 0 -52 25 -52 54c0 28 23 52 52 52c30 0 53 -23 53 -52z" />
    <glyph glyph-name="uni0458" unicode="&#x458;" horiz-adv-x="245" 
d="M174 472v-487c0 -105 -51 -174 -141 -187c-8 -1 -13 -1 -19 -1c-16 0 -29 10 -33 26c-7 27 15 40 30 43c54 12 85 42 85 115v491c0 21 17 39 39 39s39 -18 39 -39zM183 668c0 -26 -21 -48 -48 -48s-48 22 -48 48c0 27 21 48 48 48s48 -21 48 -48z" />
    <glyph glyph-name="uni0459" unicode="&#x459;" horiz-adv-x="737" 
d="M397 505c22 0 39 -18 39 -39v-167h82c127 0 179 -55 179 -152c0 -87 -55 -147 -166 -147h-134c-22 0 -39 18 -39 39v400h-139l-22 -276c-8 -101 -41 -168 -120 -168c-31 0 -61 1 -61 35c0 27 19 38 37 38c6 0 6 -1 13 -1c36 0 52 29 57 90l26 309c3 29 23 39 38 39h210z
M518 233h-82v-166h93c59 0 91 26 91 83c0 40 -16 83 -102 83z" />
    <glyph glyph-name="uni045A" unicode="&#x45a;" horiz-adv-x="722" 
d="M151 31c0 -22 -17 -39 -39 -39s-39 17 -39 39v441c0 21 17 39 39 39s39 -18 39 -39v-178h192v178c0 21 17 39 39 39s39 -18 39 -39v-178h82c127 0 179 -53 179 -147c0 -87 -55 -147 -166 -147h-134c-22 0 -39 18 -39 39v189h-192v-197zM503 228h-82v-161h93
c60 0 91 26 91 83c0 38 -16 78 -102 78z" />
    <glyph glyph-name="uni045B" unicode="&#x45b;" horiz-adv-x="582" 
d="M347 606c0 -20 -16 -36 -36 -36h-85v-128c34 26 77 42 125 42c107 0 156 -69 156 -166v-287c0 -22 -18 -39 -39 -39c-22 0 -39 17 -39 39v286c0 62 -25 94 -87 94c-41 0 -87 -18 -116 -57v-323c0 -22 -16 -39 -38 -39s-39 17 -39 39v539h-87c-21 0 -37 16 -37 36
s16 37 37 37h87v49c0 20 16 39 38 39s39 -17 39 -39v-49h85c20 0 36 -17 36 -37z" />
    <glyph glyph-name="uni045C" unicode="&#x45c;" horiz-adv-x="436" 
d="M151 31c0 -22 -17 -39 -39 -39s-39 17 -39 39v441c0 21 17 39 39 39s39 -18 39 -39v-178h61l130 197c8 13 19 19 32 19c20 0 36 -13 37 -33c0 -7 -2 -17 -6 -23l-137 -203l137 -203c4 -6 6 -16 6 -23c-1 -20 -17 -33 -37 -33c-13 0 -24 6 -32 19l-143 217h-48v-197z
M214 624l78 81c14 13 19 23 37 23c14 0 31 -14 31 -33c0 -5 -1 -12 -5 -17l-81 -86c-12 -11 -19 -18 -32 -18c-18 0 -33 14 -33 35c0 5 1 10 5 15z" />
    <glyph glyph-name="uni045D" unicode="&#x45d;" horiz-adv-x="530" 
d="M117 -10c16 0 31 9 40 23l221 355v-337c0 -22 17 -41 39 -41s39 19 39 41v437c0 25 -17 44 -42 44c-17 0 -33 -9 -41 -24l-222 -354v337c0 22 -18 41 -40 41s-38 -19 -38 -41v-437c0 -24 18 -44 44 -44zM233 705l78 -81c4 -5 5 -10 5 -15c0 -21 -16 -35 -33 -35
c-13 0 -21 7 -32 18l-81 86c-4 5 -5 12 -5 17c0 19 17 33 31 33c18 0 23 -10 37 -23z" />
    <glyph glyph-name="uni045E" unicode="&#x45e;" horiz-adv-x="412" 
d="M397 460l-122 -397c-48 -156 -86 -263 -216 -266c-23 0 -40 16 -40 38c0 18 14 36 37 37c63 3 91 37 121 130l-159 459c-2 3 -2 10 -2 14c0 21 17 36 39 36c15 0 29 -9 35 -26l125 -379l109 379c6 17 21 26 36 26c20 0 39 -16 39 -39c0 -4 -1 -8 -2 -12zM206 633
c22 0 44 11 65 41c7 11 19 16 30 16c17 0 33 -11 26 -37c-13 -54 -76 -81 -121 -81s-108 27 -122 81c-6 26 10 37 27 37c11 0 23 -5 30 -16c21 -30 42 -41 65 -41z" />
    <glyph glyph-name="uni045F" unicode="&#x45f;" horiz-adv-x="504" 
d="M291 -101c0 -22 -17 -39 -39 -39s-39 17 -39 39v101h-101c-22 0 -39 18 -39 39v435c0 22 17 39 39 39s39 -17 39 -39v-408h202v408c0 22 17 39 39 39s39 -17 39 -39v-435c0 -21 -17 -39 -39 -39h-101v-101z" />
    <glyph glyph-name="uni0462" unicode="&#x462;" horiz-adv-x="644" 
d="M458 617c0 -21 -19 -39 -41 -39h-176v-152h115c137 0 225 -75 225 -211c0 -112 -59 -215 -225 -215h-147c-26 0 -48 22 -48 48v530h-96c-23 0 -40 19 -40 38s18 40 40 40h96v69c0 21 18 40 40 40s40 -19 40 -40v-69h176c21 0 41 -17 41 -39zM241 78h115
c118 0 145 69 145 136c0 91 -50 134 -145 134h-115v-270z" />
    <glyph glyph-name="uni0463" unicode="&#x463;" horiz-adv-x="582" 
d="M347 556c0 -20 -16 -36 -36 -36h-84v-171h102c126 0 179 -63 179 -170c0 -108 -55 -179 -166 -179h-154c-22 0 -39 18 -39 39v481h-87c-21 0 -37 17 -37 37s16 36 37 36h87v89c0 22 17 39 39 39s39 -17 39 -39v-89h84c20 0 36 -17 36 -37zM329 283h-102v-216h113
c59 0 91 36 91 111c0 51 -15 105 -102 105z" />
    <glyph glyph-name="uni0490" unicode="&#x490;" horiz-adv-x="430" 
d="M73 661c0 22 19 45 45 45h231v91c0 21 18 40 40 40s40 -19 40 -40v-130c0 -22 -17 -39 -39 -39h-237v-597c0 -21 -18 -40 -40 -40s-40 19 -40 40v630z" />
    <glyph glyph-name="uni0491" unicode="&#x491;" horiz-adv-x="375" 
d="M295 505v97c0 22 17 39 39 39s39 -17 39 -39v-128c0 -22 -17 -39 -39 -39h-183v-404c0 -22 -17 -39 -39 -39s-39 17 -39 39v439c0 20 16 35 36 35h186z" />
    <glyph glyph-name="endash" unicode="&#x2013;" horiz-adv-x="431" 
d="M392 287c0 -20 -17 -36 -37 -36h-280c-21 0 -37 16 -37 36s16 37 37 37h280c21 0 37 -17 37 -37z" />
    <glyph glyph-name="emdash" unicode="&#x2014;" horiz-adv-x="530" 
d="M492 287c0 -20 -17 -36 -37 -36h-380c-21 0 -37 16 -37 36s16 37 37 37h380c21 0 37 -17 37 -37z" />
    <glyph glyph-name="quoteleft" unicode="&#x2018;" horiz-adv-x="230" 
d="M61 561c0 67 49 164 76 164c10 0 19 -4 19 -17c0 -32 -25 -50 -37 -92c28 -3 49 -26 49 -55s-24 -53 -54 -53c-29 0 -53 24 -53 53z" />
    <glyph glyph-name="quoteright" unicode="&#x2019;" horiz-adv-x="230" 
d="M168 672c0 -67 -49 -164 -76 -164c-10 0 -19 4 -19 17c0 32 25 50 37 92c-28 3 -49 26 -49 55s24 53 54 53c29 0 53 -24 53 -53z" />
    <glyph glyph-name="quotesinglbase" unicode="&#x201a;" horiz-adv-x="230" 
d="M168 45c0 -67 -49 -164 -76 -164c-10 0 -19 4 -19 17c0 32 25 50 37 92c-28 3 -49 26 -49 55s24 53 54 53c29 0 53 -24 53 -53z" />
    <glyph glyph-name="quotedblleft" unicode="&#x201c;" horiz-adv-x="369" 
d="M61 561c0 67 49 164 76 164c10 0 19 -4 19 -17c0 -32 -25 -50 -37 -92c28 -3 49 -26 49 -55s-24 -53 -54 -53c-29 0 -53 24 -53 53zM201 561c0 67 50 164 76 164c11 0 19 -4 19 -17c0 -32 -25 -50 -37 -92c28 -3 49 -26 49 -55s-24 -53 -54 -53c-29 0 -53 24 -53 53z" />
    <glyph glyph-name="quotedblright" unicode="&#x201d;" horiz-adv-x="369" 
d="M308 672c0 -67 -49 -164 -76 -164c-10 0 -19 4 -19 17c0 32 25 50 37 92c-28 3 -49 26 -49 55s24 53 54 53c29 0 53 -24 53 -53zM168 672c0 -67 -50 -164 -76 -164c-11 0 -19 4 -19 17c0 32 25 50 37 92c-28 3 -49 26 -49 55s24 53 54 53c29 0 53 -24 53 -53z" />
    <glyph glyph-name="quotedblbase" unicode="&#x201e;" horiz-adv-x="369" 
d="M308 45c0 -67 -49 -164 -76 -164c-10 0 -19 5 -19 17c0 33 25 50 37 92c-28 2 -49 26 -49 55c0 30 24 53 54 53c29 0 53 -24 53 -53zM168 45c0 -67 -50 -164 -76 -164c-11 0 -19 5 -19 17c0 33 25 50 37 92c-28 2 -49 26 -49 55c0 30 24 53 54 53c29 0 53 -24 53 -53z
" />
    <glyph glyph-name="dagger" unicode="&#x2020;" horiz-adv-x="432" 
d="M441 474c0 -20 -17 -36 -36 -36h-150v-501c0 -7 -1 -15 -2 -22c-3 -17 -19 -31 -38 -31c-18 0 -34 14 -38 31c-1 7 -1 15 -1 22v501h-150c-4 0 -7 1 -10 2c-15 4 -26 17 -26 34c0 20 16 36 36 36h150v162c0 7 0 14 1 21c4 18 20 32 38 32c19 0 35 -14 38 -32
c1 -7 2 -14 2 -21v-162h150c3 0 6 -1 9 -3c15 -3 27 -17 27 -33z" />
    <glyph glyph-name="daggerdbl" unicode="&#x2021;" horiz-adv-x="574" 
d="M509 40c0 -20 -17 -36 -37 -36h-149v-171c0 -6 -1 -13 -2 -19c-4 -17 -20 -31 -38 -31c-19 0 -35 14 -38 31c-1 6 -2 13 -2 19v171h-149c-21 0 -37 16 -37 36c0 21 16 36 37 36h149v362h-149c-21 0 -37 16 -37 36s16 37 37 37h149v174c0 3 1 6 2 8c3 18 19 32 38 32
c22 0 40 -18 40 -40v-174h149c20 0 37 -17 37 -37s-17 -36 -37 -36h-149v-362h149c20 0 37 -15 37 -36z" />
    <glyph glyph-name="bullet" unicode="&#x2022;" horiz-adv-x="303" 
d="M229 274c0 -43 -35 -78 -78 -78c-42 0 -77 35 -77 78c0 42 35 77 77 77c43 0 78 -35 78 -77z" />
    <glyph glyph-name="ellipsis" unicode="&#x2026;" horiz-adv-x="583" 
d="M522 44c0 -29 -24 -54 -54 -54c-29 0 -53 25 -53 54c0 30 24 54 53 54c30 0 54 -24 54 -54zM345 44c0 -29 -24 -54 -54 -54c-29 0 -54 25 -54 54c0 30 25 54 54 54c30 0 54 -24 54 -54zM168 44c0 -29 -24 -54 -54 -54c-29 0 -53 25 -53 54c0 30 24 54 53 54
c30 0 54 -24 54 -54z" />
    <glyph glyph-name="guilsinglleft" unicode="&#x2039;" horiz-adv-x="318" 
d="M132 258l140 -208c4 -6 5 -12 5 -17c0 -22 -16 -41 -40 -41c-18 0 -26 8 -38 27l-158 237l152 229c10 16 19 26 37 26s38 -16 38 -37c0 -6 -1 -13 -5 -19z" />
    <glyph glyph-name="guilsinglright" unicode="&#x203a;" horiz-adv-x="318" 
d="M46 50l140 208l-131 197c-4 6 -5 13 -5 19c0 21 20 37 38 37s27 -10 37 -26l152 -229l-158 -237c-12 -19 -20 -27 -38 -27c-24 0 -40 19 -40 41c0 5 1 11 5 17z" />
    <glyph glyph-name="fraction" unicode="&#x2044;" horiz-adv-x="159" 
d="M217 652l-232 -653c-4 -16 -15 -25 -27 -22c-11 3 -19 16 -17 30c0 7 0 7 1 17l232 651c4 16 15 25 27 22c11 -3 19 -16 17 -29c0 -5 0 -11 -1 -16z" />
    <glyph glyph-name="Euro" unicode="&#x20ac;" horiz-adv-x="500" 
d="M49 454h46v36c0 136 62 225 195 225c91 0 177 -39 177 -86c0 -19 -15 -35 -36 -35c-14 0 -19 7 -36 17c-30 21 -61 31 -100 31c-91 0 -120 -58 -120 -152v-36h182c20 0 39 -16 39 -37s-17 -37 -39 -37h-182v-56h142c20 0 39 -16 39 -37s-17 -37 -39 -37h-142v-34
c0 -94 29 -152 120 -152c39 0 70 10 100 31c17 10 22 17 36 17c21 0 36 -16 36 -35c0 -47 -86 -86 -177 -86c-133 0 -195 89 -195 225v34h-46c-22 0 -39 16 -39 37s19 37 39 37h46v56h-46c-22 0 -39 16 -39 37s19 37 39 37z" />
    <glyph glyph-name="trademark" unicode="&#x2122;" horiz-adv-x="773" 
d="M727 682v-375c0 -15 -14 -28 -29 -28c-16 0 -29 13 -29 28v268l-92 -189c-6 -12 -17 -18 -29 -18s-24 7 -29 18l-92 189v-268c0 -15 -14 -28 -29 -28c-16 0 -28 13 -28 28v375c0 18 13 31 31 31c13 0 24 -7 30 -18l117 -241l118 241c6 13 18 18 30 18c16 0 31 -15 31 -31
zM318 679c0 -17 -13 -29 -29 -29h-95v-342c0 -16 -13 -29 -30 -29s-30 13 -30 29v342h-94c-17 0 -30 12 -30 29c0 16 13 29 30 29h249c16 0 29 -13 29 -29z" />
    <glyph glyph-name="arrowleft" unicode="&#x2190;" horiz-adv-x="559" 
d="M504 353c0 -20 -17 -36 -36 -36h-299l148 -171c4 -6 5 -12 5 -17c0 -22 -16 -41 -40 -41c-18 0 -24 10 -38 27l-179 214c-13 16 -13 30 0 46l173 206c12 14 19 26 37 26s38 -16 38 -37c0 -6 -1 -13 -5 -19l-140 -161h300c20 0 36 -17 36 -37z" />
    <glyph glyph-name="arrowup" unicode="&#x2191;" horiz-adv-x="629" 
d="M309 81c-20 0 -37 16 -37 36v379l-161 -139c-5 -5 -13 -5 -19 -5c-21 0 -37 20 -37 38s12 25 26 37l206 173c16 13 30 13 46 0l214 -179c17 -14 27 -20 27 -38c0 -24 -19 -40 -41 -40c-5 0 -12 0 -17 5l-171 148v-379c0 -19 -16 -36 -36 -36z" />
    <glyph glyph-name="arrowright" unicode="&#x2192;" horiz-adv-x="559" 
d="M55 353c0 20 16 37 36 37h299l-139 161c-4 6 -5 13 -5 19c0 21 20 37 38 37s25 -12 37 -26l173 -206c13 -16 13 -30 0 -46l-179 -214c-14 -17 -20 -27 -38 -27c-24 0 -40 19 -40 41c0 5 1 11 5 17l148 171h-299c-19 0 -36 16 -36 36z" />
    <glyph glyph-name="arrowdown" unicode="&#x2193;" horiz-adv-x="629" 
d="M309 613c20 0 36 -17 36 -36v-379l171 148c5 5 12 5 17 5c22 0 41 -16 41 -40c0 -18 -10 -24 -27 -38l-214 -179c-16 -13 -30 -13 -46 0l-206 173c-14 12 -26 19 -26 37s16 38 37 38c6 0 14 0 19 -5l161 -140v380c0 20 17 36 37 36z" />
    <glyph glyph-name="uni2196" unicode="&#x2196;" horiz-adv-x="529" 
d="M463 155c-14 -14 -38 -15 -52 -1l-269 269l-14 -213c0 -7 -6 -13 -10 -17c-15 -15 -41 -12 -53 1c-13 13 -10 26 -8 44l23 268c2 21 12 31 33 33l278 25c21 2 33 5 46 -8c17 -17 14 -42 -1 -57c-4 -4 -9 -9 -16 -9l-226 -17l269 -267c13 -14 14 -37 0 -51z" />
    <glyph glyph-name="uni2197" unicode="&#x2197;" horiz-adv-x="532" 
d="M67 163c-15 14 -15 37 -1 51l268 268l-212 16c-7 0 -13 6 -17 10c-15 15 -12 40 0 53c13 13 27 9 45 8l268 -24c20 -2 30 -12 32 -32l25 -278c2 -22 5 -33 -8 -46c-17 -17 -41 -15 -57 1c-3 3 -8 8 -8 15l-17 226l-268 -268c-13 -14 -36 -14 -50 0z" />
    <glyph glyph-name="uni2198" unicode="&#x2198;" horiz-adv-x="529" 
d="M66 539c14 14 38 15 52 1l268 -270l15 214c0 7 6 13 10 17c15 15 41 12 53 -1c13 -13 10 -26 8 -44l-23 -268c-2 -21 -12 -31 -33 -33l-278 -25c-21 -2 -33 -5 -46 8c-17 17 -14 42 1 57c4 4 9 9 16 9l225 16l-268 268c-13 14 -14 37 0 51z" />
    <glyph glyph-name="uni2199" unicode="&#x2199;" horiz-adv-x="532" 
d="M465 531c15 -14 15 -37 1 -51l-268 -269l212 -15c7 0 13 -6 17 -10c15 -15 12 -40 0 -53c-13 -13 -27 -9 -45 -8l-268 24c-20 2 -30 12 -32 32l-25 278c-2 22 -5 33 8 46c17 17 41 15 57 -1c3 -3 8 -8 8 -15l16 -226l269 268c13 14 36 14 50 0z" />
    <glyph glyph-name="minus" unicode="&#x2212;" horiz-adv-x="500" 
d="M81 393h338c20 0 39 -17 39 -39s-17 -39 -39 -39h-338c-22 0 -39 17 -39 39s19 39 39 39z" />
    <glyph glyph-name="triagup" unicode="&#x25b2;" horiz-adv-x="758" 
d="M646 0h-534c-56 0 -69 21 -44 72l275 549c25 51 47 51 72 0l275 -549c25 -51 12 -72 -44 -72z" />
    <glyph glyph-name="triagrt" unicode="&#x25ba;" horiz-adv-x="785" 
d="M55 65v547c0 56 21 69 72 44l564 -282c51 -25 51 -47 0 -72l-564 -281c-51 -25 -72 -12 -72 44z" />
    <glyph glyph-name="triagdn" unicode="&#x25bc;" horiz-adv-x="758" 
d="M112 678h534c56 0 69 -21 44 -72l-275 -549c-25 -51 -47 -51 -72 0l-275 549c-25 51 -12 72 44 72z" />
    <glyph glyph-name="triaglf" unicode="&#x25c4;" horiz-adv-x="785" 
d="M94 374l564 282c51 25 72 12 72 -44v-547c0 -56 -21 -69 -72 -44l-564 281c-51 25 -51 47 0 72z" />
    <glyph glyph-name="uni2639" unicode="&#x2639;" horiz-adv-x="733" 
d="M678 253c0 -168 -139 -311 -311 -311c-171 0 -312 141 -312 311c0 171 141 311 312 311s311 -141 311 -311zM633 253c0 146 -121 266 -266 266s-266 -118 -266 -266c0 -147 120 -266 266 -266c145 0 266 120 266 266zM287 317c0 -21 -18 -39 -40 -39c-21 0 -39 18 -39 39
c0 22 18 40 39 40c22 0 40 -18 40 -40zM525 317c0 -21 -17 -39 -39 -39s-40 18 -40 39c0 22 18 40 40 40s39 -18 39 -40zM253 78l-30 17c33 61 80 95 144 95c63 0 111 -33 143 -95l-30 -17c-26 45 -63 70 -113 70s-88 -24 -114 -70z" />
    <glyph glyph-name="uni263A" unicode="&#x263a;" horiz-adv-x="733" 
d="M678 253c0 -168 -139 -311 -311 -311c-171 0 -312 141 -312 311c0 171 141 311 312 311s311 -141 311 -311zM633 253c0 146 -121 266 -266 266s-266 -118 -266 -266c0 -147 120 -266 266 -266c145 0 266 120 266 266zM287 317c0 -21 -18 -39 -40 -39c-21 0 -39 18 -39 39
c0 22 18 40 39 40c22 0 40 -18 40 -40zM525 317c0 -21 -17 -39 -39 -39s-40 18 -40 39c0 22 18 40 40 40s39 -18 39 -40zM223 153l30 17c26 -46 64 -70 114 -70s87 24 113 70l30 -17c-32 -62 -80 -95 -143 -95c-64 0 -111 33 -144 95z" />
    <glyph glyph-name="uni263B" unicode="&#x263b;" horiz-adv-x="732" 
d="M677 253c0 -170 -139 -311 -311 -311c-171 0 -311 140 -311 311c0 172 141 311 311 311c171 0 311 -140 311 -311zM286 317c0 22 -17 40 -39 40s-40 -18 -40 -40c0 -21 18 -39 40 -39s39 18 39 39zM525 317c0 22 -18 40 -39 40c-22 0 -40 -18 -40 -40
c0 -21 18 -39 40 -39c21 0 39 18 39 39zM253 170l-30 -17c33 -62 79 -95 143 -95c63 0 111 33 144 95l-31 17c-25 -46 -63 -70 -113 -70c-49 0 -87 24 -113 70z" />
    <glyph glyph-name="uni2661" unicode="&#x2661;" horiz-adv-x="642" 
d="M312 393c2 -11 5 -17 9 -18c4 2 6 8 9 18c28 91 76 123 131 123c59 0 126 -37 126 -142c0 -57 -20 -80 -115 -206c-56 -74 -62 -83 -113 -164c-10 -16 -19 -29 -38 -29s-28 13 -38 29c-53 84 -55 87 -113 164c-95 126 -115 149 -115 206c0 105 68 142 125 142
s108 -37 132 -123zM317 25c1 -3 2 -5 4 -5s2 2 4 5l131 187c72 103 91 120 91 165c0 70 -46 99 -85 99c-52 0 -75 -52 -93 -94c-12 -28 -26 -49 -48 -49c-20 0 -33 16 -48 49c-20 46 -42 94 -93 94c-39 0 -85 -29 -85 -99c0 -45 19 -62 91 -165z" />
    <glyph glyph-name="uni2665" unicode="&#x2665;" horiz-adv-x="642" 
d="M312 393c7 -25 13 -23 20 0c25 87 73 123 127 123c69 0 128 -50 128 -130c0 -69 -44 -130 -105 -209c-72 -93 -72 -92 -121 -173c-9 -15 -19 -29 -39 -29s-29 13 -39 29c-51 81 -55 87 -113 164c-95 126 -115 149 -115 206c0 105 67 142 126 142c54 0 107 -36 131 -123z
" />
    <glyph glyph-name="uni266A" unicode="&#x266a;" horiz-adv-x="510" 
d="M242 189v477c188 0 245 -33 245 -190c0 -39 -8 -49 -24 -50c-16 1 -23 9 -24 25c0 68 -55 103 -135 103h-13v-408c0 -103 -46 -164 -153 -164c-70 0 -115 43 -115 109c0 68 55 121 134 121c26 0 54 -7 85 -23z" />
    <glyph glyph-name="uni266B" unicode="&#x266b;" horiz-adv-x="760" 
d="M266 145v396c0 56 23 87 76 104l236 73c53 17 76 0 76 -56v-461c0 -109 -50 -162 -150 -162c-72 0 -117 45 -117 109c0 65 56 120 135 120c28 0 35 -2 83 -21v323c0 21 -9 27 -29 21l-233 -72c-20 -6 -29 -18 -29 -39v-378c0 -109 -51 -165 -152 -165
c-70 0 -115 44 -115 109c0 68 55 121 134 121c25 0 53 -7 85 -22z" />
    <glyph glyph-name="typography.com.ua" unicode="&#xe020;" horiz-adv-x="885" 
d="M840 471c-5 -32 -26 -32 -42 -30c-8 1 -21 2 -28 2c-34 0 -63 -24 -70 -64l-27 -155h83c21 0 37 -17 37 -37c0 -21 -16 -38 -37 -38h-97l-37 -213c-18 -100 -52 -168 -145 -168c-46 0 -81 1 -81 36c0 23 16 37 39 37c6 0 19 -1 29 -1c51 0 68 29 79 90l38 219h-128v-119
c0 -22 -17 -39 -39 -39s-39 17 -39 39v119h-250c-24 0 -41 20 -41 43c0 3 3 17 8 27l192 481c6 14 20 23 34 23c17 0 39 -15 39 -43c0 -2 0 -5 -2 -10l-179 -446h199v251c0 22 17 39 39 39c21 0 39 -17 39 -39v-251h141l30 167c13 75 68 123 159 123c39 0 62 -9 57 -43z" />
    <glyph glyph-name="commaaccent" unicode="&#xf6c3;" horiz-adv-x="310" 
d="M208 -104c0 -55 -49 -134 -76 -134c-10 0 -19 5 -19 17c0 22 25 34 37 62c-28 2 -49 26 -49 55c0 30 24 53 54 53c29 0 53 -24 53 -53z" />
    <glyph glyph-name="R.salt" unicode="&#xe0052;" horiz-adv-x="557" 
d="M153 365h115c65 0 137 44 137 140c0 62 -30 123 -120 123h-132v-263zM153 30c0 -21 -18 -40 -40 -40s-40 19 -40 40v628c0 27 22 48 48 48h169c130 0 195 -100 195 -203c0 -96 -55 -145 -129 -180c72 -29 89 -72 98 -147c8 -65 2 -94 54 -115c18 -7 38 -22 30 -47
c-5 -17 -21 -22 -38 -22c-2 0 -5 0 -14 1c-92 11 -103 100 -112 187c-4 40 -14 107 -133 107h-88v-257z" />
    <glyph glyph-name="uni0414.BUL" unicode="&#xe0414;" horiz-adv-x="668" 
d="M27 -101v128c0 29 17 51 39 51h29l185 584c9 30 23 53 52 53c30 0 43 -22 53 -53l184 -584h31c23 0 41 -22 41 -51v-128c0 -22 -18 -39 -41 -39c-22 0 -39 17 -39 39v101h-456v-101c0 -22 -17 -39 -39 -39s-39 17 -39 39zM332 576l-152 -498h303z" />
    <glyph glyph-name="uni0416.BUL" unicode="&#xe0416;" horiz-adv-x="746" 
d="M413 675v-318l237 339c9 13 20 19 33 19c24 0 38 -25 38 -43c0 -6 0 -12 -5 -19l-197 -281l197 -320c4 -7 5 -13 5 -19c0 -18 -14 -43 -38 -43c-13 0 -24 6 -33 19l-182 289l-55 -79v-188c0 -22 -18 -41 -40 -41s-40 19 -40 41v188l-56 79l-181 -289
c-9 -13 -20 -19 -33 -19c-24 0 -38 25 -38 43c0 6 1 12 5 19l196 320l-196 281c-4 7 -5 13 -5 19c0 18 14 43 38 43c13 0 24 -6 33 -19l237 -339v318c0 21 18 40 40 40s40 -19 40 -40z" />
    <glyph glyph-name="uni041B.BUL" unicode="&#xe041b;" horiz-adv-x="549" 
d="M274 576l-169 -556c-6 -18 -24 -30 -38 -30c-23 0 -42 16 -42 40c0 4 1 12 2 15l195 617c9 30 23 53 52 53c30 0 43 -22 53 -53l195 -617c1 -3 2 -11 2 -15c0 -24 -18 -40 -42 -40c-15 0 -34 12 -39 30z" />
    <glyph glyph-name="uni0432.BUL" unicode="&#xe0432;" horiz-adv-x="468" 
d="M63 175v329c0 121 61 195 171 195c95 0 165 -56 165 -169c0 -93 -48 -139 -95 -161c86 -21 118 -84 118 -172c0 -120 -58 -205 -182 -205c-112 0 -177 69 -177 183zM345 197c0 77 -27 133 -132 133h-72v-158c0 -71 35 -108 99 -108c72 0 105 48 105 133zM141 507v-110h85
c32 0 97 32 97 124c0 72 -39 106 -94 106c-61 0 -88 -41 -88 -120z" />
    <glyph glyph-name="uni0433.BUL" unicode="&#xe0433;" horiz-adv-x="406" 
d="M356 370c0 -132 -133 -139 -196 -173c-20 -11 -37 -26 -37 -62c0 -52 37 -74 92 -74c40 0 72 12 100 23c3 1 4 2 10 2c24 0 37 -19 37 -36c0 -46 -96 -58 -147 -58c-111 0 -168 56 -168 146c0 130 117 139 186 173c34 17 47 33 47 64c0 46 -28 70 -89 70
c-36 0 -55 -8 -76 -18c-6 -3 -11 -5 -18 -5c-21 0 -36 17 -36 36c0 42 81 56 133 56c106 0 162 -58 162 -144z" />
    <glyph glyph-name="uni0434.BUL" unicode="&#xe0434;" horiz-adv-x="485" 
d="M333 107v246c0 56 -40 89 -105 89c-72 0 -105 -41 -105 -109v-158c0 -71 27 -114 98 -114c41 0 82 14 112 46zM411 353v-393c0 -103 -54 -184 -179 -184c-47 0 -139 14 -139 61c0 18 15 34 34 34c5 0 10 -1 16 -3c24 -12 46 -23 81 -23c78 0 109 42 109 115v70
c-36 -23 -77 -37 -128 -37c-121 0 -160 78 -160 182v158c0 102 61 181 183 181c116 0 183 -71 183 -161z" />
    <glyph glyph-name="uni0436.BUL" unicode="&#xe0436;" horiz-adv-x="628" 
d="M353 686v-373l181 188c5 6 15 9 24 9c21 0 37 -16 37 -36c0 -10 -3 -19 -10 -26l-147 -150l169 -250c4 -6 6 -16 6 -23c-1 -20 -17 -33 -37 -33c-13 0 -24 6 -32 19l-155 236l-36 -37v-179c0 -22 -17 -39 -39 -39s-39 17 -39 39v179l-36 37l-155 -236
c-8 -13 -19 -19 -32 -19c-20 0 -36 13 -37 33c0 7 2 17 6 23l168 250l-146 150c-7 7 -10 16 -10 26c0 20 16 36 37 36c9 0 19 -3 24 -9l181 -188v373c0 22 17 39 39 39s39 -17 39 -39z" />
    <glyph glyph-name="uni0437.BUL" unicode="&#xe0437;" horiz-adv-x="408" 
d="M354 326c0 -85 -30 -149 -104 -166c80 -17 114 -83 114 -180c0 -124 -54 -204 -176 -204c-47 0 -149 12 -149 60c0 25 27 36 40 34l8 -2c27 -10 66 -23 103 -23c64 0 98 39 98 134c0 36 -5 139 -117 145c-18 1 -49 0 -49 34c0 32 27 32 46 33c93 6 110 88 110 142
c0 69 -28 112 -96 112c-29 0 -57 -8 -79 -18c-6 -3 -11 -5 -18 -5c-21 0 -36 17 -36 35c0 43 87 57 137 57c114 0 168 -73 168 -188z" />
    <glyph glyph-name="uni0438.BUL" unicode="&#xe0438;" horiz-adv-x="509" 
d="M352 123v350c0 21 13 38 39 38s39 -17 39 -38v-350c0 -55 10 -55 18 -70c2 -4 7 -11 7 -20c0 -19 -16 -35 -37 -35c-19 0 -32 12 -43 30c-44 -25 -95 -36 -142 -36c-106 0 -159 76 -159 189v292c0 21 14 38 39 38s39 -17 39 -38v-292c0 -76 32 -119 92 -119
c39 0 77 12 110 33c-1 10 -2 20 -2 28z" />
    <glyph glyph-name="uni0439.BUL" unicode="&#xe0439;" horiz-adv-x="509" 
d="M254 633c22 0 44 11 65 41c7 11 19 16 30 16c17 0 33 -11 26 -37c-13 -54 -76 -81 -121 -81s-108 27 -122 81c-6 26 10 37 27 37c11 0 23 -5 30 -16c21 -30 42 -41 65 -41zM352 123v350c0 21 13 38 39 38s39 -17 39 -38v-350c0 -55 10 -55 18 -70c2 -4 7 -11 7 -20
c0 -19 -16 -35 -37 -35c-19 0 -32 12 -43 30c-44 -25 -95 -36 -142 -36c-106 0 -159 76 -159 189v292c0 21 14 38 39 38s39 -17 39 -38v-292c0 -76 32 -119 92 -119c39 0 77 12 110 33c-1 10 -2 20 -2 28z" />
    <glyph glyph-name="uni043A.BUL" unicode="&#xe043a;" horiz-adv-x="439" 
d="M152 686v-373l181 188c5 6 15 9 24 9c21 0 37 -16 37 -36c0 -10 -3 -19 -10 -26l-147 -150l169 -250c4 -6 6 -16 6 -23c-1 -20 -17 -33 -37 -33c-13 0 -24 6 -32 19l-155 236l-36 -37v-179c0 -22 -17 -39 -39 -39s-39 17 -39 39v655c0 22 17 39 39 39s39 -17 39 -39z" />
    <glyph glyph-name="uni043B.BUL" unicode="&#xe043b;" horiz-adv-x="430" 
d="M268 464l136 -423c1 -4 1 -8 1 -11c0 -23 -18 -38 -38 -38c-15 0 -29 11 -35 26l-115 377l-117 -377c-6 -17 -20 -26 -35 -26c-20 0 -37 14 -39 33c0 4 -1 8 1 13l139 427c11 32 24 46 51 46c26 0 40 -14 51 -47z" />
    <glyph glyph-name="uni043F.BUL" unicode="&#xe043f;" horiz-adv-x="509" 
d="M155 371v-340c0 -21 -13 -38 -39 -38s-39 17 -39 38v340c0 55 -9 55 -18 70c-2 4 -7 10 -7 20c0 20 16 35 37 35c18 0 31 -12 42 -29c44 31 95 45 143 45c106 0 159 -76 159 -189v-292c0 -21 -14 -38 -39 -38s-39 17 -39 38v292c0 76 -32 119 -92 119
c-39 0 -77 -16 -111 -42c2 -11 3 -21 3 -29z" />
    <glyph glyph-name="uni0442.BUL" unicode="&#xe0442;" horiz-adv-x="778" 
d="M625 31v311c0 56 -30 100 -91 100c-43 0 -86 -23 -110 -53c3 -14 5 -29 5 -45v-313c0 -21 -13 -38 -39 -38s-39 17 -39 38v290c0 71 -12 121 -83 121c-44 0 -88 -19 -116 -40c2 -12 3 -22 3 -31v-340c0 -21 -13 -38 -39 -38s-39 17 -39 38v340c0 55 -9 55 -18 70
c-2 4 -7 10 -7 20c0 20 16 35 37 35c17 0 30 -11 40 -27c44 28 94 45 146 45c55 0 91 -18 116 -51c42 32 89 51 145 51c108 0 167 -69 167 -170v-313c0 -21 -13 -38 -39 -38s-39 17 -39 38z" />
    <glyph glyph-name="uni0446.BUL" unicode="&#xe0446;" horiz-adv-x="531" 
d="M244 62c40 0 80 13 115 35c-5 19 -7 41 -7 64v312c0 21 13 38 39 38s39 -17 39 -38v-312c0 -65 18 -99 52 -99c22 0 39 -17 39 -39v-128c0 -22 -17 -39 -39 -39s-39 17 -39 39v110c-23 5 -41 17 -54 31c-47 -30 -104 -44 -156 -44c-106 0 -159 76 -159 189v292
c0 21 14 38 39 38s39 -17 39 -38v-292c0 -76 32 -119 92 -119z" />
    <glyph glyph-name="uni0448.BUL" unicode="&#xe0448;" horiz-adv-x="772" 
d="M151 473v-312c0 -56 30 -100 91 -100c42 0 85 23 109 52c-3 14 -4 29 -4 46v314c0 21 14 38 39 38s39 -17 39 -38v-291c0 -71 12 -121 83 -121c42 0 85 18 113 38v15v359c0 21 14 38 39 38s39 -17 39 -38v-359c0 -28 9 -42 26 -60c5 -5 7 -11 7 -20
c0 -21 -18 -35 -35 -35c-23 0 -41 13 -53 32c-43 -26 -92 -42 -143 -42c-56 0 -91 17 -116 50c-43 -31 -90 -50 -145 -50c-108 0 -167 69 -167 170v314c0 21 14 38 39 38s39 -17 39 -38z" />
    <glyph glyph-name="uni0449.BUL" unicode="&#xe0449;" horiz-adv-x="805" 
d="M151 473v-312c0 -56 30 -100 91 -100c43 0 87 19 111 45c-4 16 -6 34 -6 53v314c0 21 14 38 39 38s39 -17 39 -38v-291c0 -71 12 -121 83 -121c45 0 90 19 119 41c-4 18 -6 38 -6 59v312c0 21 13 38 39 38s39 -17 39 -38v-312c0 -65 18 -99 52 -99c22 0 39 -17 39 -39
v-128c0 -22 -17 -39 -39 -39s-39 17 -39 39v110c-23 5 -41 17 -56 34c-45 -31 -99 -50 -155 -50s-91 17 -116 50c-43 -31 -90 -50 -145 -50c-108 0 -167 69 -167 170v314c0 21 14 38 39 38s39 -17 39 -38z" />
    <glyph glyph-name="uni044A.BUL" unicode="&#xe044a;" horiz-adv-x="528" 
d="M312 -8c-120 0 -180 78 -180 178v265h-86c-20 0 -36 15 -36 35s17 35 36 35h125c22 0 39 -18 39 -39v-171c28 19 64 29 102 29c115 0 181 -74 180 -169c-1 -93 -67 -163 -180 -163zM306 252c-60 0 -96 -24 -96 -66v-16c0 -66 33 -106 102 -106c65 0 102 36 102 95
c0 57 -34 93 -108 93z" />
    <glyph glyph-name="uni044C.BUL" unicode="&#xe044c;" horiz-adv-x="472" 
d="M151 472v-177c28 19 64 29 102 29c115 0 181 -74 180 -169c-1 -93 -67 -163 -180 -163c-120 0 -180 78 -180 178v302c0 21 17 39 39 39s39 -18 39 -39zM247 252c-60 0 -96 -24 -96 -66v-16c0 -66 33 -106 102 -106c65 0 102 36 102 95c0 57 -34 93 -108 93z" />
    <glyph glyph-name="uni044E.BUL" unicode="&#xe044e;" horiz-adv-x="681" 
d="M151 692v-398h110v42c0 100 65 178 187 178s187 -78 187 -178v-166c0 -100 -65 -178 -187 -178s-187 78 -187 178v58h-110v-197c0 -22 -16 -39 -38 -39s-39 17 -39 39v661c0 20 16 39 38 39s39 -17 39 -39zM448 64c72 0 109 40 109 106v167c0 65 -37 105 -109 105
s-109 -40 -109 -105v-167c0 -66 37 -106 109 -106z" />
    <glyph glyph-name="uni0431.SRB" unicode="&#xf0431;" horiz-adv-x="464" 
d="M232 481c122 0 187 -78 187 -178v-133c0 -100 -65 -178 -187 -178s-187 78 -187 178v133c0 60 30 112 89 138c-45 22 -73 61 -73 118c0 81 61 132 168 140c42 3 70 -1 120 40c3 3 11 10 22 10c18 0 31 -17 31 -35c0 -55 -92 -81 -172 -85c-32 -2 -91 -9 -91 -71
c0 -52 33 -77 93 -77zM232 64c72 0 109 40 109 106v134c0 65 -37 105 -109 105s-109 -40 -109 -105v-134c0 -66 37 -106 109 -106z" />
    <glyph glyph-name="uni0434.tri" unicode="&#xf0434;" horiz-adv-x="538" 
d="M322 464l128 -398h26c22 0 39 -17 39 -39v-128c0 -22 -17 -39 -39 -39s-39 17 -39 39v101h-336v-101c0 -22 -17 -39 -39 -39s-39 17 -39 39v128c0 22 17 39 39 39h28l130 399c11 32 24 46 51 46c26 0 40 -14 51 -47zM271 395l-102 -329h202z" />
    <glyph glyph-name="parenright.caps" horiz-adv-x="275" 
d="M131 341c0 136 -29 273 -96 392c-5 9 -10 18 -10 27c0 21 12 42 38 42c13 0 25 -6 33 -19c80 -132 114 -292 114 -442s-34 -310 -114 -442c-8 -13 -20 -19 -33 -19c-26 0 -38 21 -38 42c0 9 5 18 10 27c67 119 96 256 96 392z" />
    <glyph glyph-name="parenleft.caps" horiz-adv-x="276" 
d="M144 341c0 -136 29 -273 96 -392c5 -9 10 -18 10 -27c0 -21 -12 -42 -38 -42c-13 0 -25 6 -33 19c-80 132 -114 292 -114 442s34 310 114 442c8 13 20 19 33 19c26 0 38 -21 38 -42c0 -9 -5 -18 -10 -27c-67 -119 -96 -256 -96 -392z" />
    <glyph glyph-name="uni0156" unicode="&#x156;" horiz-adv-x="575" 
d="M511 505c0 -106 -60 -171 -155 -190l160 -263c3 -6 5 -15 5 -23c0 -21 -27 -38 -43 -38c-14 0 -26 7 -33 19l-177 300h-115v-278c0 -22 -19 -42 -41 -42c-21 0 -39 19 -39 42v625c0 26 21 48 46 48h174c165 0 218 -101 218 -200zM431 505c0 59 -26 122 -142 122h-136
v-240h142c88 0 136 41 136 118zM341 -104c0 -55 -49 -134 -76 -134c-10 0 -19 5 -19 17c0 22 25 34 37 62c-28 2 -49 26 -49 55c0 30 24 53 54 53c29 0 53 -24 53 -53z" />
    <glyph glyph-name="Edotaccent" unicode="&#x116;" horiz-adv-x="474" 
d="M441 41c0 -23 -18 -41 -40 -41h-265c-33 0 -63 11 -63 47v611c0 23 20 47 47 47h271c22 0 40 -18 40 -40s-18 -38 -40 -38h-238v-234h219c20 0 39 -17 39 -39s-17 -39 -39 -39h-219v-237h248c21 0 40 -17 40 -37zM284 839c0 -27 -21 -49 -48 -49c-26 0 -46 23 -46 49
c0 25 20 47 46 47c27 0 48 -21 48 -47z" />
    <glyph glyph-name="edotaccent" unicode="&#x117;" horiz-adv-x="435" 
d="M232 61c-72 0 -109 36 -109 92v59c35 -6 72 -9 102 -9c119 0 169 56 169 148c0 99 -55 163 -166 163c-119 0 -183 -73 -183 -169v-187c0 -94 65 -166 178 -166c54 0 162 16 162 65c0 18 -15 35 -35 35c-7 0 -12 -2 -14 -3c-35 -16 -62 -28 -104 -28zM317 351
c0 -41 -13 -82 -89 -82c-20 0 -68 2 -105 7v76c0 56 38 91 103 91c58 0 91 -27 91 -92zM264 639c0 -27 -21 -49 -48 -49c-26 0 -46 23 -46 49c0 25 20 47 46 47c27 0 48 -21 48 -47z" />
    <glyph glyph-name="macron" unicode="&#xaf;" horiz-adv-x="403" 
d="M362 637c0 -20 -16 -36 -36 -36h-249c-21 0 -37 16 -37 36s16 37 37 37h249c20 0 36 -17 36 -37z" />
    <glyph glyph-name="Emacron" unicode="&#x112;" horiz-adv-x="474" 
d="M441 41c0 -23 -18 -41 -40 -41h-265c-33 0 -63 11 -63 47v611c0 23 20 47 47 47h271c22 0 40 -18 40 -40s-18 -38 -40 -38h-238v-234h219c20 0 39 -17 39 -39s-17 -39 -39 -39h-219v-237h248c21 0 40 -17 40 -37zM398 837c0 -20 -16 -36 -36 -36h-249
c-21 0 -37 16 -37 36s16 37 37 37h249c20 0 36 -17 36 -37z" />
    <glyph glyph-name="Amacron" unicode="&#x100;" horiz-adv-x="549" 
d="M105 20l42 139h253l43 -139c5 -18 24 -30 39 -30c24 0 42 16 42 40c0 4 -1 12 -2 15l-195 617c-10 31 -23 53 -53 53c-29 0 -43 -23 -52 -53l-195 -617c-1 -3 -2 -11 -2 -15c0 -24 19 -40 42 -40c14 0 32 12 38 30zM171 237l103 339l103 -339h-206zM435 837
c0 -20 -16 -36 -36 -36h-249c-21 0 -37 16 -37 36s16 37 37 37h249c20 0 36 -17 36 -37z" />
    <glyph glyph-name="uni0122" unicode="&#x122;" horiz-adv-x="520" 
d="M125 460v-214c0 -112 37 -182 150 -182c48 0 83 14 113 37v215h-97c-20 0 -38 17 -38 38s18 38 38 38h119c32 0 57 -14 57 -46v-239c0 -81 -108 -116 -197 -116c-154 0 -225 101 -225 255v214c0 154 71 255 225 255c91 0 177 -39 177 -86c0 -19 -15 -35 -36 -35
c-14 0 -20 7 -36 17c-30 21 -61 31 -100 31c-113 0 -150 -70 -150 -182zM334 -104c0 -55 -49 -134 -76 -134c-10 0 -19 5 -19 17c0 22 25 34 37 62c-28 2 -49 26 -49 55c0 30 24 53 54 53c29 0 53 -24 53 -53z" />
    <glyph glyph-name="uni0136" unicode="&#x136;" horiz-adv-x="498" 
d="M420 9l-217 315l-50 -61v-232c0 -22 -18 -41 -40 -41s-40 19 -40 41v644c0 21 18 40 40 40s40 -19 40 -40v-291l253 312c7 10 22 19 36 19c15 0 37 -12 35 -40c-1 -11 -4 -18 -9 -25l-215 -264l233 -334c4 -7 5 -12 5 -19c0 -19 -8 -43 -37 -43c-15 0 -25 6 -34 19z
M341 -104c0 -55 -49 -134 -76 -134c-10 0 -19 5 -19 17c0 22 25 34 37 62c-28 2 -49 26 -49 55c0 30 24 53 54 53c29 0 53 -24 53 -53z" />
    <glyph glyph-name="Imacron" unicode="&#x12a;" horiz-adv-x="227" 
d="M73 30v645c0 21 18 40 40 40s40 -19 40 -40v-645c0 -21 -18 -40 -40 -40s-40 19 -40 40zM275 837c0 -20 -16 -36 -36 -36h-249c-21 0 -37 16 -37 36s16 37 37 37h249c20 0 36 -17 36 -37z" />
    <glyph glyph-name="uni013B" unicode="&#x13b;" horiz-adv-x="448" 
d="M438 39c0 -22 -17 -39 -38 -39h-282c-24 0 -45 20 -45 45v630c0 21 18 40 40 40s40 -19 40 -40v-598h247c20 0 38 -17 38 -38zM323 -104c0 -55 -49 -134 -76 -134c-10 0 -19 5 -19 17c0 22 25 34 37 62c-28 2 -49 26 -49 55c0 30 24 53 54 53c29 0 53 -24 53 -53z" />
    <glyph glyph-name="uni0145" unicode="&#x145;" horiz-adv-x="600" 
d="M482 -10c-16 0 -33 9 -41 23l-288 533v-515c0 -22 -19 -41 -41 -41s-39 19 -39 41v640c0 25 18 44 43 44c17 0 34 -9 42 -24l288 -532v515c0 22 19 41 41 41s39 -19 39 -41v-640c0 -24 -18 -44 -44 -44zM354 -104c0 -55 -49 -134 -76 -134c-10 0 -19 5 -19 17
c0 22 25 34 37 62c-28 2 -49 26 -49 55c0 30 24 53 54 53c29 0 53 -24 53 -53z" />
    <glyph glyph-name="Omacron" unicode="&#x14c;" horiz-adv-x="551" 
d="M275 -10c-153 0 -230 114 -230 256v214c0 139 65 255 230 255s230 -116 230 -255v-214c0 -142 -77 -256 -230 -256zM275 637c-110 0 -150 -71 -150 -177v-214c0 -105 47 -178 150 -178s150 73 150 178v214c0 106 -40 177 -150 177zM436 837c0 -20 -16 -36 -36 -36h-249
c-21 0 -37 16 -37 36s16 37 37 37h249c20 0 36 -17 36 -37z" />
    <glyph glyph-name="Umacron" unicode="&#x16a;" horiz-adv-x="572" 
d="M507 230c0 -139 -82 -240 -221 -240c-142 0 -221 102 -221 240v443c0 24 18 42 41 42c21 0 39 -19 39 -42v-443c0 -96 45 -162 141 -162s140 68 140 162v443c0 22 17 42 39 42c24 0 42 -20 42 -42v-443zM447 837c0 -20 -16 -36 -36 -36h-249c-21 0 -37 16 -37 36
s16 37 37 37h249c20 0 36 -17 36 -37z" />
    <glyph glyph-name="amacron" unicode="&#x101;" horiz-adv-x="482" 
d="M322 281v57c0 73 -35 107 -107 107c-35 0 -54 -9 -76 -21c-3 -1 -15 -8 -26 -8c-19 0 -27 18 -28 33c-4 46 71 65 140 65c125 0 175 -70 175 -202v-220c0 -20 6 -30 18 -30c3 0 4 1 8 1c19 0 29 -17 29 -34c0 -25 -23 -34 -45 -34c-33 0 -60 19 -75 50
c-38 -35 -83 -53 -137 -53c-103 0 -153 61 -153 151v4c0 98 58 148 176 148c36 0 70 -5 101 -14zM220 229c-82 0 -98 -38 -98 -83v-4c0 -47 21 -80 88 -80c43 0 77 14 112 44v108c-33 10 -72 15 -102 15zM379 637c0 -20 -16 -36 -36 -36h-249c-21 0 -37 16 -37 36
s16 37 37 37h249c20 0 36 -17 36 -37z" />
    <glyph glyph-name="emacron" unicode="&#x113;" horiz-adv-x="435" 
d="M232 61c-72 0 -109 36 -109 92v59c35 -6 72 -9 102 -9c119 0 169 56 169 148c0 99 -55 163 -166 163c-119 0 -183 -73 -183 -169v-187c0 -94 65 -166 178 -166c54 0 162 16 162 65c0 18 -15 35 -35 35c-7 0 -12 -2 -14 -3c-35 -16 -62 -28 -104 -28zM317 351
c0 -41 -13 -82 -89 -82c-20 0 -68 2 -105 7v76c0 56 38 91 103 91c58 0 91 -27 91 -92zM378 637c0 -20 -16 -36 -36 -36h-249c-21 0 -37 16 -37 36s16 37 37 37h249c20 0 36 -17 36 -37z" />
    <glyph glyph-name="imacron" unicode="&#x12b;" horiz-adv-x="245" 
d="M161 31c0 -22 -17 -39 -39 -39s-39 17 -39 39v441c0 21 17 39 39 39s39 -18 39 -39v-441zM284 637c0 -20 -16 -36 -36 -36h-249c-21 0 -37 16 -37 36s16 37 37 37h249c20 0 36 -17 36 -37z" />
    <glyph glyph-name="umacron" unicode="&#x16b;" horiz-adv-x="509" 
d="M352 123v350c0 21 13 38 39 38s39 -17 39 -38v-350c0 -55 10 -55 18 -70c2 -4 7 -11 7 -20c0 -19 -16 -35 -37 -35c-19 0 -32 12 -43 30c-44 -25 -95 -36 -142 -36c-106 0 -159 76 -159 189v292c0 21 14 38 39 38s39 -17 39 -38v-292c0 -76 32 -119 92 -119
c39 0 77 12 110 33c-1 10 -2 20 -2 28zM415 637c0 -20 -16 -36 -36 -36h-249c-21 0 -37 16 -37 36s16 37 37 37h249c20 0 36 -17 36 -37z" />
    <glyph glyph-name="omacron" unicode="&#x14d;" horiz-adv-x="464" 
d="M232 -8c-122 0 -187 78 -187 178v167c0 100 65 178 187 178s187 -78 187 -178v-167c0 -100 -65 -178 -187 -178zM232 64c72 0 109 40 109 106v168c0 65 -37 105 -109 105s-109 -40 -109 -105v-168c0 -66 37 -106 109 -106zM393 637c0 -20 -16 -36 -36 -36h-249
c-21 0 -37 16 -37 36s16 37 37 37h249c20 0 36 -17 36 -37z" />
    <glyph glyph-name="uni0146" unicode="&#x146;" horiz-adv-x="509" 
d="M155 371v-340c0 -21 -13 -38 -39 -38s-39 17 -39 38v340c0 55 -9 55 -18 70c-2 4 -7 10 -7 20c0 20 16 35 37 35c18 0 31 -12 42 -29c44 31 95 45 143 45c106 0 159 -76 159 -189v-292c0 -21 -14 -38 -39 -38s-39 17 -39 38v292c0 76 -32 119 -92 119
c-39 0 -77 -16 -111 -42c2 -11 3 -21 3 -29zM308 -104c0 -55 -49 -134 -76 -134c-10 0 -19 5 -19 17c0 22 25 34 37 62c-28 2 -49 26 -49 55c0 30 24 53 54 53c29 0 53 -24 53 -53z" />
    <glyph glyph-name="uni0157" unicode="&#x157;" horiz-adv-x="337" 
d="M155 369v-338c0 -22 -17 -39 -39 -39s-39 17 -39 39v338c0 33 -4 52 -16 70c-4 6 -7 11 -7 20c0 21 17 35 36 35c16 0 30 -11 40 -27c43 27 99 43 137 43c40 0 52 -17 52 -38c0 -25 -18 -41 -39 -40c-41 1 -77 1 -127 -36c1 -10 2 -19 2 -27zM168 -104
c0 -55 -49 -134 -76 -134c-10 0 -19 5 -19 17c0 22 25 34 37 62c-28 2 -49 26 -49 55c0 30 24 53 54 53c29 0 53 -24 53 -53z" />
    <glyph glyph-name="uni013C" unicode="&#x13c;" horiz-adv-x="228" 
d="M74 94v592c0 21 17 39 39 39s39 -17 39 -39v-592c0 -22 2 -35 14 -47c3 -4 7 -11 7 -19c0 -20 -16 -36 -36 -36c-25 0 -63 12 -63 102zM168 -104c0 -55 -49 -134 -76 -134c-10 0 -19 5 -19 17c0 22 25 34 37 62c-28 2 -49 26 -49 55c0 30 24 53 54 53c29 0 53 -24 53 -53
z" />
    <glyph glyph-name="uni0137" unicode="&#x137;" horiz-adv-x="439" 
d="M152 686v-373l181 188c5 6 15 9 24 9c21 0 37 -16 37 -36c0 -10 -3 -19 -10 -26l-147 -150l169 -250c4 -6 6 -16 6 -23c-1 -20 -17 -33 -37 -33c-13 0 -24 6 -32 19l-155 236l-36 -37v-179c0 -22 -17 -39 -39 -39s-39 17 -39 39v655c0 22 17 39 39 39s39 -17 39 -39z
M300 -104c0 -55 -49 -134 -76 -134c-10 0 -19 5 -19 17c0 22 25 34 37 62c-28 2 -49 26 -49 55c0 30 24 53 54 53c29 0 53 -24 53 -53z" />
    <glyph glyph-name="uogonek" unicode="&#x173;" horiz-adv-x="509" 
d="M523 -156c0 -34 -46 -39 -77 -39c-62 0 -103 28 -103 90c0 38 19 79 47 114c-6 5 -11 11 -15 18c-44 -24 -95 -35 -142 -35c-106 0 -159 76 -159 189v292c0 21 14 38 39 38s39 -17 39 -38v-292c0 -76 32 -119 92 -119c39 0 77 12 110 32c-2 10 -2 20 -2 29v350
c0 21 13 38 39 38s39 -17 39 -38v-350c0 -55 10 -55 18 -70c2 -4 7 -11 7 -20c0 -10 -5 -17 -11 -25c-19 -26 -34 -66 -34 -97c0 -25 14 -45 44 -45c24 0 31 5 42 5c15 0 27 -13 27 -27z" />
    <glyph glyph-name="Iogonek" unicode="&#x12e;" horiz-adv-x="227" 
d="M221 -156c0 -34 -46 -39 -77 -39c-62 0 -103 28 -103 90c0 36 16 75 42 108c-6 7 -10 17 -10 27v645c0 21 18 40 40 40s40 -19 40 -40v-645c0 -12 -8 -22 -14 -30c-18 -24 -31 -61 -31 -89c0 -25 14 -45 44 -45c24 0 31 5 42 5c15 0 27 -13 27 -27z" />
    <glyph glyph-name="Uogonek" unicode="&#x172;" horiz-adv-x="572" 
d="M507 230c0 -103 -45 -184 -123 -220c-16 -30 -37 -68 -37 -99c0 -25 14 -45 44 -45c24 0 31 5 42 5c15 0 27 -13 27 -27c0 -34 -46 -39 -77 -39c-62 0 -103 28 -103 90c0 32 12 66 32 96c-9 -1 -17 -1 -26 -1c-142 0 -221 102 -221 240v443c0 24 18 42 41 42
c21 0 39 -19 39 -42v-443c0 -96 45 -162 141 -162s140 68 140 162v443c0 22 17 42 39 42c24 0 42 -20 42 -42v-443z" />
    <glyph glyph-name="iogonek" unicode="&#x12f;" horiz-adv-x="245" 
d="M228 -156c0 -34 -46 -39 -77 -39c-62 0 -103 28 -103 90c0 37 17 77 44 110c-6 7 -9 16 -9 26v441c0 21 17 39 39 39s39 -18 39 -39v-441c0 -13 -8 -22 -15 -31c-19 -23 -31 -61 -31 -89c0 -25 14 -45 44 -45c24 0 31 5 42 5c15 0 27 -13 27 -27zM170 668
c0 -26 -21 -48 -48 -48s-48 22 -48 48c0 27 21 48 48 48s48 -21 48 -48z" />
    <glyph glyph-name="uni0123" unicode="&#x123;" horiz-adv-x="493" 
d="M231 514c46 0 93 -12 131 -34c22 41 58 58 80 58c21 0 37 -15 37 -35c0 -10 -4 -17 -7 -20c-38 -37 -54 -48 -54 -97v-62c0 -102 -61 -180 -181 -180c-30 0 -56 4 -79 13c-9 -17 -12 -34 -12 -46c0 -35 32 -44 54 -44h42c114 0 200 -47 200 -147
c0 -101 -87 -163 -205 -163c-113 0 -192 57 -192 154c0 49 19 87 53 120c-23 23 -30 54 -30 77c0 24 8 55 38 82c-35 33 -54 82 -54 141c0 104 59 183 179 183zM340 385c0 10 1 20 2 29c-31 19 -64 30 -101 30c-74 0 -111 -41 -111 -115c0 -68 32 -113 107 -113
c71 0 103 40 103 106v63zM202 -5c-17 0 -32 2 -45 5c-24 -21 -34 -46 -34 -78c0 -60 39 -93 116 -93c72 0 125 29 125 89c0 53 -40 77 -120 77h-42zM194 637c0 55 49 134 76 134c10 0 19 -5 19 -17c0 -22 -25 -34 -37 -62c28 -2 49 -26 49 -55c0 -30 -24 -53 -54 -53
c-29 0 -53 24 -53 53z" />
    <glyph glyph-name="estimated" unicode="&#x212e;" horiz-adv-x="903" 
d="M825 317h-605c-3 0 -5 -1 -5 -4v-183c0 -8 4 -15 9 -21c57 -61 139 -99 229 -99c96 0 182 43 240 111h55c-68 -79 -176 -131 -296 -131c-206 0 -374 150 -374 336s168 336 374 336s373 -150 373 -336v-9zM689 341v184c0 9 -4 16 -10 22c-58 58 -138 95 -226 95
c-90 0 -170 -38 -228 -98c-6 -6 -10 -14 -10 -23v-180c0 -3 2 -5 5 -5h464c3 0 5 2 5 5z" />
    <glyph glyph-name="obreve" unicode="&#x14f;" horiz-adv-x="464" 
d="M232 -8c-122 0 -187 78 -187 178v167c0 100 65 178 187 178s187 -78 187 -178v-167c0 -100 -65 -178 -187 -178zM232 64c72 0 109 40 109 106v168c0 65 -37 105 -109 105s-109 -40 -109 -105v-168c0 -66 37 -106 109 -106zM232 633c22 0 44 11 65 41c7 11 19 16 30 16
c17 0 33 -11 26 -37c-13 -54 -76 -81 -121 -81s-108 27 -122 81c-6 26 10 37 27 37c11 0 23 -5 30 -16c21 -30 42 -41 65 -41z" />
    <glyph glyph-name="scircumflex" unicode="&#x15d;" horiz-adv-x="406" 
d="M53 370c0 86 56 144 162 144c52 0 133 -14 133 -56c0 -19 -15 -36 -36 -36c-7 0 -12 2 -18 5c-21 10 -40 18 -76 18c-61 0 -89 -24 -89 -70c0 -31 13 -47 47 -64c69 -34 186 -43 186 -173c0 -90 -57 -146 -168 -146c-51 0 -147 12 -147 58c0 17 13 36 37 36
c6 0 7 -1 10 -2c28 -11 60 -23 100 -23c55 0 92 22 92 74c0 36 -17 51 -37 62c-63 34 -196 41 -196 173zM203 636l-75 -61c-3 -4 -13 -6 -19 -6c-13 0 -25 13 -25 26c0 11 8 21 18 30l79 67c6 4 13 8 22 8s16 -4 22 -8l79 -67c10 -9 18 -19 18 -30c0 -13 -12 -26 -26 -26
c-5 0 -15 2 -18 6z" />
    <glyph glyph-name="utilde" unicode="&#x169;" horiz-adv-x="509" 
d="M352 123v350c0 21 13 38 39 38s39 -17 39 -38v-350c0 -55 10 -55 18 -70c2 -4 7 -11 7 -20c0 -19 -16 -35 -37 -35c-19 0 -32 12 -43 30c-44 -25 -95 -36 -142 -36c-106 0 -159 76 -159 189v292c0 21 14 38 39 38s39 -17 39 -38v-292c0 -76 32 -119 92 -119
c39 0 77 12 110 33c-1 10 -2 20 -2 28zM392 650c0 -35 -46 -59 -82 -61c-43 0 -70 29 -100 32c-37 0 -42 -27 -64 -27c-15 0 -28 11 -30 27c0 37 39 65 82 65c42 0 68 -29 100 -32c38 0 40 25 64 28c16 0 30 -14 30 -32z" />
    <glyph glyph-name="ubreve" unicode="&#x16d;" horiz-adv-x="509" 
d="M352 123v350c0 21 13 38 39 38s39 -17 39 -38v-350c0 -55 10 -55 18 -70c2 -4 7 -11 7 -20c0 -19 -16 -35 -37 -35c-19 0 -32 12 -43 30c-44 -25 -95 -36 -142 -36c-106 0 -159 76 -159 189v292c0 21 14 38 39 38s39 -17 39 -38v-292c0 -76 32 -119 92 -119
c39 0 77 12 110 33c-1 10 -2 20 -2 28zM254 633c22 0 44 11 65 41c7 11 19 16 30 16c17 0 33 -11 26 -37c-13 -54 -76 -81 -121 -81s-108 27 -122 81c-6 26 10 37 27 37c11 0 23 -5 30 -16c21 -30 42 -41 65 -41z" />
    <glyph glyph-name="itilde" unicode="&#x129;" horiz-adv-x="245" 
d="M161 31c0 -22 -17 -39 -39 -39s-39 17 -39 39v441c0 21 17 39 39 39s39 -18 39 -39v-441zM261 650c0 -35 -46 -59 -82 -61c-43 0 -70 29 -100 32c-37 0 -42 -27 -64 -27c-15 0 -28 11 -30 27c0 37 39 65 82 65c42 0 68 -29 100 -32c38 0 40 25 64 28c16 0 30 -14 30 -32z
" />
    <glyph glyph-name="Ccircumflex" unicode="&#x108;" horiz-adv-x="482" 
d="M45 246v214c0 154 71 255 225 255c91 0 177 -39 177 -86c0 -19 -15 -35 -36 -35c-14 0 -20 7 -36 17c-30 21 -61 31 -100 31c-113 0 -150 -70 -150 -182v-214c0 -112 37 -182 150 -182c39 0 70 10 100 31c17 10 22 17 36 17c21 0 36 -16 36 -35c0 -47 -86 -86 -177 -86
c-154 0 -225 101 -225 255zM267 836l-75 -61c-3 -4 -13 -6 -19 -6c-13 0 -25 13 -25 26c0 11 8 21 18 30l79 67c6 4 13 8 22 8s16 -4 22 -8l79 -67c10 -9 18 -19 18 -30c0 -13 -12 -26 -26 -26c-5 0 -15 2 -18 6z" />
    <glyph glyph-name="Cdotaccent" unicode="&#x10a;" horiz-adv-x="482" 
d="M45 246v214c0 154 71 255 225 255c91 0 177 -39 177 -86c0 -19 -15 -35 -36 -35c-14 0 -20 7 -36 17c-30 21 -61 31 -100 31c-113 0 -150 -70 -150 -182v-214c0 -112 37 -182 150 -182c39 0 70 10 100 31c17 10 22 17 36 17c21 0 36 -16 36 -35c0 -47 -86 -86 -177 -86
c-154 0 -225 101 -225 255zM288 839c0 -27 -21 -49 -48 -49c-26 0 -46 23 -46 49c0 25 20 47 46 47c27 0 48 -21 48 -47z" />
    <glyph glyph-name="Ebreve" unicode="&#x114;" horiz-adv-x="474" 
d="M441 41c0 -23 -18 -41 -40 -41h-265c-33 0 -63 11 -63 47v611c0 23 20 47 47 47h271c22 0 40 -18 40 -40s-18 -38 -40 -38h-238v-234h219c20 0 39 -17 39 -39s-17 -39 -39 -39h-219v-237h248c21 0 40 -17 40 -37zM237 833c22 0 44 11 65 41c7 11 19 16 30 16
c17 0 33 -11 26 -37c-13 -54 -76 -81 -121 -81s-108 27 -122 81c-6 26 10 37 27 37c11 0 23 -5 30 -16c21 -30 42 -41 65 -41z" />
    <glyph glyph-name="Itilde" unicode="&#x128;" horiz-adv-x="227" 
d="M73 30v645c0 21 18 40 40 40s40 -19 40 -40v-645c0 -21 -18 -40 -40 -40s-40 19 -40 40zM252 850c0 -35 -46 -59 -82 -61c-43 0 -70 29 -100 32c-37 0 -42 -27 -64 -27c-15 0 -28 11 -30 27c0 37 39 65 82 65c42 0 68 -29 100 -32c38 0 40 25 64 28c16 0 30 -14 30 -32z
" />
    <glyph glyph-name="Ibreve" unicode="&#x12c;" horiz-adv-x="227" 
d="M73 30v645c0 21 18 40 40 40s40 -19 40 -40v-645c0 -21 -18 -40 -40 -40s-40 19 -40 40zM114 833c22 0 44 11 65 41c7 11 19 16 30 16c17 0 33 -11 26 -37c-13 -54 -76 -81 -121 -81s-108 27 -122 81c-6 26 10 37 27 37c11 0 23 -5 30 -16c21 -30 42 -41 65 -41z" />
    <glyph glyph-name="Hcircumflex" unicode="&#x124;" horiz-adv-x="580" 
d="M506 31c0 -22 -18 -41 -40 -41c-21 0 -40 19 -40 41v283h-273v-283c0 -22 -18 -41 -40 -41s-40 19 -40 41v644c0 21 18 40 40 40s40 -19 40 -40v-283h273v283c0 21 19 40 40 40s40 -19 40 -40v-644zM290 836l-75 -61c-3 -4 -13 -6 -19 -6c-13 0 -25 13 -25 26
c0 11 8 21 18 30l79 67c6 4 13 8 22 8s16 -4 22 -8l79 -67c10 -9 18 -19 18 -30c0 -13 -12 -26 -26 -26c-5 0 -15 2 -18 6z" />
    <glyph glyph-name="Gcircumflex" unicode="&#x11c;" horiz-adv-x="520" 
d="M125 460v-214c0 -112 37 -182 150 -182c48 0 83 14 113 37v215h-97c-20 0 -38 17 -38 38s18 38 38 38h119c32 0 57 -14 57 -46v-239c0 -81 -108 -116 -197 -116c-154 0 -225 101 -225 255v214c0 154 71 255 225 255c91 0 177 -39 177 -86c0 -19 -15 -35 -36 -35
c-14 0 -20 7 -36 17c-30 21 -61 31 -100 31c-113 0 -150 -70 -150 -182zM260 836l-75 -61c-3 -4 -13 -6 -19 -6c-13 0 -25 13 -25 26c0 11 8 21 18 30l79 67c6 4 13 8 22 8s16 -4 22 -8l79 -67c10 -9 18 -19 18 -30c0 -13 -12 -26 -26 -26c-5 0 -15 2 -18 6z" />
    <glyph glyph-name="Gdotaccent" unicode="&#x120;" horiz-adv-x="520" 
d="M125 460v-214c0 -112 37 -182 150 -182c48 0 83 14 113 37v215h-97c-20 0 -38 17 -38 38s18 38 38 38h119c32 0 57 -14 57 -46v-239c0 -81 -108 -116 -197 -116c-154 0 -225 101 -225 255v214c0 154 71 255 225 255c91 0 177 -39 177 -86c0 -19 -15 -35 -36 -35
c-14 0 -20 7 -36 17c-30 21 -61 31 -100 31c-113 0 -150 -70 -150 -182zM307 839c0 -27 -21 -49 -48 -49c-26 0 -46 23 -46 49c0 25 20 47 46 47c27 0 48 -21 48 -47z" />
    <glyph glyph-name="Jcircumflex" unicode="&#x134;" horiz-adv-x="385" 
d="M312 675v-450c0 -146 -47 -235 -202 -235c-28 0 -85 3 -85 45c0 25 20 39 35 39c11 0 30 -7 61 -7c92 0 111 61 111 158v450c0 22 17 40 40 40c21 0 40 -19 40 -40zM270 836l-75 -61c-3 -4 -13 -6 -19 -6c-13 0 -25 13 -25 26c0 11 8 21 18 30l79 67c6 4 13 8 22 8
s16 -4 22 -8l79 -67c10 -9 18 -19 18 -30c0 -13 -12 -26 -26 -26c-5 0 -15 2 -18 6z" />
    <glyph glyph-name="Obreve" unicode="&#x14e;" horiz-adv-x="551" 
d="M275 -10c-153 0 -230 114 -230 256v214c0 139 65 255 230 255s230 -116 230 -255v-214c0 -142 -77 -256 -230 -256zM275 637c-110 0 -150 -71 -150 -177v-214c0 -105 47 -178 150 -178s150 73 150 178v214c0 106 -40 177 -150 177zM275 833c22 0 44 11 65 41
c7 11 19 16 30 16c17 0 33 -11 26 -37c-13 -54 -76 -81 -121 -81s-108 27 -122 81c-6 26 10 37 27 37c11 0 23 -5 30 -16c21 -30 42 -41 65 -41z" />
    <glyph glyph-name="Ubreve" unicode="&#x16c;" horiz-adv-x="572" 
d="M507 230c0 -139 -82 -240 -221 -240c-142 0 -221 102 -221 240v443c0 24 18 42 41 42c21 0 39 -19 39 -42v-443c0 -96 45 -162 141 -162s140 68 140 162v443c0 22 17 42 39 42c24 0 42 -20 42 -42v-443zM286 833c22 0 44 11 65 41c7 11 19 16 30 16c17 0 33 -11 26 -37
c-13 -54 -76 -81 -121 -81s-108 27 -122 81c-6 26 10 37 27 37c11 0 23 -5 30 -16c21 -30 42 -41 65 -41z" />
    <glyph glyph-name="Utilde" unicode="&#x168;" horiz-adv-x="572" 
d="M507 230c0 -139 -82 -240 -221 -240c-142 0 -221 102 -221 240v443c0 24 18 42 41 42c21 0 39 -19 39 -42v-443c0 -96 45 -162 141 -162s140 68 140 162v443c0 22 17 42 39 42c24 0 42 -20 42 -42v-443zM424 850c0 -35 -46 -59 -82 -61c-43 0 -70 29 -100 32
c-37 0 -42 -27 -64 -27c-15 0 -28 11 -30 27c0 37 39 65 82 65c42 0 68 -29 100 -32c38 0 40 25 64 28c16 0 30 -14 30 -32z" />
    <glyph glyph-name="Ygrave" unicode="&#x1ef2;" horiz-adv-x="476" 
d="M238 -10c-23 0 -41 19 -41 42v245l-178 378c-2 5 -4 13 -4 19c0 22 20 41 41 41c12 0 25 -5 31 -16l151 -329l151 329c6 11 19 16 31 16c21 0 41 -19 41 -41c0 -6 -2 -14 -4 -19l-178 -380v-243c0 -22 -18 -42 -41 -42zM201 905l78 -81c4 -5 5 -10 5 -15
c0 -21 -16 -35 -33 -35c-13 0 -21 7 -32 18l-81 86c-4 5 -5 12 -5 17c0 19 17 33 31 33c18 0 23 -10 37 -23z" />
    <glyph glyph-name="Ycircumflex" unicode="&#x176;" horiz-adv-x="476" 
d="M238 -10c-23 0 -41 19 -41 42v245l-178 378c-2 5 -4 13 -4 19c0 22 20 41 41 41c12 0 25 -5 31 -16l151 -329l151 329c6 11 19 16 31 16c21 0 41 -19 41 -41c0 -6 -2 -14 -4 -19l-178 -380v-243c0 -22 -18 -42 -41 -42zM238 836l-75 -61c-3 -4 -13 -6 -19 -6
c-13 0 -25 13 -25 26c0 11 8 21 18 30l79 67c6 4 13 8 22 8s16 -4 22 -8l79 -67c10 -9 18 -19 18 -30c0 -13 -12 -26 -26 -26c-5 0 -15 2 -18 6z" />
    <glyph glyph-name="Wgrave" unicode="&#x1e80;" horiz-adv-x="776" 
d="M503 47l-115 503l-116 -504c-7 -26 -20 -56 -53 -56c-29 0 -47 26 -54 56l-149 619c-1 0 -1 11 -1 11c0 22 24 35 45 35c16 0 31 -9 36 -29l124 -533l116 508c9 37 18 58 52 58c32 0 43 -23 51 -58l116 -508l124 533c6 18 18 29 34 29c21 0 48 -11 48 -36
c0 -2 -1 -6 -2 -11l-149 -618c-7 -29 -23 -56 -53 -56s-47 28 -54 57zM380 905l78 -81c4 -5 5 -10 5 -15c0 -21 -16 -35 -33 -35c-13 0 -21 7 -32 18l-81 86c-4 5 -5 12 -5 17c0 19 17 33 31 33c18 0 23 -10 37 -23z" />
    <glyph glyph-name="Scircumflex" unicode="&#x15c;" horiz-adv-x="486" 
d="M360 191c0 65 -32 88 -57 101c-95 50 -261 51 -261 228c0 121 78 195 202 195c50 0 171 -12 171 -68c0 -20 -15 -38 -40 -38c-31 0 -57 28 -125 28c-64 0 -125 -25 -125 -112c0 -66 35 -88 58 -100c96 -50 261 -52 261 -227c0 -132 -93 -208 -219 -208
c-64 0 -184 20 -184 74c0 20 16 39 36 39c28 0 71 -35 149 -35c89 0 134 45 134 123zM243 836l-75 -61c-3 -4 -13 -6 -19 -6c-13 0 -25 13 -25 26c0 11 8 21 18 30l79 67c6 4 13 8 22 8s16 -4 22 -8l79 -67c10 -9 18 -19 18 -30c0 -13 -12 -26 -26 -26c-5 0 -15 2 -18 6z
" />
    <glyph glyph-name="Wacute" unicode="&#x1e82;" horiz-adv-x="776" 
d="M503 47l-115 503l-116 -504c-7 -26 -20 -56 -53 -56c-29 0 -47 26 -54 56l-149 619c-1 0 -1 11 -1 11c0 22 24 35 45 35c16 0 31 -9 36 -29l124 -533l116 508c9 37 18 58 52 58c32 0 43 -23 51 -58l116 -508l124 533c6 18 18 29 34 29c21 0 48 -11 48 -36
c0 -2 -1 -6 -2 -11l-149 -618c-7 -29 -23 -56 -53 -56s-47 28 -54 57zM317 824l78 81c14 13 19 23 37 23c14 0 31 -14 31 -33c0 -5 -1 -12 -5 -17l-81 -86c-12 -11 -19 -18 -32 -18c-18 0 -33 14 -33 35c0 5 1 10 5 15z" />
    <glyph glyph-name="Wcircumflex" unicode="&#x174;" horiz-adv-x="776" 
d="M503 47l-115 503l-116 -504c-7 -26 -20 -56 -53 -56c-29 0 -47 26 -54 56l-149 619c-1 0 -1 11 -1 11c0 22 24 35 45 35c16 0 31 -9 36 -29l124 -533l116 508c9 37 18 58 52 58c32 0 43 -23 51 -58l116 -508l124 533c6 18 18 29 34 29c21 0 48 -11 48 -36
c0 -2 -1 -6 -2 -11l-149 -618c-7 -29 -23 -56 -53 -56s-47 28 -54 57zM388 836l-75 -61c-3 -4 -13 -6 -19 -6c-13 0 -25 13 -25 26c0 11 8 21 18 30l79 67c6 4 13 8 22 8s16 -4 22 -8l79 -67c10 -9 18 -19 18 -30c0 -13 -12 -26 -26 -26c-5 0 -15 2 -18 6z" />
    <glyph glyph-name="Wdieresis" unicode="&#x1e84;" horiz-adv-x="776" 
d="M503 47l-115 503l-116 -504c-7 -26 -20 -56 -53 -56c-29 0 -47 26 -54 56l-149 619c-1 0 -1 11 -1 11c0 22 24 35 45 35c16 0 31 -9 36 -29l124 -533l116 508c9 37 18 58 52 58c32 0 43 -23 51 -58l116 -508l124 533c6 18 18 29 34 29c21 0 48 -11 48 -36
c0 -2 -1 -6 -2 -11l-149 -618c-7 -29 -23 -56 -53 -56s-47 28 -54 57zM519 839c0 -27 -21 -49 -47 -49s-48 23 -48 49c0 25 22 47 48 47s47 -21 47 -47zM350 839c0 -27 -21 -49 -48 -49c-26 0 -46 23 -46 49c0 25 20 47 46 47c27 0 48 -21 48 -47z" />
    <glyph glyph-name="ccircumflex" unicode="&#x109;" horiz-adv-x="393" 
d="M45 176v151c0 103 54 184 179 184c47 0 139 -14 139 -61c0 -18 -15 -34 -34 -34c-5 0 -10 1 -16 3c-24 12 -46 23 -81 23c-78 0 -109 -42 -109 -115v-151c0 -73 31 -115 109 -115c35 0 57 11 81 23c6 2 11 3 16 3c19 0 34 -16 34 -34c0 -47 -92 -61 -139 -61
c-125 0 -179 81 -179 184zM197 636l-75 -61c-3 -4 -13 -6 -19 -6c-13 0 -25 13 -25 26c0 11 8 21 18 30l79 67c6 4 13 8 22 8s16 -4 22 -8l79 -67c10 -9 18 -19 18 -30c0 -13 -12 -26 -26 -26c-5 0 -15 2 -18 6z" />
    <glyph glyph-name="cdotaccent" unicode="&#x10b;" horiz-adv-x="393" 
d="M45 176v151c0 103 54 184 179 184c47 0 139 -14 139 -61c0 -18 -15 -34 -34 -34c-5 0 -10 1 -16 3c-24 12 -46 23 -81 23c-78 0 -109 -42 -109 -115v-151c0 -73 31 -115 109 -115c35 0 57 11 81 23c6 2 11 3 16 3c19 0 34 -16 34 -34c0 -47 -92 -61 -139 -61
c-125 0 -179 81 -179 184zM243 639c0 -27 -21 -49 -48 -49c-26 0 -46 23 -46 49c0 25 20 47 46 47c27 0 48 -21 48 -47z" />
    <glyph glyph-name="ebreve" unicode="&#x115;" horiz-adv-x="435" 
d="M232 61c42 0 69 12 104 28c2 1 7 3 14 3c20 0 35 -17 35 -35c0 -49 -108 -65 -162 -65c-113 0 -178 72 -178 166v187c0 96 64 169 183 169c111 0 166 -64 166 -163c0 -92 -50 -148 -169 -148c-30 0 -67 3 -102 9v-59c0 -56 37 -92 109 -92zM317 351c0 65 -33 92 -91 92
c-65 0 -103 -35 -103 -91v-76c37 -5 85 -7 105 -7c76 0 89 41 89 82zM217 633c22 0 44 11 65 41c7 11 19 16 30 16c17 0 33 -11 26 -37c-13 -54 -76 -81 -121 -81s-108 27 -122 81c-6 26 10 37 27 37c11 0 23 -5 30 -16c21 -30 42 -41 65 -41z" />
    <glyph glyph-name="gcircumflex" unicode="&#x11d;" horiz-adv-x="493" 
d="M231 514c46 0 93 -12 131 -34c22 41 58 58 80 58c21 0 37 -15 37 -35c0 -10 -4 -17 -7 -20c-38 -37 -54 -48 -54 -97v-62c0 -102 -61 -180 -181 -180c-30 0 -56 4 -79 13c-9 -17 -12 -34 -12 -46c0 -35 32 -44 54 -44h42c114 0 200 -47 200 -147
c0 -101 -87 -163 -205 -163c-113 0 -192 57 -192 154c0 49 19 87 53 120c-23 23 -30 54 -30 77c0 24 8 55 38 82c-35 33 -54 82 -54 141c0 104 59 183 179 183zM340 385c0 10 1 20 2 29c-31 19 -64 30 -101 30c-74 0 -111 -41 -111 -115c0 -68 32 -113 107 -113
c71 0 103 40 103 106v63zM202 -5c-17 0 -32 2 -45 5c-24 -21 -34 -46 -34 -78c0 -60 39 -93 116 -93c72 0 125 29 125 89c0 53 -40 77 -120 77h-42zM246 636l-75 -61c-3 -4 -13 -6 -19 -6c-13 0 -25 13 -25 26c0 11 8 21 18 30l79 67c6 4 13 8 22 8s16 -4 22 -8l79 -67
c10 -9 18 -19 18 -30c0 -13 -12 -26 -26 -26c-5 0 -15 2 -18 6z" />
    <glyph glyph-name="gdotaccent" unicode="&#x121;" horiz-adv-x="493" 
d="M231 514c46 0 93 -12 131 -34c22 41 58 58 80 58c21 0 37 -15 37 -35c0 -10 -4 -17 -7 -20c-38 -37 -54 -48 -54 -97v-62c0 -102 -61 -180 -181 -180c-30 0 -56 4 -79 13c-9 -17 -12 -34 -12 -46c0 -35 32 -44 54 -44h42c114 0 200 -47 200 -147
c0 -101 -87 -163 -205 -163c-113 0 -192 57 -192 154c0 49 19 87 53 120c-23 23 -30 54 -30 77c0 24 8 55 38 82c-35 33 -54 82 -54 141c0 104 59 183 179 183zM340 385c0 10 1 20 2 29c-31 19 -64 30 -101 30c-74 0 -111 -41 -111 -115c0 -68 32 -113 107 -113
c71 0 103 40 103 106v63zM202 -5c-17 0 -32 2 -45 5c-24 -21 -34 -46 -34 -78c0 -60 39 -93 116 -93c72 0 125 29 125 89c0 53 -40 77 -120 77h-42zM293 639c0 -27 -21 -49 -48 -49c-26 0 -46 23 -46 49c0 25 20 47 46 47c27 0 48 -21 48 -47z" />
    <glyph glyph-name="jcircumflex" unicode="&#x135;" horiz-adv-x="245" 
d="M161 472v-487c0 -105 -51 -174 -141 -187c-8 -1 -13 -1 -19 -1c-16 0 -29 10 -33 26c-7 27 15 40 30 43c54 12 85 42 85 115v491c0 21 17 39 39 39s39 -18 39 -39zM123 636l-75 -61c-3 -4 -13 -6 -19 -6c-13 0 -25 13 -25 26c0 11 8 21 18 30l79 67c6 4 13 8 22 8
s16 -4 22 -8l79 -67c10 -9 18 -19 18 -30c0 -13 -12 -26 -26 -26c-5 0 -15 2 -18 6z" />
    <glyph glyph-name="ibreve" unicode="&#x12d;" horiz-adv-x="245" 
d="M161 31c0 -22 -17 -39 -39 -39s-39 17 -39 39v441c0 21 17 39 39 39s39 -18 39 -39v-441zM123 633c22 0 44 11 65 41c7 11 19 16 30 16c17 0 33 -11 26 -37c-13 -54 -76 -81 -121 -81s-108 27 -122 81c-6 26 10 37 27 37c11 0 23 -5 30 -16c21 -30 42 -41 65 -41z" />
    <glyph glyph-name="wacute" unicode="&#x1e83;" horiz-adv-x="655" 
d="M629 465l-115 -428c-9 -30 -21 -45 -50 -45c-21 0 -40 12 -46 34l-90 351l-89 -351c-7 -24 -22 -34 -47 -34c-27 0 -42 17 -50 45l-116 431c-1 2 -1 4 -1 6c0 19 17 37 39 37c16 0 31 -10 36 -28l94 -368c31 121 60 239 90 361c5 20 21 35 45 35c23 0 38 -15 43 -35
c29 -122 60 -240 91 -361l93 368c4 16 19 28 36 28c20 0 38 -17 38 -39c0 -2 -1 -5 -1 -7zM257 624l78 81c14 13 19 23 37 23c14 0 31 -14 31 -33c0 -5 -1 -12 -5 -17l-81 -86c-12 -11 -19 -18 -32 -18c-18 0 -33 14 -33 35c0 5 1 10 5 15z" />
    <glyph glyph-name="wcircumflex" unicode="&#x175;" horiz-adv-x="655" 
d="M629 465l-115 -428c-9 -30 -21 -45 -50 -45c-21 0 -40 12 -46 34l-90 351l-89 -351c-7 -24 -22 -34 -47 -34c-27 0 -42 17 -50 45l-116 431c-1 2 -1 4 -1 6c0 19 17 37 39 37c16 0 31 -10 36 -28l94 -368c31 121 60 239 90 361c5 20 21 35 45 35c23 0 38 -15 43 -35
c29 -122 60 -240 91 -361l93 368c4 16 19 28 36 28c20 0 38 -17 38 -39c0 -2 -1 -5 -1 -7zM327 636l-75 -61c-3 -4 -13 -6 -19 -6c-13 0 -25 13 -25 26c0 11 8 21 18 30l79 67c6 4 13 8 22 8s16 -4 22 -8l79 -67c10 -9 18 -19 18 -30c0 -13 -12 -26 -26 -26
c-5 0 -15 2 -18 6z" />
    <glyph glyph-name="wdieresis" unicode="&#x1e85;" horiz-adv-x="655" 
d="M629 465l-115 -428c-9 -30 -21 -45 -50 -45c-21 0 -40 12 -46 34l-90 351l-89 -351c-7 -24 -22 -34 -47 -34c-27 0 -42 17 -50 45l-116 431c-1 2 -1 4 -1 6c0 19 17 37 39 37c16 0 31 -10 36 -28l94 -368c31 121 60 239 90 361c5 20 21 35 45 35c23 0 38 -15 43 -35
c29 -122 60 -240 91 -361l93 368c4 16 19 28 36 28c20 0 38 -17 38 -39c0 -2 -1 -5 -1 -7zM459 639c0 -27 -21 -49 -47 -49s-48 23 -48 49c0 25 22 47 48 47s47 -21 47 -47zM290 639c0 -27 -21 -49 -48 -49c-26 0 -46 23 -46 49c0 25 20 47 46 47c27 0 48 -21 48 -47z" />
    <glyph glyph-name="wgrave" unicode="&#x1e81;" horiz-adv-x="655" 
d="M629 465l-115 -428c-9 -30 -21 -45 -50 -45c-21 0 -40 12 -46 34l-90 351l-89 -351c-7 -24 -22 -34 -47 -34c-27 0 -42 17 -50 45l-116 431c-1 2 -1 4 -1 6c0 19 17 37 39 37c16 0 31 -10 36 -28l94 -368c31 121 60 239 90 361c5 20 21 35 45 35c23 0 38 -15 43 -35
c29 -122 60 -240 91 -361l93 368c4 16 19 28 36 28c20 0 38 -17 38 -39c0 -2 -1 -5 -1 -7zM320 705l78 -81c4 -5 5 -10 5 -15c0 -21 -16 -35 -33 -35c-13 0 -21 7 -32 18l-81 86c-4 5 -5 12 -5 17c0 19 17 33 31 33c18 0 23 -10 37 -23z" />
    <glyph glyph-name="ygrave" unicode="&#x1ef3;" horiz-adv-x="412" 
d="M397 460l-122 -397c-48 -156 -86 -263 -216 -266c-23 0 -40 16 -40 38c0 18 14 36 37 37c63 3 91 37 121 130l-159 459c-2 3 -2 10 -2 14c0 21 17 36 39 36c15 0 29 -9 35 -26l125 -379l109 379c6 17 21 26 36 26c20 0 39 -16 39 -39c0 -4 -1 -8 -2 -12zM198 705l78 -81
c4 -5 5 -10 5 -15c0 -21 -16 -35 -33 -35c-13 0 -21 7 -32 18l-81 86c-4 5 -5 12 -5 17c0 19 17 33 31 33c18 0 23 -10 37 -23z" />
    <glyph glyph-name="uni20B4" unicode="&#x20b4;" horiz-adv-x="500" 
d="M56 454h256c26 35 45 77 45 115c0 48 -30 68 -105 68c-88 0 -100 -28 -134 -28c-26 0 -41 18 -41 38c0 56 118 68 175 68c113 0 188 -46 188 -151c0 -45 -14 -80 -35 -110h39c20 0 39 -16 39 -37s-17 -37 -39 -37h-110c-23 -19 -47 -37 -69 -56h179c20 0 39 -16 39 -37
s-17 -37 -39 -37h-248c-22 -31 -41 -71 -41 -114c0 -41 18 -68 102 -68c95 0 127 35 157 35c21 0 37 -19 37 -39c0 -54 -117 -74 -188 -74c-111 0 -195 50 -195 159c0 40 11 73 29 101h-41c-22 0 -39 16 -39 37s19 37 39 37h111c24 19 49 37 72 56h-183c-22 0 -39 16 -39 37
s19 37 39 37z" />
    <glyph glyph-name="uni20BD" unicode="&#x20bd;" horiz-adv-x="500" 
d="M49 338h39v319c0 26 22 48 48 48h117c166 0 225 -107 225 -224c0 -142 -88 -221 -225 -221h-85v-52h149c20 0 39 -16 39 -37s-17 -37 -39 -37h-149v-102c0 -22 -19 -42 -40 -42s-40 19 -40 42v102h-39c-22 0 -39 16 -39 37s19 37 39 37h39v56h-39c-22 0 -39 16 -39 37
s19 37 39 37zM168 627v-289h85c95 0 145 46 145 144c0 72 -27 145 -145 145h-85z" />
    <glyph glyph-name="zero.numerator" 
d="M123 668c-40 0 -55 -27 -55 -68v-149c0 -36 19 -61 55 -61c35 0 55 25 55 61v149c0 41 -16 68 -55 68zM123 714c72 0 102 -53 102 -118v-145c0 -60 -35 -106 -102 -106s-105 46 -105 106v145c0 65 33 118 105 118z" />
    <glyph glyph-name="one.numerator" 
d="M127 367v278l-52 -36c-8 -5 -15 -9 -23 -9c-13 0 -24 10 -24 21c0 9 5 16 13 22l97 61c6 4 10 5 14 5c14 0 25 -11 25 -27v-315c0 -11 -11 -22 -24 -22c-15 0 -26 11 -26 22z" />
    <glyph glyph-name="two.numerator" 
d="M227 371c0 -13 -11 -21 -22 -21h-162c-16 0 -27 9 -27 23c0 5 1 13 5 21c19 45 55 80 88 112c10 11 33 34 43 46c13 12 26 33 26 57c0 35 -19 59 -56 59c-15 0 -30 -4 -44 -9l-13 -6c-5 -3 -13 -7 -19 -7c-11 0 -25 9 -25 21c0 11 3 14 6 17c34 22 65 30 95 30
c66 0 103 -44 103 -99c0 -43 -15 -72 -34 -95c-9 -11 -21 -22 -32 -33l-10 -10c-28 -26 -55 -53 -71 -81h127c11 0 22 -11 22 -25z" />
    <glyph glyph-name="three.numerator" 
d="M210 659l-78 -100c52 -4 92 -41 92 -100c0 -51 -30 -114 -104 -114c-20 0 -100 5 -100 39c0 14 10 25 24 25c2 0 7 -2 15 -6c12 -7 27 -14 52 -14c50 0 65 37 65 69c0 43 -27 60 -62 60c-6 0 -13 -1 -17 -3l-3 -2c-1 -1 -4 -1 -8 -1c-17 0 -28 21 -17 36l82 108h-99
c-15 0 -26 9 -26 22c0 15 11 27 26 27h137c15 0 24 -11 24 -29c0 -7 0 -14 -3 -17z" />
    <glyph glyph-name="four.numerator" 
d="M204 422v-55c0 -12 -11 -22 -24 -22c-15 0 -25 10 -25 22v55h-117c-16 0 -26 12 -26 26c0 0 2 8 5 13l96 237c3 8 11 15 19 15c12 0 24 -11 24 -26c0 -4 0 -6 -1 -8c-27 -67 -56 -143 -84 -211h84v91c0 14 10 24 25 24c13 0 24 -10 24 -24v-91h15c13 0 23 -10 23 -23
c0 -12 -10 -23 -23 -23h-15z" />
    <glyph glyph-name="five.numerator" 
d="M224 462c0 -56 -30 -117 -103 -117c-21 0 -101 5 -101 39c0 14 10 25 24 25c3 0 7 -1 13 -5c12 -7 27 -15 54 -15c50 0 65 36 65 71c0 48 -25 70 -57 70c-10 0 -22 -4 -32 -10l-13 -8c-5 -3 -8 -6 -16 -6c-13 0 -25 11 -24 25l3 146c0 18 16 28 29 28h118
c13 0 27 -7 27 -25c0 -16 -14 -22 -27 -22h-102l-4 -95c16 8 30 10 42 10c62 0 104 -40 104 -111z" />
    <glyph glyph-name="six.numerator" 
d="M135 663c-52 0 -68 -48 -70 -108c19 11 43 17 62 17c57 0 102 -36 102 -112c0 -63 -34 -115 -106 -115c-83 0 -109 71 -109 171c0 125 38 193 114 193c17 0 81 -3 81 -33c0 -11 -10 -22 -23 -22l-12 3c-11 3 -25 6 -39 6zM64 498v-8c0 -49 12 -98 61 -98
c43 0 57 34 57 67c0 47 -23 67 -57 67c-19 0 -46 -15 -61 -28z" />
    <glyph glyph-name="seven.numerator" 
d="M225 678c0 -5 -1 -9 -2 -13l-121 -307c-2 -6 -13 -13 -22 -13c-11 0 -26 9 -24 25c0 0 1 4 2 6l113 280h-127c-14 0 -25 10 -25 23c0 15 10 26 25 26h158c11 0 23 -11 23 -27z" />
    <glyph glyph-name="eight.numerator" 
d="M235 449c0 -61 -45 -104 -112 -104c-66 0 -114 42 -114 102c0 41 24 71 56 89c-26 19 -45 42 -45 79c0 57 47 94 102 94c57 0 100 -39 100 -93c0 -34 -12 -58 -40 -77c30 -19 53 -48 53 -90zM176 614c0 31 -24 49 -53 49c-30 0 -54 -18 -54 -49c0 -32 25 -51 53 -56
c28 7 54 28 54 56zM188 450c0 35 -35 57 -67 65c-33 -10 -64 -34 -64 -66c0 -34 29 -60 66 -60s65 27 65 61z" />
    <glyph glyph-name="nine.numerator" 
d="M111 389c53 0 68 49 70 108c-19 -13 -41 -17 -62 -17c-57 0 -105 37 -105 111c0 66 33 118 106 118c86 0 109 -70 109 -177c0 -124 -35 -187 -112 -187c-17 0 -80 3 -81 29c-1 19 11 30 24 25l13 -5c7 -3 20 -5 38 -5zM181 552v8c0 58 -16 100 -62 100
c-41 0 -55 -33 -55 -69c0 -43 23 -63 57 -63c22 0 46 12 60 24z" />
    <glyph glyph-name="parenleft.numerator" horiz-adv-x="138" 
d="M76 520c0 -64 13 -130 47 -192c2 -4 4 -8 4 -12c0 -12 -8 -24 -23 -24c-8 0 -15 5 -19 11c-38 64 -59 150 -59 217s23 156 59 219c4 8 10 14 19 14c15 0 23 -15 23 -27c0 -4 -1 -7 -4 -12l-1 -2c-33 -59 -46 -126 -46 -192z" />
    <glyph glyph-name="parenright.numerator" horiz-adv-x="137" 
d="M59 520c0 68 -14 135 -48 194l-1 2c-3 4 -4 8 -4 10c0 12 8 27 25 27c9 0 15 -6 21 -14c35 -63 55 -145 55 -219c0 -75 -17 -153 -55 -217c-6 -8 -12 -11 -21 -11c-17 0 -25 12 -25 24c0 0 3 7 7 14c30 57 46 124 46 190z" />
    <glyph glyph-name="hyphen.numerator" horiz-adv-x="199" 
d="M182 497c0 -12 -10 -22 -22 -22h-123c-14 0 -24 10 -24 22c0 14 10 25 24 25h123c12 0 22 -11 22 -25z" />
    <glyph glyph-name="comma.numerator" horiz-adv-x="115" 
d="M86 374c0 -33 -25 -84 -40 -84c-9 0 -16 2 -16 13c0 6 5 17 10 25l9 18c-13 4 -25 14 -25 28c0 19 14 33 33 33c17 0 29 -14 29 -33z" />
    <glyph glyph-name="period.numerator" horiz-adv-x="115" 
d="M86 374c0 -17 -12 -29 -29 -29c-19 0 -33 12 -33 29c0 19 14 33 33 33c17 0 29 -14 29 -33z" />
    <glyph glyph-name="zero.denominator" 
d="M123 316c-40 0 -55 -27 -55 -68v-149c0 -36 19 -61 55 -61c35 0 55 25 55 61v149c0 41 -16 68 -55 68zM123 362c72 0 102 -53 102 -118v-145c0 -60 -35 -106 -102 -106s-105 46 -105 106v145c0 65 33 118 105 118z" />
    <glyph glyph-name="one.denominator" 
d="M127 15v278l-52 -36c-8 -5 -15 -9 -23 -9c-13 0 -24 10 -24 21c0 9 5 16 13 22l97 61c6 4 10 5 14 5c14 0 25 -11 25 -27v-315c0 -11 -11 -22 -24 -22c-15 0 -26 11 -26 22z" />
    <glyph glyph-name="two.denominator" 
d="M227 19c0 -13 -11 -21 -22 -21h-162c-16 0 -27 9 -27 23c0 5 1 13 5 21c19 45 55 80 88 112c10 11 33 34 43 46c13 12 26 33 26 57c0 35 -19 59 -56 59c-15 0 -30 -4 -44 -9l-13 -6c-5 -3 -13 -7 -19 -7c-11 0 -25 9 -25 21c0 11 3 14 6 17c34 22 65 30 95 30
c66 0 103 -44 103 -99c0 -43 -15 -72 -34 -95c-9 -11 -21 -22 -32 -33l-10 -10c-28 -26 -55 -53 -71 -81h127c11 0 22 -11 22 -25z" />
    <glyph glyph-name="three.denominator" 
d="M210 307l-78 -100c52 -4 92 -41 92 -100c0 -51 -30 -114 -104 -114c-20 0 -100 5 -100 39c0 14 10 25 24 25c2 0 7 -2 15 -6c12 -7 27 -14 52 -14c50 0 65 37 65 69c0 43 -27 60 -62 60c-6 0 -13 -1 -17 -3l-3 -2c-1 -1 -4 -1 -8 -1c-17 0 -28 21 -17 36l82 108h-99
c-15 0 -26 9 -26 22c0 15 11 27 26 27h137c15 0 24 -11 24 -29c0 -7 0 -14 -3 -17z" />
    <glyph glyph-name="four.denominator" 
d="M204 70v-55c0 -12 -11 -22 -24 -22c-15 0 -25 10 -25 22v55h-117c-16 0 -26 12 -26 26c0 0 2 8 5 13l96 237c3 8 11 15 19 15c12 0 24 -11 24 -26c0 -4 0 -6 -1 -8c-27 -67 -56 -143 -84 -211h84v91c0 14 10 24 25 24c13 0 24 -10 24 -24v-91h15c13 0 23 -10 23 -23
c0 -12 -10 -23 -23 -23h-15z" />
    <glyph glyph-name="five.denominator" 
d="M224 110c0 -56 -30 -117 -103 -117c-21 0 -101 5 -101 39c0 14 10 25 24 25c3 0 7 -1 13 -5c12 -7 27 -15 54 -15c50 0 65 36 65 71c0 48 -25 70 -57 70c-10 0 -22 -4 -32 -10l-13 -8c-5 -3 -8 -6 -16 -6c-13 0 -25 11 -24 25l3 146c0 18 16 28 29 28h118
c13 0 27 -7 27 -25c0 -16 -14 -22 -27 -22h-102l-4 -95c16 8 30 10 42 10c62 0 104 -40 104 -111z" />
    <glyph glyph-name="six.denominator" 
d="M135 311c-52 0 -68 -48 -70 -108c19 11 43 17 62 17c57 0 102 -36 102 -112c0 -63 -34 -115 -106 -115c-83 0 -109 71 -109 171c0 125 38 193 114 193c17 0 81 -3 81 -33c0 -11 -10 -22 -23 -22l-12 3c-11 3 -25 6 -39 6zM64 146v-8c0 -49 12 -98 61 -98
c43 0 57 34 57 67c0 47 -23 67 -57 67c-19 0 -46 -15 -61 -28z" />
    <glyph glyph-name="seven.denominator" 
d="M225 326c0 -5 -1 -9 -2 -13l-121 -307c-2 -6 -13 -13 -22 -13c-11 0 -26 9 -24 25c0 0 1 4 2 6l113 280h-127c-14 0 -25 10 -25 23c0 15 10 26 25 26h158c11 0 23 -11 23 -27z" />
    <glyph glyph-name="eight.denominator" 
d="M235 97c0 -61 -45 -104 -112 -104c-66 0 -114 42 -114 102c0 41 24 71 56 89c-26 19 -45 42 -45 79c0 57 47 94 102 94c57 0 100 -39 100 -93c0 -34 -12 -58 -40 -77c30 -19 53 -48 53 -90zM176 262c0 31 -24 49 -53 49c-30 0 -54 -18 -54 -49c0 -32 25 -51 53 -56
c28 7 54 28 54 56zM188 98c0 35 -35 57 -67 65c-33 -10 -64 -34 -64 -66c0 -34 29 -60 66 -60s65 27 65 61z" />
    <glyph glyph-name="nine.denominator" 
d="M111 37c53 0 68 49 70 108c-19 -13 -41 -17 -62 -17c-57 0 -105 37 -105 111c0 66 33 118 106 118c86 0 109 -70 109 -177c0 -124 -35 -187 -112 -187c-17 0 -80 3 -81 29c-1 19 11 30 24 25l13 -5c7 -3 20 -5 38 -5zM181 200v8c0 58 -16 100 -62 100
c-41 0 -55 -33 -55 -69c0 -43 23 -63 57 -63c22 0 46 12 60 24z" />
    <glyph glyph-name="parenleft.denominator" horiz-adv-x="138" 
d="M76 168c0 -64 13 -130 47 -192c2 -4 4 -8 4 -12c0 -12 -8 -24 -23 -24c-8 0 -15 5 -19 11c-38 64 -59 150 -59 217s23 156 59 219c4 8 10 14 19 14c15 0 23 -15 23 -27c0 -4 -1 -7 -4 -12l-1 -2c-33 -59 -46 -126 -46 -192z" />
    <glyph glyph-name="parenright.denominator" horiz-adv-x="137" 
d="M59 168c0 68 -14 135 -48 194l-1 2c-3 4 -4 8 -4 10c0 12 8 27 25 27c9 0 15 -6 21 -14c35 -63 55 -145 55 -219c0 -75 -17 -153 -55 -217c-6 -8 -12 -11 -21 -11c-17 0 -25 12 -25 24c0 0 3 7 7 14c30 57 46 124 46 190z" />
    <glyph glyph-name="hyphen.denominator" horiz-adv-x="199" 
d="M182 145c0 -12 -10 -22 -22 -22h-123c-14 0 -24 10 -24 22c0 14 10 25 24 25h123c12 0 22 -11 22 -25z" />
    <glyph glyph-name="comma.denominator" horiz-adv-x="115" 
d="M86 22c0 -33 -25 -84 -40 -84c-9 0 -16 2 -16 13c0 6 5 17 10 25l9 18c-13 4 -25 14 -25 28c0 19 14 33 33 33c17 0 29 -14 29 -33z" />
    <glyph glyph-name="period.denominator" horiz-adv-x="115" 
d="M86 22c0 -17 -12 -29 -29 -29c-19 0 -33 12 -33 29c0 19 14 33 33 33c17 0 29 -14 29 -33z" />
    <glyph glyph-name="zerosuperior" unicode="&#x2070;" 
d="M123 708c-40 0 -55 -27 -55 -68v-149c0 -36 19 -61 55 -61c35 0 55 25 55 61v149c0 41 -16 68 -55 68zM123 754c72 0 102 -53 102 -118v-145c0 -60 -35 -106 -102 -106s-105 46 -105 106v145c0 65 33 118 105 118z" />
    <glyph glyph-name="onesuperior" unicode="&#xb9;" 
d="M127 407v278l-52 -36c-8 -5 -15 -9 -23 -9c-13 0 -24 10 -24 21c0 9 5 16 13 22l97 61c6 4 10 5 14 5c14 0 25 -11 25 -27v-315c0 -11 -11 -22 -24 -22c-15 0 -26 11 -26 22z" />
    <glyph glyph-name="twosuperior" unicode="&#xb2;" 
d="M227 411c0 -13 -11 -21 -22 -21h-162c-16 0 -27 9 -27 23c0 5 1 13 5 21c19 45 55 80 88 112c10 11 33 34 43 46c13 12 26 33 26 57c0 35 -19 59 -56 59c-15 0 -30 -4 -44 -9l-13 -6c-5 -3 -13 -7 -19 -7c-11 0 -25 9 -25 21c0 11 3 14 6 17c34 22 65 30 95 30
c66 0 103 -44 103 -99c0 -43 -15 -72 -34 -95c-9 -11 -21 -22 -32 -33l-10 -10c-28 -26 -55 -53 -71 -81h127c11 0 22 -11 22 -25z" />
    <glyph glyph-name="threesuperior" unicode="&#xb3;" 
d="M210 699l-78 -100c52 -4 92 -41 92 -100c0 -51 -30 -114 -104 -114c-20 0 -100 5 -100 39c0 14 10 25 24 25c2 0 7 -2 15 -6c12 -7 27 -14 52 -14c50 0 65 37 65 69c0 43 -27 60 -62 60c-6 0 -13 -1 -17 -3l-3 -2c-1 -1 -4 -1 -8 -1c-17 0 -28 21 -17 36l82 108h-99
c-15 0 -26 9 -26 22c0 15 11 27 26 27h137c15 0 24 -11 24 -29c0 -7 0 -14 -3 -17z" />
    <glyph glyph-name="foursuperior" unicode="&#x2074;" 
d="M204 462v-55c0 -12 -11 -22 -24 -22c-15 0 -25 10 -25 22v55h-117c-16 0 -26 12 -26 26c0 0 2 8 5 13l96 237c3 8 11 15 19 15c12 0 24 -11 24 -26c0 -4 0 -6 -1 -8c-27 -67 -56 -143 -84 -211h84v91c0 14 10 24 25 24c13 0 24 -10 24 -24v-91h15c13 0 23 -10 23 -23
c0 -12 -10 -23 -23 -23h-15z" />
    <glyph glyph-name="fivesuperior" unicode="&#x2075;" 
d="M224 502c0 -56 -30 -117 -103 -117c-21 0 -101 5 -101 39c0 14 10 25 24 25c3 0 7 -1 13 -5c12 -7 27 -15 54 -15c50 0 65 36 65 71c0 48 -25 70 -57 70c-10 0 -22 -4 -32 -10l-13 -8c-5 -3 -8 -6 -16 -6c-13 0 -25 11 -24 25l3 146c0 18 16 28 29 28h118
c13 0 27 -7 27 -25c0 -16 -14 -22 -27 -22h-102l-4 -95c16 8 30 10 42 10c62 0 104 -40 104 -111z" />
    <glyph glyph-name="sixsuperior" unicode="&#x2076;" 
d="M135 703c-52 0 -68 -48 -70 -108c19 11 43 17 62 17c57 0 102 -36 102 -112c0 -63 -34 -115 -106 -115c-83 0 -109 71 -109 171c0 125 38 193 114 193c17 0 81 -3 81 -33c0 -11 -10 -22 -23 -22l-12 3c-11 3 -25 6 -39 6zM64 538v-8c0 -49 12 -98 61 -98
c43 0 57 34 57 67c0 47 -23 67 -57 67c-19 0 -46 -15 -61 -28z" />
    <glyph glyph-name="sevensuperior" unicode="&#x2077;" 
d="M225 718c0 -5 -1 -9 -2 -13l-121 -307c-2 -6 -13 -13 -22 -13c-11 0 -26 9 -24 25c0 0 1 4 2 6l113 280h-127c-14 0 -25 10 -25 23c0 15 10 26 25 26h158c11 0 23 -11 23 -27z" />
    <glyph glyph-name="eightsuperior" unicode="&#x2078;" 
d="M235 489c0 -61 -45 -104 -112 -104c-66 0 -114 42 -114 102c0 41 24 71 56 89c-26 19 -45 42 -45 79c0 57 47 94 102 94c57 0 100 -39 100 -93c0 -34 -12 -58 -40 -77c30 -19 53 -48 53 -90zM176 654c0 31 -24 49 -53 49c-30 0 -54 -18 -54 -49c0 -32 25 -51 53 -56
c28 7 54 28 54 56zM188 490c0 35 -35 57 -67 65c-33 -10 -64 -34 -64 -66c0 -34 29 -60 66 -60s65 27 65 61z" />
    <glyph glyph-name="ninesuperior" unicode="&#x2079;" 
d="M111 429c53 0 68 49 70 108c-19 -13 -41 -17 -62 -17c-57 0 -105 37 -105 111c0 66 33 118 106 118c86 0 109 -70 109 -177c0 -124 -35 -187 -112 -187c-17 0 -80 3 -81 29c-1 19 11 30 24 25l13 -5c7 -3 20 -5 38 -5zM181 592v8c0 58 -16 100 -62 100
c-41 0 -55 -33 -55 -69c0 -43 23 -63 57 -63c22 0 46 12 60 24z" />
    <glyph glyph-name="parenleftsuperior" unicode="&#x207d;" horiz-adv-x="138" 
d="M76 560c0 -64 13 -130 47 -192c2 -4 4 -8 4 -12c0 -12 -8 -24 -23 -24c-8 0 -15 5 -19 11c-38 64 -59 150 -59 217s23 156 59 219c4 8 10 14 19 14c15 0 23 -15 23 -27c0 -4 -1 -7 -4 -12l-1 -2c-33 -59 -46 -126 -46 -192z" />
    <glyph glyph-name="parenrightsuperior" unicode="&#x207e;" horiz-adv-x="137" 
d="M59 560c0 68 -14 135 -48 194l-1 2c-3 4 -4 8 -4 10c0 12 8 27 25 27c9 0 15 -6 21 -14c35 -63 55 -145 55 -219c0 -75 -17 -153 -55 -217c-6 -8 -12 -11 -21 -11c-17 0 -25 12 -25 24c0 0 3 7 7 14c30 57 46 124 46 190z" />
    <glyph glyph-name="hyphensuperior" unicode="&#xf6e6;" horiz-adv-x="199" 
d="M182 537c0 -12 -10 -22 -22 -22h-123c-14 0 -24 10 -24 22c0 14 10 25 24 25h123c12 0 22 -11 22 -25z" />
    <glyph glyph-name="commasuperior" unicode="&#xf6e2;" horiz-adv-x="115" 
d="M86 414c0 -33 -25 -84 -40 -84c-9 0 -16 2 -16 13c0 6 5 17 10 25l9 18c-13 4 -25 14 -25 28c0 19 14 33 33 33c17 0 29 -14 29 -33z" />
    <glyph glyph-name="periodsuperior" unicode="&#xf6e8;" horiz-adv-x="115" 
d="M86 414c0 -17 -12 -29 -29 -29c-19 0 -33 12 -33 29c0 19 14 33 33 33c17 0 29 -14 29 -33z" />
    </font>
</defs>
</svg>
