<?xml version="1.0" standalone="no"?>
<!DOCTYPE svg PUBLIC "-//W3C//DTD SVG 1.1//EN" "http://www.w3.org/Graphics/SVG/1.1/DTD/svg11.dtd" >
<svg xmlns="http://www.w3.org/2000/svg" xmlns:xlink="http://www.w3.org/1999/xlink" version="1.1">
<metadata>
Created by FontForge 20190801 at Mon Mar 19 18:03:38 2012
 By Jimmy Wärting
Copyright (c) 2011, Edgar Tolentino, Pablo Impallari, Igino Marini (impallari.com), with Reserved Font Name Dosis.
</metadata>
<defs>
<font id="Dosis-ExtraLight" horiz-adv-x="455" >
  <font-face 
    font-family="Dosis"
    font-weight="200"
    font-stretch="normal"
    units-per-em="1000"
    panose-1="2 1 2 3 2 2 2 6 0 3"
    ascent="800"
    descent="-200"
    x-height="472"
    cap-height="731"
    bbox="-143 -237 994 1027"
    underline-thickness="26"
    underline-position="-51"
    unicode-range="U+000D-FB02"
  />
<missing-glyph horiz-adv-x="317" 
d="M60 112q0 6 3 10l74 114l-74 115q-3 5 -3 9q0 8 5 13t13 5q9 0 15 -8l66 -102l66 102q5 8 14 8q7 0 12.5 -5t5.5 -13q0 -4 -3 -9l-74 -115l73 -114q3 -4 3 -10q0 -7 -5.5 -12t-12.5 -5q-9 0 -14 8l-65 100l-66 -100q-6 -8 -15 -8q-7 0 -12.5 5t-5.5 12z" />
    <glyph glyph-name="uniFB01" unicode="fi" horiz-adv-x="477" 
d="M69 17v573q0 69 50.5 123.5t139.5 54.5q53 0 99 -18t46 -40q0 -8 -5.5 -13t-10.5 -5q-4 0 -19 10t-43 20.5t-64 10.5q-44 0 -77 -15t-49.5 -38.5t-24 -46t-7.5 -43.5v-118h139q7 0 12.5 -5t5.5 -12t-5.5 -12.5t-12.5 -5.5h-139v-420q0 -7 -5.5 -12t-13.5 -5q-16 0 -16 17
zM375 18v437q0 7 5 12t12 5q18 0 18 -17v-437q0 -7 -5.5 -12.5t-12.5 -5.5t-12 5.5t-5 12.5z" />
    <glyph glyph-name="uniFB02" unicode="fl" horiz-adv-x="487" 
d="M69 17v573q0 79 58 128.5t135 49.5q93 0 148 -70v-680q0 -7 -5.5 -12.5t-12.5 -5.5t-12 5.5t-5 12.5v675q-46 47 -113 47q-63 0 -110.5 -42t-47.5 -108v-118h139q7 0 12.5 -5t5.5 -12t-5.5 -12.5t-12.5 -5.5h-139v-420q0 -7 -5.5 -12t-13.5 -5q-16 0 -16 17z" />
    <glyph glyph-name=".notdef" horiz-adv-x="317" 
d="M60 112q0 6 3 10l74 114l-74 115q-3 5 -3 9q0 8 5 13t13 5q9 0 15 -8l66 -102l66 102q5 8 14 8q7 0 12.5 -5t5.5 -13q0 -4 -3 -9l-74 -115l73 -114q3 -4 3 -10q0 -7 -5.5 -12t-12.5 -5q-9 0 -14 8l-65 100l-66 -100q-6 -8 -15 -8q-7 0 -12.5 5t-5.5 12z" />
    <glyph glyph-name="NULL" horiz-adv-x="0" 
 />
    <glyph glyph-name="NULL" horiz-adv-x="0" 
 />
    <glyph glyph-name="nonmarkingreturn" horiz-adv-x="333" 
 />
    <glyph glyph-name="uni000D" unicode="&#xd;" horiz-adv-x="0" 
 />
    <glyph glyph-name="space" unicode=" " horiz-adv-x="200" 
 />
    <glyph glyph-name="exclam" unicode="!" horiz-adv-x="193" 
d="M61 30q0 15 10 25.5t26 10.5q14 0 24.5 -10.5t10.5 -25.5q0 -14 -10.5 -25t-24.5 -11q-15 0 -25.5 10.5t-10.5 25.5zM70 717q0 31 26 31q12 0 19.5 -8t7.5 -23q0 -90 -5.5 -277t-5.5 -277q0 -7 -5.5 -11.5t-10.5 -4.5q-6 0 -10.5 4.5t-4.5 11.5q0 90 -5.5 277t-5.5 277z
" />
    <glyph glyph-name="quotedbl" unicode="&#x22;" horiz-adv-x="255" 
d="M43 751q0 7 8 12t16 5t16.5 -5t8.5 -12l-10 -152q0 -18 -15 -18q-14 0 -14 18zM163 751q0 7 8 12t16 5t16.5 -5t8.5 -12l-10 -152q0 -18 -15 -18q-14 0 -14 18z" />
    <glyph glyph-name="numbersign" unicode="#" horiz-adv-x="547" 
d="M32 283q0 15 12 15h116l26 177h-105q-18 0 -18 16q0 14 12 14h116l30 198q2 10 12 10q19 0 19 -20l-29 -188h135l30 198q2 10 12 10q19 0 19 -20l-29 -188h107q19 0 19 -15q0 -5 -4 -10t-9 -5h-117l-27 -177h107q19 0 19 -16q0 -5 -4 -9.5t-9 -4.5h-118l-32 -217
q-3 -15 -17 -15q-16 0 -16 19l32 213h-134l-32 -216q-3 -16 -15 -16q-17 0 -17 19l31 213h-104q-18 0 -18 15zM192 298h134l27 177h-134z" />
    <glyph glyph-name="dollar" unicode="$" horiz-adv-x="484" 
d="M44 105q0 7 6 14t11 7t16 -13.5t26 -29.5t51 -29.5t84 -13.5v335l-30 10l-26 10q-22 8 -28.5 12t-24 14t-23.5 18t-17 21t-15 26.5t-8 32t-4 39.5q0 36 11 64.5t28 45.5t41 29t47 17t49 6v31q0 7 5.5 12t12.5 5t12.5 -5t5.5 -12v-30q55 -2 99 -19t44 -33q0 -7 -6 -14.5
t-12 -7.5q-4 0 -19 8.5t-43.5 17.5t-62.5 11v-282q36 -13 60 -26t49.5 -36t38.5 -59.5t13 -85.5q0 -87 -43 -133.5t-118 -55.5v-41q0 -7 -5.5 -12t-12.5 -5t-12.5 5t-5.5 12v39q-45 0 -84 12t-61.5 28.5t-35.5 33t-13 27.5zM98 561q0 -34 10.5 -59t33 -41.5t42.5 -26
t54 -20.5v270q-140 -8 -140 -123zM274 43q125 18 125 149q0 72 -32.5 109t-92.5 61v-319z" />
    <glyph glyph-name="percent" unicode="%" horiz-adv-x="741" 
d="M46 469v155q0 55 31.5 81t83.5 26t83.5 -26t31.5 -81v-155q0 -55 -31.5 -81t-83.5 -26t-83.5 26t-31.5 81zM80 469q0 -76 81 -76q82 0 82 76v155q0 76 -82 76q-81 0 -81 -76v-155zM163 -5q0 6 2 9l391 756q4 8 13 8q6 0 12 -5.5t6 -13.5q0 -5 -3 -11l-388 -747
q-6 -11 -17 -11q-16 0 -16 15zM465 104v155q0 55 31.5 81t83.5 26t83.5 -26t31.5 -81v-155q0 -55 -31.5 -81t-83.5 -26t-83.5 26t-31.5 81zM499 104q0 -76 81 -76q82 0 82 76v155q0 76 -82 76q-81 0 -81 -76v-155z" />
    <glyph glyph-name="ampersand" unicode="&#x26;" horiz-adv-x="595" 
d="M41 199q0 74 40.5 123.5t100.5 74.5q-27 32 -42 53t-29.5 58t-14.5 75q0 77 48 121t119 44q36 0 66.5 -10.5t47 -25.5t25.5 -28.5t9 -22.5q0 -16 -17 -16q-6 0 -14 11l-20 24q-10 14 -35 25t-58 11q-60 0 -94.5 -37t-34.5 -99q0 -50 22.5 -90t66.5 -89l223 -247
q37 84 39 205q0 21 17 21q15 0 15 -23q0 -134 -47 -230l97 -106q5 -7 5 -11q0 -7 -5 -11.5t-11 -4.5t-12 6l-90 97q-68 -107 -198 -107q-102 0 -160.5 60.5t-58.5 148.5zM78 203q0 -74 50.5 -126t137.5 -52q113 0 168 97l-231 249q-26 -14 -42 -24.5t-38 -31.5t-33.5 -49
t-11.5 -63z" />
    <glyph glyph-name="quotesingle" unicode="'" horiz-adv-x="135" 
d="M43 751q0 7 8 12t16 5t16.5 -5t8.5 -12l-10 -152q0 -18 -15 -18q-14 0 -14 18z" />
    <glyph glyph-name="parenleft" unicode="(" horiz-adv-x="278" 
d="M67 143v448q0 71 49.5 124t124.5 53q7 0 12 -5t5 -12t-5 -12.5t-12 -5.5q-63 0 -100.5 -43t-37.5 -99v-448q0 -71 40.5 -99.5t97.5 -28.5q17 0 17 -17q0 -8 -5.5 -13t-11.5 -5q-79 0 -126.5 43.5t-47.5 119.5z" />
    <glyph glyph-name="parenright" unicode=")" horiz-adv-x="278" 
d="M20 -2q0 17 17 17q57 0 97.5 28.5t40.5 99.5v448q0 56 -37.5 99t-100.5 43q-7 0 -12 5.5t-5 12.5t5 12t12 5q75 0 124.5 -53t49.5 -124v-448q0 -76 -47.5 -119.5t-126.5 -43.5q-6 0 -11.5 5t-5.5 13z" />
    <glyph glyph-name="asterisk" unicode="*" horiz-adv-x="416" 
d="M39 602q0 8 5 14t13 6q3 0 5 -1l133 -47l-5 140q0 17 18 17t18 -17l-5 -141l133 48q2 1 6 1q7 0 12 -6.5t5 -13.5q0 -13 -12 -16l-133 -39l85 -112q3 -5 3 -9q0 -8 -6 -13.5t-14 -5.5q-7 0 -13 7l-79 115l-80 -116q-4 -6 -11 -6t-14 5t-7 13q0 6 4 11l84 110l-134 40
q-11 3 -11 16z" />
    <glyph glyph-name="plus" unicode="+" horiz-adv-x="427" 
d="M36 240q0 18 17 18h143v142q0 7 5.5 12.5t12.5 5.5t12 -5.5t5 -12.5v-142h142q7 0 12.5 -5.5t5.5 -12.5t-5.5 -12t-12.5 -5h-142v-143q0 -17 -17 -17q-18 0 -18 17v143h-143q-17 0 -17 17z" />
    <glyph glyph-name="comma" unicode="," horiz-adv-x="162" 
d="M45 30q0 15 10 25.5t25 10.5q14 0 25 -9.5t11 -27.5q0 -15 -31 -95q-5 -11 -16 -11q-16 0 -16 13q0 5 1 8l18 51q-27 7 -27 35z" />
    <glyph glyph-name="hyphen" unicode="-" horiz-adv-x="395" 
d="M50 240q0 18 17 18h260q7 0 12.5 -5.5t5.5 -12.5t-5.5 -12t-12.5 -5h-260q-17 0 -17 17z" />
    <glyph glyph-name="period" unicode="." horiz-adv-x="161" 
d="M45 30q0 15 10 25.5t26 10.5q14 0 24.5 -10.5t10.5 -25.5q0 -14 -10.5 -25t-24.5 -11q-15 0 -25.5 10.5t-10.5 25.5z" />
    <glyph glyph-name="slash" unicode="/" horiz-adv-x="468" 
d="M22 -5q0 6 2 9l391 756q4 8 13 8q6 0 12 -5.5t6 -13.5q0 -5 -3 -11l-388 -747q-5 -11 -17 -11q-16 0 -16 15z" />
    <glyph glyph-name="zero" unicode="0" horiz-adv-x="521" 
d="M65 200v325q0 107 53 156.5t142 49.5t142.5 -49.5t53.5 -156.5v-325q0 -107 -53.5 -156.5t-142.5 -49.5t-142 49.5t-53 156.5zM101 200q0 -85 41 -127.5t118 -42.5t118.5 42.5t41.5 127.5v325q0 85 -41.5 127.5t-118.5 42.5t-118 -42.5t-41 -127.5v-325zM229 362
q0 13 9.5 22t22.5 9t22 -9t9 -22t-9 -22.5t-22 -9.5t-22.5 9.5t-9.5 22.5z" />
    <glyph glyph-name="one" unicode="1" horiz-adv-x="209" 
d="M19 563q0 3 10 23l66 128q9 17 23 17q16 0 16 -17v-696q0 -18 -18 -18t-18 18v621l-43 -80q-7 -13 -18 -13q-7 0 -12.5 5t-5.5 12z" />
    <glyph glyph-name="two" unicode="2" horiz-adv-x="461" 
d="M38 18v97q0 39 25.5 77t64.5 66l82 62l84 64q38 31 63.5 72.5t25.5 86.5q0 60 -40.5 106t-113.5 46q-61 0 -99 -34.5t-38 -97.5q0 -17 -19 -17q-17 0 -17 28q0 66 49.5 111.5t125.5 45.5q84 0 136 -55t52 -132q0 -59 -35.5 -111.5t-86.5 -90.5l-101 -73
q-51 -35 -86.5 -74.5t-35.5 -79.5v-79h338q7 0 12 -5.5t5 -12.5t-5 -12.5t-12 -5.5h-356q-7 0 -12.5 5t-5.5 13z" />
    <glyph glyph-name="three" unicode="3" horiz-adv-x="473" 
d="M33 151q0 28 16 28q19 0 19 -21q0 -18 7 -37.5t22.5 -41t49 -35.5t79.5 -14q78 0 120 42.5t42 127.5v19q0 74 -42 112t-116 38q-19 0 -19 18t18 18q72 0 106.5 33t34.5 110q0 74 -32.5 110.5t-104.5 36.5q-44 0 -75 -13t-45 -33.5t-20 -39.5t-6 -39q0 -24 -18 -24t-18 30
q0 21 7.5 44.5t26 50t58 43.5t93.5 17q170 0 170 -174q0 -130 -84 -171q102 -43 102 -167v-19q0 -106 -53.5 -156t-140.5 -50q-92 0 -144.5 48.5t-52.5 108.5z" />
    <glyph glyph-name="four" unicode="4" horiz-adv-x="417" 
d="M11 196q0 8 3 12l257 509q7 14 20 14q7 0 12 -4.5t5 -11.5q0 -5 -3 -11l-248 -490h232v234q0 17 18 17t18 -17v-234h59q18 0 18 -18t-18 -18h-59v-160q0 -18 -18 -18t-18 18v160h-261q-17 0 -17 18z" />
    <glyph glyph-name="five" unicode="5" horiz-adv-x="459" 
d="M32 159q0 20 17 20q19 0 19 -18q0 -60 45.5 -95.5t113.5 -35.5q77 0 118.5 42.5t41.5 127.5v19q0 82 -41.5 123t-117.5 41h-135q-25 0 -25 14q0 1 0.5 8.5t0.5 8.5l18 299q2 18 18 18h267q15 0 15 -18t-15 -18h-249l-19 -276h124q89 0 142 -48t53 -152v-19
q0 -107 -53.5 -156.5t-142.5 -49.5q-90 0 -142.5 47t-52.5 118z" />
    <glyph glyph-name="six" unicode="6" horiz-adv-x="504" 
d="M65 200v325q0 107 53 156.5t142 49.5t142.5 -48t53.5 -117q0 -20 -17 -20q-19 0 -19 18q0 58 -46 94.5t-114 36.5q-77 0 -118 -42.5t-41 -127.5v-174q52 74 160 74q195 0 195 -196v-29q0 -107 -53 -156.5t-142 -49.5t-142.5 49.5t-53.5 156.5zM101 200q0 -85 41.5 -127.5
t118.5 -42.5t118 42.5t41 127.5v29q0 84 -40.5 122t-118.5 38q-160 0 -160 -151v-38z" />
    <glyph glyph-name="seven" unicode="7" horiz-adv-x="442" 
d="M33 564v149q0 7 5.5 12.5t12.5 5.5h355q6 0 12 -5.5t6 -12.5v-72q0 -5 -2 -8l-318 -623q-5 -10 -15 -10q-20 0 -20 15q0 5 3 11l316 620v49h-319v-131q0 -7 -5.5 -12.5t-12.5 -5.5t-12.5 5t-5.5 13z" />
    <glyph glyph-name="eight" unicode="8" horiz-adv-x="489" 
d="M49 200v12q0 142 104 186q-85 38 -85 159q0 174 177 174t177 -174q0 -121 -85 -159q103 -43 103 -186v-12q0 -106 -53 -156t-142 -50t-142.5 50t-53.5 156zM85 200q0 -85 42 -127.5t119 -42.5q76 0 117 42.5t41 127.5v12q0 84 -41.5 125.5t-117.5 41.5t-118 -41.5
t-42 -125.5v-12zM104 557q0 -141 141 -141t141 141q0 138 -141 138t-141 -138z" />
    <glyph glyph-name="nine" unicode="9" horiz-adv-x="504" 
d="M48 159q0 20 17 20q19 0 19 -18q0 -58 46 -94.5t114 -36.5q77 0 118 42.5t41 127.5v174q-52 -74 -160 -74q-195 0 -195 196v29q0 107 53 156.5t142 49.5t142.5 -49.5t53.5 -156.5v-325q0 -107 -53 -156.5t-142 -49.5t-142.5 48t-53.5 117zM84 496q0 -84 40.5 -122
t118.5 -38q160 0 160 151v38q0 85 -41.5 127.5t-118.5 42.5t-118 -42.5t-41 -127.5v-29z" />
    <glyph glyph-name="colon" unicode=":" horiz-adv-x="193" 
d="M61 30q0 15 10 25.5t26 10.5q14 0 24.5 -10.5t10.5 -25.5q0 -14 -10.5 -25t-24.5 -11q-15 0 -25.5 10.5t-10.5 25.5zM61 386q0 15 10 25.5t26 10.5q14 0 24.5 -10.5t10.5 -25.5q0 -14 -10.5 -25t-24.5 -11q-15 0 -25.5 10.5t-10.5 25.5z" />
    <glyph glyph-name="semicolon" unicode=";" horiz-adv-x="195" 
d="M61 30q0 15 10 25.5t25 10.5q14 0 25 -9.5t11 -27.5q0 -15 -31 -95q-5 -11 -16 -11q-16 0 -16 13q0 5 1 8l18 51q-27 7 -27 35zM62 386q0 15 10 25.5t26 10.5q14 0 24.5 -10.5t10.5 -25.5q0 -14 -10.5 -25t-24.5 -11q-15 0 -25.5 10.5t-10.5 25.5z" />
    <glyph glyph-name="less" unicode="&#x3c;" horiz-adv-x="395" 
d="M30 277q0 11 10 19l275 182q5 3 9 3q7 0 13 -5t6 -12q0 -10 -9 -15l-258 -172l258 -171q9 -5 9 -15q0 -7 -6 -12t-13 -5q-4 0 -9 3l-275 182q-10 6 -10 18z" />
    <glyph glyph-name="equal" unicode="=" horiz-adv-x="431" 
d="M73 176q0 18 17 18h250q7 0 12.5 -5.5t5.5 -12.5t-5.5 -12t-12.5 -5h-250q-17 0 -17 17zM73 379q0 18 17 18h250q7 0 12.5 -5.5t5.5 -12.5t-5.5 -12t-12.5 -5h-250q-17 0 -17 17z" />
    <glyph glyph-name="greater" unicode="&#x3e;" horiz-adv-x="395" 
d="M52 91q0 10 9 15l258 171l-258 172q-9 5 -9 15q0 7 6 12t13 5q5 0 9 -3l275 -182q10 -8 10 -19q0 -12 -10 -18l-275 -182q-4 -3 -9 -3q-7 0 -13 5t-6 12z" />
    <glyph glyph-name="question" unicode="?" horiz-adv-x="383" 
d="M25 690q0 20 43.5 39t95.5 19q89 0 135 -51t46 -131q0 -47 -17 -88t-37 -63t-48.5 -50t-38.5 -40q-18 -23 -22.5 -56t-4.5 -105q0 -17 -17 -17t-17 17q0 85 8 121.5t27 59.5q9 11 38 38.5t46 46.5t32.5 56t15.5 79q0 70 -38 109t-112 39q-37 0 -63.5 -10t-39.5 -20
t-18 -10t-9.5 5t-4.5 12zM124 30q0 15 10.5 25.5t25.5 10.5q14 0 24.5 -10.5t10.5 -25.5t-10 -25.5t-25 -10.5t-25.5 10.5t-10.5 25.5z" />
    <glyph glyph-name="at" unicode="@" horiz-adv-x="707" 
d="M61 220q0 70 17 129t52 105t94.5 72t138.5 26q144 0 220 -81t76 -237q0 -193 -108 -193q-34 0 -60.5 18.5t-33.5 42.5q-29 -27 -54 -38.5t-67 -11.5q-126 0 -126 106q0 64 47 86.5t147 22.5h49v21q0 47 -26 69t-81 22q-39 0 -65 -11.5t-28 -11.5q-8 0 -12.5 6t-4.5 12
q0 16 38 28t81 12q65 0 99 -32.5t34 -92.5v-164q2 -21 22 -36t43 -15q39 0 55.5 47t16.5 112q0 134 -66.5 208t-198.5 74q-72 0 -125 -24t-82.5 -66.5t-43.5 -93t-14 -110.5q0 -56 12.5 -103.5t39 -87t73 -62.5t109.5 -23q40 0 72 8.5t50.5 16.5t23.5 8q6 0 10.5 -4.5
t4.5 -9.5q0 -17 -52.5 -35.5t-111.5 -18.5q-112 0 -188.5 78.5t-76.5 231.5zM245 157q0 -72 89 -72q54 0 86.5 25.5t32.5 55.5v67h-48q-40 0 -64 -2t-48.5 -9t-36 -23t-11.5 -42z" />
    <glyph glyph-name="A" unicode="A" horiz-adv-x="521" 
d="M25 16q0 4 1 6l217 701q4 14 18 14t19 -14l215 -701q0 -1 0.5 -2.5t0.5 -2.5q0 -7 -6 -12t-14 -5q-12 0 -16 13l-51 164h-298l-50 -164q-4 -13 -18 -13q-18 0 -18 16zM122 213h276l-137 448z" />
    <glyph glyph-name="B" unicode="B" horiz-adv-x="527" 
d="M83 17v696q0 18 18 18h150q99 0 152 -35t53 -132q0 -63 -23 -107t-62 -61q103 -43 103 -176v-17q0 -106 -53.5 -154.5t-142.5 -48.5h-177q-18 0 -18 17zM119 36h159q160 0 160 167v17q0 84 -41 121t-119 37h-159v-342zM119 414h139q86 0 124 33t38 117q0 77 -42.5 104
t-124.5 27h-134v-281z" />
    <glyph glyph-name="C" unicode="C" horiz-adv-x="512" 
d="M76 200v325q0 106 55.5 156t143.5 50q91 0 141.5 -46.5t50.5 -110.5q0 -28 -18 -28t-18 18q-1 22 -8 41.5t-22.5 41.5t-48 35t-78.5 13q-162 0 -162 -170v-325q0 -170 166 -170q38 0 66 9.5t42.5 21t25 32.5t13.5 33.5t6 34.5q2 18 18 18q18 0 18 -29q0 -62 -52 -109
t-143 -47q-87 0 -141.5 50t-54.5 156z" />
    <glyph glyph-name="D" unicode="D" horiz-adv-x="550" 
d="M83 17v697q0 17 18 17h177q89 0 142.5 -49.5t53.5 -156.5v-319q0 -107 -53.5 -156.5t-142.5 -49.5h-177q-18 0 -18 17zM119 36h159q77 0 118.5 42.5t41.5 127.5v319q0 85 -41.5 127.5t-118.5 42.5h-159v-659z" />
    <glyph glyph-name="E" unicode="E" horiz-adv-x="498" 
d="M83 18v695q0 18 18 18h356q17 0 17 -17q0 -19 -17 -19h-338v-311h160q17 0 17 -19q0 -17 -17 -17h-160v-312h338q17 0 17 -19q0 -17 -17 -17h-356q-18 0 -18 18z" />
    <glyph glyph-name="F" unicode="F" horiz-adv-x="489" 
d="M83 17v696q0 18 18 18h356q17 0 17 -17q0 -19 -17 -19h-338v-311h160q17 0 17 -19q0 -17 -17 -17h-160v-331q0 -17 -18 -17t-18 17z" />
    <glyph glyph-name="G" unicode="G" horiz-adv-x="531" 
d="M76 200v325q0 107 53 156.5t142 49.5q90 0 143 -47t53 -118q0 -20 -18 -20q-17 0 -18 18q-9 66 -50.5 98.5t-109.5 32.5q-77 0 -118 -42.5t-41 -127.5v-325q0 -85 41 -127.5t118 -42.5t118.5 42.5t41.5 127.5v148h-159q-17 0 -17 18t17 18h178q17 0 17 -19v-165
q0 -107 -53.5 -156.5t-142.5 -49.5t-142 49.5t-53 156.5z" />
    <glyph glyph-name="H" unicode="H" horiz-adv-x="557" 
d="M83 18v696q0 17 18 17t18 -17v-317h319v317q0 17 18 17t18 -17v-696q0 -18 -18 -18t-18 18v343h-319v-343q0 -18 -18 -18t-18 18z" />
    <glyph glyph-name="I" unicode="I" horiz-adv-x="202" 
d="M83 18v696q0 17 18 17t18 -17v-696q0 -18 -18 -18t-18 18z" />
    <glyph glyph-name="J" unicode="J" horiz-adv-x="496" 
d="M26 159q0 20 17 20q19 0 19 -18q0 -64 45 -97.5t115 -33.5q77 0 118 42.5t41 127.5v495h-159q-17 0 -17 19q0 17 17 17h177q18 0 18 -18v-513q0 -107 -53 -156.5t-142 -49.5q-90 0 -143 47t-53 118z" />
    <glyph glyph-name="K" unicode="K" horiz-adv-x="508" 
d="M83 18v696q0 17 18 17t18 -17v-392l323 403q4 6 14 6q7 0 12.5 -6t5.5 -13q0 -6 -4 -10l-231 -287l258 -388q3 -5 3 -9q0 -7 -5.5 -12.5t-13.5 -5.5q-9 0 -15 9l-251 376l-96 -120v-247q0 -18 -18 -18t-18 18z" />
    <glyph glyph-name="L" unicode="L" horiz-adv-x="452" 
d="M83 18v696q0 17 18 17t18 -17v-678h304q15 0 15 -18t-15 -18h-322q-18 0 -18 18z" />
    <glyph glyph-name="M" unicode="M" horiz-adv-x="653" 
d="M83 18v696q0 17 18 17q11 0 31 -36l194 -382l195 382q20 36 31 36q18 0 18 -17v-696q0 -18 -18 -18t-18 18v625l-189 -364q-10 -19 -19 -19q-10 0 -19 19l-188 364v-625q0 -18 -18 -18t-18 18z" />
    <glyph glyph-name="N" unicode="N" horiz-adv-x="557" 
d="M83 18v696q0 17 18 17q11 0 31 -36l306 -606v625q0 17 18 17t18 -17v-696q0 -18 -18 -18q-11 0 -29 36l-308 607v-625q0 -18 -18 -18t-18 18z" />
    <glyph glyph-name="O" unicode="O" horiz-adv-x="543" 
d="M76 200v325q0 107 53 156.5t142 49.5t142.5 -49.5t53.5 -156.5v-325q0 -107 -53.5 -156.5t-142.5 -49.5t-142 49.5t-53 156.5zM112 200q0 -85 41 -127.5t118 -42.5t118.5 42.5t41.5 127.5v325q0 85 -41.5 127.5t-118.5 42.5t-118 -42.5t-41 -127.5v-325z" />
    <glyph glyph-name="P" unicode="P" horiz-adv-x="513" 
d="M83 18v696q0 15 18 17h177q89 0 142.5 -49.5t53.5 -156.5v-12q0 -107 -53.5 -157t-142.5 -50h-159v-288q0 -18 -18 -18t-18 18zM119 342h159q77 0 118.5 43t41.5 128v12q0 85 -41.5 127.5t-118.5 42.5h-159v-353z" />
    <glyph glyph-name="Q" unicode="Q" horiz-adv-x="543" 
d="M76 200v325q0 107 53 156.5t142 49.5t142.5 -49.5t53.5 -156.5v-325q0 -101 -48 -151t-129 -54v-86q0 -18 -18 -18t-18 18v86q-82 4 -130 53.5t-48 151.5zM112 200q0 -161 142 -170v84q0 17 18 17t18 -17v-83q141 10 141 169v325q0 85 -41.5 127.5t-118.5 42.5
t-118 -42.5t-41 -127.5v-325z" />
    <glyph glyph-name="R" unicode="R" horiz-adv-x="509" 
d="M83 18v696q0 15 18 17h167q92 0 149 -45t57 -146q0 -170 -168 -190l165 -321q3 -6 3 -11q0 -8 -5 -13t-13 -5q-4 0 -7.5 2t-7 7t-5.5 8l-4 11q-4 8 -5 8l-160 312h-148v-330q0 -18 -18 -18t-18 18zM119 384h149q79 0 124.5 38t45.5 118t-45.5 117.5t-124.5 37.5h-149
v-311z" />
    <glyph glyph-name="S" unicode="S" horiz-adv-x="481" 
d="M42 95q0 7 6 14t11 7t16 -13.5t25.5 -29.5t49 -29.5t80.5 -13.5q82 0 124.5 41.5t42.5 120.5q0 52 -18.5 87.5t-48.5 54t-66 31.5l-71 25q-36 12 -66 30.5t-48.5 53t-18.5 84.5q0 51 18.5 87.5t50 54t62.5 24.5t66 7q60 0 109 -17t49 -35q0 -7 -6 -14.5t-12 -7.5
q-4 0 -21 9.5t-48.5 19t-71.5 9.5q-42 0 -75.5 -10t-59 -41.5t-25.5 -82.5q0 -43 18.5 -72.5t48.5 -44.5t65.5 -27t71.5 -26.5t66 -35.5t48.5 -61.5t18.5 -98.5q0 -102 -53.5 -151.5t-144.5 -49.5q-45 0 -83.5 12t-61.5 28.5t-35.5 33t-12.5 27.5z" />
    <glyph glyph-name="T" unicode="T" 
d="M14 713q0 7 5 12.5t13 5.5h391q18 0 18 -17q0 -19 -18 -19h-177v-677q0 -18 -18 -18t-18 18v677h-178q-8 0 -13 5.5t-5 12.5z" />
    <glyph glyph-name="U" unicode="U" horiz-adv-x="549" 
d="M79 200v514q0 17 18 17t18 -17v-514q0 -85 41 -127.5t118 -42.5t118.5 42.5t41.5 127.5v514q0 17 18 17t18 -17v-514q0 -107 -53.5 -156.5t-142.5 -49.5t-142 49.5t-53 156.5z" />
    <glyph glyph-name="V" unicode="V" horiz-adv-x="519" 
d="M24 715q0 16 18 16q14 0 18 -13l200 -648l199 648q4 13 16 13q8 0 14 -5t6 -12q0 -1 -0.5 -2.5t-0.5 -2.5l-215 -701q-5 -14 -19 -14t-18 14l-217 701q-1 2 -1 6z" />
    <glyph glyph-name="W" unicode="W" horiz-adv-x="739" 
d="M26 715q0 16 17 16q16 0 19 -13l180 -648l106 385q5 17 22 17q15 0 20 -17l108 -385l179 648q3 13 19 13q17 0 17 -16q0 -3 -1 -6l-195 -701q-5 -14 -19 -14q-15 0 -18 14l-110 392l-109 -392q-5 -14 -19 -14q-15 0 -18 14l-197 701q-1 3 -1 6z" />
    <glyph glyph-name="X" unicode="X" horiz-adv-x="447" 
d="M28 18q0 5 3 11l172 337l-170 334q-5 10 -5 17q0 14 18 14q12 0 30 -36l147 -290l148 290q18 36 30 36q18 0 18 -14q0 -7 -5 -17l-171 -334l173 -337q3 -6 3 -11q0 -8 -5.5 -13t-12.5 -5q-4 0 -7.5 2t-7.5 7q-2 5 -4 8l-6 11l-4 8l-149 291l-148 -291q-1 0 -5 -8l-4 -11
q-2 -3 -5.5 -8t-7 -7t-7.5 -2q-8 0 -13 5t-5 13z" />
    <glyph glyph-name="Y" unicode="Y" horiz-adv-x="509" 
d="M22 715q0 16 13 16q11 0 20 -17l199 -401l200 401q8 17 20 17t12 -16q0 -10 -5 -20l-208 -416q-1 -2 -1 -6v-255q0 -18 -18 -18t-18 18v255q0 4 -1 6l-207 416q-6 12 -6 20z" />
    <glyph glyph-name="Z" unicode="Z" horiz-adv-x="464" 
d="M27 17q0 6 3 12l350 666h-325q-18 0 -18 18t18 18h355q18 0 18 -15q0 -8 -5 -16l-349 -664h346q18 0 18 -18t-18 -18h-375q-18 0 -18 17z" />
    <glyph glyph-name="bracketleft" unicode="[" horiz-adv-x="285" 
d="M74 -4v755q0 7 5.5 12t12.5 5h156q7 0 12 -5t5 -12t-5 -12.5t-12 -5.5h-138v-719h138q7 0 12 -5.5t5 -12.5t-5 -12t-12 -5h-156q-7 0 -12.5 5t-5.5 12z" />
    <glyph glyph-name="backslash" unicode="\" horiz-adv-x="340" 
d="M28 735q0 9 5.5 14t12.5 5q11 0 14 -9l252 -724q1 -2 1 -6q0 -15 -17 -15q-13 0 -17 12l-250 715q-1 3 -1 8z" />
    <glyph glyph-name="bracketright" unicode="]" horiz-adv-x="285" 
d="M20 -4q0 7 5 12.5t12 5.5h138v719h-138q-7 0 -12 5.5t-5 12.5t5 12t12 5h156q7 0 12.5 -5t5.5 -12v-755q0 -7 -5.5 -12t-12.5 -5h-156q-7 0 -12 5t-5 12z" />
    <glyph glyph-name="asciicircum" unicode="^" horiz-adv-x="260" 
d="M0 619q0 9 9 14l104 56q8 5 17 5t17 -5l104 -55q9 -4 9 -17q0 -7 -5 -11.5t-12 -4.5l-9 3l-104 55l-104 -56q-1 0 -4 -1.5t-4 -1.5q-7 0 -12.5 5.5t-5.5 13.5z" />
    <glyph glyph-name="underscore" unicode="_" horiz-adv-x="345" 
d="M-4 -18q0 18 17 18h320q7 0 12.5 -5.5t5.5 -12.5t-5.5 -12t-12.5 -5h-320q-17 0 -17 17z" />
    <glyph glyph-name="grave" unicode="`" horiz-adv-x="133" 
d="M0 676q0 18 16 18q3 0 7 -2l102 -60q8 -4 8 -13q0 -7 -5.5 -12.5t-13.5 -5.5q-4 0 -9 3l-95 54q-10 6 -10 18z" />
    <glyph glyph-name="a" unicode="a" horiz-adv-x="423" 
d="M35 126q0 75 59.5 103.5t173.5 28.5h56v28q0 64 -33 110.5t-99 46.5q-27 0 -50.5 -6.5t-36.5 -13.5t-17 -7q-8 0 -13 7t-5 13q0 15 39.5 28.5t84.5 13.5q86 0 125.5 -54.5t39.5 -137.5v-268q0 -18 -17 -18q-8 0 -13 5t-5 13v52q-66 -76 -150 -76q-62 0 -100.5 33.5
t-38.5 98.5zM70 126q0 -48 28.5 -72.5t74.5 -24.5q54 0 102.5 38t48.5 72v84h-55q-45 0 -75.5 -3t-61.5 -12.5t-46.5 -30t-15.5 -51.5z" />
    <glyph glyph-name="b" unicode="b" horiz-adv-x="468" 
d="M69 18v733q0 17 17 17q18 0 18 -17v-349q43 76 134 76q74 0 127 -53t53 -127v-122q0 -72 -53.5 -127t-124.5 -55q-44 0 -81.5 22t-54.5 54v-52q0 -7 -5.5 -12.5t-12.5 -5.5t-12 5.5t-5 12.5zM104 139q0 -31 42 -70.5t96 -39.5q56 0 98.5 45t42.5 102v122
q0 56 -42.5 100.5t-99.5 44.5q-54 0 -95.5 -40t-41.5 -105v-159z" />
    <glyph glyph-name="c" unicode="c" horiz-adv-x="402" 
d="M52 176v120q0 81 46.5 131.5t136.5 50.5q55 0 93 -20.5t38 -38.5q0 -7 -5.5 -12t-12.5 -5q-5 0 -17.5 10t-36.5 20.5t-59 10.5q-71 0 -109.5 -39t-38.5 -108v-120q0 -69 38.5 -108t110.5 -39q37 0 62.5 10.5t38 20.5t18.5 10q7 0 12 -5t5 -12q0 -19 -39.5 -39t-97.5 -20
q-90 0 -136.5 50t-46.5 132z" />
    <glyph glyph-name="d" unicode="d" horiz-adv-x="468" 
d="M50 176v122q0 74 53 127t127 53q91 0 134 -76v349q0 17 18 17q17 0 17 -17v-733q0 -7 -5 -12.5t-12 -5.5t-12.5 5.5t-5.5 12.5v52q-17 -32 -54.5 -54t-81.5 -22q-71 0 -124.5 55t-53.5 127zM85 176q0 -57 42.5 -102t98.5 -45q54 0 96 39.5t42 70.5v159q0 65 -41.5 105
t-95.5 40q-57 0 -99.5 -44.5t-42.5 -100.5v-122z" />
    <glyph glyph-name="e" unicode="e" horiz-adv-x="445" 
d="M51 176v125q0 72 52.5 124.5t125.5 52.5q72 0 124.5 -51.5t52.5 -128.5q0 -26 -6 -42t-20 -23t-25.5 -8.5t-31.5 -1.5h-237v-47q0 -67 47 -107t122 -40q37 0 62 10.5t37.5 20.5t18.5 10q7 0 12.5 -6t5.5 -12q0 -10 -16 -23.5t-49 -24t-73 -10.5q-89 0 -145.5 50.5
t-56.5 131.5zM86 258h225q37 0 48.5 7t11.5 30q0 57 -40 102.5t-102 45.5q-60 0 -101.5 -42.5t-41.5 -99.5v-43z" />
    <glyph glyph-name="f" unicode="f" horiz-adv-x="289" 
d="M69 17v573q0 72 53 125t125 53h10q7 0 12.5 -5t5.5 -13q0 -17 -18 -17h-10q-59 0 -100.5 -43t-42.5 -100v-118h153q7 0 12.5 -5t5.5 -12t-5.5 -12.5t-12.5 -5.5h-153v-420q0 -7 -5.5 -12t-13.5 -5q-16 0 -16 17z" />
    <glyph glyph-name="g" unicode="g" horiz-adv-x="446" 
d="M32 -108q0 79 91 111q-61 17 -61 71q0 46 49 69q-52 46 -52 126v45q0 73 44.5 118.5t116.5 45.5q73 0 119 -48q14 26 35 43.5t40 17.5q21 0 21 -20q0 -9 -5.5 -14t-12.5 -5q-36 0 -60 -46q25 -35 25 -92v-45q0 -72 -45.5 -119t-117.5 -47q-46 0 -82 21q-40 -18 -40 -48
q0 -23 23.5 -35.5t58.5 -15.5t76 -8.5t76 -14.5t58.5 -35.5t23.5 -68.5q0 -64 -50 -99.5t-137 -35.5q-88 0 -141 35t-53 94zM67 -105q0 -45 42.5 -72.5t116.5 -27.5q73 0 112.5 27.5t39.5 74.5q0 23 -11.5 39.5t-27.5 25.5t-40.5 15t-44 8t-45.5 4t-37 4q-105 -30 -105 -98z
M94 270q0 -58 34 -95t93 -37q57 0 91.5 37t34.5 94v45q0 56 -34 92.5t-93 36.5q-58 0 -92 -36.5t-34 -92.5v-44z" />
    <glyph glyph-name="h" unicode="h" horiz-adv-x="482" 
d="M69 18v733q0 17 17 17q18 0 18 -17v-349q43 76 134 76q74 0 127 -53t53 -127v-280q0 -18 -18 -18q-17 0 -17 18v280q0 56 -42.5 100.5t-99.5 44.5q-54 0 -95.5 -40t-41.5 -105v-280q0 -7 -5.5 -12.5t-12.5 -5.5t-12 5.5t-5 12.5z" />
    <glyph glyph-name="i" unicode="i" horiz-adv-x="171" 
d="M53 660q0 13 9.5 22t22.5 9t22 -9t9 -22t-9 -22.5t-22 -9.5t-22.5 9.5t-9.5 22.5zM68 18v437q0 7 5 12t12 5q18 0 18 -17v-437q0 -7 -5.5 -12.5t-12.5 -5.5t-12 5.5t-5 12.5z" />
    <glyph glyph-name="j" unicode="j" horiz-adv-x="173" 
d="M-36 -219q0 17 18 17q53 0 70 38.5t17 115.5v503q0 17 17 17q18 0 18 -17v-503q0 -189 -122 -189q-7 0 -12.5 5.5t-5.5 12.5zM54 660q0 13 9.5 22t22.5 9t22 -9t9 -22t-9 -22.5t-22 -9.5t-22.5 9.5t-9.5 22.5z" />
    <glyph glyph-name="k" unicode="k" horiz-adv-x="437" 
d="M69 18v733q0 17 17 17q18 0 18 -17v-518l270 235q6 4 10 4q19 0 19 -16q0 -10 -6 -15l-161 -140l185 -273q3 -4 3 -10q0 -7 -5 -12.5t-12 -5.5q-8 0 -14 9l-184 269l-105 -92v-168q0 -7 -5.5 -12.5t-12.5 -5.5t-12 5.5t-5 12.5z" />
    <glyph glyph-name="l" unicode="l" horiz-adv-x="189" 
d="M77 18v733q0 17 17 17q18 0 18 -17v-733q0 -7 -5.5 -12.5t-12.5 -5.5t-12 5.5t-5 12.5z" />
    <glyph glyph-name="m" unicode="m" horiz-adv-x="767" 
d="M68 18v437q0 17 17 17q18 0 18 -17v-53q43 76 134 76q51 0 90.5 -27.5t59.5 -72.5q25 49 66 74.5t86 25.5q67 0 115.5 -49t48.5 -131v-280q0 -7 -5.5 -12.5t-12.5 -5.5t-12 5.5t-5 12.5v280q0 68 -39.5 106.5t-90.5 38.5q-53 0 -94 -39.5t-41 -99.5v-287q0 -17 -18 -17
q-17 0 -17 17v286q0 59 -37.5 99.5t-91.5 40.5t-95 -40t-41 -105v-280q0 -7 -5.5 -12.5t-12.5 -5.5t-12 5.5t-5 12.5z" />
    <glyph glyph-name="n" unicode="n" horiz-adv-x="481" 
d="M68 18v437q0 17 17 17q18 0 18 -17v-53q43 76 134 76q74 0 127 -53t53 -127v-280q0 -18 -18 -18q-17 0 -17 18v280q0 56 -42.5 100.5t-99.5 44.5q-54 0 -95.5 -40t-41.5 -105v-280q0 -7 -5.5 -12.5t-12.5 -5.5t-12 5.5t-5 12.5z" />
    <glyph glyph-name="o" unicode="o" 
d="M50 176v122q0 72 52.5 126t124.5 54t125 -53t53 -127v-122q0 -72 -53.5 -127t-124.5 -55t-124 55t-53 127zM85 176q0 -57 42 -102t100 -45t100.5 45t42.5 102v122q0 56 -42 100.5t-101 44.5t-100.5 -44.5t-41.5 -100.5v-122z" />
    <glyph glyph-name="p" unicode="p" horiz-adv-x="468" 
d="M69 -219v674q0 17 17 17q18 0 18 -17v-53q43 76 134 76q74 0 127 -53t53 -127v-122q0 -72 -53.5 -127t-124.5 -55q-44 0 -81.5 22t-54.5 54v-289q0 -7 -5.5 -12.5t-12.5 -5.5t-12 5.5t-5 12.5zM104 139q0 -31 42 -70.5t96 -39.5q56 0 98.5 45t42.5 102v122
q0 56 -42.5 100.5t-99.5 44.5q-54 0 -95.5 -40t-41.5 -105v-159z" />
    <glyph glyph-name="q" unicode="q" horiz-adv-x="468" 
d="M50 176v122q0 74 53 127t127 53q91 0 134 -76v53q0 17 18 17q17 0 17 -17v-674q0 -7 -5 -12.5t-12 -5.5t-12.5 5.5t-5.5 12.5v289q-17 -32 -54.5 -54t-81.5 -22q-71 0 -124.5 55t-53.5 127zM85 176q0 -57 42.5 -102t98.5 -45q54 0 96 39.5t42 70.5v159q0 65 -41.5 105
t-95.5 40q-57 0 -99.5 -44.5t-42.5 -100.5v-122z" />
    <glyph glyph-name="r" unicode="r" horiz-adv-x="308" 
d="M68 18v437q0 17 17 17q18 0 18 -17v-53q45 76 139 76h37q7 0 12 -5.5t5 -12.5t-5 -12t-12 -5h-37q-56 0 -97.5 -40t-41.5 -105v-280q0 -7 -5.5 -12.5t-12.5 -5.5t-12 5.5t-5 12.5z" />
    <glyph glyph-name="s" unicode="s" horiz-adv-x="373" 
d="M38 59q0 7 4.5 12t9.5 5t15 -8l21 -16q12 -8 37.5 -15.5t57.5 -7.5q59 0 88 23t29 60q0 43 -26 67.5t-63 35.5l-74 23q-37 12 -63 38.5t-26 71.5q0 51 38 90.5t110 39.5q44 0 83 -14t39 -28q0 -6 -5.5 -13t-11.5 -7q-1 0 -34.5 13.5t-69.5 13.5q-58 0 -86 -29.5
t-28 -64.5q0 -36 26 -57t63 -31t74 -22t63 -43t26 -82q0 -56 -40 -88t-111 -32q-62 0 -104 22t-42 43z" />
    <glyph glyph-name="t" unicode="t" horiz-adv-x="272" 
d="M66 139v547q0 7 5.5 12t11.5 5q7 0 12.5 -5t5.5 -12v-214h135q7 0 12 -5.5t5 -12.5t-5 -12t-12 -5h-135v-298q0 -57 25 -80.5t86 -23.5h23q7 0 12 -5t5 -12t-5 -12.5t-12 -5.5h-23q-146 0 -146 139z" />
    <glyph glyph-name="u" unicode="u" horiz-adv-x="483" 
d="M64 174v280q0 7 5.5 12.5t12.5 5.5t12 -5.5t5 -12.5v-280q0 -57 42 -101t101 -44q58 0 100 44t42 101v281q0 7 5.5 12t12.5 5t12 -5t5 -12v-281q0 -72 -52.5 -126t-124.5 -54q-73 0 -125.5 54t-52.5 126z" />
    <glyph glyph-name="v" unicode="v" horiz-adv-x="392" 
d="M19 454q0 8 5.5 13t12.5 5q12 0 17 -11l142 -393l141 387l1 5q2 4 2.5 4.5t2.5 3.5t4.5 3.5t6.5 0.5q7 0 13 -5t6 -12q0 -3 -4 -15l-156 -434q-5 -12 -17 -12t-17 12l-156 434q-4 12 -4 14z" />
    <glyph glyph-name="w" unicode="w" horiz-adv-x="654" 
d="M19 454q0 8 5.5 13t12.5 5q12 0 17 -11l141 -391l115 362q5 13 18 13t18 -13l111 -367l144 396q3 11 16 11q18 0 18 -17q0 -6 -4 -14l-157 -435q-4 -12 -15 -12q-9 0 -14 11l-117 375l-115 -369q-6 -17 -17 -17q-7 0 -10 3t-7 14l-156 430q-4 8 -4 13z" />
    <glyph glyph-name="x" unicode="x" horiz-adv-x="381" 
d="M27 11q0 5 3 10l139 217l-139 213q-3 5 -3 9q0 8 5.5 13t12.5 5q10 0 15 -8l131 -200l132 200q5 8 14 8q7 0 12.5 -5t5.5 -13q0 -4 -3 -9l-140 -213l140 -217q3 -5 3 -10q0 -7 -5.5 -12t-12.5 -5q-9 0 -14 8l-132 203l-131 -203q-6 -8 -15 -8q-7 0 -12.5 5t-5.5 12z" />
    <glyph glyph-name="y" unicode="y" horiz-adv-x="395" 
d="M18 461q0 7 5.5 12t13.5 5q13 0 16 -11l145 -400l144 400q5 11 16 11q18 0 18 -17q0 -4 -1 -6l-160 -442l-20 -55q-6 -16 -21.5 -53t-28 -56t-30 -42t-37.5 -33.5t-42 -10.5q-7 0 -12 5t-5 12q0 18 15 18q17 0 33 8t30 27.5t23.5 34.5t23 48t18.5 46l18 51l-160 442
q-2 4 -2 6z" />
    <glyph glyph-name="z" unicode="z" horiz-adv-x="385" 
d="M26 16q0 8 4 12l267 409h-243q-7 0 -12.5 5t-5.5 12q0 8 5 13t13 5h277q7 0 12.5 -5t5.5 -13q0 -6 -3 -10l-268 -409h263q7 0 12.5 -5.5t5.5 -12.5t-5.5 -12t-12.5 -5h-297q-18 0 -18 16z" />
    <glyph glyph-name="braceleft" unicode="{" horiz-adv-x="285" 
d="M34 384q0 11 9.5 15t20.5 4t20.5 4.5t9.5 14.5q0 8 -10.5 88t-10.5 97q0 65 51.5 113t123.5 48q7 0 12 -5t5 -12t-5 -12.5t-12 -5.5q-60 0 -99.5 -39t-39.5 -90q0 -17 10.5 -95.5t10.5 -86.5q0 -15 -11 -25t-23 -13q34 -11 34 -37q0 -10 -10.5 -104.5t-10.5 -115.5
q0 -31 15 -54.5t38 -35t45 -17t41 -5.5q17 0 17 -17q0 -8 -5.5 -13t-11.5 -5q-75 0 -125 41.5t-50 107.5q0 18 10.5 114t10.5 104q0 10 -9.5 14t-20.5 3.5t-20.5 4t-9.5 15.5z" />
    <glyph glyph-name="bar" unicode="|" horiz-adv-x="184" 
d="M74 -4v755q0 7 5.5 12t12.5 5t12.5 -5t5.5 -12v-755q0 -7 -5.5 -12t-12.5 -5t-12.5 5t-5.5 12z" />
    <glyph glyph-name="braceright" unicode="}" horiz-adv-x="285" 
d="M20 -2q0 17 17 17q19 0 41 5.5t45 17t38 35t15 54.5q0 21 -10.5 115.5t-10.5 104.5q0 14 10.5 23.5t23.5 13.5q-12 3 -23 13t-11 25q0 8 10.5 86.5t10.5 95.5q0 51 -39.5 90t-99.5 39q-7 0 -12 5.5t-5 12.5t5 12t12 5q72 0 123.5 -48t51.5 -113q0 -17 -10.5 -97
t-10.5 -88q0 -10 9.5 -14.5t20.5 -4.5t20.5 -4t9.5 -15t-9.5 -15.5t-20.5 -4t-20.5 -3.5t-9.5 -14q0 -8 10.5 -104t10.5 -114q0 -66 -50 -107.5t-125 -41.5q-6 0 -11.5 5t-5.5 13z" />
    <glyph glyph-name="asciitilde" unicode="~" horiz-adv-x="400" 
d="M53 242q0 19 30.5 35.5t58.5 16.5q24 0 62.5 -18.5t64.5 -18.5q20 0 32.5 8t19.5 16t13 8q14 0 14 -15q0 -21 -28.5 -36t-55.5 -15q-23 0 -61.5 18.5t-67.5 18.5q-19 0 -33 -9t-22.5 -17.5t-13.5 -8.5q-13 0 -13 17z" />
    <glyph glyph-name="uni00A0" unicode="&#xa0;" horiz-adv-x="200" 
 />
    <glyph glyph-name="exclamdown" unicode="&#xa1;" horiz-adv-x="193" 
d="M61 712q0 15 10.5 25.5t25.5 10.5q14 0 24.5 -11t10.5 -25q0 -15 -10.5 -25.5t-24.5 -10.5q-16 0 -26 10.5t-10 25.5zM70 25q0 90 5.5 277t5.5 277q0 7 4.5 11.5t10.5 4.5q5 0 10.5 -4.5t5.5 -11.5q0 -90 5.5 -277t5.5 -277q0 -15 -7.5 -23t-19.5 -8q-26 0 -26 31z" />
    <glyph glyph-name="cent" unicode="&#xa2;" horiz-adv-x="406" 
d="M41 356v20q0 71 35.5 119t106.5 60v122q0 7 5.5 12t12.5 5t12.5 -5t5.5 -12v-119q56 0 99 -18t43 -40q0 -8 -6 -13t-13 -5q-6 0 -18.5 10t-39 20.5t-65.5 10.5v-314q39 0 65.5 10.5t39 20.5t18.5 10q7 0 13 -5t6 -13q0 -23 -44.5 -40.5t-97.5 -17.5v-117q0 -7 -5.5 -12
t-12.5 -5t-12.5 5t-5.5 12v120q-69 11 -105.5 59.5t-36.5 119.5zM76 356q0 -122 107 -143v306q-107 -22 -107 -143v-20z" />
    <glyph glyph-name="sterling" unicode="&#xa3;" horiz-adv-x="461" 
d="M25 18q0 18 18 18h63l46 331h-86q-17 0 -17 17q0 18 17 18h91l27 188q11 73 70 125.5t133 52.5h12q20 0 20 -18q0 -7 -5.5 -12t-14.5 -5h-17q-59 0 -107 -43t-56 -100l-27 -188h163q16 0 16 -18q0 -17 -16 -17h-168l-47 -331h263q16 0 16 -18t-16 -18h-360q-18 0 -18 18z
" />
    <glyph glyph-name="currency" unicode="&#xa4;" horiz-adv-x="489" 
d="M68 316q0 7 5 12l34 34q-38 49 -38 110t37 109l-26 27q-5 5 -5 13q0 7 5.5 12t12.5 5t12 -5l25 -26q50 45 116 45q60 0 110 -40l28 28q5 5 13 5q7 0 12 -5t5 -12q0 -8 -5 -13l-28 -28q43 -49 43 -115q0 -63 -44 -115l29 -29q5 -7 5 -12q0 -6 -5 -11.5t-12 -5.5
q-8 0 -12 5l-29 28q-50 -42 -110 -42q-64 0 -116 47l-33 -33q-5 -5 -12 -5t-12 5t-5 12zM107 472q0 -56 41 -100t98 -44t98.5 44t41.5 100q0 55 -41.5 98.5t-98.5 43.5t-98 -43.5t-41 -98.5z" />
    <glyph glyph-name="yen" unicode="&#xa5;" horiz-adv-x="479" 
d="M27 714q0 6 5 11.5t13 5.5q11 0 17 -10l174 -346l184 346q6 10 17 10q16 0 16 -17q0 -5 -1 -7l-190 -362h122q7 0 12.5 -5.5t5.5 -12.5t-5.5 -12t-12.5 -5h-131v-78h131q7 0 12.5 -5.5t5.5 -12.5t-5.5 -12t-12.5 -5h-131v-180q0 -7 -5 -12t-12 -5t-12.5 5t-5.5 12v180
h-124q-17 0 -17 17q0 18 17 18h124v78h-124q-17 0 -17 17q0 18 17 18h115l-180 362q-2 4 -2 7z" />
    <glyph glyph-name="brokenbar" unicode="&#xa6;" horiz-adv-x="186" 
d="M75 -4v282q0 7 5.5 12t12.5 5t12.5 -5t5.5 -12v-282q0 -7 -5.5 -12t-12.5 -5t-12.5 5t-5.5 12zM75 469v282q0 7 5.5 12t12.5 5t12.5 -5t5.5 -12v-282q0 -7 -5.5 -12t-12.5 -5t-12.5 5t-5.5 12z" />
    <glyph glyph-name="section" unicode="&#xa7;" horiz-adv-x="461" 
d="M52 99q0 20 19 20q17 0 17 -18q0 -46 31.5 -88.5t104.5 -42.5q68 0 105.5 37t37.5 106q0 38 -16.5 63.5t-42.5 38.5t-57.5 23t-63.5 21.5t-58 28.5t-42.5 49t-16.5 78v132q0 53 15.5 91t41 57t51.5 27.5t55 8.5q73 0 112.5 -43t39.5 -115q0 -22 -19 -22t-19 25
q0 43 -25.5 81t-86.5 38q-52 0 -90.5 -35t-38.5 -113q0 -51 30.5 -80t73.5 -43l88 -28q44 -15 74.5 -52t30.5 -99v-130q0 -90 -48 -135.5t-125 -45.5q-79 0 -128.5 47.5t-49.5 117.5zM106 417q0 -44 19.5 -73t51.5 -43.5t65.5 -24.5t69 -26.5t55.5 -39.5v33q0 44 -19.5 73
t-51.5 43t-65.5 24t-69 26.5t-55.5 39.5v-32z" />
    <glyph glyph-name="dieresis" unicode="&#xa8;" horiz-adv-x="170" 
d="M0 630q0 13 8.5 21t21.5 8t21 -8t8 -21t-8 -21.5t-21 -8.5t-21.5 8.5t-8.5 21.5zM111 630q0 13 8.5 21t21.5 8t21 -8t8 -21t-8 -21.5t-21 -8.5t-21.5 8.5t-8.5 21.5z" />
    <glyph glyph-name="copyright" unicode="&#xa9;" horiz-adv-x="728" 
d="M57 358q0 80 28.5 144.5t74.5 103t99.5 59t107.5 20.5t107 -20.5t97.5 -59t72 -102t27.5 -141.5q0 -80 -28.5 -144.5t-74.5 -103t-99.5 -59t-107.5 -20.5t-107 20.5t-97.5 59t-72 102t-27.5 141.5zM92 358q0 -126 74.5 -207t194.5 -81t197.5 81.5t77.5 210.5
q0 126 -74.5 207t-194.5 81t-197.5 -81.5t-77.5 -210.5zM267 283v167q0 59 27.5 87.5t70.5 28.5q45 0 71.5 -26.5t26.5 -64.5q0 -13 -4 -17.5t-14 -4.5q-18 0 -18 14q-3 65 -61 65q-63 0 -63 -82v-167q0 -82 64 -82q18 0 30.5 6t18 18.5t7.5 20.5t4 22t18 14q18 0 18 -22
q0 -39 -27 -65.5t-72 -26.5q-43 0 -70 28t-27 87z" />
    <glyph glyph-name="ordfeminine" unicode="&#xaa;" horiz-adv-x="306" 
d="M39 512q0 47 37 65.5t108 18.5h32v15q0 36 -18.5 62t-56.5 26q-25 0 -45 -9t-21 -9q-15 0 -15 19q0 11 26.5 21t55.5 10q57 0 83.5 -34t26.5 -86v-162q0 -15 -18 -15q-7 0 -12 4.5t-5 10.5v28q-38 -43 -87 -46q-17 0 -25 1q-66 10 -66 80zM75 514q0 -26 15.5 -39.5
t40.5 -13.5q31 0 58 22t27 44v42h-31q-52 0 -81 -11t-29 -44z" />
    <glyph glyph-name="guillemotleft" unicode="&#xab;" horiz-adv-x="361" 
d="M40 277q0 9 5 17l96 178q5 9 17 9q7 0 11.5 -5t4.5 -12q0 -4 -3 -9l-96 -178l96 -177q3 -4 3 -9q0 -7 -5.5 -12t-12.5 -5q-10 0 -15 9l-96 177q-5 8 -5 17zM186 277q0 9 5 17l96 178q5 9 17 9q7 0 11.5 -5t4.5 -12q0 -4 -3 -9l-96 -178l96 -177q3 -4 3 -9q0 -7 -5.5 -12
t-12.5 -5q-10 0 -15 9l-96 177q-5 8 -5 17z" />
    <glyph glyph-name="logicalnot" unicode="&#xac;" horiz-adv-x="479" 
d="M61 240q0 18 17 18h310q7 0 12.5 -5.5t5.5 -12.5v-160q0 -17 -17 -17q-18 0 -18 17v143h-293q-17 0 -17 17z" />
    <glyph glyph-name="uni00AD" unicode="&#xad;" 
d="M50 240q0 18 17 18h320q7 0 12.5 -5.5t5.5 -12.5t-5.5 -12t-12.5 -5h-320q-17 0 -17 17z" />
    <glyph glyph-name="registered" unicode="&#xae;" horiz-adv-x="728" 
d="M57 358q0 80 28.5 144.5t74.5 103t99.5 59t107.5 20.5t107 -20.5t97.5 -59t72 -102t27.5 -141.5q0 -80 -28.5 -144.5t-74.5 -103t-99.5 -59t-107.5 -20.5t-107 20.5t-97.5 59t-72 102t-27.5 141.5zM92 358q0 -126 74.5 -207t194.5 -81t197.5 81.5t77.5 210.5
q0 126 -74.5 207t-194.5 81t-197.5 -81.5t-77.5 -210.5zM275 183v367q0 12 13 14h84q101 0 101 -107q0 -90 -70 -104l69 -159q2 -6 2 -7q0 -7 -6.5 -13t-14.5 -6q-9 0 -17 19l-73 162h-52v-166q0 -14 -18 -14t-18 14zM311 380h61q65 0 65 75t-65 75h-61v-150z" />
    <glyph glyph-name="macron" unicode="&#xaf;" horiz-adv-x="255" 
d="M0 664q0 18 17 18h220q7 0 12.5 -5.5t5.5 -12.5t-5.5 -12t-12.5 -5h-220q-17 0 -17 17z" />
    <glyph glyph-name="degree" unicode="&#xb0;" horiz-adv-x="429" 
d="M37 588q0 72 52.5 126t124.5 54t125 -53t53 -127q0 -72 -53.5 -127t-124.5 -55t-124 55t-53 127zM75 588q0 -56 41 -100t98 -44t98.5 44t41.5 100q0 55 -41.5 98.5t-98.5 43.5t-98 -43.5t-41 -98.5z" />
    <glyph glyph-name="plusminus" unicode="&#xb1;" horiz-adv-x="477" 
d="M61 85q0 18 17 18h320q7 0 12.5 -5.5t5.5 -12.5t-5.5 -12t-12.5 -5h-320q-17 0 -17 17zM61 345q0 18 17 18h143v142q0 7 5.5 12.5t12.5 5.5t12 -5.5t5 -12.5v-142h142q7 0 12.5 -5.5t5.5 -12.5t-5.5 -12t-12.5 -5h-142v-143q0 -17 -17 -17q-18 0 -18 17v143h-143
q-17 0 -17 17z" />
    <glyph glyph-name="uni00B2" unicode="&#xb2;" horiz-adv-x="299" 
d="M37 378v48q0 23 19.5 44.5t47.5 39.5l56 36q28 18 47.5 40.5t19.5 46.5q0 26 -20.5 46t-57.5 20q-31 0 -50 -15t-19 -44q0 -13 -18 -13q-16 0 -16 20q0 37 29.5 60.5t74.5 23.5q48 0 79 -28t31 -69q0 -36 -29.5 -68t-65 -51t-65 -43t-29.5 -46v-30h181q13 0 13 -15
q0 -6 -4 -11t-9 -5h-199q-16 0 -16 13z" />
    <glyph glyph-name="uni00B3" unicode="&#xb3;" horiz-adv-x="306" 
d="M34 445q0 17 15 17q18 0 18 -14q0 -20 19 -37.5t62 -17.5q83 0 83 75v9q0 66 -82 66q-14 0 -14 14q0 15 14 15q36 0 53.5 14.5t17.5 49.5q0 64 -69 64q-41 0 -57.5 -16t-16.5 -37q0 -16 -16 -16q-10 0 -13.5 4t-3.5 15q0 29 24.5 55t83.5 26q101 0 101 -88q0 -66 -46 -85
q57 -21 57 -81v-9q0 -55 -31.5 -80.5t-83.5 -25.5q-54 0 -84.5 25.5t-30.5 57.5z" />
    <glyph glyph-name="acute" unicode="&#xb4;" horiz-adv-x="133" 
d="M0 619q0 9 8 13l102 60q4 2 7 2q16 0 16 -18q0 -12 -10 -18l-95 -54q-4 -3 -9 -3q-8 0 -13.5 5.5t-5.5 12.5z" />
    <glyph glyph-name="uni00B5" unicode="&#xb5;" horiz-adv-x="477" 
d="M77 -220v674q0 7 5 12.5t12 5.5t12.5 -5.5t5.5 -12.5v-304q0 -36 46 -78.5t98 -42.5q53 0 94 45t41 100v280q0 18 17 18q18 0 18 -18v-280q0 -75 -49.5 -127.5t-122.5 -52.5q-48 0 -86 22t-56 54v-290q0 -17 -18 -17q-17 0 -17 17z" />
    <glyph glyph-name="paragraph" unicode="&#xb6;" horiz-adv-x="512" 
d="M38 513v12q0 107 53.5 156.5t142.5 49.5h177q18 0 18 -18v-696q0 -17 -18 -17t-18 17v678h-75v-677q0 -18 -18 -18t-18 18v288h-48q-89 0 -142.5 50t-53.5 157z" />
    <glyph glyph-name="periodcentered" unicode="&#xb7;" horiz-adv-x="176" 
d="M53 300q0 15 10 25.5t26 10.5q14 0 24.5 -10.5t10.5 -25.5q0 -14 -10.5 -25t-24.5 -11q-15 0 -25.5 10.5t-10.5 25.5z" />
    <glyph glyph-name="cedilla" unicode="&#xb8;" horiz-adv-x="156" 
d="M0 -183q0 5 4 11.5t8 6.5l18 -7q18 -6 38 -6q55 0 55 41q0 40 -70 45l-29 2l24 99h32l-18 -74q48 -1 71 -21.5t23 -48.5q0 -29 -22.5 -50.5t-59.5 -21.5q-23 0 -48.5 6.5t-25.5 17.5z" />
    <glyph glyph-name="uni00B9" unicode="&#xb9;" horiz-adv-x="158" 
d="M23 650q0 8 7 15l45 59q5 7 14 7q14 0 14 -13v-340q0 -13 -16 -13q-17 0 -17 13v296l-23 -32q-4 -6 -10 -6t-10 4.5t-4 9.5z" />
    <glyph glyph-name="ordmasculine" unicode="&#xba;" horiz-adv-x="320" 
d="M44 546v70q0 46 34 80.5t82 34.5q47 0 81.5 -34t34.5 -81v-70q0 -46 -35 -81t-81 -35t-81 35t-35 81zM80 546q0 -32 23.5 -57.5t56.5 -25.5q32 0 56 25.5t24 57.5v70q0 32 -23.5 56.5t-56.5 24.5t-56.5 -24.5t-23.5 -56.5v-70z" />
    <glyph glyph-name="guillemotright" unicode="&#xbb;" horiz-adv-x="361" 
d="M41 91q0 5 3 9l96 177l-96 178q-3 5 -3 9q0 7 4.5 12t11.5 5q13 0 17 -9l96 -178q5 -8 5 -17t-5 -17l-96 -177q-5 -9 -15 -9q-7 0 -12.5 5t-5.5 12zM187 91q0 5 3 9l96 177l-96 178q-3 5 -3 9q0 7 4.5 12t11.5 5q13 0 17 -9l96 -178q5 -8 5 -17t-5 -17l-96 -177
q-5 -9 -15 -9q-7 0 -12.5 5t-5.5 12z" />
    <glyph glyph-name="onequarter" unicode="&#xbc;" horiz-adv-x="579" 
d="M35 650q0 8 7 15l45 59q5 7 14 7q14 0 14 -13v-340q0 -13 -16 -13q-17 0 -17 13v296l-23 -32q-4 -6 -10 -6t-10 4.5t-4 9.5zM69 -5q0 6 2 9l391 756q4 8 13 8q6 0 12 -5.5t6 -13.5q0 -5 -3 -11l-388 -747q-6 -11 -17 -11q-16 0 -16 15zM316 100q0 2 2 8l141 247
q6 11 16 11q6 0 11.5 -4t5.5 -10q0 -3 -2 -7l-131 -227h114v96q0 12 16 12q17 0 17 -12v-96h31q14 0 14 -16q0 -6 -4 -11t-10 -5h-31v-73q0 -13 -17 -13q-16 0 -16 13v73h-144q-13 0 -13 14z" />
    <glyph glyph-name="onehalf" unicode="&#xbd;" horiz-adv-x="608" 
d="M39 650q0 8 7 15l45 59q5 7 14 7q14 0 14 -13v-340q0 -13 -16 -13q-17 0 -17 13v296l-23 -32q-4 -6 -10 -6t-10 4.5t-4 9.5zM57 -5q0 6 2 9l391 756q4 8 13 8q6 0 12 -5.5t6 -13.5q0 -5 -3 -11l-388 -747q-6 -11 -17 -11q-16 0 -16 15zM343 13v48q0 23 19.5 44.5
t47.5 39.5l56 36q28 18 47.5 40.5t19.5 46.5q0 26 -20.5 46t-57.5 20q-31 0 -50 -15t-19 -44q0 -13 -18 -13q-16 0 -16 20q0 37 29.5 60.5t74.5 23.5q48 0 79 -28t31 -69q0 -36 -29.5 -68t-65 -51t-65 -43t-29.5 -46v-30h181q13 0 13 -15q0 -6 -4 -11t-9 -5h-199
q-16 0 -16 13z" />
    <glyph glyph-name="threequarters" unicode="&#xbe;" horiz-adv-x="707" 
d="M36 445q0 17 15 17q18 0 18 -14q0 -20 19 -37.5t62 -17.5q83 0 83 75v9q0 66 -82 66q-14 0 -14 14q0 15 14 15q36 0 53.5 14.5t17.5 49.5q0 64 -69 64q-41 0 -57.5 -16t-16.5 -37q0 -16 -16 -16q-10 0 -13.5 4t-3.5 15q0 29 24.5 55t83.5 26q101 0 101 -88q0 -66 -46 -85
q57 -21 57 -81v-9q0 -55 -31.5 -80.5t-83.5 -25.5q-54 0 -84.5 25.5t-30.5 57.5zM192 -5q0 6 2 9l391 756q4 8 13 8q6 0 12 -5.5t6 -13.5q0 -5 -3 -11l-388 -747q-5 -11 -17 -11q-16 0 -16 15zM445 100q0 2 2 8l141 247q6 11 16 11q6 0 11.5 -4t5.5 -10q0 -3 -2 -7
l-131 -227h114v96q0 12 16 12q17 0 17 -12v-96h31q14 0 14 -16q0 -6 -4 -11t-10 -5h-31v-73q0 -13 -17 -13q-16 0 -16 13v73h-144q-13 0 -13 14z" />
    <glyph glyph-name="questiondown" unicode="&#xbf;" horiz-adv-x="383" 
d="M38 176q0 47 17 88t37 63t48.5 50t38.5 40q18 23 22.5 56t4.5 105q0 17 17 17t17 -17q0 -85 -8 -121.5t-27 -59.5q-10 -12 -38 -39t-45.5 -46.5t-33 -56t-15.5 -78.5q0 -70 38 -109t112 -39q37 0 63.5 10t39.5 20t18 10t9.5 -5t4.5 -12q0 -20 -43.5 -39t-95.5 -19
q-89 0 -135 51t-46 131zM188 712q0 15 10 25.5t25 10.5t25.5 -10.5t10.5 -25.5t-10.5 -25.5t-25.5 -10.5q-14 0 -24.5 10.5t-10.5 25.5z" />
    <glyph glyph-name="Agrave" unicode="&#xc0;" horiz-adv-x="521" 
d="M25 16q0 4 1 6l217 701q4 14 18 14t19 -14l215 -701q0 -1 0.5 -2.5t0.5 -2.5q0 -7 -6 -12t-14 -5q-12 0 -16 13l-51 164h-298l-50 -164q-4 -13 -18 -13q-18 0 -18 16zM122 213h276l-137 448zM194 935q0 18 16 18q3 0 7 -2l102 -60q8 -4 8 -13q0 -7 -5.5 -12.5t-13.5 -5.5
q-4 0 -9 3l-95 54q-10 6 -10 18z" />
    <glyph glyph-name="Aacute" unicode="&#xc1;" horiz-adv-x="521" 
d="M25 16q0 4 1 6l217 701q4 14 18 14t19 -14l215 -701q0 -1 0.5 -2.5t0.5 -2.5q0 -7 -6 -12t-14 -5q-12 0 -16 13l-51 164h-298l-50 -164q-4 -13 -18 -13q-18 0 -18 16zM122 213h276l-137 448zM194 878q0 9 8 13l102 60q4 2 7 2q16 0 16 -18q0 -12 -10 -18l-95 -54
q-4 -3 -9 -3q-8 0 -13.5 5.5t-5.5 12.5z" />
    <glyph glyph-name="Acircumflex" unicode="&#xc2;" horiz-adv-x="521" 
d="M25 16q0 4 1 6l217 701q4 14 18 14t19 -14l215 -701q0 -1 0.5 -2.5t0.5 -2.5q0 -7 -6 -12t-14 -5q-12 0 -16 13l-51 164h-298l-50 -164q-4 -13 -18 -13q-18 0 -18 16zM122 213h276l-137 448zM130 878q0 10 9 14l104 56q8 5 17 5t17 -5l104 -55q9 -5 9 -17q0 -7 -5 -11.5
t-12 -4.5l-9 3l-104 55l-104 -56q-1 0 -4 -1.5t-4 -1.5q-7 0 -12.5 5.5t-5.5 13.5z" />
    <glyph glyph-name="Atilde" unicode="&#xc3;" horiz-adv-x="521" 
d="M25 16q0 4 1 6l217 701q4 14 18 14t19 -14l215 -701q0 -1 0.5 -2.5t0.5 -2.5q0 -7 -6 -12t-14 -5q-12 0 -16 13l-51 164h-298l-50 -164q-4 -13 -18 -13q-18 0 -18 16zM113 897q0 19 30.5 35.5t58.5 16.5q24 0 62.5 -18.5t64.5 -18.5q20 0 32.5 8t19.5 16t13 8
q14 0 14 -15q0 -21 -28.5 -36t-55.5 -15q-23 0 -61.5 18.5t-67.5 18.5q-19 0 -33 -8.5t-22.5 -17.5t-13.5 -9q-13 0 -13 17zM122 213h276l-137 448z" />
    <glyph glyph-name="Adieresis" unicode="&#xc4;" horiz-adv-x="521" 
d="M25 16q0 4 1 6l217 701q4 14 18 14t19 -14l215 -701q0 -1 0.5 -2.5t0.5 -2.5q0 -7 -6 -12t-14 -5q-12 0 -16 13l-51 164h-298l-50 -164q-4 -13 -18 -13q-18 0 -18 16zM122 213h276l-137 448zM175 889q0 13 8.5 21t21.5 8t21 -8t8 -21t-8 -21.5t-21 -8.5t-21.5 8.5
t-8.5 21.5zM286 889q0 13 8.5 21t21.5 8t21 -8t8 -21t-8 -21.5t-21 -8.5t-21.5 8.5t-8.5 21.5z" />
    <glyph glyph-name="Aring" unicode="&#xc5;" horiz-adv-x="521" 
d="M25 16q0 4 1 6l217 701q4 14 18 14t19 -14l215 -701q0 -1 0.5 -2.5t0.5 -2.5q0 -7 -6 -12t-14 -5q-12 0 -16 13l-51 164h-298l-50 -164q-4 -13 -18 -13q-18 0 -18 16zM122 213h276l-137 448zM170 936q0 36 26.5 63.5t63.5 27.5q35 0 62.5 -27.5t27.5 -63.5
q0 -37 -27.5 -65t-62.5 -28q-37 0 -63.5 28t-26.5 65zM194 936q0 -27 20 -48.5t46 -21.5t45.5 21.5t19.5 48.5q0 24 -19.5 44.5t-45.5 20.5q-27 0 -46.5 -20.5t-19.5 -44.5z" />
    <glyph glyph-name="AE" unicode="&#xc6;" horiz-adv-x="680" 
d="M79 23v502q0 107 53.5 156.5t142.5 49.5h360q17 0 17 -17q0 -19 -17 -19h-237v-311h160q17 0 17 -19q0 -17 -17 -17h-160v-312h237q17 0 17 -19q0 -17 -17 -17h-255q-18 0 -18 18v330h-247v-325q0 -23 -18 -23t-18 23zM115 384h247v311h-87q-77 0 -118.5 -42.5
t-41.5 -127.5v-141z" />
    <glyph glyph-name="Ccedilla" unicode="&#xc7;" horiz-adv-x="512" 
d="M76 200v325q0 106 55.5 156t143.5 50q91 0 141.5 -46.5t50.5 -110.5q0 -28 -18 -28t-18 18q-1 22 -8 41.5t-22.5 41.5t-48 35t-78.5 13q-162 0 -162 -170v-325q0 -170 166 -170q38 0 66 9.5t42.5 21t25 32.5t13.5 33.5t6 34.5q2 18 18 18q18 0 18 -29q0 -56 -42 -100
t-117 -53l-15 -62q48 -1 71 -21.5t23 -48.5q0 -29 -22.5 -50.5t-59.5 -21.5q-23 0 -48.5 6.5t-25.5 17.5q0 5 4 11.5t8 6.5l18 -7q18 -6 38 -6q55 0 55 41q0 40 -70 45l-29 2l21 84h-4q-87 0 -141.5 50t-54.5 156z" />
    <glyph glyph-name="Egrave" unicode="&#xc8;" horiz-adv-x="498" 
d="M83 18v695q0 18 18 18h356q17 0 17 -17q0 -19 -17 -19h-338v-311h160q17 0 17 -19q0 -17 -17 -17h-160v-312h338q17 0 17 -19q0 -17 -17 -17h-356q-18 0 -18 18zM212 935q0 18 16 18q3 0 7 -2l102 -60q8 -4 8 -13q0 -7 -5.5 -12.5t-13.5 -5.5q-4 0 -9 3l-95 54
q-10 6 -10 18z" />
    <glyph glyph-name="Eacute" unicode="&#xc9;" horiz-adv-x="498" 
d="M83 18v695q0 18 18 18h356q17 0 17 -17q0 -19 -17 -19h-338v-311h160q17 0 17 -19q0 -17 -17 -17h-160v-312h338q17 0 17 -19q0 -17 -17 -17h-356q-18 0 -18 18zM212 878q0 9 8 13l102 60q4 2 7 2q16 0 16 -18q0 -12 -10 -18l-95 -54q-4 -3 -9 -3q-8 0 -13.5 5.5
t-5.5 12.5z" />
    <glyph glyph-name="Ecircumflex" unicode="&#xca;" horiz-adv-x="498" 
d="M83 18v695q0 18 18 18h356q17 0 17 -17q0 -19 -17 -19h-338v-311h160q17 0 17 -19q0 -17 -17 -17h-160v-312h338q17 0 17 -19q0 -17 -17 -17h-356q-18 0 -18 18zM148 878q0 10 9 14l104 56q8 5 17 5t17 -5l104 -55q9 -5 9 -17q0 -7 -5 -11.5t-12 -4.5l-9 3l-104 55
l-104 -56q-1 0 -4 -1.5t-4 -1.5q-7 0 -12.5 5.5t-5.5 13.5z" />
    <glyph glyph-name="Edieresis" unicode="&#xcb;" horiz-adv-x="498" 
d="M83 18v695q0 18 18 18h356q17 0 17 -17q0 -19 -17 -19h-338v-311h160q17 0 17 -19q0 -17 -17 -17h-160v-312h338q17 0 17 -19q0 -17 -17 -17h-356q-18 0 -18 18zM193 889q0 13 8.5 21t21.5 8t21 -8t8 -21t-8 -21.5t-21 -8.5t-21.5 8.5t-8.5 21.5zM304 889q0 13 8.5 21
t21.5 8t21 -8t8 -21t-8 -21.5t-21 -8.5t-21.5 8.5t-8.5 21.5z" />
    <glyph glyph-name="Igrave" unicode="&#xcc;" horiz-adv-x="202" 
d="M34 935q0 18 16 18q3 0 7 -2l102 -60q8 -4 8 -13q0 -7 -5.5 -12.5t-13.5 -5.5q-4 0 -9 3l-95 54q-10 6 -10 18zM83 18v696q0 17 18 17t18 -17v-696q0 -18 -18 -18t-18 18z" />
    <glyph glyph-name="Iacute" unicode="&#xcd;" horiz-adv-x="202" 
d="M34 878q0 9 8 13l102 60q4 2 7 2q16 0 16 -18q0 -12 -10 -18l-95 -54q-4 -3 -9 -3q-8 0 -13.5 5.5t-5.5 12.5zM83 18v696q0 17 18 17t18 -17v-696q0 -18 -18 -18t-18 18z" />
    <glyph glyph-name="Icircumflex" unicode="&#xce;" horiz-adv-x="202" 
d="M-29 878q0 10 9 14l104 56q8 5 17 5t17 -5l104 -55q9 -5 9 -17q0 -7 -5 -11.5t-12 -4.5l-9 3l-104 55l-104 -56q-1 0 -4 -1.5t-4 -1.5q-7 0 -12.5 5.5t-5.5 13.5zM83 18v696q0 17 18 17t18 -17v-696q0 -18 -18 -18t-18 18z" />
    <glyph glyph-name="Idieresis" unicode="&#xcf;" horiz-adv-x="202" 
d="M16 889q0 13 8.5 21t21.5 8t21 -8t8 -21t-8 -21.5t-21 -8.5t-21.5 8.5t-8.5 21.5zM83 18v696q0 17 18 17t18 -17v-696q0 -18 -18 -18t-18 18zM127 889q0 13 8.5 21t21.5 8t21 -8t8 -21t-8 -21.5t-21 -8.5t-21.5 8.5t-8.5 21.5z" />
    <glyph glyph-name="Eth" unicode="&#xd0;" horiz-adv-x="560" 
d="M3 384q0 18 17 18h73v312q0 17 18 17h177q89 0 142.5 -49.5t53.5 -156.5v-319q0 -107 -53.5 -156.5t-142.5 -49.5h-177q-18 0 -18 17v350h-73q-17 0 -17 17zM129 36h159q77 0 118.5 42.5t41.5 127.5v319q0 85 -41.5 127.5t-118.5 42.5h-159v-293h131q7 0 12.5 -5.5
t5.5 -12.5t-5.5 -12t-12.5 -5h-131v-331z" />
    <glyph glyph-name="Ntilde" unicode="&#xd1;" horiz-adv-x="557" 
d="M83 18v696q0 17 18 17q11 0 31 -36l306 -606v625q0 17 18 17t18 -17v-696q0 -18 -18 -18q-11 0 -29 36l-308 607v-625q0 -18 -18 -18t-18 18zM131 897q0 19 30.5 35.5t58.5 16.5q24 0 62.5 -18.5t64.5 -18.5q20 0 32.5 8t19.5 16t13 8q14 0 14 -15q0 -21 -28.5 -36
t-55.5 -15q-23 0 -61.5 18.5t-67.5 18.5q-19 0 -33 -8.5t-22.5 -17.5t-13.5 -9q-13 0 -13 17z" />
    <glyph glyph-name="Ograve" unicode="&#xd2;" horiz-adv-x="543" 
d="M76 200v325q0 107 53 156.5t142 49.5t142.5 -49.5t53.5 -156.5v-325q0 -107 -53.5 -156.5t-142.5 -49.5t-142 49.5t-53 156.5zM112 200q0 -85 41 -127.5t118 -42.5t118.5 42.5t41.5 127.5v325q0 85 -41.5 127.5t-118.5 42.5t-118 -42.5t-41 -127.5v-325zM205 935
q0 18 16 18q3 0 7 -2l102 -60q8 -4 8 -13q0 -7 -5.5 -12.5t-13.5 -5.5q-5 0 -9 3l-95 54q-10 6 -10 18z" />
    <glyph glyph-name="Oacute" unicode="&#xd3;" horiz-adv-x="543" 
d="M76 200v325q0 107 53 156.5t142 49.5t142.5 -49.5t53.5 -156.5v-325q0 -107 -53.5 -156.5t-142.5 -49.5t-142 49.5t-53 156.5zM112 200q0 -85 41 -127.5t118 -42.5t118.5 42.5t41.5 127.5v325q0 85 -41.5 127.5t-118.5 42.5t-118 -42.5t-41 -127.5v-325zM205 878
q0 9 8 13l102 60q4 2 7 2q16 0 16 -18q0 -12 -10 -18l-95 -54q-5 -3 -9 -3q-8 0 -13.5 5.5t-5.5 12.5z" />
    <glyph glyph-name="Ocircumflex" unicode="&#xd4;" horiz-adv-x="543" 
d="M76 200v325q0 107 53 156.5t142 49.5t142.5 -49.5t53.5 -156.5v-325q0 -107 -53.5 -156.5t-142.5 -49.5t-142 49.5t-53 156.5zM112 200q0 -85 41 -127.5t118 -42.5t118.5 42.5t41.5 127.5v325q0 85 -41.5 127.5t-118.5 42.5t-118 -42.5t-41 -127.5v-325zM141 878
q0 10 9 14l104 56q8 5 17 5t17 -5l104 -55q9 -5 9 -17q0 -7 -5 -11.5t-12 -4.5l-9 3l-104 55l-104 -56q-1 0 -4 -1.5t-4 -1.5q-7 0 -12.5 5.5t-5.5 13.5z" />
    <glyph glyph-name="Otilde" unicode="&#xd5;" horiz-adv-x="543" 
d="M76 200v325q0 107 53 156.5t142 49.5t142.5 -49.5t53.5 -156.5v-325q0 -107 -53.5 -156.5t-142.5 -49.5t-142 49.5t-53 156.5zM112 200q0 -85 41 -127.5t118 -42.5t118.5 42.5t41.5 127.5v325q0 85 -41.5 127.5t-118.5 42.5t-118 -42.5t-41 -127.5v-325zM124 897
q0 19 30.5 35.5t58.5 16.5q24 0 62.5 -18.5t64.5 -18.5q20 0 32.5 8t19.5 16t13 8q14 0 14 -15q0 -21 -28.5 -36t-55.5 -15q-23 0 -61.5 18.5t-67.5 18.5q-19 0 -33 -8.5t-22.5 -17.5t-13.5 -9q-13 0 -13 17z" />
    <glyph glyph-name="Odieresis" unicode="&#xd6;" horiz-adv-x="543" 
d="M76 200v325q0 107 53 156.5t142 49.5t142.5 -49.5t53.5 -156.5v-325q0 -107 -53.5 -156.5t-142.5 -49.5t-142 49.5t-53 156.5zM112 200q0 -85 41 -127.5t118 -42.5t118.5 42.5t41.5 127.5v325q0 85 -41.5 127.5t-118.5 42.5t-118 -42.5t-41 -127.5v-325zM186 889
q0 13 8.5 21t21.5 8t21 -8t8 -21t-8 -21.5t-21 -8.5t-21.5 8.5t-8.5 21.5zM297 889q0 13 8.5 21t21.5 8t21 -8t8 -21t-8 -21.5t-21 -8.5t-21.5 8.5t-8.5 21.5z" />
    <glyph glyph-name="multiply" unicode="&#xd7;" horiz-adv-x="393" 
d="M66 162q0 7 5 12l101 101l-101 101q-5 5 -5 13q0 7 5 12t12 5q8 0 13 -5l100 -101l101 101q5 5 13 5q7 0 12 -5t5 -12q0 -8 -5 -13l-101 -101l101 -101q5 -5 5 -12q0 -6 -5 -11.5t-12 -5.5t-12 5l-102 101l-101 -101q-5 -5 -12 -5t-12 5t-5 12z" />
    <glyph glyph-name="Oslash" unicode="&#xd8;" horiz-adv-x="543" 
d="M59 -5q0 6 2 9l40 77q-25 48 -25 119v325q0 107 53 156.5t142 49.5t141 -49l40 78q4 8 13 8q6 0 12 -5.5t6 -13.5q0 -5 -3 -11l-44 -85q31 -52 31 -128v-325q0 -107 -53.5 -156.5t-142.5 -49.5q-99 0 -148 56l-31 -59q-6 -11 -17 -11q-16 0 -16 15zM112 200q0 -43 11 -76
l271 523q-42 48 -123 48q-77 0 -118 -42.5t-41 -127.5v-325zM141 86q40 -56 130 -56q77 0 118.5 42.5t41.5 127.5v325q0 53 -16 88z" />
    <glyph glyph-name="Ugrave" unicode="&#xd9;" horiz-adv-x="549" 
d="M79 200v514q0 17 18 17t18 -17v-514q0 -85 41 -127.5t118 -42.5t118.5 42.5t41.5 127.5v514q0 17 18 17t18 -17v-514q0 -107 -53.5 -156.5t-142.5 -49.5t-142 49.5t-53 156.5zM208 935q0 18 16 18q3 0 7 -2l102 -60q8 -4 8 -13q0 -7 -5.5 -12.5t-13.5 -5.5q-4 0 -9 3
l-95 54q-10 6 -10 18z" />
    <glyph glyph-name="Uacute" unicode="&#xda;" horiz-adv-x="549" 
d="M79 200v514q0 17 18 17t18 -17v-514q0 -85 41 -127.5t118 -42.5t118.5 42.5t41.5 127.5v514q0 17 18 17t18 -17v-514q0 -107 -53.5 -156.5t-142.5 -49.5t-142 49.5t-53 156.5zM208 878q0 9 8 13l102 60q4 2 7 2q16 0 16 -18q0 -12 -10 -18l-95 -54q-4 -3 -9 -3
q-8 0 -13.5 5.5t-5.5 12.5z" />
    <glyph glyph-name="Ucircumflex" unicode="&#xdb;" horiz-adv-x="549" 
d="M79 200v514q0 17 18 17t18 -17v-514q0 -85 41 -127.5t118 -42.5t118.5 42.5t41.5 127.5v514q0 17 18 17t18 -17v-514q0 -107 -53.5 -156.5t-142.5 -49.5t-142 49.5t-53 156.5zM144 878q0 10 9 14l104 56q8 5 17 5t17 -5l104 -55q9 -5 9 -17q0 -7 -5 -11.5t-12 -4.5l-9 3
l-104 55l-104 -56q-1 0 -4 -1.5t-4 -1.5q-7 0 -12.5 5.5t-5.5 13.5z" />
    <glyph glyph-name="Udieresis" unicode="&#xdc;" horiz-adv-x="549" 
d="M79 200v514q0 17 18 17t18 -17v-514q0 -85 41 -127.5t118 -42.5t118.5 42.5t41.5 127.5v514q0 17 18 17t18 -17v-514q0 -107 -53.5 -156.5t-142.5 -49.5t-142 49.5t-53 156.5zM189 889q0 13 8.5 21t21.5 8t21 -8t8 -21t-8 -21.5t-21 -8.5t-21.5 8.5t-8.5 21.5zM300 889
q0 13 8.5 21t21.5 8t21 -8t8 -21t-8 -21.5t-21 -8.5t-21.5 8.5t-8.5 21.5z" />
    <glyph glyph-name="Yacute" unicode="&#xdd;" horiz-adv-x="509" 
d="M22 715q0 16 13 16q11 0 20 -17l199 -401l200 401q8 17 20 17t12 -16q0 -10 -5 -20l-208 -416q-1 -2 -1 -6v-255q0 -18 -18 -18t-18 18v255q0 4 -1 6l-207 416q-6 12 -6 20zM187 878q0 9 8 13l102 60q4 2 7 2q16 0 16 -18q0 -12 -10 -18l-95 -54q-5 -3 -9 -3
q-8 0 -13.5 5.5t-5.5 12.5z" />
    <glyph glyph-name="Thorn" unicode="&#xde;" horiz-adv-x="483" 
d="M83 18v697q0 16 17 16q18 0 18 -17v-172q43 76 143 76q70 0 120.5 -38.5t50.5 -106.5v-192q0 -68 -50.5 -107.5t-115.5 -39.5q-49 0 -92.5 22t-55.5 56v-194q0 -7 -5 -12.5t-12 -5.5t-12.5 5.5t-5.5 12.5zM118 281q0 -42 42 -77t103 -35q54 0 94 29t40 83v192
q0 53 -39.5 81.5t-94.5 28.5q-59 0 -102 -31t-43 -79v-192z" />
    <glyph glyph-name="germandbls" unicode="&#xdf;" horiz-adv-x="528" 
d="M8 454q0 18 17 18h81v118q0 78 38 128t115 50q71 0 114.5 -45t43.5 -134q0 -59 -19 -109.5t-54 -66.5q52 -10 96 -68t44 -130v-19q0 -105 -48.5 -160.5t-116.5 -55.5q-33 0 -71 8.5t-38 27.5q0 7 4.5 12t10.5 5q2 0 28 -11t56 -11q66 0 104.5 47.5t38.5 137.5v19
q0 39 -14 75.5t-54 67t-100 34.5q-17 1 -24 3.5t-7 12.5q0 17 32 19q97 6 97 150q0 74 -31.5 115t-91.5 41q-62 0 -90 -40.5t-28 -102.5v-573q0 -7 -5.5 -12t-13.5 -5q-16 0 -16 17v420h-81q-17 0 -17 17z" />
    <glyph glyph-name="agrave" unicode="&#xe0;" horiz-adv-x="423" 
d="M35 126q0 75 59.5 103.5t173.5 28.5h56v28q0 64 -33 110.5t-99 46.5q-27 0 -50.5 -6.5t-36.5 -13.5t-17 -7q-8 0 -13 7t-5 13q0 15 39.5 28.5t84.5 13.5q86 0 125.5 -54.5t39.5 -137.5v-268q0 -18 -17 -18q-8 0 -13 5t-5 13v52q-66 -76 -150 -76q-62 0 -100.5 33.5
t-38.5 98.5zM70 126q0 -48 28.5 -72.5t74.5 -24.5q54 0 102.5 38t48.5 72v84h-55q-45 0 -75.5 -3t-61.5 -12.5t-46.5 -30t-15.5 -51.5zM130 676q0 18 16 18q3 0 7 -2l102 -60q8 -4 8 -13q0 -7 -5.5 -12.5t-13.5 -5.5q-4 0 -9 3l-95 54q-10 6 -10 18z" />
    <glyph glyph-name="aacute" unicode="&#xe1;" horiz-adv-x="423" 
d="M35 126q0 75 59.5 103.5t173.5 28.5h56v28q0 64 -33 110.5t-99 46.5q-27 0 -50.5 -6.5t-36.5 -13.5t-17 -7q-8 0 -13 7t-5 13q0 15 39.5 28.5t84.5 13.5q86 0 125.5 -54.5t39.5 -137.5v-268q0 -18 -17 -18q-8 0 -13 5t-5 13v52q-66 -76 -150 -76q-62 0 -100.5 33.5
t-38.5 98.5zM70 126q0 -48 28.5 -72.5t74.5 -24.5q54 0 102.5 38t48.5 72v84h-55q-45 0 -75.5 -3t-61.5 -12.5t-46.5 -30t-15.5 -51.5zM130 619q0 9 8 13l102 60q4 2 7 2q16 0 16 -18q0 -12 -10 -18l-95 -54q-4 -3 -9 -3q-8 0 -13.5 5.5t-5.5 12.5z" />
    <glyph glyph-name="acircumflex" unicode="&#xe2;" horiz-adv-x="423" 
d="M35 126q0 75 59.5 103.5t173.5 28.5h56v28q0 64 -33 110.5t-99 46.5q-27 0 -50.5 -6.5t-36.5 -13.5t-17 -7q-8 0 -13 7t-5 13q0 15 39.5 28.5t84.5 13.5q86 0 125.5 -54.5t39.5 -137.5v-268q0 -18 -17 -18q-8 0 -13 5t-5 13v52q-66 -76 -150 -76q-62 0 -100.5 33.5
t-38.5 98.5zM70 126q0 -48 28.5 -72.5t74.5 -24.5q54 0 102.5 38t48.5 72v84h-55q-45 0 -75.5 -3t-61.5 -12.5t-46.5 -30t-15.5 -51.5zM71 619q0 9 9 14l104 56q8 5 17 5t17 -5l104 -55q9 -4 9 -17q0 -7 -5 -11.5t-12 -4.5l-9 3l-104 55l-104 -56q-1 0 -4 -1.5t-4 -1.5
q-7 0 -12.5 5.5t-5.5 13.5z" />
    <glyph glyph-name="atilde" unicode="&#xe3;" horiz-adv-x="423" 
d="M35 126q0 75 59.5 103.5t173.5 28.5h56v28q0 64 -33 110.5t-99 46.5q-27 0 -50.5 -6.5t-36.5 -13.5t-17 -7q-8 0 -13 7t-5 13q0 15 39.5 28.5t84.5 13.5q86 0 125.5 -54.5t39.5 -137.5v-268q0 -18 -17 -18q-8 0 -13 5t-5 13v52q-66 -76 -150 -76q-62 0 -100.5 33.5
t-38.5 98.5zM49 638q0 19 30.5 35.5t58.5 16.5q24 0 62.5 -18.5t64.5 -18.5q20 0 32.5 8t19.5 16t13 8q14 0 14 -15q0 -21 -28.5 -36t-55.5 -15q-23 0 -61.5 18.5t-67.5 18.5q-19 0 -33 -9t-22.5 -17.5t-13.5 -8.5q-13 0 -13 17zM70 126q0 -48 28.5 -72.5t74.5 -24.5
q54 0 102.5 38t48.5 72v84h-55q-45 0 -75.5 -3t-61.5 -12.5t-46.5 -30t-15.5 -51.5z" />
    <glyph glyph-name="adieresis" unicode="&#xe4;" horiz-adv-x="423" 
d="M35 126q0 75 59.5 103.5t173.5 28.5h56v28q0 64 -33 110.5t-99 46.5q-27 0 -50.5 -6.5t-36.5 -13.5t-17 -7q-8 0 -13 7t-5 13q0 15 39.5 28.5t84.5 13.5q86 0 125.5 -54.5t39.5 -137.5v-268q0 -18 -17 -18q-8 0 -13 5t-5 13v52q-66 -76 -150 -76q-62 0 -100.5 33.5
t-38.5 98.5zM70 126q0 -48 28.5 -72.5t74.5 -24.5q54 0 102.5 38t48.5 72v84h-55q-45 0 -75.5 -3t-61.5 -12.5t-46.5 -30t-15.5 -51.5zM112 630q0 13 8.5 21t21.5 8t21 -8t8 -21t-8 -21.5t-21 -8.5t-21.5 8.5t-8.5 21.5zM223 630q0 13 8.5 21t21.5 8t21 -8t8 -21t-8 -21.5
t-21 -8.5t-21.5 8.5t-8.5 21.5z" />
    <glyph glyph-name="aring" unicode="&#xe5;" horiz-adv-x="423" 
d="M35 126q0 75 59.5 103.5t173.5 28.5h56v28q0 64 -33 110.5t-99 46.5q-27 0 -50.5 -6.5t-36.5 -13.5t-17 -7q-8 0 -13 7t-5 13q0 15 39.5 28.5t84.5 13.5q86 0 125.5 -54.5t39.5 -137.5v-268q0 -18 -17 -18q-8 0 -13 5t-5 13v52q-66 -76 -150 -76q-62 0 -100.5 33.5
t-38.5 98.5zM70 126q0 -48 28.5 -72.5t74.5 -24.5q54 0 102.5 38t48.5 72v84h-55q-45 0 -75.5 -3t-61.5 -12.5t-46.5 -30t-15.5 -51.5zM107 677q0 36 26.5 63.5t63.5 27.5q35 0 62.5 -27.5t27.5 -63.5q0 -37 -27.5 -65t-62.5 -28q-37 0 -63.5 28t-26.5 65zM131 677
q0 -27 19.5 -48.5t46.5 -21.5q26 0 45.5 21.5t19.5 48.5q0 24 -19.5 44.5t-45.5 20.5q-27 0 -46.5 -20.5t-19.5 -44.5z" />
    <glyph glyph-name="ae" unicode="&#xe6;" horiz-adv-x="719" 
d="M35 125q0 75 58.5 104t172.5 29h56v29q0 65 -33 111t-102 46q-34 0 -68 -14l-34 -13q-6 0 -11.5 7t-5.5 13q0 15 39.5 28.5t84.5 13.5q114 0 151 -101q23 44 65 72t93 28q30 0 59.5 -10.5t57 -32t44.5 -61t17 -90.5q0 -38 -15.5 -49.5t-67.5 -11.5h-235v-47
q0 -67 46.5 -107t118.5 -40q36 0 61.5 10.5t39 20.5t19.5 10t12 -5t6 -13q0 -21 -50 -39.5t-100 -18.5q-56 0 -103.5 27.5t-69.5 76.5q-29 -54 -75 -79t-95 -25q-58 0 -97 33.5t-39 97.5zM70 124q0 -46 28.5 -70.5t73.5 -24.5q58 0 104 38t46 72v84h-55q-46 0 -76.5 -3
t-60.5 -12.5t-45 -30.5t-15 -53zM361 258h223q38 0 49 7t11 28q0 59 -40 104.5t-102 45.5q-60 0 -100.5 -42t-40.5 -99v-44z" />
    <glyph glyph-name="ccedilla" unicode="&#xe7;" horiz-adv-x="402" 
d="M52 176v120q0 81 46.5 131.5t136.5 50.5q55 0 93 -20.5t38 -38.5q0 -7 -5.5 -12t-12.5 -5q-5 0 -17.5 10t-36.5 20.5t-59 10.5q-71 0 -109.5 -39t-38.5 -108v-120q0 -69 38.5 -108t110.5 -39q37 0 62.5 10.5t38 20.5t18.5 10q7 0 12 -5t5 -12q0 -17 -35 -36t-88 -22
l-14 -60q48 -1 71 -21.5t23 -48.5q0 -29 -22.5 -50.5t-59.5 -21.5q-23 0 -48.5 6.5t-25.5 17.5q0 5 4 11.5t8 6.5l18 -7q18 -6 38 -6q55 0 55 41q0 40 -70 45l-29 2l20 85q-81 4 -123 53.5t-42 127.5z" />
    <glyph glyph-name="egrave" unicode="&#xe8;" horiz-adv-x="445" 
d="M51 176v125q0 72 52.5 124.5t125.5 52.5q72 0 124.5 -51.5t52.5 -128.5q0 -26 -6 -42t-20 -23t-25.5 -8.5t-31.5 -1.5h-237v-47q0 -67 47 -107t122 -40q37 0 62 10.5t37.5 20.5t18.5 10q7 0 12.5 -6t5.5 -12q0 -10 -16 -23.5t-49 -24t-73 -10.5q-89 0 -145.5 50.5
t-56.5 131.5zM86 258h225q37 0 48.5 7t11.5 30q0 57 -40 102.5t-102 45.5q-60 0 -101.5 -42.5t-41.5 -99.5v-43zM162 676q0 18 16 18q3 0 7 -2l102 -60q8 -4 8 -13q0 -7 -5.5 -12.5t-13.5 -5.5q-4 0 -9 3l-95 54q-10 6 -10 18z" />
    <glyph glyph-name="eacute" unicode="&#xe9;" horiz-adv-x="445" 
d="M51 176v125q0 72 52.5 124.5t125.5 52.5q72 0 124.5 -51.5t52.5 -128.5q0 -26 -6 -42t-20 -23t-25.5 -8.5t-31.5 -1.5h-237v-47q0 -67 47 -107t122 -40q37 0 62 10.5t37.5 20.5t18.5 10q7 0 12.5 -6t5.5 -12q0 -10 -16 -23.5t-49 -24t-73 -10.5q-89 0 -145.5 50.5
t-56.5 131.5zM86 258h225q37 0 48.5 7t11.5 30q0 57 -40 102.5t-102 45.5q-60 0 -101.5 -42.5t-41.5 -99.5v-43zM162 619q0 9 8 13l102 60q4 2 7 2q16 0 16 -18q0 -12 -10 -18l-95 -54q-4 -3 -9 -3q-8 0 -13.5 5.5t-5.5 12.5z" />
    <glyph glyph-name="ecircumflex" unicode="&#xea;" horiz-adv-x="445" 
d="M51 176v125q0 72 52.5 124.5t125.5 52.5q72 0 124.5 -51.5t52.5 -128.5q0 -26 -6 -42t-20 -23t-25.5 -8.5t-31.5 -1.5h-237v-47q0 -67 47 -107t122 -40q37 0 62 10.5t37.5 20.5t18.5 10q7 0 12.5 -6t5.5 -12q0 -10 -16 -23.5t-49 -24t-73 -10.5q-89 0 -145.5 50.5
t-56.5 131.5zM86 258h225q37 0 48.5 7t11.5 30q0 57 -40 102.5t-102 45.5q-60 0 -101.5 -42.5t-41.5 -99.5v-43zM98 619q0 9 9 14l104 56q8 5 17 5t17 -5l104 -55q9 -4 9 -17q0 -7 -5 -11.5t-12 -4.5l-9 3l-104 55l-104 -56q-1 0 -4 -1.5t-4 -1.5q-7 0 -12.5 5.5t-5.5 13.5z
" />
    <glyph glyph-name="edieresis" unicode="&#xeb;" horiz-adv-x="445" 
d="M51 176v125q0 72 52.5 124.5t125.5 52.5q72 0 124.5 -51.5t52.5 -128.5q0 -26 -6 -42t-20 -23t-25.5 -8.5t-31.5 -1.5h-237v-47q0 -67 47 -107t122 -40q37 0 62 10.5t37.5 20.5t18.5 10q7 0 12.5 -6t5.5 -12q0 -10 -16 -23.5t-49 -24t-73 -10.5q-89 0 -145.5 50.5
t-56.5 131.5zM86 258h225q37 0 48.5 7t11.5 30q0 57 -40 102.5t-102 45.5q-60 0 -101.5 -42.5t-41.5 -99.5v-43zM143 630q0 13 8.5 21t21.5 8t21 -8t8 -21t-8 -21.5t-21 -8.5t-21.5 8.5t-8.5 21.5zM254 630q0 13 8.5 21t21.5 8t21 -8t8 -21t-8 -21.5t-21 -8.5t-21.5 8.5
t-8.5 21.5z" />
    <glyph glyph-name="igrave" unicode="&#xec;" horiz-adv-x="171" 
d="M18 676q0 18 16 18q3 0 7 -2l102 -60q8 -4 8 -13q0 -7 -5.5 -12.5t-13.5 -5.5q-4 0 -9 3l-95 54q-10 6 -10 18zM68 18v437q0 7 5 12t12 5q18 0 18 -17v-437q0 -7 -5.5 -12.5t-12.5 -5.5t-12 5.5t-5 12.5z" />
    <glyph glyph-name="iacute" unicode="&#xed;" horiz-adv-x="171" 
d="M18 619q0 9 8 13l102 60q4 2 7 2q16 0 16 -18q0 -12 -10 -18l-95 -54q-4 -3 -9 -3q-8 0 -13.5 5.5t-5.5 12.5zM68 18v437q0 7 5 12t12 5q18 0 18 -17v-437q0 -7 -5.5 -12.5t-12.5 -5.5t-12 5.5t-5 12.5z" />
    <glyph glyph-name="icircumflex" unicode="&#xee;" horiz-adv-x="171" 
d="M-45 619q0 9 9 14l104 56q8 5 17 5t17 -5l104 -55q9 -4 9 -17q0 -7 -5 -11.5t-12 -4.5l-9 3l-104 55l-104 -56q-1 0 -4 -1.5t-4 -1.5q-7 0 -12.5 5.5t-5.5 13.5zM68 18v437q0 7 5 12t12 5q18 0 18 -17v-437q0 -7 -5.5 -12.5t-12.5 -5.5t-12 5.5t-5 12.5z" />
    <glyph glyph-name="idieresis" unicode="&#xef;" horiz-adv-x="171" 
d="M1 630q0 13 8.5 21t21.5 8t21 -8t8 -21t-8 -21.5t-21 -8.5t-21.5 8.5t-8.5 21.5zM68 18v437q0 7 5 12t12 5q18 0 18 -17v-437q0 -7 -5.5 -12.5t-12.5 -5.5t-12 5.5t-5 12.5zM112 630q0 13 8.5 21t21.5 8t21 -8t8 -21t-8 -21.5t-21 -8.5t-21.5 8.5t-8.5 21.5z" />
    <glyph glyph-name="eth" unicode="&#xf0;" horiz-adv-x="468" 
d="M50 176v122q0 72 52.5 126t124.5 54q46 0 88.5 -23.5t54.5 -62.5q-14 153 -83 246l-98 -56q-5 -3 -9 -3q-7 0 -12 6t-5 13q0 10 9 14l92 53q-63 66 -137 66q-12 0 -12 17q0 20 24 20q81 0 157 -85l80 46q4 2 7 2q7 0 12.5 -5t5.5 -12q0 -10 -9 -15l-74 -43
q87 -117 87 -291v-189q0 -72 -53.5 -127t-124.5 -55t-124 55t-53 127zM85 176q0 -57 42 -102t100 -45t100.5 45t42.5 102v127q0 54 -42.5 97t-100.5 43q-59 0 -100.5 -44.5t-41.5 -100.5v-122z" />
    <glyph glyph-name="ntilde" unicode="&#xf1;" horiz-adv-x="481" 
d="M68 18v437q0 17 17 17q18 0 18 -17v-53q43 76 134 76q74 0 127 -53t53 -127v-280q0 -18 -18 -18q-17 0 -17 18v280q0 56 -42.5 100.5t-99.5 44.5q-54 0 -95.5 -40t-41.5 -105v-280q0 -7 -5.5 -12.5t-12.5 -5.5t-12 5.5t-5 12.5zM90 638q0 19 30.5 35.5t58.5 16.5
q24 0 62.5 -18.5t64.5 -18.5q20 0 32.5 8t19.5 16t13 8q14 0 14 -15q0 -21 -28.5 -36t-55.5 -15q-23 0 -61.5 18.5t-67.5 18.5q-19 0 -33 -9t-22.5 -17.5t-13.5 -8.5q-13 0 -13 17z" />
    <glyph glyph-name="ograve" unicode="&#xf2;" 
d="M50 176v122q0 72 52.5 126t124.5 54t125 -53t53 -127v-122q0 -72 -53.5 -127t-124.5 -55t-124 55t-53 127zM85 176q0 -57 42 -102t100 -45t100.5 45t42.5 102v122q0 56 -42 100.5t-101 44.5t-100.5 -44.5t-41.5 -100.5v-122zM161 676q0 18 16 18q3 0 7 -2l102 -60
q8 -4 8 -13q0 -7 -5.5 -12.5t-13.5 -5.5q-5 0 -9 3l-95 54q-10 6 -10 18z" />
    <glyph glyph-name="oacute" unicode="&#xf3;" 
d="M50 176v122q0 72 52.5 126t124.5 54t125 -53t53 -127v-122q0 -72 -53.5 -127t-124.5 -55t-124 55t-53 127zM85 176q0 -57 42 -102t100 -45t100.5 45t42.5 102v122q0 56 -42 100.5t-101 44.5t-100.5 -44.5t-41.5 -100.5v-122zM161 619q0 9 8 13l102 60q4 2 7 2
q16 0 16 -18q0 -12 -10 -18l-95 -54q-5 -3 -9 -3q-8 0 -13.5 5.5t-5.5 12.5z" />
    <glyph glyph-name="ocircumflex" unicode="&#xf4;" 
d="M50 176v122q0 72 52.5 126t124.5 54t125 -53t53 -127v-122q0 -72 -53.5 -127t-124.5 -55t-124 55t-53 127zM85 176q0 -57 42 -102t100 -45t100.5 45t42.5 102v122q0 56 -42 100.5t-101 44.5t-100.5 -44.5t-41.5 -100.5v-122zM97 619q0 9 9 14l104 56q8 5 17 5t17 -5
l104 -55q9 -4 9 -17q0 -7 -5 -11.5t-12 -4.5l-9 3l-104 55l-104 -56q-1 0 -4 -1.5t-4 -1.5q-7 0 -12.5 5.5t-5.5 13.5z" />
    <glyph glyph-name="otilde" unicode="&#xf5;" 
d="M50 176v122q0 72 52.5 126t124.5 54t125 -53t53 -127v-122q0 -72 -53.5 -127t-124.5 -55t-124 55t-53 127zM80 638q0 19 30.5 35.5t58.5 16.5q24 0 62.5 -18.5t64.5 -18.5q20 0 32.5 8t19.5 16t13 8q14 0 14 -15q0 -21 -28.5 -36t-55.5 -15q-23 0 -61.5 18.5t-67.5 18.5
q-19 0 -33 -9t-22.5 -17.5t-13.5 -8.5q-13 0 -13 17zM85 176q0 -57 42 -102t100 -45t100.5 45t42.5 102v122q0 56 -42 100.5t-101 44.5t-100.5 -44.5t-41.5 -100.5v-122z" />
    <glyph glyph-name="odieresis" unicode="&#xf6;" 
d="M50 176v122q0 72 52.5 126t124.5 54t125 -53t53 -127v-122q0 -72 -53.5 -127t-124.5 -55t-124 55t-53 127zM85 176q0 -57 42 -102t100 -45t100.5 45t42.5 102v122q0 56 -42 100.5t-101 44.5t-100.5 -44.5t-41.5 -100.5v-122zM142 630q0 13 8.5 21t21.5 8t21 -8t8 -21
t-8 -21.5t-21 -8.5t-21.5 8.5t-8.5 21.5zM253 630q0 13 8.5 21t21.5 8t21 -8t8 -21t-8 -21.5t-21 -8.5t-21.5 8.5t-8.5 21.5z" />
    <glyph glyph-name="divide" unicode="&#xf7;" horiz-adv-x="461" 
d="M53 240q0 18 17 18h320q7 0 12.5 -5.5t5.5 -12.5t-5.5 -12t-12.5 -5h-320q-17 0 -17 17zM183 80q0 17 13 30t31 13q17 0 30 -13t13 -30t-13 -30t-30 -13q-18 0 -31 13t-13 30zM183 401q0 17 13 30t31 13q17 0 30 -13t13 -30t-13 -30t-30 -13q-18 0 -31 13t-13 30z" />
    <glyph glyph-name="oslash" unicode="&#xf8;" 
d="M50 176v122q0 72 52.5 126t124.5 54q47 0 89 -25l25 48q4 8 13 8q6 0 12 -5.5t6 -13.5q0 -5 -3 -11l-25 -47q61 -54 61 -134v-122q0 -72 -53.5 -127t-124.5 -55q-49 0 -93 29l-23 -44q-5 -11 -17 -11q-16 0 -16 15q0 6 2 9l27 53q-57 55 -57 131zM85 176q0 -56 38 -99
l177 344q-33 22 -73 22q-59 0 -100.5 -44.5t-41.5 -100.5v-122zM149 54q34 -25 78 -25q58 0 100.5 45t42.5 102v122q0 58 -43 101z" />
    <glyph glyph-name="ugrave" unicode="&#xf9;" horiz-adv-x="483" 
d="M64 174v280q0 7 5.5 12.5t12.5 5.5t12 -5.5t5 -12.5v-280q0 -57 42 -101t101 -44q58 0 100 44t42 101v281q0 7 5.5 12t12.5 5t12 -5t5 -12v-281q0 -72 -52.5 -126t-124.5 -54q-73 0 -125.5 54t-52.5 126zM175 676q0 18 16 18q3 0 7 -2l102 -60q8 -4 8 -13
q0 -7 -5.5 -12.5t-13.5 -5.5q-5 0 -9 3l-95 54q-10 6 -10 18z" />
    <glyph glyph-name="uacute" unicode="&#xfa;" horiz-adv-x="483" 
d="M64 174v280q0 7 5.5 12.5t12.5 5.5t12 -5.5t5 -12.5v-280q0 -57 42 -101t101 -44q58 0 100 44t42 101v281q0 7 5.5 12t12.5 5t12 -5t5 -12v-281q0 -72 -52.5 -126t-124.5 -54q-73 0 -125.5 54t-52.5 126zM175 619q0 9 8 13l102 60q4 2 7 2q16 0 16 -18q0 -12 -10 -18
l-95 -54q-5 -3 -9 -3q-8 0 -13.5 5.5t-5.5 12.5z" />
    <glyph glyph-name="ucircumflex" unicode="&#xfb;" horiz-adv-x="483" 
d="M64 174v280q0 7 5.5 12.5t12.5 5.5t12 -5.5t5 -12.5v-280q0 -57 42 -101t101 -44q58 0 100 44t42 101v281q0 7 5.5 12t12.5 5t12 -5t5 -12v-281q0 -72 -52.5 -126t-124.5 -54q-73 0 -125.5 54t-52.5 126zM111 619q0 9 9 14l104 56q8 5 17 5t17 -5l104 -55q9 -4 9 -17
q0 -7 -5 -11.5t-12 -4.5l-9 3l-104 55l-104 -56q-1 0 -4 -1.5t-4 -1.5q-7 0 -12.5 5.5t-5.5 13.5z" />
    <glyph glyph-name="udieresis" unicode="&#xfc;" horiz-adv-x="483" 
d="M64 174v280q0 7 5.5 12.5t12.5 5.5t12 -5.5t5 -12.5v-280q0 -57 42 -101t101 -44q58 0 100 44t42 101v281q0 7 5.5 12t12.5 5t12 -5t5 -12v-281q0 -72 -52.5 -126t-124.5 -54q-73 0 -125.5 54t-52.5 126zM156 630q0 13 8.5 21t21.5 8t21 -8t8 -21t-8 -21.5t-21 -8.5
t-21.5 8.5t-8.5 21.5zM267 630q0 13 8.5 21t21.5 8t21 -8t8 -21t-8 -21.5t-21 -8.5t-21.5 8.5t-8.5 21.5z" />
    <glyph glyph-name="yacute" unicode="&#xfd;" horiz-adv-x="395" 
d="M18 461q0 7 5.5 12t13.5 5q13 0 16 -11l145 -400l144 400q5 11 16 11q18 0 18 -17q0 -4 -1 -6l-160 -442l-20 -55q-6 -16 -21.5 -53t-28 -56t-30 -42t-37.5 -33.5t-42 -10.5q-7 0 -12 5t-5 12q0 18 15 18q17 0 33 8t30 27.5t23.5 34.5t23 48t18.5 46l18 51l-160 442
q-2 4 -2 6zM130 619q0 9 8 13l102 60q4 2 7 2q16 0 16 -18q0 -12 -10 -18l-95 -54q-4 -3 -9 -3q-8 0 -13.5 5.5t-5.5 12.5z" />
    <glyph glyph-name="thorn" unicode="&#xfe;" horiz-adv-x="468" 
d="M69 -219v970q0 17 17 17q18 0 18 -17v-349q43 76 134 76q74 0 127 -53t53 -127v-122q0 -72 -53.5 -127t-124.5 -55q-44 0 -81.5 22t-54.5 54v-289q0 -7 -5.5 -12.5t-12.5 -5.5t-12 5.5t-5 12.5zM104 139q0 -31 42 -70.5t96 -39.5q56 0 98.5 45t42.5 102v122
q0 56 -42.5 100.5t-99.5 44.5q-54 0 -95.5 -40t-41.5 -105v-159z" />
    <glyph glyph-name="ydieresis" unicode="&#xff;" horiz-adv-x="395" 
d="M18 461q0 7 5.5 12t13.5 5q13 0 16 -11l145 -400l144 400q5 11 16 11q18 0 18 -17q0 -4 -1 -6l-160 -442l-20 -55q-6 -16 -21.5 -53t-28 -56t-30 -42t-37.5 -33.5t-42 -10.5q-7 0 -12 5t-5 12q0 18 15 18q17 0 33 8t30 27.5t23.5 34.5t23 48t18.5 46l18 51l-160 442
q-2 4 -2 6zM112 630q0 13 8.5 21t21.5 8t21 -8t8 -21t-8 -21.5t-21 -8.5t-21.5 8.5t-8.5 21.5zM223 630q0 13 8.5 21t21.5 8t21 -8t8 -21t-8 -21.5t-21 -8.5t-21.5 8.5t-8.5 21.5z" />
    <glyph glyph-name="Amacron" unicode="&#x100;" horiz-adv-x="521" 
d="M25 16q0 4 1 6l217 701q4 14 18 14t19 -14l215 -701q0 -1 0.5 -2.5t0.5 -2.5q0 -7 -6 -12t-14 -5q-12 0 -16 13l-51 164h-298l-50 -164q-4 -13 -18 -13q-18 0 -18 16zM122 213h276l-137 448zM133 923q0 18 17 18h220q7 0 12.5 -5.5t5.5 -12.5t-5.5 -12t-12.5 -5h-220
q-17 0 -17 17z" />
    <glyph glyph-name="amacron" unicode="&#x101;" horiz-adv-x="423" 
d="M35 126q0 75 59.5 103.5t173.5 28.5h56v28q0 64 -33 110.5t-99 46.5q-27 0 -50.5 -6.5t-36.5 -13.5t-17 -7q-8 0 -13 7t-5 13q0 15 39.5 28.5t84.5 13.5q86 0 125.5 -54.5t39.5 -137.5v-268q0 -18 -17 -18q-8 0 -13 5t-5 13v52q-66 -76 -150 -76q-62 0 -100.5 33.5
t-38.5 98.5zM70 126q0 -48 28.5 -72.5t74.5 -24.5q54 0 102.5 38t48.5 72v84h-55q-45 0 -75.5 -3t-61.5 -12.5t-46.5 -30t-15.5 -51.5zM79 664q0 18 17 18h220q7 0 12.5 -5.5t5.5 -12.5t-5.5 -12t-12.5 -5h-220q-17 0 -17 17z" />
    <glyph glyph-name="Abreve" unicode="&#x102;" horiz-adv-x="521" 
d="M25 16q0 4 1 6l217 701q4 14 18 14t19 -14l215 -701q0 -1 0.5 -2.5t0.5 -2.5q0 -7 -6 -12t-14 -5q-12 0 -16 13l-51 164h-298l-50 -164q-4 -13 -18 -13q-18 0 -18 16zM122 213h276l-137 448zM151 969h32q0 -34 22.5 -58.5t54.5 -24.5q31 0 53.5 24.5t22.5 58.5h33
q0 -44 -33 -76.5t-76 -32.5q-44 0 -76.5 32.5t-32.5 76.5z" />
    <glyph glyph-name="abreve" unicode="&#x103;" horiz-adv-x="423" 
d="M35 126q0 75 59.5 103.5t173.5 28.5h56v28q0 64 -33 110.5t-99 46.5q-27 0 -50.5 -6.5t-36.5 -13.5t-17 -7q-8 0 -13 7t-5 13q0 15 39.5 28.5t84.5 13.5q86 0 125.5 -54.5t39.5 -137.5v-268q0 -18 -17 -18q-8 0 -13 5t-5 13v52q-66 -76 -150 -76q-62 0 -100.5 33.5
t-38.5 98.5zM70 126q0 -48 28.5 -72.5t74.5 -24.5q54 0 102.5 38t48.5 72v84h-55q-45 0 -75.5 -3t-61.5 -12.5t-46.5 -30t-15.5 -51.5zM98 710h32q0 -34 22.5 -58.5t54.5 -24.5q31 0 53.5 24.5t22.5 58.5h33q0 -44 -33 -76.5t-76 -32.5q-44 0 -76.5 32.5t-32.5 76.5z" />
    <glyph glyph-name="Aogonek" unicode="&#x104;" horiz-adv-x="521" 
d="M25 16q0 4 1 6l217 701q4 14 18 14t19 -14l215 -701q0 -1 0.5 -2.5t0.5 -2.5q0 -9 -11 -15q-36 -35 -54 -63.5t-18 -64.5q0 -43 63 -43q18 0 18 -13t-23 -13q-34 0 -60.5 15.5t-26.5 51.5q0 74 74 145l-49 160h-298l-50 -164q-4 -13 -18 -13q-18 0 -18 16zM122 213h276
l-137 448z" />
    <glyph glyph-name="aogonek" unicode="&#x105;" horiz-adv-x="423" 
d="M35 126q0 75 59.5 103.5t173.5 28.5h56v28q0 64 -33 110.5t-99 46.5q-27 0 -50.5 -6.5t-36.5 -13.5t-17 -7q-8 0 -13 7t-5 13q0 15 39.5 28.5t84.5 13.5q86 0 125.5 -54.5t39.5 -137.5v-268q0 -11 -9 -16q-36 -35 -54 -63.5t-18 -64.5q0 -43 63 -43q18 0 18 -13t-23 -13
q-34 0 -60.5 15.5t-26.5 51.5q0 74 75 146v52q-66 -76 -150 -76q-62 0 -100.5 33.5t-38.5 98.5zM70 126q0 -48 28.5 -72.5t74.5 -24.5q54 0 102.5 38t48.5 72v84h-55q-45 0 -75.5 -3t-61.5 -12.5t-46.5 -30t-15.5 -51.5z" />
    <glyph glyph-name="Cacute" unicode="&#x106;" horiz-adv-x="512" 
d="M76 200v325q0 106 55.5 156t143.5 50q91 0 141.5 -46.5t50.5 -110.5q0 -28 -18 -28t-18 18q-1 22 -8 41.5t-22.5 41.5t-48 35t-78.5 13q-162 0 -162 -170v-325q0 -170 166 -170q38 0 66 9.5t42.5 21t25 32.5t13.5 33.5t6 34.5q2 18 18 18q18 0 18 -29q0 -62 -52 -109
t-143 -47q-87 0 -141.5 50t-54.5 156zM205 878q0 9 8 13l102 60q4 2 7 2q16 0 16 -18q0 -12 -10 -18l-95 -54q-5 -3 -9 -3q-8 0 -13.5 5.5t-5.5 12.5z" />
    <glyph glyph-name="cacute" unicode="&#x107;" horiz-adv-x="402" 
d="M52 176v120q0 81 46.5 131.5t136.5 50.5q55 0 93 -20.5t38 -38.5q0 -7 -5.5 -12t-12.5 -5q-5 0 -17.5 10t-36.5 20.5t-59 10.5q-71 0 -109.5 -39t-38.5 -108v-120q0 -69 38.5 -108t110.5 -39q37 0 62.5 10.5t38 20.5t18.5 10q7 0 12 -5t5 -12q0 -19 -39.5 -39t-97.5 -20
q-90 0 -136.5 50t-46.5 132zM145 619q0 9 8 13l102 60q4 2 7 2q16 0 16 -18q0 -12 -10 -18l-95 -54q-5 -3 -9 -3q-8 0 -13.5 5.5t-5.5 12.5z" />
    <glyph glyph-name="Ccircumflex" unicode="&#x108;" horiz-adv-x="512" 
d="M76 200v325q0 106 55.5 156t143.5 50q91 0 141.5 -46.5t50.5 -110.5q0 -28 -18 -28t-18 18q-1 22 -8 41.5t-22.5 41.5t-48 35t-78.5 13q-162 0 -162 -170v-325q0 -170 166 -170q38 0 66 9.5t42.5 21t25 32.5t13.5 33.5t6 34.5q2 18 18 18q18 0 18 -29q0 -62 -52 -109
t-143 -47q-87 0 -141.5 50t-54.5 156zM141 878q0 10 9 14l104 56q8 5 17 5t17 -5l104 -55q9 -5 9 -17q0 -7 -5 -11.5t-12 -4.5l-9 3l-104 55l-104 -56q-1 0 -4 -1.5t-4 -1.5q-7 0 -12.5 5.5t-5.5 13.5z" />
    <glyph glyph-name="ccircumflex" unicode="&#x109;" horiz-adv-x="402" 
d="M52 176v120q0 81 46.5 131.5t136.5 50.5q55 0 93 -20.5t38 -38.5q0 -7 -5.5 -12t-12.5 -5q-5 0 -17.5 10t-36.5 20.5t-59 10.5q-71 0 -109.5 -39t-38.5 -108v-120q0 -69 38.5 -108t110.5 -39q37 0 62.5 10.5t38 20.5t18.5 10q7 0 12 -5t5 -12q0 -19 -39.5 -39t-97.5 -20
q-90 0 -136.5 50t-46.5 132zM82 619q0 9 9 14l104 56q8 5 17 5t17 -5l104 -55q9 -4 9 -17q0 -7 -5 -11.5t-12 -4.5l-9 3l-104 55l-104 -56q-1 0 -4 -1.5t-4 -1.5q-7 0 -12.5 5.5t-5.5 13.5z" />
    <glyph glyph-name="Cdotaccent" unicode="&#x10a;" horiz-adv-x="512" 
d="M76 200v325q0 106 55.5 156t143.5 50q91 0 141.5 -46.5t50.5 -110.5q0 -28 -18 -28t-18 18q-1 22 -8 41.5t-22.5 41.5t-48 35t-78.5 13q-162 0 -162 -170v-325q0 -170 166 -170q38 0 66 9.5t42.5 21t25 32.5t13.5 33.5t6 34.5q2 18 18 18q18 0 18 -29q0 -62 -52 -109
t-143 -47q-87 0 -141.5 50t-54.5 156zM242 889q0 13 8.5 21t21.5 8t21 -8t8 -21t-8 -21.5t-21 -8.5t-21.5 8.5t-8.5 21.5z" />
    <glyph glyph-name="cdotaccent" unicode="&#x10b;" horiz-adv-x="402" 
d="M52 176v120q0 81 46.5 131.5t136.5 50.5q55 0 93 -20.5t38 -38.5q0 -7 -5.5 -12t-12.5 -5q-5 0 -17.5 10t-36.5 20.5t-59 10.5q-71 0 -109.5 -39t-38.5 -108v-120q0 -69 38.5 -108t110.5 -39q37 0 62.5 10.5t38 20.5t18.5 10q7 0 12 -5t5 -12q0 -19 -39.5 -39t-97.5 -20
q-90 0 -136.5 50t-46.5 132zM182 630q0 13 8.5 21t21.5 8t21 -8t8 -21t-8 -21.5t-21 -8.5t-21.5 8.5t-8.5 21.5z" />
    <glyph glyph-name="Ccaron" unicode="&#x10c;" horiz-adv-x="512" 
d="M76 200v325q0 106 55.5 156t143.5 50q91 0 141.5 -46.5t50.5 -110.5q0 -28 -18 -28t-18 18q-1 22 -8 41.5t-22.5 41.5t-48 35t-78.5 13q-162 0 -162 -170v-325q0 -170 166 -170q38 0 66 9.5t42.5 21t25 32.5t13.5 33.5t6 34.5q2 18 18 18q18 0 18 -29q0 -62 -52 -109
t-143 -47q-87 0 -141.5 50t-54.5 156zM141 975q0 6 4.5 10.5t10.5 4.5q9 0 16 -8l98 -103l98 103q7 8 16 8q6 0 10.5 -4.5t4.5 -10.5t-8 -16l-100 -101q-11 -11 -21 -11q-12 0 -21 11l-100 101q-8 10 -8 16z" />
    <glyph glyph-name="ccaron" unicode="&#x10d;" horiz-adv-x="402" 
d="M52 176v120q0 81 46.5 131.5t136.5 50.5q55 0 93 -20.5t38 -38.5q0 -7 -5.5 -12t-12.5 -5q-5 0 -17.5 10t-36.5 20.5t-59 10.5q-71 0 -109.5 -39t-38.5 -108v-120q0 -69 38.5 -108t110.5 -39q37 0 62.5 10.5t38 20.5t18.5 10q7 0 12 -5t5 -12q0 -19 -39.5 -39t-97.5 -20
q-90 0 -136.5 50t-46.5 132zM82 716q0 6 4.5 10.5t10.5 4.5q9 0 16 -8l98 -103l98 103q7 8 16 8q6 0 10.5 -4.5t4.5 -10.5t-8 -16l-100 -101q-11 -11 -21 -11q-12 0 -21 11l-100 101q-8 10 -8 16z" />
    <glyph glyph-name="Dcaron" unicode="&#x10e;" horiz-adv-x="550" 
d="M83 17v697q0 17 18 17h177q89 0 142.5 -49.5t53.5 -156.5v-319q0 -107 -53.5 -156.5t-142.5 -49.5h-177q-18 0 -18 17zM119 36h159q77 0 118.5 42.5t41.5 127.5v319q0 85 -41.5 127.5t-118.5 42.5h-159v-659zM148 975q0 6 4.5 10.5t10.5 4.5q9 0 16 -8l98 -103l98 103
q7 8 16 8q6 0 10.5 -4.5t4.5 -10.5t-8 -16l-100 -101q-11 -11 -21 -11q-12 0 -21 11l-100 101q-8 10 -8 16z" />
    <glyph glyph-name="dcaron" unicode="&#x10f;" horiz-adv-x="468" 
d="M50 176v122q0 74 53 127t127 53q91 0 134 -76v349q0 17 18 17q17 0 17 -17v-733q0 -7 -5 -12.5t-12 -5.5t-12.5 5.5t-5.5 12.5v52q-17 -32 -54.5 -54t-81.5 -22q-71 0 -124.5 55t-53.5 127zM85 176q0 -57 42.5 -102t98.5 -45q54 0 96 39.5t42 70.5v159q0 65 -41.5 105
t-95.5 40q-57 0 -99.5 -44.5t-42.5 -100.5v-122zM462 705q0 15 10 25.5t26 10.5q14 0 24.5 -10.5t10.5 -25.5q0 -31 -33 -97q-5 -10 -14 -10q-16 0 -16 15q0 4 1 6l18 51q-27 7 -27 35z" />
    <glyph glyph-name="Dcroat" unicode="&#x110;" horiz-adv-x="560" 
d="M3 384q0 18 17 18h73v312q0 17 18 17h177q89 0 142.5 -49.5t53.5 -156.5v-319q0 -107 -53.5 -156.5t-142.5 -49.5h-177q-18 0 -18 17v350h-73q-17 0 -17 17zM129 36h159q77 0 118.5 42.5t41.5 127.5v319q0 85 -41.5 127.5t-118.5 42.5h-159v-293h131q7 0 12.5 -5.5
t5.5 -12.5t-5.5 -12t-12.5 -5h-131v-331z" />
    <glyph glyph-name="dcroat" unicode="&#x111;" horiz-adv-x="468" 
d="M50 176v122q0 74 53 127t127 53q91 0 134 -76v181h-138q-17 0 -17 17q0 18 17 18h138v133q0 17 18 17q17 0 17 -17v-133h57q7 0 12.5 -5.5t5.5 -12.5t-5.5 -12t-12.5 -5h-57v-565q0 -7 -5 -12.5t-12 -5.5t-12.5 5.5t-5.5 12.5v52q-17 -32 -54.5 -54t-81.5 -22
q-71 0 -124.5 55t-53.5 127zM85 176q0 -57 42.5 -102t98.5 -45q54 0 96 39.5t42 70.5v159q0 65 -41.5 105t-95.5 40q-57 0 -99.5 -44.5t-42.5 -100.5v-122z" />
    <glyph glyph-name="Emacron" unicode="&#x112;" horiz-adv-x="498" 
d="M83 18v695q0 18 18 18h356q17 0 17 -17q0 -19 -17 -19h-338v-311h160q17 0 17 -19q0 -17 -17 -17h-160v-312h338q17 0 17 -19q0 -17 -17 -17h-356q-18 0 -18 18zM151 923q0 18 17 18h220q7 0 12.5 -5.5t5.5 -12.5t-5.5 -12t-12.5 -5h-220q-17 0 -17 17z" />
    <glyph glyph-name="emacron" unicode="&#x113;" horiz-adv-x="445" 
d="M51 176v125q0 72 52.5 124.5t125.5 52.5q72 0 124.5 -51.5t52.5 -128.5q0 -26 -6 -42t-20 -23t-25.5 -8.5t-31.5 -1.5h-237v-47q0 -67 47 -107t122 -40q37 0 62 10.5t37.5 20.5t18.5 10q7 0 12.5 -6t5.5 -12q0 -10 -16 -23.5t-49 -24t-73 -10.5q-89 0 -145.5 50.5
t-56.5 131.5zM86 258h225q37 0 48.5 7t11.5 30q0 57 -40 102.5t-102 45.5q-60 0 -101.5 -42.5t-41.5 -99.5v-43zM101 664q0 18 17 18h220q7 0 12.5 -5.5t5.5 -12.5t-5.5 -12t-12.5 -5h-220q-17 0 -17 17z" />
    <glyph glyph-name="Ebreve" unicode="&#x114;" horiz-adv-x="498" 
d="M83 18v695q0 18 18 18h356q17 0 17 -17q0 -19 -17 -19h-338v-311h160q17 0 17 -19q0 -17 -17 -17h-160v-312h338q17 0 17 -19q0 -17 -17 -17h-356q-18 0 -18 18zM169 969h32q0 -34 22.5 -58.5t54.5 -24.5q31 0 53.5 24.5t22.5 58.5h33q0 -44 -33 -76.5t-76 -32.5
q-44 0 -76.5 32.5t-32.5 76.5z" />
    <glyph glyph-name="ebreve" unicode="&#x115;" horiz-adv-x="445" 
d="M51 176v125q0 72 52.5 124.5t125.5 52.5q72 0 124.5 -51.5t52.5 -128.5q0 -26 -6 -42t-20 -23t-25.5 -8.5t-31.5 -1.5h-237v-47q0 -67 47 -107t122 -40q37 0 62 10.5t37.5 20.5t18.5 10q7 0 12.5 -6t5.5 -12q0 -10 -16 -23.5t-49 -24t-73 -10.5q-89 0 -145.5 50.5
t-56.5 131.5zM86 258h225q37 0 48.5 7t11.5 30q0 57 -40 102.5t-102 45.5q-60 0 -101.5 -42.5t-41.5 -99.5v-43zM119 710h32q0 -34 22.5 -58.5t54.5 -24.5q31 0 53.5 24.5t22.5 58.5h33q0 -44 -33 -76.5t-76 -32.5q-44 0 -76.5 32.5t-32.5 76.5z" />
    <glyph glyph-name="Edotaccent" unicode="&#x116;" horiz-adv-x="498" 
d="M83 18v695q0 18 18 18h356q17 0 17 -17q0 -19 -17 -19h-338v-311h160q17 0 17 -19q0 -17 -17 -17h-160v-312h338q17 0 17 -19q0 -17 -17 -17h-356q-18 0 -18 18zM249 889q0 13 8.5 21t21.5 8t21 -8t8 -21t-8 -21.5t-21 -8.5t-21.5 8.5t-8.5 21.5z" />
    <glyph glyph-name="edotaccent" unicode="&#x117;" horiz-adv-x="445" 
d="M51 176v125q0 72 52.5 124.5t125.5 52.5q72 0 124.5 -51.5t52.5 -128.5q0 -26 -6 -42t-20 -23t-25.5 -8.5t-31.5 -1.5h-237v-47q0 -67 47 -107t122 -40q37 0 62 10.5t37.5 20.5t18.5 10q7 0 12.5 -6t5.5 -12q0 -10 -16 -23.5t-49 -24t-73 -10.5q-89 0 -145.5 50.5
t-56.5 131.5zM86 258h225q37 0 48.5 7t11.5 30q0 57 -40 102.5t-102 45.5q-60 0 -101.5 -42.5t-41.5 -99.5v-43zM199 630q0 13 8.5 21t21.5 8t21 -8t8 -21t-8 -21.5t-21 -8.5t-21.5 8.5t-8.5 21.5z" />
    <glyph glyph-name="Eogonek" unicode="&#x118;" horiz-adv-x="498" 
d="M83 18v695q0 18 18 18h356q17 0 17 -17q0 -19 -17 -19h-338v-311h160q17 0 17 -19q0 -17 -17 -17h-160v-312h338q17 0 17 -19q0 -13 -10 -16q-71 -67 -71 -127q0 -43 63 -43q18 0 18 -13t-23 -13q-34 0 -60.5 15.5t-26.5 51.5q0 68 57 128h-320q-18 0 -18 18z" />
    <glyph glyph-name="eogonek" unicode="&#x119;" horiz-adv-x="445" 
d="M51 176v125q0 72 52.5 124.5t125.5 52.5q72 0 124.5 -51.5t52.5 -128.5q0 -26 -6 -42t-20 -23t-25.5 -8.5t-31.5 -1.5h-237v-47q0 -67 47 -107t122 -40q37 0 62 10.5t37.5 20.5t18.5 10q7 0 12.5 -6t5.5 -12q0 -14 -27 -31q-66 -64 -66 -122q0 -43 63 -43q18 0 18 -13
t-23 -13q-34 0 -60.5 15.5t-26.5 51.5q0 53 36 102q-27 -5 -52 -5q-89 0 -145.5 50.5t-56.5 131.5zM86 258h225q37 0 48.5 7t11.5 30q0 57 -40 102.5t-102 45.5q-60 0 -101.5 -42.5t-41.5 -99.5v-43z" />
    <glyph glyph-name="Ecaron" unicode="&#x11a;" horiz-adv-x="498" 
d="M83 18v695q0 18 18 18h356q17 0 17 -17q0 -19 -17 -19h-338v-311h160q17 0 17 -19q0 -17 -17 -17h-160v-312h338q17 0 17 -19q0 -17 -17 -17h-356q-18 0 -18 18zM148 975q0 6 4.5 10.5t10.5 4.5q9 0 16 -8l98 -103l98 103q7 8 16 8q6 0 10.5 -4.5t4.5 -10.5t-8 -16
l-100 -101q-11 -11 -21 -11q-12 0 -21 11l-100 101q-8 10 -8 16z" />
    <glyph glyph-name="ecaron" unicode="&#x11b;" horiz-adv-x="445" 
d="M51 176v125q0 72 52.5 124.5t125.5 52.5q72 0 124.5 -51.5t52.5 -128.5q0 -26 -6 -42t-20 -23t-25.5 -8.5t-31.5 -1.5h-237v-47q0 -67 47 -107t122 -40q37 0 62 10.5t37.5 20.5t18.5 10q7 0 12.5 -6t5.5 -12q0 -10 -16 -23.5t-49 -24t-73 -10.5q-89 0 -145.5 50.5
t-56.5 131.5zM86 258h225q37 0 48.5 7t11.5 30q0 57 -40 102.5t-102 45.5q-60 0 -101.5 -42.5t-41.5 -99.5v-43zM98 716q0 6 4.5 10.5t10.5 4.5q9 0 16 -8l98 -103l98 103q7 8 16 8q6 0 10.5 -4.5t4.5 -10.5t-8 -16l-100 -101q-11 -11 -21 -11q-12 0 -21 11l-100 101
q-8 10 -8 16z" />
    <glyph glyph-name="Gcircumflex" unicode="&#x11c;" horiz-adv-x="531" 
d="M76 200v325q0 107 53 156.5t142 49.5q90 0 143 -47t53 -118q0 -20 -18 -20q-17 0 -18 18q-9 66 -50.5 98.5t-109.5 32.5q-77 0 -118 -42.5t-41 -127.5v-325q0 -85 41 -127.5t118 -42.5t118.5 42.5t41.5 127.5v148h-159q-17 0 -17 18t17 18h178q17 0 17 -19v-165
q0 -107 -53.5 -156.5t-142.5 -49.5t-142 49.5t-53 156.5zM141 878q0 10 9 14l104 56q8 5 17 5t17 -5l104 -55q9 -5 9 -17q0 -7 -5 -11.5t-12 -4.5l-9 3l-104 55l-104 -56q-1 0 -4 -1.5t-4 -1.5q-7 0 -12.5 5.5t-5.5 13.5z" />
    <glyph glyph-name="gcircumflex" unicode="&#x11d;" horiz-adv-x="446" 
d="M32 -108q0 79 91 111q-61 17 -61 71q0 46 49 69q-52 46 -52 126v45q0 73 44.5 118.5t116.5 45.5q73 0 119 -48q14 26 35 43.5t40 17.5q21 0 21 -20q0 -9 -5.5 -14t-12.5 -5q-36 0 -60 -46q25 -35 25 -92v-45q0 -72 -45.5 -119t-117.5 -47q-46 0 -82 21q-40 -18 -40 -48
q0 -23 23.5 -35.5t58.5 -15.5t76 -8.5t76 -14.5t58.5 -35.5t23.5 -68.5q0 -64 -50 -99.5t-137 -35.5q-88 0 -141 35t-53 94zM67 -105q0 -45 42.5 -72.5t116.5 -27.5q73 0 112.5 27.5t39.5 74.5q0 23 -11.5 39.5t-27.5 25.5t-40.5 15t-44 8t-45.5 4t-37 4q-105 -30 -105 -98z
M94 270q0 -58 34 -95t93 -37q57 0 91.5 37t34.5 94v45q0 56 -34 92.5t-93 36.5q-58 0 -92 -36.5t-34 -92.5v-44zM105 619q0 9 9 14l104 56q8 5 17 5t17 -5l104 -55q9 -4 9 -17q0 -7 -5 -11.5t-12 -4.5l-9 3l-104 55l-104 -56q-1 0 -4 -1.5t-4 -1.5q-7 0 -12.5 5.5t-5.5 13.5
z" />
    <glyph glyph-name="Gbreve" unicode="&#x11e;" horiz-adv-x="531" 
d="M76 200v325q0 107 53 156.5t142 49.5q90 0 143 -47t53 -118q0 -20 -18 -20q-17 0 -18 18q-9 66 -50.5 98.5t-109.5 32.5q-77 0 -118 -42.5t-41 -127.5v-325q0 -85 41 -127.5t118 -42.5t118.5 42.5t41.5 127.5v148h-159q-17 0 -17 18t17 18h178q17 0 17 -19v-165
q0 -107 -53.5 -156.5t-142.5 -49.5t-142 49.5t-53 156.5zM162 969h32q0 -34 22.5 -58.5t54.5 -24.5q31 0 53.5 24.5t22.5 58.5h33q0 -44 -33 -76.5t-76 -32.5q-44 0 -76.5 32.5t-32.5 76.5z" />
    <glyph glyph-name="gbreve" unicode="&#x11f;" horiz-adv-x="446" 
d="M32 -108q0 79 91 111q-61 17 -61 71q0 46 49 69q-52 46 -52 126v45q0 73 44.5 118.5t116.5 45.5q73 0 119 -48q14 26 35 43.5t40 17.5q21 0 21 -20q0 -9 -5.5 -14t-12.5 -5q-36 0 -60 -46q25 -35 25 -92v-45q0 -72 -45.5 -119t-117.5 -47q-46 0 -82 21q-40 -18 -40 -48
q0 -23 23.5 -35.5t58.5 -15.5t76 -8.5t76 -14.5t58.5 -35.5t23.5 -68.5q0 -64 -50 -99.5t-137 -35.5q-88 0 -141 35t-53 94zM67 -105q0 -45 42.5 -72.5t116.5 -27.5q73 0 112.5 27.5t39.5 74.5q0 23 -11.5 39.5t-27.5 25.5t-40.5 15t-44 8t-45.5 4t-37 4q-105 -30 -105 -98z
M94 270q0 -58 34 -95t93 -37q57 0 91.5 37t34.5 94v45q0 56 -34 92.5t-93 36.5q-58 0 -92 -36.5t-34 -92.5v-44zM126 710h32q0 -34 22.5 -58.5t54.5 -24.5q31 0 53.5 24.5t22.5 58.5h33q0 -44 -33 -76.5t-76 -32.5q-44 0 -76.5 32.5t-32.5 76.5z" />
    <glyph glyph-name="Gdotaccent" unicode="&#x120;" horiz-adv-x="531" 
d="M76 200v325q0 107 53 156.5t142 49.5q90 0 143 -47t53 -118q0 -20 -18 -20q-17 0 -18 18q-9 66 -50.5 98.5t-109.5 32.5q-77 0 -118 -42.5t-41 -127.5v-325q0 -85 41 -127.5t118 -42.5t118.5 42.5t41.5 127.5v148h-159q-17 0 -17 18t17 18h178q17 0 17 -19v-165
q0 -107 -53.5 -156.5t-142.5 -49.5t-142 49.5t-53 156.5zM242 889q0 13 8.5 21t21.5 8t21 -8t8 -21t-8 -21.5t-21 -8.5t-21.5 8.5t-8.5 21.5z" />
    <glyph glyph-name="gdotaccent" unicode="&#x121;" horiz-adv-x="446" 
d="M32 -108q0 79 91 111q-61 17 -61 71q0 46 49 69q-52 46 -52 126v45q0 73 44.5 118.5t116.5 45.5q73 0 119 -48q14 26 35 43.5t40 17.5q21 0 21 -20q0 -9 -5.5 -14t-12.5 -5q-36 0 -60 -46q25 -35 25 -92v-45q0 -72 -45.5 -119t-117.5 -47q-46 0 -82 21q-40 -18 -40 -48
q0 -23 23.5 -35.5t58.5 -15.5t76 -8.5t76 -14.5t58.5 -35.5t23.5 -68.5q0 -64 -50 -99.5t-137 -35.5q-88 0 -141 35t-53 94zM67 -105q0 -45 42.5 -72.5t116.5 -27.5q73 0 112.5 27.5t39.5 74.5q0 23 -11.5 39.5t-27.5 25.5t-40.5 15t-44 8t-45.5 4t-37 4q-105 -30 -105 -98z
M94 270q0 -58 34 -95t93 -37q57 0 91.5 37t34.5 94v45q0 56 -34 92.5t-93 36.5q-58 0 -92 -36.5t-34 -92.5v-44zM205 630q0 13 8.5 21t21.5 8t21 -8t8 -21t-8 -21.5t-21 -8.5t-21.5 8.5t-8.5 21.5z" />
    <glyph glyph-name="Gcommaaccent" unicode="&#x122;" horiz-adv-x="531" 
d="M76 200v325q0 107 53 156.5t142 49.5q90 0 143 -47t53 -118q0 -20 -18 -20q-17 0 -18 18q-9 66 -50.5 98.5t-109.5 32.5q-77 0 -118 -42.5t-41 -127.5v-325q0 -85 41 -127.5t118 -42.5t118.5 42.5t41.5 127.5v148h-159q-17 0 -17 18t17 18h178q17 0 17 -19v-165
q0 -107 -53.5 -156.5t-142.5 -49.5t-142 49.5t-53 156.5zM202 -123q0 9 8 13l102 60q4 2 7 2q16 0 16 -18q0 -12 -10 -18l-95 -54q-4 -3 -9 -3q-8 0 -13.5 5.5t-5.5 12.5z" />
    <glyph glyph-name="gcommaaccent" unicode="&#x123;" horiz-adv-x="446" 
d="M32 -108q0 79 91 111q-61 17 -61 71q0 46 49 69q-52 46 -52 126v45q0 73 44.5 118.5t116.5 45.5q73 0 119 -48q14 26 35 43.5t40 17.5q21 0 21 -20q0 -9 -5.5 -14t-12.5 -5q-36 0 -60 -46q25 -35 25 -92v-45q0 -72 -45.5 -119t-117.5 -47q-46 0 -82 21q-40 -18 -40 -48
q0 -23 23.5 -35.5t58.5 -15.5t76 -8.5t76 -14.5t58.5 -35.5t23.5 -68.5q0 -64 -50 -99.5t-137 -35.5q-88 0 -141 35t-53 94zM67 -105q0 -45 42.5 -72.5t116.5 -27.5q73 0 112.5 27.5t39.5 74.5q0 23 -11.5 39.5t-27.5 25.5t-40.5 15t-44 8t-45.5 4t-37 4q-105 -30 -105 -98z
M94 270q0 -58 34 -95t93 -37q57 0 91.5 37t34.5 94v45q0 56 -34 92.5t-93 36.5q-58 0 -92 -36.5t-34 -92.5v-44zM157 619q0 9 8 13l102 60q4 2 7 2q16 0 16 -18q0 -12 -10 -18l-95 -54q-5 -3 -9 -3q-8 0 -13.5 5.5t-5.5 12.5zM189 893q0 31 33 97q5 10 14 10q16 0 16 -15
q0 -4 -1 -6l-18 -51q27 -7 27 -35q0 -15 -10 -25.5t-26 -10.5q-14 0 -24.5 10.5t-10.5 25.5z" />
    <glyph glyph-name="Hcircumflex" unicode="&#x124;" horiz-adv-x="557" 
d="M83 18v696q0 17 18 17t18 -17v-317h319v317q0 17 18 17t18 -17v-696q0 -18 -18 -18t-18 18v343h-319v-343q0 -18 -18 -18t-18 18zM149 878q0 10 9 14l104 56q8 5 17 5t17 -5l104 -55q9 -5 9 -17q0 -7 -5 -11.5t-12 -4.5l-9 3l-104 55l-104 -56q-1 0 -4 -1.5t-4 -1.5
q-7 0 -12.5 5.5t-5.5 13.5z" />
    <glyph glyph-name="hcircumflex" unicode="&#x125;" horiz-adv-x="482" 
d="M-42 874q0 10 9 14l104 56q8 5 17 5t17 -5l104 -55q9 -5 9 -17q0 -7 -5 -11.5t-12 -4.5l-9 3l-104 55l-104 -56q-1 0 -4 -1.5t-4 -1.5q-7 0 -12.5 5.5t-5.5 13.5zM69 18v733q0 17 17 17q18 0 18 -17v-349q43 76 134 76q74 0 127 -53t53 -127v-280q0 -18 -18 -18
q-17 0 -17 18v280q0 56 -42.5 100.5t-99.5 44.5q-54 0 -95.5 -40t-41.5 -105v-280q0 -7 -5.5 -12.5t-12.5 -5.5t-12 5.5t-5 12.5z" />
    <glyph glyph-name="Hbar" unicode="&#x126;" horiz-adv-x="557" 
d="M21 560q0 18 17 18h45v136q0 17 18 17t18 -17v-136h319v136q0 17 18 17t18 -17v-136h44q7 0 12.5 -5.5t5.5 -12.5t-5.5 -12t-12.5 -5h-44v-525q0 -18 -18 -18t-18 18v343h-319v-343q0 -18 -18 -18t-18 18v525h-45q-17 0 -17 17zM119 397h319v146h-319v-146z" />
    <glyph glyph-name="hbar" unicode="&#x127;" horiz-adv-x="482" 
d="M20 609q0 18 17 18h32v124q0 17 17 17q18 0 18 -17v-124h153q7 0 12.5 -5.5t5.5 -12.5t-5.5 -12t-12.5 -5h-153v-190q43 76 134 76q74 0 127 -53t53 -127v-280q0 -18 -18 -18q-17 0 -17 18v280q0 56 -42.5 100.5t-99.5 44.5q-54 0 -95.5 -40t-41.5 -105v-280
q0 -7 -5.5 -12.5t-12.5 -5.5t-12 5.5t-5 12.5v574h-32q-17 0 -17 17z" />
    <glyph glyph-name="Itilde" unicode="&#x128;" horiz-adv-x="202" 
d="M-46 897q0 19 30.5 35.5t58.5 16.5q24 0 62.5 -18.5t64.5 -18.5q20 0 32.5 8t19.5 16t13 8q14 0 14 -15q0 -21 -28.5 -36t-55.5 -15q-23 0 -61.5 18.5t-67.5 18.5q-19 0 -33 -8.5t-22.5 -17.5t-13.5 -9q-13 0 -13 17zM83 18v696q0 17 18 17t18 -17v-696q0 -18 -18 -18
t-18 18z" />
    <glyph glyph-name="itilde" unicode="&#x129;" horiz-adv-x="171" 
d="M-63 638q0 19 30.5 35.5t58.5 16.5q24 0 62.5 -18.5t64.5 -18.5q20 0 32.5 8t19.5 16t13 8q14 0 14 -15q0 -21 -28.5 -36t-55.5 -15q-23 0 -61.5 18.5t-67.5 18.5q-19 0 -33 -9t-22.5 -17.5t-13.5 -8.5q-13 0 -13 17zM68 18v437q0 7 5 12t12 5q18 0 18 -17v-437
q0 -7 -5.5 -12.5t-12.5 -5.5t-12 5.5t-5 12.5z" />
    <glyph glyph-name="Imacron" unicode="&#x12a;" horiz-adv-x="202" 
d="M-26 923q0 18 17 18h220q7 0 12.5 -5.5t5.5 -12.5t-5.5 -12t-12.5 -5h-220q-17 0 -17 17zM83 18v696q0 17 18 17t18 -17v-696q0 -18 -18 -18t-18 18z" />
    <glyph glyph-name="imacron" unicode="&#x12b;" horiz-adv-x="171" 
d="M-43 664q0 18 17 18h220q7 0 12.5 -5.5t5.5 -12.5t-5.5 -12t-12.5 -5h-220q-17 0 -17 17zM68 18v437q0 7 5 12t12 5q18 0 18 -17v-437q0 -7 -5.5 -12.5t-12.5 -5.5t-12 5.5t-5 12.5z" />
    <glyph glyph-name="Ibreve" unicode="&#x12c;" horiz-adv-x="202" 
d="M-8 969h32q0 -34 22.5 -58.5t54.5 -24.5q31 0 53.5 24.5t22.5 58.5h33q0 -44 -33 -76.5t-76 -32.5q-44 0 -76.5 32.5t-32.5 76.5zM83 18v696q0 17 18 17t18 -17v-696q0 -18 -18 -18t-18 18z" />
    <glyph glyph-name="ibreve" unicode="&#x12d;" horiz-adv-x="171" 
d="M-23 710h32q0 -34 22.5 -58.5t54.5 -24.5q31 0 53.5 24.5t22.5 58.5h33q0 -44 -33 -76.5t-76 -32.5q-44 0 -76.5 32.5t-32.5 76.5zM68 18v437q0 7 5 12t12 5q18 0 18 -17v-437q0 -7 -5.5 -12.5t-12.5 -5.5t-12 5.5t-5 12.5z" />
    <glyph glyph-name="Iogonek" unicode="&#x12e;" horiz-adv-x="203" 
d="M15 -123q0 73 69 140v697q0 17 18 17t18 -17v-696q0 -11 -9 -16q-67 -65 -67 -123q0 -43 63 -43q18 0 18 -13t-23 -13q-34 0 -60.5 15.5t-26.5 51.5z" />
    <glyph glyph-name="iogonek" unicode="&#x12f;" horiz-adv-x="173" 
d="M-3 -126q0 74 73 144v437q0 7 5 12t12 5q18 0 18 -17v-437q0 -10 -8 -15q-71 -67 -71 -127q0 -43 63 -43q18 0 18 -13t-23 -13q-34 0 -60.5 15.5t-26.5 51.5zM55 660q0 13 9.5 22t22.5 9t22 -9t9 -22t-9 -22.5t-22 -9.5t-22.5 9.5t-9.5 22.5z" />
    <glyph glyph-name="Idotaccent" unicode="&#x130;" horiz-adv-x="202" 
d="M71 889q0 13 8.5 21t21.5 8t21 -8t8 -21t-8 -21.5t-21 -8.5t-21.5 8.5t-8.5 21.5zM83 18v696q0 17 18 17t18 -17v-696q0 -18 -18 -18t-18 18z" />
    <glyph glyph-name="dotlessi" unicode="&#x131;" horiz-adv-x="171" 
d="M68 18v437q0 7 5 12t12 5q18 0 18 -17v-437q0 -7 -5.5 -12.5t-12.5 -5.5t-12 5.5t-5 12.5z" />
    <glyph glyph-name="IJ" unicode="&#x132;" horiz-adv-x="696" 
d="M83 18v696q0 17 18 17t18 -17v-696q0 -18 -18 -18t-18 18zM226 159q0 20 17 20q19 0 19 -18q0 -64 45 -97.5t115 -33.5q77 0 118 42.5t41 127.5v495h-159q-17 0 -17 19q0 17 17 17h177q18 0 18 -18v-513q0 -107 -53 -156.5t-142 -49.5q-90 0 -143 47t-53 118z" />
    <glyph glyph-name="ij" unicode="&#x133;" horiz-adv-x="345" 
d="M53 660q0 13 9.5 22t22.5 9t22 -9t9 -22t-9 -22.5t-22 -9.5t-22.5 9.5t-9.5 22.5zM68 18v437q0 7 5 12t12 5q18 0 18 -17v-437q0 -7 -5.5 -12.5t-12.5 -5.5t-12 5.5t-5 12.5zM136 -219q0 17 18 17q53 0 70 38.5t17 115.5v503q0 17 17 17q18 0 18 -17v-503
q0 -189 -122 -189q-7 0 -12.5 5.5t-5.5 12.5zM226 660q0 13 9.5 22t22.5 9t22 -9t9 -22t-9 -22.5t-22 -9.5t-22.5 9.5t-9.5 22.5z" />
    <glyph glyph-name="Jcircumflex" unicode="&#x134;" horiz-adv-x="496" 
d="M26 159q0 20 17 20q19 0 19 -18q0 -64 45 -97.5t115 -33.5q77 0 118 42.5t41 127.5v495h-159q-17 0 -17 19q0 17 17 17h177q18 0 18 -18v-513q0 -107 -53 -156.5t-142 -49.5q-90 0 -143 47t-53 118zM118 878q0 10 9 14l104 56q8 5 17 5t17 -5l104 -55q9 -5 9 -17
q0 -7 -5 -11.5t-12 -4.5l-9 3l-104 55l-104 -56q-1 0 -4 -1.5t-4 -1.5q-7 0 -12.5 5.5t-5.5 13.5z" />
    <glyph glyph-name="jcircumflex" unicode="&#x135;" horiz-adv-x="173" 
d="M-43 619q0 9 9 14l104 56q8 5 17 5t17 -5l104 -55q9 -4 9 -17q0 -7 -5 -11.5t-12 -4.5l-9 3l-104 55l-104 -56q-1 0 -4 -1.5t-4 -1.5q-7 0 -12.5 5.5t-5.5 13.5zM-36 -219q0 17 18 17q53 0 70 38.5t17 115.5v503q0 17 17 17q18 0 18 -17v-503q0 -189 -122 -189
q-7 0 -12.5 5.5t-5.5 12.5z" />
    <glyph glyph-name="Kcommaaccent" unicode="&#x136;" horiz-adv-x="508" 
d="M83 18v696q0 17 18 17t18 -17v-392l323 403q4 6 14 6q7 0 12.5 -6t5.5 -13q0 -6 -4 -10l-231 -287l258 -388q3 -5 3 -9q0 -7 -5.5 -12.5t-13.5 -5.5q-9 0 -15 9l-251 376l-96 -120v-247q0 -18 -18 -18t-18 18zM187 -123q0 9 8 13l102 60q4 2 7 2q16 0 16 -18
q0 -12 -10 -18l-95 -54q-5 -3 -9 -3q-8 0 -13.5 5.5t-5.5 12.5z" />
    <glyph glyph-name="kcommaaccent" unicode="&#x137;" horiz-adv-x="437" 
d="M69 18v733q0 17 17 17q18 0 18 -17v-518l270 235q6 4 10 4q19 0 19 -16q0 -10 -6 -15l-161 -140l185 -273q3 -4 3 -10q0 -7 -5 -12.5t-12 -5.5q-8 0 -14 9l-184 269l-105 -92v-168q0 -7 -5.5 -12.5t-12.5 -5.5t-12 5.5t-5 12.5zM153 -123q0 9 8 13l102 60q4 2 7 2
q16 0 16 -18q0 -12 -10 -18l-95 -54q-5 -3 -9 -3q-8 0 -13.5 5.5t-5.5 12.5z" />
    <glyph glyph-name="kgreenlandic" unicode="&#x138;" horiz-adv-x="436" 
d="M68 18v437q0 17 17 17q18 0 18 -17v-222l270 235q6 4 10 4q19 0 19 -16q0 -10 -6 -15l-161 -140l185 -273q3 -4 3 -10q0 -7 -5 -12.5t-12 -5.5q-8 0 -14 9l-184 269l-105 -92v-168q0 -7 -5.5 -12.5t-12.5 -5.5t-12 5.5t-5 12.5z" />
    <glyph glyph-name="Lacute" unicode="&#x139;" horiz-adv-x="452" 
d="M83 18v696q0 17 18 17t18 -17v-678h304q15 0 15 -18t-15 -18h-322q-18 0 -18 18zM194 878q0 9 8 13l102 60q4 2 7 2q16 0 16 -18q0 -12 -10 -18l-95 -54q-4 -3 -9 -3q-8 0 -13.5 5.5t-5.5 12.5z" />
    <glyph glyph-name="lacute" unicode="&#x13a;" horiz-adv-x="189" 
d="M28 829q0 9 8 13l102 60q4 2 7 2q16 0 16 -18q0 -12 -10 -18l-95 -54q-4 -3 -9 -3q-8 0 -13.5 5.5t-5.5 12.5zM77 18v733q0 17 17 17q18 0 18 -17v-733q0 -7 -5.5 -12.5t-12.5 -5.5t-12 5.5t-5 12.5z" />
    <glyph glyph-name="Lcommaaccent" unicode="&#x13b;" horiz-adv-x="452" 
d="M83 18v696q0 17 18 17t18 -17v-678h304q15 0 15 -18t-15 -18h-322q-18 0 -18 18zM186 -123q0 9 8 13l102 60q4 2 7 2q16 0 16 -18q0 -12 -10 -18l-95 -54q-4 -3 -9 -3q-8 0 -13.5 5.5t-5.5 12.5z" />
    <glyph glyph-name="lcommaaccent" unicode="&#x13c;" horiz-adv-x="189" 
d="M31 -123q0 9 8 13l102 60q4 2 7 2q16 0 16 -18q0 -12 -10 -18l-95 -54q-5 -3 -9 -3q-8 0 -13.5 5.5t-5.5 12.5zM77 18v733q0 17 17 17q18 0 18 -17v-733q0 -7 -5.5 -12.5t-12.5 -5.5t-12 5.5t-5 12.5z" />
    <glyph glyph-name="Lcaron" unicode="&#x13d;" horiz-adv-x="453" 
d="M83 18v696q0 17 18 17t18 -17v-678h304q15 0 15 -18t-15 -18h-322q-18 0 -18 18zM288 705q0 15 10 25.5t26 10.5q14 0 24.5 -10.5t10.5 -25.5q0 -31 -33 -97q-5 -10 -14 -10q-16 0 -16 15q0 4 1 6l18 51q-27 7 -27 35z" />
    <glyph glyph-name="lcaron" unicode="&#x13e;" horiz-adv-x="189" 
d="M77 18v733q0 17 17 17q18 0 18 -17v-733q0 -7 -5.5 -12.5t-12.5 -5.5t-12 5.5t-5 12.5zM181 705q0 15 10 25.5t26 10.5q14 0 24.5 -10.5t10.5 -25.5q0 -31 -33 -97q-5 -10 -14 -10q-16 0 -16 15q0 4 1 6l18 51q-27 7 -27 35z" />
    <glyph glyph-name="Ldot" unicode="&#x13f;" horiz-adv-x="453" 
d="M83 18v696q0 17 18 17t18 -17v-678h304q15 0 15 -18t-15 -18h-322q-18 0 -18 18zM286 421q0 15 10 25.5t26 10.5q14 0 24.5 -10.5t10.5 -25.5q0 -14 -10.5 -25t-24.5 -11q-15 0 -25.5 10.5t-10.5 25.5z" />
    <glyph glyph-name="ldot" unicode="&#x140;" horiz-adv-x="286" 
d="M77 18v733q0 17 17 17q18 0 18 -17v-733q0 -7 -5.5 -12.5t-12.5 -5.5t-12 5.5t-5 12.5zM202 300q0 15 10 25.5t26 10.5q14 0 24.5 -10.5t10.5 -25.5q0 -14 -10.5 -25t-24.5 -11q-15 0 -25.5 10.5t-10.5 25.5z" />
    <glyph glyph-name="Lslash" unicode="&#x141;" horiz-adv-x="458" 
d="M6 286q0 10 9 14l74 43v371q0 17 18 17t18 -17v-351l115 67q3 2 9 2q7 0 12 -4.5t5 -11.5q0 -11 -9 -16l-132 -76v-288h304q15 0 15 -18t-15 -18h-322q-18 0 -18 18v285l-57 -33q-4 -3 -9 -3q-6 0 -11.5 6t-5.5 13z" />
    <glyph glyph-name="lslash" unicode="&#x142;" horiz-adv-x="297" 
d="M20 286q0 10 9 14l96 55v396q0 17 17 17q18 0 18 -17v-376l94 55q3 2 9 2q7 0 12 -4.5t5 -11.5q0 -11 -9 -16l-111 -64v-318q0 -7 -5.5 -12.5t-12.5 -5.5t-12 5.5t-5 12.5v297l-79 -45q-4 -3 -9 -3q-6 0 -11.5 6t-5.5 13z" />
    <glyph glyph-name="Nacute" unicode="&#x143;" horiz-adv-x="557" 
d="M83 18v696q0 17 18 17q11 0 31 -36l306 -606v625q0 17 18 17t18 -17v-696q0 -18 -18 -18q-11 0 -29 36l-308 607v-625q0 -18 -18 -18t-18 18zM212 878q0 9 8 13l102 60q4 2 7 2q16 0 16 -18q0 -12 -10 -18l-95 -54q-4 -3 -9 -3q-8 0 -13.5 5.5t-5.5 12.5z" />
    <glyph glyph-name="nacute" unicode="&#x144;" horiz-adv-x="481" 
d="M68 18v437q0 17 17 17q18 0 18 -17v-53q43 76 134 76q74 0 127 -53t53 -127v-280q0 -18 -18 -18q-17 0 -17 18v280q0 56 -42.5 100.5t-99.5 44.5q-54 0 -95.5 -40t-41.5 -105v-280q0 -7 -5.5 -12.5t-12.5 -5.5t-12 5.5t-5 12.5zM171 619q0 9 8 13l102 60q4 2 7 2
q16 0 16 -18q0 -12 -10 -18l-95 -54q-5 -3 -9 -3q-8 0 -13.5 5.5t-5.5 12.5z" />
    <glyph glyph-name="Ncommaaccent" unicode="&#x145;" horiz-adv-x="557" 
d="M83 18v696q0 17 18 17q11 0 31 -36l306 -606v625q0 17 18 17t18 -17v-696q0 -18 -18 -18q-11 0 -29 36l-308 607v-625q0 -18 -18 -18t-18 18zM209 -123q0 9 8 13l102 60q4 2 7 2q16 0 16 -18q0 -12 -10 -18l-95 -54q-5 -3 -9 -3q-8 0 -13.5 5.5t-5.5 12.5z" />
    <glyph glyph-name="ncommaaccent" unicode="&#x146;" horiz-adv-x="481" 
d="M68 18v437q0 17 17 17q18 0 18 -17v-53q43 76 134 76q74 0 127 -53t53 -127v-280q0 -18 -18 -18q-17 0 -17 18v280q0 56 -42.5 100.5t-99.5 44.5q-54 0 -95.5 -40t-41.5 -105v-280q0 -7 -5.5 -12.5t-12.5 -5.5t-12 5.5t-5 12.5zM162 -123q0 9 8 13l102 60q4 2 7 2
q16 0 16 -18q0 -12 -10 -18l-95 -54q-4 -3 -9 -3q-8 0 -13.5 5.5t-5.5 12.5z" />
    <glyph glyph-name="Ncaron" unicode="&#x147;" horiz-adv-x="557" 
d="M83 18v696q0 17 18 17q11 0 31 -36l306 -606v625q0 17 18 17t18 -17v-696q0 -18 -18 -18q-11 0 -29 36l-308 607v-625q0 -18 -18 -18t-18 18zM148 975q0 6 4.5 10.5t10.5 4.5q9 0 16 -8l98 -103l98 103q7 8 16 8q6 0 10.5 -4.5t4.5 -10.5t-8 -16l-100 -101
q-11 -11 -21 -11q-12 0 -21 11l-100 101q-8 10 -8 16z" />
    <glyph glyph-name="ncaron" unicode="&#x148;" horiz-adv-x="481" 
d="M68 18v437q0 17 17 17q18 0 18 -17v-53q43 76 134 76q74 0 127 -53t53 -127v-280q0 -18 -18 -18q-17 0 -17 18v280q0 56 -42.5 100.5t-99.5 44.5q-54 0 -95.5 -40t-41.5 -105v-280q0 -7 -5.5 -12.5t-12.5 -5.5t-12 5.5t-5 12.5zM107 716q0 6 4.5 10.5t10.5 4.5q9 0 16 -8
l98 -103l98 103q7 8 16 8q6 0 10.5 -4.5t4.5 -10.5t-8 -16l-100 -101q-11 -11 -21 -11q-12 0 -21 11l-100 101q-8 10 -8 16z" />
    <glyph glyph-name="Eng" unicode="&#x14a;" horiz-adv-x="557" 
d="M83 18v696q0 17 18 17q11 0 31 -36l306 -606v625q0 17 18 17t18 -17v-762q0 -189 -122 -189q-7 0 -12.5 5.5t-5.5 12.5q0 17 18 17q53 0 70 38.5t17 115.5v48q0 12 -12 36l-308 607v-625q0 -18 -18 -18t-18 18z" />
    <glyph glyph-name="eng" unicode="&#x14b;" horiz-adv-x="481" 
d="M68 18v437q0 17 17 17q18 0 18 -17v-53q43 76 134 76q74 0 127 -53t53 -127v-346q0 -189 -122 -189q-7 0 -12.5 5.5t-5.5 12.5q0 17 18 17q53 0 70 38.5t17 115.5v346q0 56 -42.5 100.5t-99.5 44.5q-54 0 -95.5 -40t-41.5 -105v-280q0 -7 -5.5 -12.5t-12.5 -5.5t-12 5.5
t-5 12.5z" />
    <glyph glyph-name="Omacron" unicode="&#x14c;" horiz-adv-x="543" 
d="M76 200v325q0 107 53 156.5t142 49.5t142.5 -49.5t53.5 -156.5v-325q0 -107 -53.5 -156.5t-142.5 -49.5t-142 49.5t-53 156.5zM112 200q0 -85 41 -127.5t118 -42.5t118.5 42.5t41.5 127.5v325q0 85 -41.5 127.5t-118.5 42.5t-118 -42.5t-41 -127.5v-325zM144 923
q0 18 17 18h220q7 0 12.5 -5.5t5.5 -12.5t-5.5 -12t-12.5 -5h-220q-17 0 -17 17z" />
    <glyph glyph-name="omacron" unicode="&#x14d;" 
d="M50 176v122q0 72 52.5 126t124.5 54t125 -53t53 -127v-122q0 -72 -53.5 -127t-124.5 -55t-124 55t-53 127zM85 176q0 -57 42 -102t100 -45t100.5 45t42.5 102v122q0 56 -42 100.5t-101 44.5t-100.5 -44.5t-41.5 -100.5v-122zM100 664q0 18 17 18h220q7 0 12.5 -5.5
t5.5 -12.5t-5.5 -12t-12.5 -5h-220q-17 0 -17 17z" />
    <glyph glyph-name="Obreve" unicode="&#x14e;" horiz-adv-x="543" 
d="M76 200v325q0 107 53 156.5t142 49.5t142.5 -49.5t53.5 -156.5v-325q0 -107 -53.5 -156.5t-142.5 -49.5t-142 49.5t-53 156.5zM112 200q0 -85 41 -127.5t118 -42.5t118.5 42.5t41.5 127.5v325q0 85 -41.5 127.5t-118.5 42.5t-118 -42.5t-41 -127.5v-325zM162 969h32
q0 -34 22.5 -58.5t54.5 -24.5q31 0 53.5 24.5t22.5 58.5h33q0 -44 -33 -76.5t-76 -32.5q-44 0 -76.5 32.5t-32.5 76.5z" />
    <glyph glyph-name="obreve" unicode="&#x14f;" 
d="M50 176v122q0 72 52.5 126t124.5 54t125 -53t53 -127v-122q0 -72 -53.5 -127t-124.5 -55t-124 55t-53 127zM85 176q0 -57 42 -102t100 -45t100.5 45t42.5 102v122q0 56 -42 100.5t-101 44.5t-100.5 -44.5t-41.5 -100.5v-122zM118 710h32q0 -34 22.5 -58.5t54.5 -24.5
q31 0 53.5 24.5t22.5 58.5h33q0 -44 -33 -76.5t-76 -32.5q-44 0 -76.5 32.5t-32.5 76.5z" />
    <glyph glyph-name="Ohungarumlaut" unicode="&#x150;" horiz-adv-x="543" 
d="M76 200v325q0 107 53 156.5t142 49.5t142.5 -49.5t53.5 -156.5v-325q0 -107 -53.5 -156.5t-142.5 -49.5t-142 49.5t-53 156.5zM112 200q0 -85 41 -127.5t118 -42.5t118.5 42.5t41.5 127.5v325q0 85 -41.5 127.5t-118.5 42.5t-118 -42.5t-41 -127.5v-325zM171 878
q0 9 8 13l102 60q4 2 7 2q16 0 16 -18q0 -12 -10 -18l-95 -54q-5 -3 -9 -3q-8 0 -13.5 5.5t-5.5 12.5zM318 878q0 9 8 13l102 60q4 2 7 2q16 0 16 -18q0 -12 -10 -18l-95 -54q-4 -3 -9 -3q-8 0 -13.5 5.5t-5.5 12.5z" />
    <glyph glyph-name="ohungarumlaut" unicode="&#x151;" 
d="M50 176v122q0 72 52.5 126t124.5 54t125 -53t53 -127v-122q0 -72 -53.5 -127t-124.5 -55t-124 55t-53 127zM85 176q0 -57 42 -102t100 -45t100.5 45t42.5 102v122q0 56 -42 100.5t-101 44.5t-100.5 -44.5t-41.5 -100.5v-122zM114 619q0 9 8 13l102 60q4 2 7 2
q16 0 16 -18q0 -12 -10 -18l-95 -54q-4 -3 -9 -3q-8 0 -13.5 5.5t-5.5 12.5zM261 619q0 9 8 13l102 60q4 2 7 2q16 0 16 -18q0 -12 -10 -18l-95 -54q-5 -3 -9 -3q-8 0 -13.5 5.5t-5.5 12.5z" />
    <glyph glyph-name="OE" unicode="&#x152;" horiz-adv-x="845" 
d="M76 200v325q0 107 53 156.5t142 49.5q112 0 161 -72v54q0 18 18 18h354q17 0 17 -17q0 -19 -17 -19h-338v-311h160q17 0 17 -19q0 -17 -17 -17h-160v-312h338q17 0 17 -19q0 -17 -17 -17h-354q-18 0 -18 18v48q-49 -72 -161 -72q-89 0 -142 49.5t-53 156.5zM112 200
q0 -85 41 -127.5t118 -42.5t118.5 42.5t41.5 127.5v325q0 85 -41.5 127.5t-118.5 42.5t-118 -42.5t-41 -127.5v-325z" />
    <glyph glyph-name="oe" unicode="&#x153;" horiz-adv-x="764" 
d="M50 176v122q0 72 52.5 126t124.5 54q50 0 93.5 -28.5t66.5 -74.5q21 46 65 74.5t96 28.5q72 0 124.5 -51.5t52.5 -126.5q0 -27 -6 -43.5t-19.5 -23.5t-25 -8.5t-32.5 -1.5h-237v-47q0 -68 47.5 -107.5t124.5 -39.5q36 0 59.5 10.5t35.5 20.5t19 10q19 0 19 -20
q0 -16 -42 -36t-97 -20q-65 0 -113.5 28t-71.5 76q-22 -46 -65.5 -75t-93.5 -29q-71 0 -124 55t-53 127zM85 176q0 -57 42 -102t100 -45t100.5 45t42.5 102v122q0 56 -42 100.5t-101 44.5t-100.5 -44.5t-41.5 -100.5v-122zM405 258h225q37 0 48.5 7t11.5 30q0 57 -40 102.5
t-102 45.5q-59 0 -101 -41.5t-42 -96.5v-47z" />
    <glyph glyph-name="Racute" unicode="&#x154;" horiz-adv-x="509" 
d="M83 18v696q0 15 18 17h167q92 0 149 -45t57 -146q0 -170 -168 -190l165 -321q3 -6 3 -11q0 -8 -5 -13t-13 -5q-4 0 -7.5 2t-7 7t-5.5 8l-4 11q-4 7 -5 8l-160 312h-148v-330q0 -18 -18 -18t-18 18zM119 384h149q79 0 124.5 38t45.5 118t-45.5 117.5t-124.5 37.5h-149
v-311zM212 878q0 9 8 13l102 60q4 2 7 2q16 0 16 -18q0 -12 -10 -18l-95 -54q-4 -3 -9 -3q-8 0 -13.5 5.5t-5.5 12.5z" />
    <glyph glyph-name="racute" unicode="&#x155;" horiz-adv-x="308" 
d="M68 18v437q0 17 17 17q18 0 18 -17v-53q45 76 139 76h37q7 0 12 -5.5t5 -12.5t-5 -12t-12 -5h-37q-56 0 -97.5 -40t-41.5 -105v-280q0 -7 -5.5 -12.5t-12.5 -5.5t-12 5.5t-5 12.5zM77 619q0 9 8 13l102 60q4 2 7 2q16 0 16 -18q0 -12 -10 -18l-95 -54q-5 -3 -9 -3
q-8 0 -13.5 5.5t-5.5 12.5z" />
    <glyph glyph-name="Rcommaaccent" unicode="&#x156;" horiz-adv-x="509" 
d="M83 18v696q0 15 18 17h167q92 0 149 -45t57 -146q0 -170 -168 -190l165 -321q3 -6 3 -11q0 -8 -5 -13t-13 -5q-4 0 -7.5 2t-7 7t-5.5 8l-4 11q-4 7 -5 8l-160 312h-148v-330q0 -18 -18 -18t-18 18zM119 384h149q79 0 124.5 38t45.5 118t-45.5 117.5t-124.5 37.5h-149
v-311zM174 -123q0 9 8 13l102 60q4 2 7 2q16 0 16 -18q0 -12 -10 -18l-95 -54q-4 -3 -9 -3q-8 0 -13.5 5.5t-5.5 12.5z" />
    <glyph glyph-name="rcommaaccent" unicode="&#x157;" horiz-adv-x="308" 
d="M-7 -123q0 9 8 13l102 60q4 2 7 2q16 0 16 -18q0 -12 -10 -18l-95 -54q-5 -3 -9 -3q-8 0 -13.5 5.5t-5.5 12.5zM68 18v437q0 17 17 17q18 0 18 -17v-53q45 76 139 76h37q7 0 12 -5.5t5 -12.5t-5 -12t-12 -5h-37q-56 0 -97.5 -40t-41.5 -105v-280q0 -7 -5.5 -12.5
t-12.5 -5.5t-12 5.5t-5 12.5z" />
    <glyph glyph-name="Rcaron" unicode="&#x158;" horiz-adv-x="509" 
d="M83 18v696q0 15 18 17h167q92 0 149 -45t57 -146q0 -170 -168 -190l165 -321q3 -6 3 -11q0 -8 -5 -13t-13 -5q-4 0 -7.5 2t-7 7t-5.5 8l-4 11q-4 7 -5 8l-160 312h-148v-330q0 -18 -18 -18t-18 18zM119 384h149q79 0 124.5 38t45.5 118t-45.5 117.5t-124.5 37.5h-149
v-311zM148 975q0 6 4.5 10.5t10.5 4.5q9 0 16 -8l98 -103l98 103q7 8 16 8q6 0 10.5 -4.5t4.5 -10.5t-8 -16l-100 -101q-11 -11 -21 -11q-12 0 -21 11l-100 101q-8 10 -8 16z" />
    <glyph glyph-name="rcaron" unicode="&#x159;" horiz-adv-x="308" 
d="M15 716q0 6 4.5 10.5t10.5 4.5q9 0 16 -8l98 -103l98 103q7 8 16 8q6 0 10.5 -4.5t4.5 -10.5t-8 -16l-100 -101q-11 -11 -21 -11q-12 0 -21 11l-100 101q-8 10 -8 16zM68 18v437q0 17 17 17q18 0 18 -17v-53q45 76 139 76h37q7 0 12 -5.5t5 -12.5t-5 -12t-12 -5h-37
q-56 0 -97.5 -40t-41.5 -105v-280q0 -7 -5.5 -12.5t-12.5 -5.5t-12 5.5t-5 12.5z" />
    <glyph glyph-name="Sacute" unicode="&#x15a;" horiz-adv-x="481" 
d="M42 95q0 7 6 14t11 7t16 -13.5t25.5 -29.5t49 -29.5t80.5 -13.5q82 0 124.5 41.5t42.5 120.5q0 52 -18.5 87.5t-48.5 54t-66 31.5l-71 25q-36 13 -66 31t-48.5 52.5t-18.5 84.5q0 51 18.5 87.5t50 54t62.5 24.5t66 7q60 0 109 -17t49 -35q0 -7 -6 -14.5t-12 -7.5
q-4 0 -21 9.5t-48.5 19t-71.5 9.5q-42 0 -75.5 -10t-59 -41.5t-25.5 -82.5q0 -43 18.5 -72.5t48.5 -44.5t65.5 -27t71.5 -26.5t66 -35.5t48.5 -61.5t18.5 -98.5q0 -102 -53.5 -151.5t-144.5 -49.5q-45 0 -83.5 12t-61.5 28.5t-35.5 33t-12.5 27.5zM171 878q0 9 8 13l102 60
q4 2 7 2q16 0 16 -18q0 -12 -10 -18l-95 -54q-5 -3 -9 -3q-8 0 -13.5 5.5t-5.5 12.5z" />
    <glyph glyph-name="sacute" unicode="&#x15b;" horiz-adv-x="373" 
d="M38 59q0 7 4.5 12t9.5 5t15 -8l21 -16q12 -8 37.5 -15.5t57.5 -7.5q59 0 88 23t29 60q0 43 -26 67.5t-63 35.5l-74 23q-37 11 -63 38t-26 72q0 51 38 90.5t110 39.5q44 0 83 -14t39 -28q0 -6 -5.5 -13t-11.5 -7q-1 0 -34.5 13.5t-69.5 13.5q-58 0 -86 -29.5t-28 -64.5
q0 -36 26 -57t63 -31t74 -22t63 -43t26 -82q0 -56 -40 -88t-111 -32q-62 0 -104 22t-42 43zM114 619q0 9 8 13l102 60q4 2 7 2q16 0 16 -18q0 -12 -10 -18l-95 -54q-4 -3 -9 -3q-8 0 -13.5 5.5t-5.5 12.5z" />
    <glyph glyph-name="Scircumflex" unicode="&#x15c;" horiz-adv-x="481" 
d="M42 95q0 7 6 14t11 7t16 -13.5t25.5 -29.5t49 -29.5t80.5 -13.5q82 0 124.5 41.5t42.5 120.5q0 52 -18.5 87.5t-48.5 54t-66 31.5l-71 25q-36 13 -66 31t-48.5 52.5t-18.5 84.5q0 51 18.5 87.5t50 54t62.5 24.5t66 7q60 0 109 -17t49 -35q0 -7 -6 -14.5t-12 -7.5
q-4 0 -21 9.5t-48.5 19t-71.5 9.5q-42 0 -75.5 -10t-59 -41.5t-25.5 -82.5q0 -43 18.5 -72.5t48.5 -44.5t65.5 -27t71.5 -26.5t66 -35.5t48.5 -61.5t18.5 -98.5q0 -102 -53.5 -151.5t-144.5 -49.5q-45 0 -83.5 12t-61.5 28.5t-35.5 33t-12.5 27.5zM107 878q0 10 9 14l104 56
q8 5 17 5t17 -5l104 -55q9 -5 9 -17q0 -7 -5 -11.5t-12 -4.5l-9 3l-104 55l-104 -56q-1 0 -4 -1.5t-4 -1.5q-7 0 -12.5 5.5t-5.5 13.5z" />
    <glyph glyph-name="scircumflex" unicode="&#x15d;" horiz-adv-x="373" 
d="M38 59q0 7 4.5 12t9.5 5t15 -8l21 -16q12 -8 37.5 -15.5t57.5 -7.5q59 0 88 23t29 60q0 43 -26 67.5t-63 35.5l-74 23q-37 11 -63 38t-26 72q0 51 38 90.5t110 39.5q44 0 83 -14t39 -28q0 -6 -5.5 -13t-11.5 -7q-1 0 -34.5 13.5t-69.5 13.5q-58 0 -86 -29.5t-28 -64.5
q0 -36 26 -57t63 -31t74 -22t63 -43t26 -82q0 -56 -40 -88t-111 -32q-62 0 -104 22t-42 43zM51 619q0 9 9 14l104 56q8 5 17 5t17 -5l104 -55q9 -4 9 -17q0 -7 -5 -11.5t-12 -4.5l-9 3l-104 55l-104 -56q-1 0 -4 -1.5t-4 -1.5q-7 0 -12.5 5.5t-5.5 13.5z" />
    <glyph glyph-name="Scedilla" unicode="&#x15e;" horiz-adv-x="481" 
d="M42 95q0 7 6 14t11 7t16 -13.5t25.5 -29.5t49 -29.5t80.5 -13.5q82 0 124.5 41.5t42.5 120.5q0 52 -18.5 87.5t-48.5 54t-66 31.5l-71 25q-36 13 -66 31t-48.5 52.5t-18.5 84.5q0 51 18.5 87.5t50 54t62.5 24.5t66 7q60 0 109 -17t49 -35q0 -7 -6 -14.5t-12 -7.5
q-4 0 -21 9.5t-48.5 19t-71.5 9.5q-42 0 -75.5 -10t-59 -41.5t-25.5 -82.5q0 -43 18.5 -72.5t48.5 -44.5t65.5 -27t71.5 -26.5t66 -35.5t48.5 -61.5t18.5 -98.5q0 -90 -41.5 -139t-113.5 -59l-15 -62q48 -1 71 -21.5t23 -48.5q0 -29 -22.5 -50.5t-59.5 -21.5
q-23 0 -48.5 6.5t-25.5 17.5q0 5 4 11.5t8 6.5l18 -7q18 -6 38 -6q55 0 55 41q0 40 -70 45l-29 2l20 84h-10q-45 0 -83.5 12t-61.5 28.5t-35.5 33t-12.5 27.5z" />
    <glyph glyph-name="scedilla" unicode="&#x15f;" horiz-adv-x="373" 
d="M38 59q0 7 4.5 12t9.5 5t15 -8l21 -16q12 -8 37.5 -15.5t57.5 -7.5q59 0 88 23t29 60q0 43 -26 67.5t-63 35.5l-74 23q-37 11 -63 38t-26 72q0 51 38 90.5t110 39.5q44 0 83 -14t39 -28q0 -6 -5.5 -13t-11.5 -7q-1 0 -34.5 13.5t-69.5 13.5q-58 0 -86 -29.5t-28 -64.5
q0 -36 26 -57t63 -31t74 -22t63 -43t26 -82q0 -50 -32 -81t-91 -37l-14 -61q48 -1 71 -21.5t23 -48.5q0 -29 -22.5 -50.5t-59.5 -21.5q-23 0 -48.5 6.5t-25.5 17.5q0 5 4 11.5t8 6.5l18 -7q18 -6 38 -6q55 0 55 41q0 40 -70 45l-29 2l20 84q-61 1 -101.5 22.5t-40.5 42.5z
" />
    <glyph glyph-name="Scaron" unicode="&#x160;" horiz-adv-x="481" 
d="M42 95q0 7 6 14t11 7t16 -13.5t25.5 -29.5t49 -29.5t80.5 -13.5q82 0 124.5 41.5t42.5 120.5q0 52 -18.5 87.5t-48.5 54t-66 31.5l-71 25q-36 13 -66 31t-48.5 52.5t-18.5 84.5q0 51 18.5 87.5t50 54t62.5 24.5t66 7q60 0 109 -17t49 -35q0 -7 -6 -14.5t-12 -7.5
q-4 0 -21 9.5t-48.5 19t-71.5 9.5q-42 0 -75.5 -10t-59 -41.5t-25.5 -82.5q0 -43 18.5 -72.5t48.5 -44.5t65.5 -27t71.5 -26.5t66 -35.5t48.5 -61.5t18.5 -98.5q0 -102 -53.5 -151.5t-144.5 -49.5q-45 0 -83.5 12t-61.5 28.5t-35.5 33t-12.5 27.5zM107 975q0 6 4.5 10.5
t10.5 4.5q9 0 16 -8l98 -103l98 103q7 8 16 8q6 0 10.5 -4.5t4.5 -10.5t-8 -16l-100 -101q-11 -11 -21 -11q-12 0 -21 11l-100 101q-8 10 -8 16z" />
    <glyph glyph-name="scaron" unicode="&#x161;" horiz-adv-x="373" 
d="M38 59q0 7 4.5 12t9.5 5t15 -8l21 -16q12 -8 37.5 -15.5t57.5 -7.5q59 0 88 23t29 60q0 43 -26 67.5t-63 35.5l-74 23q-37 11 -63 38t-26 72q0 51 38 90.5t110 39.5q44 0 83 -14t39 -28q0 -6 -5.5 -13t-11.5 -7q-1 0 -34.5 13.5t-69.5 13.5q-58 0 -86 -29.5t-28 -64.5
q0 -36 26 -57t63 -31t74 -22t63 -43t26 -82q0 -56 -40 -88t-111 -32q-62 0 -104 22t-42 43zM51 716q0 6 4.5 10.5t10.5 4.5q9 0 16 -8l98 -103l98 103q7 8 16 8q6 0 10.5 -4.5t4.5 -10.5t-8 -16l-100 -101q-11 -11 -21 -11q-12 0 -21 11l-100 101q-8 10 -8 16z" />
    <glyph glyph-name="Tcommaaccent" unicode="&#x162;" 
d="M14 713q0 7 5 12.5t13 5.5h391q18 0 18 -17q0 -19 -18 -19h-177v-677q0 -18 -18 -18t-18 18v677h-178q-8 0 -13 5.5t-5 12.5zM161 -123q0 9 8 13l102 60q4 2 7 2q16 0 16 -18q0 -12 -10 -18l-95 -54q-5 -3 -9 -3q-8 0 -13.5 5.5t-5.5 12.5z" />
    <glyph glyph-name="tcommaaccent" unicode="&#x163;" horiz-adv-x="272" 
d="M62 -123q0 9 8 13l102 60q4 2 7 2q16 0 16 -18q0 -12 -10 -18l-95 -54q-4 -3 -9 -3q-8 0 -13.5 5.5t-5.5 12.5zM66 139v547q0 7 5.5 12t11.5 5q7 0 12.5 -5t5.5 -12v-214h135q7 0 12 -5.5t5 -12.5t-5 -12t-12 -5h-135v-298q0 -57 25 -80.5t86 -23.5h23q7 0 12 -5t5 -12
t-5 -12.5t-12 -5.5h-23q-146 0 -146 139z" />
    <glyph glyph-name="Tcaron" unicode="&#x164;" 
d="M14 713q0 7 5 12.5t13 5.5h391q18 0 18 -17q0 -19 -18 -19h-177v-677q0 -18 -18 -18t-18 18v677h-178q-8 0 -13 5.5t-5 12.5zM97 975q0 6 4.5 10.5t10.5 4.5q9 0 16 -8l98 -103l98 103q7 8 16 8q6 0 10.5 -4.5t4.5 -10.5t-8 -16l-100 -101q-11 -11 -21 -11q-12 0 -21 11
l-100 101q-8 10 -8 16z" />
    <glyph glyph-name="tcaron" unicode="&#x165;" horiz-adv-x="272" 
d="M66 139v547q0 7 5.5 12t11.5 5q7 0 12.5 -5t5.5 -12v-214h135q7 0 12 -5.5t5 -12.5t-5 -12t-12 -5h-135v-298q0 -57 25 -80.5t86 -23.5h23q7 0 12 -5t5 -12t-5 -12.5t-12 -5.5h-23q-146 0 -146 139zM176 705q0 15 10 25.5t26 10.5q14 0 24.5 -10.5t10.5 -25.5
q0 -31 -33 -97q-5 -10 -14 -10q-16 0 -16 15q0 4 1 6l18 51q-27 7 -27 35z" />
    <glyph glyph-name="Tbar" unicode="&#x166;" horiz-adv-x="459" 
d="M16 713q0 7 5 12.5t13 5.5h391q18 0 18 -17q0 -19 -18 -19h-177v-312h147q18 0 18 -17q0 -19 -18 -19h-147v-329q0 -18 -18 -18t-18 18v329h-148q-8 0 -13 5.5t-5 12.5t5 12.5t13 5.5h148v312h-178q-8 0 -13 5.5t-5 12.5z" />
    <glyph glyph-name="tbar" unicode="&#x167;" horiz-adv-x="276" 
d="M66 139v547q0 7 5.5 12t11.5 5q7 0 12.5 -5t5.5 -12v-214h135q7 0 12 -5.5t5 -12.5t-5 -12t-12 -5h-135v-115h135q7 0 12 -5.5t5 -12.5t-5 -12t-12 -5h-135v-148q0 -57 25 -80.5t86 -23.5h23q7 0 12 -5t5 -12t-5 -12.5t-12 -5.5h-23q-146 0 -146 139z" />
    <glyph glyph-name="Utilde" unicode="&#x168;" horiz-adv-x="549" 
d="M79 200v514q0 17 18 17t18 -17v-514q0 -85 41 -127.5t118 -42.5t118.5 42.5t41.5 127.5v514q0 17 18 17t18 -17v-514q0 -107 -53.5 -156.5t-142.5 -49.5t-142 49.5t-53 156.5zM127 897q0 19 30.5 35.5t58.5 16.5q24 0 62.5 -18.5t64.5 -18.5q20 0 32.5 8t19.5 16t13 8
q14 0 14 -15q0 -21 -28.5 -36t-55.5 -15q-23 0 -61.5 18.5t-67.5 18.5q-19 0 -33 -8.5t-22.5 -17.5t-13.5 -9q-13 0 -13 17z" />
    <glyph glyph-name="utilde" unicode="&#x169;" horiz-adv-x="483" 
d="M64 174v280q0 7 5.5 12.5t12.5 5.5t12 -5.5t5 -12.5v-280q0 -57 42 -101t101 -44q58 0 100 44t42 101v281q0 7 5.5 12t12.5 5t12 -5t5 -12v-281q0 -72 -52.5 -126t-124.5 -54q-73 0 -125.5 54t-52.5 126zM94 638q0 19 30.5 35.5t58.5 16.5q24 0 62.5 -18.5t64.5 -18.5
q20 0 32.5 8t19.5 16t13 8q14 0 14 -15q0 -21 -28.5 -36t-55.5 -15q-23 0 -61.5 18.5t-67.5 18.5q-19 0 -33 -9t-22.5 -17.5t-13.5 -8.5q-13 0 -13 17z" />
    <glyph glyph-name="Umacron" unicode="&#x16a;" horiz-adv-x="549" 
d="M79 200v514q0 17 18 17t18 -17v-514q0 -85 41 -127.5t118 -42.5t118.5 42.5t41.5 127.5v514q0 17 18 17t18 -17v-514q0 -107 -53.5 -156.5t-142.5 -49.5t-142 49.5t-53 156.5zM147 923q0 18 17 18h220q7 0 12.5 -5.5t5.5 -12.5t-5.5 -12t-12.5 -5h-220q-17 0 -17 17z" />
    <glyph glyph-name="umacron" unicode="&#x16b;" horiz-adv-x="483" 
d="M64 174v280q0 7 5.5 12.5t12.5 5.5t12 -5.5t5 -12.5v-280q0 -57 42 -101t101 -44q58 0 100 44t42 101v281q0 7 5.5 12t12.5 5t12 -5t5 -12v-281q0 -72 -52.5 -126t-124.5 -54q-73 0 -125.5 54t-52.5 126zM114 664q0 18 17 18h220q7 0 12.5 -5.5t5.5 -12.5t-5.5 -12
t-12.5 -5h-220q-17 0 -17 17z" />
    <glyph glyph-name="Ubreve" unicode="&#x16c;" horiz-adv-x="549" 
d="M79 200v514q0 17 18 17t18 -17v-514q0 -85 41 -127.5t118 -42.5t118.5 42.5t41.5 127.5v514q0 17 18 17t18 -17v-514q0 -107 -53.5 -156.5t-142.5 -49.5t-142 49.5t-53 156.5zM165 969h32q0 -34 22.5 -58.5t54.5 -24.5q31 0 53.5 24.5t22.5 58.5h33q0 -44 -33 -76.5
t-76 -32.5q-44 0 -76.5 32.5t-32.5 76.5z" />
    <glyph glyph-name="ubreve" unicode="&#x16d;" horiz-adv-x="483" 
d="M64 174v280q0 7 5.5 12.5t12.5 5.5t12 -5.5t5 -12.5v-280q0 -57 42 -101t101 -44q58 0 100 44t42 101v281q0 7 5.5 12t12.5 5t12 -5t5 -12v-281q0 -72 -52.5 -126t-124.5 -54q-73 0 -125.5 54t-52.5 126zM132 710h32q0 -34 22.5 -58.5t54.5 -24.5q31 0 53.5 24.5
t22.5 58.5h33q0 -44 -33 -76.5t-76 -32.5q-44 0 -76.5 32.5t-32.5 76.5z" />
    <glyph glyph-name="Uring" unicode="&#x16e;" horiz-adv-x="549" 
d="M79 200v514q0 17 18 17t18 -17v-514q0 -85 41 -127.5t118 -42.5t118.5 42.5t41.5 127.5v514q0 17 18 17t18 -17v-514q0 -107 -53.5 -156.5t-142.5 -49.5t-142 49.5t-53 156.5zM184 936q0 36 26.5 63.5t63.5 27.5q35 0 62.5 -27.5t27.5 -63.5q0 -37 -27.5 -65t-62.5 -28
q-37 0 -63.5 28t-26.5 65zM208 936q0 -27 20 -48.5t46 -21.5t45.5 21.5t19.5 48.5q0 24 -19.5 44.5t-45.5 20.5q-27 0 -46.5 -20.5t-19.5 -44.5z" />
    <glyph glyph-name="uring" unicode="&#x16f;" horiz-adv-x="483" 
d="M64 174v280q0 7 5.5 12.5t12.5 5.5t12 -5.5t5 -12.5v-280q0 -57 42 -101t101 -44q58 0 100 44t42 101v281q0 7 5.5 12t12.5 5t12 -5t5 -12v-281q0 -72 -52.5 -126t-124.5 -54q-73 0 -125.5 54t-52.5 126zM151 677q0 36 26.5 63.5t63.5 27.5q35 0 62.5 -27.5t27.5 -63.5
q0 -37 -27.5 -65t-62.5 -28q-37 0 -63.5 28t-26.5 65zM175 677q0 -27 19.5 -48.5t46.5 -21.5q26 0 45.5 21.5t19.5 48.5q0 24 -19.5 44.5t-45.5 20.5q-27 0 -46.5 -20.5t-19.5 -44.5z" />
    <glyph glyph-name="Uhungarumlaut" unicode="&#x170;" horiz-adv-x="549" 
d="M79 200v514q0 17 18 17t18 -17v-514q0 -85 41 -127.5t118 -42.5t118.5 42.5t41.5 127.5v514q0 17 18 17t18 -17v-514q0 -107 -53.5 -156.5t-142.5 -49.5t-142 49.5t-53 156.5zM185 878q0 9 8 13l102 60q4 2 7 2q16 0 16 -18q0 -12 -10 -18l-95 -54q-5 -3 -9 -3
q-8 0 -13.5 5.5t-5.5 12.5zM332 878q0 9 8 13l102 60q4 2 7 2q16 0 16 -18q0 -12 -10 -18l-95 -54q-4 -3 -9 -3q-8 0 -13.5 5.5t-5.5 12.5z" />
    <glyph glyph-name="uhungarumlaut" unicode="&#x171;" horiz-adv-x="483" 
d="M64 174v280q0 7 5.5 12.5t12.5 5.5t12 -5.5t5 -12.5v-280q0 -57 42 -101t101 -44q58 0 100 44t42 101v281q0 7 5.5 12t12.5 5t12 -5t5 -12v-281q0 -72 -52.5 -126t-124.5 -54q-73 0 -125.5 54t-52.5 126zM140 619q0 9 8 13l102 60q4 2 7 2q16 0 16 -18q0 -12 -10 -18
l-95 -54q-4 -3 -9 -3q-8 0 -13.5 5.5t-5.5 12.5zM287 619q0 9 8 13l102 60q4 2 7 2q16 0 16 -18q0 -12 -10 -18l-95 -54q-5 -3 -9 -3q-8 0 -13.5 5.5t-5.5 12.5z" />
    <glyph glyph-name="Uogonek" unicode="&#x172;" horiz-adv-x="549" 
d="M79 200v514q0 17 18 17t18 -17v-514q0 -85 41 -127.5t118 -42.5t118.5 42.5t41.5 127.5v514q0 17 18 17t18 -17v-514q0 -164 -130 -198q-36 -35 -54 -63.5t-18 -64.5q0 -43 63 -43q18 0 18 -13t-23 -13q-34 0 -60.5 15.5t-26.5 51.5q0 64 52 123q-6 -1 -17 -1
q-89 0 -142 49.5t-53 156.5z" />
    <glyph glyph-name="uogonek" unicode="&#x173;" horiz-adv-x="483" 
d="M64 174v280q0 7 5.5 12.5t12.5 5.5t12 -5.5t5 -12.5v-280q0 -57 42 -101t101 -44q58 0 100 44t42 101v281q0 7 5.5 12t12.5 5t12 -5t5 -12v-281q0 -58 -36 -106.5t-91 -65.5q-36 -35 -54 -63.5t-18 -64.5q0 -43 63 -43q18 0 18 -13t-23 -13q-34 0 -60.5 15.5t-26.5 51.5
q0 64 51 122q-73 0 -125.5 54t-52.5 126z" />
    <glyph glyph-name="Wcircumflex" unicode="&#x174;" horiz-adv-x="739" 
d="M26 715q0 16 17 16q16 0 19 -13l180 -648l106 385q5 17 22 17q15 0 20 -17l108 -385l179 648q3 13 19 13q17 0 17 -16q0 -3 -1 -6l-195 -701q-5 -14 -19 -14q-15 0 -18 14l-110 392l-109 -392q-5 -14 -19 -14q-15 0 -18 14l-197 701q-1 3 -1 6zM239 878q0 10 9 14l104 56
q8 5 17 5t17 -5l104 -55q9 -5 9 -17q0 -7 -5 -11.5t-12 -4.5l-9 3l-104 55l-104 -56q-1 0 -4 -1.5t-4 -1.5q-7 0 -12.5 5.5t-5.5 13.5z" />
    <glyph glyph-name="wcircumflex" unicode="&#x175;" horiz-adv-x="654" 
d="M19 454q0 8 5.5 13t12.5 5q12 0 17 -11l141 -391l115 362q5 13 18 13t18 -13l111 -367l144 396q3 11 16 11q18 0 18 -17q0 -6 -4 -14l-157 -435q-4 -12 -15 -12q-9 0 -14 11l-117 375l-115 -369q-6 -17 -17 -17q-7 0 -10 3t-7 14l-156 430q-4 8 -4 13zM197 619q0 9 9 14
l104 56q8 5 17 5t17 -5l104 -55q9 -4 9 -17q0 -7 -5 -11.5t-12 -4.5l-9 3l-104 55l-104 -56q-1 0 -4 -1.5t-4 -1.5q-7 0 -12.5 5.5t-5.5 13.5z" />
    <glyph glyph-name="Ycircumflex" unicode="&#x176;" horiz-adv-x="509" 
d="M22 715q0 16 13 16q11 0 20 -17l199 -401l200 401q8 17 20 17t12 -16q0 -10 -5 -20l-208 -416q-1 -2 -1 -6v-255q0 -18 -18 -18t-18 18v255q0 4 -1 6l-207 416q-6 12 -6 20zM124 878q0 10 9 14l104 56q8 5 17 5t17 -5l104 -55q9 -5 9 -17q0 -7 -5 -11.5t-12 -4.5l-9 3
l-104 55l-104 -56q-1 0 -4 -1.5t-4 -1.5q-7 0 -12.5 5.5t-5.5 13.5z" />
    <glyph glyph-name="ycircumflex" unicode="&#x177;" horiz-adv-x="395" 
d="M18 461q0 7 5.5 12t13.5 5q13 0 16 -11l145 -400l144 400q5 11 16 11q18 0 18 -17q0 -4 -1 -6l-160 -442l-20 -55q-6 -16 -21.5 -53t-28 -56t-30 -42t-37.5 -33.5t-42 -10.5q-7 0 -12 5t-5 12q0 18 15 18q17 0 33 8t30 27.5t23.5 34.5t23 48t18.5 46l18 51l-160 442
q-2 4 -2 6zM67 619q0 9 9 14l104 56q8 5 17 5t17 -5l104 -55q9 -4 9 -17q0 -7 -5 -11.5t-12 -4.5l-9 3l-104 55l-104 -56q-1 0 -4 -1.5t-4 -1.5q-7 0 -12.5 5.5t-5.5 13.5z" />
    <glyph glyph-name="Ydieresis" unicode="&#x178;" horiz-adv-x="509" 
d="M22 715q0 16 13 16q11 0 20 -17l199 -401l200 401q8 17 20 17t12 -16q0 -10 -5 -20l-208 -416q-1 -2 -1 -6v-255q0 -18 -18 -18t-18 18v255q0 4 -1 6l-207 416q-6 12 -6 20zM169 889q0 13 8.5 21t21.5 8t21 -8t8 -21t-8 -21.5t-21 -8.5t-21.5 8.5t-8.5 21.5zM280 889
q0 13 8.5 21t21.5 8t21 -8t8 -21t-8 -21.5t-21 -8.5t-21.5 8.5t-8.5 21.5z" />
    <glyph glyph-name="Zacute" unicode="&#x179;" horiz-adv-x="464" 
d="M27 17q0 6 3 12l350 666h-325q-18 0 -18 18t18 18h355q18 0 18 -15q0 -8 -5 -16l-349 -664h346q18 0 18 -18t-18 -18h-375q-18 0 -18 17zM156 878q0 9 8 13l102 60q4 2 7 2q16 0 16 -18q0 -12 -10 -18l-95 -54q-4 -3 -9 -3q-8 0 -13.5 5.5t-5.5 12.5z" />
    <glyph glyph-name="zacute" unicode="&#x17a;" horiz-adv-x="385" 
d="M26 16q0 8 4 12l267 409h-243q-7 0 -12.5 5t-5.5 12q0 8 5 13t13 5h277q7 0 12.5 -5t5.5 -13q0 -6 -3 -10l-268 -409h263q7 0 12.5 -5.5t5.5 -12.5t-5.5 -12t-12.5 -5h-297q-18 0 -18 16zM121 619q0 9 8 13l102 60q4 2 7 2q16 0 16 -18q0 -12 -10 -18l-95 -54
q-5 -3 -9 -3q-8 0 -13.5 5.5t-5.5 12.5z" />
    <glyph glyph-name="Zdotaccent" unicode="&#x17b;" horiz-adv-x="464" 
d="M27 17q0 6 3 12l350 666h-325q-18 0 -18 18t18 18h355q18 0 18 -15q0 -8 -5 -16l-349 -664h346q18 0 18 -18t-18 -18h-375q-18 0 -18 17zM193 889q0 13 8.5 21t21.5 8t21 -8t8 -21t-8 -21.5t-21 -8.5t-21.5 8.5t-8.5 21.5z" />
    <glyph glyph-name="zdotaccent" unicode="&#x17c;" horiz-adv-x="385" 
d="M26 16q0 8 4 12l267 409h-243q-7 0 -12.5 5t-5.5 12q0 8 5 13t13 5h277q7 0 12.5 -5t5.5 -13q0 -6 -3 -10l-268 -409h263q7 0 12.5 -5.5t5.5 -12.5t-5.5 -12t-12.5 -5h-297q-18 0 -18 16zM158 630q0 13 8.5 21t21.5 8t21 -8t8 -21t-8 -21.5t-21 -8.5t-21.5 8.5t-8.5 21.5
z" />
    <glyph glyph-name="Zcaron" unicode="&#x17d;" horiz-adv-x="464" 
d="M27 17q0 6 3 12l350 666h-325q-18 0 -18 18t18 18h355q18 0 18 -15q0 -8 -5 -16l-349 -664h346q18 0 18 -18t-18 -18h-375q-18 0 -18 17zM92 975q0 6 4.5 10.5t10.5 4.5q9 0 16 -8l98 -103l98 103q7 8 16 8q6 0 10.5 -4.5t4.5 -10.5t-8 -16l-100 -101q-11 -11 -21 -11
q-12 0 -21 11l-100 101q-8 10 -8 16z" />
    <glyph glyph-name="zcaron" unicode="&#x17e;" horiz-adv-x="385" 
d="M26 16q0 8 4 12l267 409h-243q-7 0 -12.5 5t-5.5 12q0 8 5 13t13 5h277q7 0 12.5 -5t5.5 -13q0 -6 -3 -10l-268 -409h263q7 0 12.5 -5.5t5.5 -12.5t-5.5 -12t-12.5 -5h-297q-18 0 -18 16zM57 716q0 6 4.5 10.5t10.5 4.5q9 0 16 -8l98 -103l98 103q7 8 16 8q6 0 10.5 -4.5
t4.5 -10.5t-8 -16l-100 -101q-11 -11 -21 -11q-12 0 -21 11l-100 101q-8 10 -8 16z" />
    <glyph glyph-name="florin" unicode="&#x192;" horiz-adv-x="324" 
d="M-77 -121q0 8 6.5 13.5t14.5 5.5h20q66 0 88 154l76 538q10 72 70.5 125t132.5 53h4q15 0 15 -16q0 -8 -6 -13.5t-14 -5.5h-4q-59 0 -107 -43t-56 -100l-27 -188h153q16 0 16 -15q0 -8 -6.5 -14t-14.5 -6h-153l-44 -315q-27 -189 -128 -189h-20q-16 0 -16 16z" />
    <glyph glyph-name="AEacute" unicode="&#x1fc;" horiz-adv-x="680" 
d="M79 23v502q0 107 53.5 156.5t142.5 49.5h360q17 0 17 -17q0 -19 -17 -19h-237v-311h160q17 0 17 -19q0 -17 -17 -17h-160v-312h237q17 0 17 -19q0 -17 -17 -17h-255q-18 0 -18 18v330h-247v-325q0 -23 -18 -23t-18 23zM115 384h247v311h-87q-77 0 -118.5 -42.5
t-41.5 -127.5v-141zM275 878q0 9 8 13l102 60q4 2 7 2q16 0 16 -18q0 -12 -10 -18l-95 -54q-5 -3 -9 -3q-8 0 -13.5 5.5t-5.5 12.5z" />
    <glyph glyph-name="aeacute" unicode="&#x1fd;" horiz-adv-x="719" 
d="M35 125q0 75 58.5 104t172.5 29h56v29q0 65 -33 111t-102 46q-34 0 -68 -14l-34 -13q-6 0 -11.5 7t-5.5 13q0 15 39.5 28.5t84.5 13.5q114 0 151 -101q23 44 65 72t93 28q30 0 59.5 -10.5t57 -32t44.5 -61t17 -90.5q0 -38 -15.5 -49.5t-67.5 -11.5h-235v-47
q0 -67 46.5 -107t118.5 -40q36 0 61.5 10.5t39 20.5t19.5 10t12 -5t6 -13q0 -21 -50 -39.5t-100 -18.5q-56 0 -103.5 27.5t-69.5 76.5q-29 -54 -75 -79t-95 -25q-58 0 -97 33.5t-39 97.5zM70 124q0 -46 28.5 -70.5t73.5 -24.5q58 0 104 38t46 72v84h-55q-46 0 -76.5 -3
t-60.5 -12.5t-45 -30.5t-15 -53zM293 619q0 9 8 13l102 60q4 2 7 2q16 0 16 -18q0 -12 -10 -18l-95 -54q-5 -3 -9 -3q-8 0 -13.5 5.5t-5.5 12.5zM361 258h223q38 0 49 7t11 28q0 59 -40 104.5t-102 45.5q-60 0 -100.5 -42t-40.5 -99v-44z" />
    <glyph glyph-name="Oslashacute" unicode="&#x1fe;" horiz-adv-x="543" 
d="M59 -5q0 6 2 9l40 77q-25 48 -25 119v325q0 107 53 156.5t142 49.5t141 -49l40 78q4 8 13 8q6 0 12 -5.5t6 -13.5q0 -5 -3 -11l-44 -85q31 -52 31 -128v-325q0 -107 -53.5 -156.5t-142.5 -49.5q-99 0 -148 56l-31 -59q-6 -11 -17 -11q-16 0 -16 15zM112 200q0 -43 11 -76
l271 523q-42 48 -123 48q-77 0 -118 -42.5t-41 -127.5v-325zM141 86q40 -56 130 -56q77 0 118.5 42.5t41.5 127.5v325q0 53 -16 88zM205 878q0 9 8 13l102 60q4 2 7 2q16 0 16 -18q0 -12 -10 -18l-95 -54q-5 -3 -9 -3q-8 0 -13.5 5.5t-5.5 12.5z" />
    <glyph glyph-name="oslashacute" unicode="&#x1ff;" 
d="M50 176v122q0 72 52.5 126t124.5 54q47 0 89 -25l25 48q4 8 13 8q6 0 12 -5.5t6 -13.5q0 -5 -3 -11l-25 -47q61 -54 61 -134v-122q0 -72 -53.5 -127t-124.5 -55q-49 0 -93 29l-23 -44q-5 -11 -17 -11q-16 0 -16 15q0 6 2 9l27 53q-57 55 -57 131zM85 176q0 -56 38 -99
l177 344q-33 22 -73 22q-59 0 -100.5 -44.5t-41.5 -100.5v-122zM149 54q34 -25 78 -25q58 0 100.5 45t42.5 102v122q0 58 -43 101zM161 619q0 9 8 13l102 60q4 2 7 2q16 0 16 -18q0 -12 -10 -18l-95 -54q-5 -3 -9 -3q-8 0 -13.5 5.5t-5.5 12.5z" />
    <glyph glyph-name="Scommaaccent" unicode="&#x218;" horiz-adv-x="481" 
d="M42 95q0 7 6 14t11 7t16 -13.5t25.5 -29.5t49 -29.5t80.5 -13.5q82 0 124.5 41.5t42.5 120.5q0 52 -18.5 87.5t-48.5 54t-66 31.5l-71 25q-36 13 -66 31t-48.5 52.5t-18.5 84.5q0 51 18.5 87.5t50 54t62.5 24.5t66 7q60 0 109 -17t49 -35q0 -7 -6 -14.5t-12 -7.5
q-4 0 -21 9.5t-48.5 19t-71.5 9.5q-42 0 -75.5 -10t-59 -41.5t-25.5 -82.5q0 -43 18.5 -72.5t48.5 -44.5t65.5 -27t71.5 -26.5t66 -35.5t48.5 -61.5t18.5 -98.5q0 -102 -53.5 -151.5t-144.5 -49.5q-45 0 -83.5 12t-61.5 28.5t-35.5 33t-12.5 27.5zM185 -123q0 9 8 13l102 60
q4 2 7 2q16 0 16 -18q0 -12 -10 -18l-95 -54q-5 -3 -9 -3q-8 0 -13.5 5.5t-5.5 12.5z" />
    <glyph glyph-name="scommaaccent" unicode="&#x219;" horiz-adv-x="373" 
d="M38 59q0 7 4.5 12t9.5 5t15 -8l21 -16q12 -8 37.5 -15.5t57.5 -7.5q59 0 88 23t29 60q0 43 -26 67.5t-63 35.5l-74 23q-37 11 -63 38t-26 72q0 51 38 90.5t110 39.5q44 0 83 -14t39 -28q0 -6 -5.5 -13t-11.5 -7q-1 0 -34.5 13.5t-69.5 13.5q-58 0 -86 -29.5t-28 -64.5
q0 -36 26 -57t63 -31t74 -22t63 -43t26 -82q0 -56 -40 -88t-111 -32q-62 0 -104 22t-42 43zM121 -123q0 9 8 13l102 60q4 2 7 2q16 0 16 -18q0 -12 -10 -18l-95 -54q-5 -3 -9 -3q-8 0 -13.5 5.5t-5.5 12.5z" />
    <glyph glyph-name="uni0237" unicode="&#x237;" horiz-adv-x="173" 
d="M-36 -219q0 17 18 17q53 0 70 38.5t17 115.5v503q0 17 17 17q18 0 18 -17v-503q0 -189 -122 -189q-7 0 -12.5 5.5t-5.5 12.5z" />
    <glyph glyph-name="uni0259" unicode="&#x259;" horiz-adv-x="445" 
d="M39 174q0 26 6 42t20 23t25.5 8.5t31.5 1.5h237v47q0 67 -47 107t-122 40q-37 0 -62 -10.5t-37.5 -20.5t-18.5 -10q-7 0 -12.5 6t-5.5 12q0 10 16 23.5t49 24t73 10.5q89 0 145.5 -50.5t56.5 -131.5v-125q0 -72 -52.5 -124.5t-125.5 -52.5q-72 0 -124.5 51.5t-52.5 128.5
zM74 177q0 -57 40 -102.5t102 -45.5q60 0 101.5 42.5t41.5 99.5v43h-225q-37 0 -48.5 -7t-11.5 -30z" />
    <glyph glyph-name="circumflex" unicode="&#x2c6;" horiz-adv-x="260" 
d="M0 619q0 9 9 14l104 56q8 5 17 5t17 -5l104 -55q9 -4 9 -17q0 -7 -5 -11.5t-12 -4.5l-9 3l-104 55l-104 -56q-1 0 -4 -1.5t-4 -1.5q-7 0 -12.5 5.5t-5.5 13.5z" />
    <glyph glyph-name="caron" unicode="&#x2c7;" horiz-adv-x="280" 
d="M11 716q0 6 4.5 10.5t10.5 4.5q9 0 16 -8l98 -103l98 103q7 8 16 8q6 0 10.5 -4.5t4.5 -10.5t-8 -16l-100 -101q-11 -11 -21 -11q-12 0 -21 11l-100 101q-8 10 -8 16z" />
    <glyph glyph-name="breve" unicode="&#x2d8;" horiz-adv-x="218" 
d="M0 710h32q0 -34 22.5 -58.5t54.5 -24.5q31 0 53.5 24.5t22.5 58.5h33q0 -44 -33 -76.5t-76 -32.5q-44 0 -76.5 32.5t-32.5 76.5z" />
    <glyph glyph-name="dotaccent" unicode="&#x2d9;" horiz-adv-x="207" 
d="M80 630q0 13 8.5 21t21.5 8t21 -8t8 -21t-8 -21.5t-21 -8.5t-21.5 8.5t-8.5 21.5z" />
    <glyph glyph-name="ring" unicode="&#x2da;" horiz-adv-x="180" 
d="M0 677q0 36 26.5 63.5t63.5 27.5q35 0 62.5 -27.5t27.5 -63.5q0 -37 -27.5 -65t-62.5 -28q-37 0 -63.5 28t-26.5 65zM24 677q0 -27 20 -48.5t46 -21.5t45.5 21.5t19.5 48.5q0 24 -19.5 44.5t-45.5 20.5q-27 0 -46.5 -20.5t-19.5 -44.5z" />
    <glyph glyph-name="ogonek" unicode="&#x2db;" horiz-adv-x="110" 
d="M0 -128q0 74 75 146l26 -16q-36 -35 -54 -63.5t-18 -64.5q0 -43 63 -43q18 0 18 -13t-23 -13q-34 0 -60.5 15.5t-26.5 51.5z" />
    <glyph glyph-name="tilde" unicode="&#x2dc;" horiz-adv-x="295" 
d="M0 638q0 19 30.5 35.5t58.5 16.5q24 0 62.5 -18.5t64.5 -18.5q20 0 32.5 8t19.5 16t13 8q14 0 14 -15q0 -21 -28.5 -36t-55.5 -15q-23 0 -61.5 18.5t-67.5 18.5q-19 0 -33 -9t-22.5 -17.5t-13.5 -8.5q-13 0 -13 17z" />
    <glyph glyph-name="hungarumlaut" unicode="&#x2dd;" horiz-adv-x="280" 
d="M0 619q0 9 8 13l102 60q4 2 7 2q16 0 16 -18q0 -12 -10 -18l-95 -54q-4 -3 -9 -3q-8 0 -13.5 5.5t-5.5 12.5zM147 619q0 9 8 13l102 60q4 2 7 2q16 0 16 -18q0 -12 -10 -18l-95 -54q-5 -3 -9 -3q-8 0 -13.5 5.5t-5.5 12.5z" />
    <glyph glyph-name="pi" unicode="&#x3c0;" horiz-adv-x="467" 
d="M68 17v437q0 18 18 18h295q18 0 18 -18v-437q0 -17 -18 -17t-18 17v419h-259v-419q0 -17 -18 -17t-18 17z" />
    <glyph glyph-name="Wgrave" unicode="&#x1e80;" horiz-adv-x="739" 
d="M26 715q0 16 17 16q16 0 19 -13l180 -648l106 385q5 17 22 17q15 0 20 -17l108 -385l179 648q3 13 19 13q17 0 17 -16q0 -3 -1 -6l-195 -701q-5 -14 -19 -14q-15 0 -18 14l-110 392l-109 -392q-5 -14 -19 -14q-15 0 -18 14l-197 701q-1 3 -1 6zM303 935q0 18 16 18
q3 0 7 -2l102 -60q8 -4 8 -13q0 -7 -5.5 -12.5t-13.5 -5.5q-5 0 -9 3l-95 54q-10 6 -10 18z" />
    <glyph glyph-name="wgrave" unicode="&#x1e81;" horiz-adv-x="654" 
d="M19 454q0 8 5.5 13t12.5 5q12 0 17 -11l141 -391l115 362q5 13 18 13t18 -13l111 -367l144 396q3 11 16 11q18 0 18 -17q0 -6 -4 -14l-157 -435q-4 -12 -15 -12q-9 0 -14 11l-117 375l-115 -369q-6 -17 -17 -17q-7 0 -10 3t-7 14l-156 430q-4 8 -4 13zM260 676
q0 18 16 18q3 0 7 -2l102 -60q8 -4 8 -13q0 -7 -5.5 -12.5t-13.5 -5.5q-4 0 -9 3l-95 54q-10 6 -10 18z" />
    <glyph glyph-name="Wacute" unicode="&#x1e82;" horiz-adv-x="739" 
d="M26 715q0 16 17 16q16 0 19 -13l180 -648l106 385q5 17 22 17q15 0 20 -17l108 -385l179 648q3 13 19 13q17 0 17 -16q0 -3 -1 -6l-195 -701q-5 -14 -19 -14q-15 0 -18 14l-110 392l-109 -392q-5 -14 -19 -14q-15 0 -18 14l-197 701q-1 3 -1 6zM303 878q0 9 8 13l102 60
q4 2 7 2q16 0 16 -18q0 -12 -10 -18l-95 -54q-5 -3 -9 -3q-8 0 -13.5 5.5t-5.5 12.5z" />
    <glyph glyph-name="wacute" unicode="&#x1e83;" horiz-adv-x="654" 
d="M19 454q0 8 5.5 13t12.5 5q12 0 17 -11l141 -391l115 362q5 13 18 13t18 -13l111 -367l144 396q3 11 16 11q18 0 18 -17q0 -6 -4 -14l-157 -435q-4 -12 -15 -12q-9 0 -14 11l-117 375l-115 -369q-6 -17 -17 -17q-7 0 -10 3t-7 14l-156 430q-4 8 -4 13zM260 619q0 9 8 13
l102 60q4 2 7 2q16 0 16 -18q0 -12 -10 -18l-95 -54q-4 -3 -9 -3q-8 0 -13.5 5.5t-5.5 12.5z" />
    <glyph glyph-name="Wdieresis" unicode="&#x1e84;" horiz-adv-x="739" 
d="M26 715q0 16 17 16q16 0 19 -13l180 -648l106 385q5 17 22 17q15 0 20 -17l108 -385l179 648q3 13 19 13q17 0 17 -16q0 -3 -1 -6l-195 -701q-5 -14 -19 -14q-15 0 -18 14l-110 392l-109 -392q-5 -14 -19 -14q-15 0 -18 14l-197 701q-1 3 -1 6zM284 889q0 13 8.5 21
t21.5 8t21 -8t8 -21t-8 -21.5t-21 -8.5t-21.5 8.5t-8.5 21.5zM395 889q0 13 8.5 21t21.5 8t21 -8t8 -21t-8 -21.5t-21 -8.5t-21.5 8.5t-8.5 21.5z" />
    <glyph glyph-name="wdieresis" unicode="&#x1e85;" horiz-adv-x="654" 
d="M19 454q0 8 5.5 13t12.5 5q12 0 17 -11l141 -391l115 362q5 13 18 13t18 -13l111 -367l144 396q3 11 16 11q18 0 18 -17q0 -6 -4 -14l-157 -435q-4 -12 -15 -12q-9 0 -14 11l-117 375l-115 -369q-6 -17 -17 -17q-7 0 -10 3t-7 14l-156 430q-4 8 -4 13zM242 630
q0 13 8.5 21t21.5 8t21 -8t8 -21t-8 -21.5t-21 -8.5t-21.5 8.5t-8.5 21.5zM353 630q0 13 8.5 21t21.5 8t21 -8t8 -21t-8 -21.5t-21 -8.5t-21.5 8.5t-8.5 21.5z" />
    <glyph glyph-name="Ygrave" unicode="&#x1ef2;" horiz-adv-x="509" 
d="M22 715q0 16 13 16q11 0 20 -17l199 -401l200 401q8 17 20 17t12 -16q0 -10 -5 -20l-208 -416q-1 -2 -1 -6v-255q0 -18 -18 -18t-18 18v255q0 4 -1 6l-207 416q-6 12 -6 20zM188 935q0 18 16 18q3 0 7 -2l102 -60q8 -4 8 -13q0 -7 -5.5 -12.5t-13.5 -5.5q-4 0 -9 3
l-95 54q-10 6 -10 18z" />
    <glyph glyph-name="ygrave" unicode="&#x1ef3;" horiz-adv-x="395" 
d="M18 461q0 7 5.5 12t13.5 5q13 0 16 -11l145 -400l144 400q5 11 16 11q18 0 18 -17q0 -4 -1 -6l-160 -442l-20 -55q-6 -16 -21.5 -53t-28 -56t-30 -42t-37.5 -33.5t-42 -10.5q-7 0 -12 5t-5 12q0 18 15 18q17 0 33 8t30 27.5t23.5 34.5t23 48t18.5 46l18 51l-160 442
q-2 4 -2 6zM130 676q0 18 16 18q3 0 7 -2l102 -60q8 -4 8 -13q0 -7 -5.5 -12.5t-13.5 -5.5q-4 0 -9 3l-95 54q-10 6 -10 18z" />
    <glyph glyph-name="endash" unicode="&#x2013;" 
d="M50 240q0 18 17 18h320q7 0 12.5 -5.5t5.5 -12.5t-5.5 -12t-12.5 -5h-320q-17 0 -17 17z" />
    <glyph glyph-name="emdash" unicode="&#x2014;" horiz-adv-x="735" 
d="M50 240q0 18 17 18h600q7 0 12.5 -5.5t5.5 -12.5t-5.5 -12t-12.5 -5h-600q-17 0 -17 17z" />
    <glyph glyph-name="quoteleft" unicode="&#x2018;" horiz-adv-x="150" 
d="M39 634q0 31 33 97q5 10 14 10q16 0 16 -15q0 -4 -1 -6l-18 -51q27 -7 27 -35q0 -15 -10 -25.5t-26 -10.5q-14 0 -24.5 10.5t-10.5 25.5z" />
    <glyph glyph-name="quoteright" unicode="&#x2019;" horiz-adv-x="148" 
d="M41 705q0 15 10 25.5t26 10.5q14 0 24.5 -10.5t10.5 -25.5q0 -31 -33 -97q-5 -10 -14 -10q-16 0 -16 15q0 4 1 6l18 51q-27 7 -27 35z" />
    <glyph glyph-name="quotesinglbase" unicode="&#x201a;" horiz-adv-x="162" 
d="M45 30q0 15 10 25.5t26 10.5q14 0 24.5 -10.5t10.5 -25.5q0 -31 -33 -97q-5 -10 -14 -10q-16 0 -16 15q0 4 1 6l18 51q-27 7 -27 35z" />
    <glyph glyph-name="quotedblleft" unicode="&#x201c;" horiz-adv-x="284" 
d="M39 634q0 31 33 97q5 10 14 10q16 0 16 -15q0 -4 -1 -6l-18 -51q27 -7 27 -35q0 -15 -10 -25.5t-26 -10.5q-14 0 -24.5 10.5t-10.5 25.5zM173 634q0 31 33 97q5 10 14 10q16 0 16 -15q0 -4 -1 -6l-18 -51q27 -7 27 -35q0 -15 -10 -25.5t-26 -10.5q-14 0 -24.5 10.5
t-10.5 25.5z" />
    <glyph glyph-name="quotedblright" unicode="&#x201d;" horiz-adv-x="282" 
d="M41 705q0 15 10 25.5t26 10.5q14 0 24.5 -10.5t10.5 -25.5q0 -31 -33 -97q-5 -10 -14 -10q-16 0 -16 15q0 4 1 6l18 51q-27 7 -27 35zM175 705q0 15 10 25.5t26 10.5q14 0 24.5 -10.5t10.5 -25.5q0 -31 -33 -97q-5 -10 -14 -10q-16 0 -16 15q0 4 1 6l18 51q-27 7 -27 35z
" />
    <glyph glyph-name="quotedblbase" unicode="&#x201e;" horiz-adv-x="296" 
d="M45 30q0 15 10 25.5t26 10.5q14 0 24.5 -10.5t10.5 -25.5q0 -31 -33 -97q-5 -10 -14 -10q-16 0 -16 15q0 4 1 6l18 51q-27 7 -27 35zM179 30q0 15 10 25.5t26 10.5q14 0 24.5 -10.5t10.5 -25.5q0 -31 -33 -97q-5 -10 -14 -10q-16 0 -16 15q0 4 1 6l18 51q-27 7 -27 35z
" />
    <glyph glyph-name="dagger" unicode="&#x2020;" horiz-adv-x="403" 
d="M24 454q0 18 17 18l142 -6v248q0 7 5.5 12t12.5 5t12.5 -5t5.5 -12v-248l142 6q7 0 12.5 -5.5t5.5 -12.5t-5.5 -12t-12.5 -5l-142 6v-447q0 -7 -5.5 -12t-12.5 -5t-12.5 5t-5.5 12v447l-142 -6q-17 0 -17 17z" />
    <glyph glyph-name="daggerdbl" unicode="&#x2021;" horiz-adv-x="437" 
d="M41 241q0 17 17 17l142 -6v191l-142 -6q-17 0 -17 17q0 18 17 18l142 -6v248q0 7 5.5 12t12.5 5t12.5 -5t5.5 -12v-248l142 6q7 0 12.5 -5.5t5.5 -12.5t-5.5 -12t-12.5 -5l-142 6v-191l142 6q7 0 12.5 -5t5.5 -12t-5.5 -12.5t-12.5 -5.5l-142 6v-233q0 -7 -5.5 -12
t-12.5 -5t-12.5 5t-5.5 12v233l-142 -6q-17 0 -17 18z" />
    <glyph glyph-name="bullet" unicode="&#x2022;" horiz-adv-x="304" 
d="M56 300q0 37 28.5 65t67.5 28q38 0 66.5 -28t28.5 -65q0 -38 -28.5 -66t-66.5 -28q-39 0 -67.5 28t-28.5 66z" />
    <glyph glyph-name="ellipsis" unicode="&#x2026;" horiz-adv-x="514" 
d="M45 30q0 15 10 25.5t26 10.5q14 0 24.5 -10.5t10.5 -25.5q0 -14 -10.5 -25t-24.5 -11q-15 0 -25.5 10.5t-10.5 25.5zM222 30q0 15 10 25.5t26 10.5q14 0 24.5 -10.5t10.5 -25.5q0 -14 -10.5 -25t-24.5 -11q-15 0 -25.5 10.5t-10.5 25.5zM398 30q0 15 10 25.5t26 10.5
q14 0 24.5 -10.5t10.5 -25.5q0 -14 -10.5 -25t-24.5 -11q-15 0 -25.5 10.5t-10.5 25.5z" />
    <glyph glyph-name="perthousand" unicode="&#x2030;" horiz-adv-x="1037" 
d="M46 469v155q0 55 31.5 81t83.5 26t83.5 -26t31.5 -81v-155q0 -55 -31.5 -81t-83.5 -26t-83.5 26t-31.5 81zM80 469q0 -76 81 -76q82 0 82 76v155q0 76 -82 76q-81 0 -81 -76v-155zM163 -5q0 6 2 9l391 756q4 8 13 8q6 0 12 -5.5t6 -13.5q0 -5 -3 -11l-388 -747
q-6 -11 -17 -11q-16 0 -16 15zM465 104v155q0 55 31.5 81t83.5 26t83.5 -26t31.5 -81v-155q0 -55 -31.5 -81t-83.5 -26t-83.5 26t-31.5 81zM499 104q0 -76 81 -76q82 0 82 76v155q0 76 -82 76q-81 0 -81 -76v-155zM764 104v155q0 55 31.5 81t83.5 26t83.5 -26t31.5 -81v-155
q0 -55 -31.5 -81t-83.5 -26t-83.5 26t-31.5 81zM798 104q0 -76 81 -76q82 0 82 76v155q0 76 -82 76q-81 0 -81 -76v-155z" />
    <glyph glyph-name="guilsinglleft" unicode="&#x2039;" horiz-adv-x="215" 
d="M40 277q0 9 5 17l96 178q5 9 17 9q7 0 11.5 -5t4.5 -12q0 -4 -3 -9l-96 -178l96 -177q3 -4 3 -9q0 -7 -5.5 -12t-12.5 -5q-10 0 -15 9l-96 177q-5 8 -5 17z" />
    <glyph glyph-name="guilsinglright" unicode="&#x203a;" horiz-adv-x="215" 
d="M41 91q0 5 3 9l96 177l-96 178q-3 5 -3 9q0 7 4.5 12t11.5 5q13 0 17 -9l96 -178q5 -8 5 -17t-5 -17l-96 -177q-5 -9 -15 -9q-7 0 -12.5 5t-5.5 12z" />
    <glyph glyph-name="fraction" unicode="&#x2044;" horiz-adv-x="130" 
d="M-143 -5q0 6 2 9l391 756q4 8 13 8q6 0 12 -5.5t6 -13.5q0 -5 -3 -11l-388 -747q-6 -11 -17 -11q-16 0 -16 15z" />
    <glyph glyph-name="uni2070" unicode="&#x2070;" horiz-adv-x="332" 
d="M51 469v155q0 55 31.5 81t83.5 26t83.5 -26t31.5 -81v-155q0 -55 -31.5 -81t-83.5 -26t-83.5 26t-31.5 81zM85 469q0 -76 81 -76q82 0 82 76v155q0 76 -82 76q-81 0 -81 -76v-155z" />
    <glyph glyph-name="uni2074" unicode="&#x2074;" horiz-adv-x="274" 
d="M18 465q0 2 2 8l141 247q6 11 16 11q6 0 11.5 -4t5.5 -10q0 -3 -2 -7l-131 -227h114v96q0 12 16 12q17 0 17 -12v-96h31q14 0 14 -16q0 -6 -4 -11t-10 -5h-31v-73q0 -13 -17 -13q-16 0 -16 13v73h-144q-13 0 -13 14z" />
    <glyph glyph-name="uni2075" unicode="&#x2075;" horiz-adv-x="298" 
d="M33 444q0 20 17 20t17 -15q2 -56 77 -56q85 0 85 75v10q0 73 -81 73h-77q-18 0 -18 12q0 13 1 22l11 133q2 13 11 13h155q12 0 12 -16q0 -15 -12 -15h-136l-10 -120h63q52 0 83.5 -24.5t31.5 -77.5v-10q0 -55 -31.5 -80.5t-82.5 -25.5q-53 0 -84.5 24.5t-31.5 57.5z" />
    <glyph glyph-name="uni2076" unicode="&#x2076;" horiz-adv-x="322" 
d="M50 493v131q0 55 32 81t84 26q53 0 83.5 -25.5t30.5 -60.5q0 -16 -16 -16q-17 0 -17 15q0 25 -23.5 40.5t-58.5 15.5q-81 0 -81 -76v-77q27 34 85 34q111 0 111 -100v-12q0 -55 -31.5 -81t-83.5 -26q-60 0 -87.5 30t-27.5 101zM84 467q0 -75 81 -75q82 0 82 75v12
q0 73 -82 73q-81 0 -81 -68v-17z" />
    <glyph glyph-name="uni2077" unicode="&#x2077;" horiz-adv-x="282" 
d="M31 642v76q0 5 5 9t11 4h198q5 0 10.5 -4.5t5.5 -8.5v-43q0 -7 -4 -15l-169 -289q-4 -7 -12 -7q-20 0 -20 16q0 1 2 7l170 286v27h-163v-58q0 -5 -5.5 -9t-11.5 -4q-17 0 -17 13z" />
    <glyph glyph-name="uni2078" unicode="&#x2078;" horiz-adv-x="314" 
d="M42 465v6q0 71 60 93q-49 19 -49 79q0 88 104 88t104 -88q0 -61 -49 -79q60 -22 60 -93v-6q0 -53 -31.5 -78t-83.5 -25t-83.5 25t-31.5 78zM76 467q0 -76 82 -76q81 0 81 76v8q0 74 -82 74q-81 0 -81 -74v-8zM86 640q0 -61 71 -61t71 61t-71 61t-71 -61z" />
    <glyph glyph-name="uni2079" unicode="&#x2079;" horiz-adv-x="323" 
d="M42 447q0 16 16 16q17 0 17 -14q0 -25 23.5 -40.5t58.5 -15.5q82 0 82 76v76q-29 -33 -86 -33q-111 0 -111 100v12q0 55 31.5 81t83.5 26t83.5 -26t31.5 -81v-155q0 -107 -116 -107q-53 0 -83.5 25t-30.5 60zM76 613q0 -72 81 -72q82 0 82 68v16q0 76 -82 76
q-81 0 -81 -76v-12z" />
    <glyph glyph-name="uni2080" unicode="&#x2080;" horiz-adv-x="332" 
d="M51 104v155q0 55 31.5 81t83.5 26t83.5 -26t31.5 -81v-155q0 -55 -31.5 -81t-83.5 -26t-83.5 26t-31.5 81zM85 104q0 -76 81 -76q82 0 82 76v155q0 76 -82 76q-81 0 -81 -76v-155z" />
    <glyph glyph-name="uni2081" unicode="&#x2081;" horiz-adv-x="158" 
d="M23 285q0 8 7 15l45 59q5 7 14 7q14 0 14 -13v-340q0 -13 -16 -13q-17 0 -17 13v296l-23 -32q-4 -6 -10 -6t-10 4.5t-4 9.5z" />
    <glyph glyph-name="uni2082" unicode="&#x2082;" horiz-adv-x="299" 
d="M37 13v48q0 23 19.5 44.5t47.5 39.5l56 36q28 18 47.5 40.5t19.5 46.5q0 26 -20.5 46t-57.5 20q-31 0 -50 -15t-19 -44q0 -13 -18 -13q-16 0 -16 20q0 37 29.5 60.5t74.5 23.5q48 0 79 -28t31 -69q0 -36 -29.5 -68t-65 -51t-65 -43t-29.5 -46v-30h181q13 0 13 -15
q0 -6 -4 -11t-9 -5h-199q-16 0 -16 13z" />
    <glyph glyph-name="uni2083" unicode="&#x2083;" horiz-adv-x="305" 
d="M34 80q0 17 15 17q18 0 18 -14q0 -20 19 -37.5t62 -17.5q83 0 83 75v9q0 66 -82 66q-14 0 -14 14q0 15 14 15q36 0 53.5 14.5t17.5 49.5q0 64 -69 64q-41 0 -57.5 -16t-16.5 -37q0 -16 -16 -16q-10 0 -13.5 4t-3.5 15q0 29 24.5 55t83.5 26q101 0 101 -88q0 -66 -46 -85
q57 -21 57 -81v-9q0 -55 -31.5 -80.5t-83.5 -25.5q-54 0 -84.5 25.5t-30.5 57.5z" />
    <glyph glyph-name="uni2084" unicode="&#x2084;" horiz-adv-x="274" 
d="M18 100q0 2 2 8l141 247q6 11 16 11q6 0 11.5 -4t5.5 -10q0 -3 -2 -7l-131 -227h114v96q0 12 16 12q17 0 17 -12v-96h31q14 0 14 -16q0 -6 -4 -11t-10 -5h-31v-73q0 -13 -17 -13q-16 0 -16 13v73h-144q-13 0 -13 14z" />
    <glyph glyph-name="uni2085" unicode="&#x2085;" horiz-adv-x="298" 
d="M33 79q0 20 17 20t17 -15q2 -56 77 -56q85 0 85 75v10q0 73 -81 73h-77q-18 0 -18 12q0 13 1 22l11 133q2 13 11 13h155q12 0 12 -16q0 -15 -12 -15h-136l-10 -120h63q52 0 83.5 -24.5t31.5 -77.5v-10q0 -55 -31.5 -80.5t-82.5 -25.5q-53 0 -84.5 24.5t-31.5 57.5z" />
    <glyph glyph-name="uni2086" unicode="&#x2086;" horiz-adv-x="322" 
d="M50 128v131q0 55 32 81t84 26q53 0 83.5 -25.5t30.5 -60.5q0 -16 -16 -16q-17 0 -17 15q0 25 -23.5 40.5t-58.5 15.5q-81 0 -81 -76v-77q27 34 85 34q111 0 111 -100v-12q0 -55 -31.5 -81t-83.5 -26q-60 0 -87.5 30t-27.5 101zM84 102q0 -75 81 -75q82 0 82 75v12
q0 73 -82 73q-81 0 -81 -68v-17z" />
    <glyph glyph-name="uni2087" unicode="&#x2087;" horiz-adv-x="283" 
d="M31 277v76q0 5 5 9t11 4h198q5 0 10.5 -4.5t5.5 -8.5v-43q0 -7 -4 -15l-169 -289q-4 -7 -12 -7q-20 0 -20 16q0 1 2 7l170 286v27h-163v-58q0 -5 -5.5 -9t-11.5 -4q-17 0 -17 13z" />
    <glyph glyph-name="uni2088" unicode="&#x2088;" horiz-adv-x="312" 
d="M41 100v6q0 71 60 93q-49 19 -49 79q0 88 104 88t104 -88q0 -61 -49 -79q60 -22 60 -93v-6q0 -53 -31.5 -78t-83.5 -25t-83.5 25t-31.5 78zM75 102q0 -76 82 -76q81 0 81 76v8q0 74 -82 74q-81 0 -81 -74v-8zM85 275q0 -61 71 -61t71 61t-71 61t-71 -61z" />
    <glyph glyph-name="uni2089" unicode="&#x2089;" horiz-adv-x="323" 
d="M42 82q0 16 16 16q17 0 17 -14q0 -25 23.5 -40.5t58.5 -15.5q82 0 82 76v76q-29 -33 -86 -33q-111 0 -111 100v12q0 55 31.5 81t83.5 26t83.5 -26t31.5 -81v-155q0 -107 -116 -107q-53 0 -83.5 25t-30.5 60zM76 248q0 -72 81 -72q82 0 82 68v16q0 76 -82 76
q-81 0 -81 -76v-12z" />
    <glyph glyph-name="Euro" unicode="&#x20ac;" horiz-adv-x="567" 
d="M37 281q0 18 17 18h70v108h-70q-17 0 -17 17q0 18 17 18h70v83q0 107 53 156.5t142 49.5q90 0 143 -47t53 -118q0 -20 -18 -20t-18 18q0 64 -45 97.5t-115 33.5q-77 0 -118 -42.5t-41 -127.5v-83h204q7 0 12.5 -5.5t5.5 -12.5t-5.5 -12t-12.5 -5h-204v-108h204
q7 0 12.5 -5.5t5.5 -12.5t-5.5 -12t-12.5 -5h-204v-64q0 -85 41 -127.5t118 -42.5q70 0 115 33.5t45 97.5q0 18 18 18t18 -20q0 -71 -53 -118t-143 -47q-89 0 -142 49.5t-53 156.5v64h-70q-17 0 -17 17z" />
    <glyph glyph-name="trademark" unicode="&#x2122;" horiz-adv-x="606" 
d="M34 751q0 17 13 17h187q13 0 13 -17q0 -18 -13 -18h-75v-247q0 -14 -18 -14q-19 0 -19 14v247h-75q-13 0 -13 18zM277 486v264q0 18 18 18q17 0 28 -26l75 -177l76 177q10 26 28 26t18 -18v-264q0 -14 -18 -14t-18 14v203l-72 -168q-5 -12 -14 -12t-13 12l-72 170v-205
q0 -14 -18 -14t-18 14z" />
    <glyph glyph-name="uni2126" unicode="&#x2126;" horiz-adv-x="534" 
d="M60 18q0 7 5 12t12 5h107v40q-112 40 -112 193v257q0 107 53 156.5t142 49.5t142 -49.5t53 -156.5v-257q0 -152 -112 -193v-40h107q7 0 12 -5t5 -12q0 -18 -17 -18h-142v103q111 25 111 165v257q0 85 -41 127.5t-118 42.5t-118 -42.5t-41 -127.5v-257q0 -140 111 -165
v-103h-142q-17 0 -17 18z" />
    <glyph glyph-name="estimated" unicode="&#x212e;" horiz-adv-x="535" 
d="M59 206v65q0 83 65 145t153 62q84 0 145.5 -51.5t61.5 -128.5q0 -26 -6.5 -42t-20 -23t-25 -8.5t-31.5 -1.5h-257v-47q0 -67 45 -107t114 -40q46 0 77.5 10.5t47 20.5t23.5 10q7 0 12.5 -6t5.5 -12q0 -10 -19 -23t-59.5 -24t-89.5 -11q-107 0 -174.5 58.5t-67.5 153.5z
M144 258h205q37 0 48.5 7t11.5 30q0 57 -37.5 102.5t-94.5 45.5q-55 0 -94 -42.5t-39 -99.5v-43z" />
    <glyph glyph-name="onethird" unicode="&#x2153;" horiz-adv-x="619" 
d="M39 650q0 8 7 15l45 59q5 7 14 7q14 0 14 -13v-340q0 -13 -16 -13q-17 0 -17 13v296l-23 -32q-4 -6 -10 -6t-10 4.5t-4 9.5zM57 -5q0 6 2 9l391 756q4 8 13 8q6 0 12 -5.5t6 -13.5q0 -5 -3 -11l-388 -747q-6 -11 -17 -11q-16 0 -16 15zM349 80q0 17 15 17q18 0 18 -14
q0 -20 19 -37.5t62 -17.5q83 0 83 75v9q0 66 -82 66q-14 0 -14 14q0 15 14 15q36 0 53.5 14.5t17.5 49.5q0 64 -69 64q-41 0 -57.5 -16t-16.5 -37q0 -16 -16 -16q-10 0 -13.5 4t-3.5 15q0 29 24.5 55t83.5 26q101 0 101 -88q0 -66 -46 -85q57 -21 57 -81v-9
q0 -55 -31.5 -80.5t-83.5 -25.5q-54 0 -84.5 25.5t-30.5 57.5z" />
    <glyph glyph-name="twothirds" unicode="&#x2154;" horiz-adv-x="728" 
d="M41 378v48q0 23 19.5 44.5t47.5 39.5l56 36q28 18 47.5 40.5t19.5 46.5q0 26 -20.5 46t-57.5 20q-31 0 -50 -15t-19 -44q0 -13 -18 -13q-16 0 -16 20q0 37 29.5 60.5t74.5 23.5q48 0 79 -28t31 -69q0 -36 -29.5 -68t-65 -51t-65 -43t-29.5 -46v-30h181q13 0 13 -15
q0 -6 -4 -11t-9 -5h-199q-16 0 -16 13zM174 -5q0 6 2 9l391 756q4 8 13 8q6 0 12 -5.5t6 -13.5q0 -5 -3 -11l-388 -747q-5 -11 -17 -11q-16 0 -16 15zM457 80q0 17 15 17q18 0 18 -14q0 -20 19 -37.5t62 -17.5q83 0 83 75v9q0 66 -82 66q-14 0 -14 14q0 15 14 15
q36 0 53.5 14.5t17.5 49.5q0 64 -69 64q-41 0 -57.5 -16t-16.5 -37q0 -16 -16 -16q-10 0 -13.5 4t-3.5 15q0 29 24.5 55t83.5 26q101 0 101 -88q0 -66 -46 -85q57 -21 57 -81v-9q0 -55 -31.5 -80.5t-83.5 -25.5q-54 0 -84.5 25.5t-30.5 57.5z" />
    <glyph glyph-name="oneeighth" unicode="&#x215b;" horiz-adv-x="619" 
d="M39 650q0 8 7 15l45 59q5 7 14 7q14 0 14 -13v-340q0 -13 -16 -13q-17 0 -17 13v296l-23 -32q-4 -6 -10 -6t-10 4.5t-4 9.5zM57 -5q0 6 2 9l391 756q4 8 13 8q6 0 12 -5.5t6 -13.5q0 -5 -3 -11l-388 -747q-6 -11 -17 -11q-16 0 -16 15zM349 100v6q0 71 60 93
q-49 19 -49 79q0 88 104 88t104 -88q0 -61 -49 -79q60 -22 60 -93v-6q0 -53 -31.5 -78t-83.5 -25t-83.5 25t-31.5 78zM383 102q0 -76 82 -76q81 0 81 76v8q0 74 -82 74q-81 0 -81 -74v-8zM393 275q0 -61 71 -61t71 61t-71 61t-71 -61z" />
    <glyph glyph-name="threeeighths" unicode="&#x215c;" horiz-adv-x="734" 
d="M36 445q0 17 15 17q18 0 18 -14q0 -20 19 -37.5t62 -17.5q83 0 83 75v9q0 66 -82 66q-14 0 -14 14q0 15 14 15q36 0 53.5 14.5t17.5 49.5q0 64 -69 64q-41 0 -57.5 -16t-16.5 -37q0 -16 -16 -16q-10 0 -13.5 4t-3.5 15q0 29 24.5 55t83.5 26q101 0 101 -88q0 -66 -46 -85
q57 -21 57 -81v-9q0 -55 -31.5 -80.5t-83.5 -25.5q-54 0 -84.5 25.5t-30.5 57.5zM172 -5q0 6 2 9l391 756q4 8 13 8q6 0 12 -5.5t6 -13.5q0 -5 -3 -11l-388 -747q-5 -11 -17 -11q-16 0 -16 15zM464 100v6q0 71 60 93q-49 19 -49 79q0 88 104 88t104 -88q0 -61 -49 -79
q60 -22 60 -93v-6q0 -53 -31.5 -78t-83.5 -25t-83.5 25t-31.5 78zM498 102q0 -76 82 -76q81 0 81 76v8q0 74 -82 74q-81 0 -81 -74v-8zM508 275q0 -61 71 -61t71 61t-71 61t-71 -61z" />
    <glyph glyph-name="fiveeighths" unicode="&#x215d;" horiz-adv-x="733" 
d="M35 444q0 20 17 20t17 -15q2 -56 77 -56q85 0 85 75v10q0 73 -81 73h-77q-18 0 -18 12q0 13 1 22l11 133q2 13 11 13h155q12 0 12 -16q0 -15 -12 -15h-136l-10 -120h63q52 0 83.5 -24.5t31.5 -77.5v-10q0 -55 -31.5 -80.5t-82.5 -25.5q-53 0 -84.5 24.5t-31.5 57.5z
M171 -5q0 6 2 9l391 756q4 8 13 8q6 0 12 -5.5t6 -13.5q0 -5 -3 -11l-388 -747q-6 -11 -17 -11q-16 0 -16 15zM463 100v6q0 71 60 93q-49 19 -49 79q0 88 104 88t104 -88q0 -61 -49 -79q60 -22 60 -93v-6q0 -53 -31.5 -78t-83.5 -25t-83.5 25t-31.5 78zM497 102
q0 -76 82 -76q81 0 81 76v8q0 74 -82 74q-81 0 -81 -74v-8zM507 275q0 -61 71 -61t71 61t-71 61t-71 -61z" />
    <glyph glyph-name="seveneighths" unicode="&#x215e;" horiz-adv-x="732" 
d="M37 642v76q0 5 5 9t11 4h198q5 0 10.5 -4.5t5.5 -8.5v-43q0 -7 -4 -15l-169 -289q-4 -7 -12 -7q-20 0 -20 16q0 1 2 7l170 286v27h-163v-58q0 -5 -5.5 -9t-11.5 -4q-17 0 -17 13zM122 -5q0 6 2 9l391 756q4 8 13 8q6 0 12 -5.5t6 -13.5q0 -5 -3 -11l-388 -747
q-5 -11 -17 -11q-16 0 -16 15zM464 100v6q0 71 60 93q-49 19 -49 79q0 88 104 88t104 -88q0 -61 -49 -79q60 -22 60 -93v-6q0 -53 -31.5 -78t-83.5 -25t-83.5 25t-31.5 78zM498 102q0 -76 82 -76q81 0 81 76v8q0 74 -82 74q-81 0 -81 -74v-8zM508 275q0 -61 71 -61t71 61
t-71 61t-71 -61z" />
    <glyph glyph-name="arrowleft" unicode="&#x2190;" horiz-adv-x="771" 
d="M70 240q0 9 9 18l215 214q7 5 13 5q7 0 12 -5.5t5 -12.5t-5 -12l-190 -189h555q17 0 17 -18q0 -17 -17 -17h-555l190 -189q5 -4 5 -12q0 -18 -17 -18q-8 0 -13 5l-215 214q-9 9 -9 17z" />
    <glyph glyph-name="arrowup" unicode="&#x2191;" horiz-adv-x="771" 
d="M149 319q0 8 5 13l214 215q9 9 17 9q9 0 18 -9l214 -215q5 -7 5 -13q0 -7 -5.5 -12t-12.5 -5t-12 5l-189 190v-555q0 -17 -18 -17q-17 0 -17 17v555l-189 -190q-4 -5 -12 -5q-18 0 -18 17z" />
    <glyph glyph-name="arrowright" unicode="&#x2192;" horiz-adv-x="771" 
d="M70 240q0 18 17 18h555l-190 189q-5 5 -5 12t5 12.5t12 5.5q6 0 13 -5l215 -214q9 -9 9 -18q0 -8 -9 -17l-215 -214q-5 -5 -13 -5q-17 0 -17 18q0 8 5 12l190 189h-555q-17 0 -17 17z" />
    <glyph glyph-name="arrowdown" unicode="&#x2193;" horiz-adv-x="771" 
d="M149 162q0 17 18 17q8 0 12 -5l189 -190v555q0 17 17 17q18 0 18 -17v-555l189 190q5 5 12 5t12.5 -5t5.5 -12q0 -6 -5 -13l-214 -215q-9 -9 -18 -9q-8 0 -17 9l-214 215q-5 5 -5 13z" />
    <glyph glyph-name="partialdiff" unicode="&#x2202;" horiz-adv-x="477" 
d="M55 176v132q0 72 52 126t124 54q47 0 89.5 -23.5t54.5 -62.5q0 304 -177 304q-37 0 -70.5 -13.5t-34.5 -13.5q-6 0 -11.5 7t-5.5 13q0 15 39.5 28.5t85.5 13.5q110 0 159.5 -92t49.5 -274v-199q0 -72 -53.5 -127t-124.5 -55t-124 55t-53 127zM90 176q0 -57 42 -102
t100 -45t100.5 45t42.5 102v137q0 54 -42.5 97t-100.5 43q-59 0 -100.5 -44.5t-41.5 -100.5v-132z" />
    <glyph glyph-name="uni2206" unicode="&#x2206;" horiz-adv-x="481" 
d="M25 16q0 3 1 6l197 701q4 14 18 14t19 -14l195 -701q1 -3 1 -6q0 -16 -17 -16h-397q-17 0 -17 16zM67 36h346l-172 625z" />
    <glyph glyph-name="product" unicode="&#x220f;" horiz-adv-x="557" 
d="M83 17v696q0 18 18 18h355q18 0 18 -18v-696q0 -17 -18 -17t-18 17v678h-319v-678q0 -17 -18 -17t-18 17z" />
    <glyph glyph-name="summation" unicode="&#x2211;" horiz-adv-x="447" 
d="M29 -209q0 5 3 11l229 450l-229 450q-3 6 -3 11q0 7 5.5 12.5t12.5 5.5h355q18 0 18 -18t-18 -18h-326l206 -404q15 -29 15 -39q0 -12 -15 -40l-206 -403h326q18 0 18 -18t-18 -18h-355q-7 0 -12.5 5.5t-5.5 12.5z" />
    <glyph glyph-name="minus" unicode="&#x2212;" horiz-adv-x="480" 
d="M63 284q0 18 17 18h320q7 0 12.5 -5.5t5.5 -12.5t-5.5 -12t-12.5 -5h-320q-17 0 -17 17z" />
    <glyph glyph-name="radical" unicode="&#x221a;" horiz-adv-x="584" 
d="M17 426q0 18 17 18h50q14 0 18 -14l130 -392l219 716q5 14 18 14h90q17 0 17 -18q0 -17 -17 -17h-77l-231 -753q-5 -15 -18 -15q-15 0 -19 15l-142 429h-38q-17 0 -17 17z" />
    <glyph glyph-name="infinity" unicode="&#x221e;" horiz-adv-x="843" 
d="M65 236q0 75 46.5 116t112.5 41q55 0 109 -32.5t88 -86.5q35 55 88.5 87t109.5 32q66 0 112.5 -41t46.5 -116t-46.5 -116t-113.5 -41q-55 0 -108.5 32t-88.5 86q-34 -54 -88 -86t-109 -32q-66 0 -112.5 41t-46.5 116zM101 236q0 -59 35 -90t89 -31q51 0 100 31.5t76 89.5
q-27 58 -76 89.5t-100 31.5q-54 0 -89 -31t-35 -90zM442 236q27 -58 76 -89.5t100 -31.5q54 0 89 31t35 90t-35 90t-89 31q-51 0 -100 -31.5t-76 -89.5z" />
    <glyph glyph-name="integral" unicode="&#x222b;" horiz-adv-x="326" 
d="M10 -182q0 17 17 17q118 0 118 97v669q0 59 43.5 103t110.5 44q7 0 12 -5t5 -12t-5 -12.5t-12 -5.5q-54 0 -86 -34t-32 -78v-669q0 -62 -42 -97t-112 -35q-6 0 -11.5 5t-5.5 13z" />
    <glyph glyph-name="approxequal" unicode="&#x2248;" horiz-adv-x="441" 
d="M73 159q0 19 30.5 35.5t58.5 16.5q24 0 62.5 -18.5t64.5 -18.5q20 0 32.5 8t19.5 16t13 8q14 0 14 -15q0 -21 -28.5 -36t-55.5 -15q-23 0 -61.5 18.5t-67.5 18.5q-19 0 -33 -8.5t-22.5 -17.5t-13.5 -9q-13 0 -13 17zM73 360q0 19 30.5 35.5t58.5 16.5q24 0 62.5 -18.5
t64.5 -18.5q20 0 32.5 8t19.5 16t13 8q14 0 14 -15q0 -21 -28.5 -36t-55.5 -15q-23 0 -61.5 18.5t-67.5 18.5q-19 0 -33 -9t-22.5 -17.5t-13.5 -8.5q-13 0 -13 17z" />
    <glyph glyph-name="notequal" unicode="&#x2260;" horiz-adv-x="463" 
d="M59 176q0 18 17 18h99l74 168h-173q-17 0 -17 17q0 18 17 18h189l80 181q4 8 13 8q6 0 12 -5.5t6 -13.5q0 -5 -3 -11l-71 -159h84q7 0 12.5 -5.5t5.5 -12.5t-5.5 -12t-12.5 -5h-99l-75 -168h174q7 0 12.5 -5.5t5.5 -12.5t-5.5 -12t-12.5 -5h-190l-74 -168q-6 -12 -17 -12
q-16 0 -16 15q0 7 2 10l68 155h-83q-17 0 -17 17z" />
    <glyph glyph-name="lessequal" unicode="&#x2264;" horiz-adv-x="434" 
d="M58 85q0 7 5.5 12.5t12.5 5.5h278q17 0 17 -18q0 -17 -17 -17h-278q-7 0 -12.5 5t-5.5 12zM58 345q0 11 10 19l275 156q5 3 9 3q7 0 13 -5t6 -12q0 -10 -9 -15l-258 -146l258 -145q9 -5 9 -15q0 -7 -6 -12t-13 -5q-4 0 -9 3l-275 156q-10 6 -10 18z" />
    <glyph glyph-name="greaterequal" unicode="&#x2265;" horiz-adv-x="435" 
d="M63 85q0 18 17 18h278q7 0 12.5 -5.5t5.5 -12.5t-5.5 -12t-12.5 -5h-278q-17 0 -17 17zM63 185q0 10 9 15l258 145l-258 146q-9 5 -9 15q0 7 6 12t13 5q4 0 9 -3l275 -156q10 -8 10 -19q0 -12 -10 -18l-275 -156q-5 -3 -9 -3q-7 0 -13 5t-6 12z" />
    <glyph glyph-name="lozenge" unicode="&#x25ca;" horiz-adv-x="448" 
d="M28 365q0 14 13 40l148 290q7 15 11 21t10 10.5t14 4.5q12 0 18 -7.5t17 -28.5l148 -290q13 -26 13 -40t-13 -38l-149 -291q-8 -15 -11.5 -20.5t-9.5 -11t-13 -5.5q-11 0 -17 7.5t-17 29.5l-149 291q-13 24 -13 38zM61 366l163 -318l163 318l-163 318z" />
    <glyph glyph-name="uniE000" unicode="&#xe000;" horiz-adv-x="480" 
d="M0 480h480v-480h-480v480z" />
    <glyph glyph-name="uniF6C3" unicode="&#xf6c3;" horiz-adv-x="205" 
d="M28 -123q0 9 8 13l102 60q4 2 7 2q16 0 16 -18q0 -12 -10 -18l-95 -54q-4 -3 -9 -3q-8 0 -13.5 5.5t-5.5 12.5z" />
    <glyph glyph-name="a.ss01" horiz-adv-x="431" 
d="M34 124q0 76 59 104.5t174 28.5h56v29q0 64 -33 110.5t-99 46.5q-27 0 -50.5 -6.5t-36.5 -13.5t-17 -7q-8 0 -13 7t-5 13q0 15 39.5 28.5t84.5 13.5q86 0 125.5 -54.5t39.5 -137.5v-196q0 -61 42 -61q18 0 18 -17q0 -7 -5.5 -12.5t-12.5 -5.5q-37 0 -53 19t-20 57
q-70 -76 -156 -76q-59 0 -98 33.5t-39 96.5zM69 124q0 -45 28.5 -70t71.5 -25q57 0 105.5 37.5t48.5 72.5v84h-55q-46 0 -77 -3t-61.5 -12.5t-45.5 -30.5t-15 -53z" />
    <glyph glyph-name="b.ss02" horiz-adv-x="466" 
d="M66 146v606q0 16 17 16q18 0 18 -17v-349q43 76 134 76q74 0 127 -53t53 -127v-122q0 -43 -16.5 -82.5t-59.5 -69.5t-105 -30q-69 0 -118.5 37t-49.5 115zM101 155q0 -62 38 -94t98 -32q41 0 70.5 15t44.5 39t21.5 47t6.5 46v122q0 56 -42.5 100.5t-99.5 44.5
q-54 0 -95.5 -40t-41.5 -105v-143z" />
    <glyph glyph-name="caron.alt" horiz-adv-x="71" 
d="M0 705q0 15 10 25.5t26 10.5q14 0 24.5 -10.5t10.5 -25.5q0 -31 -33 -97q-5 -10 -14 -10q-16 0 -16 15q0 4 1 6l18 51q-27 7 -27 35z" />
    <glyph glyph-name="g.ss03" horiz-adv-x="468" 
d="M50 176v122q0 74 53 127t127 53q91 0 134 -76v53q0 17 18 17q17 0 17 -17v-487q0 -90 -42.5 -147.5t-134.5 -57.5q-57 0 -104.5 20t-47.5 42q0 6 5 12.5t11 6.5q5 0 21 -11.5t46 -23t70 -11.5q45 0 74.5 14t43.5 41.5t18.5 55t4.5 66.5v95q-17 -32 -54.5 -54t-81.5 -22
q-71 0 -124.5 55t-53.5 127zM85 176q0 -57 42.5 -102t98.5 -45q54 0 96 39.5t42 70.5v159q0 65 -41.5 105t-95.5 40q-57 0 -99.5 -44.5t-42.5 -100.5v-122z" />
    <glyph glyph-name="m.ss04" horiz-adv-x="763" 
d="M64 17v281q0 82 47.5 131t112.5 49q46 0 88 -26.5t69 -77.5q25 51 66.5 77.5t87.5 26.5q67 0 115.5 -49t48.5 -131v-280q0 -7 -5.5 -12.5t-12.5 -5.5t-12 5.5t-5 12.5v280q0 68 -39.5 106.5t-91.5 38.5q-53 0 -93.5 -41.5t-40.5 -103.5v-281q0 -17 -18 -17q-17 0 -17 17
v281q0 62 -41 103.5t-95 41.5q-51 0 -90 -38.5t-39 -106.5v-281q0 -7 -5.5 -12t-12.5 -5t-12 5t-5 12z" />
    <glyph glyph-name="n.ss04" horiz-adv-x="483" 
d="M64 17v281q0 72 52.5 126t124.5 54q73 0 125.5 -54t52.5 -126v-280q0 -7 -5.5 -12.5t-12.5 -5.5t-12 5.5t-5 12.5v280q0 57 -42 101t-101 44q-58 0 -100 -44t-42 -101v-281q0 -7 -5.5 -12t-12.5 -5t-12 5t-5 12z" />
    <glyph glyph-name="one.lnum" horiz-adv-x="385" 
d="M17 18q0 8 5.5 13t12.5 5h142v603l-43 -80q-6 -13 -18 -13q-7 0 -12.5 5t-5.5 12q0 4 7 18l69 133q9 17 23 17q16 0 16 -17v-678h141q7 0 12.5 -5.5t5.5 -12.5t-5.5 -12.5t-12.5 -5.5h-319q-7 0 -12.5 5t-5.5 13z" />
    <glyph glyph-name="q.ss02" horiz-adv-x="465" 
d="M51 174v122q0 31 9.5 61.5t29 58.5t55.5 45t83 17q72 0 122 -43.5t50 -145.5v-510q0 -16 -17 -16q-18 0 -18 17v290q-43 -76 -134 -76q-74 0 -127 53t-53 127zM86 174q0 -55 42 -100t97 -45q51 0 95.5 37.5t44.5 72.5v141q0 86 -39 124.5t-101 38.5q-41 0 -70 -15
t-43 -39t-20 -47t-6 -46v-122z" />
    <glyph glyph-name="r.ss04" horiz-adv-x="303" 
d="M63 17v255q0 82 46.5 144t115.5 62h50q16 0 16 -17q0 -18 -16 -18h-50q-56 0 -91.5 -52t-35.5 -119v-255q0 -7 -5.5 -12t-12.5 -5t-12 5t-5 12z" />
    <glyph glyph-name="u.ss04" horiz-adv-x="481" 
d="M64 174v280q0 18 18 18q17 0 17 -18v-280q0 -56 42.5 -100.5t99.5 -44.5q54 0 95.5 40t41.5 105v280q0 7 5.5 12.5t12.5 5.5t12 -5.5t5 -12.5v-437q0 -17 -17 -17q-18 0 -18 17v53q-43 -76 -134 -76q-74 0 -127 53t-53 127z" />
    </font>
</defs>
</svg>
