<?xml version="1.0" standalone="no"?>
<!DOCTYPE svg PUBLIC "-//W3C//DTD SVG 1.1//EN" "http://www.w3.org/Graphics/SVG/1.1/DTD/svg11.dtd" >
<svg>
<metadata>
Created by FontForge 20090622 at Mon May 23 15:55:16 2016
 By deploy user
Copyright &#194;&#169; 1991, 2002 Adobe Systems Incorporated.  All Rights Reserved. &#194;&#169; 1981, 2002 Heidelberger Druckmaschinen AG. All rights reserved.
</metadata>
<defs>
<font id="Frutiger-Condensed-Light" horiz-adv-x="480" >
  <font-face 
    font-family="Frutiger LT Std 47 Light Cn"
    font-weight="300"
    font-stretch="condensed"
    units-per-em="1000"
    panose-1="2 11 4 6 2 2 4 2 2 4"
    ascent="750"
    descent="-250"
    x-height="510"
    cap-height="698"
    bbox="-100 -250 1000 913"
    underline-thickness="50"
    underline-position="-50"
    unicode-range="U+0020-U+FB02"
  />
<missing-glyph horiz-adv-x="500" 
d="M0 0v700h500v-700h-500zM250 395l170 255h-340zM280 350l170 -255v510zM80 50h340l-170 255zM50 605v-510l170 255z" />
    <glyph glyph-name="fi" unicode="fi" horiz-adv-x="463" 
d="M332 0v510h58v-510h-58zM326 623v90h70v-90h-70zM94 0v456h-79v54h79v109q0 67 26.5 105t98.5 38q19 0 44 -5v-58q-22 9 -46 9q-65 0 -65 -78v-120h90v-54h-90v-456h-58z" />
    <glyph glyph-name="fl" unicode="fl" horiz-adv-x="463" 
d="M332 0v750h58v-750h-58zM94 0v456h-79v54h79v109q0 67 26.5 105t98.5 38q19 0 44 -5v-58q-22 9 -46 9q-65 0 -65 -78v-120h90v-54h-90v-456h-58z" />
    <glyph glyph-name=".notdef" horiz-adv-x="500" 
d="M0 0v700h500v-700h-500zM250 395l170 255h-340zM280 350l170 -255v510zM80 50h340l-170 255zM50 605v-510l170 255z" />
    <glyph glyph-name=".null" horiz-adv-x="0" 
 />
    <glyph glyph-name="nonmarkingreturn" horiz-adv-x="333" 
 />
    <glyph glyph-name="space" unicode=" " horiz-adv-x="240" 
 />
    <glyph glyph-name="exclam" unicode="!" horiz-adv-x="352" 
d="M149 172l-10 526h74l-10 -526h-54zM139 0v90h74v-90h-74z" />
    <glyph glyph-name="quotedbl" unicode="&#x22;" 
d="M140 528v222h58v-222h-58zM282 528v222h58v-222h-58z" />
    <glyph glyph-name="numbersign" unicode="#" 
d="M86 0l26 222h-88v50h94l19 154h-88v50h94l26 222h50l-26 -222h125l26 222h50l-26 -222h88v-50h-94l-19 -154h88v-50h-94l-26 -222h-50l26 222h-125l-26 -222h-50zM187 426l-19 -154h125l19 154h-125z" />
    <glyph glyph-name="dollar" unicode="$" 
d="M257 310v-252q31 10 50.5 36.5t24 46.5t4.5 36q0 43 -19 72.5t-60 60.5zM221 420v223q-77 -22 -77 -98q0 -42 18 -68.5t59 -56.5zM221 701v82h36v-78h3q51 0 110 -22l-3 -70q-57 34 -110 34v-255q88 -64 116.5 -102.5t28.5 -103.5q0 -74 -40 -125t-105 -65v-89h-36v86h-6
q-80 0 -132 33l4 72q52 -47 123 -47h11v284l-17 12q-73 49 -99.5 89.5t-26.5 99.5q0 43 14 75.5t37 50t45.5 27t46.5 12.5z" />
    <glyph glyph-name="percent" unicode="%" horiz-adv-x="815" 
d="M610 -7q-71 0 -102 53.5t-31 135.5t31 135.5t102 53.5t102 -53.5t31 -135.5t-31 -135.5t-102 -53.5zM610 47q75 0 75 135t-75 135t-75 -135t75 -135zM205 327q-71 0 -102 53.5t-31 135.5t31 135.5t102 53.5t102 -53.5t31 -135.5t-31 -135.5t-102 -53.5zM205 381
q75 0 75 135t-75 135t-75 -135t75 -135zM223 -33l313 764h54l-313 -764h-54z" />
    <glyph glyph-name="ampersand" unicode="&#x26;" horiz-adv-x="574" 
d="M277 379l144 -201q39 78 47 216h58q-15 -170 -70 -266l102 -128h-79l-58 84q-4 -9 -15.5 -22t-32 -29.5t-54.5 -28t-74 -11.5q-100 0 -144.5 56.5t-44.5 144.5q0 130 138 203q-36 43 -55.5 81t-19.5 83q0 21 8 44t24.5 46.5t49 38.5t74.5 15q63 0 100.5 -40.5t37.5 -92.5
q0 -66 -35 -108t-101 -85zM351 564q0 29 -18 56t-62 27t-67 -28t-23 -62q0 -30 14.5 -58.5t48.5 -76.5q27 17 45 30t40 45t22 67zM389 128l-163 228q-59 -42 -83.5 -78.5t-24.5 -94.5q0 -14 5.5 -33.5t18 -43t40.5 -39.5t67 -16q41 0 79 21.5t61 55.5z" />
    <glyph glyph-name="quotesingle" unicode="'" horiz-adv-x="240" 
d="M91 528v222h58v-222h-58z" />
    <glyph glyph-name="parenleft" unicode="(" horiz-adv-x="259" 
d="M231 -134l-48 -6q-137 235 -137 448t137 448l48 -6q-59 -126 -91 -230.5t-32 -211.5t32 -211.5t91 -230.5z" />
    <glyph glyph-name="parenright" unicode=")" horiz-adv-x="259" 
d="M28 750l48 6q137 -235 137 -448t-137 -448l-48 6q59 126 91 230.5t32 211.5t-32 211.5t-91 230.5z" />
    <glyph glyph-name="asterisk" unicode="*" 
d="M129 460l73 116l-118 39l20 58l113 -53l-8 130h62l-8 -130l113 53l20 -58l-118 -39l73 -116l-52 -29l-59 115l-59 -115z" />
    <glyph glyph-name="plus" unicode="+" horiz-adv-x="600" 
d="M275 0v228h-228v50h228v228h50v-228h228v-50h-228v-228h-50z" />
    <glyph glyph-name="comma" unicode="," horiz-adv-x="240" 
d="M159 90l-64 -222h-58l48 222h74z" />
    <glyph glyph-name="hyphen" unicode="-" horiz-adv-x="296" 
d="M46 250v58h204v-58h-204z" />
    <glyph glyph-name="period" unicode="." horiz-adv-x="240" 
d="M81 0v98h78v-98h-78z" />
    <glyph glyph-name="slash" unicode="/" horiz-adv-x="259" 
d="M248 705l-187 -712h-50l187 712h50z" />
    <glyph glyph-name="zero" unicode="0" 
d="M434 349q0 -43 -3.5 -84t-16 -92.5t-32.5 -89.5t-57 -64t-85 -26t-85 26t-57 64t-32.5 89.5t-16 92.5t-3.5 84t3.5 84t16 92.5t32.5 89.5t57 64t85 26t85 -26t57 -64t32.5 -89.5t16 -92.5t3.5 -84zM372 349q0 34 -1.5 64t-9 76t-20.5 78t-39.5 56t-61.5 24t-61.5 -24
t-39.5 -56t-20.5 -78t-9 -76t-1.5 -64t1.5 -64t9 -76t20.5 -78t39.5 -56t61.5 -24t61.5 24t39.5 56t20.5 78t9 76t1.5 64z" />
    <glyph glyph-name="one" unicode="1" 
d="M120 570l124 128h62v-698h-62v628l-90 -104z" />
    <glyph glyph-name="two" unicode="2" 
d="M67 0v61l53 66q106 130 143 190q75 119 75 205q0 57 -27 91t-82 34q-32 0 -69.5 -16t-63.5 -39l-9 69q68 44 147 44q86 0 128 -54.5t42 -128.5q0 -46 -17.5 -98t-50.5 -103.5t-55 -81.5t-54 -70l-90 -111h276v-58h-346z" />
    <glyph glyph-name="three" unicode="3" 
d="M49 21l5 68q17 -12 57.5 -25t72.5 -13q65 0 109.5 37t44.5 113q0 64 -44 98t-110 34h-58v58q42 0 74 4.5t64.5 17.5t50.5 40.5t18 68.5q0 13 -3.5 28t-15.5 40t-43 41t-77 16q-58 0 -115 -41l-5 66q18 13 59.5 23t68.5 10q54 0 94 -17.5t61.5 -45.5t31.5 -57t10 -57
q0 -121 -125 -157v-2q48 -8 89 -55t41 -121q0 -98 -59 -149t-167 -51q-73 0 -129 28z" />
    <glyph glyph-name="four" unicode="4" 
d="M31 230l257 468h82v-473h79v-58h-79v-167h-62v167h-277v63zM306 636l-221 -411h223v411h-2z" />
    <glyph glyph-name="five" unicode="5" 
d="M87 20l3 67q54 -36 120 -36q54 0 89.5 27t49 63.5t13.5 80.5q0 68 -36.5 111t-114.5 43q-38 0 -58 -5t-55 -19h-2l-2 -1v347h297v-58h-239v-220q36 14 77 14q56 0 96.5 -17.5t62 -48.5t31 -66.5t9.5 -79.5q0 -103 -56.5 -166t-164.5 -63q-60 0 -120 27z" />
    <glyph glyph-name="six" unicode="6" 
d="M405 686l-5 -70q-1 1 -11 6l-17 8.5t-19 8t-26.5 6.5t-30.5 2q-38 0 -69 -15.5t-50.5 -39t-34 -55.5t-21.5 -60.5t-11 -59.5t-5 -46.5t-1 -26.5h2q44 98 145 98q51 0 88.5 -23t57 -59.5t28.5 -73.5t9 -73q0 -38 -10 -74.5t-31.5 -70t-61 -54.5t-91.5 -21
q-48 0 -84.5 21.5t-57 53.5t-33 76t-16 81t-3.5 77q0 29 0.5 50t5.5 66.5t13.5 79t26.5 75t43 68.5t65 45.5t90 18.5q55 0 115 -19zM120 221q0 -92 37 -131t83 -39q51 0 89.5 40.5t38.5 131.5q0 22 -5.5 46.5t-18.5 52t-40 45t-64 17.5q-54 0 -87 -45.5t-33 -117.5z" />
    <glyph glyph-name="seven" unicode="7" 
d="M65 640v58h350v-61l-219 -637h-70l227 640h-288z" />
    <glyph glyph-name="eight" unicode="8" 
d="M177 364q-116 63 -116 178q0 56 30.5 94.5t69.5 53.5t80 15q49 0 85.5 -15.5t55.5 -41t27.5 -51t8.5 -52.5q0 -34 -11.5 -63.5t-33.5 -52.5t-36.5 -35t-37.5 -28q28 -15 44.5 -25.5t41.5 -33t38 -53.5t13 -69q0 -33 -10 -64.5t-31.5 -61t-62 -48t-93.5 -18.5
q-90 0 -142.5 55t-52.5 134q0 43 17.5 79t44 57.5t43 31t28.5 14.5zM352 542q0 46 -34 75.5t-79 29.5t-78.5 -32t-33.5 -80q0 -45 32.5 -84t92.5 -61q100 71 100 152zM370 184q0 30 -12 55t-35 43.5t-43 30t-49 25.5l-20 -12q-101 -56 -101 -146q0 -53 35.5 -91t97.5 -38
q26 0 52.5 9.5t50.5 41.5t24 82z" />
    <glyph glyph-name="nine" unicode="9" 
d="M75 12l5 70q6 -6 37 -18.5t67 -12.5q38 0 69 15.5t50.5 39t34 55.5t21.5 60.5t11 59.5t5 46.5t1 26.5h-2q-44 -98 -145 -98q-51 0 -88.5 23t-57 59.5t-28.5 73.5t-9 73q0 38 10 74.5t31.5 70t61 54.5t91.5 21q48 0 84.5 -21.5t57 -53.5t33 -76t16 -81t3.5 -77
q0 -29 -0.5 -50t-5.5 -66.5t-13.5 -79t-26.5 -75t-43 -68.5t-65 -45.5t-90 -18.5q-55 0 -115 19zM360 477q0 92 -37 131t-83 39q-51 0 -89.5 -40.5t-38.5 -131.5q0 -22 5.5 -46.5t18.5 -52t40 -45t64 -17.5q54 0 87 45.5t33 117.5z" />
    <glyph glyph-name="colon" unicode=":" horiz-adv-x="240" 
d="M81 412v98h78v-98h-78zM81 0v98h78v-98h-78z" />
    <glyph glyph-name="semicolon" unicode=";" horiz-adv-x="240" 
d="M159 90l-64 -222h-58l48 222h74zM81 412v98h78v-98h-78z" />
    <glyph glyph-name="less" unicode="&#x3c;" horiz-adv-x="600" 
d="M47 226v54l506 233v-54l-444 -206l444 -206v-54z" />
    <glyph glyph-name="equal" unicode="=" horiz-adv-x="600" 
d="M47 325v50h506v-50h-506zM47 131v50h506v-50h-506z" />
    <glyph glyph-name="greater" unicode="&#x3e;" horiz-adv-x="600" 
d="M553 280v-54l-506 -233v54l444 206l-444 206v54z" />
    <glyph glyph-name="question" unicode="?" horiz-adv-x="444" 
d="M94 614l-5 68q57 23 108 23q93 0 136 -48t43 -120q0 -46 -15 -83.5t-71 -117.5q-36 -50 -46 -81t-10 -84h-58q4 81 14.5 109t61.5 103q58 85 58 147q0 52 -30 84.5t-82 32.5q-53 0 -104 -33zM164 0v90h74v-90h-74z" />
    <glyph glyph-name="at" unicode="@" horiz-adv-x="800" 
d="M254 290q0 -95 82 -95q69 0 120.5 77.5t51.5 148.5q0 90 -77 90q-74 0 -125.5 -73.5t-51.5 -147.5zM563 541h50l-95 -273q-12 -39 -12 -41q0 -31 43 -32q60 1 108.5 70t48.5 146q0 78 -43.5 135.5t-112 85t-150.5 27.5q-127 0 -216.5 -90.5t-89.5 -219.5t89.5 -219.5
t216.5 -90.5q90 0 166 31.5t119 96.5h54q-49 -85 -140 -129.5t-199 -44.5q-148 0 -252 104t-104 252t104 252t252 104q152 0 254 -82t102 -215q0 -94 -66.5 -176.5t-142.5 -82.5q-38 0 -62.5 17t-24.5 46h-1q-61 -63 -128 -63q-60 0 -93.5 38.5t-33.5 97.5q0 65 28.5 127
t83 103.5t119.5 41.5q75 0 103 -78h3z" />
    <glyph glyph-name="A" unicode="A" horiz-adv-x="556" 
d="M13 0l232 698h66l232 -698h-66l-61 192h-278l-63 -192h-62zM277 632l-121 -382h241l-118 382h-2z" />
    <glyph glyph-name="B" unicode="B" horiz-adv-x="500" 
d="M142 640v-249h85q56 0 92.5 34.5t36.5 95.5q0 53 -31 86t-96 33h-87zM142 333v-275h88q38 0 66 12t42 28t22 37.5t9.5 33.5t1.5 23q0 63 -35.5 102t-98.5 39h-95zM80 0v698h163q86 0 132.5 -49.5t46.5 -119.5q0 -117 -110 -162v-2q54 -15 89.5 -57t35.5 -113
q0 -195 -237 -195h-120z" />
    <glyph glyph-name="C" unicode="C" horiz-adv-x="537" 
d="M469 82l3 -67q-60 -22 -119 -22q-75 0 -133 29.5t-93 80.5t-52.5 114.5t-17.5 135.5q0 70 17 131.5t52 111.5t94 79.5t137 29.5q70 0 117 -23l-3 -70q-16 13 -50 24t-69 11q-20 0 -43 -4t-58 -22t-62 -47.5t-46.5 -87.5t-19.5 -135q0 -69 16.5 -124t40.5 -87t56 -53
t60 -28.5t55 -7.5q53 0 118 31z" />
    <glyph glyph-name="D" unicode="D" horiz-adv-x="556" 
d="M80 0v698h91q173 0 257 -84.5t84 -254.5q0 -161 -81.5 -260t-242.5 -99h-108zM142 640v-582h64q114 0 177 78.5t63 212.5q0 41 -3.5 73t-18 75.5t-40 72.5t-74 49.5t-115.5 20.5h-53z" />
    <glyph glyph-name="E" unicode="E" horiz-adv-x="444" 
d="M80 0v698h296v-58h-234v-248h223v-58h-223v-276h245v-58h-307z" />
    <glyph glyph-name="F" unicode="F" horiz-adv-x="407" 
d="M80 0v698h285v-58h-223v-248h212v-58h-212v-334h-62z" />
    <glyph glyph-name="G" unicode="G" horiz-adv-x="593" 
d="M330 317v58h187v-344q-70 -38 -161 -38q-70 0 -125.5 25.5t-88 64t-54 89t-29.5 95.5t-8 89q0 143 81.5 246t221.5 103q38 0 82.5 -11.5t63.5 -22.5l-3 -68q-21 17 -65 30.5t-82 13.5q-40 0 -79 -16t-74.5 -49t-57.5 -93t-22 -139q0 -52 12.5 -101.5t39 -95.5t75.5 -74
t115 -28q56 0 96 21v245h-125z" />
    <glyph glyph-name="H" unicode="H" horiz-adv-x="556" 
d="M80 0v698h62v-306h272v306h62v-698h-62v334h-272v-334h-62z" />
    <glyph glyph-name="I" unicode="I" horiz-adv-x="222" 
d="M80 0v698h62v-698h-62z" />
    <glyph glyph-name="J" unicode="J" horiz-adv-x="296" 
d="M21 0v66q28 -11 47 -11q24 0 41 9t25.5 20.5t13 32.5t5.5 36.5t1 40.5v504h62v-506q0 -35 -3 -61t-12 -53t-24.5 -45t-42.5 -29t-64 -11q-19 0 -49 7z" />
    <glyph glyph-name="K" unicode="K" horiz-adv-x="500" 
d="M80 0v698h62v-306h2l252 306h76l-279 -332l302 -366h-82l-269 342h-2v-342h-62z" />
    <glyph glyph-name="L" unicode="L" horiz-adv-x="389" 
d="M80 0v698h62v-640h227v-58h-289z" />
    <glyph glyph-name="M" unicode="M" horiz-adv-x="740" 
d="M80 0v698h95l194 -606h2l194 606h95v-698h-58v640h-2l-206 -640h-47l-207 640h-2v-640h-58z" />
    <glyph glyph-name="N" unicode="N" horiz-adv-x="593" 
d="M80 0v698h80l293 -620h2v620h58v-698h-80l-293 616h-2v-616h-58z" />
    <glyph glyph-name="O" unicode="O" horiz-adv-x="594" 
d="M51 349q0 22 0.5 39.5t5.5 57t13.5 70t26.5 68t43.5 62.5t66 42t90.5 17t90.5 -17t66 -42t43.5 -62.5t26.5 -68t13.5 -70t5.5 -57t0.5 -39.5t-0.5 -39.5t-5.5 -57t-13.5 -70t-26.5 -68t-43.5 -62.5t-66 -42t-90.5 -17t-90.5 17t-66 42t-43.5 62.5t-26.5 68t-13.5 70
t-5.5 57t-0.5 39.5zM117 349q0 -20 0.5 -34.5t4 -48t9.5 -58.5t19.5 -56.5t32 -52t48 -34.5t66.5 -14t66.5 14t48 34.5t32 52t19.5 56.5t9.5 58.5t4 48t0.5 34.5t-0.5 34.5t-4 48t-9.5 58.5t-19.5 56.5t-32 52t-48 34.5t-66.5 14t-66.5 -14t-48 -34.5t-32 -52t-19.5 -56.5
t-9.5 -58.5t-4 -48t-0.5 -34.5z" />
    <glyph glyph-name="P" unicode="P" horiz-adv-x="463" 
d="M142 640v-278h63q74 0 113.5 31t39.5 108q0 40 -12 68t-27.5 41.5t-41.5 20.5t-41 8t-40 1h-54zM80 0v698h131q213 0 213 -197q0 -103 -57.5 -150t-137.5 -47h-87v-304h-62z" />
    <glyph glyph-name="Q" unicode="Q" horiz-adv-x="594" 
d="M525 -128h-79l-112 125q-2 0 -14.5 -2t-22.5 -2q-50 0 -90.5 17t-66 42t-43.5 62.5t-26.5 68t-13.5 70t-5.5 57t-0.5 39.5t0.5 39.5t5.5 57t13.5 70t26.5 68t43.5 62.5t66 42t90.5 17t90.5 -17t66 -42t43.5 -62.5t26.5 -68t13.5 -70t5.5 -57t0.5 -39.5q0 -270 -148 -335z
M117 349q0 -20 0.5 -34.5t4 -48t9.5 -58.5t19.5 -56.5t32 -52t48 -34.5t66.5 -14t66.5 14t48 34.5t32 52t19.5 56.5t9.5 58.5t4 48t0.5 34.5t-0.5 34.5t-4 48t-9.5 58.5t-19.5 56.5t-32 52t-48 34.5t-66.5 14t-66.5 -14t-48 -34.5t-32 -52t-19.5 -56.5t-9.5 -58.5t-4 -48
t-0.5 -34.5z" />
    <glyph glyph-name="R" unicode="R" horiz-adv-x="500" 
d="M80 0v698h161q88 0 136 -49.5t48 -128.5q0 -80 -40.5 -119.5t-96.5 -49.5v-2q53 -11 71 -60l105 -289h-66l-85 239q-17 49 -36 67.5t-56 18.5h-79v-325h-62zM142 640v-257h85q35 0 61.5 12.5t39.5 28.5t20.5 37.5t9 33.5t1.5 22q0 123 -136 123h-81z" />
    <glyph glyph-name="S" unicode="S" horiz-adv-x="426" 
d="M56 26l4 72q52 -47 123 -47q39 0 66.5 15.5t39 38.5t16 40.5t4.5 31.5q0 30 -7.5 52t-28 43t-39 35t-57.5 40q-73 49 -99.5 89.5t-26.5 99.5q0 44 15.5 77t36.5 50t48.5 27t46 12.5t35.5 2.5q51 0 110 -22l-3 -70q-57 34 -111 34q-40 0 -76 -24t-36 -78q0 -47 21 -74
t75 -66q101 -74 131.5 -112.5t30.5 -106.5q0 -87 -53 -140t-134 -53q-80 0 -132 33z" />
    <glyph glyph-name="T" unicode="T" horiz-adv-x="426" 
d="M20 640v58h386v-58h-162v-640h-62v640h-162z" />
    <glyph glyph-name="U" unicode="U" horiz-adv-x="574" 
d="M80 257v441h62v-440q0 -35 3 -62.5t12 -55.5t24.5 -46.5t42.5 -30.5t63 -12q47 0 77.5 18t44.5 51.5t18.5 64.5t4.5 73v440h62v-441q0 -264 -207 -264q-114 0 -160.5 70t-46.5 194z" />
    <glyph glyph-name="V" unicode="V" horiz-adv-x="519" 
d="M225 0l-209 698h66l171 -612h2l186 612h62l-220 -698h-58z" />
    <glyph glyph-name="W" unicode="W" horiz-adv-x="778" 
d="M167 0l-155 698h66l125 -624h2l145 624h85l131 -624h2l136 624h62l-161 -698h-78l-137 628h-2l-148 -628h-73z" />
    <glyph glyph-name="X" unicode="X" horiz-adv-x="519" 
d="M229 370l-192 328h74l159 -278l162 278h66l-195 -328l206 -370h-74l-170 317l-181 -317h-74z" />
    <glyph glyph-name="Y" unicode="Y" horiz-adv-x="500" 
d="M219 0v303l-176 395h66l142 -338l140 338h66l-176 -395v-303h-62z" />
    <glyph glyph-name="Z" unicode="Z" horiz-adv-x="444" 
d="M36 0v62l299 578h-289v58h355v-60l-300 -580h307v-58h-372z" />
    <glyph glyph-name="bracketleft" unicode="[" horiz-adv-x="259" 
d="M78 -140v896h127v-46h-73v-804h73v-46h-127z" />
    <glyph glyph-name="backslash" unicode="\" horiz-adv-x="259" 
d="M198 -7l-187 712h50l187 -712h-50z" />
    <glyph glyph-name="bracketright" unicode="]" horiz-adv-x="259" 
d="M181 756v-896h-127v46h73v804h-73v46h127z" />
    <glyph glyph-name="asciicircum" unicode="^" horiz-adv-x="600" 
d="M498 245l-198 391l-198 -391h-58l231 453h50l231 -453h-58z" />
    <glyph glyph-name="underscore" unicode="_" horiz-adv-x="500" 
d="M0 -125v50h500v-50h-500z" />
    <glyph glyph-name="grave" unicode="`" horiz-adv-x="186" 
d="M-7 728h70l76 -142h-50z" />
    <glyph glyph-name="a" unicode="a" horiz-adv-x="444" 
d="M378 348v-234q0 -38 6 -114h-52l-4 73h-2q-26 -42 -60 -61t-83 -19q-59 0 -100.5 43t-41.5 105q0 46 19.5 79.5t45 49.5t64.5 25t62 10.5t55 1.5h37q0 27 -0.5 42t-6 40t-16 38.5t-32 24.5t-51.5 11q-64 0 -128 -53l-9 62q30 16 46.5 24t41.5 14.5t52 6.5q157 0 157 -169
zM324 197v60q-34 0 -50.5 -0.5t-45 -2.5t-42.5 -6t-33 -12.5t-28 -20.5t-15.5 -31t-6.5 -43q0 -36 25.5 -65t68.5 -29q11 0 23.5 2t32.5 11t34.5 24t25.5 44.5t11 68.5z" />
    <glyph glyph-name="b" unicode="b" horiz-adv-x="463" 
d="M64 169v581h58v-306h2q47 73 129 73q60 0 100 -42t54.5 -94t14.5 -107q0 -21 -0.5 -38.5t-4.5 -48t-10.5 -54.5t-19.5 -51.5t-30.5 -46t-45 -30.5t-61.5 -12q-45 0 -74.5 18.5t-59.5 58.5h-2v-70h-54q4 88 4 169zM360 255q0 208 -117 208q-30 0 -52.5 -10.5t-35.5 -31
t-21 -39.5t-11.5 -48t-4 -44.5t-0.5 -40.5q0 -202 126 -202q116 0 116 208z" />
    <glyph glyph-name="c" unicode="c" horiz-adv-x="370" 
d="M347 499l-3 -66q-31 26 -92 26q-64 0 -106.5 -47t-42.5 -142q0 -66 16.5 -112.5t43 -68t50 -30t48.5 -8.5q63 0 86 27l5 -66q-43 -19 -99 -19q-88 0 -150 67.5t-62 192.5q0 121 54 192.5t157 71.5q52 0 95 -18z" />
    <glyph glyph-name="d" unicode="d" horiz-adv-x="463" 
d="M399 750v-581q0 -81 4 -169h-54v70h-2q-32 -40 -60.5 -58.5t-73.5 -18.5q-34 0 -61.5 12t-45 30.5t-30.5 46t-19.5 51.5t-10.5 54.5t-4.5 48t-0.5 38.5q0 55 14.5 107t54.5 94t100 42q89 0 129 -73h2v306h58zM103 255q0 -208 116 -208q126 0 126 202q0 25 -0.5 40.5
t-4 44.5t-11.5 48t-21 39.5t-35.5 31t-52.5 10.5q-117 0 -117 -208z" />
    <glyph glyph-name="e" unicode="e" horiz-adv-x="426" 
d="M385 236h-282q0 -53 13.5 -92t30 -56.5t40.5 -28t35.5 -11.5t24.5 -1q26 0 57.5 11.5t52.5 30.5l3 -67q-54 -29 -119 -29q-41 0 -74 12.5t-53.5 30t-35 45t-21.5 49.5t-11 51.5t-4.5 42.5t-0.5 31q0 133 53.5 197.5t127.5 64.5q43 0 74 -18t47.5 -44.5t26.5 -67t12.5 -74
t2.5 -77.5zM103 290h220q0 92 -31 132.5t-73 40.5q-54 0 -85 -57t-31 -116z" />
    <glyph glyph-name="f" unicode="f" horiz-adv-x="259" 
d="M94 0v456h-79v54h79v109q0 67 26.5 105t98.5 38q19 0 44 -5v-58q-22 9 -46 9q-65 0 -65 -78v-120h90v-54h-90v-456h-58z" />
    <glyph glyph-name="g" unicode="g" horiz-adv-x="463" 
d="M41 236q0 21 0.5 38.5t4.5 48t10.5 54.5t19.5 51.5t30.5 46t45 30.5t61.5 12q88 0 134 -82h2v75h54q-4 -88 -4 -169v-329q0 -234 -191 -234q-38 0 -64.5 5.5t-80.5 22.5l4 65q68 -39 140 -39q134 0 134 168v70h-2q-45 -77 -129 -77q-60 0 -100 42t-54.5 94t-14.5 107z
M103 255q0 -208 117 -208q68 0 96.5 55t28.5 159q0 202 -126 202q-116 0 -116 -208z" />
    <glyph glyph-name="h" unicode="h" horiz-adv-x="463" 
d="M68 0v750h58v-315h2q7 16 18.5 31.5t41 33t66.5 17.5q40 0 68.5 -16t42 -35t21 -48.5t8.5 -43.5t1 -32v-342h-58v344q0 16 -0.5 26.5t-5.5 30t-14.5 31.5t-28.5 21.5t-46 9.5q-52 0 -84 -42.5t-32 -103.5v-317h-58z" />
    <glyph glyph-name="i" unicode="i" horiz-adv-x="204" 
d="M73 0v510h58v-510h-58zM67 623v90h70v-90h-70z" />
    <glyph glyph-name="j" unicode="j" horiz-adv-x="204" 
d="M73 -96v606h58v-598q0 -20 -1 -34.5t-6.5 -35t-16 -33t-30.5 -22t-48 -9.5q-22 0 -38 6v58q14 -6 27 -6q17 0 26.5 2t19 18t9.5 48zM67 623v90h70v-90h-70z" />
    <glyph glyph-name="k" unicode="k" horiz-adv-x="426" 
d="M70 0v750h58v-445l193 205h74l-216 -226l236 -284h-78l-207 259h-2v-259h-58z" />
    <glyph glyph-name="l" unicode="l" horiz-adv-x="204" 
d="M73 0v750h58v-750h-58z" />
    <glyph glyph-name="m" unicode="m" horiz-adv-x="686" 
d="M68 0v352q0 30 -2 85t-2 73h54q3 -33 4 -75h2q14 33 44 57.5t74 24.5q30 0 51.5 -8t34.5 -23t18.5 -25t12.5 -26q51 82 127 82q71 0 101.5 -48t30.5 -118v-351h-58v344q0 119 -83 119q-51 -1 -78 -39.5t-27 -96.5v-327h-58v355q0 50 -20.5 79t-56.5 29q-48 0 -79.5 -42.5
t-31.5 -103.5v-317h-58z" />
    <glyph glyph-name="n" unicode="n" horiz-adv-x="463" 
d="M68 0v352q0 30 -2 85t-2 73h54q3 -33 4 -75h2q45 82 130 82q40 0 68.5 -16t42 -35t21 -48.5t8.5 -43.5t1 -32v-342h-58v344q0 16 -0.5 26.5t-5.5 30t-14.5 31.5t-28.5 21.5t-46 9.5q-52 0 -84 -42.5t-32 -103.5v-317h-58z" />
    <glyph glyph-name="o" unicode="o" horiz-adv-x="464" 
d="M232 47q129 0 129 208t-129 208t-129 -208t129 -208zM232 -7q-53 0 -92 22.5t-59.5 61.5t-30 82.5t-9.5 95.5t9.5 95.5t30 82.5t59.5 61.5t92 22.5t92 -22.5t59.5 -61.5t30 -82.5t9.5 -95.5t-9.5 -95.5t-30 -82.5t-59.5 -61.5t-92 -22.5z" />
    <glyph glyph-name="p" unicode="p" horiz-adv-x="463" 
d="M64 -216v557q0 81 -4 169h54v-75h2q53 82 134 82q39 0 70 -15t48.5 -41t29.5 -52.5t16.5 -58t6 -48t1.5 -30.5q0 -77 -16 -137.5t-55.5 -101t-97.5 -40.5q-91 0 -129 71h-2v-280h-58zM360 255q0 208 -116 208q-126 0 -126 -202q0 -25 0.5 -40.5t4 -44.5t11.5 -48
t21 -39.5t35.5 -31t52.5 -10.5q117 0 117 208z" />
    <glyph glyph-name="q" unicode="q" horiz-adv-x="463" 
d="M399 341v-557h-58v286h-2q-45 -77 -129 -77q-60 0 -100 42t-54.5 94t-14.5 107q0 21 0.5 38.5t4.5 48t10.5 54.5t19.5 51.5t30.5 46t45 30.5t61.5 12q88 0 134 -82h2v75h54q-4 -88 -4 -169zM103 255q0 -208 117 -208q68 0 96.5 55t28.5 159q0 202 -126 202
q-116 0 -116 -208z" />
    <glyph glyph-name="r" unicode="r" horiz-adv-x="278" 
d="M68 0v352q0 30 -2 85t-2 73h54q1 -18 2.5 -49t1.5 -32h2q26 51 58 69.5t78 18.5v-62q-69 0 -101.5 -32t-32.5 -102v-321h-58z" />
    <glyph glyph-name="s" unicode="s" horiz-adv-x="352" 
d="M287 502l-8 -60q-55 21 -87 21q-42 0 -64.5 -25t-22.5 -56q0 -33 15.5 -48.5t71.5 -46.5l41 -22.5t31.5 -21t29 -27.5t15 -31.5t7.5 -43.5q0 -68 -42.5 -108t-108.5 -40q-64 0 -129 24l8 65q16 -11 50 -23t66 -12q40 0 67 26.5t27 61.5q0 34 -20.5 54t-70.5 45
q-69 34 -94.5 62.5t-25.5 79.5q0 67 46.5 104t103.5 37q47 0 94 -15z" />
    <glyph glyph-name="t" unicode="t" horiz-adv-x="278" 
d="M94 612l58 18v-120h104v-54h-104v-332q0 -37 11.5 -57t44.5 -20q24 0 48 11v-58q-20 -7 -67 -7q-95 0 -95 115v348h-76v54h76v102z" />
    <glyph glyph-name="u" unicode="u" horiz-adv-x="463" 
d="M395 510v-352q0 -30 2 -85t2 -73h-54q-3 33 -4 75h-2q-7 -25 -40.5 -53.5t-89.5 -28.5q-77 0 -109 45.5t-32 115.5v356h58v-344q0 -16 0.5 -26.5t5.5 -30t14.5 -31.5t28.5 -21.5t46 -9.5q52 0 84 42.5t32 103.5v317h58z" />
    <glyph glyph-name="v" unicode="v" horiz-adv-x="390" 
d="M160 0l-149 510h62l121 -444h2l125 444h58l-149 -510h-70z" />
    <glyph glyph-name="w" unicode="w" horiz-adv-x="648" 
d="M148 0l-137 510h62l107 -448h2l103 448h74l112 -448h2l106 448h58l-133 -510h-72l-110 444h-2l-104 -444h-68z" />
    <glyph glyph-name="x" unicode="x" horiz-adv-x="389" 
d="M155 275l-132 235h70l101 -190l105 190h66l-138 -239l151 -271h-70l-118 224l-113 -224h-66z" />
    <glyph glyph-name="y" unicode="y" horiz-adv-x="370" 
d="M72 510l114 -424h2l114 424h58l-167 -605q-9 -34 -15 -50.5t-19 -37.5t-33 -30t-49 -9q-18 0 -39 6l3 59q16 -11 41 -11q35 0 52 59l26 97l-150 522h62z" />
    <glyph glyph-name="z" unicode="z" horiz-adv-x="370" 
d="M30 0v58l244 398h-236v54h298v-58l-244 -398h248v-54h-310z" />
    <glyph glyph-name="braceleft" unicode="{" horiz-adv-x="259" 
d="M241 756v-46h-30q-32 0 -47.5 -16.5t-15.5 -54.5v-211q0 -101 -64 -119v-2q64 -18 64 -119v-211q0 -38 15.5 -54.5t47.5 -16.5h30v-46h-45q-52 0 -77 27.5t-25 88.5v180q0 75 -12.5 102t-47.5 27v46q35 0 47.5 27t12.5 102v180q0 61 25 88.5t77 27.5h45z" />
    <glyph glyph-name="bar" unicode="|" horiz-adv-x="222" 
d="M86 -250v1000h50v-1000h-50z" />
    <glyph glyph-name="braceright" unicode="}" horiz-adv-x="259" 
d="M165 156v-180q0 -61 -25 -88.5t-77 -27.5h-45v46h30q32 0 47.5 16.5t15.5 54.5v211q0 101 64 119v2q-64 18 -64 119v211q0 38 -15.5 54.5t-47.5 16.5h-30v46h45q52 0 77 -27.5t25 -88.5v-180q0 -75 12.5 -102t47.5 -27v-46q-35 0 -47.5 -27t-12.5 -102z" />
    <glyph glyph-name="asciitilde" unicode="~" horiz-adv-x="600" 
d="M495 316l36 -36q-20 -27 -33 -42t-38 -29.5t-54 -14.5q-42 0 -102 33q-62 35 -107 35q-32 0 -52.5 -19t-39.5 -53l-36 36q45 86 125 86q47 0 111 -32q72 -36 102 -36q19 0 36.5 12t27 24.5t24.5 35.5z" />
    <glyph glyph-name="uni00A0" unicode="&#xa0;" horiz-adv-x="240" 
 />
    <glyph glyph-name="exclamdown" unicode="&#xa1;" horiz-adv-x="352" 
d="M203 338l10 -526h-74l10 526h54zM213 510v-90h-74v90h74z" />
    <glyph glyph-name="cent" unicode="&#xa2;" 
d="M234 64l59 395h-8q-65 0 -107.5 -47t-42.5 -142q0 -165 99 -206zM333 453l-58 -400q12 -2 18 -2q63 0 86 27l5 -66q-26 -19 -99 -19q-3 0 -10 0.5t-10 0.5l-18 -122h-42l20 131q-68 20 -110 84t-42 166q0 121 54 192.5t157 71.5h18l17 112h42l-18 -117q26 -6 36 -13
l-4 -66q-17 14 -42 20z" />
    <glyph glyph-name="sterling" unicode="&#xa3;" 
d="M63 0v58h71v287h-71v54h71q0 96 5.5 139.5t24.5 76.5q26 46 69.5 68t89.5 22q72 0 115 -26l-10 -63q-40 31 -102 31q-70 0 -100 -49.5t-30 -116.5v-82h160v-54h-160v-287h232v-58h-365z" />
    <glyph glyph-name="currency" unicode="&#xa4;" 
d="M24 166l47 49q-47 56 -47 134t47 134l-47 49l33 33l48 -48q58 48 135 48q76 0 135 -48l48 48l33 -33l-47 -49q47 -56 47 -134t-47 -134l47 -49l-33 -33l-48 48q-59 -48 -135 -48q-77 0 -135 48l-48 -48zM74 349q0 -69 48.5 -117.5t117.5 -48.5t117.5 48.5t48.5 117.5
t-48.5 117.5t-117.5 48.5t-117.5 -48.5t-48.5 -117.5z" />
    <glyph glyph-name="yen" unicode="&#xa5;" 
d="M80 287v42h117l-164 369h66l141 -339l141 339h66l-164 -369h117v-42h-129v-91h129v-42h-129v-154h-62v154h-129v42h129v91h-129z" />
    <glyph glyph-name="brokenbar" unicode="&#xa6;" horiz-adv-x="222" 
d="M86 -175v350h50v-350h-50zM86 325v350h50v-350h-50z" />
    <glyph glyph-name="section" unicode="&#xa7;" 
d="M79 -94l11 66q20 -14 56 -29t70 -15q45 0 79.5 25t34.5 73q0 21 -6 36t-22 29t-27.5 21.5t-39.5 23.5q-73 41 -107 75t-34 90q0 79 84 144q-18 11 -29 20.5t-24.5 35.5t-13.5 60q0 53 41 98.5t119 45.5q57 0 115 -27l-10 -62l-7 3q-58 28 -95 28q-48 0 -74.5 -23
t-26.5 -58q0 -19 4.5 -32.5t22 -29.5t31.5 -25.5l52 -34.5q32 -20 49 -32.5t35.5 -31.5t26 -41.5t7.5 -51.5q0 -79 -74 -139q18 -16 29.5 -27.5t23.5 -38t12 -56.5q0 -59 -44 -107.5t-132 -48.5q-52 0 -137 36zM343 282q0 71 -129 136q-17 -14 -27 -23.5t-22.5 -33
t-12.5 -48.5q0 -35 27 -66t113 -73q18 21 26.5 34t16.5 33t8 41z" />
    <glyph glyph-name="dieresis" unicode="&#xa8;" horiz-adv-x="186" 
d="M-11 614v98h58v-98h-58zM139 614v98h58v-98h-58z" />
    <glyph glyph-name="copyright" unicode="&#xa9;" horiz-adv-x="800" 
d="M581 424h-50q-8 43 -42.5 70.5t-84.5 27.5q-73 0 -114 -48.5t-41 -124.5q0 -71 43 -122t112 -51q51 0 85 28.5t42 73.5h50q-16 -67 -63.5 -107.5t-113.5 -40.5q-91 0 -148 62.5t-57 156.5q0 97 55 158t150 61q69 0 118 -38.5t59 -105.5zM94 349q0 -129 89.5 -219.5
t216.5 -90.5t216.5 90.5t89.5 219.5t-89.5 219.5t-216.5 90.5t-216.5 -90.5t-89.5 -219.5zM44 349q0 148 104 252t252 104t252 -104t104 -252t-104 -252t-252 -104t-252 104t-104 252z" />
    <glyph glyph-name="ordfeminine" unicode="&#xaa;" horiz-adv-x="289" 
d="M253 605v-141q0 -22 4 -68h-41l-3 44h-2q-31 -48 -86 -48q-41 0 -72.5 23.5t-31.5 63.5q0 24 8 42t23.5 28.5t31 17t37 9.5t35 3.5t31.5 0.5h24q0 14 -0.5 22t-4 22t-10.5 22t-20.5 14.5t-33.5 6.5t-40.5 -8t-29.5 -14t-13 -10l-6 43q52 27 91 27q31 0 53 -9t32.5 -20
t16.5 -27.5t6.5 -24.5t0.5 -19zM211 514v32q-27 0 -38.5 -0.5l-33 -1.5t-30.5 -5t-21 -10.5t-16.5 -17.5t-4.5 -26q0 -20 16.5 -37.5t44.5 -17.5q10 0 21 2.5t26.5 10t25.5 26t10 45.5z" />
    <glyph glyph-name="guillemotleft" unicode="&#xab;" 
d="M86 264l115 202h54l-107 -202l107 -210h-54zM225 264l115 202h54l-107 -202l107 -210h-54z" />
    <glyph glyph-name="logicalnot" unicode="&#xac;" horiz-adv-x="600" 
d="M503 108v217h-456v50h506v-267h-50z" />
    <glyph glyph-name="uni00AD" unicode="&#xad;" horiz-adv-x="296" 
d="M46 250v58h204v-58h-204z" />
    <glyph glyph-name="registered" unicode="&#xae;" horiz-adv-x="800" 
d="M261 145v408h157q132 0 132 -113q0 -51 -28.5 -79t-73.5 -35l120 -181h-54l-120 181h-87v-181h-46zM307 511v-143h101q96 0 96 72q0 71 -96 71h-101zM94 349q0 -129 89.5 -219.5t216.5 -90.5t216.5 90.5t89.5 219.5t-89.5 219.5t-216.5 90.5t-216.5 -90.5t-89.5 -219.5z
M44 349q0 148 104 252t252 104t252 -104t104 -252t-104 -252t-252 -104t-252 104t-104 252z" />
    <glyph glyph-name="macron" unicode="&#xaf;" horiz-adv-x="186" 
d="M-26 634v46h238v-46h-238z" />
    <glyph glyph-name="degree" unicode="&#xb0;" horiz-adv-x="400" 
d="M55 560q0 60 42.5 102.5t102.5 42.5t102.5 -42.5t42.5 -102.5t-42.5 -102.5t-102.5 -42.5t-102.5 42.5t-42.5 102.5zM101 560q0 -41 29 -70t70 -29t70 29t29 70t-29 70t-70 29t-70 -29t-29 -70z" />
    <glyph glyph-name="plusminus" unicode="&#xb1;" horiz-adv-x="600" 
d="M275 324v182h50v-182h228v-50h-228v-182h-50v182h-228v50h228zM47 0v50h506v-50h-506z" />
    <glyph glyph-name="twosuperior" unicode="&#xb2;" horiz-adv-x="312" 
d="M42 282v37l34 39q86 98 114 146q28 50 28 87q2 31 -16 51.5t-52 20.5q-47 0 -86 -33l-6 48q35 27 96 27q58 0 86 -32.5t28 -77.5q0 -79 -115 -212l-53 -59h170v-42h-228z" />
    <glyph glyph-name="threesuperior" unicode="&#xb3;" horiz-adv-x="312" 
d="M88 479v42q131 0 131 74q0 8 -2 16t-9.5 21.5t-27 22t-48.5 8.5q-38 0 -75 -24l-3 46q12 8 39 14t44 6q69 0 100.5 -33.5t31.5 -72.5q0 -73 -81 -94v-2q32 -4 58.5 -32.5t26.5 -72.5q0 -59 -39 -89.5t-112 -30.5q-53 0 -83 17l3 47q40 -22 80 -22q43 0 72 21t29 62
q0 37 -28.5 56.5t-71.5 19.5h-35z" />
    <glyph glyph-name="acute" unicode="&#xb4;" horiz-adv-x="186" 
d="M123 728h70l-96 -142h-50z" />
    <glyph glyph-name="mu" unicode="&#xb5;" horiz-adv-x="463" 
d="M395 510v-352q0 -30 2 -85t2 -73h-54q-3 33 -4 75h-2q-7 -25 -40.5 -53.5t-89.5 -28.5q-65 0 -81 31h-2v-240h-58v726h58v-344q0 -16 0.5 -26.5t5.5 -30t14.5 -31.5t28.5 -21.5t46 -9.5q52 0 84 42.5t32 103.5v317h58z" />
    <glyph glyph-name="paragraph" unicode="&#xb6;" 
d="M230 -123v449q-85 2 -142.5 53.5t-57.5 129.5q0 91 56.5 140t158.5 49h185v-821h-50v775h-100v-775h-50z" />
    <glyph glyph-name="periodcentered" unicode="&#xb7;" horiz-adv-x="240" 
d="M65 308q0 22 16.5 38.5t38.5 16.5t38.5 -16.5t16.5 -38.5t-16.5 -38.5t-38.5 -16.5t-38.5 16.5t-16.5 38.5z" />
    <glyph glyph-name="cedilla" unicode="&#xb8;" horiz-adv-x="186" 
d="M88 0h36l-43 -55l2 -2q17 5 30 5q33 0 56.5 -17.5t23.5 -49.5q0 -41 -31.5 -61t-75.5 -20q-62 0 -86 16l10 28q40 -14 66 -14q63 0 63 46q0 20 -14.5 31t-34.5 11q-14 0 -46 -13l-13 14z" />
    <glyph glyph-name="onesuperior" unicode="&#xb9;" horiz-adv-x="312" 
d="M60 628l81 77h46v-423h-46v373l-59 -63z" />
    <glyph glyph-name="ordmasculine" unicode="&#xba;" horiz-adv-x="312" 
d="M156 430q29 0 48 14.5t26 39t8.5 37.5t1.5 28q0 14 -1.5 27t-8.5 37.5t-26 39t-48 14.5t-48 -14.5t-26 -39t-8.5 -37.5t-1.5 -27q0 -15 1.5 -28t8.5 -37.5t26 -39t48 -14.5zM26 549q0 67 29.5 111.5t100.5 44.5t100.5 -44.5t29.5 -111.5q0 -31 -6 -57.5t-20 -49.5
t-40.5 -36.5t-63.5 -13.5t-63.5 13.5t-40.5 36.5t-20 49.5t-6 57.5z" />
    <glyph glyph-name="guillemotright" unicode="&#xbb;" 
d="M394 256l-115 -202h-54l107 202l-107 210h54zM255 256l-115 -202h-54l107 202l-107 210h54z" />
    <glyph glyph-name="onequarter" unicode="&#xbc;" horiz-adv-x="721" 
d="M389 138l168 281h58v-281h46v-42h-46v-96h-46v96h-180v42zM569 138v227h-2l-136 -227h138zM147 -33l313 764h54l-313 -764h-54zM60 628l81 77h46v-423h-46v373l-59 -63z" />
    <glyph glyph-name="onehalf" unicode="&#xbd;" horiz-adv-x="721" 
d="M159 -33l313 764h54l-313 -764h-54zM60 628l81 77h46v-423h-46v373l-59 -63zM433 0v37l34 39q86 98 114 146q28 50 28 87q2 31 -16 51.5t-52 20.5q-47 0 -86 -33l-6 48q35 27 96 27q58 0 86 -32.5t28 -77.5q0 -79 -115 -212l-53 -59h170v-42h-228z" />
    <glyph glyph-name="threequarters" unicode="&#xbe;" horiz-adv-x="721" 
d="M410 138l168 281h58v-281h46v-42h-46v-96h-46v96h-180v42zM590 138v227h-2l-136 -227h138zM183 -33l313 764h54l-313 -764h-54zM88 479v42q131 0 131 74q0 8 -2 16t-9.5 21.5t-27 22t-48.5 8.5q-38 0 -75 -24l-3 46q12 8 39 14t44 6q69 0 100.5 -33.5t31.5 -72.5
q0 -73 -81 -94v-2q32 -4 58.5 -32.5t26.5 -72.5q0 -59 -39 -89.5t-112 -30.5q-53 0 -83 17l3 47q40 -22 80 -22q43 0 72 21t29 62q0 37 -28.5 56.5t-71.5 19.5h-35z" />
    <glyph glyph-name="questiondown" unicode="&#xbf;" horiz-adv-x="444" 
d="M350 -104l5 -68q-57 -23 -108 -23q-93 0 -136 48t-43 120q0 46 15 83.5t71 117.5q36 50 46 81t10 84h58q-4 -81 -14.5 -109t-61.5 -103q-58 -85 -58 -147q0 -52 30 -84.5t82 -32.5q53 0 104 33zM280 510v-90h-74v90h74z" />
    <glyph glyph-name="Agrave" unicode="&#xc0;" horiz-adv-x="556" 
d="M13 0l232 698h66l232 -698h-66l-61 192h-278l-63 -192h-62zM277 632l-121 -382h241l-118 382h-2zM178 869h70l76 -142h-50z" />
    <glyph glyph-name="Aacute" unicode="&#xc1;" horiz-adv-x="556" 
d="M13 0l232 698h66l232 -698h-66l-61 192h-278l-63 -192h-62zM277 632l-121 -382h241l-118 382h-2zM308 869h70l-96 -142h-50z" />
    <glyph glyph-name="Acircumflex" unicode="&#xc2;" horiz-adv-x="556" 
d="M13 0l232 698h66l232 -698h-66l-61 192h-278l-63 -192h-62zM277 632l-121 -382h241l-118 382h-2zM152 727l97 142h58l97 -142h-58l-68 102l-68 -102h-58z" />
    <glyph glyph-name="Atilde" unicode="&#xc3;" horiz-adv-x="556" 
d="M13 0l232 698h66l232 -698h-66l-61 192h-278l-63 -192h-62zM277 632l-121 -382h241l-118 382h-2zM186 746h-42q0 13 4 32t24.5 43t54.5 24q21 0 61 -23q36 -21 47 -21q13 0 24 14t11 35h42q0 -30 -19.5 -64.5t-57.5 -34.5q-28 0 -63 24q-31 20 -45 20q-19 0 -30 -18
t-11 -31z" />
    <glyph glyph-name="Adieresis" unicode="&#xc4;" horiz-adv-x="556" 
d="M13 0l232 698h66l232 -698h-66l-61 192h-278l-63 -192h-62zM277 632l-121 -382h241l-118 382h-2zM174 755v98h58v-98h-58zM324 755v98h58v-98h-58z" />
    <glyph glyph-name="Aring" unicode="&#xc5;" horiz-adv-x="556" 
d="M13 0l232 698h66l232 -698h-66l-61 192h-278l-63 -192h-62zM277 632l-121 -382h241l-118 382h-2zM181 816q0 40 28.5 68.5t68.5 28.5t68.5 -28.5t28.5 -68.5t-28.5 -68.5t-68.5 -28.5t-68.5 28.5t-28.5 68.5zM215 816q0 -26 18.5 -44.5t44.5 -18.5t44.5 18.5t18.5 44.5
t-18.5 44.5t-44.5 18.5t-44.5 -18.5t-18.5 -44.5z" />
    <glyph glyph-name="AE" unicode="&#xc6;" horiz-adv-x="759" 
d="M405 648l-196 -398h198v398h-2zM13 0l357 698h321v-58h-222v-248h211v-58h-211v-276h233v-58h-295v192h-226l-98 -192h-70z" />
    <glyph glyph-name="Ccedilla" unicode="&#xc7;" horiz-adv-x="537" 
d="M268 -95l-13 14l54 77q-84 11 -142.5 64.5t-84 128t-25.5 164.5q0 70 17 131.5t52 111.5t94 79.5t137 29.5q70 0 117 -23l-3 -70q-16 13 -50 24t-69 11q-20 0 -43 -4t-58 -22t-62 -47.5t-46.5 -87.5t-19.5 -135q0 -69 16.5 -124t40.5 -87t56 -53t60 -28.5t55 -7.5
q53 0 118 31l3 -67q-60 -22 -119 -22h-10l-38 -48l2 -2q17 5 30 5q33 0 56.5 -17.5t23.5 -49.5q0 -41 -31.5 -61t-75.5 -20q-62 0 -86 16l10 28q40 -14 66 -14q63 0 63 46q0 20 -14.5 31t-34.5 11q-14 0 -46 -13z" />
    <glyph glyph-name="Egrave" unicode="&#xc8;" horiz-adv-x="444" 
d="M80 0v698h296v-58h-234v-248h223v-58h-223v-276h245v-58h-307zM142 869h70l76 -142h-50z" />
    <glyph glyph-name="Eacute" unicode="&#xc9;" horiz-adv-x="444" 
d="M80 0v698h296v-58h-234v-248h223v-58h-223v-276h245v-58h-307zM272 869h70l-96 -142h-50z" />
    <glyph glyph-name="Ecircumflex" unicode="&#xca;" horiz-adv-x="444" 
d="M80 0v698h296v-58h-234v-248h223v-58h-223v-276h245v-58h-307zM116 727l97 142h58l97 -142h-58l-68 102l-68 -102h-58z" />
    <glyph glyph-name="Edieresis" unicode="&#xcb;" horiz-adv-x="444" 
d="M80 0v698h296v-58h-234v-248h223v-58h-223v-276h245v-58h-307zM138 755v98h58v-98h-58zM288 755v98h58v-98h-58z" />
    <glyph glyph-name="Igrave" unicode="&#xcc;" horiz-adv-x="222" 
d="M80 0v698h62v-698h-62zM11 869h70l76 -142h-50z" />
    <glyph glyph-name="Iacute" unicode="&#xcd;" horiz-adv-x="222" 
d="M80 0v698h62v-698h-62zM141 869h70l-96 -142h-50z" />
    <glyph glyph-name="Icircumflex" unicode="&#xce;" horiz-adv-x="222" 
d="M80 0v698h62v-698h-62zM-15 727l97 142h58l97 -142h-58l-68 102l-68 -102h-58z" />
    <glyph glyph-name="Idieresis" unicode="&#xcf;" horiz-adv-x="222" 
d="M80 0v698h62v-698h-62zM7 755v98h58v-98h-58zM157 755v98h58v-98h-58z" />
    <glyph glyph-name="Eth" unicode="&#xd0;" horiz-adv-x="556" 
d="M12 341v42h68v315h91q173 0 257 -84.5t84 -254.5q0 -161 -81.5 -260t-242.5 -99h-108v341h-68zM320 383v-42h-178v-283h64q114 0 177 78.5t63 212.5q0 41 -3.5 73t-18 75.5t-40 72.5t-74 49.5t-115.5 20.5h-53v-257h178z" />
    <glyph glyph-name="Ntilde" unicode="&#xd1;" horiz-adv-x="593" 
d="M80 0v698h80l293 -620h2v620h58v-698h-80l-293 616h-2v-616h-58zM205 746h-42q0 13 4 32t24.5 43t54.5 24q21 0 61 -23q36 -21 47 -21q13 0 24 14t11 35h42q0 -30 -19.5 -64.5t-57.5 -34.5q-28 0 -63 24q-31 20 -45 20q-19 0 -30 -18t-11 -31z" />
    <glyph glyph-name="Ograve" unicode="&#xd2;" horiz-adv-x="594" 
d="M51 349q0 22 0.5 39.5t5.5 57t13.5 70t26.5 68t43.5 62.5t66 42t90.5 17t90.5 -17t66 -42t43.5 -62.5t26.5 -68t13.5 -70t5.5 -57t0.5 -39.5t-0.5 -39.5t-5.5 -57t-13.5 -70t-26.5 -68t-43.5 -62.5t-66 -42t-90.5 -17t-90.5 17t-66 42t-43.5 62.5t-26.5 68t-13.5 70
t-5.5 57t-0.5 39.5zM117 349q0 -20 0.5 -34.5t4 -48t9.5 -58.5t19.5 -56.5t32 -52t48 -34.5t66.5 -14t66.5 14t48 34.5t32 52t19.5 56.5t9.5 58.5t4 48t0.5 34.5t-0.5 34.5t-4 48t-9.5 58.5t-19.5 56.5t-32 52t-48 34.5t-66.5 14t-66.5 -14t-48 -34.5t-32 -52t-19.5 -56.5
t-9.5 -58.5t-4 -48t-0.5 -34.5zM197 869h70l76 -142h-50z" />
    <glyph glyph-name="Oacute" unicode="&#xd3;" horiz-adv-x="594" 
d="M51 349q0 22 0.5 39.5t5.5 57t13.5 70t26.5 68t43.5 62.5t66 42t90.5 17t90.5 -17t66 -42t43.5 -62.5t26.5 -68t13.5 -70t5.5 -57t0.5 -39.5t-0.5 -39.5t-5.5 -57t-13.5 -70t-26.5 -68t-43.5 -62.5t-66 -42t-90.5 -17t-90.5 17t-66 42t-43.5 62.5t-26.5 68t-13.5 70
t-5.5 57t-0.5 39.5zM117 349q0 -20 0.5 -34.5t4 -48t9.5 -58.5t19.5 -56.5t32 -52t48 -34.5t66.5 -14t66.5 14t48 34.5t32 52t19.5 56.5t9.5 58.5t4 48t0.5 34.5t-0.5 34.5t-4 48t-9.5 58.5t-19.5 56.5t-32 52t-48 34.5t-66.5 14t-66.5 -14t-48 -34.5t-32 -52t-19.5 -56.5
t-9.5 -58.5t-4 -48t-0.5 -34.5zM327 869h70l-96 -142h-50z" />
    <glyph glyph-name="Ocircumflex" unicode="&#xd4;" horiz-adv-x="594" 
d="M51 349q0 22 0.5 39.5t5.5 57t13.5 70t26.5 68t43.5 62.5t66 42t90.5 17t90.5 -17t66 -42t43.5 -62.5t26.5 -68t13.5 -70t5.5 -57t0.5 -39.5t-0.5 -39.5t-5.5 -57t-13.5 -70t-26.5 -68t-43.5 -62.5t-66 -42t-90.5 -17t-90.5 17t-66 42t-43.5 62.5t-26.5 68t-13.5 70
t-5.5 57t-0.5 39.5zM117 349q0 -20 0.5 -34.5t4 -48t9.5 -58.5t19.5 -56.5t32 -52t48 -34.5t66.5 -14t66.5 14t48 34.5t32 52t19.5 56.5t9.5 58.5t4 48t0.5 34.5t-0.5 34.5t-4 48t-9.5 58.5t-19.5 56.5t-32 52t-48 34.5t-66.5 14t-66.5 -14t-48 -34.5t-32 -52t-19.5 -56.5
t-9.5 -58.5t-4 -48t-0.5 -34.5zM171 727l97 142h58l97 -142h-58l-68 102l-68 -102h-58z" />
    <glyph glyph-name="Otilde" unicode="&#xd5;" horiz-adv-x="594" 
d="M51 349q0 22 0.5 39.5t5.5 57t13.5 70t26.5 68t43.5 62.5t66 42t90.5 17t90.5 -17t66 -42t43.5 -62.5t26.5 -68t13.5 -70t5.5 -57t0.5 -39.5t-0.5 -39.5t-5.5 -57t-13.5 -70t-26.5 -68t-43.5 -62.5t-66 -42t-90.5 -17t-90.5 17t-66 42t-43.5 62.5t-26.5 68t-13.5 70
t-5.5 57t-0.5 39.5zM117 349q0 -20 0.5 -34.5t4 -48t9.5 -58.5t19.5 -56.5t32 -52t48 -34.5t66.5 -14t66.5 14t48 34.5t32 52t19.5 56.5t9.5 58.5t4 48t0.5 34.5t-0.5 34.5t-4 48t-9.5 58.5t-19.5 56.5t-32 52t-48 34.5t-66.5 14t-66.5 -14t-48 -34.5t-32 -52t-19.5 -56.5
t-9.5 -58.5t-4 -48t-0.5 -34.5zM205 746h-42q0 13 4 32t24.5 43t54.5 24q21 0 61 -23q36 -21 47 -21q13 0 24 14t11 35h42q0 -30 -19.5 -64.5t-57.5 -34.5q-28 0 -63 24q-31 20 -45 20q-19 0 -30 -18t-11 -31z" />
    <glyph glyph-name="Odieresis" unicode="&#xd6;" horiz-adv-x="594" 
d="M51 349q0 22 0.5 39.5t5.5 57t13.5 70t26.5 68t43.5 62.5t66 42t90.5 17t90.5 -17t66 -42t43.5 -62.5t26.5 -68t13.5 -70t5.5 -57t0.5 -39.5t-0.5 -39.5t-5.5 -57t-13.5 -70t-26.5 -68t-43.5 -62.5t-66 -42t-90.5 -17t-90.5 17t-66 42t-43.5 62.5t-26.5 68t-13.5 70
t-5.5 57t-0.5 39.5zM117 349q0 -20 0.5 -34.5t4 -48t9.5 -58.5t19.5 -56.5t32 -52t48 -34.5t66.5 -14t66.5 14t48 34.5t32 52t19.5 56.5t9.5 58.5t4 48t0.5 34.5t-0.5 34.5t-4 48t-9.5 58.5t-19.5 56.5t-32 52t-48 34.5t-66.5 14t-66.5 -14t-48 -34.5t-32 -52t-19.5 -56.5
t-9.5 -58.5t-4 -48t-0.5 -34.5zM193 755v98h58v-98h-58zM343 755v98h58v-98h-58z" />
    <glyph glyph-name="multiply" unicode="&#xd7;" horiz-adv-x="600" 
d="M300 288l190 191l36 -36l-191 -190l191 -190l-36 -36l-190 191l-190 -191l-36 36l190 190l-190 190l36 36z" />
    <glyph glyph-name="Oslash" unicode="&#xd8;" horiz-adv-x="594" 
d="M139 181l298 378q-46 88 -140 88q-37 0 -66.5 -14t-48 -34.5t-32 -52t-19.5 -56.5t-9.5 -58.5t-4 -48t-0.5 -34.5q0 -101 22 -168zM454 521l-299 -379q46 -91 142 -91q37 0 66.5 14t48 34.5t32 52t19.5 56.5t9.5 58.5t4 48t0.5 34.5q0 104 -23 172zM9 16l84 106
q-42 87 -42 227q0 22 0.5 39.5t5.5 57t13.5 70t26.5 68t43.5 62.5t66 42t90.5 17q121 0 183 -92l77 98l28 -24l-85 -108q43 -87 43 -230q0 -22 -0.5 -39.5t-5.5 -57t-13.5 -70t-26.5 -68t-43.5 -62.5t-66 -42t-90.5 -17q-121 0 -185 95l-75 -95z" />
    <glyph glyph-name="Ugrave" unicode="&#xd9;" horiz-adv-x="574" 
d="M80 257v441h62v-440q0 -35 3 -62.5t12 -55.5t24.5 -46.5t42.5 -30.5t63 -12q47 0 77.5 18t44.5 51.5t18.5 64.5t4.5 73v440h62v-441q0 -264 -207 -264q-114 0 -160.5 70t-46.5 194zM187 869h70l76 -142h-50z" />
    <glyph glyph-name="Uacute" unicode="&#xda;" horiz-adv-x="574" 
d="M80 257v441h62v-440q0 -35 3 -62.5t12 -55.5t24.5 -46.5t42.5 -30.5t63 -12q47 0 77.5 18t44.5 51.5t18.5 64.5t4.5 73v440h62v-441q0 -264 -207 -264q-114 0 -160.5 70t-46.5 194zM317 869h70l-96 -142h-50z" />
    <glyph glyph-name="Ucircumflex" unicode="&#xdb;" horiz-adv-x="574" 
d="M80 257v441h62v-440q0 -35 3 -62.5t12 -55.5t24.5 -46.5t42.5 -30.5t63 -12q47 0 77.5 18t44.5 51.5t18.5 64.5t4.5 73v440h62v-441q0 -264 -207 -264q-114 0 -160.5 70t-46.5 194zM161 727l97 142h58l97 -142h-58l-68 102l-68 -102h-58z" />
    <glyph glyph-name="Udieresis" unicode="&#xdc;" horiz-adv-x="574" 
d="M80 257v441h62v-440q0 -35 3 -62.5t12 -55.5t24.5 -46.5t42.5 -30.5t63 -12q47 0 77.5 18t44.5 51.5t18.5 64.5t4.5 73v440h62v-441q0 -264 -207 -264q-114 0 -160.5 70t-46.5 194zM183 755v98h58v-98h-58zM333 755v98h58v-98h-58z" />
    <glyph glyph-name="Yacute" unicode="&#xdd;" horiz-adv-x="500" 
d="M219 0v303l-176 395h66l142 -338l140 338h66l-176 -395v-303h-62zM280 869h70l-96 -142h-50z" />
    <glyph glyph-name="Thorn" unicode="&#xde;" horiz-adv-x="463" 
d="M142 490v-278h63q74 0 113.5 31t39.5 108q0 40 -12 68t-27.5 41.5t-41.5 20.5t-41 8t-40 1h-54zM80 0v698h62v-150h69q213 0 213 -197q0 -103 -57.5 -150t-137.5 -47h-87v-154h-62z" />
    <glyph glyph-name="germandbls" unicode="&#xdf;" horiz-adv-x="463" 
d="M60 0v536q0 65 17 112t45 70.5t56 33.5t58 10q66 0 111 -49t45 -135q0 -17 -3 -35.5t-13 -49.5t-37.5 -55t-68.5 -33v-2q152 -19 152 -198q0 -19 -2.5 -40.5t-13 -54t-28 -57t-52.5 -42.5t-81 -18q-38 0 -66 7l7 62q19 -11 49 -11q52 0 88.5 41t36.5 131q0 139 -164 146
v58q65 0 99.5 40t34.5 106q0 131 -99 131q-113 0 -113 -188v-516h-58z" />
    <glyph glyph-name="agrave" unicode="&#xe0;" horiz-adv-x="444" 
d="M378 348v-234q0 -38 6 -114h-52l-4 73h-2q-26 -42 -60 -61t-83 -19q-59 0 -100.5 43t-41.5 105q0 46 19.5 79.5t45 49.5t64.5 25t62 10.5t55 1.5h37q0 27 -0.5 42t-6 40t-16 38.5t-32 24.5t-51.5 11q-64 0 -128 -53l-9 62q30 16 46.5 24t41.5 14.5t52 6.5q157 0 157 -169
zM324 197v60q-34 0 -50.5 -0.5t-45 -2.5t-42.5 -6t-33 -12.5t-28 -20.5t-15.5 -31t-6.5 -43q0 -36 25.5 -65t68.5 -29q11 0 23.5 2t32.5 11t34.5 24t25.5 44.5t11 68.5zM122 728h70l76 -142h-50z" />
    <glyph glyph-name="aacute" unicode="&#xe1;" horiz-adv-x="444" 
d="M378 348v-234q0 -38 6 -114h-52l-4 73h-2q-26 -42 -60 -61t-83 -19q-59 0 -100.5 43t-41.5 105q0 46 19.5 79.5t45 49.5t64.5 25t62 10.5t55 1.5h37q0 27 -0.5 42t-6 40t-16 38.5t-32 24.5t-51.5 11q-64 0 -128 -53l-9 62q30 16 46.5 24t41.5 14.5t52 6.5q157 0 157 -169
zM324 197v60q-34 0 -50.5 -0.5t-45 -2.5t-42.5 -6t-33 -12.5t-28 -20.5t-15.5 -31t-6.5 -43q0 -36 25.5 -65t68.5 -29q11 0 23.5 2t32.5 11t34.5 24t25.5 44.5t11 68.5zM252 728h70l-96 -142h-50z" />
    <glyph glyph-name="acircumflex" unicode="&#xe2;" horiz-adv-x="444" 
d="M378 348v-234q0 -38 6 -114h-52l-4 73h-2q-26 -42 -60 -61t-83 -19q-59 0 -100.5 43t-41.5 105q0 46 19.5 79.5t45 49.5t64.5 25t62 10.5t55 1.5h37q0 27 -0.5 42t-6 40t-16 38.5t-32 24.5t-51.5 11q-64 0 -128 -53l-9 62q30 16 46.5 24t41.5 14.5t52 6.5q157 0 157 -169
zM324 197v60q-34 0 -50.5 -0.5t-45 -2.5t-42.5 -6t-33 -12.5t-28 -20.5t-15.5 -31t-6.5 -43q0 -36 25.5 -65t68.5 -29q11 0 23.5 2t32.5 11t34.5 24t25.5 44.5t11 68.5zM96 586l97 142h58l97 -142h-58l-68 102l-68 -102h-58z" />
    <glyph glyph-name="atilde" unicode="&#xe3;" horiz-adv-x="444" 
d="M378 348v-234q0 -38 6 -114h-52l-4 73h-2q-26 -42 -60 -61t-83 -19q-59 0 -100.5 43t-41.5 105q0 46 19.5 79.5t45 49.5t64.5 25t62 10.5t55 1.5h37q0 27 -0.5 42t-6 40t-16 38.5t-32 24.5t-51.5 11q-64 0 -128 -53l-9 62q30 16 46.5 24t41.5 14.5t52 6.5q157 0 157 -169
zM324 197v60q-34 0 -50.5 -0.5t-45 -2.5t-42.5 -6t-33 -12.5t-28 -20.5t-15.5 -31t-6.5 -43q0 -36 25.5 -65t68.5 -29q11 0 23.5 2t32.5 11t34.5 24t25.5 44.5t11 68.5zM130 605h-42q0 13 4 32t24.5 43t54.5 24q21 0 61 -23q36 -21 47 -21q13 0 24 14t11 35h42
q0 -30 -19.5 -64.5t-57.5 -34.5q-28 0 -63 24q-31 20 -45 20q-19 0 -30 -18t-11 -31z" />
    <glyph glyph-name="adieresis" unicode="&#xe4;" horiz-adv-x="444" 
d="M378 348v-234q0 -38 6 -114h-52l-4 73h-2q-26 -42 -60 -61t-83 -19q-59 0 -100.5 43t-41.5 105q0 46 19.5 79.5t45 49.5t64.5 25t62 10.5t55 1.5h37q0 27 -0.5 42t-6 40t-16 38.5t-32 24.5t-51.5 11q-64 0 -128 -53l-9 62q30 16 46.5 24t41.5 14.5t52 6.5q157 0 157 -169
zM324 197v60q-34 0 -50.5 -0.5t-45 -2.5t-42.5 -6t-33 -12.5t-28 -20.5t-15.5 -31t-6.5 -43q0 -36 25.5 -65t68.5 -29q11 0 23.5 2t32.5 11t34.5 24t25.5 44.5t11 68.5zM268 614v98h58v-98h-58zM118 614v98h58v-98h-58z" />
    <glyph glyph-name="aring" unicode="&#xe5;" horiz-adv-x="444" 
d="M378 348v-234q0 -38 6 -114h-52l-4 73h-2q-26 -42 -60 -61t-83 -19q-59 0 -100.5 43t-41.5 105q0 46 19.5 79.5t45 49.5t64.5 25t62 10.5t55 1.5h37q0 27 -0.5 42t-6 40t-16 38.5t-32 24.5t-51.5 11q-64 0 -128 -53l-9 62q30 16 46.5 24t41.5 14.5t52 6.5q157 0 157 -169
zM324 197v60q-34 0 -50.5 -0.5t-45 -2.5t-42.5 -6t-33 -12.5t-28 -20.5t-15.5 -31t-6.5 -43q0 -36 25.5 -65t68.5 -29q11 0 23.5 2t32.5 11t34.5 24t25.5 44.5t11 68.5zM125 665q0 41 28.5 69t68.5 28t68.5 -28t28.5 -69t-28.5 -69t-68.5 -28t-68.5 28t-28.5 69zM159 665
q0 -26 18.5 -44.5t44.5 -18.5t44.5 18.5t18.5 44.5t-18.5 44.5t-44.5 18.5t-44.5 -18.5t-18.5 -44.5z" />
    <glyph glyph-name="ae" unicode="&#xe6;" horiz-adv-x="685" 
d="M648 257h-283v-22q0 -21 4.5 -46.5t17 -60.5t42 -58t72.5 -23q13 0 25.5 2.5t26 7.5t21 8.5t21 10.5l15.5 8l4 -66q-50 -25 -118 -25q-65 0 -106 32t-58 83h-2q-37 -115 -156 -115q-36 0 -63.5 14t-41 32t-21.5 41.5t-9.5 37t-1.5 22.5q0 88 59 127.5t151 39.5h56
q0 35 -2.5 57t-11.5 47.5t-30 38.5t-54 13q-23 0 -46 -8.5t-33.5 -15t-31.5 -21.5l-5 57q3 3 18 12t45.5 19.5t59.5 10.5q33 0 59 -11.5t40 -29t20.5 -29.5t9.5 -22q46 92 136 92q39 0 69 -14t47.5 -39t29.5 -51t17 -59t6.5 -53.5t1.5 -43.5zM99 140q0 -41 24 -67t62 -26
q59 0 88.5 49.5t29.5 113.5v47q-26 0 -43.5 -1t-44.5 -4t-45 -11t-35.5 -20t-26.5 -33t-9 -48zM479 463q-38 0 -64 -22t-35 -55t-12 -50.5t-3 -28.5h221q0 9 -0.5 18t-3 29.5t-10 37t-18 34t-30.5 27.5t-45 10z" />
    <glyph glyph-name="ccedilla" unicode="&#xe7;" horiz-adv-x="370" 
d="M347 499l-3 -66q-31 26 -92 26q-64 0 -106.5 -47t-42.5 -142q0 -66 16.5 -112.5t43 -68t50 -30t48.5 -8.5q63 0 86 27l5 -66q-43 -19 -99 -19h-8l-38 -48l2 -2q17 5 30 5q33 0 56.5 -17.5t23.5 -49.5q0 -41 -31.5 -61t-75.5 -20q-62 0 -86 16l10 28q40 -14 66 -14
q63 0 63 46q0 20 -14.5 31t-34.5 11q-14 0 -46 -13l-13 14l56 78q-75 14 -123.5 80t-48.5 176q0 121 54 192.5t157 71.5q52 0 95 -18z" />
    <glyph glyph-name="egrave" unicode="&#xe8;" horiz-adv-x="426" 
d="M385 236h-282q0 -53 13.5 -92t30 -56.5t40.5 -28t35.5 -11.5t24.5 -1q26 0 57.5 11.5t52.5 30.5l3 -67q-54 -29 -119 -29q-41 0 -74 12.5t-53.5 30t-35 45t-21.5 49.5t-11 51.5t-4.5 42.5t-0.5 31q0 133 53.5 197.5t127.5 64.5q43 0 74 -18t47.5 -44.5t26.5 -67t12.5 -74
t2.5 -77.5zM103 290h220q0 92 -31 132.5t-73 40.5q-54 0 -85 -57t-31 -116zM113 728h70l76 -142h-50z" />
    <glyph glyph-name="eacute" unicode="&#xe9;" horiz-adv-x="426" 
d="M385 236h-282q0 -53 13.5 -92t30 -56.5t40.5 -28t35.5 -11.5t24.5 -1q26 0 57.5 11.5t52.5 30.5l3 -67q-54 -29 -119 -29q-41 0 -74 12.5t-53.5 30t-35 45t-21.5 49.5t-11 51.5t-4.5 42.5t-0.5 31q0 133 53.5 197.5t127.5 64.5q43 0 74 -18t47.5 -44.5t26.5 -67t12.5 -74
t2.5 -77.5zM103 290h220q0 92 -31 132.5t-73 40.5q-54 0 -85 -57t-31 -116zM243 728h70l-96 -142h-50z" />
    <glyph glyph-name="ecircumflex" unicode="&#xea;" horiz-adv-x="426" 
d="M385 236h-282q0 -53 13.5 -92t30 -56.5t40.5 -28t35.5 -11.5t24.5 -1q26 0 57.5 11.5t52.5 30.5l3 -67q-54 -29 -119 -29q-41 0 -74 12.5t-53.5 30t-35 45t-21.5 49.5t-11 51.5t-4.5 42.5t-0.5 31q0 133 53.5 197.5t127.5 64.5q43 0 74 -18t47.5 -44.5t26.5 -67t12.5 -74
t2.5 -77.5zM103 290h220q0 92 -31 132.5t-73 40.5q-54 0 -85 -57t-31 -116zM87 586l97 142h58l97 -142h-58l-68 102l-68 -102h-58z" />
    <glyph glyph-name="edieresis" unicode="&#xeb;" horiz-adv-x="426" 
d="M385 236h-282q0 -53 13.5 -92t30 -56.5t40.5 -28t35.5 -11.5t24.5 -1q26 0 57.5 11.5t52.5 30.5l3 -67q-54 -29 -119 -29q-41 0 -74 12.5t-53.5 30t-35 45t-21.5 49.5t-11 51.5t-4.5 42.5t-0.5 31q0 133 53.5 197.5t127.5 64.5q43 0 74 -18t47.5 -44.5t26.5 -67t12.5 -74
t2.5 -77.5zM103 290h220q0 92 -31 132.5t-73 40.5q-54 0 -85 -57t-31 -116zM109 614v98h58v-98h-58zM259 614v98h58v-98h-58z" />
    <glyph glyph-name="igrave" unicode="&#xec;" horiz-adv-x="204" 
d="M73 0v510h58v-510h-58zM2 728h70l76 -142h-50z" />
    <glyph glyph-name="iacute" unicode="&#xed;" horiz-adv-x="204" 
d="M73 0v510h58v-510h-58zM132 728h70l-96 -142h-50z" />
    <glyph glyph-name="icircumflex" unicode="&#xee;" horiz-adv-x="204" 
d="M73 0v510h58v-510h-58zM-24 586l97 142h58l97 -142h-58l-68 102l-68 -102h-58z" />
    <glyph glyph-name="idieresis" unicode="&#xef;" horiz-adv-x="204" 
d="M73 0v510h58v-510h-58zM-2 614v98h58v-98h-58zM148 614v98h58v-98h-58z" />
    <glyph glyph-name="eth" unicode="&#xf0;" horiz-adv-x="464" 
d="M232 47q31 0 54.5 12t36.5 33t21.5 41t11.5 46t4 37.5t1 24.5q0 208 -129 208t-129 -208q0 -13 1 -24.5t4 -37.5t11.5 -46t21.5 -41t36.5 -33t54.5 -12zM74 728l34 34q68 -24 118 -59l92 59l30 -26l-91 -58q86 -69 126 -167.5t40 -208.5q0 -309 -191 -309q-53 0 -92 22
t-59.5 59.5t-30 79t-9.5 87.5q0 52 9.5 95.5t30 82.5t59.5 61.5t92 22.5q69 0 114 -53l2 2q-32 117 -132 200l-98 -63l-30 26l95 61q-51 36 -109 52z" />
    <glyph glyph-name="ntilde" unicode="&#xf1;" horiz-adv-x="463" 
d="M68 0v352q0 30 -2 85t-2 73h54q3 -33 4 -75h2q45 82 130 82q40 0 68.5 -16t42 -35t21 -48.5t8.5 -43.5t1 -32v-342h-58v344q0 16 -0.5 26.5t-5.5 30t-14.5 31.5t-28.5 21.5t-46 9.5q-52 0 -84 -42.5t-32 -103.5v-317h-58zM140 605h-42q0 13 4 32t24.5 43t54.5 24
q21 0 61 -23q36 -21 47 -21q13 0 24 14t11 35h42q0 -30 -19.5 -64.5t-57.5 -34.5q-28 0 -63 24q-31 20 -45 20q-19 0 -30 -18t-11 -31z" />
    <glyph glyph-name="ograve" unicode="&#xf2;" horiz-adv-x="464" 
d="M232 47q129 0 129 208t-129 208t-129 -208t129 -208zM232 -7q-53 0 -92 22.5t-59.5 61.5t-30 82.5t-9.5 95.5t9.5 95.5t30 82.5t59.5 61.5t92 22.5t92 -22.5t59.5 -61.5t30 -82.5t9.5 -95.5t-9.5 -95.5t-30 -82.5t-59.5 -61.5t-92 -22.5zM132 728h70l76 -142h-50z" />
    <glyph glyph-name="oacute" unicode="&#xf3;" horiz-adv-x="464" 
d="M232 47q129 0 129 208t-129 208t-129 -208t129 -208zM232 -7q-53 0 -92 22.5t-59.5 61.5t-30 82.5t-9.5 95.5t9.5 95.5t30 82.5t59.5 61.5t92 22.5t92 -22.5t59.5 -61.5t30 -82.5t9.5 -95.5t-9.5 -95.5t-30 -82.5t-59.5 -61.5t-92 -22.5zM262 728h70l-96 -142h-50z" />
    <glyph glyph-name="ocircumflex" unicode="&#xf4;" horiz-adv-x="464" 
d="M232 47q129 0 129 208t-129 208t-129 -208t129 -208zM232 -7q-53 0 -92 22.5t-59.5 61.5t-30 82.5t-9.5 95.5t9.5 95.5t30 82.5t59.5 61.5t92 22.5t92 -22.5t59.5 -61.5t30 -82.5t9.5 -95.5t-9.5 -95.5t-30 -82.5t-59.5 -61.5t-92 -22.5zM106 586l97 142h58l97 -142h-58
l-68 102l-68 -102h-58z" />
    <glyph glyph-name="otilde" unicode="&#xf5;" horiz-adv-x="464" 
d="M232 47q129 0 129 208t-129 208t-129 -208t129 -208zM232 -7q-53 0 -92 22.5t-59.5 61.5t-30 82.5t-9.5 95.5t9.5 95.5t30 82.5t59.5 61.5t92 22.5t92 -22.5t59.5 -61.5t30 -82.5t9.5 -95.5t-9.5 -95.5t-30 -82.5t-59.5 -61.5t-92 -22.5zM140 605h-42q0 13 4 32t24.5 43
t54.5 24q21 0 61 -23q36 -21 47 -21q13 0 24 14t11 35h42q0 -30 -19.5 -64.5t-57.5 -34.5q-28 0 -63 24q-31 20 -45 20q-19 0 -30 -18t-11 -31z" />
    <glyph glyph-name="odieresis" unicode="&#xf6;" horiz-adv-x="464" 
d="M232 47q129 0 129 208t-129 208t-129 -208t129 -208zM232 -7q-53 0 -92 22.5t-59.5 61.5t-30 82.5t-9.5 95.5t9.5 95.5t30 82.5t59.5 61.5t92 22.5t92 -22.5t59.5 -61.5t30 -82.5t9.5 -95.5t-9.5 -95.5t-30 -82.5t-59.5 -61.5t-92 -22.5zM128 614v98h58v-98h-58zM278 614
v98h58v-98h-58z" />
    <glyph glyph-name="divide" unicode="&#xf7;" horiz-adv-x="600" 
d="M47 228v50h506v-50h-506zM245 458q0 22 16.5 38.5t38.5 16.5t38.5 -16.5t16.5 -38.5t-16.5 -38.5t-38.5 -16.5t-38.5 16.5t-16.5 38.5zM245 48q0 22 16.5 38.5t38.5 16.5t38.5 -16.5t16.5 -38.5t-16.5 -38.5t-38.5 -16.5t-38.5 16.5t-16.5 38.5z" />
    <glyph glyph-name="oslash" unicode="&#xf8;" horiz-adv-x="463" 
d="M344 376l-212 -269q32 -60 100 -60q129 0 129 208q0 74 -17 121zM16 14l59 75q-34 65 -34 166q0 52 9.5 95.5t30 82.5t59.5 61.5t92 22.5q86 0 134 -59l46 59l26 -22l-52 -66q37 -66 37 -174q0 -52 -9.5 -95.5t-30 -82.5t-59.5 -61.5t-92 -22.5q-89 0 -138 65l-52 -65z
M117 143l211 267q-32 53 -96 53q-129 0 -129 -208q0 -67 14 -112z" />
    <glyph glyph-name="ugrave" unicode="&#xf9;" horiz-adv-x="463" 
d="M395 510v-352q0 -30 2 -85t2 -73h-54q-3 33 -4 75h-2q-7 -25 -40.5 -53.5t-89.5 -28.5q-77 0 -109 45.5t-32 115.5v356h58v-344q0 -16 0.5 -26.5t5.5 -30t14.5 -31.5t28.5 -21.5t46 -9.5q52 0 84 42.5t32 103.5v317h58zM132 728h70l76 -142h-50z" />
    <glyph glyph-name="uacute" unicode="&#xfa;" horiz-adv-x="463" 
d="M395 510v-352q0 -30 2 -85t2 -73h-54q-3 33 -4 75h-2q-7 -25 -40.5 -53.5t-89.5 -28.5q-77 0 -109 45.5t-32 115.5v356h58v-344q0 -16 0.5 -26.5t5.5 -30t14.5 -31.5t28.5 -21.5t46 -9.5q52 0 84 42.5t32 103.5v317h58zM262 728h70l-96 -142h-50z" />
    <glyph glyph-name="ucircumflex" unicode="&#xfb;" horiz-adv-x="463" 
d="M395 510v-352q0 -30 2 -85t2 -73h-54q-3 33 -4 75h-2q-7 -25 -40.5 -53.5t-89.5 -28.5q-77 0 -109 45.5t-32 115.5v356h58v-344q0 -16 0.5 -26.5t5.5 -30t14.5 -31.5t28.5 -21.5t46 -9.5q52 0 84 42.5t32 103.5v317h58zM106 586l97 142h58l97 -142h-58l-68 102l-68 -102
h-58z" />
    <glyph glyph-name="udieresis" unicode="&#xfc;" horiz-adv-x="463" 
d="M395 510v-352q0 -30 2 -85t2 -73h-54q-3 33 -4 75h-2q-7 -25 -40.5 -53.5t-89.5 -28.5q-77 0 -109 45.5t-32 115.5v356h58v-344q0 -16 0.5 -26.5t5.5 -30t14.5 -31.5t28.5 -21.5t46 -9.5q52 0 84 42.5t32 103.5v317h58zM128 614v98h58v-98h-58zM278 614v98h58v-98h-58z
" />
    <glyph glyph-name="yacute" unicode="&#xfd;" horiz-adv-x="370" 
d="M72 510l114 -424h2l114 424h58l-167 -605q-9 -34 -15 -50.5t-19 -37.5t-33 -30t-49 -9q-18 0 -39 6l3 59q16 -11 41 -11q35 0 52 59l26 97l-150 522h62zM215 728h70l-96 -142h-50z" />
    <glyph glyph-name="thorn" unicode="&#xfe;" horiz-adv-x="463" 
d="M64 -216v797q0 81 -4 169h62v-306h2q47 73 126 73q39 0 70 -15t48.5 -41t29.5 -52.5t16.5 -58t6 -48t1.5 -30.5q0 -77 -16 -137.5t-55.5 -101t-97.5 -40.5q-91 0 -129 71h-2v-280h-58zM360 255q0 208 -116 208q-126 0 -126 -202q0 -25 0.5 -40.5t4 -44.5t11.5 -48
t21 -39.5t35.5 -31t52.5 -10.5q117 0 117 208z" />
    <glyph glyph-name="ydieresis" unicode="&#xff;" horiz-adv-x="370" 
d="M72 510l114 -424h2l114 424h58l-167 -605q-9 -34 -15 -50.5t-19 -37.5t-33 -30t-49 -9q-18 0 -39 6l3 59q16 -11 41 -11q35 0 52 59l26 97l-150 522h62zM81 614v98h58v-98h-58zM231 614v98h58v-98h-58z" />
    <glyph glyph-name="dotlessi" unicode="&#x131;" horiz-adv-x="204" 
d="M73 0v510h58v-510h-58z" />
    <glyph glyph-name="Lslash" unicode="&#x141;" horiz-adv-x="389" 
d="M0 178v58l80 77v385h62v-326l164 157v-58l-164 -157v-256h227v-58h-289v255z" />
    <glyph glyph-name="lslash" unicode="&#x142;" horiz-adv-x="204" 
d="M0 235v60l73 92v363h58v-290h2l71 89v-60l-73 -92v-397h-58v324h-2z" />
    <glyph glyph-name="OE" unicode="&#x152;" horiz-adv-x="741" 
d="M662 392v-58h-207v-276h229v-58h-274q-7 0 -14.5 -0.5t-17.5 -1.5t-15 -1q-32 -4 -47 -4q-73 0 -126 28t-82.5 78.5t-43 112t-13.5 137.5t13.5 137.5t43 112t82.5 78.5t126 28q7 0 15 -0.5t17.5 -1.5t14.5 -1q32 -4 47 -4h263v-58h-218v-248h207zM393 58v582q-21 7 -80 7
q-102 0 -151 -78t-49 -220t49 -220t151 -78q59 0 80 7z" />
    <glyph glyph-name="oe" unicode="&#x153;" horiz-adv-x="741" 
d="M232 47q129 0 129 208t-129 208t-129 -208t129 -208zM709 236h-286q0 -53 14 -92t31.5 -56.5t42 -28t36 -11.5t24.5 -1q26 0 57.5 11.5t52.5 30.5l3 -67q-54 -29 -119 -29q-122 0 -172 105q-44 -105 -161 -105q-53 0 -92 22.5t-59.5 61.5t-30 82.5t-9.5 95.5t9.5 95.5
t30 82.5t59.5 61.5t92 22.5q118 0 163 -107q23 54 64 80.5t87 26.5q43 0 74 -18t47.5 -44.5t26.5 -67t12.5 -74t2.5 -77.5zM423 290h224q0 92 -31 132.5t-73 40.5q-39 0 -67.5 -30.5t-40.5 -68.5t-12 -74z" />
    <glyph glyph-name="Scaron" unicode="&#x160;" horiz-adv-x="426" 
d="M56 26l4 72q52 -47 123 -47q39 0 66.5 15.5t39 38.5t16 40.5t4.5 31.5q0 30 -7.5 52t-28 43t-39 35t-57.5 40q-73 49 -99.5 89.5t-26.5 99.5q0 44 15.5 77t36.5 50t48.5 27t46 12.5t35.5 2.5q51 0 110 -22l-3 -70q-57 34 -111 34q-40 0 -76 -24t-36 -78q0 -47 21 -74
t75 -66q101 -74 131.5 -112.5t30.5 -106.5q0 -87 -53 -140t-134 -53q-80 0 -132 33zM184 727l-97 142h58l68 -102l68 102h58l-97 -142h-58z" />
    <glyph glyph-name="scaron" unicode="&#x161;" horiz-adv-x="352" 
d="M287 502l-8 -60q-55 21 -87 21q-42 0 -64.5 -25t-22.5 -56q0 -33 15.5 -48.5t71.5 -46.5l41 -22.5t31.5 -21t29 -27.5t15 -31.5t7.5 -43.5q0 -68 -42.5 -108t-108.5 -40q-64 0 -129 24l8 65q16 -11 50 -23t66 -12q40 0 67 26.5t27 61.5q0 34 -20.5 54t-70.5 45
q-69 34 -94.5 62.5t-25.5 79.5q0 67 46.5 104t103.5 37q47 0 94 -15zM147 586l-97 142h58l68 -102l68 102h58l-97 -142h-58z" />
    <glyph glyph-name="Ydieresis" unicode="&#x178;" horiz-adv-x="500" 
d="M219 0v303l-176 395h66l142 -338l140 338h66l-176 -395v-303h-62zM146 755v98h58v-98h-58zM296 755v98h58v-98h-58z" />
    <glyph glyph-name="Zcaron" unicode="&#x17d;" horiz-adv-x="444" 
d="M36 0v62l299 578h-289v58h355v-60l-300 -580h307v-58h-372zM193 727l-97 142h58l68 -102l68 102h58l-97 -142h-58z" />
    <glyph glyph-name="zcaron" unicode="&#x17e;" horiz-adv-x="370" 
d="M30 0v58l244 398h-236v54h298v-58l-244 -398h248v-54h-310zM156 586l-97 142h58l68 -102l68 102h58l-97 -142h-58z" />
    <glyph glyph-name="florin" unicode="&#x192;" 
d="M135 362v50h98l11 70q8 51 17.5 86t25.5 69t42 51t61 17q29 0 58 -13l-9 -57q-22 16 -46 16q-21 0 -36 -14t-24 -39t-14.5 -52.5t-11.5 -61.5q-1 -5 -1 -8l-11 -64h90v-50h-98l-56 -355q-36 -229 -154 -229q-28 0 -45 10l8 60q24 -8 35 -8q44 0 62 39.5t35 148.5l53 334
h-90z" />
    <glyph glyph-name="circumflex" unicode="&#x2c6;" horiz-adv-x="186" 
d="M-33 586l97 142h58l97 -142h-58l-68 102l-68 -102h-58z" />
    <glyph glyph-name="caron" unicode="&#x2c7;" horiz-adv-x="186" 
d="M64 586l-97 142h58l68 -102l68 102h58l-97 -142h-58z" />
    <glyph glyph-name="uni02C9" unicode="&#x2c9;" horiz-adv-x="186" 
d="M-26 634v46h238v-46h-238z" />
    <glyph glyph-name="breve" unicode="&#x2d8;" horiz-adv-x="186" 
d="M-26 717h40q4 -34 25 -55t54 -21t54 21t25 55h40q0 -12 -4.5 -29.5t-16 -40t-37 -37.5t-61.5 -15t-61.5 15t-37 37.5t-16 40t-4.5 29.5z" />
    <glyph glyph-name="dotaccent" unicode="&#x2d9;" horiz-adv-x="186" 
d="M64 614v98h58v-98h-58z" />
    <glyph glyph-name="ring" unicode="&#x2da;" horiz-adv-x="186" 
d="M-4 665q0 41 28 69t69 28t69 -28t28 -69t-28 -69t-69 -28t-69 28t-28 69zM30 665q0 -26 18.5 -44.5t44.5 -18.5t44.5 18.5t18.5 44.5t-18.5 44.5t-44.5 18.5t-44.5 -18.5t-18.5 -44.5z" />
    <glyph glyph-name="ogonek" unicode="&#x2db;" horiz-adv-x="186" 
d="M110 0h41q-84 -50 -84 -112q0 -27 15.5 -42.5t33.5 -15.5q32 0 48 12l13 -25q-40 -17 -70 -17q-43 0 -70.5 20.5t-27.5 60.5q0 33 26 65.5t75 53.5z" />
    <glyph glyph-name="tilde" unicode="&#x2dc;" horiz-adv-x="186" 
d="M1 605h-42q0 13 4 32t24.5 43t54.5 24q21 0 61 -23q36 -21 47 -21q13 0 24 14t11 35h42q0 -30 -19.5 -64.5t-57.5 -34.5q-28 0 -63 24q-31 20 -45 20q-19 0 -30 -18t-11 -31z" />
    <glyph glyph-name="hungarumlaut" unicode="&#x2dd;" horiz-adv-x="186" 
d="M193 728h70l-96 -142h-50zM53 728h70l-96 -142h-50z" />
    <glyph glyph-name="uni03A9" unicode="&#x3a9;" horiz-adv-x="621" 
d="M177 50v3q-53 54 -86.5 136t-33.5 180q0 147 73 237.5t184 90.5t180 -93t69 -231q0 -102 -35 -186.5t-86 -133.5v-3h133v-50h-203v37q56 45 94.5 131t38.5 193q0 50 -12 99t-35 91.5t-61 68.5t-85 26q-89 0 -143 -81.5t-54 -204.5q0 -101 39.5 -190.5t93.5 -132.5v-37
h-203v50h132z" />
    <glyph glyph-name="uni03BC" unicode="&#x3bc;" horiz-adv-x="463" 
d="M395 510v-352q0 -30 2 -85t2 -73h-54q-3 33 -4 75h-2q-7 -25 -40.5 -53.5t-89.5 -28.5q-65 0 -81 31h-2v-240h-58v726h58v-344q0 -16 0.5 -26.5t5.5 -30t14.5 -31.5t28.5 -21.5t46 -9.5q52 0 84 42.5t32 103.5v317h58z" />
    <glyph glyph-name="pi" unicode="&#x3c0;" horiz-adv-x="493" 
d="M467 458h-71v-319q0 -94 13 -139h-56q-15 28 -15 134v324h-162q-4 -109 -23.5 -250t-42.5 -208h-57q25 75 43.5 211t21.5 247q-68 0 -97 -12l-10 39q38 25 122 25h340z" />
    <glyph glyph-name="endash" unicode="&#x2013;" horiz-adv-x="500" 
d="M0 252v54h500v-54h-500z" />
    <glyph glyph-name="emdash" unicode="&#x2014;" horiz-adv-x="1000" 
d="M0 252v54h1000v-54h-1000z" />
    <glyph glyph-name="quoteleft" unicode="&#x2018;" horiz-adv-x="240" 
d="M59 528l64 222h58l-48 -222h-74z" />
    <glyph glyph-name="quoteright" unicode="&#x2019;" horiz-adv-x="240" 
d="M181 750l-64 -222h-58l48 222h74z" />
    <glyph glyph-name="quotesinglbase" unicode="&#x201a;" horiz-adv-x="240" 
d="M181 90l-64 -222h-58l48 222h74z" />
    <glyph glyph-name="quotedblleft" unicode="&#x201c;" 
d="M107 528l64 222h58l-48 -222h-74zM251 528l64 222h58l-48 -222h-74z" />
    <glyph glyph-name="quotedblright" unicode="&#x201d;" 
d="M373 750l-64 -222h-58l48 222h74zM229 750l-64 -222h-58l48 222h74z" />
    <glyph glyph-name="quotedblbase" unicode="&#x201e;" 
d="M373 90l-64 -222h-58l48 222h74zM229 90l-64 -222h-58l48 222h74z" />
    <glyph glyph-name="dagger" unicode="&#x2020;" 
d="M213 0v467h-140v50h140v181h54v-181h140v-50h-140v-467h-54z" />
    <glyph glyph-name="daggerdbl" unicode="&#x2021;" 
d="M213 524v174h54v-174h140v-50h-140v-250h140v-50h-140v-174h-54v174h-140v50h140v250h-140v50h140z" />
    <glyph glyph-name="bullet" unicode="&#x2022;" horiz-adv-x="500" 
d="M75 349q0 73 51 124t124 51t124 -51t51 -124t-51 -124t-124 -51t-124 51t-51 124z" />
    <glyph glyph-name="ellipsis" unicode="&#x2026;" horiz-adv-x="1000" 
d="M128 0v98h78v-98h-78zM461 0v98h78v-98h-78zM794 0v98h78v-98h-78z" />
    <glyph glyph-name="perthousand" unicode="&#x2030;" horiz-adv-x="870" 
d="M449 -7q-112 0 -112 185t112 185t112 -185t-112 -185zM449 43q21 0 33.5 12t17.5 36t6 41t1 46t-1 46t-6 41t-17.5 36t-33.5 12t-33.5 -12t-17.5 -36t-6 -41t-1 -46t1 -46t6 -41t17.5 -36t33.5 -12zM721 -7q-112 0 -112 185t112 185t112 -185t-112 -185zM721 43
q21 0 33.5 12t17.5 36t6 41t1 46t-1 46t-6 41t-17.5 36t-33.5 12t-33.5 -12t-17.5 -36t-6 -41t-1 -46t1 -46t6 -41t17.5 -36t33.5 -12zM149 335q-112 0 -112 185t112 185t112 -185t-112 -185zM149 385q21 0 33.5 12t17.5 36t6 41t1 46t-1 46t-6 41t-17.5 36t-33.5 12
t-33.5 -12t-17.5 -36t-6 -41t-1 -46t1 -46t6 -41t17.5 -36t33.5 -12zM149 -33l256 763h42l-256 -763h-42z" />
    <glyph glyph-name="guilsinglleft" unicode="&#x2039;" horiz-adv-x="259" 
d="M45 264l115 202h54l-107 -202l107 -210h-54z" />
    <glyph glyph-name="guilsinglright" unicode="&#x203a;" horiz-adv-x="259" 
d="M214 256l-115 -202h-54l107 202l-107 210h54z" />
    <glyph glyph-name="fraction" unicode="&#x2044;" horiz-adv-x="167" 
d="M-100 -33l313 764h54l-313 -764h-54z" />
    <glyph glyph-name="Euro" unicode="&#x20ac;" 
d="M478 682l-12 -65q-10 12 -45.5 21.5t-55.5 9.5q-87 0 -138.5 -59.5t-69.5 -150.5h281l-8 -42h-279q-4 -47 0 -94h265l-7 -42h-252q18 -90 69.5 -150t137.5 -60q46 0 102 27l6 -66q-61 -18 -106 -18q-117 0 -186.5 74t-89.5 193h-73l8 42h61q-4 47 0 94h-69l8 42h66
q20 119 91 193t188 74q58 0 108 -23z" />
    <glyph glyph-name="afii61289" unicode="&#x2113;" horiz-adv-x="421" 
d="M371 134l29 -24q-57 -112 -158 -112q-73 0 -107.5 52.5t-35.5 137.5q-1 5 -1 14l-51 -46l-19 36q55 51 70 67v273q0 122 38 175.5t93 53.5q51 0 78 -41.5t27 -110.5q0 -167 -181 -361v-34q0 -87 27.5 -128t71.5 -41q71 0 119 89zM153 536v-225q141 168 141 297
q0 106 -66 106q-30 0 -52.5 -43.5t-22.5 -134.5z" />
    <glyph glyph-name="trademark" unicode="&#x2122;" horiz-adv-x="1000" 
d="M187 282v370h-135v46h320v-46h-135v-370h-50zM828 282v370h-2l-149 -370h-30l-149 370h-2v-370h-50v416h86l132 -334l128 334h86v-416h-50z" />
    <glyph glyph-name="Omega" unicode="&#x2126;" horiz-adv-x="621" 
d="M177 50v3q-53 54 -86.5 136t-33.5 180q0 147 73 237.5t184 90.5t180 -93t69 -231q0 -102 -35 -186.5t-86 -133.5v-3h133v-50h-203v37q56 45 94.5 131t38.5 193q0 50 -12 99t-35 91.5t-61 68.5t-85 26q-89 0 -143 -81.5t-54 -204.5q0 -101 39.5 -190.5t93.5 -132.5v-37
h-203v50h132z" />
    <glyph glyph-name="estimated" unicode="&#x212e;" horiz-adv-x="858" 
d="M824 339h-640q-5 0 -5 -4v-194q0 -12 8 -22q102 -105 242 -105q153 0 255 118h57q-54 -64 -136.5 -101t-176.5 -37q-164 0 -279.5 104t-115.5 251t116 251.5t279 104.5q164 0 280 -104.5t116 -251.5v-10zM679 364v195q0 14 -10 23q-103 101 -240 101q-139 0 -241 -104
q-9 -9 -9 -24v-191q0 -6 5 -6h491q4 0 4 6z" />
    <glyph glyph-name="partialdiff" unicode="&#x2202;" horiz-adv-x="474" 
d="M90 678l-21 44q60 52 142 52q90 0 154 -93t64 -275q0 -187 -58.5 -297.5t-166.5 -110.5q-79 0 -122 63.5t-43 159.5q0 111 56 181.5t132 70.5q53 0 91 -28.5t53 -59.5h1q1 11 1 41q0 132 -49 215t-119 83q-63 0 -115 -46zM209 48h1q62 0 104 77.5t51 192.5
q-13 40 -48 72.5t-82 32.5q-56 0 -97 -59.5t-41 -141.5q0 -79 30.5 -126.5t81.5 -47.5z" />
    <glyph glyph-name="Delta" unicode="&#x2206;" horiz-adv-x="560" 
d="M29 0v42l220 662h65l218 -661v-43h-503zM87 49h383l-131 397q-6 21 -29 87t-29 92h-4q-5 -23 -26 -86t-26 -80z" />
    <glyph glyph-name="product" unicode="&#x220f;" horiz-adv-x="606" 
d="M581 632h-95v-727h-56v727h-255v-727h-57v727h-94v54h557v-54z" />
    <glyph glyph-name="summation" unicode="&#x2211;" horiz-adv-x="484" 
d="M463 -95h-442v42l241 347l-230 350v42h416v-51h-337v-4l217 -328l-234 -337v-4h369v-57z" />
    <glyph glyph-name="minus" unicode="&#x2212;" horiz-adv-x="600" 
d="M47 228v50h506v-50h-506z" />
    <glyph glyph-name="uni2215" unicode="&#x2215;" horiz-adv-x="167" 
d="M-100 -33l313 764h54l-313 -764h-54z" />
    <glyph glyph-name="uni2219" unicode="&#x2219;" horiz-adv-x="240" 
d="M65 308q0 22 16.5 38.5t38.5 16.5t38.5 -16.5t16.5 -38.5t-16.5 -38.5t-38.5 -16.5t-38.5 16.5t-16.5 38.5z" />
    <glyph glyph-name="radical" unicode="&#x221a;" horiz-adv-x="505" 
d="M500 815l-195 -964h-52l-144 463l-66 -25l-12 38l116 44l115 -368q12 -48 16 -72h1q2 14 11 70l166 814h44z" />
    <glyph glyph-name="infinity" unicode="&#x221e;" horiz-adv-x="704" 
d="M658 287v-1q0 -63 -41 -103t-97 -40q-41 0 -78.5 25.5t-88.5 83.5q-31 -35 -50.5 -54t-53.5 -37t-69 -18q-55 0 -94.5 40.5t-39.5 98.5q0 62 39.5 102t100.5 40q47 0 86.5 -28.5t83.5 -80.5q28 31 38.5 41.5t35 31.5t47.5 28.5t50 7.5q59 0 95 -38t36 -99zM186 182h1
q17 0 33 5.5t33.5 19t26 21t28.5 29t23 24.5q-25 30 -33.5 39.5t-31 30.5t-43 28.5t-43.5 7.5q-42 0 -67 -31t-25 -75q0 -42 27.5 -70.5t70.5 -28.5zM522 387h-1q-21 0 -45 -13t-36.5 -24.5t-36 -36.5t-26.5 -28q37 -40 55.5 -57.5t43 -31.5t48.5 -14q41 0 66.5 30.5
t25.5 70.5q0 48 -26 76t-68 28z" />
    <glyph glyph-name="integral" unicode="&#x222b;" horiz-adv-x="317" 
d="M301 824l-12 -43q-14 10 -32 10q-28 0 -45 -24q-31 -39 -31 -178q0 -75 5.5 -248t5.5 -252q0 -139 -40 -199q-29 -45 -84 -45q-34 0 -55 15l12 44q22 -11 39 -11q25 0 43 24q30 44 30 173q0 79 -5.5 254t-5.5 251q0 152 47 204q31 37 81 37q23 0 47 -12z" />
    <glyph glyph-name="approxequal" unicode="&#x2248;" horiz-adv-x="499" 
d="M431 409l26 -21q-41 -87 -113 -87q-17 0 -34.5 5t-30 11.5l-39.5 21.5q-55 32 -84 32q-47 0 -88 -69l-27 20q42 88 121 88q15 0 32 -5t25 -8.5t25 -13.5t19 -11q4 -2 14.5 -8t14.5 -8l12.5 -6t14 -5.5t13 -3t15.5 -1.5q47 0 84 69zM431 258l26 -21q-41 -87 -113 -87
q-25 0 -45.5 8.5t-58.5 30.5q-56 31 -84 31q-48 0 -88 -69l-27 20q42 88 121 88q15 0 32 -5t25 -8.5t25 -13.5t19 -11t12 -7t12.5 -7t10.5 -5.5t12.5 -5.5t11.5 -3.5t13 -3t13 -0.5q26 0 45 16.5t38 52.5z" />
    <glyph glyph-name="notequal" unicode="&#x2260;" horiz-adv-x="499" 
d="M352 476l-40 -90h140v-41h-156l-61 -133h217v-40h-233l-48 -106l-32 15l41 91h-134v40h151l60 133h-211v41h227l47 104z" />
    <glyph glyph-name="lessequal" unicode="&#x2264;" horiz-adv-x="499" 
d="M450 103l-399 209v42l399 208v-49l-355 -178v-2l355 -180v-50zM452 23h-406v41h406v-41z" />
    <glyph glyph-name="greaterequal" unicode="&#x2265;" horiz-adv-x="499" 
d="M52 562l399 -208v-42l-399 -209v50l354 179v2l-354 179v49zM452 23h-405v41h405v-41z" />
    <glyph glyph-name="lozenge" unicode="&#x25ca;" horiz-adv-x="506" 
d="M455 343l-180 -381h-48l-177 381l179 381h49zM401 341l-131 278q-4 10 -17 52h-2q-8 -32 -17 -52l-130 -275l131 -279q12 -26 16 -51h3q8 30 16 50z" />
    </font>
</defs>
</svg>
