<?xml version="1.0" standalone="no"?>
<!DOCTYPE svg PUBLIC "-//W3C//DTD SVG 1.1//EN" "http://www.w3.org/Graphics/SVG/1.1/DTD/svg11.dtd" >
<svg>
<metadata>
Created by FontForge 20090622 at Mon May 23 16:18:59 2016
 By deploy user
Copyright &#194;&#169; 1991, 2002 Adobe Systems Incorporated.  All Rights Reserved. &#194;&#169; 1981, 2002 Heidelberger Druckmaschinen AG. All rights reserved.
</metadata>
<defs>
<font id="FrutigerLTStd-Cn" horiz-adv-x="480" >
  <font-face 
    font-family="Frutiger LT Std 57 Cn"
    font-weight="400"
    font-stretch="condensed"
    units-per-em="1000"
    panose-1="2 11 6 6 2 2 4 2 2 4"
    ascent="750"
    descent="-250"
    x-height="510"
    cap-height="698"
    bbox="-105 -250 1000 929"
    underline-thickness="50"
    underline-position="-50"
    unicode-range="U+0020-U+FB02"
  />
<missing-glyph horiz-adv-x="500" 
d="M0 0v700h500v-700h-500zM250 395l170 255h-340zM280 350l170 -255v510zM80 50h340l-170 255zM50 605v-510l170 255z" />
    <glyph glyph-name="fi" unicode="fi" horiz-adv-x="500" 
d="M347 0v510h84v-510h-84zM343 720h92v-100h-92v100zM97 0v442h-81v68h81v114q0 65 31.5 101.5t95.5 36.5q36 0 66 -8v-72q-15 12 -48 12q-34 0 -47.5 -18.5t-13.5 -58.5v-107h92v-68h-92v-442h-84z" />
    <glyph glyph-name="fl" unicode="fl" horiz-adv-x="500" 
d="M347 0v750h84v-750h-84zM97 0v442h-81v68h81v114q0 65 31.5 101.5t95.5 36.5q36 0 66 -8v-72q-15 12 -48 12q-34 0 -47.5 -18.5t-13.5 -58.5v-107h92v-68h-92v-442h-84z" />
    <glyph glyph-name=".notdef" horiz-adv-x="500" 
d="M0 0v700h500v-700h-500zM250 395l170 255h-340zM280 350l170 -255v510zM80 50h340l-170 255zM50 605v-510l170 255z" />
    <glyph glyph-name=".null" horiz-adv-x="0" 
 />
    <glyph glyph-name="nonmarkingreturn" horiz-adv-x="333" 
 />
    <glyph glyph-name="space" unicode=" " horiz-adv-x="240" 
 />
    <glyph glyph-name="exclam" unicode="!" horiz-adv-x="352" 
d="M212 186h-72l-14 512h100zM128 0v112h96v-112h-96z" />
    <glyph glyph-name="quotedbl" unicode="&#x22;" horiz-adv-x="500" 
d="M289 518v232h72v-232h-72zM139 518v232h72v-232h-72z" />
    <glyph glyph-name="numbersign" unicode="#" 
d="M191 426l-21 -154h119l21 154h-119zM72 0l31 218h-99v54h106l21 154h-99v54h106l30 218h60l-30 -218h119l30 218h60l-30 -218h99v-54h-106l-21 -154h99v-54h-106l-31 -218h-60l31 218h-119l-31 -218h-60z" />
    <glyph glyph-name="dollar" unicode="$" 
d="M261 291v-209q30 13 47 39.5t17 57.5q0 35 -12.5 59.5t-51.5 52.5zM221 428v193q-66 -24 -66 -96q0 -28 13.5 -49t52.5 -48zM221 -94v88q-3 -1 -12 -1q-79 0 -141 30v91q75 -45 133 -45q13 0 20 1v249l-29 18q-75 46 -102 87t-27 106q0 73 43.5 118t114.5 55v82h40v-80
q73 -2 122 -23v-85q-53 32 -117 32h-5v-227q12 -9 26 -17q69 -41 99.5 -87t30.5 -107q0 -75 -40.5 -128t-115.5 -65v-92h-40z" />
    <glyph glyph-name="percent" unicode="%" horiz-adv-x="814" 
d="M58 512q0 96 37 144.5t102 48.5t102 -48.5t37 -144.5t-37 -144.5t-102 -48.5t-102 48.5t-37 144.5zM130 512q0 -69 16 -101t51 -32t51 32t16 101t-16 101t-51 32t-51 -32t-16 -101zM478 186q0 96 37 144.5t102 48.5t102 -48.5t37 -144.5t-37 -144.5t-102 -48.5t-102 48.5
t-37 144.5zM550 186q0 -69 16 -101t51 -32t51 32t16 101t-16 101t-51 32t-51 -32t-16 -101zM219 -33l313 764h64l-313 -764h-64z" />
    <glyph glyph-name="ampersand" unicode="&#x26;" horiz-adv-x="611" 
d="M391 132l-154 208q-93 -61 -93 -147q0 -55 35 -91.5t93 -36.5q33 0 67.5 20t51.5 47zM593 0h-104l-55 77q-25 -41 -72 -62.5t-101 -21.5q-97 0 -151 55t-54 138q0 72 34 123t104 89q-71 101 -71 159q0 67 45 107.5t116 40.5q70 0 113.5 -41t43.5 -104q0 -104 -133 -180
l129 -179q36 78 42 191h84q-10 -148 -78 -254zM361 561q0 32 -20 54t-56 22t-59 -21t-23 -54q0 -49 64 -127q51 32 72.5 61t21.5 65z" />
    <glyph glyph-name="quotesingle" unicode="'" horiz-adv-x="240" 
d="M84 518v232h72v-232h-72z" />
    <glyph glyph-name="parenleft" unicode="(" horiz-adv-x="278" 
d="M265 -134l-67 -6q-64 109 -101.5 228t-37.5 220t37.5 220t101.5 228l67 -6q-70 -136 -96 -233t-26 -209t26 -209t96 -233z" />
    <glyph glyph-name="parenright" unicode=")" horiz-adv-x="278" 
d="M80 -140l-67 6q70 136 96 233t26 209t-26 209t-96 233l67 6q64 -109 101.5 -228t37.5 -220t-37.5 -220t-101.5 -228z" />
    <glyph glyph-name="asterisk" unicode="*" horiz-adv-x="500" 
d="M275 620l121 51l24 -72l-128 -29l86 -99l-62 -44l-66 112l-68 -112l-61 44l87 99l-128 29l23 72l120 -52l-11 131h76z" />
    <glyph glyph-name="plus" unicode="+" horiz-adv-x="600" 
d="M47 219v68h219v219h68v-219h219v-68h-219v-219h-68v219h-219z" />
    <glyph glyph-name="comma" unicode="," horiz-adv-x="240" 
d="M26 -120l50 232h92l-66 -232h-76z" />
    <glyph glyph-name="hyphen" unicode="-" horiz-adv-x="296" 
d="M40 245v72h216v-72h-216z" />
    <glyph glyph-name="period" unicode="." horiz-adv-x="240" 
d="M72 0v112h96v-112h-96z" />
    <glyph glyph-name="slash" unicode="/" horiz-adv-x="259" 
d="M0 -7l185 712h74l-185 -712h-74z" />
    <glyph glyph-name="zero" unicode="0" 
d="M125 349q0 -147 27.5 -215.5t87.5 -68.5t87.5 68.5t27.5 215.5t-27.5 215.5t-87.5 68.5t-87.5 -68.5t-27.5 -215.5zM37 349q0 174 52 265t151 91t151 -91t52 -265t-52 -265t-151 -91t-151 91t-52 265z" />
    <glyph glyph-name="one" unicode="1" 
d="M202 0v597l-89 -100l-46 65l143 136h80v-698h-88z" />
    <glyph glyph-name="two" unicode="2" 
d="M37 0v77q265 304 265 435q0 50 -27 83.5t-76 33.5q-30 0 -67 -15t-67 -39l-11 88q87 42 164 42q79 0 127.5 -51t48.5 -125q0 -90 -72 -213.5t-188 -239.5h270v-76h-367z" />
    <glyph glyph-name="three" unicode="3" 
d="M37 19l8 86q74 -40 133 -40t101 39t42 101q0 54 -36.5 86.5t-99.5 32.5h-65v72h36q79 0 121 33.5t42 89.5q0 51 -34.5 82.5t-89.5 31.5q-63 0 -128 -39l-8 82q62 29 153 29q86 0 140.5 -44.5t54.5 -128.5q0 -69 -35 -110.5t-94 -53.5v-2q63 -8 99 -56t36 -116
q0 -87 -59 -144t-168 -57q-83 0 -149 26z" />
    <glyph glyph-name="four" unicode="4" 
d="M297 0v158h-274v84l251 456h107v-468h76v-72h-76v-158h-84zM297 230v380h-2l-198 -380h200z" />
    <glyph glyph-name="five" unicode="5" 
d="M61 21l4 81q62 -37 121 -37q66 0 105.5 44.5t39.5 113.5q0 71 -38.5 109t-109.5 38q-41 0 -115 -23v351h321v-72h-237v-195q35 11 79 11q82 0 137 -54.5t55 -153.5q0 -111 -58 -176t-167 -65q-73 0 -137 28z" />
    <glyph glyph-name="six" unicode="6" 
d="M134 218q0 -62 29 -107.5t82 -45.5q52 0 81 45.5t29 107.5q0 61 -29 106.5t-81 45.5q-53 0 -82 -45.5t-29 -106.5zM412 685l-4 -82q-49 30 -107 30q-85 0 -132.5 -75.5t-47.5 -201.5h2q18 41 54.5 63.5t83.5 22.5q84 0 133 -65t49 -153q0 -111 -56 -171t-145 -60
q-205 0 -205 328q0 384 259 384q64 0 116 -20z" />
    <glyph glyph-name="seven" unicode="7" 
d="M111 0l229 622h-284v76h368v-83l-216 -615h-97z" />
    <glyph glyph-name="eight" unicode="8" 
d="M139 529q0 -85 109 -133q93 66 93 139q0 39 -29 68.5t-72 29.5t-72 -30t-29 -74zM125 194q0 -54 33 -91.5t88 -37.5q48 0 78.5 34.5t30.5 88.5q0 48 -28 81t-93 63q-63 -34 -86 -65.5t-23 -72.5zM37 184q0 126 131 178q-60 29 -88.5 76t-28.5 97q0 69 51 119.5t138 50.5
t138 -50.5t51 -119.5q0 -50 -28.5 -97t-87.5 -76q130 -53 130 -178q0 -83 -55 -137t-148 -54t-148 54t-55 137z" />
    <glyph glyph-name="nine" unicode="9" 
d="M125 480q0 -61 29 -106.5t81 -45.5q53 0 82 45.5t29 106.5q0 62 -29 107.5t-82 45.5q-52 0 -81 -45.5t-29 -107.5zM68 13l4 82q49 -30 107 -30q85 0 132.5 75.5t47.5 201.5h-2q-18 -41 -54.5 -63.5t-83.5 -22.5q-84 0 -133 65t-49 153q0 111 56 171t145 60
q205 0 205 -328q0 -384 -259 -384q-64 0 -116 20z" />
    <glyph glyph-name="colon" unicode=":" horiz-adv-x="240" 
d="M72 398v112h96v-112h-96zM72 0v112h96v-112h-96z" />
    <glyph glyph-name="semicolon" unicode=";" horiz-adv-x="240" 
d="M26 -120l50 232h92l-66 -232h-76zM72 398v112h96v-112h-96z" />
    <glyph glyph-name="less" unicode="&#x3c;" horiz-adv-x="600" 
d="M47 221v64l506 228v-64l-430 -196l430 -196v-64z" />
    <glyph glyph-name="equal" unicode="=" horiz-adv-x="600" 
d="M47 320v68h506v-68h-506zM47 118v68h506v-68h-506z" />
    <glyph glyph-name="greater" unicode="&#x3e;" horiz-adv-x="600" 
d="M47 -7v64l430 196l-430 196v64l506 -228v-64z" />
    <glyph glyph-name="question" unicode="?" horiz-adv-x="444" 
d="M76 595l-4 82q63 28 129 28q85 0 134 -45t49 -127q0 -75 -51 -152l-58 -85q-20 -27 -25.5 -47.5t-5.5 -67.5h-76q0 70 11.5 104.5t56.5 90.5q33 42 46.5 73t13.5 67q0 50 -30 81.5t-76 31.5t-114 -34zM158 0v112h96v-112h-96z" />
    <glyph glyph-name="at" unicode="@" horiz-adv-x="800" 
d="M270 291q0 -43 20 -68.5t51 -25.5q67 0 115 69.5t48 137.5q0 41 -21.5 64.5t-56.5 23.5q-53 0 -104.5 -59.5t-51.5 -141.5zM617 536l-85 -269q-10 -27 -10 -48q0 -22 22 -22q56 0 100 63t44 147q0 107 -73.5 170.5t-192.5 63.5q-137 0 -223.5 -82.5t-86.5 -209.5
q0 -125 82.5 -208.5t205.5 -83.5q178 0 265 105h62q-47 -80 -133 -124.5t-194 -44.5q-148 0 -252 104t-104 252q0 149 107.5 252.5t270.5 103.5q140 0 237 -87t97 -211q0 -60 -23 -112.5t-58 -86t-73.5 -52.5t-70.5 -19q-65 0 -79 60h-2q-56 -60 -130 -60q-60 0 -93 43.5
t-33 104.5q0 102 65.5 184.5t164.5 82.5q35 0 64 -20t45 -56l20 60h64z" />
    <glyph glyph-name="A" unicode="A" horiz-adv-x="574" 
d="M242 698h96l228 -698h-92l-56 182h-266l-56 -182h-88zM176 258h219l-107 348h-2z" />
    <glyph glyph-name="B" unicode="B" horiz-adv-x="519" 
d="M77 0v698h177q97 0 145.5 -48t48.5 -129q0 -57 -31 -98.5t-84 -56.5v-2q58 -8 94 -54.5t36 -118.5q0 -80 -55.5 -135.5t-162.5 -55.5h-168zM165 626v-230h52q143 0 143 120q0 49 -31.5 79.5t-96.5 30.5h-67zM165 324v-252h75q67 0 101 35.5t34 89.5q0 57 -32 92t-93 35
h-85z" />
    <glyph glyph-name="C" unicode="C" horiz-adv-x="537" 
d="M489 102v-88q-68 -21 -127 -21q-80 0 -142 29t-98.5 79t-55 113t-18.5 136q0 162 85.5 258.5t223.5 96.5q82 0 132 -25v-86q-55 35 -131 35q-91 0 -154.5 -69.5t-63.5 -191.5q0 -139 56.5 -219t167.5 -80q68 0 125 33z" />
    <glyph glyph-name="D" unicode="D" horiz-adv-x="574" 
d="M67 0v698h152q115 0 186 -50q55 -38 92 -109t37 -179q0 -78 -19.5 -141.5t-60.5 -113.5t-112 -77.5t-166 -27.5h-109zM155 622v-546h53q114 0 174 74t60 210q0 119 -56 190.5t-178 71.5h-53z" />
    <glyph glyph-name="E" unicode="E" horiz-adv-x="463" 
d="M77 0v698h325v-76h-237v-222h226v-76h-226v-248h250v-76h-338z" />
    <glyph glyph-name="F" unicode="F" horiz-adv-x="426" 
d="M77 0v698h312v-76h-224v-222h213v-76h-213v-324h-88z" />
    <glyph glyph-name="G" unicode="G" horiz-adv-x="612" 
d="M535 384v-355q-98 -36 -173 -36q-80 0 -142 29t-98.5 79t-55 113t-18.5 136q0 162 85.5 258.5t223.5 96.5q99 0 164 -31v-88q-84 43 -163 43q-91 0 -154.5 -69.5t-63.5 -191.5q0 -139 56.5 -219t167.5 -80q51 0 87 19v220h-117v76h201z" />
    <glyph glyph-name="H" unicode="H" horiz-adv-x="574" 
d="M77 0v698h88v-298h244v298h88v-698h-88v324h-244v-324h-88z" />
    <glyph glyph-name="I" unicode="I" horiz-adv-x="242" 
d="M77 0v698h88v-698h-88z" />
    <glyph glyph-name="J" unicode="J" horiz-adv-x="315" 
d="M23 0v87q37 -10 49 -10q88 0 88 111v510h88v-515q0 -87 -38 -138.5t-114 -51.5q-19 0 -73 7z" />
    <glyph glyph-name="K" unicode="K" horiz-adv-x="519" 
d="M67 0v698h88v-303h2l231 303h105l-262 -330l284 -368h-114l-244 338h-2v-338h-88z" />
    <glyph glyph-name="L" unicode="L" horiz-adv-x="407" 
d="M77 0v698h88v-622h229v-76h-317z" />
    <glyph glyph-name="M" unicode="M" horiz-adv-x="778" 
d="M77 0v698h136l175 -555h2l179 555h132v-698h-84v602h-2l-198 -602h-64l-190 602h-2v-602h-84z" />
    <glyph glyph-name="N" unicode="N" horiz-adv-x="612" 
d="M77 0v698h109l263 -576h2v576h84v-698h-109l-263 572h-2v-572h-84z" />
    <glyph glyph-name="O" unicode="O" horiz-adv-x="612" 
d="M48 342q0 178 68.5 270.5t193.5 92.5q117 0 185.5 -94t68.5 -255q0 -178 -68.5 -270.5t-193.5 -92.5q-117 0 -185.5 94t-68.5 255zM140 342q0 -75 15 -135t53 -101t94 -41q76 0 123 70t47 221q0 75 -15 135t-53 101t-94 41q-76 0 -123 -70t-47 -221z" />
    <glyph glyph-name="P" unicode="P" horiz-adv-x="481" 
d="M77 0v698h168q94 0 151 -54q55 -53 55 -144q0 -102 -58 -155t-169 -53h-59v-292h-88zM165 626v-262h48q146 0 146 128q0 134 -144 134h-50z" />
    <glyph glyph-name="Q" unicode="Q" horiz-adv-x="612" 
d="M550 -130h-108l-105 127q-15 -3 -17 -3q-3 0 -9 -0.5t-9 -0.5q-117 0 -185.5 94t-68.5 255q0 178 68.5 270.5t193.5 92.5q117 0 185.5 -94t68.5 -255q0 -265 -148 -338zM140 342q0 -75 15 -135t53 -101t94 -41q76 0 123 70t47 221q0 75 -15 135t-53 101t-94 41
q-76 0 -123 -70t-47 -221z" />
    <glyph glyph-name="R" unicode="R" horiz-adv-x="519" 
d="M77 0v698h179q96 0 147 -48q52 -49 52 -133q0 -61 -33 -106.5t-105 -60.5v-2q31 -6 48 -21.5t28 -46.5l98 -280h-95l-80 236q-15 45 -39 62.5t-72 17.5h-40v-316h-88zM165 626v-238h68q66 0 98 36t32 87q0 57 -34 86t-94 29h-70z" />
    <glyph glyph-name="S" unicode="S" horiz-adv-x="444" 
d="M365 682v-85q-53 32 -119 32q-49 0 -79 -29.5t-30 -74.5q0 -35 23 -62t95 -69q79 -45 111.5 -93t32.5 -110q0 -87 -53 -142.5t-150 -55.5q-84 0 -146 30v91q75 -45 133 -45q57 0 90.5 32.5t33.5 77.5q0 43 -20.5 72t-87.5 70q-93 56 -123.5 98t-30.5 111q0 83 55.5 129
t138.5 46q71 0 126 -23z" />
    <glyph glyph-name="T" unicode="T" horiz-adv-x="444" 
d="M178 0v622h-160v76h408v-76h-160v-622h-88z" />
    <glyph glyph-name="U" unicode="U" horiz-adv-x="592" 
d="M515 698v-441q0 -99 -28 -156q-24 -48 -72 -78t-119 -30t-119 30t-72 78q-28 57 -28 156v441h88v-454q0 -83 34.5 -131t96.5 -48t96.5 48t34.5 131v454h88z" />
    <glyph glyph-name="V" unicode="V" horiz-adv-x="537" 
d="M221 0l-212 698h96l162 -569h2l171 569h88l-219 -698h-88z" />
    <glyph glyph-name="W" unicode="W" horiz-adv-x="796" 
d="M161 0l-152 698h92l114 -566h2l125 566h112l125 -566h2l122 566h84l-152 -698h-104l-132 598h-2l-132 -598h-104z" />
    <glyph glyph-name="X" unicode="X" horiz-adv-x="537" 
d="M6 0l212 369l-187 329h104l146 -257l140 257h97l-195 -330l208 -368h-104l-164 291l-157 -291h-100z" />
    <glyph glyph-name="Y" unicode="Y" horiz-adv-x="518" 
d="M215 0v293l-209 405h100l154 -309l155 309h97l-209 -405v-293h-88z" />
    <glyph glyph-name="Z" unicode="Z" horiz-adv-x="463" 
d="M34 0v83l284 539h-275v76h380v-76l-293 -546h299v-76h-395z" />
    <glyph glyph-name="bracketleft" unicode="[" horiz-adv-x="278" 
d="M90 -140v896h152v-60h-80v-776h80v-60h-152z" />
    <glyph glyph-name="backslash" unicode="\" horiz-adv-x="259" 
d="M185 -7l-185 712h74l185 -712h-74z" />
    <glyph glyph-name="bracketright" unicode="]" horiz-adv-x="278" 
d="M36 -140v60h80v776h-80v60h152v-896h-152z" />
    <glyph glyph-name="asciicircum" unicode="^" horiz-adv-x="600" 
d="M47 265l221 433h64l221 -433h-72l-181 365l-181 -365h-72z" />
    <glyph glyph-name="underscore" unicode="_" horiz-adv-x="500" 
d="M0 -125v50h500v-50h-500z" />
    <glyph glyph-name="grave" unicode="`" horiz-adv-x="204" 
d="M88 580l-102 145h99l67 -145h-64z" />
    <glyph glyph-name="a" unicode="a" horiz-adv-x="463" 
d="M90 396l-9 79q65 42 144 42q88 0 136 -48q44 -44 44 -125v-266q0 -42 4 -78h-76l-5 69h-2q-45 -76 -143 -76q-66 0 -106.5 38t-40.5 109q0 79 57.5 125.5t182.5 46.5h49v23q0 56 -19 82q-24 32 -85 32q-83 0 -131 -53zM325 186v64q-15 2 -59 2q-71 0 -108.5 -29.5
t-37.5 -76.5q0 -42 22 -65.5t64 -23.5q53 0 86 37.5t33 91.5z" />
    <glyph glyph-name="b" unicode="b" horiz-adv-x="481" 
d="M137 255q0 -194 112 -194t112 194t-112 194t-112 -194zM53 94v656h84v-310h2q48 77 130 77q81 0 128.5 -67t47.5 -195t-47.5 -195t-128.5 -67q-89 0 -134 82h-2l-3 -75h-81q0 10 2 43t2 51z" />
    <glyph glyph-name="c" unicode="c" horiz-adv-x="389" 
d="M365 497l-4 -76q-43 24 -97 24q-65 0 -102.5 -48t-37.5 -147q0 -87 37.5 -136t100.5 -49q51 0 103 27l4 -77q-50 -22 -107 -22q-110 0 -168 72t-58 185q0 124 61 195.5t167 71.5q59 0 101 -20z" />
    <glyph glyph-name="d" unicode="d" horiz-adv-x="481" 
d="M344 255q0 194 -112 194t-112 -194t112 -194t112 194zM428 750v-656q0 -18 2 -51t2 -43h-81l-3 75h-2q-45 -82 -134 -82q-81 0 -128.5 67t-47.5 195t47.5 195t128.5 67q82 0 130 -77h2v310h84z" />
    <glyph glyph-name="e" unicode="e" horiz-adv-x="444" 
d="M412 230h-288q0 -173 139 -173q59 0 117 42l4 -76q-63 -30 -143 -30q-99 0 -152 70t-53 192t51.5 192t145.5 70q86 0 132.5 -64t46.5 -178v-45zM124 294h204q0 159 -100 159q-45 0 -74 -38t-30 -121z" />
    <glyph glyph-name="f" unicode="f" horiz-adv-x="278" 
d="M97 0v442h-81v68h81v114q0 65 31.5 101.5t95.5 36.5q36 0 66 -8v-72q-15 12 -48 12q-34 0 -47.5 -18.5t-13.5 -58.5v-107h92v-68h-92v-442h-84z" />
    <glyph glyph-name="g" unicode="g" horiz-adv-x="481" 
d="M120 255q0 -194 112 -194t112 194t-112 194t-112 -194zM428 417v-439q0 -99 -63 -149.5t-155 -50.5q-73 0 -149 31l4 85q66 -44 140 -44q143 0 143 149v80h-2q-49 -86 -134 -86q-81 0 -128.5 67t-47.5 195q0 129 49 195.5t136 66.5q38 0 71 -22t54 -59h2l3 74h81
q0 -9 -2 -42t-2 -51z" />
    <glyph glyph-name="h" unicode="h" horiz-adv-x="482" 
d="M61 0v750h84v-310h2q17 34 50 55.5t75 21.5q69 0 109 -41t40 -122v-354h-84v329q0 116 -84 116q-51 0 -79.5 -35t-28.5 -103v-307h-84z" />
    <glyph glyph-name="i" unicode="i" horiz-adv-x="222" 
d="M69 0v510h84v-510h-84zM65 720h92v-100h-92v100z" />
    <glyph glyph-name="j" unicode="j" horiz-adv-x="222" 
d="M-12 -213v68q27 -5 37 -5q26 0 35 14t9 53v593h84v-604q0 -68 -25.5 -98t-91.5 -30q-27 0 -48 9zM65 720h92v-100h-92v100z" />
    <glyph glyph-name="k" unicode="k" horiz-adv-x="444" 
d="M145 305l175 205h98l-200 -228l218 -282h-104l-185 257h-2v-257h-84v750h84v-445z" />
    <glyph glyph-name="l" unicode="l" horiz-adv-x="222" 
d="M69 0v750h84v-750h-84z" />
    <glyph glyph-name="m" unicode="m" horiz-adv-x="722" 
d="M61 0v400q0 21 -2 60t-2 50h81l3 -76h2q39 83 126 83q80 0 120 -80q43 80 124 80q69 0 108.5 -41t39.5 -122v-354h-84v350q0 95 -78 95q-96 0 -96 -130v-315h-84v350q0 95 -78 95q-96 0 -96 -130v-315h-84z" />
    <glyph glyph-name="n" unicode="n" horiz-adv-x="482" 
d="M61 0v400q0 21 -2 60t-2 50h81l3 -76h2q39 83 129 83q69 0 109 -41t40 -122v-354h-84v329q0 116 -84 116q-51 0 -79.5 -35t-28.5 -103v-307h-84z" />
    <glyph glyph-name="o" unicode="o" horiz-adv-x="482" 
d="M124 255q0 -194 117 -194t117 194t-117 194t-117 -194zM36 255q0 122 53 192t152 70t152 -70t53 -192t-53 -192t-152 -70t-152 70t-53 192z" />
    <glyph glyph-name="p" unicode="p" horiz-adv-x="481" 
d="M137 255q0 -194 112 -194t112 194t-112 194t-112 -194zM53 -216v632q0 18 -2 51t-2 43h81l3 -75h2q45 82 134 82q81 0 128.5 -67t47.5 -195t-47.5 -195t-128.5 -67q-82 0 -130 77h-2v-286h-84z" />
    <glyph glyph-name="q" unicode="q" horiz-adv-x="481" 
d="M344 255q0 194 -112 194t-112 -194t112 -194t112 194zM344 -216v286h-2q-48 -77 -130 -77q-81 0 -128.5 67t-47.5 195t47.5 195t128.5 67q89 0 134 -82h2l3 75h81q0 -10 -2 -43t-2 -51v-632h-84z" />
    <glyph glyph-name="r" unicode="r" horiz-adv-x="296" 
d="M61 0v400q0 21 -2 60t-2 50h81l3 -80h2q20 46 54 66.5t91 20.5v-83q-15 3 -32 3q-50 0 -80.5 -43t-30.5 -124v-270h-84z" />
    <glyph glyph-name="s" unicode="s" horiz-adv-x="370" 
d="M34 23l5 76q63 -38 120 -38q46 0 71.5 20.5t25.5 51.5q0 51 -65 80l-56 25q-55 25 -77.5 54t-22.5 77q0 64 45.5 106t118.5 42q61 0 108 -18l-4 -72q-48 22 -100 22q-40 0 -62 -19.5t-22 -50.5q0 -29 21 -49t65 -37l30 -12q101 -41 101 -130q0 -71 -40.5 -114.5
t-123.5 -43.5q-80 0 -138 30z" />
    <glyph glyph-name="t" unicode="t" horiz-adv-x="296" 
d="M286 74v-68q-37 -13 -71 -13q-60 0 -89 28t-29 93v328h-81v68h81v104l84 25v-129h105v-68h-105v-301q0 -43 12 -61.5t41 -18.5q22 0 52 13z" />
    <glyph glyph-name="u" unicode="u" horiz-adv-x="482" 
d="M421 510v-400q0 -21 2 -60t2 -50h-81l-3 76h-2q-39 -83 -129 -83q-69 0 -109 41t-40 122v354h84v-329q0 -116 84 -116q51 0 79.5 35t28.5 103v307h84z" />
    <glyph glyph-name="v" unicode="v" horiz-adv-x="426" 
d="M164 0l-155 510h92l112 -426h2l114 426h88l-153 -510h-100z" />
    <glyph glyph-name="w" unicode="w" horiz-adv-x="685" 
d="M676 510l-133 -510h-96l-107 431h-2l-98 -431h-96l-135 510h88l97 -426h2l97 426h100l101 -426h2l96 426h84z" />
    <glyph glyph-name="x" unicode="x" horiz-adv-x="426" 
d="M9 0l151 274l-136 236h92l98 -184l98 184h92l-142 -239l155 -271h-96l-113 211l-107 -211h-92z" />
    <glyph glyph-name="y" unicode="y" horiz-adv-x="407" 
d="M398 510l-177 -614q-19 -64 -47.5 -91t-77.5 -27q-34 0 -57 6l4 76q22 -10 46 -10q20 0 33 13.5t23 50.5l20 78l-161 518h88l114 -416h2l106 416h84z" />
    <glyph glyph-name="z" unicode="z" horiz-adv-x="389" 
d="M39 510h314v-76l-236 -362h241v-72h-327v76l236 362h-228v72z" />
    <glyph glyph-name="braceleft" unicode="{" horiz-adv-x="278" 
d="M269 756v-46h-38q-29 0 -40 -16t-11 -57v-187q0 -65 -27.5 -100t-57.5 -41v-2q30 -6 57.5 -41t27.5 -100v-187q0 -41 11 -57t40 -16h38v-46h-59q-44 0 -73 32.5t-29 88.5v169q0 135 -77 135v46q77 0 77 135v169q0 56 29 88.5t73 32.5h59z" />
    <glyph glyph-name="bar" unicode="|" horiz-adv-x="222" 
d="M73 -250v1000h76v-1000h-76z" />
    <glyph glyph-name="braceright" unicode="}" horiz-adv-x="278" 
d="M9 -140v46h38q29 0 40 16t11 57v187q0 65 27.5 100t57.5 41v2q-30 6 -57.5 41t-27.5 100v187q0 41 -11 57t-40 16h-38v46h59q44 0 73 -32.5t29 -88.5v-169q0 -135 77 -135v-46q-77 0 -77 -135v-169q0 -56 -29 -88.5t-73 -32.5h-59z" />
    <glyph glyph-name="asciitilde" unicode="~" horiz-adv-x="600" 
d="M495 324l36 -51q-51 -91 -125 -91q-36 0 -114 37q-77 37 -106 37q-37 0 -81 -74l-36 51q52 91 125 91q42 0 114 -36q77 -38 99 -38q41 0 88 74z" />
    <glyph glyph-name="uni00A0" unicode="&#xa0;" horiz-adv-x="240" 
 />
    <glyph glyph-name="exclamdown" unicode="&#xa1;" horiz-adv-x="352" 
d="M226 -188h-100l14 512h72zM128 398v112h96v-112h-96z" />
    <glyph glyph-name="cent" unicode="&#xa2;" 
d="M232 80l55 365q-61 -3 -96.5 -51t-35.5 -144q0 -129 77 -170zM396 497l-4 -76q-29 17 -62 21l-56 -375q7 -2 19 -2q51 0 103 27l4 -77q-50 -22 -107 -22q-20 0 -30 2l-19 -123h-44l20 132q-75 21 -114 87t-39 159q0 124 61 195.5t167 71.5h3l17 115h44l-18 -119
q31 -5 55 -16z" />
    <glyph glyph-name="sterling" unicode="&#xa3;" 
d="M52 0v72h70v264h-70v64h70v85q0 112 57.5 166t146.5 54q58 0 117 -23l-9 -76q-48 31 -102 31q-57 0 -91.5 -36t-34.5 -109v-92h160v-64h-160v-264h231v-72h-385z" />
    <glyph glyph-name="currency" unicode="&#xa4;" 
d="M76 349q0 -74 46 -121t118 -47t118 47t46 121t-46 121t-118 47t-118 -47t-46 -121zM45 115l-40 40l52 52q-49 60 -49 142q0 79 49 142l-52 52l40 40l53 -52q61 50 142 50q82 0 143 -50l52 52l40 -40l-52 -52q49 -62 49 -142q0 -81 -50 -142l53 -52l-40 -40l-52 52
q-61 -50 -143 -50q-81 0 -142 50z" />
    <glyph glyph-name="yen" unicode="&#xa5;" 
d="M199 0v142h-152v64h152v72h-152v64h129l-170 356h92l142 -306l142 306h92l-168 -356h127v-64h-150v-72h150v-64h-150v-142h-84z" />
    <glyph glyph-name="brokenbar" unicode="&#xa6;" horiz-adv-x="222" 
d="M73 -175v350h76v-350h-76zM73 325v350h76v-350h-76z" />
    <glyph glyph-name="section" unicode="&#xa7;" 
d="M63 -94l10 78q59 -44 134 -44q49 0 77.5 23.5t28.5 63.5q0 45 -48 74l-117 70q-83 50 -83 124q0 38 19 72t71 72q-67 35 -67 115q0 63 45 107t125 44q29 0 70 -9.5t57 -19.5l-10 -77q-59 34 -110 34q-42 0 -67.5 -21t-25.5 -56q0 -40 50 -72l90 -57q59 -38 82 -66.5
t23 -75.5q0 -39 -28 -76t-58 -60q31 -20 48.5 -46.5t17.5 -72.5q0 -74 -52 -118t-130 -44q-79 0 -152 38zM149 310q0 -34 27 -61.5t108 -69.5q45 44 45 98q0 34 -27.5 63t-99.5 67q-53 -43 -53 -97z" />
    <glyph glyph-name="dieresis" unicode="&#xa8;" horiz-adv-x="204" 
d="M-18 615v100h80v-100h-80zM142 615v100h80v-100h-80z" />
    <glyph glyph-name="copyright" unicode="&#xa9;" horiz-adv-x="800" 
d="M528 281h60q-14 -71 -61.5 -112.5t-113.5 -41.5q-95 0 -154 63.5t-59 158.5q0 98 57 160.5t153 62.5q70 0 119 -39t59 -110h-60q-8 43 -39.5 69.5t-77.5 26.5q-68 0 -105.5 -46.5t-37.5 -122.5q0 -71 39.5 -120.5t105.5 -49.5q46 0 76.5 27.5t38.5 73.5zM44 349
q0 148 104 252t252 104t252 -104t104 -252t-104 -252t-252 -104t-252 104t-104 252zM112 349q0 -125 82.5 -208.5t205.5 -83.5t205.5 83.5t82.5 208.5t-82.5 208.5t-205.5 83.5t-205.5 -83.5t-82.5 -208.5z" />
    <glyph glyph-name="ordfeminine" unicode="&#xaa;" horiz-adv-x="296" 
d="M58 628l-6 52q42 25 98 25q121 0 121 -104v-159q0 -16 3 -46h-54l-3 43h-2q-22 -47 -92 -47q-46 0 -73.5 22.5t-27.5 64.5q0 106 156 106h37v20q0 54 -69 54q-59 0 -88 -31zM215 507v36q-9 2 -38 2q-95 0 -95 -58q0 -52 56 -52q34 0 55.5 22t21.5 50z" />
    <glyph glyph-name="guillemotleft" unicode="&#xab;" horiz-adv-x="500" 
d="M348 54l-112 206l112 206h72l-100 -206l100 -206h-72zM192 54l-112 206l112 206h72l-100 -206l100 -206h-72z" />
    <glyph glyph-name="logicalnot" unicode="&#xac;" horiz-adv-x="600" 
d="M47 320v68h506v-274h-68v206h-438z" />
    <glyph glyph-name="uni00AD" unicode="&#xad;" horiz-adv-x="296" 
d="M40 245v72h216v-72h-216z" />
    <glyph glyph-name="registered" unicode="&#xae;" horiz-adv-x="800" 
d="M264 141v417h160q143 0 143 -117q0 -51 -30 -83t-78 -32l119 -185h-72l-115 185h-59v-185h-68zM332 505v-126h81q43 0 64.5 13.5t21.5 51.5q0 61 -86 61h-81zM44 349q0 148 104 252t252 104t252 -104t104 -252t-104 -252t-252 -104t-252 104t-104 252zM112 349
q0 -125 82.5 -208.5t205.5 -83.5t205.5 83.5t82.5 208.5t-82.5 208.5t-205.5 83.5t-205.5 -83.5t-82.5 -208.5z" />
    <glyph glyph-name="macron" unicode="&#xaf;" horiz-adv-x="204" 
d="M-30 624v60h264v-60h-264z" />
    <glyph glyph-name="degree" unicode="&#xb0;" horiz-adv-x="400" 
d="M42 547q0 65 46.5 111.5t111.5 46.5t111.5 -46.5t46.5 -111.5t-46.5 -111.5t-111.5 -46.5t-111.5 46.5t-46.5 111.5zM98 547q0 -42 30 -72t72 -30t72 30t30 72t-30 72t-72 30t-72 -30t-30 -72z" />
    <glyph glyph-name="plusminus" unicode="&#xb1;" horiz-adv-x="600" 
d="M47 270v68h219v168h68v-168h219v-68h-219v-169h-68v169h-219zM47 0v68h506v-68h-506z" />
    <glyph glyph-name="twosuperior" unicode="&#xb2;" horiz-adv-x="288" 
d="M20 282v46q172 182 172 258q0 28 -17.5 47.5t-49.5 19.5q-43 0 -87 -32l-7 57q55 27 107 27q57 0 89.5 -30.5t32.5 -75.5q0 -52 -47.5 -125.5t-121.5 -139.5h177v-52h-248z" />
    <glyph glyph-name="threesuperior" unicode="&#xb3;" horiz-adv-x="288" 
d="M20 293l5 57q48 -24 87 -24q37 0 64.5 23t27.5 59q0 29 -24 47.5t-64 18.5h-42v48h23q50 0 77 19t27 49t-22 48.5t-56 18.5q-41 0 -83 -24l-6 55q42 17 104 17q56 0 91.5 -27t35.5 -77q0 -41 -23 -66t-61 -32v-2q41 -4 64 -33t23 -70q0 -52 -38 -86t-109 -34
q-59 0 -101 15z" />
    <glyph glyph-name="acute" unicode="&#xb4;" horiz-adv-x="204" 
d="M52 580l67 145h99l-102 -145h-64z" />
    <glyph glyph-name="mu" unicode="&#xb5;" horiz-adv-x="482" 
d="M61 -216v726h84v-329q0 -116 84 -116q51 0 79.5 35t28.5 103v307h84v-400q0 -21 2 -60t2 -50h-81l-3 76h-2q-39 -83 -123 -83q-49 0 -69 31h-2v-240h-84z" />
    <glyph glyph-name="paragraph" unicode="&#xb6;" horiz-adv-x="555" 
d="M243 -125v445q-90 0 -149 53.5t-59 132.5q0 95 60 143.5t168 48.5h215v-823h-64v767h-107v-767h-64z" />
    <glyph glyph-name="periodcentered" unicode="&#xb7;" horiz-adv-x="240" 
d="M56 298q0 26 19 45t45 19t45 -19t19 -45t-19 -45t-45 -19t-45 19t-19 45z" />
    <glyph glyph-name="cedilla" unicode="&#xb8;" horiz-adv-x="204" 
d="M109 0h44l-41 -60q13 3 29 3q37 0 61 -19.5t24 -52.5q0 -38 -31.5 -62.5t-87.5 -24.5q-43 0 -88 18l14 35q37 -13 63 -13q25 0 41.5 12.5t16.5 29.5q0 37 -44 37q-26 0 -43 -7l-15 19z" />
    <glyph glyph-name="onesuperior" unicode="&#xb9;" horiz-adv-x="288" 
d="M126 282v352l-58 -60l-29 45l93 82h62v-419h-68z" />
    <glyph glyph-name="ordmasculine" unicode="&#xba;" horiz-adv-x="314" 
d="M87 548q0 -110 70 -110t70 110q0 111 -70 111t-70 -111zM19 548q0 74 35 115.5t103 41.5t103 -41.5t35 -115.5q0 -73 -35 -114.5t-103 -41.5t-103 41.5t-35 114.5z" />
    <glyph glyph-name="guillemotright" unicode="&#xbb;" horiz-adv-x="500" 
d="M80 54l100 206l-100 206h72l112 -206l-112 -206h-72zM236 54l100 206l-100 206h72l112 -206l-112 -206h-72z" />
    <glyph glyph-name="onequarter" unicode="&#xbc;" horiz-adv-x="721" 
d="M602 0v90h-178v55l163 274h79v-281h49v-48h-49v-90h-64zM602 138v221h-2l-122 -221h124zM172 -33l313 764h64l-313 -764h-64zM126 282v352l-58 -60l-29 45l93 82h62v-419h-68z" />
    <glyph glyph-name="onehalf" unicode="&#xbd;" horiz-adv-x="721" 
d="M172 -33l313 764h64l-313 -764h-64zM126 282v352l-58 -60l-29 45l93 82h62v-419h-68zM453 0v46q172 182 172 258q0 28 -17.5 47.5t-49.5 19.5q-43 0 -87 -32l-7 57q55 27 107 27q57 0 89.5 -30.5t32.5 -75.5q0 -52 -47.5 -125.5t-121.5 -139.5h177v-52h-248z" />
    <glyph glyph-name="threequarters" unicode="&#xbe;" horiz-adv-x="721" 
d="M602 0v90h-178v55l163 274h79v-281h49v-48h-49v-90h-64zM602 138v221h-2l-122 -221h124zM172 -33l313 764h64l-313 -764h-64zM20 293l5 57q48 -24 87 -24q37 0 64.5 23t27.5 59q0 29 -24 47.5t-64 18.5h-42v48h23q50 0 77 19t27 49t-22 48.5t-56 18.5q-41 0 -83 -24
l-6 55q42 17 104 17q56 0 91.5 -27t35.5 -77q0 -41 -23 -66t-61 -32v-2q41 -4 64 -33t23 -70q0 -52 -38 -86t-109 -34q-59 0 -101 15z" />
    <glyph glyph-name="questiondown" unicode="&#xbf;" horiz-adv-x="444" 
d="M200 329h76q0 -70 -11.5 -104.5t-56.5 -90.5q-33 -42 -46.5 -73t-13.5 -67q0 -50 30 -81.5t76 -31.5t114 34l4 -82q-63 -28 -129 -28q-85 0 -134 45t-49 127q0 75 51 152l58 85q20 27 25.5 47.5t5.5 67.5zM286 510v-112h-96v112h96z" />
    <glyph glyph-name="Agrave" unicode="&#xc0;" horiz-adv-x="574" 
d="M242 698h96l228 -698h-92l-56 182h-266l-56 -182h-88zM176 258h219l-107 348h-2zM273 732l-102 145h99l67 -145h-64z" />
    <glyph glyph-name="Aacute" unicode="&#xc1;" horiz-adv-x="574" 
d="M242 698h96l228 -698h-92l-56 182h-266l-56 -182h-88zM176 258h219l-107 348h-2zM237 732l67 145h99l-102 -145h-64z" />
    <glyph glyph-name="Acircumflex" unicode="&#xc2;" horiz-adv-x="574" 
d="M242 698h96l228 -698h-92l-56 182h-266l-56 -182h-88zM176 258h219l-107 348h-2zM149 732l100 145h76l100 -145h-76l-62 91l-62 -91h-76z" />
    <glyph glyph-name="Atilde" unicode="&#xc3;" horiz-adv-x="574" 
d="M242 698h96l228 -698h-92l-56 182h-266l-56 -182h-88zM176 258h219l-107 348h-2zM381 862h52q-18 -107 -85 -107q-26 0 -69 21q-35 17 -47 17q-35 0 -39 -43h-52q11 107 95 107q26 0 76 -25q26 -13 35 -13q25 0 34 43z" />
    <glyph glyph-name="Adieresis" unicode="&#xc4;" horiz-adv-x="574" 
d="M242 698h96l228 -698h-92l-56 182h-266l-56 -182h-88zM176 258h219l-107 348h-2zM167 767v100h80v-100h-80zM327 767v100h80v-100h-80z" />
    <glyph glyph-name="Aring" unicode="&#xc5;" horiz-adv-x="574" 
d="M242 698h96l228 -698h-92l-56 182h-266l-56 -182h-88zM176 258h219l-107 348h-2zM183 825q0 43 30.5 73.5t73.5 30.5t73.5 -30.5t30.5 -73.5t-30.5 -73.5t-73.5 -30.5t-73.5 30.5t-30.5 73.5zM229 825q0 -24 17 -41t41 -17t41 17t17 41t-17 41t-41 17t-41 -17t-17 -41z
" />
    <glyph glyph-name="AE" unicode="&#xc6;" horiz-adv-x="778" 
d="M8 0l348 698h365v-76h-221v-222h209v-76h-209v-248h230v-76h-318v182h-217l-89 -182h-98zM410 634l-182 -376h184v376h-2z" />
    <glyph glyph-name="Ccedilla" unicode="&#xc7;" horiz-adv-x="537" 
d="M489 102v-88q-68 -21 -127 -21q-18 0 -26 1l-37 -54q13 3 29 3q37 0 61 -19.5t24 -52.5q0 -38 -31.5 -62.5t-87.5 -24.5q-43 0 -88 18l14 35q37 -13 63 -13q25 0 41.5 12.5t16.5 29.5q0 37 -44 37q-26 0 -43 -7l-15 19l56 84q-123 23 -185 119.5t-62 231.5
q0 162 85.5 258.5t223.5 96.5q82 0 132 -25v-86q-55 35 -131 35q-91 0 -154.5 -69.5t-63.5 -191.5q0 -139 56.5 -219t167.5 -80q68 0 125 33z" />
    <glyph glyph-name="Egrave" unicode="&#xc8;" horiz-adv-x="463" 
d="M77 0v698h325v-76h-237v-222h226v-76h-226v-248h250v-76h-338zM218 732l-102 145h99l67 -145h-64z" />
    <glyph glyph-name="Eacute" unicode="&#xc9;" horiz-adv-x="463" 
d="M77 0v698h325v-76h-237v-222h226v-76h-226v-248h250v-76h-338zM182 732l67 145h99l-102 -145h-64z" />
    <glyph glyph-name="Ecircumflex" unicode="&#xca;" horiz-adv-x="463" 
d="M77 0v698h325v-76h-237v-222h226v-76h-226v-248h250v-76h-338zM94 732l100 145h76l100 -145h-76l-62 91l-62 -91h-76z" />
    <glyph glyph-name="Edieresis" unicode="&#xcb;" horiz-adv-x="463" 
d="M77 0v698h325v-76h-237v-222h226v-76h-226v-248h250v-76h-338zM112 767v100h80v-100h-80zM272 767v100h80v-100h-80z" />
    <glyph glyph-name="Igrave" unicode="&#xcc;" horiz-adv-x="242" 
d="M77 0v698h88v-698h-88zM107 732l-102 145h99l67 -145h-64z" />
    <glyph glyph-name="Iacute" unicode="&#xcd;" horiz-adv-x="242" 
d="M77 0v698h88v-698h-88zM71 732l67 145h99l-102 -145h-64z" />
    <glyph glyph-name="Icircumflex" unicode="&#xce;" horiz-adv-x="242" 
d="M77 0v698h88v-698h-88zM-17 732l100 145h76l100 -145h-76l-62 91l-62 -91h-76z" />
    <glyph glyph-name="Idieresis" unicode="&#xcf;" horiz-adv-x="242" 
d="M77 0v698h88v-698h-88zM1 767v100h80v-100h-80zM161 767v100h80v-100h-80z" />
    <glyph glyph-name="Eth" unicode="&#xd0;" horiz-adv-x="574" 
d="M67 0v338h-77v64h77v296h152q115 0 186 -50q55 -38 92 -109t37 -179q0 -78 -19.5 -141.5t-60.5 -113.5t-112 -77.5t-166 -27.5h-109zM155 622v-220h161v-64h-161v-262h53q114 0 174 74t60 210q0 119 -56 190.5t-178 71.5h-53z" />
    <glyph glyph-name="Ntilde" unicode="&#xd1;" horiz-adv-x="612" 
d="M77 0v698h109l263 -576h2v576h84v-698h-109l-263 572h-2v-572h-84zM400 862h52q-18 -107 -85 -107q-26 0 -69 21q-35 17 -47 17q-35 0 -39 -43h-52q11 107 95 107q26 0 76 -25q26 -13 35 -13q25 0 34 43z" />
    <glyph glyph-name="Ograve" unicode="&#xd2;" horiz-adv-x="612" 
d="M48 342q0 178 68.5 270.5t193.5 92.5q117 0 185.5 -94t68.5 -255q0 -178 -68.5 -270.5t-193.5 -92.5q-117 0 -185.5 94t-68.5 255zM140 342q0 -75 15 -135t53 -101t94 -41q76 0 123 70t47 221q0 75 -15 135t-53 101t-94 41q-76 0 -123 -70t-47 -221zM292 732l-102 145h99
l67 -145h-64z" />
    <glyph glyph-name="Oacute" unicode="&#xd3;" horiz-adv-x="612" 
d="M48 342q0 178 68.5 270.5t193.5 92.5q117 0 185.5 -94t68.5 -255q0 -178 -68.5 -270.5t-193.5 -92.5q-117 0 -185.5 94t-68.5 255zM140 342q0 -75 15 -135t53 -101t94 -41q76 0 123 70t47 221q0 75 -15 135t-53 101t-94 41q-76 0 -123 -70t-47 -221zM256 732l67 145h99
l-102 -145h-64z" />
    <glyph glyph-name="Ocircumflex" unicode="&#xd4;" horiz-adv-x="612" 
d="M48 342q0 178 68.5 270.5t193.5 92.5q117 0 185.5 -94t68.5 -255q0 -178 -68.5 -270.5t-193.5 -92.5q-117 0 -185.5 94t-68.5 255zM140 342q0 -75 15 -135t53 -101t94 -41q76 0 123 70t47 221q0 75 -15 135t-53 101t-94 41q-76 0 -123 -70t-47 -221zM168 732l100 145h76
l100 -145h-76l-62 91l-62 -91h-76z" />
    <glyph glyph-name="Otilde" unicode="&#xd5;" horiz-adv-x="612" 
d="M48 342q0 178 68.5 270.5t193.5 92.5q117 0 185.5 -94t68.5 -255q0 -178 -68.5 -270.5t-193.5 -92.5q-117 0 -185.5 94t-68.5 255zM140 342q0 -75 15 -135t53 -101t94 -41q76 0 123 70t47 221q0 75 -15 135t-53 101t-94 41q-76 0 -123 -70t-47 -221zM400 862h52
q-18 -107 -85 -107q-26 0 -69 21q-35 17 -47 17q-35 0 -39 -43h-52q11 107 95 107q26 0 76 -25q26 -13 35 -13q25 0 34 43z" />
    <glyph glyph-name="Odieresis" unicode="&#xd6;" horiz-adv-x="612" 
d="M48 342q0 178 68.5 270.5t193.5 92.5q117 0 185.5 -94t68.5 -255q0 -178 -68.5 -270.5t-193.5 -92.5q-117 0 -185.5 94t-68.5 255zM140 342q0 -75 15 -135t53 -101t94 -41q76 0 123 70t47 221q0 75 -15 135t-53 101t-94 41q-76 0 -123 -70t-47 -221zM186 767v100h80v-100
h-80zM346 767v100h80v-100h-80z" />
    <glyph glyph-name="multiply" unicode="&#xd7;" horiz-adv-x="600" 
d="M119 23l-49 50l180 180l-180 180l49 50l181 -180l181 180l49 -50l-180 -180l180 -180l-49 -50l-181 180z" />
    <glyph glyph-name="Oslash" unicode="&#xd8;" horiz-adv-x="612" 
d="M159 197l276 349q-41 87 -125 87q-76 0 -123 -70t-47 -221q0 -82 19 -145zM453 501l-276 -349q41 -87 125 -87q76 0 123 70t47 221q0 82 -19 145zM13 12l84 106q-49 89 -49 224q0 178 68.5 270.5t193.5 92.5q112 0 181 -88l75 95l33 -26l-84 -106q49 -89 49 -224
q0 -178 -68.5 -270.5t-193.5 -92.5q-113 0 -181 88l-75 -95z" />
    <glyph glyph-name="Ugrave" unicode="&#xd9;" horiz-adv-x="592" 
d="M515 698v-441q0 -99 -28 -156q-24 -48 -72 -78t-119 -30t-119 30t-72 78q-28 57 -28 156v441h88v-454q0 -83 34.5 -131t96.5 -48t96.5 48t34.5 131v454h88zM282 732l-102 145h99l67 -145h-64z" />
    <glyph glyph-name="Uacute" unicode="&#xda;" horiz-adv-x="592" 
d="M515 698v-441q0 -99 -28 -156q-24 -48 -72 -78t-119 -30t-119 30t-72 78q-28 57 -28 156v441h88v-454q0 -83 34.5 -131t96.5 -48t96.5 48t34.5 131v454h88zM246 732l67 145h99l-102 -145h-64z" />
    <glyph glyph-name="Ucircumflex" unicode="&#xdb;" horiz-adv-x="592" 
d="M515 698v-441q0 -99 -28 -156q-24 -48 -72 -78t-119 -30t-119 30t-72 78q-28 57 -28 156v441h88v-454q0 -83 34.5 -131t96.5 -48t96.5 48t34.5 131v454h88zM158 732l100 145h76l100 -145h-76l-62 91l-62 -91h-76z" />
    <glyph glyph-name="Udieresis" unicode="&#xdc;" horiz-adv-x="592" 
d="M515 698v-441q0 -99 -28 -156q-24 -48 -72 -78t-119 -30t-119 30t-72 78q-28 57 -28 156v441h88v-454q0 -83 34.5 -131t96.5 -48t96.5 48t34.5 131v454h88zM176 767v100h80v-100h-80zM336 767v100h80v-100h-80z" />
    <glyph glyph-name="Yacute" unicode="&#xdd;" horiz-adv-x="518" 
d="M215 0v293l-209 405h100l154 -309l155 309h97l-209 -405v-293h-88zM209 732l67 145h99l-102 -145h-64z" />
    <glyph glyph-name="Thorn" unicode="&#xde;" horiz-adv-x="481" 
d="M77 0v698h88v-120h80q94 0 151 -54q55 -53 55 -144q0 -102 -58 -155t-169 -53h-59v-172h-88zM165 506v-262h48q146 0 146 128q0 134 -144 134h-50z" />
    <glyph glyph-name="germandbls" unicode="&#xdf;" horiz-adv-x="481" 
d="M57 0v545q0 101 44.5 159t139.5 58q88 0 132.5 -53.5t44.5 -141.5q0 -64 -24.5 -100.5t-91.5 -64.5v-2q74 -9 108.5 -50.5t34.5 -145.5q0 -90 -45 -150.5t-136 -60.5q-36 0 -67 7l4 73q32 -12 65 -12q46 0 70.5 29t24.5 100q0 56 -7.5 89t-28.5 50t-45 22.5t-70 7.5v72
q70 0 97 31t27 118q0 114 -93 114q-32 0 -53 -12.5t-30.5 -37t-13 -48.5t-3.5 -58v-538h-84z" />
    <glyph glyph-name="agrave" unicode="&#xe0;" horiz-adv-x="463" 
d="M90 396l-9 79q65 42 144 42q88 0 136 -48q44 -44 44 -125v-266q0 -42 4 -78h-76l-5 69h-2q-45 -76 -143 -76q-66 0 -106.5 38t-40.5 109q0 79 57.5 125.5t182.5 46.5h49v23q0 56 -19 82q-24 32 -85 32q-83 0 -131 -53zM325 186v64q-15 2 -59 2q-71 0 -108.5 -29.5
t-37.5 -76.5q0 -42 22 -65.5t64 -23.5q53 0 86 37.5t33 91.5zM218 580l-102 145h99l67 -145h-64z" />
    <glyph glyph-name="aacute" unicode="&#xe1;" horiz-adv-x="463" 
d="M90 396l-9 79q65 42 144 42q88 0 136 -48q44 -44 44 -125v-266q0 -42 4 -78h-76l-5 69h-2q-45 -76 -143 -76q-66 0 -106.5 38t-40.5 109q0 79 57.5 125.5t182.5 46.5h49v23q0 56 -19 82q-24 32 -85 32q-83 0 -131 -53zM325 186v64q-15 2 -59 2q-71 0 -108.5 -29.5
t-37.5 -76.5q0 -42 22 -65.5t64 -23.5q53 0 86 37.5t33 91.5zM182 580l67 145h99l-102 -145h-64z" />
    <glyph glyph-name="acircumflex" unicode="&#xe2;" horiz-adv-x="463" 
d="M90 396l-9 79q65 42 144 42q88 0 136 -48q44 -44 44 -125v-266q0 -42 4 -78h-76l-5 69h-2q-45 -76 -143 -76q-66 0 -106.5 38t-40.5 109q0 79 57.5 125.5t182.5 46.5h49v23q0 56 -19 82q-24 32 -85 32q-83 0 -131 -53zM325 186v64q-15 2 -59 2q-71 0 -108.5 -29.5
t-37.5 -76.5q0 -42 22 -65.5t64 -23.5q53 0 86 37.5t33 91.5zM94 580l100 145h76l100 -145h-76l-62 91l-62 -91h-76z" />
    <glyph glyph-name="atilde" unicode="&#xe3;" horiz-adv-x="463" 
d="M90 396l-9 79q65 42 144 42q88 0 136 -48q44 -44 44 -125v-266q0 -42 4 -78h-76l-5 69h-2q-45 -76 -143 -76q-66 0 -106.5 38t-40.5 109q0 79 57.5 125.5t182.5 46.5h49v23q0 56 -19 82q-24 32 -85 32q-83 0 -131 -53zM325 186v64q-15 2 -59 2q-71 0 -108.5 -29.5
t-37.5 -76.5q0 -42 22 -65.5t64 -23.5q53 0 86 37.5t33 91.5zM326 710h52q-18 -107 -85 -107q-26 0 -69 21q-35 17 -47 17q-35 0 -39 -43h-52q11 107 95 107q26 0 76 -25q26 -13 35 -13q25 0 34 43z" />
    <glyph glyph-name="adieresis" unicode="&#xe4;" horiz-adv-x="463" 
d="M90 396l-9 79q65 42 144 42q88 0 136 -48q44 -44 44 -125v-266q0 -42 4 -78h-76l-5 69h-2q-45 -76 -143 -76q-66 0 -106.5 38t-40.5 109q0 79 57.5 125.5t182.5 46.5h49v23q0 56 -19 82q-24 32 -85 32q-83 0 -131 -53zM325 186v64q-15 2 -59 2q-71 0 -108.5 -29.5
t-37.5 -76.5q0 -42 22 -65.5t64 -23.5q53 0 86 37.5t33 91.5zM112 615v100h80v-100h-80zM272 615v100h80v-100h-80z" />
    <glyph glyph-name="aring" unicode="&#xe5;" horiz-adv-x="463" 
d="M90 396l-9 79q65 42 144 42q88 0 136 -48q44 -44 44 -125v-266q0 -42 4 -78h-76l-5 69h-2q-45 -76 -143 -76q-66 0 -106.5 38t-40.5 109q0 79 57.5 125.5t182.5 46.5h49v23q0 56 -19 82q-24 32 -85 32q-83 0 -131 -53zM325 186v64q-15 2 -59 2q-71 0 -108.5 -29.5
t-37.5 -76.5q0 -42 22 -65.5t64 -23.5q53 0 86 37.5t33 91.5zM140 668q0 43 30.5 73.5t73.5 30.5t73.5 -30.5t30.5 -73.5t-30.5 -73.5t-73.5 -30.5t-73.5 30.5t-30.5 73.5zM186 668q0 -24 17 -41t41 -17t41 17t17 41t-17 41t-41 17t-41 -17t-17 -41z" />
    <glyph glyph-name="ae" unicode="&#xe6;" horiz-adv-x="722" 
d="M402 316h204q0 64 -25.5 100.5t-74.5 36.5q-44 0 -73.5 -34t-30.5 -103zM90 396l-9 79q65 42 144 42q107 0 145 -86q44 86 141 86q86 0 132.5 -64t46.5 -178v-23h-288q0 -103 34 -149t105 -46q59 0 117 42l4 -76q-63 -30 -143 -30q-129 0 -166 104q-53 -104 -170 -104
q-66 0 -106.5 38t-40.5 109q0 176 240 176h50v16q0 57 -29 87t-79 30q-80 0 -128 -53zM326 219v33h-32q-174 0 -174 -112q0 -38 22 -60.5t64 -22.5q55 0 87.5 43t32.5 119z" />
    <glyph glyph-name="ccedilla" unicode="&#xe7;" horiz-adv-x="389" 
d="M135 -198l14 35q37 -13 63 -13q25 0 41.5 12.5t16.5 29.5q0 37 -44 37q-26 0 -43 -7l-15 19l55 82q-91 12 -139 81.5t-48 171.5q0 124 60 195.5t164 71.5q63 0 105 -20l-4 -76q-43 24 -97 24q-65 0 -102.5 -48t-37.5 -147q0 -87 37.5 -136t100.5 -49q51 0 103 27l4 -77
q-50 -22 -105 -22l-36 -53q14 3 29 3q37 0 61 -19.5t24 -52.5q0 -38 -31.5 -62.5t-87.5 -24.5q-43 0 -88 18z" />
    <glyph glyph-name="egrave" unicode="&#xe8;" horiz-adv-x="444" 
d="M412 230h-288q0 -173 139 -173q59 0 117 42l4 -76q-63 -30 -143 -30q-99 0 -152 70t-53 192t51.5 192t145.5 70q86 0 132.5 -64t46.5 -178v-45zM124 294h204q0 159 -100 159q-45 0 -74 -38t-30 -121zM208 580l-102 145h99l67 -145h-64z" />
    <glyph glyph-name="eacute" unicode="&#xe9;" horiz-adv-x="444" 
d="M412 230h-288q0 -173 139 -173q59 0 117 42l4 -76q-63 -30 -143 -30q-99 0 -152 70t-53 192t51.5 192t145.5 70q86 0 132.5 -64t46.5 -178v-45zM124 294h204q0 159 -100 159q-45 0 -74 -38t-30 -121zM172 580l67 145h99l-102 -145h-64z" />
    <glyph glyph-name="ecircumflex" unicode="&#xea;" horiz-adv-x="444" 
d="M412 230h-288q0 -173 139 -173q59 0 117 42l4 -76q-63 -30 -143 -30q-99 0 -152 70t-53 192t51.5 192t145.5 70q86 0 132.5 -64t46.5 -178v-45zM124 294h204q0 159 -100 159q-45 0 -74 -38t-30 -121zM84 580l100 145h76l100 -145h-76l-62 91l-62 -91h-76z" />
    <glyph glyph-name="edieresis" unicode="&#xeb;" horiz-adv-x="444" 
d="M412 230h-288q0 -173 139 -173q59 0 117 42l4 -76q-63 -30 -143 -30q-99 0 -152 70t-53 192t51.5 192t145.5 70q86 0 132.5 -64t46.5 -178v-45zM124 294h204q0 159 -100 159q-45 0 -74 -38t-30 -121zM102 615v100h80v-100h-80zM262 615v100h80v-100h-80z" />
    <glyph glyph-name="igrave" unicode="&#xec;" horiz-adv-x="222" 
d="M69 0v510h84v-510h-84zM97 580l-102 145h99l67 -145h-64z" />
    <glyph glyph-name="iacute" unicode="&#xed;" horiz-adv-x="222" 
d="M69 0v510h84v-510h-84zM61 580l67 145h99l-102 -145h-64z" />
    <glyph glyph-name="icircumflex" unicode="&#xee;" horiz-adv-x="222" 
d="M69 0v510h84v-510h-84zM-27 580l100 145h76l100 -145h-76l-62 91l-62 -91h-76z" />
    <glyph glyph-name="idieresis" unicode="&#xef;" horiz-adv-x="222" 
d="M69 0v510h84v-510h-84zM-9 615v100h80v-100h-80zM151 615v100h80v-100h-80z" />
    <glyph glyph-name="eth" unicode="&#xf0;" horiz-adv-x="482" 
d="M124 255q0 -194 117 -194t117 194t-117 194t-117 -194zM135 611l-33 27l78 47q-37 24 -86 39l30 38q50 -10 113 -43l71 43l33 -27l-69 -42q174 -124 174 -389q0 -158 -50 -234.5t-155 -76.5q-99 0 -152 70t-53 192t53 192t152 70q61 0 104 -45l2 2q-40 125 -134 184z" />
    <glyph glyph-name="ntilde" unicode="&#xf1;" horiz-adv-x="482" 
d="M61 0v400q0 21 -2 60t-2 50h81l3 -76h2q39 83 129 83q69 0 109 -41t40 -122v-354h-84v329q0 116 -84 116q-51 0 -79.5 -35t-28.5 -103v-307h-84zM335 710h52q-18 -107 -85 -107q-26 0 -69 21q-35 17 -47 17q-35 0 -39 -43h-52q11 107 95 107q26 0 76 -25q26 -13 35 -13
q25 0 34 43z" />
    <glyph glyph-name="ograve" unicode="&#xf2;" horiz-adv-x="482" 
d="M124 255q0 -194 117 -194t117 194t-117 194t-117 -194zM36 255q0 122 53 192t152 70t152 -70t53 -192t-53 -192t-152 -70t-152 70t-53 192zM227 580l-102 145h99l67 -145h-64z" />
    <glyph glyph-name="oacute" unicode="&#xf3;" horiz-adv-x="482" 
d="M124 255q0 -194 117 -194t117 194t-117 194t-117 -194zM36 255q0 122 53 192t152 70t152 -70t53 -192t-53 -192t-152 -70t-152 70t-53 192zM191 580l67 145h99l-102 -145h-64z" />
    <glyph glyph-name="ocircumflex" unicode="&#xf4;" horiz-adv-x="482" 
d="M124 255q0 -194 117 -194t117 194t-117 194t-117 -194zM36 255q0 122 53 192t152 70t152 -70t53 -192t-53 -192t-152 -70t-152 70t-53 192zM103 580l100 145h76l100 -145h-76l-62 91l-62 -91h-76z" />
    <glyph glyph-name="otilde" unicode="&#xf5;" horiz-adv-x="482" 
d="M124 255q0 -194 117 -194t117 194t-117 194t-117 -194zM36 255q0 122 53 192t152 70t152 -70t53 -192t-53 -192t-152 -70t-152 70t-53 192zM335 710h52q-18 -107 -85 -107q-26 0 -69 21q-35 17 -47 17q-35 0 -39 -43h-52q11 107 95 107q26 0 76 -25q26 -13 35 -13
q25 0 34 43z" />
    <glyph glyph-name="odieresis" unicode="&#xf6;" horiz-adv-x="482" 
d="M124 255q0 -194 117 -194t117 194t-117 194t-117 -194zM36 255q0 122 53 192t152 70t152 -70t53 -192t-53 -192t-152 -70t-152 70t-53 192zM121 615v100h80v-100h-80zM281 615v100h80v-100h-80z" />
    <glyph glyph-name="divide" unicode="&#xf7;" horiz-adv-x="600" 
d="M47 219v68h506v-68h-506zM236 449q0 26 19 45t45 19t45 -19t19 -45t-19 -45t-45 -19t-45 19t-19 45zM236 57q0 26 19 45t45 19t45 -19t19 -45t-19 -45t-45 -19t-45 19t-19 45z" />
    <glyph glyph-name="oslash" unicode="&#xf8;" horiz-adv-x="482" 
d="M136 153l194 246q-30 50 -89 50q-117 0 -117 -194q0 -61 12 -102zM53 -13l-30 23l55 70q-42 64 -42 175q0 122 53 192t152 70q87 0 139 -55l49 61l30 -23l-56 -69q43 -64 43 -176q0 -122 -53 -192t-152 -70q-89 0 -139 56zM346 358l-194 -246q30 -51 89 -51
q117 0 117 194q0 61 -12 103z" />
    <glyph glyph-name="ugrave" unicode="&#xf9;" horiz-adv-x="482" 
d="M421 510v-400q0 -21 2 -60t2 -50h-81l-3 76h-2q-39 -83 -129 -83q-69 0 -109 41t-40 122v354h84v-329q0 -116 84 -116q51 0 79.5 35t28.5 103v307h84zM227 580l-102 145h99l67 -145h-64z" />
    <glyph glyph-name="uacute" unicode="&#xfa;" horiz-adv-x="482" 
d="M421 510v-400q0 -21 2 -60t2 -50h-81l-3 76h-2q-39 -83 -129 -83q-69 0 -109 41t-40 122v354h84v-329q0 -116 84 -116q51 0 79.5 35t28.5 103v307h84zM191 580l67 145h99l-102 -145h-64z" />
    <glyph glyph-name="ucircumflex" unicode="&#xfb;" horiz-adv-x="482" 
d="M421 510v-400q0 -21 2 -60t2 -50h-81l-3 76h-2q-39 -83 -129 -83q-69 0 -109 41t-40 122v354h84v-329q0 -116 84 -116q51 0 79.5 35t28.5 103v307h84zM103 580l100 145h76l100 -145h-76l-62 91l-62 -91h-76z" />
    <glyph glyph-name="udieresis" unicode="&#xfc;" horiz-adv-x="482" 
d="M421 510v-400q0 -21 2 -60t2 -50h-81l-3 76h-2q-39 -83 -129 -83q-69 0 -109 41t-40 122v354h84v-329q0 -116 84 -116q51 0 79.5 35t28.5 103v307h84zM121 615v100h80v-100h-80zM281 615v100h80v-100h-80z" />
    <glyph glyph-name="yacute" unicode="&#xfd;" horiz-adv-x="407" 
d="M398 510l-177 -614q-19 -64 -47.5 -91t-77.5 -27q-34 0 -57 6l4 76q22 -10 46 -10q20 0 33 13.5t23 50.5l20 78l-161 518h88l114 -416h2l106 416h84zM154 580l67 145h99l-102 -145h-64z" />
    <glyph glyph-name="thorn" unicode="&#xfe;" horiz-adv-x="481" 
d="M137 255q0 -194 112 -194t112 194t-112 194t-112 -194zM53 -216v966h84v-311h2q39 78 130 78q81 0 128.5 -67t47.5 -195t-47.5 -195t-128.5 -67q-82 0 -130 77h-2v-286h-84z" />
    <glyph glyph-name="ydieresis" unicode="&#xff;" horiz-adv-x="407" 
d="M398 510l-177 -614q-19 -64 -47.5 -91t-77.5 -27q-34 0 -57 6l4 76q22 -10 46 -10q20 0 33 13.5t23 50.5l20 78l-161 518h88l114 -416h2l106 416h84zM84 615v100h80v-100h-80zM244 615v100h80v-100h-80z" />
    <glyph glyph-name="dotlessi" unicode="&#x131;" horiz-adv-x="222" 
d="M69 0v510h84v-510h-84z" />
    <glyph glyph-name="Lslash" unicode="&#x141;" horiz-adv-x="407" 
d="M77 0v278l-67 -64v86l67 64v334h88v-250l127 121v-86l-127 -121v-286h229v-76h-317z" />
    <glyph glyph-name="lslash" unicode="&#x142;" horiz-adv-x="222" 
d="M69 0v309h-2l-67 -87v72l69 87v369h84v-262h2l67 84v-72l-69 -86v-414h-84z" />
    <glyph glyph-name="OE" unicode="&#x152;" horiz-adv-x="778" 
d="M721 698v-76h-221v-222h208v-76h-208v-248h230v-76h-281q-47 0 -76 -2q-11 0 -40 -2.5t-42 -2.5q-109 0 -176 94.5t-67 254.5q0 180 70.5 271.5t206.5 91.5q21 0 55 -3q46 -4 69 -4h272zM412 76v546q-38 11 -90 11q-84 0 -133 -69t-49 -222q0 -273 182 -273q54 0 90 7z
" />
    <glyph glyph-name="oe" unicode="&#x153;" horiz-adv-x="778" 
d="M124 255q0 -194 122 -194t122 194t-122 194t-122 -194zM448 294h214q0 159 -105 159q-108 0 -109 -159zM746 230h-298q2 -173 139 -173q69 0 127 42l4 -76q-63 -30 -143 -30q-121 0 -167 110q-46 -110 -162 -110q-103 0 -156.5 69.5t-53.5 192.5t53.5 192.5t156.5 69.5
q62 0 99.5 -25.5t62.5 -80.5q25 55 61.5 80.5t94.5 25.5q88 0 135 -64t47 -178v-45z" />
    <glyph glyph-name="Scaron" unicode="&#x160;" horiz-adv-x="444" 
d="M365 682v-85q-53 32 -119 32q-49 0 -79 -29.5t-30 -74.5q0 -35 23 -62t95 -69q79 -45 111.5 -93t32.5 -110q0 -87 -53 -142.5t-150 -55.5q-84 0 -146 30v91q75 -45 133 -45q57 0 90.5 32.5t33.5 77.5q0 43 -20.5 72t-87.5 70q-93 56 -123.5 98t-30.5 111q0 83 55.5 129
t138.5 46q71 0 126 -23zM184 732l-100 145h76l62 -91l62 91h76l-100 -145h-76z" />
    <glyph glyph-name="scaron" unicode="&#x161;" horiz-adv-x="370" 
d="M34 23l5 76q63 -38 120 -38q46 0 71.5 20.5t25.5 51.5q0 51 -65 80l-56 25q-55 25 -77.5 54t-22.5 77q0 64 45.5 106t118.5 42q61 0 108 -18l-4 -72q-48 22 -100 22q-40 0 -62 -19.5t-22 -50.5q0 -29 21 -49t65 -37l30 -12q101 -41 101 -130q0 -71 -40.5 -114.5
t-123.5 -43.5q-80 0 -138 30zM147 580l-100 145h76l62 -91l62 91h76l-100 -145h-76z" />
    <glyph glyph-name="Ydieresis" unicode="&#x178;" horiz-adv-x="518" 
d="M215 0v293l-209 405h100l154 -309l155 309h97l-209 -405v-293h-88zM139 767v100h80v-100h-80zM299 767v100h80v-100h-80z" />
    <glyph glyph-name="Zcaron" unicode="&#x17d;" horiz-adv-x="463" 
d="M34 0v83l284 539h-275v76h380v-76l-293 -546h299v-76h-395zM194 732l-100 145h76l62 -91l62 91h76l-100 -145h-76z" />
    <glyph glyph-name="zcaron" unicode="&#x17e;" horiz-adv-x="389" 
d="M39 510h314v-76l-236 -362h241v-72h-327v76l236 362h-228v72zM157 580l-100 145h76l62 -91l62 91h76l-100 -145h-76z" />
    <glyph glyph-name="florin" unicode="&#x192;" 
d="M22 -207l10 70q33 -13 55 -13q20 0 32 14t24.5 61.5t26.5 141.5l41 281h-88v64h98l13 74q22 122 56 170.5t97 48.5q45 0 71 -17l-11 -67q-24 16 -51 16q-33 0 -49 -36t-30 -134l-8 -55h89v-64h-99l-41 -272q-24 -162 -63 -230t-112 -68q-24 0 -61 15z" />
    <glyph glyph-name="circumflex" unicode="&#x2c6;" horiz-adv-x="204" 
d="M-36 580l100 145h76l100 -145h-76l-62 91l-62 -91h-76z" />
    <glyph glyph-name="caron" unicode="&#x2c7;" horiz-adv-x="204" 
d="M64 580l-100 145h76l62 -91l62 91h76l-100 -145h-76z" />
    <glyph glyph-name="uni02C9" unicode="&#x2c9;" horiz-adv-x="204" 
d="M-30 624v60h264v-60h-264z" />
    <glyph glyph-name="breve" unicode="&#x2d8;" horiz-adv-x="204" 
d="M-24 717h52q11 -69 74 -69t74 69h52q-7 -64 -40 -96.5t-86 -32.5t-86 32.5t-40 96.5z" />
    <glyph glyph-name="dotaccent" unicode="&#x2d9;" horiz-adv-x="204" 
d="M62 615v100h80v-100h-80z" />
    <glyph glyph-name="ring" unicode="&#x2da;" horiz-adv-x="204" 
d="M-2 668q0 43 30.5 73.5t73.5 30.5t73.5 -30.5t30.5 -73.5t-30.5 -73.5t-73.5 -30.5t-73.5 30.5t-30.5 73.5zM44 668q0 -24 17 -41t41 -17t41 17t17 41t-17 41t-41 17t-41 -17t-17 -41z" />
    <glyph glyph-name="ogonek" unicode="&#x2db;" horiz-adv-x="204" 
d="M182 -163l14 -35q-42 -18 -75 -18q-49 0 -81 22.5t-32 65.5q0 34 31 69.5t85 58.5h44q-41 -24 -64.5 -57.5t-23.5 -67.5q0 -24 13 -37.5t34 -13.5q29 0 55 13z" />
    <glyph glyph-name="tilde" unicode="&#x2dc;" horiz-adv-x="204" 
d="M196 710h52q-18 -107 -85 -107q-26 0 -69 21q-35 17 -47 17q-35 0 -39 -43h-52q11 107 95 107q26 0 76 -25q26 -13 35 -13q25 0 34 43z" />
    <glyph glyph-name="hungarumlaut" unicode="&#x2dd;" horiz-adv-x="204" 
d="M-28 580l67 145h99l-102 -145h-64zM132 580l67 145h99l-102 -145h-64z" />
    <glyph glyph-name="uni03A9" unicode="&#x3a9;" horiz-adv-x="614" 
d="M166 66v3q-50 54 -82 132t-32 172q0 142 73 233t185 91q113 0 181.5 -93.5t68.5 -224.5q0 -97 -33.5 -179t-81.5 -131v-3h127v-66h-210v49q51 40 85.5 122t34.5 190q0 105 -46 186t-128 81q-80 0 -129 -76t-49 -193q0 -102 36 -187t85 -123v-49h-211v66h126z" />
    <glyph glyph-name="uni03BC" unicode="&#x3bc;" horiz-adv-x="482" 
d="M61 -216v726h84v-329q0 -116 84 -116q51 0 79.5 35t28.5 103v307h84v-400q0 -21 2 -60t2 -50h-81l-3 76h-2q-39 -83 -123 -83q-49 0 -69 31h-2v-240h-84z" />
    <glyph glyph-name="pi" unicode="&#x3c0;" horiz-adv-x="503" 
d="M480 442h-67v-303q0 -94 12 -139h-74q-15 28 -15 134v308h-147q-4 -103 -22 -237.5t-41 -204.5h-75q24 79 41.5 210.5t19.5 231.5q-64 0 -92 -10l-11 53q38 27 129 27h349z" />
    <glyph glyph-name="endash" unicode="&#x2013;" horiz-adv-x="500" 
d="M0 247v68h500v-68h-500z" />
    <glyph glyph-name="emdash" unicode="&#x2014;" horiz-adv-x="1000" 
d="M0 247v68h1000v-68h-1000z" />
    <glyph glyph-name="quoteleft" unicode="&#x2018;" horiz-adv-x="240" 
d="M49 518l66 232h76l-50 -232h-92z" />
    <glyph glyph-name="quoteright" unicode="&#x2019;" horiz-adv-x="240" 
d="M49 518l50 232h92l-66 -232h-76z" />
    <glyph glyph-name="quotesinglbase" unicode="&#x201a;" horiz-adv-x="240" 
d="M49 -127l50 232h92l-66 -232h-76z" />
    <glyph glyph-name="quotedblleft" unicode="&#x201c;" horiz-adv-x="500" 
d="M254 518l66 232h76l-50 -232h-92zM104 518l66 232h76l-50 -232h-92z" />
    <glyph glyph-name="quotedblright" unicode="&#x201d;" horiz-adv-x="500" 
d="M104 518l50 232h92l-66 -232h-76zM254 518l50 232h92l-66 -232h-76z" />
    <glyph glyph-name="quotedblbase" unicode="&#x201e;" horiz-adv-x="500" 
d="M104 -127l50 232h92l-66 -232h-76zM254 -127l50 232h92l-66 -232h-76z" />
    <glyph glyph-name="dagger" unicode="&#x2020;" 
d="M202 0v449h-138v68h138v181h76v-181h138v-68h-138v-449h-76z" />
    <glyph glyph-name="daggerdbl" unicode="&#x2021;" 
d="M202 0v168h-138v68h138v226h-138v68h138v168h76v-168h138v-68h-138v-226h138v-68h-138v-168h-76z" />
    <glyph glyph-name="bullet" unicode="&#x2022;" horiz-adv-x="500" 
d="M75 349q0 73 51 124t124 51t124 -51t51 -124t-51 -124t-124 -51t-124 51t-51 124z" />
    <glyph glyph-name="ellipsis" unicode="&#x2026;" horiz-adv-x="1000" 
d="M119 0v112h96v-112h-96zM452 0v112h96v-112h-96zM785 0v112h96v-112h-96z" />
    <glyph glyph-name="perthousand" unicode="&#x2030;" horiz-adv-x="890" 
d="M680 180q0 -73 13.5 -102t41.5 -29t41.5 29t13.5 102q0 72 -13.5 101.5t-41.5 29.5t-41.5 -29.5t-13.5 -101.5zM159 -7l248 712h51l-249 -712h-50zM100 518q0 -73 13.5 -102t41.5 -29t41.5 29t13.5 102q0 72 -13.5 101.5t-41.5 29.5t-41.5 -29.5t-13.5 -101.5zM620 180
q0 97 28 142t87 45t87 -45t28 -142t-28 -142t-87 -45t-87 45t-28 142zM40 518q0 97 28 142t87 45t87 -45t28 -142t-28 -142t-87 -45t-87 45t-28 142zM346 180q0 97 28 142t87 45t87 -45t28 -142t-28 -142t-87 -45t-87 45t-28 142zM406 180q0 -73 13.5 -102t41.5 -29t41.5 29
t13.5 102q0 72 -13.5 101.5t-41.5 29.5t-41.5 -29.5t-13.5 -101.5z" />
    <glyph glyph-name="guilsinglleft" unicode="&#x2039;" horiz-adv-x="278" 
d="M159 54l-112 206l112 206h72l-100 -206l100 -206h-72z" />
    <glyph glyph-name="guilsinglright" unicode="&#x203a;" horiz-adv-x="278" 
d="M47 54l100 206l-100 206h72l112 -206l-112 -206h-72z" />
    <glyph glyph-name="fraction" unicode="&#x2044;" horiz-adv-x="167" 
d="M-105 -33l313 764h64l-313 -764h-64z" />
    <glyph glyph-name="Euro" unicode="&#x20ac;" 
d="M486 679l-16 -80q-12 12 -46 21t-56 9q-78 0 -125.5 -52.5t-64.5 -134.5h265l-10 -49h-263q-5 -44 0 -88h249l-9 -49h-232q18 -81 65.5 -133t124.5 -52q55 0 102 25l6 -85q-58 -18 -113 -18q-116 0 -186.5 73t-91.5 190h-78l10 49h63q-4 53 0 88h-73l10 49h69
q21 116 92 189.5t185 73.5q68 0 123 -26z" />
    <glyph glyph-name="afii61289" unicode="&#x2113;" horiz-adv-x="430" 
d="M376 148l35 -32q-58 -119 -165 -119q-75 0 -111 50t-38 132v13l-25 -21.5l-25 -21.5l-22 45q51 45 71 67v266q0 121 40.5 177.5t100.5 56.5q54 0 82 -44t28 -115q0 -163 -177 -352v-40q1 -77 26 -113.5t66 -36.5q67 0 114 88zM170 527v-198q127 155 127 275q0 96 -59 96
q-28 0 -48 -41.5t-20 -131.5z" />
    <glyph glyph-name="trademark" unicode="&#x2122;" horiz-adv-x="1000" 
d="M184 282v370h-130v46h324v-46h-130v-370h-64zM458 282v416h102l122 -320l122 320h102v-416h-64v362h-2l-137 -362h-43l-136 362h-2v-362h-64z" />
    <glyph glyph-name="Omega" unicode="&#x2126;" horiz-adv-x="614" 
d="M166 66v3q-50 54 -82 132t-32 172q0 142 73 233t185 91q113 0 181.5 -93.5t68.5 -224.5q0 -97 -33.5 -179t-81.5 -131v-3h127v-66h-210v49q51 40 85.5 122t34.5 190q0 105 -46 186t-128 81q-80 0 -129 -76t-49 -193q0 -102 36 -187t85 -123v-49h-211v66h126z" />
    <glyph glyph-name="estimated" unicode="&#x212e;" horiz-adv-x="858" 
d="M824 339h-640q-5 0 -5 -4v-194q0 -12 8 -22q102 -105 242 -105q153 0 255 118h57q-54 -64 -136.5 -101t-176.5 -37q-164 0 -279.5 104t-115.5 251t116 251.5t279 104.5q164 0 280 -104.5t116 -251.5v-10zM679 364v195q0 14 -10 23q-103 101 -240 101q-139 0 -241 -104
q-9 -9 -9 -24v-191q0 -6 5 -6h491q4 0 4 6z" />
    <glyph glyph-name="partialdiff" unicode="&#x2202;" horiz-adv-x="484" 
d="M91 663l-25 61q64 53 148 53q94 0 160 -94t66 -276q0 -188 -60.5 -298.5t-171.5 -110.5q-81 0 -125.5 65.5t-44.5 159.5q0 114 56 184.5t133 70.5q50 0 85.5 -26t50.5 -55h1q1 10 1 38q0 118 -46 196t-114 78q-62 0 -114 -46zM215 65h1q56 0 93.5 73.5t46.5 178.5
q-10 36 -42 65.5t-75 29.5q-51 0 -87.5 -56.5t-36.5 -133.5q0 -71 27 -114t73 -43z" />
    <glyph glyph-name="Delta" unicode="&#x2206;" horiz-adv-x="563" 
d="M28 0v52l212 651h88l208 -650v-53h-508zM105 65h350l-117 358q-6 21 -27.5 87t-27.5 92h-4q-4 -22 -24 -83t-26 -83z" />
    <glyph glyph-name="product" unicode="&#x220f;" horiz-adv-x="616" 
d="M591 613h-92v-708h-76v708h-231v-708h-76v708h-92v73h567v-73z" />
    <glyph glyph-name="summation" unicode="&#x2211;" horiz-adv-x="484" 
d="M465 -95h-443v55l230 336l-221 334v56h420v-68h-316v-3l204 -306l-223 -324v-4h349v-76z" />
    <glyph glyph-name="minus" unicode="&#x2212;" horiz-adv-x="600" 
d="M47 219v68h506v-68h-506z" />
    <glyph glyph-name="uni2215" unicode="&#x2215;" horiz-adv-x="167" 
d="M-105 -33l313 764h64l-313 -764h-64z" />
    <glyph glyph-name="uni2219" unicode="&#x2219;" horiz-adv-x="240" 
d="M56 298q0 26 19 45t45 19t45 -19t19 -45t-19 -45t-45 -19t-45 19t-19 45z" />
    <glyph glyph-name="radical" unicode="&#x221a;" horiz-adv-x="512" 
d="M510 819l-195 -963h-66l-138 451l-66 -25l-14 49l129 50l105 -345q14 -65 16 -78h1l5 34.5t7 43.5l160 783h56z" />
    <glyph glyph-name="infinity" unicode="&#x221e;" horiz-adv-x="708" 
d="M662 286v-1q0 -66 -42 -107.5t-99 -41.5q-41 0 -79.5 25t-86.5 82q-45 -52 -83 -79.5t-89 -27.5q-56 0 -97 42t-41 103q0 64 41 106t104 42q47 0 86.5 -28t81.5 -79l49 53t49 34.5t72 19.5q59 0 96.5 -39.5t37.5 -103.5zM190 184h1q9 0 18 1.5t18 6l16 8t16.5 11
l14.5 11.5t15 14.5t13 14l13.5 15t12.5 13.5q-28 36 -42 52t-42.5 33.5t-58.5 17.5q-41 0 -65.5 -29.5t-23.5 -72.5q0 -40 26.5 -68t67.5 -28zM522 382h-1q-17 0 -33 -6t-33 -20t-26 -22.5t-26.5 -28t-19.5 -21.5q49 -56 78 -78t63 -22q40 0 64 30t24 67q0 47 -25 74t-65 27
z" />
    <glyph glyph-name="integral" unicode="&#x222b;" horiz-adv-x="335" 
d="M314 829l-11 -57q-14 9 -32 9q-28 0 -44 -24q-29 -37 -29 -174q0 -76 6 -242t6 -249q0 -134 -38 -199q-30 -53 -96 -53q-35 0 -59 15l13 59q20 -10 38 -10q26 0 41 22q28 40 28 166q0 83 -6 252t-6 247q0 153 49 210q35 40 91 40q27 0 49 -12z" />
    <glyph glyph-name="approxequal" unicode="&#x2248;" horiz-adv-x="495" 
d="M424 418l31 -26q-41 -91 -116 -91q-38 0 -102 38q-51 31 -81 31q-28 0 -47 -17.5t-38 -50.5l-33 25q45 91 124 91q15 0 31.5 -4.5t24.5 -8.5t24.5 -13.5t18.5 -10.5q4 -2 14 -8t14 -8l12.5 -6t13.5 -5.5t12.5 -3t14.5 -1.5q25 0 43.5 17t38.5 52zM424 260l31 -27
q-41 -90 -116 -90q-37 0 -102 37q-50 32 -81 32q-28 0 -47 -18t-38 -51l-33 26q45 91 124 91q13 0 24.5 -2t23 -7l18 -8t18.5 -10.5t14 -8.5q4 -3 14 -8.5l14.5 -8t12.5 -6.5t13.5 -5.5t13 -3t14.5 -1.5q25 0 43.5 17t38.5 52z" />
    <glyph glyph-name="notequal" unicode="&#x2260;" horiz-adv-x="495" 
d="M354 481l-38 -87h133v-50h-152l-58 -131h210v-50h-229l-46 -104l-39 17l39 87h-129v50h148l58 131h-206v50h224l46 103z" />
    <glyph glyph-name="lessequal" unicode="&#x2264;" horiz-adv-x="495" 
d="M447 101l-397 209v53l396 209v-60l-345 -173v-3l346 -174v-61zM450 12h-404v52h404v-52z" />
    <glyph glyph-name="greaterequal" unicode="&#x2265;" horiz-adv-x="495" 
d="M51 572l397 -209v-53l-397 -209v61l345 174v2l-345 174v60zM449 12h-403v52h403v-52z" />
    <glyph glyph-name="lozenge" unicode="&#x25ca;" horiz-adv-x="512" 
d="M464 343l-178 -384h-64l-174 384l178 384h64zM393 341l-119 260q-12 36 -16 56h-3q-9 -36 -17 -56l-119 -256l119 -263q7 -19 16 -54h3q7 30 16 52z" />
    </font>
</defs>
</svg>
