<?xml version="1.0" standalone="no"?>
<!DOCTYPE svg PUBLIC "-//W3C//DTD SVG 1.1//EN" "http://www.w3.org/Graphics/SVG/1.1/DTD/svg11.dtd" >
<svg xmlns="http://www.w3.org/2000/svg">
<metadata></metadata>
<defs>
<font id="PTSans" horiz-adv-x="1160" >
<font-face units-per-em="2048" ascent="1577" descent="-471" />
<missing-glyph horiz-adv-x="567" />
<glyph unicode="&#xfb01;" horiz-adv-x="1149" d="M47 916v149h166v59q0 201 99 291.5t291 90.5q126 0 224 -24.5t153 -58.5l-58 -137q-57 37 -136 54t-168 17q-79 0 -125 -18t-70.5 -55.5t-31.5 -92.5t-7 -126h600v-1065h-171v916h-429v-916h-171v916h-166z" />
<glyph unicode="&#xfb02;" horiz-adv-x="1240" d="M47 916v149h166v59q0 201 86.5 296.5t288.5 95.5q42 0 95.5 -3t108 -8t102 -11.5t77.5 -15.5v-1216q0 -75 26.5 -106.5t71.5 -31.5q30 0 62 4t72 19l18 -135q-17 -8 -42 -15t-52.5 -11.5t-55 -8t-49.5 -3.5q-95 0 -158 54.5t-63 184.5v1137q-32 6 -91.5 12t-117.5 6 q-73 0 -114 -20.5t-62.5 -60t-26.5 -95.5t-5 -127h219v-149h-219v-916h-171v916h-166z" />
<glyph horiz-adv-x="0" />
<glyph horiz-adv-x="0" />
<glyph unicode="&#xd;" horiz-adv-x="567" />
<glyph unicode=" "  horiz-adv-x="567" />
<glyph unicode="&#x09;" horiz-adv-x="567" />
<glyph unicode="&#xa0;" horiz-adv-x="567" />
<glyph unicode="!" horiz-adv-x="648" d="M234 98q0 57 33.5 90.5t88.5 33.5q57 0 91.5 -33t34.5 -91q0 -55 -34.5 -89.5t-91.5 -34.5q-55 0 -88.5 34.5t-33.5 89.5zM270 752v739h177v-739l-36 -376h-104z" />
<glyph unicode="&#x22;" horiz-adv-x="713" d="M191 1080v411h167l-66 -411h-101zM441 1080v411h167l-66 -411h-101z" />
<glyph unicode="#" d="M59 479l30 137h169l65 278h-157l30 137h160l81 337h146l-81 -337h224l81 337h148l-81 -337h163l-33 -137h-163l-66 -278h156l-35 -137h-152l-84 -355h-146l82 355h-224l-82 -355h-148l84 355h-167zM405 616h223l67 278h-224z" />
<glyph unicode="$" d="M162 43l57 155q43 -26 116.5 -47t180.5 -23v575q-64 32 -127 68t-112 86t-79 118.5t-30 162.5q0 153 86.5 251t261.5 121v194h144v-188q109 -4 178 -20t125 -41l-51 -150q-43 21 -102.5 37.5t-149.5 20.5v-526q66 -34 132 -73.5t118.5 -90.5t84 -119t31.5 -160 q0 -166 -92.5 -274t-273.5 -137v-196h-144v187q-118 2 -208.5 20t-145.5 49zM345 1148q0 -91 58.5 -149t145.5 -105v467q-113 -12 -158.5 -74t-45.5 -139zM626 132q98 15 161 76t63 172q0 51 -18.5 91.5t-48 72t-70 57t-87.5 49.5v-518z" />
<glyph unicode="%" horiz-adv-x="1646" d="M149 1154q0 96 25.5 164t69 113t104.5 65t131 20q71 0 131.5 -19t104 -61.5t69 -112t25.5 -169.5q0 -99 -25.5 -168.5t-69 -112t-104.5 -62t-131 -19.5t-131 19.5t-104.5 62t-69 112t-25.5 168.5zM262 57l1096 1461l104 -81l-1093 -1463zM307 1154q0 -128 45.5 -183 t126.5 -55q41 0 72.5 11.5t54 38t34 72.5t11.5 116q0 71 -11.5 117t-34 72.5t-54.5 38t-72 11.5q-81 0 -126.5 -50t-45.5 -189zM909 364q0 96 25.5 164t69 113t104.5 65t131 20q71 0 131.5 -19t104 -61.5t69 -112t25.5 -169.5q0 -99 -25.5 -168.5t-69 -112t-104.5 -62 t-131 -19.5t-131 19.5t-104.5 62t-69 112t-25.5 168.5zM1067 364q0 -128 45.5 -183t126.5 -55q41 0 72.5 11.5t54 38t34 72.5t11.5 116q0 71 -11.5 117t-34 72.5t-54.5 38t-72 11.5q-81 0 -126.5 -50t-45.5 -189z" />
<glyph unicode="&#x26;" horiz-adv-x="1733" d="M252 398q0 86 29.5 163.5t80.5 143.5t116 121.5t136 98.5q-51 77 -88.5 153t-37.5 166q0 51 17 100t54 87.5t95.5 61.5t142.5 23q87 0 147 -22t95.5 -58t52 -81t16.5 -92q0 -90 -69.5 -184.5t-218.5 -182.5q34 -61 79.5 -126t97 -129t104.5 -127t106 -116q24 26 47.5 65 t46 83t40.5 90.5t33 89.5l132 -61q-13 -37 -36 -87t-52.5 -102t-59 -100t-55.5 -80q45 -42 81.5 -73.5t67 -53.5t59.5 -40.5t58 -34.5l-106 -120q-113 55 -258 199q-38 -39 -84 -74.5t-103 -63t-126 -44.5t-153 -17q-99 0 -188 28t-155 82t-105 133t-39 181zM422 402 q0 -65 27.5 -117.5t75.5 -87.5t110 -54t129 -19q53 0 103.5 13.5t95.5 34.5t82 49t61 58q-62 61 -121.5 134t-114.5 145t-100.5 139t-76.5 118q-58 -42 -107 -87t-86.5 -95t-57.5 -107t-20 -124zM654 1244q0 -64 26.5 -126.5t69.5 -125.5q113 73 156.5 133t43.5 104 q0 69 -33 111t-114 42q-77 0 -113 -38.5t-36 -99.5z" />
<glyph unicode="'" horiz-adv-x="463" d="M191 1080v411h167l-66 -411h-101z" />
<glyph unicode="(" horiz-adv-x="595" d="M128 518q0 117 19 246.5t62 260.5t112 257t169 234l102 -75q-86 -108 -142 -224t-90 -235.5t-48 -237.5t-14 -226q0 -102 16 -222.5t51 -241t92 -235.5t135 -209l-108 -79q-98 102 -166 224.5t-110 251.5t-61 260t-19 251z" />
<glyph unicode=")" horiz-adv-x="595" d="M4 -394q85 108 143 225.5t90.5 236.5t46.5 236.5t14 225.5q0 102 -17 222t-52.5 241t-90.5 236t-134 208l109 79q98 -102 166 -224.5t110 -251t61 -259.5t19 -251q0 -117 -19 -247t-62 -260.5t-112 -256.5t-170 -235z" />
<glyph unicode="*" horiz-adv-x="746" d="M85 1178v119h106l132 -25l-95 94l-55 97l104 60l53 -90l38 -118l45 120l51 85l103 -55l-55 -91l-99 -102l145 25h102v-119h-97l-137 25l98 -102l49 -83l-100 -59l-56 89l-49 130l-40 -123l-53 -90l-107 59l58 90l89 89l-124 -25h-106z" />
<glyph unicode="+" horiz-adv-x="1075" d="M85 643v154h375v385h154v-385h374v-154h-374v-383h-154v383h-375z" />
<glyph unicode="," horiz-adv-x="478" d="M89 -234q77 30 114 92.5t37 126.5q-18 -6 -35 -6q-43 0 -72 28.5t-29 84.5q0 50 34.5 82.5t87.5 32.5q65 0 106.5 -47t41.5 -136q0 -77 -21 -134.5t-55 -99.5t-74.5 -68.5t-81.5 -38.5z" />
<glyph unicode="-" horiz-adv-x="766" d="M126 535v158h515v-158h-515z" />
<glyph unicode="." horiz-adv-x="455" d="M104 98q0 57 33.5 90.5t88.5 33.5q57 0 91.5 -33t34.5 -91q0 -55 -34.5 -89.5t-91.5 -34.5q-55 0 -88.5 34.5t-33.5 89.5z" />
<glyph unicode="/" horiz-adv-x="752" d="M-79 -238l778 1754l134 -59l-778 -1755z" />
<glyph unicode="0" d="M92 746q0 383 124.5 576.5t362.5 193.5q258 0 374 -190t116 -580q0 -384 -124.5 -578t-365.5 -194q-253 0 -370 203t-117 569zM268 746q0 -139 18.5 -252.5t57 -196t96.5 -128t139 -45.5q163 0 238 150t75 472q0 136 -16 251t-53 198t-96.5 128t-147.5 45 q-160 0 -235.5 -151.5t-75.5 -470.5z" />
<glyph unicode="1" d="M149 1154l469 362h77v-1358h291v-158h-756v158h298v1031l21 126l-85 -101l-234 -168z" />
<glyph unicode="2" d="M132 0v61q47 49 113 122t137 161.5t140.5 187t126 201t90.5 202.5t34 189q0 104 -59.5 174t-181.5 70q-81 0 -157.5 -33.5t-132.5 -76.5l-69 122q75 64 176.5 100t219.5 36q91 0 161.5 -26.5t119.5 -75t74.5 -116t25.5 -146.5q0 -113 -41.5 -231t-108.5 -237t-150 -233 t-166 -217l-104 -92v-8l136 24h464v-158h-848z" />
<glyph unicode="3" d="M187 28l45 151q49 -24 116 -39.5t150 -15.5q73 0 135 21t106.5 63t70 99t25.5 126q0 148 -88.5 220.5t-244.5 72.5h-157v62l307 472l98 95l-138 -22h-423v158h761v-62l-338 -509l-75 -62v-4l72 15q86 -2 158 -31t125 -83t83.5 -130t30.5 -172q0 -115 -40.5 -204 t-110 -150t-163.5 -93t-198 -32q-96 0 -172.5 15t-134.5 39z" />
<glyph unicode="4" d="M43 458v70l707 986h114v-907h252v-149h-252v-458h-165v458h-656zM236 590l150 17h313v464l21 175h-7l-74 -145l-300 -406z" />
<glyph unicode="5" d="M164 17l45 145q49 -18 105 -28t139 -10q147 0 243 85t96 247q0 156 -94.5 232t-260.5 76l-179 -10v737h664v-158h-505v-424l92 5q211 -2 332.5 -117.5t121.5 -329.5q0 -120 -40.5 -212.5t-109.5 -154.5t-163 -94t-201 -32q-95 0 -161 11t-124 32z" />
<glyph unicode="6" d="M128 500q0 211 54 389t150 310t227.5 214.5t283.5 102.5l37 -136q-120 -21 -217.5 -80.5t-171.5 -147t-121 -196t-63 -223.5q34 57 114.5 105t198.5 48q201 0 314.5 -115t113.5 -322q0 -97 -30 -183.5t-87 -151.5t-142.5 -102.5t-194.5 -37.5q-106 0 -191.5 34.5 t-147.5 101.5t-94.5 164.5t-32.5 225.5zM294 479q0 -65 18 -129.5t56.5 -114.5t95 -80.5t132.5 -30.5q61 0 111.5 23.5t87 64t57 98t20.5 123.5q0 150 -71 227t-218 77q-104 0 -179.5 -51.5t-105.5 -114.5q-4 -30 -4 -49.5v-42.5z" />
<glyph unicode="7" d="M130 1333v158h890v-58l-613 -1433h-173l535 1248l93 104l-125 -19h-607z" />
<glyph unicode="8" d="M145 356q0 134 70 233t220 180q-53 32 -99 67.5t-81.5 80t-55.5 99.5t-20 128q0 83 28.5 151t83 117t130 76.5t171.5 27.5q89 0 162 -25.5t123 -70t77.5 -106.5t27.5 -136q0 -121 -55 -213.5t-183 -182.5q55 -32 105 -70.5t87 -85.5t58.5 -105.5t21.5 -132.5 q0 -92 -29.5 -167.5t-87.5 -130t-141 -85.5t-189 -31q-102 0 -181 30t-133 81t-82 120.5t-28 150.5zM311 376q0 -50 17 -97t51 -81t84.5 -54t115.5 -20q53 0 102 16t86.5 46.5t60 78.5t22.5 111q0 64 -25.5 112.5t-67 88t-95 71t-111.5 61.5q-130 -73 -185 -162t-55 -171z M345 1148q0 -59 23.5 -105.5t63 -82t90.5 -67t106 -58.5q96 75 141.5 147.5t45.5 159.5q0 108 -67 167t-160 59q-58 0 -102.5 -19.5t-77 -49t-48 -69t-15.5 -82.5z" />
<glyph unicode="9" d="M110 1039q0 102 30.5 190t87.5 152t143.5 99.5t201.5 35.5q217 0 338.5 -140t121.5 -396q0 -241 -54 -420.5t-150 -303.5t-227 -193t-285 -89l-38 136q123 19 222.5 72.5t171 134.5t116 184.5t61.5 224.5q-58 -69 -127 -95t-182 -26q-88 0 -165.5 28.5t-137 84t-94 136.5 t-34.5 185zM287 1057q0 -151 80 -227t210 -76q104 0 179 34.5t106 89.5q4 28 4.5 48.5t0.5 44.5q0 77 -18 148.5t-54.5 127.5t-95 88.5t-136.5 32.5q-130 0 -203 -82.5t-73 -228.5z" />
<glyph unicode=":" horiz-adv-x="465" d="M193 98q0 57 33.5 90.5t88.5 33.5q57 0 91.5 -33t34.5 -91q0 -55 -34.5 -89.5t-91.5 -34.5q-55 0 -88.5 34.5t-33.5 89.5zM193 957q0 57 33.5 90t88.5 33q57 0 91.5 -33t34.5 -90q0 -55 -34.5 -89.5t-91.5 -34.5q-55 0 -88.5 34.5t-33.5 89.5z" />
<glyph unicode=";" horiz-adv-x="544" d="M175 -234q77 30 114 92.5t37 126.5q-19 -6 -36 -6q-42 0 -71.5 28.5t-29.5 84.5q0 50 34.5 82.5t87.5 32.5q65 0 107 -47t42 -136q0 -77 -21.5 -134.5t-55.5 -99.5t-74.5 -68.5t-80.5 -38.5zM205 957q0 57 32.5 90t88.5 33q57 0 91 -33t34 -90q0 -55 -33.5 -89.5 t-91.5 -34.5q-56 0 -88.5 34.5t-32.5 89.5z" />
<glyph unicode="&#x3c;" horiz-adv-x="1075" d="M89 650v61l805 492l82 -132l-505 -309l-194 -81l192 -67l517 -307l-81 -128z" />
<glyph unicode="=" horiz-adv-x="1075" d="M85 467v153h903v-153h-903zM85 820v153h903v-153h-903z" />
<glyph unicode="&#x3e;" horiz-adv-x="1075" d="M89 1073l82 130l815 -470v-62l-805 -492l-81 130l505 309l194 81l-192 67z" />
<glyph unicode="?" horiz-adv-x="927" d="M79 1410q81 49 170.5 77.5t221.5 28.5q94 0 165 -26.5t119 -73t71.5 -110.5t23.5 -137q0 -96 -29 -167t-72.5 -130t-93.5 -110t-93.5 -107.5t-72.5 -122t-29 -156.5h-141q-2 11 -2 24v24q0 90 26.5 158t66 124t85.5 105t85.5 99.5t66 106.5t26.5 129q0 98 -56 160 t-189 62q-76 0 -155.5 -26.5t-136.5 -63.5zM277 98q0 57 33 90.5t88 33.5q58 0 92 -33t34 -91q0 -55 -34 -89.5t-92 -34.5q-55 0 -88 34.5t-33 89.5z" />
<glyph unicode="@" horiz-adv-x="2266" d="M185 502q0 232 80 420t216.5 320t317.5 203t383 71q192 0 355.5 -56t284.5 -161.5t190 -258t69 -345.5q0 -137 -47 -261.5t-127 -218t-186.5 -150.5t-224.5 -57q-90 0 -143.5 38.5t-53.5 142.5q0 19 2 42t6 48h-8q-30 -49 -70 -97t-90 -86.5t-106.5 -63t-118.5 -24.5 q-51 0 -98 22.5t-81 65t-54.5 101.5t-20.5 133q0 136 45 268t120.5 234.5t176.5 165.5t214 63q79 0 125.5 -23.5t91.5 -57.5l73 66h73l-109 -611q-11 -55 -16 -99t-5 -78q0 -53 17.5 -77.5t62.5 -24.5q73 0 144 38t126.5 108t90.5 169.5t35 223.5q0 164 -55 289.5 t-155.5 211.5t-239 131t-304.5 45q-173 0 -324.5 -64t-263.5 -177t-177 -270.5t-65 -342.5q0 -189 58.5 -338.5t167 -252t260 -155.5t336.5 -53q61 0 140 13.5t144 45.5l42 -136q-95 -40 -176.5 -54t-174.5 -14q-198 0 -372 59.5t-302.5 176.5t-203.5 291t-75 401zM827 358 q0 -83 33.5 -141.5t123.5 -58.5q42 0 88 27.5t90.5 75.5t85.5 107.5t73 121.5l63 347q-36 43 -72 59t-91 16q-83 0 -156 -50.5t-125 -130t-82.5 -179t-30.5 -194.5z" />
<glyph unicode="A" horiz-adv-x="1245" d="M17 0l564 1514h81l567 -1514h-185l-154 413h-549l-150 -413h-174zM398 567h439l-166 453l-53 226h-2l-53 -230z" />
<glyph unicode="B" horiz-adv-x="1243" d="M181 10v1468q79 12 183.5 21t227.5 9q83 0 169.5 -14t156.5 -53t116 -110t46 -181q0 -53 -17 -108.5t-51 -103.5t-87 -84.5t-126 -54.5v-9q63 -10 122 -36t103.5 -70.5t72 -108t27.5 -151.5q0 -115 -47.5 -199.5t-125 -137.5t-178 -78.5t-204.5 -25.5h-85.5t-102 3.5 t-106.5 8.5t-94 15zM358 151q14 -4 42 -6.5t60 -4.5t66 -3t60 -1q68 0 132 16t113 51t77.5 86.5t28.5 121.5q0 87 -35 140.5t-91.5 83.5t-126.5 40t-141 10h-185v-534zM358 835h111q36 0 87 2t85 6q51 17 96 41.5t80 58t55 77t20 94.5q0 71 -26.5 116.5t-71 73t-102.5 39.5 t-117 12q-71 0 -129 -3.5t-88 -9.5v-507z" />
<glyph unicode="C" horiz-adv-x="1215" d="M120 746q0 209 56 354.5t148.5 238t208 135t233.5 42.5q128 0 209.5 -13.5t138.5 -37.5l-43 -155q-102 49 -291 49q-87 0 -172.5 -32t-152.5 -104.5t-107.5 -189.5t-40.5 -287q0 -153 38.5 -268.5t105.5 -192t157.5 -115t196.5 -38.5q96 0 167.5 19.5t120.5 49.5l43 -140 q-64 -49 -162 -68t-210 -19q-134 0 -251 46t-204 140t-138 239.5t-51 346.5z" />
<glyph unicode="D" horiz-adv-x="1392" d="M181 -2v1493q41 7 90.5 10t104.5 4t107 2t96 1q179 0 310 -55.5t216.5 -154.5t127 -237.5t41.5 -304.5q0 -151 -39.5 -290.5t-125 -247.5t-221.5 -172.5t-330 -64.5q-34 0 -88.5 1t-111.5 4.5t-106 5.5t-71 6zM358 147q10 -2 40 -3.5t62 -2.5t61.5 -2t41.5 -1 q148 0 249.5 51t162 137.5t86 198t25.5 231.5q0 104 -23.5 209.5t-80.5 191t-154.5 139.5t-244.5 54h-60.5t-64.5 -2t-59 -4t-41 -4v-1193z" />
<glyph unicode="E" horiz-adv-x="1140" d="M181 0v1491h811v-158h-634v-487h581v-158h-581v-530h646v-158h-823z" />
<glyph unicode="F" horiz-adv-x="1100" d="M181 0v1491h811v-158h-634v-508h592v-158h-592v-667h-177z" />
<glyph unicode="G" horiz-adv-x="1303" d="M120 746q0 207 59 353.5t155.5 239t215.5 135t238 42.5q128 0 211 -13.5t141 -37.5l-45 -155q-102 49 -292 49q-90 0 -178 -31t-158.5 -103.5t-115 -189.5t-44.5 -289q0 -158 36.5 -273t101 -190.5t156.5 -113t200 -37.5q136 0 232 53v416l-350 42v101h502v-657 q-35 -26 -82.5 -47t-102.5 -35.5t-113 -22.5t-114 -8q-143 0 -262 46t-206.5 141t-136 240.5t-48.5 344.5z" />
<glyph unicode="H" horiz-adv-x="1431" d="M181 0v1491h177v-650h715v650h177v-1491h-177v683h-715v-683h-177z" />
<glyph unicode="I" horiz-adv-x="618" d="M222 0v1491h176v-1491h-176z" />
<glyph unicode="J" horiz-adv-x="618" d="M-73 12l35 152q59 -28 130 -28q89 0 117.5 63t28.5 171v1121h177v-1163q0 -171 -75.5 -260t-229.5 -89q-16 0 -41.5 2t-51 6.5t-50 10.5t-40.5 14z" />
<glyph unicode="K" horiz-adv-x="1298" d="M181 0v1491h177v-694l95 30l502 664h204l-499 -641l-89 -70l108 -85l546 -695h-223l-544 691h-100v-691h-177z" />
<glyph unicode="L" horiz-adv-x="1100" d="M181 0v1491h177v-1333h705v-158h-882z" />
<glyph unicode="M" horiz-adv-x="1683" d="M181 0v1491h132l467 -763l70 -165h4l66 170l446 758h138v-1491h-177v1002l21 223h-11l-81 -205l-387 -673h-54l-410 675l-77 203h-11l30 -221v-1004h-166z" />
<glyph unicode="N" horiz-adv-x="1433" d="M181 0v1514h94l713 -994l111 -205h11l-24 205v971h166v-1515h-93l-710 1000l-114 215h-9l21 -215v-976h-166z" />
<glyph unicode="O" horiz-adv-x="1456" d="M120 746q0 372 157.5 571t448.5 199q158 0 273 -55t191 -156.5t111.5 -243t35.5 -315.5q0 -373 -158.5 -572.5t-452.5 -199.5q-156 0 -269.5 55.5t-189.5 156.5t-111.5 243t-35.5 317zM307 746q0 -124 24.5 -235t75.5 -195t131 -134t188 -50q198 0 311 150.5t113 463.5 q0 121 -24.5 233t-77 195.5t-132 134t-190.5 50.5q-196 0 -307.5 -150t-111.5 -463z" />
<glyph unicode="P" horiz-adv-x="1189" d="M181 0v1476q81 18 174.5 25t185.5 7q98 0 199 -19t184.5 -70t135.5 -140.5t52 -228.5q0 -136 -49 -230t-130 -152.5t-185.5 -84t-215.5 -25.5h-34.5t-51.5 1.5t-52.5 3.5t-35.5 4v-567h-177zM358 724q10 -4 33.5 -5t49.5 -2t49.5 -1h33.5q73 0 144 14t128.5 49.5 t93 101.5t35.5 169q0 88 -33.5 146t-87.5 93.5t-122 50.5t-137 15q-55 0 -106 -2.5t-81 -10.5v-618z" />
<glyph unicode="Q" horiz-adv-x="1456" d="M120 746q0 372 157.5 571t448.5 199q158 0 273 -55t191 -156.5t111.5 -243t35.5 -315.5q0 -373 -158.5 -572.5t-452.5 -199.5q-156 0 -269.5 55.5t-189.5 156.5t-111.5 243t-35.5 317zM307 746q0 -124 24.5 -235t75.5 -195t131 -134t188 -50q198 0 311 150.5t113 463.5 q0 121 -24.5 233t-77 195.5t-132 134t-190.5 50.5q-196 0 -307.5 -150t-111.5 -463zM451 -104q31 6 58.5 10.5t57.5 4.5q89 0 177.5 -22.5t180 -49t187 -49t203.5 -22.5q93 0 185 21v-153q-51 -15 -100.5 -20.5t-98.5 -5.5q-106 0 -207.5 22.5t-196 49t-182 48.5t-166.5 22 q-51 0 -98 -12v156z" />
<glyph unicode="R" horiz-adv-x="1266" d="M181 0v1476q81 14 186.5 23t193.5 9q97 0 185.5 -21.5t155.5 -70t107.5 -127.5t40.5 -192q0 -175 -96 -283.5t-243 -144.5l102 -79l372 -590h-207l-411 643l-209 32v-675h-177zM358 792h166q147 0 242.5 72.5t95.5 226.5q0 115 -78.5 189.5t-218.5 74.5h-58t-57.5 -2.5 t-52.5 -4.5t-39 -6v-550z" />
<glyph unicode="S" horiz-adv-x="1130" d="M98 53l60 160q49 -28 144.5 -54.5t215.5 -26.5q71 0 132 14t106 45t71.5 78t26.5 111q0 89 -53 145t-133 100t-174 82.5t-174 92.5t-133 134t-53 204q0 174 121 276t346 102q130 0 236 -19t167 -48l-54 -156q-49 24 -144 45t-214 21q-141 0 -211 -63t-70 -148 q0 -83 53 -138t133 -99t173.5 -86.5t174 -99t133.5 -135t53 -196.5q0 -96 -34 -172.5t-100 -132t-160 -85.5t-213 -30q-160 0 -264 25t-162 54z" />
<glyph unicode="T" horiz-adv-x="1181" d="M38 1333v158h1106v-158h-465v-1333h-177v1333h-464z" />
<glyph unicode="U" horiz-adv-x="1388" d="M181 462v1029h177v-946q0 -113 22 -190.5t67 -125.5t112 -69.5t157 -21.5q172 0 246.5 95t74.5 312v946h170v-995q0 -134 -34.5 -232t-99.5 -160.5t-156.5 -92.5t-203.5 -30q-264 0 -398 119t-134 362z" />
<glyph unicode="V" horiz-adv-x="1209" d="M-4 1491h193l380 -1024l51 -227h2l55 231l360 1020h177l-564 -1515h-79z" />
<glyph unicode="W" horiz-adv-x="1762" d="M17 1491h188l268 -999l33 -247h3l36 251l307 995h85l309 -999l36 -247h2l39 251l251 995h172l-415 -1515h-98l-302 1000l-39 225h-10l-39 -228l-302 -997h-98z" />
<glyph unicode="X" horiz-adv-x="1315" d="M55 0l496 758l-453 733h213l303 -505l53 -122l51 122l319 505h196l-469 -718l490 -773h-206l-337 535l-57 127l-56 -127l-344 -535h-199z" />
<glyph unicode="Y" horiz-adv-x="1187" d="M17 1491h207l349 -652l36 -130h3l38 134l334 648h189l-488 -897v-594h-176v592z" />
<glyph unicode="Z" d="M81 0v160l752 1088l89 85h-841v158h1001v-160l-756 -1095l-90 -78h846v-158h-1001z" />
<glyph unicode="[" horiz-adv-x="646" d="M181 -490v1981h386v-149h-220v-1683h220v-149h-386z" />
<glyph unicode="\" horiz-adv-x="809" d="M-79 1457l142 59l787 -1752l-141 -62z" />
<glyph unicode="]" horiz-adv-x="646" d="M81 -341h222v1683h-222v149h388v-1981h-388v149z" />
<glyph unicode="^" horiz-adv-x="1064" d="M102 927l396 587h63l359 -587h-174l-171 287l-49 147l-66 -149l-196 -285h-162z" />
<glyph unicode="_" horiz-adv-x="868" d="M0 -287h869v-150h-869v150z" />
<glyph unicode="`" horiz-adv-x="595" d="M128 1489v45h202l139 -318h-97z" />
<glyph unicode="a" horiz-adv-x="1055" d="M83 285q0 94 38.5 156.5t107.5 100t166 54t214 16.5h59.5t57.5 -5q6 64 7 115q0 117 -47 164t-170 47q-37 0 -78.5 -5.5t-85 -15t-83 -23t-68.5 -31.5l-54 128q81 49 188.5 72.5t225.5 23.5q110 0 177 -30t102.5 -77.5t47 -105.5t11.5 -115q0 -128 -6.5 -249t-6.5 -230 q0 -79 6.5 -149.5t23.5 -129.5h-126l-44 149h-11q-18 -31 -47.5 -59.5t-70 -51t-93.5 -37t-122 -14.5q-68 0 -126.5 21.5t-101 60.5t-67 94.5t-24.5 125.5zM260 303q0 -75 53 -123t136 -48q60 0 107 16t81 40.5t56.5 54t32.5 58.5v176q-30 2 -61 3.5t-60 1.5 q-65 0 -128.5 -7.5t-111.5 -28t-76.5 -55.5t-28.5 -88z" />
<glyph unicode="b" horiz-adv-x="1149" d="M164 61v1430h171v-530h8q49 61 124.5 95.5t164.5 34.5q207 0 310.5 -132t103.5 -410q0 -279 -136.5 -423.5t-383.5 -144.5q-119 0 -216 25.5t-146 54.5zM335 177q40 -24 97.5 -35.5t118.5 -11.5q145 0 231.5 102.5t86.5 318.5q0 83 -15 156t-47 124t-81.5 80.5 t-122.5 29.5q-106 0 -172.5 -59t-95.5 -169v-536z" />
<glyph unicode="c" horiz-adv-x="959" d="M104 532q0 271 119.5 415t343.5 144q102 0 173 -16t129 -46l-49 -147q-49 28 -108.5 43.5t-128.5 15.5q-302 0 -302 -409q0 -81 16 -154t53.5 -130t98 -90.5t149.5 -33.5q77 0 138 23.5t99 53.5l55 -130q-63 -47 -150.5 -72t-183.5 -25q-123 0 -208.5 39.5t-140 113.5 t-79 177t-24.5 228z" />
<glyph unicode="d" horiz-adv-x="1145" d="M104 528q0 273 129 414.5t355 141.5q79 0 124.5 -8.5t98.5 -27.5v443h171v-1125q0 -108 2 -196.5t20 -173.5h-116l-42 151h-9q-42 -75 -123.5 -124t-189.5 -49q-213 0 -316.5 134t-103.5 420zM281 528q0 -87 14 -161.5t45.5 -128t83.5 -84t127 -30.5q108 0 172.5 56 t87.5 172v528q-38 30 -87 42.5t-130 12.5q-147 0 -230 -96.5t-83 -310.5z" />
<glyph unicode="e" horiz-adv-x="1081" d="M104 532q0 273 121.5 416t347.5 143q73 0 145 -16t129.5 -61t94 -127t36.5 -216q0 -71 -13 -155h-684q0 -94 19 -166.5t59.5 -122.5t105.5 -76.5t159 -26.5q73 0 145 25.5t109 59.5l63 -124q-63 -51 -160.5 -81t-205.5 -30q-122 0 -211 39.5t-146.5 113.5t-85.5 176 t-28 229zM283 650h528q0 162 -61.5 226.5t-174.5 64.5q-126 0 -201.5 -66t-90.5 -225z" />
<glyph unicode="f" horiz-adv-x="679" d="M47 916v149h166v59q0 98 16 171t52 118.5t94 68t143 22.5q69 0 121 -8.5t109 -32.5l-39 -142q-49 21 -92.5 27.5t-81.5 6.5q-56 0 -87 -17t-44.5 -50.5t-16.5 -81t-3 -111.5v-30h283v-149h-283v-916h-171v916h-166z" />
<glyph unicode="g" horiz-adv-x="1142" d="M104 528q0 273 130 414.5t384 141.5q121 0 207.5 -19t154.5 -45v-1069q0 -207 -110 -304.5t-325 -97.5q-128 0 -205.5 16t-132.5 41l45 144q49 -18 108 -35.5t156 -17.5q89 0 145.5 16.5t90.5 53.5t46.5 95.5t12.5 139.5v102h-8q-43 -61 -109 -94.5t-172 -33.5 q-215 0 -316.5 134.5t-101.5 417.5zM281 530q0 -89 15 -163.5t46.5 -128t82.5 -83t126 -29.5q108 0 170.5 54t87.5 169v545q-85 41 -217 41q-145 0 -228 -98t-83 -307z" />
<glyph unicode="h" horiz-adv-x="1164" d="M164 0v1491h171v-546h8q55 66 132.5 106t193.5 40q89 0 155 -20.5t110 -72t64 -137.5t20 -218v-643h-170v607q0 84 -9.5 146t-35 104t-69 63t-114.5 21q-100 0 -181 -65t-104 -167v-709h-171z" />
<glyph unicode="i" horiz-adv-x="569" d="M164 1388q0 49 33 84.5t84 35.5t87.5 -35.5t36.5 -84.5q0 -48 -36.5 -80t-87.5 -32t-84 32t-33 80zM201 0v1065h169v-1065h-169z" />
<glyph unicode="j" horiz-adv-x="567" d="M19 -303q59 0 94.5 18.5t54.5 57t24.5 96.5t5.5 137v1059h170v-1122q0 -198 -68 -296t-217 -98q-16 0 -31.5 1t-32.5 3v144zM162 1388q0 49 33 84.5t84 35.5t87 -35.5t36 -84.5q0 -48 -36 -80t-87 -32t-84 32t-33 80z" />
<glyph unicode="k" horiz-adv-x="1019" d="M164 0v1491h171v-908l87 31l330 451h198l-326 -429l-87 -69l106 -85l356 -482h-211l-355 479h-98v-479h-171z" />
<glyph unicode="l" horiz-adv-x="621" d="M183 213v1278h171v-1229q0 -75 25.5 -106.5t71.5 -31.5q28 0 60 4t72 19l20 -135q-34 -16 -95 -27t-106 -11q-95 0 -157 54.5t-62 184.5z" />
<glyph unicode="m" horiz-adv-x="1728" d="M164 0v1065h119l32 -130h8q58 69 133.5 112.5t197.5 43.5q102 0 167 -39.5t101 -137.5q49 83 135.5 130t194.5 47q90 0 151.5 -20.5t102 -72t59 -138.5t18.5 -221v-639h-171v641q0 77 -7.5 133.5t-30 93.5t-61.5 55t-103 18q-107 0 -166.5 -59t-84.5 -171v-711h-171v603 q0 85 -7.5 147.5t-29 105.5t-60.5 64t-103 21q-98 0 -163 -59t-90 -149v-733h-171z" />
<glyph unicode="n" horiz-adv-x="1164" d="M164 0v1065h119l32 -130h8q51 69 137.5 112.5t206.5 43.5q87 0 153 -20.5t109.5 -72t66 -137.5t22.5 -218v-643h-170v607q0 167 -48 250.5t-176 83.5q-113 0 -186.5 -60.5t-102.5 -152.5v-728h-171z" />
<glyph unicode="o" horiz-adv-x="1140" d="M104 532q0 271 120.5 415t346.5 144q120 0 208 -39.5t145.5 -113.5t85 -177t27.5 -229q0 -270 -120 -414t-346 -144q-120 0 -208 39.5t-145.5 113.5t-85.5 177t-28 228zM281 532q0 -81 16 -155t50.5 -130t89.5 -89.5t134 -33.5h3q286 0 286 405q0 87 -16 161t-50 130 t-89 88.5t-134 32.5h-3q-287 0 -287 -409z" />
<glyph unicode="p" horiz-adv-x="1151" d="M164 -426v1491h117l32 -128h8q49 75 127 114.5t178 39.5q213 0 317.5 -126t104.5 -412q0 -134 -35 -241t-99 -182t-154.5 -115.5t-201.5 -40.5q-79 0 -124.5 10t-98.5 33v-443h-171zM335 185q38 -30 87 -45.5t129 -15.5q147 0 234 109.5t87 322.5q0 88 -15.5 159 t-48.5 121t-85 77.5t-129 27.5q-108 0 -171 -56t-88 -172v-528z" />
<glyph unicode="q" horiz-adv-x="1142" d="M104 528q0 275 132 415.5t386 140.5q113 0 212 -21.5t146 -44.5v-1444h-171v532h-8q-43 -63 -108 -97.5t-171 -34.5q-213 0 -315.5 135.5t-102.5 418.5zM281 530q0 -89 15 -164.5t46.5 -129t82.5 -83t126 -29.5q108 0 170.5 55t87.5 170v545q-79 41 -217 41 q-147 0 -229 -99t-82 -306z" />
<glyph unicode="r" horiz-adv-x="723" d="M164 0v1065h119l32 -130h8q41 73 97.5 112t144.5 39q61 0 138 -21l-36 -164q-64 20 -122 21q-92 0 -145 -49.5t-65 -126.5v-746h-171z" />
<glyph unicode="s" horiz-adv-x="896" d="M83 53l51 145q49 -28 128 -51t160 -23q92 0 151 36.5t59 129.5q0 64 -38 100t-94.5 60.5t-123.5 47t-123.5 57.5t-94.5 90.5t-38 149.5q0 152 87 224t242 72q116 0 193.5 -20.5t135.5 -48.5l-41 -140q-49 24 -118.5 41.5t-147.5 17.5q-93 0 -137 -31.5t-44 -110.5 q0 -55 38 -86.5t94.5 -56t124 -47.5t123.5 -61.5t94.5 -97t38.5 -154.5q0 -68 -22.5 -128t-69 -102t-116 -67t-162.5 -25q-122 0 -207.5 23.5t-142.5 55.5z" />
<glyph unicode="t" horiz-adv-x="721" d="M24 916v149h165v211l171 49v-260h290v-149h-290v-590q0 -111 27.5 -156.5t94.5 -45.5q55 0 93.5 11.5t84.5 30.5l39 -130q-57 -28 -126 -45t-147 -17q-130 0 -183.5 74t-53.5 246v622h-165z" />
<glyph unicode="u" horiz-adv-x="1147" d="M147 422v643h170v-607q0 -84 10 -146t33.5 -104t63.5 -63t102 -21q57 0 102 18t80.5 50t62 73.5t42.5 88.5v711h171v-762q0 -77 5 -159.5t19 -143.5h-118l-42 168h-11q-49 -83 -132 -138.5t-211 -55.5q-85 0 -150 20.5t-109 72t-66 137.5t-22 218z" />
<glyph unicode="v" horiz-adv-x="1026" d="M19 1065h196l256 -624l59 -203h2l54 207l239 620h183l-455 -1089h-71z" />
<glyph unicode="w" horiz-adv-x="1565" d="M17 1065h186l210 -620l36 -207h2l51 211l228 616h124l245 -622l53 -205h4l41 209l189 618h163l-358 -1089h-83l-279 703l-41 175h-6l-43 -177l-268 -701h-83z" />
<glyph unicode="x" horiz-adv-x="1096" d="M59 0l384 545l-358 520h209l202 -294l60 -121l62 121l207 294h191l-360 -512l381 -553h-202l-226 323l-64 128l-66 -128l-229 -323h-191z" />
<glyph unicode="y" horiz-adv-x="992" d="M26 1065h196l255 -691l60 -203h10l47 205l207 689h172l-315 -957q-36 -104 -71.5 -201.5t-77.5 -174.5t-95.5 -123t-123.5 -46q-77 0 -126 22l29 147q29 -11 55 -11q59 0 114 63t91 216z" />
<glyph unicode="z" horiz-adv-x="951" d="M89 0v149l492 678l90 89h-582v149h759v-149l-496 -684l-88 -83h584v-149h-759z" />
<glyph unicode="{" horiz-adv-x="736" d="M122 426v149q81 0 125.5 42.5t44.5 136.5v516q0 100 50 161.5t152 61.5h181v-149h-106q-57 0 -84 -29t-27 -97v-505q0 -93 -45 -142t-104 -59v-14q57 -8 103 -65t46 -146v-502q0 -66 25.5 -96t87.5 -30h104v-149h-181q-96 0 -149 57t-53 165v506q0 108 -44.5 148 t-125.5 40z" />
<glyph unicode="|" horiz-adv-x="506" d="M181 -277v1768h145v-1768h-145z" />
<glyph unicode="}" horiz-adv-x="736" d="M118 -341h106q57 0 84 29t27 97v505q0 94 43.5 143t103.5 59v12q-58 9 -102.5 65.5t-44.5 146.5v502q0 65 -26 95.5t-85 30.5h-106v149h183q93 0 146 -56.5t53 -164.5v-508q0 -108 45 -147.5t126 -39.5v-149q-81 0 -126 -42.5t-45 -135.5v-516q0 -100 -50 -162t-152 -62 h-180v149z" />
<glyph unicode="~" horiz-adv-x="1075" d="M66 769q91 70 166 97.5t136 27.5q59 0 110.5 -18t98.5 -40.5t91.5 -40t93.5 -17.5q41 0 83.5 16.5t91.5 59.5l73 -130q-81 -55 -146 -77.5t-118 -22.5q-58 0 -106 18t-92 40.5t-87.5 41t-94.5 18.5q-49 0 -104 -22.5t-124 -78.5z" />
<glyph unicode="&#xa1;" horiz-adv-x="646" d="M164 965q0 57 33 90.5t88 33.5q57 0 91.5 -33.5t34.5 -90.5q0 -55 -34 -89.5t-92 -34.5q-55 0 -88 34.5t-33 89.5zM198 313l36 375h105l35 -375v-739h-176v739z" />
<glyph unicode="&#xa2;" d="M185 532q0 246 101.5 387.5t288.5 164.5v194h151v-189q75 -4 132.5 -20.5t104.5 -39.5l-49 -145q-42 21 -95 36t-108 19v-815q69 4 124 26.5t92 50.5l55 -130q-51 -37 -116 -59t-140 -31v-194h-151v192q-106 11 -180 54.5t-120.5 114.5t-68 169t-21.5 215zM362 532 q0 -70 12 -135t39.5 -119t72 -92.5t110.5 -53.5v803q-234 -45 -234 -403z" />
<glyph unicode="&#xa3;" d="M106 0v153q69 0 116.5 25t78.5 64t46 89.5t15 101.5q0 70 -13.5 126.5t-35.5 107.5h-207v148h142q-26 55 -43.5 122t-17.5 156q0 209 119.5 316t325.5 107q130 0 226.5 -19t157.5 -48l-55 -152q-49 24 -131 43t-200 19q-128 0 -197 -69t-69 -187q0 -89 21.5 -157 t51.5 -131h343v-148h-280q17 -49 28 -102t11 -118q0 -63 -19.5 -130t-57.5 -110l-82 -71v-8l132 30h545v-158h-951z" />
<glyph unicode="&#xa5;" d="M4 1491h207l350 -652l35 -130h2l38 134l335 648h190l-433 -792h205v-128h-260v-152h260v-127h-260v-292h-177v292h-260v127h260v152h-260v128h201z" />
<glyph unicode="&#xa8;" horiz-adv-x="874" d="M128 1390q0 49 28.5 79.5t75.5 30.5t76 -30.5t29 -79.5q0 -44 -29 -74t-76 -30t-75.5 30t-28.5 74zM537 1390q0 49 28.5 79.5t75.5 30.5q49 0 78 -30.5t29 -79.5q0 -44 -28.5 -74t-78.5 -30q-47 0 -75.5 30t-28.5 74z" />
<glyph unicode="&#xa9;" horiz-adv-x="1715" d="M108 618q0 177 60 316t162.5 235.5t238.5 147.5t289 51t289.5 -51t239 -147.5t162 -235.5t59.5 -316t-59.5 -316.5t-162 -235.5t-238.5 -147t-290 -51q-171 0 -309 51t-236 147t-151.5 235.5t-53.5 316.5zM258 618q0 -147 47 -261.5t128 -191t190.5 -117t234.5 -40.5 q126 0 235.5 40.5t191 117t128 191t46.5 261.5q0 146 -46.5 260t-128 191t-191 117.5t-235.5 40.5t-235 -40.5t-190 -117.5t-128 -191t-47 -260zM500 618q0 193 97.5 298.5t256.5 105.5q38 0 69.5 -4t58 -11.5t52 -18t57.5 -23.5l-56 -130q-47 24 -89.5 32.5t-71.5 8.5 q-90 0 -146.5 -56t-56.5 -202q0 -124 55.5 -191t163.5 -69q100 0 171 38l45 -126q-49 -28 -110 -42.5t-142 -14.5q-173 0 -263.5 109t-90.5 296z" />
<glyph unicode="&#xaa;" horiz-adv-x="821" d="M102 1004q0 65 32 110t86.5 72.5t128 40.5t157.5 13q15 0 29 -1t30 -1q2 12 2 24v22q0 58 -25.5 81t-98.5 23q-85 0 -155.5 -15.5t-110.5 -37.5l-32 106q53 29 140 48t194 19q133 0 181.5 -55.5t48.5 -159.5q0 -81 -3 -155.5t-3 -143.5q0 -51 3 -97.5t14 -87.5h-117 l-28 98h-8q-28 -37 -79 -71.5t-143 -34.5q-110 0 -176.5 54t-66.5 149zM252 1014q0 -43 30.5 -68.5t85.5 -25.5q45 0 78 10.5t56.5 29t38.5 38.5t24 39v89q-24 2 -45.5 2h-44.5q-44 0 -85 -4t-72 -16.5t-48.5 -35t-17.5 -58.5z" />
<glyph unicode="&#xab;" horiz-adv-x="1017" d="M83 551l341 490l115 -91l-209 -309l-102 -88l102 -76l221 -302l-114 -94zM473 551l336 486l113 -90l-206 -306l-102 -88l102 -76l219 -300l-110 -92z" />
<glyph unicode="&#xad;" horiz-adv-x="766" d="M126 535v158h515v-158h-515z" />
<glyph unicode="&#xae;" horiz-adv-x="1490" d="M181 961q0 136 44.5 241t122.5 177t180 109t218 37q117 0 220 -37t180 -109t120.5 -177t43.5 -241t-44.5 -241.5t-122.5 -177t-180.5 -109t-216.5 -37.5q-120 0 -222 37.5t-179 109t-120.5 177t-43.5 241.5zM315 961q0 -110 34.5 -193t92.5 -137t137 -81.5t167 -27.5 q91 0 169.5 26.5t136.5 80.5t90.5 136.5t32.5 195.5q0 110 -33.5 192.5t-92.5 136.5t-136.5 82t-166.5 28q-94 0 -173 -28t-136 -82t-89.5 -136.5t-32.5 -192.5zM526 685v553q35 10 96 15t117 5q90 0 154 -36.5t64 -128.5q0 -69 -44 -105t-108 -41l59 -29l158 -233h-130 l-153 222l-103 32v-254h-110zM636 1004h73q62 0 96 18.5t34 66.5q0 74 -123 74q-24 0 -45 -1t-35 -8v-150z" />
<glyph unicode="&#xb2;" horiz-adv-x="838" d="M102 809v71q49 40 122.5 108t142 146.5t116 162t47.5 153.5q0 66 -42.5 99.5t-103.5 33.5q-57 0 -112 -20.5t-95 -46.5l-47 122q55 38 128.5 59.5t150.5 21.5q134 0 202 -66t68 -184q0 -65 -22.5 -127t-59 -122t-88 -118.5t-109.5 -117.5l-97 -68v-4l121 31h298v-134 h-620z" />
<glyph unicode="&#xb3;" horiz-adv-x="838" d="M142 835l33 128q36 -17 83 -29t102 -12q102 0 156.5 40.5t54.5 118.5q0 69 -49 111.5t-158 42.5h-116v49l205 247l73 58l-104 -14h-277v128h546v-69l-220 -263l-54 -38v-4l50 6q117 -2 185 -70t68 -184q0 -130 -95 -208.5t-253 -78.5q-77 0 -132 12.5t-98 28.5z" />
<glyph unicode="&#xb4;" horiz-adv-x="569" d="M128 1216l126 318h189v-45l-215 -273h-100z" />
<glyph unicode="&#xb8;" horiz-adv-x="610" d="M128 -435l19 83q12 -2 23 -2h21q47 0 74 8.5t40.5 20.5t17 27t3.5 28q0 59 -184 79l103 191h121l-51 -92q90 -16 129.5 -54.5t39.5 -105.5q0 -83 -68.5 -137t-191.5 -54q-24 0 -47.5 2t-48.5 6z" />
<glyph unicode="&#xb9;" horiz-adv-x="838" d="M113 1501l328 218h87v-780h202v-130h-577v130h227v541l14 77l-57 -60l-166 -101z" />
<glyph unicode="&#xba;" horiz-adv-x="847" d="M94 1154q0 96 25.5 164t69 113t104.5 65t131 20q71 0 131.5 -19t104 -61.5t69 -112t25.5 -169.5q0 -99 -25.5 -168.5t-69 -112t-104.5 -62t-131 -19.5t-131 19.5t-104.5 62t-69 112t-25.5 168.5zM252 1154q0 -128 45.5 -183t126.5 -55q41 0 72.5 11.5t54 38t34 72.5 t11.5 116q0 71 -11.5 117t-34 72.5t-54.5 38t-72 11.5q-81 0 -126.5 -50t-45.5 -189z" />
<glyph unicode="&#xbb;" horiz-adv-x="1017" d="M83 945l110 92l354 -466l-340 -486l-111 90l205 307l104 87l-104 77zM467 947l112 94l356 -470l-341 -490l-115 92l209 309l102 87l-102 77z" />
<glyph unicode="&#xbc;" horiz-adv-x="1782" d="M113 1289l328 217h89v-910h-148v672l14 76l-59 -60l-166 -99zM301 51l1036 1467l111 -73l-1037 -1471zM943 205v79l482 642h95v-595h177v-126h-177v-205h-142v205h-435zM1103 319l106 12h169v272l12 104h-4l-47 -98l-166 -223z" />
<glyph unicode="&#xbd;" horiz-adv-x="1809" d="M113 1289l328 217h89v-910h-148v672l14 76l-59 -60l-166 -99zM301 51l1036 1467l111 -73l-1037 -1471zM1106 0v71q49 40 122.5 108t142 146.5t116 162t47.5 153.5q0 66 -42.5 99.5t-103.5 33.5q-57 0 -112 -20.5t-95 -46.5l-47 122q55 38 128.5 59.5t150.5 21.5 q134 0 202 -66t68 -184q0 -65 -22.5 -127t-59 -122t-88 -118.5t-109.5 -117.5l-97 -68v-4l121 31h298v-134h-620z" />
<glyph unicode="&#xbe;" horiz-adv-x="1865" d="M161 622l33 128q36 -17 83 -29t102 -12q102 0 156.5 40.5t54.5 118.5q0 69 -49 111.5t-158 42.5h-116v49l205 247l73 58l-104 -14h-277v128h546v-69l-220 -263l-54 -38v-4l50 6q117 -2 185 -70t68 -184q0 -130 -95 -208.5t-253 -78.5q-77 0 -132 12.5t-98 28.5zM384 51 l1036 1467l111 -73l-1037 -1471zM1026 205v79l482 642h95v-595h177v-126h-177v-205h-142v205h-435zM1186 319l106 12h169v272l12 104h-4l-47 -98l-166 -223z" />
<glyph unicode="&#xbf;" horiz-adv-x="927" d="M79 -104q0 96 28.5 167t72.5 130t93.5 110t93.5 107.5t73 122t29 155.5h140q3 -10 3 -23v-24q0 -90 -27 -158t-66.5 -124t-85 -105t-85 -99.5t-66 -106.5t-26.5 -129q0 -98 56 -160t188 -62q77 0 156 26.5t136 63.5l58 -132q-81 -49 -170.5 -77.5t-221.5 -28.5 q-94 0 -165 26.5t-119 73t-71.5 109.5t-23.5 138zM407 967q0 57 33 90.5t88 33.5q58 0 92 -33.5t34 -90.5q0 -55 -34 -89.5t-92 -34.5q-55 0 -88 34.5t-33 89.5z" />
<glyph unicode="&#xc0;" horiz-adv-x="1245" d="M17 0l564 1514h81l567 -1514h-185l-154 413h-549l-150 -413h-174zM288 1809v44h242l252 -251h-158zM398 567h439l-166 453l-53 226h-2l-53 -230z" />
<glyph unicode="&#xc1;" horiz-adv-x="1245" d="M17 0l564 1514h81l567 -1514h-185l-154 413h-549l-150 -413h-174zM398 567h439l-166 453l-53 226h-2l-53 -230zM454 1602l252 251h242v-44l-347 -207h-147z" />
<glyph unicode="&#xc2;" horiz-adv-x="1245" d="M17 0l564 1514h81l567 -1514h-185l-154 413h-549l-150 -413h-174zM281 1591v47l283 215h128l270 -217v-45h-173l-127 104l-36 75l-40 -73l-137 -106h-168zM398 567h439l-166 453l-53 226h-2l-53 -230z" />
<glyph unicode="&#xc3;" horiz-adv-x="1245" d="M17 0l564 1514h81l567 -1514h-185l-154 413h-549l-150 -413h-174zM288 1672q65 69 122 93t108 24q40 0 78.5 -10.5t73.5 -24.5t69.5 -24.5t66.5 -10.5q55 0 106 45l53 -92q-57 -53 -108 -73t-96 -20q-40 0 -76.5 10.5t-72 24.5t-69.5 24t-68 10t-67 -13.5t-69 -49.5z M398 567h439l-166 453l-53 226h-2l-53 -230z" />
<glyph unicode="&#xc7;" horiz-adv-x="1215" d="M120 746q0 209 56 354.5t148.5 238t208 135t233.5 42.5q128 0 209.5 -13.5t138.5 -37.5l-43 -155q-102 49 -291 49q-87 0 -172.5 -32t-152.5 -104.5t-107.5 -189.5t-40.5 -287q0 -153 38.5 -268.5t105.5 -192t157.5 -115t196.5 -38.5q96 0 167.5 19.5t120.5 49.5l43 -140 q-55 -42 -136.5 -61t-176.5 -24l-37 -68q90 -16 129.5 -54.5t39.5 -105.5q0 -83 -69 -137t-191 -54q-24 0 -47.5 2t-49.5 6l20 83q12 -2 23 -2h21q47 0 73.5 8.5t40.5 20.5t17.5 27t3.5 28q0 59 -183 79l89 170q-124 9 -230.5 58.5t-185 143.5t-123 234.5t-44.5 330.5z" />
<glyph unicode="&#xc8;" horiz-adv-x="1140" d="M181 0v1491h811v-158h-634v-487h581v-158h-581v-530h646v-158h-823zM201 1809v44h242l252 -251h-158z" />
<glyph unicode="&#xc9;" horiz-adv-x="1140" d="M181 0v1491h811v-158h-634v-487h581v-158h-581v-530h646v-158h-823zM451 1602l252 251h242v-44l-347 -207h-147z" />
<glyph unicode="&#xca;" horiz-adv-x="1140" d="M181 0v1491h811v-158h-634v-487h581v-158h-581v-530h646v-158h-823zM232 1591v47l283 215h128l270 -217v-45h-173l-127 104l-36 75l-40 -73l-137 -106h-168z" />
<glyph unicode="&#xcd;" horiz-adv-x="618" d="M132 1602l252 251h242v-44l-347 -207h-147zM222 0v1491h176v-1491h-176z" />
<glyph unicode="&#xcf;" horiz-adv-x="618" d="M-4 1691q0 45 31.5 72.5t82.5 27.5q49 0 80.5 -27.5t31.5 -72.5q0 -43 -31 -70.5t-81 -27.5q-51 0 -82.5 27.5t-31.5 70.5zM222 0v1491h176v-1491h-176zM405 1691q0 45 30.5 72.5t80.5 27.5q51 0 82.5 -27.5t31.5 -72.5q0 -43 -31.5 -70.5t-82.5 -27.5q-49 0 -80 27.5 t-31 70.5z" />
<glyph unicode="&#xd1;" horiz-adv-x="1433" d="M181 0v1514h94l713 -994l111 -205h11l-24 205v971h166v-1515h-93l-710 1000l-114 215h-9l21 -215v-976h-166zM382 1672q65 69 122 93t108 24q40 0 78.5 -10.5t73.5 -24.5t69.5 -24.5t66.5 -10.5q55 0 106 45l53 -92q-57 -53 -108 -73t-96 -20q-40 0 -76.5 10.5t-72 24.5 t-69.5 24t-68 10t-67 -13.5t-69 -49.5z" />
<glyph unicode="&#xd2;" horiz-adv-x="1456" d="M120 746q0 372 157.5 571t448.5 199q158 0 273 -55t191 -156.5t111.5 -243t35.5 -315.5q0 -373 -158.5 -572.5t-452.5 -199.5q-156 0 -269.5 55.5t-189.5 156.5t-111.5 243t-35.5 317zM307 746q0 -124 24.5 -235t75.5 -195t131 -134t188 -50q198 0 311 150.5t113 463.5 q0 121 -24.5 233t-77 195.5t-132 134t-190.5 50.5q-196 0 -307.5 -150t-111.5 -463zM380 1809v44h242l252 -251h-158z" />
<glyph unicode="&#xd3;" horiz-adv-x="1456" d="M120 746q0 372 157.5 571t448.5 199q158 0 273 -55t191 -156.5t111.5 -243t35.5 -315.5q0 -373 -158.5 -572.5t-452.5 -199.5q-156 0 -269.5 55.5t-189.5 156.5t-111.5 243t-35.5 317zM307 746q0 -124 24.5 -235t75.5 -195t131 -134t188 -50q198 0 311 150.5t113 463.5 q0 121 -24.5 233t-77 195.5t-132 134t-190.5 50.5q-196 0 -307.5 -150t-111.5 -463zM632 1602l252 251h242v-44l-347 -207h-147z" />
<glyph unicode="&#xd4;" horiz-adv-x="1456" d="M120 746q0 372 157.5 571t448.5 199q158 0 273 -55t191 -156.5t111.5 -243t35.5 -315.5q0 -373 -158.5 -572.5t-452.5 -199.5q-156 0 -269.5 55.5t-189.5 156.5t-111.5 243t-35.5 317zM307 746q0 -124 24.5 -235t75.5 -195t131 -134t188 -50q198 0 311 150.5t113 463.5 q0 121 -24.5 233t-77 195.5t-132 134t-190.5 50.5q-196 0 -307.5 -150t-111.5 -463zM382 1591v47l283 215h128l270 -217v-45h-173l-127 104l-36 75l-40 -73l-137 -106h-168z" />
<glyph unicode="&#xd5;" horiz-adv-x="1456" d="M120 746q0 372 157.5 571t448.5 199q158 0 273 -55t191 -156.5t111.5 -243t35.5 -315.5q0 -373 -158.5 -572.5t-452.5 -199.5q-156 0 -269.5 55.5t-189.5 156.5t-111.5 243t-35.5 317zM307 746q0 -124 24.5 -235t75.5 -195t131 -134t188 -50q198 0 311 150.5t113 463.5 q0 121 -24.5 233t-77 195.5t-132 134t-190.5 50.5q-196 0 -307.5 -150t-111.5 -463zM388 1672q65 69 122 93t108 24q40 0 78.5 -10.5t73.5 -24.5t69.5 -24.5t66.5 -10.5q55 0 106 45l53 -92q-57 -53 -108 -73t-96 -20q-40 0 -76.5 10.5t-72 24.5t-69.5 24t-68 10t-67 -13.5 t-69 -49.5z" />
<glyph unicode="&#xda;" horiz-adv-x="1388" d="M181 462v1029h177v-946q0 -113 22 -190.5t67 -125.5t112 -69.5t157 -21.5q172 0 246.5 95t74.5 312v946h170v-995q0 -134 -34.5 -232t-99.5 -160.5t-156.5 -92.5t-203.5 -30q-264 0 -398 119t-134 362zM579 1602l252 251h242v-44l-347 -207h-147z" />
<glyph unicode="&#xdc;" horiz-adv-x="1388" d="M181 462v1029h177v-946q0 -113 22 -190.5t67 -125.5t112 -69.5t157 -21.5q172 0 246.5 95t74.5 312v946h170v-995q0 -134 -34.5 -232t-99.5 -160.5t-156.5 -92.5t-203.5 -30q-264 0 -398 119t-134 362zM380 1691q0 45 31.5 72.5t82.5 27.5q49 0 80.5 -27.5t31.5 -72.5 q0 -43 -31 -70.5t-81 -27.5q-51 0 -82.5 27.5t-31.5 70.5zM789 1691q0 45 30.5 72.5t80.5 27.5q51 0 82.5 -27.5t31.5 -72.5q0 -43 -31.5 -70.5t-82.5 -27.5q-49 0 -80 27.5t-31 70.5z" />
<glyph unicode="&#xe0;" horiz-adv-x="1055" d="M83 285q0 94 38.5 156.5t107.5 100t166 54t214 16.5h59.5t57.5 -5q6 64 7 115q0 117 -47 164t-170 47q-37 0 -78.5 -5.5t-85 -15t-83 -23t-68.5 -31.5l-54 128q81 49 188.5 72.5t225.5 23.5q110 0 177 -30t102.5 -77.5t47 -105.5t11.5 -115q0 -128 -6.5 -249t-6.5 -230 q0 -79 6.5 -149.5t23.5 -129.5h-126l-44 149h-11q-18 -31 -47.5 -59.5t-70 -51t-93.5 -37t-122 -14.5q-68 0 -126.5 21.5t-101 60.5t-67 94.5t-24.5 125.5zM260 303q0 -75 53 -123t136 -48q60 0 107 16t81 40.5t56.5 54t32.5 58.5v176q-30 2 -61 3.5t-60 1.5 q-65 0 -128.5 -7.5t-111.5 -28t-76.5 -55.5t-28.5 -88zM309 1489v45h202l139 -318h-97z" />
<glyph unicode="&#xe1;" horiz-adv-x="1055" d="M83 285q0 94 38.5 156.5t107.5 100t166 54t214 16.5h59.5t57.5 -5q6 64 7 115q0 117 -47 164t-170 47q-37 0 -78.5 -5.5t-85 -15t-83 -23t-68.5 -31.5l-54 128q81 49 188.5 72.5t225.5 23.5q110 0 177 -30t102.5 -77.5t47 -105.5t11.5 -115q0 -128 -6.5 -249t-6.5 -230 q0 -79 6.5 -149.5t23.5 -129.5h-126l-44 149h-11q-18 -31 -47.5 -59.5t-70 -51t-93.5 -37t-122 -14.5q-68 0 -126.5 21.5t-101 60.5t-67 94.5t-24.5 125.5zM260 303q0 -75 53 -123t136 -48q60 0 107 16t81 40.5t56.5 54t32.5 58.5v176q-30 2 -61 3.5t-60 1.5 q-65 0 -128.5 -7.5t-111.5 -28t-76.5 -55.5t-28.5 -88zM382 1216l126 318h189v-45l-215 -273h-100z" />
<glyph unicode="&#xe2;" horiz-adv-x="1055" d="M83 285q0 94 38.5 156.5t107.5 100t166 54t214 16.5h59.5t57.5 -5q6 64 7 115q0 117 -47 164t-170 47q-37 0 -78.5 -5.5t-85 -15t-83 -23t-68.5 -31.5l-54 128q81 49 188.5 72.5t225.5 23.5q110 0 177 -30t102.5 -77.5t47 -105.5t11.5 -115q0 -128 -6.5 -249t-6.5 -230 q0 -79 6.5 -149.5t23.5 -129.5h-126l-44 149h-11q-18 -31 -47.5 -59.5t-70 -51t-93.5 -37t-122 -14.5q-68 0 -126.5 21.5t-101 60.5t-67 94.5t-24.5 125.5zM248 1171l262 388h68l237 -388h-154l-83 141l-45 123l-47 -123l-96 -141h-142zM260 303q0 -75 53 -123t136 -48 q60 0 107 16t81 40.5t56.5 54t32.5 58.5v176q-30 2 -61 3.5t-60 1.5q-65 0 -128.5 -7.5t-111.5 -28t-76.5 -55.5t-28.5 -88z" />
<glyph unicode="&#xe3;" horiz-adv-x="1055" d="M83 285q0 94 38.5 156.5t107.5 100t166 54t214 16.5h59.5t57.5 -5q6 64 7 115q0 117 -47 164t-170 47q-37 0 -78.5 -5.5t-85 -15t-83 -23t-68.5 -31.5l-54 128q81 49 188.5 72.5t225.5 23.5q110 0 177 -30t102.5 -77.5t47 -105.5t11.5 -115q0 -128 -6.5 -249t-6.5 -230 q0 -79 6.5 -149.5t23.5 -129.5h-126l-44 149h-11q-18 -31 -47.5 -59.5t-70 -51t-93.5 -37t-122 -14.5q-68 0 -126.5 21.5t-101 60.5t-67 94.5t-24.5 125.5zM232 1397q61 70 112.5 96.5t94.5 26.5q36 0 67 -13.5t59.5 -29.5t55 -29t56.5 -13q47 0 98 52l51 -92 q-55 -62 -101 -84t-84 -22q-35 0 -64.5 13t-58 28.5t-57.5 29.5t-59 14q-28 0 -56.5 -15t-64.5 -52zM260 303q0 -75 53 -123t136 -48q60 0 107 16t81 40.5t56.5 54t32.5 58.5v176q-30 2 -61 3.5t-60 1.5q-65 0 -128.5 -7.5t-111.5 -28t-76.5 -55.5t-28.5 -88z" />
<glyph unicode="&#xe7;" horiz-adv-x="959" d="M104 532q0 271 119.5 415t343.5 144q102 0 173 -16t129 -46l-49 -147q-49 28 -108.5 43.5t-128.5 15.5q-302 0 -302 -409q0 -81 16 -154t53.5 -130t98 -89.5t149.5 -32.5q77 0 138 22.5t99 52.5l55 -130q-104 -75 -258 -92l-38 -71q89 -16 128.5 -54.5t39.5 -105.5 q0 -83 -68 -137t-192 -54q-24 0 -46.5 2t-48.5 6l19 83q13 -2 23.5 -2h21.5q47 0 73.5 8.5t40 20.5t17 27t3.5 28q0 59 -183 79l90 167q-111 6 -187.5 49.5t-126 115.5t-72 171t-22.5 220z" />
<glyph unicode="&#xe8;" horiz-adv-x="1081" d="M104 532q0 273 121.5 416t347.5 143q73 0 145 -16t129.5 -61t94 -127t36.5 -216q0 -71 -13 -155h-684q0 -94 19 -166.5t59.5 -122.5t105.5 -76.5t159 -26.5q73 0 145 25.5t109 59.5l63 -124q-63 -51 -160.5 -81t-205.5 -30q-122 0 -211 39.5t-146.5 113.5t-85.5 176 t-28 229zM283 650h528q0 162 -61.5 226.5t-174.5 64.5q-126 0 -201.5 -66t-90.5 -225zM362 1489v45h202l139 -318h-97z" />
<glyph unicode="&#xe9;" horiz-adv-x="1081" d="M104 532q0 273 121.5 416t347.5 143q73 0 145 -16t129.5 -61t94 -127t36.5 -216q0 -71 -13 -155h-684q0 -94 19 -166.5t59.5 -122.5t105.5 -76.5t159 -26.5q73 0 145 25.5t109 59.5l63 -124q-63 -51 -160.5 -81t-205.5 -30q-122 0 -211 39.5t-146.5 113.5t-85.5 176 t-28 229zM283 650h528q0 162 -61.5 226.5t-174.5 64.5q-126 0 -201.5 -66t-90.5 -225zM494 1216l126 318h189v-45l-215 -273h-100z" />
<glyph unicode="&#xea;" horiz-adv-x="1081" d="M104 532q0 273 121.5 416t347.5 143q73 0 145 -16t129.5 -61t94 -127t36.5 -216q0 -71 -13 -155h-684q0 -94 19 -166.5t59.5 -122.5t105.5 -76.5t159 -26.5q73 0 145 25.5t109 59.5l63 -124q-63 -51 -160.5 -81t-205.5 -30q-122 0 -211 39.5t-146.5 113.5t-85.5 176 t-28 229zM260 1171l262 388h68l237 -388h-154l-83 141l-45 123l-47 -123l-96 -141h-142zM283 650h528q0 162 -61.5 226.5t-174.5 64.5q-126 0 -201.5 -66t-90.5 -225z" />
<glyph unicode="&#xed;" horiz-adv-x="569" d="M201 0v1065h169v-1065h-169zM203 1216l126 318h189v-45l-215 -273h-100z" />
<glyph unicode="&#xef;" horiz-adv-x="569" d="M-25 1390q0 49 28.5 79.5t75.5 30.5t76 -30.5t29 -79.5q0 -44 -29 -74t-76 -30t-75.5 30t-28.5 74zM201 0v1065h169v-1065h-169zM384 1390q0 49 28.5 79.5t75.5 30.5q49 0 78 -30.5t29 -79.5q0 -44 -28.5 -74t-78.5 -30q-47 0 -75.5 30t-28.5 74z" />
<glyph unicode="&#xf1;" horiz-adv-x="1164" d="M164 0v1065h119l32 -130h8q51 69 137.5 112.5t206.5 43.5q87 0 153 -20.5t109.5 -72t66 -137.5t22.5 -218v-643h-170v607q0 167 -48 250.5t-176 83.5q-113 0 -186.5 -60.5t-102.5 -152.5v-728h-171zM286 1397q61 70 112.5 96.5t94.5 26.5q36 0 67 -13.5t59.5 -29.5 t55 -29t56.5 -13q47 0 98 52l51 -92q-55 -62 -101 -84t-84 -22q-35 0 -64.5 13t-58 28.5t-57.5 29.5t-59 14q-28 0 -56.5 -15t-64.5 -52z" />
<glyph unicode="&#xf2;" horiz-adv-x="1140" d="M104 532q0 271 120.5 415t346.5 144q120 0 208 -39.5t145.5 -113.5t85 -177t27.5 -229q0 -270 -120 -414t-346 -144q-120 0 -208 39.5t-145.5 113.5t-85.5 177t-28 228zM281 532q0 -81 16 -155t50.5 -130t89.5 -89.5t134 -33.5q290 -2 289 408q0 84 -15.5 158t-50 130 t-89.5 88.5t-134 32.5q-290 2 -290 -409zM335 1489v45h202l139 -318h-97z" />
<glyph unicode="&#xf3;" horiz-adv-x="1140" d="M104 532q0 271 120.5 415t346.5 144q120 0 208 -39.5t145.5 -113.5t85 -177t27.5 -229q0 -270 -120 -414t-346 -144q-120 0 -208 39.5t-145.5 113.5t-85.5 177t-28 228zM281 532q0 -81 16 -155t50.5 -130t89.5 -89.5t134 -33.5q290 -2 289 408q0 84 -15.5 158t-50 130 t-89.5 88.5t-134 32.5q-290 2 -290 -409zM484 1216l126 318h189v-45l-215 -273h-100z" />
<glyph unicode="&#xf4;" horiz-adv-x="1140" d="M104 532q0 271 120.5 415t346.5 144q120 0 208 -39.5t145.5 -113.5t85 -177t27.5 -229q0 -270 -120 -414t-346 -144q-120 0 -208 39.5t-145.5 113.5t-85.5 177t-28 228zM281 532q0 -81 16 -155t50.5 -130t89.5 -89.5t134 -33.5q290 -2 289 408q0 84 -15.5 158t-50 130 t-89.5 88.5t-134 32.5q-290 2 -290 -409zM288 1171l262 388h68l237 -388h-154l-83 141l-45 123l-47 -123l-96 -141h-142z" />
<glyph unicode="&#xf5;" horiz-adv-x="1140" d="M104 532q0 271 120.5 415t346.5 144q120 0 208 -39.5t145.5 -113.5t85 -177t27.5 -229q0 -270 -120 -414t-346 -144q-120 0 -208 39.5t-145.5 113.5t-85.5 177t-28 228zM275 1397q61 70 112.5 96.5t94.5 26.5q36 0 67 -13.5t59.5 -29.5t55 -29t56.5 -13q47 0 98 52 l51 -92q-55 -62 -101 -84t-84 -22q-35 0 -64.5 13t-58 28.5t-57.5 29.5t-59 14q-28 0 -56.5 -15t-64.5 -52zM281 532q0 -81 16 -155t50.5 -130t89.5 -89.5t134 -33.5q290 -2 289 408q0 84 -15.5 158t-50 130t-89.5 88.5t-134 32.5q-290 2 -290 -409z" />
<glyph unicode="&#xfa;" horiz-adv-x="1147" d="M147 422v643h170v-607q0 -84 10 -146t33.5 -104t63.5 -63t102 -21q57 0 102 18t80.5 50t62 73.5t42.5 88.5v711h171v-762q0 -77 5 -159.5t19 -143.5h-118l-42 168h-11q-49 -83 -132 -138.5t-211 -55.5q-85 0 -150 20.5t-109 72t-66 137.5t-22 218zM482 1216l126 318h189 v-45l-215 -273h-100z" />
<glyph unicode="&#xfc;" horiz-adv-x="1147" d="M147 422v643h170v-607q0 -84 10 -146t33.5 -104t63.5 -63t102 -21q57 0 102 18t80.5 50t62 73.5t42.5 88.5v711h171v-762q0 -77 5 -159.5t19 -143.5h-118l-42 168h-11q-49 -83 -132 -138.5t-211 -55.5q-85 0 -150 20.5t-109 72t-66 137.5t-22 218zM266 1390 q0 49 28.5 79.5t75.5 30.5t76 -30.5t29 -79.5q0 -44 -29 -74t-76 -30t-75.5 30t-28.5 74zM675 1390q0 49 28.5 79.5t75.5 30.5q49 0 78 -30.5t29 -79.5q0 -44 -28.5 -74t-78.5 -30q-47 0 -75.5 30t-28.5 74z" />
<glyph unicode="&#x17f;" horiz-adv-x="529" d="M47 918v147h166v59q0 198 68 289t239 91q69 0 120 -8.5t108 -32.5l-39 -142q-49 21 -92.5 27.5t-81.5 6.5q-51 0 -82 -14t-46 -42.5t-19 -72.5t-4 -100v-1126h-171v918h-166z" />
<glyph unicode="&#x2c6;" horiz-adv-x="821" d="M128 1171l262 388h68l237 -388h-154l-83 141l-45 123l-47 -123l-96 -141h-142z" />
<glyph unicode="&#x2da;" horiz-adv-x="670" d="M128 1370q0 89 56 141t151 52q89 0 148.5 -46.5t59.5 -146.5q0 -84 -59.5 -138t-148.5 -54q-90 0 -148.5 50t-58.5 142zM242 1370q0 -43 28 -66.5t65 -23.5q40 0 66.5 21.5t26.5 68.5q0 46 -29 68.5t-64 22.5q-37 0 -65 -21t-28 -70z" />
<glyph unicode="&#x2dc;" horiz-adv-x="849" d="M128 1397q61 70 112.5 96.5t94.5 26.5q36 0 67 -13.5t59.5 -29.5t55 -29t56.5 -13q47 0 98 52l51 -92q-55 -62 -101 -84t-84 -22q-35 0 -64.5 13t-58 28.5t-57.5 29.5t-59 14q-28 0 -56.5 -15t-64.5 -52z" />
<glyph unicode="&#x2000;" horiz-adv-x="926" />
<glyph unicode="&#x2001;" horiz-adv-x="1853" />
<glyph unicode="&#x2002;" horiz-adv-x="926" />
<glyph unicode="&#x2003;" horiz-adv-x="1853" />
<glyph unicode="&#x2004;" horiz-adv-x="617" />
<glyph unicode="&#x2005;" horiz-adv-x="463" />
<glyph unicode="&#x2006;" horiz-adv-x="308" />
<glyph unicode="&#x2007;" horiz-adv-x="308" />
<glyph unicode="&#x2008;" horiz-adv-x="231" />
<glyph unicode="&#x2009;" horiz-adv-x="370" />
<glyph unicode="&#x200a;" horiz-adv-x="102" />
<glyph unicode="&#x2010;" horiz-adv-x="766" d="M126 535v158h515v-158h-515z" />
<glyph unicode="&#x2011;" horiz-adv-x="766" d="M126 535v158h515v-158h-515z" />
<glyph unicode="&#x2012;" horiz-adv-x="766" d="M126 535v158h515v-158h-515z" />
<glyph unicode="&#x2013;" horiz-adv-x="1405" d="M252 535v158h902v-158h-902z" />
<glyph unicode="&#x2014;" horiz-adv-x="1746" d="M252 535v158h1244v-158h-1244z" />
<glyph unicode="&#x2018;" horiz-adv-x="412" d="M85 1212q0 70 20.5 120t49 85.5t59.5 57t54 29.5l53 -75q-46 -24 -75 -63t-29 -98q9 2 23 2q43 0 66.5 -30t23.5 -73q0 -49 -32 -77.5t-81 -28.5q-57 0 -94.5 38.5t-37.5 112.5z" />
<glyph unicode="&#x2019;" horiz-adv-x="412" d="M85 1400q0 49 31 76.5t80 27.5q59 0 96.5 -37.5t37.5 -111.5q0 -71 -20 -122t-49 -86t-61 -56.5t-55 -29.5l-53 73q48 26 76 64t28 99q-9 -2 -23 -2q-41 0 -64.5 29t-23.5 76z" />
<glyph unicode="&#x201a;" horiz-adv-x="412" d="M85 103q0 49 31 76.5t80 27.5q59 0 96.5 -37.5t37.5 -111.5q0 -71 -20 -122t-49 -86t-61 -56.5t-55 -29.5l-53 73q48 26 76 64t28 99q-9 -2 -23 -2q-41 0 -64.5 29t-23.5 76z" />
<glyph unicode="&#x201c;" horiz-adv-x="723" d="M85 1212q0 70 20.5 120t49 85.5t59.5 57t54 29.5l53 -75q-46 -24 -75 -63t-29 -98q9 2 23 2q43 0 66.5 -30t23.5 -73q0 -49 -32 -77.5t-81 -28.5q-57 0 -94.5 38.5t-37.5 112.5zM396 1212q0 70 20.5 120t49 85.5t59.5 57t54 29.5l53 -75q-46 -24 -75 -63t-29 -98 q9 2 23 2q43 0 66.5 -30t23.5 -73q0 -49 -32 -77.5t-81 -28.5q-57 0 -94.5 38.5t-37.5 112.5z" />
<glyph unicode="&#x201d;" horiz-adv-x="723" d="M85 1400q0 49 31 76.5t80 27.5q59 0 96.5 -37.5t37.5 -111.5q0 -71 -20 -122t-49 -86t-61 -56.5t-55 -29.5l-53 73q48 26 76 64t28 99q-9 -2 -23 -2q-41 0 -64.5 29t-23.5 76zM396 1400q0 49 31 76.5t80 27.5q59 0 96.5 -37.5t37.5 -111.5q0 -71 -20 -122t-49 -86 t-61 -56.5t-55 -29.5l-53 73q48 26 76 64t28 99q-9 -2 -23 -2q-41 0 -64.5 29t-23.5 76z" />
<glyph unicode="&#x201e;" horiz-adv-x="723" d="M85 103q0 49 31 76.5t80 27.5q59 0 96.5 -37.5t37.5 -111.5q0 -71 -20 -122t-49 -86t-61 -56.5t-55 -29.5l-53 73q48 26 76 64t28 99q-9 -2 -23 -2q-41 0 -64.5 29t-23.5 76zM396 103q0 49 31 76.5t80 27.5q59 0 96.5 -37.5t37.5 -111.5q0 -71 -20 -122t-49 -86 t-61 -56.5t-55 -29.5l-53 73q48 26 76 64t28 99q-9 -2 -23 -2q-41 0 -64.5 29t-23.5 76z" />
<glyph unicode="&#x2022;" horiz-adv-x="961" d="M185 662q0 66 23.5 120.5t63 94t93.5 61t117 21.5q61 0 115.5 -20.5t93.5 -59t63 -92.5t24 -125q0 -70 -24 -124t-63 -92.5t-93.5 -59t-115.5 -20.5q-62 0 -116.5 20.5t-94 59t-63 92.5t-23.5 124z" />
<glyph unicode="&#x2026;" horiz-adv-x="1616" d="M151 98q0 57 33 90.5t88 33.5q58 0 92 -33t34 -91q0 -55 -34 -89.5t-92 -34.5q-55 0 -88 34.5t-33 89.5zM693 98q0 57 32.5 90.5t87.5 33.5q57 0 91.5 -33t34.5 -91q0 -55 -33.5 -89.5t-92.5 -34.5q-55 0 -87.5 34.5t-32.5 89.5zM1233 98q0 57 33 90.5t89 33.5 q57 0 91 -33t34 -91q0 -55 -34 -89.5t-91 -34.5q-55 0 -88.5 34.5t-33.5 89.5z" />
<glyph unicode="&#x202f;" horiz-adv-x="370" />
<glyph unicode="&#x2030;" horiz-adv-x="2442" d="M149 1154q0 96 25.5 164t69 113t104.5 65t131 20q71 0 131.5 -19t104 -61.5t69 -112t25.5 -169.5q0 -99 -25.5 -168.5t-69 -112t-104.5 -62t-131 -19.5t-131 19.5t-104.5 62t-69 112t-25.5 168.5zM262 57l1096 1461l104 -81l-1093 -1463zM307 1154q0 -128 45.5 -183 t126.5 -55q41 0 72.5 11.5t54 38t34 72.5t11.5 116q0 71 -11.5 117t-34 72.5t-54.5 38t-72 11.5q-81 0 -126.5 -50t-45.5 -189zM907 364q0 96 25.5 164t69 113t104.5 65t131 20q71 0 131.5 -19t104 -61.5t69 -112t25.5 -169.5q0 -99 -25.5 -168.5t-69 -112t-104.5 -62 t-131 -19.5t-131 19.5t-104.5 62t-69 112t-25.5 168.5zM1065 364q0 -128 45.5 -183t126.5 -55q41 0 72.5 11.5t54 38t34 72.5t11.5 116q0 71 -11.5 117t-34 72.5t-54.5 38t-72 11.5q-81 0 -126.5 -50t-45.5 -189zM1668 364q0 96 25.5 164t69 113t104.5 65t131 20 q71 0 131.5 -19t104 -61.5t69 -112t25.5 -169.5q0 -99 -25.5 -168.5t-69 -112t-104.5 -62t-131 -19.5t-131 19.5t-104.5 62t-69 112t-25.5 168.5zM1826 364q0 -128 45.5 -183t126.5 -55q41 0 72.5 11.5t54 38t34 72.5t11.5 116q0 71 -11.5 117t-34 72.5t-54.5 38t-72 11.5 q-81 0 -126.5 -50t-45.5 -189z" />
<glyph unicode="&#x2039;" horiz-adv-x="632" d="M83 551l341 490l113 -91l-207 -309l-102 -88l102 -76l219 -302l-112 -94z" />
<glyph unicode="&#x203a;" horiz-adv-x="632" d="M83 947l113 94l353 -470l-340 -490l-113 92l207 309l102 87l-102 77z" />
<glyph unicode="&#x205f;" horiz-adv-x="463" />
<glyph unicode="&#x2081;" horiz-adv-x="838" d="M113 479l328 218h87v-780h202v-130h-577v130h227v541l14 77l-57 -60l-166 -101z" />
<glyph unicode="&#x2082;" horiz-adv-x="838" d="M102 -142q49 40 122.5 108t142 146.5t116 162t47.5 153.5q0 66 -42.5 99.5t-103.5 33.5q-57 0 -112 -20.5t-95 -46.5l-47 122q55 38 128.5 59.5t150.5 21.5q134 0 202 -66t68 -184q0 -65 -22.5 -127t-59 -122t-88 -118.5t-109.5 -117.5l-97 -68v-4l121 31h298v-134h-620 v71z" />
<glyph unicode="&#x2083;" horiz-adv-x="838" d="M142 -187l33 128q36 -17 83 -29t102 -12q102 0 156.5 40.5t54.5 118.5q0 69 -49 111.5t-158 42.5h-116v49l205 247l73 58l-104 -14h-277v128h546v-69l-220 -263l-54 -38v-4l50 6q117 -2 185 -70t68 -184q0 -130 -95 -208.5t-253 -78.5q-77 0 -132 12.5t-98 28.5z" />
<glyph unicode="&#x2084;" horiz-adv-x="838" d="M53 -8v79l482 642h95v-595h177v-126h-177v-205h-142v205h-435zM213 106l106 12h169v272l12 104h-4l-47 -98l-166 -223z" />
<glyph unicode="&#x20ac;" d="M21 537l38 140h118q-2 19 -2 33v36v40.5t2 40.5h-156l38 140h134q26 143 80.5 247.5t132.5 171.5t173.5 98.5t204.5 31.5q108 0 187 -13.5t137 -37.5l-45 -155q-49 24 -115 36.5t-160 12.5q-70 0 -136 -21t-120.5 -69t-96 -123t-63.5 -179h601l-36 -140h-583 q-2 -24 -2 -41v-40v-35t2 -34h540l-36 -140h-490q39 -201 152.5 -303t294.5 -102q84 0 153 19.5t118 49.5l42 -140q-63 -49 -157.5 -68t-190.5 -19q-242 0 -395 139t-196 424h-168z" />
<glyph unicode="&#x2116;" horiz-adv-x="2178" d="M181 0v1514h94l672 -986l110 -213h10l-23 205v971h170v-1515h-98l-667 991l-114 224h-9l26 -215v-976h-171zM1384 1154q0 96 25.5 164t69.5 113t104.5 65t131.5 20t131 -19t104 -61.5t69.5 -112t25.5 -169.5q0 -99 -25.5 -168.5t-69.5 -112t-104.5 -62t-130.5 -19.5 q-71 0 -131.5 19.5t-104.5 62t-69.5 112t-25.5 168.5zM1425 509v158h592v-158h-592zM1542 1154q0 -128 46 -183t127 -55q41 0 72.5 11.5t54 38t34.5 72.5t12 116q0 71 -12 117t-34.5 72.5t-54 38t-72.5 11.5q-81 0 -127 -50t-46 -189z" />
<glyph unicode="&#x2122;" horiz-adv-x="1884" d="M81 1346v145h746v-145h-290v-622h-167v622h-289zM912 724v767h165l224 -357l60 -124h2l64 128l207 353h168v-767h-162v356l21 219h-8l-84 -181l-185 -298h-69l-191 296l-76 183h-9l28 -217v-358h-155z" />
<glyph unicode="&#x25fc;" horiz-adv-x="1064" d="M0 0v1065h1065v-1065h-1065z" />
<glyph unicode="&#xf62c;" horiz-adv-x="412" d="M85 842q0 70 20.5 120t49 85.5t59.5 57t54 29.5l53 -75q-46 -24 -75 -63t-29 -98q9 2 23 2q43 0 66.5 -30t23.5 -73q0 -49 -32 -77.5t-81 -28.5q-57 0 -94.5 38.5t-37.5 112.5z" />
<glyph unicode="&#xf62d;" horiz-adv-x="412" d="M85 1030q0 49 31 76.5t80 27.5q59 0 96.5 -37.5t37.5 -111.5q0 -71 -20 -122t-49 -86t-61 -56.5t-55 -29.5l-53 73q48 26 76 64t28 99q-9 -2 -23 -2q-41 0 -64.5 29t-23.5 76z" />
<glyph unicode="&#xf62e;" horiz-adv-x="723" d="M85 842q0 70 20.5 120t49 85.5t59.5 57t54 29.5l53 -75q-46 -24 -75 -63t-29 -98q9 2 23 2q43 0 66.5 -30t23.5 -73q0 -49 -32 -77.5t-81 -28.5q-57 0 -94.5 38.5t-37.5 112.5zM396 842q0 70 20.5 120t49 85.5t59.5 57t54 29.5l53 -75q-46 -24 -75 -63t-29 -98q9 2 23 2 q43 0 66.5 -30t23.5 -73q0 -49 -32 -77.5t-81 -28.5q-57 0 -94.5 38.5t-37.5 112.5z" />
<glyph unicode="&#xf62f;" horiz-adv-x="723" d="M85 1030q0 49 31 76.5t80 27.5q59 0 96.5 -37.5t37.5 -111.5q0 -71 -20 -122t-49 -86t-61 -56.5t-55 -29.5l-53 73q48 26 76 64t28 99q-9 -2 -23 -2q-41 0 -64.5 29t-23.5 76zM396 1030q0 49 31 76.5t80 27.5q59 0 96.5 -37.5t37.5 -111.5q0 -71 -20 -122t-49 -86 t-61 -56.5t-55 -29.5l-53 73q48 26 76 64t28 99q-9 -2 -23 -2q-41 0 -64.5 29t-23.5 76z" />
<glyph unicode="&#xf634;" horiz-adv-x="463" d="M191 710v411h167l-66 -411h-101z" />
<glyph unicode="&#xf635;" horiz-adv-x="713" d="M191 710v411h167l-66 -411h-101zM441 710v411h167l-66 -411h-101z" />
<glyph unicode="&#xf662;" horiz-adv-x="838" d="M113 1289l328 217h89v-910h-148v672l14 76l-59 -60l-166 -99z" />
<glyph horiz-adv-x="540" d="M185 0v1491h171v-1491h-171z" />
</font>
</defs>
</svg>
