<?xml version="1.0" standalone="no"?>
<!DOCTYPE svg PUBLIC "-//W3C//DTD SVG 1.1//EN" "http://www.w3.org/Graphics/SVG/1.1/DTD/svg11.dtd" >
<svg>
<metadata>
Created by FontForge 20090622 at Wed Oct 30 22:25:29 2019
 By deploy user
Font software Copyright 1998 Monotype Imaging, Inc. All rights reserved.
</metadata>
<defs>
<font id="RotisSansSerifStd" horiz-adv-x="500" >
  <font-face 
    font-family="Rotis SansSerif Std"
    font-weight="400"
    font-stretch="normal"
    units-per-em="1000"
    panose-1="2 11 5 2 3 0 0 2 2 4"
    ascent="710"
    descent="-290"
    x-height="476"
    cap-height="690"
    bbox="-42 -238 1140 928"
    underline-thickness="50"
    underline-position="-75"
    unicode-range="U+0020-U+FB02"
  />
<missing-glyph 
d="M12 0v665h475v-665h-475zM88 618l162 -243l161 243h-323zM60 575v-484l40 61l80 120l41 61zM440 575l-162 -242l162 -243v485zM411 48l-161 242l-162 -242h323z" />
    <glyph glyph-name="fi" unicode="fi" horiz-adv-x="537" 
d="M463 600h-90v90h90v-90zM452 0h-68v476h68v-476zM345 623q-37 13 -69 13q-18 0 -33 -3t-25 -9t-17.5 -14t-11.5 -18t-7 -21.5t-4 -24.5t-1.5 -26.5t0.5 -27.5v-16h136v-57h-136v-419h-68v419h-81v57h81v66q0 74 40.5 112.5t114.5 38.5q40 0 81 -9v-61z" />
    <glyph glyph-name="fl" unicode="fl" horiz-adv-x="537" 
d="M452 0h-68v690h68v-690zM345 623q-37 13 -69 13q-18 0 -33 -3t-25 -9t-17.5 -14t-11.5 -18t-7 -21.5t-4 -24.5t-1.5 -26.5t0.5 -27.5v-16h136v-57h-136v-419h-68v419h-81v57h81v66q0 74 40.5 112.5t114.5 38.5q40 0 81 -9v-61z" />
    <glyph glyph-name=".notdef" 
d="M12 0v665h475v-665h-475zM88 618l162 -243l161 243h-323zM60 575v-484l40 61l80 120l41 61zM440 575l-162 -242l162 -243v485zM411 48l-161 242l-162 -242h323z" />
    <glyph glyph-name=".null" horiz-adv-x="0" 
 />
    <glyph glyph-name="nonmarkingreturn" horiz-adv-x="333" 
 />
    <glyph glyph-name="space" unicode=" " horiz-adv-x="259" 
 />
    <glyph glyph-name="exclam" unicode="!" horiz-adv-x="278" 
d="M217 690l-7 -503h-68l-7 503h82zM225 0h-98v98h98v-98z" />
    <glyph glyph-name="quotedbl" unicode="&#x22;" horiz-adv-x="352" 
d="M295 690l-17 -215h-58l-16 215h91zM148 690l-16 -215h-58l-17 215h91z" />
    <glyph glyph-name="numbersign" unicode="#" horiz-adv-x="574" 
d="M517 419l-15 -55h-98l-25 -95h100l-15 -55h-99l-56 -214h-64l55 214h-83l-55 -214h-65l55 214h-94l14 55h94l24 95h-94l15 55h93l56 215h65l-56 -215h84l57 215h65l-57 -215h99zM339 364h-84l-24 -95h84z" />
    <glyph glyph-name="dollar" unicode="$" horiz-adv-x="537" 
d="M481 171q0 -85 -53.5 -132.5t-139.5 -49.5v-84h-45v84q-166 7 -185 146h89q0 -40 27.5 -67t68.5 -33v284q-59 17 -73 23q-103 42 -103 161q0 53 30.5 92.5t81.5 59.5q34 13 64 13v74h45v-74q64 0 122.5 -41.5t58.5 -102.5h-89q0 40 -25.5 66t-66.5 32v-264
q46 -15 72.5 -26t58.5 -32.5t47 -53t15 -75.5zM243 374v248q-43 -5 -67 -42.5t-24 -82.5q0 -90 91 -123zM396 164q0 52 -28 84.5t-80 53.5v-267q48 3 78 41t30 88z" />
    <glyph glyph-name="percent" unicode="%" horiz-adv-x="815" 
d="M788 213q0 -224 -148 -224q-44 0 -75 20t-46.5 55t-21.5 71t-6 78t6 77.5t21.5 70.5t46.5 55t75 20q148 0 148 -223zM540 634l-208 -634h-56l208 634h56zM324 422q0 -224 -148 -224t-148 224q0 223 148 223t148 -223zM728 213q0 32 -2 54.5t-9.5 54t-27 49t-49.5 17.5
t-49.5 -17.5t-27.5 -49t-10 -54t-2 -54.5t2 -55t10 -54.5t27.5 -49t49.5 -17.5q24 0 41.5 13t26.5 30.5t13.5 45t5.5 45.5t1 42zM264 422q0 32 -2 54.5t-9.5 54t-27 49t-49.5 17.5q-88 0 -88 -175q0 -176 88 -176q24 0 41.5 13t26.5 30.5t13.5 45t5.5 45.5t1 42z" />
    <glyph glyph-name="ampersand" unicode="&#x26;" horiz-adv-x="648" 
d="M640 -4q-38 -7 -67 -7q-63 0 -91 28t-28 90v215h-183q-64 0 -98 -36t-34 -100q0 -62 37 -101t99 -39q44 0 92 17v-61q-52 -13 -96 -13q-99 0 -158 47t-59 143q0 65 29 111.5t89 62.5v2q-111 34 -111 145q0 82 58 124t143 42q43 0 102 -16v-61q-52 20 -97 20
q-54 0 -87.5 -29.5t-33.5 -82.5q0 -118 138 -118h170v174l68 43v-217h118v-57h-118v-197q0 -79 72 -79q24 0 46 6v-56z" />
    <glyph glyph-name="quotesingle" unicode="'" horiz-adv-x="204" 
d="M147 690l-16 -215h-58l-17 215h91z" />
    <glyph glyph-name="parenleft" unicode="(" horiz-adv-x="278" 
d="M251 -143q-33 7 -60 23t-45.5 41.5t-32 50t-21.5 62.5l-13 63.5t-6.5 69.5t-2 64t-0.5 61v20q0 164 11 233q33 197 170 223v-45q-16 -8 -29.5 -22.5t-23 -30.5t-17.5 -41t-13 -43.5t-8.5 -50t-5 -49t-2.5 -50.5t-1 -45.5v-43.5v-35q0 -3 -0.5 -39t0 -49.5t1.5 -51t4 -57
t7.5 -53t12 -53.5t18 -43.5t25 -39t32.5 -24.5v-45z" />
    <glyph glyph-name="parenright" unicode=")" horiz-adv-x="278" 
d="M208 312q0 -166 -12 -237q-34 -192 -169 -218v45q16 8 29.5 22.5t23 30.5t17.5 40.5t13 43.5t8.5 50t5 49t2.5 51t1 45.5v43v34.5q0 3 0.5 39.5t0 49.5t-1.5 51t-4 57.5t-7.5 52.5t-12 53.5t-18 44t-25 39t-32.5 24.5v45q33 -7 60 -23t45.5 -41.5t32 -50t21.5 -62.5
t13 -64t6.5 -69.5t2 -64t0.5 -61.5v-20z" />
    <glyph glyph-name="asterisk" unicode="*" horiz-adv-x="315" 
d="M305 535h-68q-6 0 -12.5 0.5t-14.5 1.5t-12 1q25 -34 57 -93l-45 -26q-31 48 -52 94q-14 -37 -52 -94l-44 26q40 70 56 93q-39 -3 -40 -3h-68v49h68q1 0 40 -3q-23 31 -56 94l44 26q35 -58 52 -97q17 39 52 97l45 -26q-30 -57 -57 -94q4 0 12 1t14.5 1.5t12.5 0.5h68v-49
z" />
    <glyph glyph-name="plus" unicode="+" horiz-adv-x="574" 
d="M518 213h-197v-213h-68v213h-197v61h197v196h68v-196h197v-61z" />
    <glyph glyph-name="comma" unicode="," horiz-adv-x="204" 
d="M157 100l-35 -223h-67l13 223h89z" />
    <glyph glyph-name="hyphen" unicode="-" horiz-adv-x="407" 
d="M356 215h-304v68h304v-68z" />
    <glyph glyph-name="period" unicode="." horiz-adv-x="204" 
d="M152 0h-100v100h100v-100z" />
    <glyph glyph-name="slash" unicode="/" horiz-adv-x="296" 
d="M279 761l-190 -897h-71l189 897h72z" />
    <glyph glyph-name="zero" unicode="0" 
d="M466 317q0 -48 -5 -90t-19.5 -87.5t-37.5 -77.5t-62.5 -52.5t-91.5 -20.5t-91.5 20.5t-62.5 52.5t-37.5 77.5t-19.5 87.5t-5 90t5 90t19 87.5t37 77.5t63 52.5t92 20.5t92 -20.5t63 -52.5t37 -77.5t19 -87.5t5 -90zM388 317q0 37 -1.5 65.5t-9 70t-21.5 68.5t-41 47
t-65 20q-138 0 -138 -271t138 -271q38 0 65 20t41 47t21.5 68.5t9 70t1.5 65.5z" />
    <glyph glyph-name="one" unicode="1" 
d="M321 0h-75v557l-120 -81v76l131 82h64v-634z" />
    <glyph glyph-name="two" unicode="2" 
d="M435 0h-380v67q61 50 122 113t116 148.5t55 148.5q0 50 -27.5 80.5t-77.5 30.5q-45 0 -74.5 -26t-29.5 -71h-84q3 76 58 115t135 39t129 -48.5t49 -127.5q0 -45 -20 -94.5t-43 -84.5t-70 -85.5t-69 -70.5l-72 -66h283v-68z" />
    <glyph glyph-name="three" unicode="3" 
d="M427 162q0 -85 -52.5 -129t-138.5 -44q-79 0 -134 35t-61 108h87q12 -86 104 -86q61 0 89 30.5t28 92.5q0 73 -34.5 103t-107.5 30v57q66 0 98.5 26.5t32.5 89.5q0 113 -97 113q-44 0 -74 -20.5t-31 -62.5h-84q0 31 16 58q46 82 168 82q81 0 130.5 -44.5t49.5 -124.5
q0 -49 -28.5 -93t-74.5 -50v-2q114 -25 114 -169z" />
    <glyph glyph-name="four" unicode="4" 
d="M485 178h-110v-178h-75v178h-260v61l255 395h80v-388h110v-68zM300 246v301h-2l-184 -301h186z" />
    <glyph glyph-name="five" unicode="5" 
d="M461 182q0 -90 -57 -141.5t-148 -51.5q-132 0 -177 83q-17 31 -17 60h89q0 -40 31.5 -63t72.5 -23q64 0 96 36.5t32 101.5q0 62 -29.5 102.5t-88.5 40.5q-68 0 -100 -50h-76l17 357h314v-68h-245l-9 -213q48 31 105 31q91 0 140.5 -55t49.5 -147z" />
    <glyph glyph-name="six" unicode="6" 
d="M470 184q0 -87 -53 -141t-140 -54q-48 0 -84.5 13t-59 38t-37.5 53.5t-21.5 69.5t-9 74.5t-2.5 78.5q0 52 4 93t17 87.5t35.5 77t63.5 51t96 20.5q124 0 165 -91q12 -27 12 -50h-87q0 37 -27.5 60.5t-65.5 23.5q-28 0 -50 -11.5t-36 -27t-24 -43t-14.5 -48.5t-7 -54.5
t-3 -50t-0.5 -46.5h2q49 75 152 75q86 0 130.5 -55t44.5 -143zM392 184q0 141 -117 141q-59 0 -90.5 -40t-31.5 -100q0 -61 32.5 -100t91.5 -39q115 0 115 138z" />
    <glyph glyph-name="seven" unicode="7" 
d="M438 570l-241 -570h-83l242 566h-291v68h373v-64z" />
    <glyph glyph-name="eight" unicode="8" 
d="M449 167q0 -90 -53 -134t-146 -44q-94 0 -146 44.5t-52 136.5q0 61 30.5 102t88.5 54v2q-106 32 -106 155q0 79 53 120.5t134 41.5q79 0 132 -41.5t53 -118.5q0 -57 -27.5 -102t-79.5 -55v-2q56 -11 87.5 -55.5t31.5 -103.5zM359 469q0 56 -27 87.5t-82 31.5
q-51 0 -79 -33t-28 -85q0 -55 28.5 -84.5t83.5 -29.5q50 0 77 31t27 82zM371 174q0 59 -31 92t-90 33q-57 0 -88.5 -33t-31.5 -91q0 -129 123 -129q63 0 90.5 32t27.5 96z" />
    <glyph glyph-name="nine" unicode="9" 
d="M445 318q0 -52 -4 -93t-17 -87.5t-35.5 -77t-63 -51t-95.5 -20.5q-125 0 -166 92q-12 27 -12 50h89q0 -38 26.5 -61.5t64.5 -23.5q28 0 50.5 11.5t36.5 26.5t23.5 43t14.5 48t7.5 55t2.5 50.5v46.5h-2q-51 -75 -151 -75q-87 0 -131 55t-44 144q0 87 53 140.5t140 53.5
q57 0 97.5 -20t62.5 -49.5t34.5 -76.5t15.5 -86.5t3 -94.5zM356 450q0 60 -32.5 99t-91.5 39q-115 0 -115 -137q0 -142 116 -142q60 0 91.5 40t31.5 101z" />
    <glyph glyph-name="colon" unicode=":" horiz-adv-x="259" 
d="M216 376h-100v100h100v-100zM216 0h-100v100h100v-100z" />
    <glyph glyph-name="semicolon" unicode=";" horiz-adv-x="259" 
d="M218 376h-100v100h100v-100zM213 100l-35 -223h-66l13 223h88z" />
    <glyph glyph-name="less" unicode="&#x3c;" horiz-adv-x="574" 
d="M518 0l-462 204v62l462 204v-63l-394 -172l394 -172v-63z" />
    <glyph glyph-name="equal" unicode="=" horiz-adv-x="574" 
d="M518 286h-462v61h462v-61zM518 140h-462v61h462v-61z" />
    <glyph glyph-name="greater" unicode="&#x3e;" horiz-adv-x="574" 
d="M518 204l-462 -204v63l395 172l-395 172v63l462 -204v-62z" />
    <glyph glyph-name="question" unicode="?" horiz-adv-x="407" 
d="M391 547q0 -17 -4 -33t-7 -26.5t-14 -26t-15.5 -21t-20.5 -23.5t-20 -22l-50 -57q-3 -4 -12.5 -14.5t-11.5 -13l-8.5 -10.5t-8 -11l-5.5 -10.5t-4.5 -12.5t-2 -13.5t-2 -17t-0.5 -19.5v-30h-71v46q0 23 1.5 37t2 23t7.5 20l9.5 15t18 20.5l22.5 24.5l58 65q1 1 9 10
t10 11t8.5 10t8.5 11.5t7 11t7 12.5t4.5 12t3.5 14t1 14q0 46 -32.5 70t-80.5 24q-61 0 -131 -34v75q71 23 134 23q80 0 134.5 -39t54.5 -115zM218 0h-98v97h98v-97z" />
    <glyph glyph-name="at" unicode="@" horiz-adv-x="1000" 
d="M905 320q0 -119 -82.5 -219.5t-198.5 -100.5q-37 0 -53.5 17.5t-18.5 53.5q-51 -65 -130 -65q-62 0 -97.5 40t-35.5 103q0 48 21 105t55 106.5t83 82.5t100 33q82 0 116 -74l22 54h87q-1 -3 -18.5 -45l-37 -90l-41 -101t-35 -92.5t-13.5 -48.5q0 -12 9 -19.5t21 -7.5
q40 0 82 31q56 39 87.5 103.5t31.5 133.5q0 120 -87 196.5t-209 76.5q-119 0 -217.5 -68t-147.5 -178q-34 -74 -34 -148q0 -70 29.5 -126t79 -90.5t111 -52.5t128.5 -18q168 0 292 102l27 -23q-15 -17 -49 -41q-121 -83 -274 -83q-76 0 -148.5 21t-132 60.5t-96 104.5
t-36.5 145q0 119 62 222t165.5 163.5t222.5 60.5q149 0 254.5 -89t105.5 -235zM632 373q0 27 -17.5 45.5t-44.5 18.5q-47 0 -96 -63.5t-77 -138.5t-28 -121q0 -67 69 -67q33 0 63.5 26t53 67.5t36.5 77.5t24 70q17 55 17 85z" />
    <glyph glyph-name="A" unicode="A" horiz-adv-x="556" 
d="M547 0h-78l-69 213h-246l-67 -213h-78l220 690h95zM379 278l-101 341h-2l-101 -341h204z" />
    <glyph glyph-name="B" unicode="B" horiz-adv-x="537" 
d="M488 187q0 -97 -60 -142t-160 -45h-183v690h183q84 0 136 -43.5t52 -126.5q0 -54 -26 -95t-75 -58v-2q69 -17 101 -61t32 -117zM378 515q0 62 -36.5 86t-100.5 24h-78v-233h67q70 0 109 27.5t39 95.5zM410 195q0 63 -42 97.5t-106 34.5h-99v-262h90q157 0 157 130z" />
    <glyph glyph-name="C" unicode="C" horiz-adv-x="537" 
d="M525 502h-88q0 59 -33.5 96.5t-92.5 37.5q-175 0 -175 -282q0 -54 9 -102.5t29.5 -95.5t61.5 -74.5t99 -27.5q92 0 164 57v-81q-94 -41 -183 -41q-74 0 -128 32.5t-82.5 88.5t-41.5 117t-13 131q0 69 13 127t41.5 108.5t81 79t124.5 28.5q94 0 154 -53t60 -146z" />
    <glyph glyph-name="D" unicode="D" horiz-adv-x="574" 
d="M523 347q0 -272 -164 -328q-55 -19 -144 -19h-130v690h155q81 0 137.5 -25t87.5 -72.5t44.5 -107t13.5 -138.5zM438 346q0 44 -3.5 78t-14.5 74.5t-36.5 69.5t-63.5 42q-40 15 -113 15h-44v-560h53q74 0 117 19q34 16 56.5 45.5t32.5 69.5t13 72.5t3 74.5z" />
    <glyph glyph-name="E" unicode="E" horiz-adv-x="463" 
d="M428 0h-343v690h334v-65h-256v-231h244v-65h-244v-264h265v-65z" />
    <glyph glyph-name="F" unicode="F" horiz-adv-x="426" 
d="M419 625h-256v-231h244v-65h-244v-329h-78v690h334v-65z" />
    <glyph glyph-name="G" unicode="G" horiz-adv-x="593" 
d="M530 502h-88q0 61 -36 97.5t-97 36.5q-42 0 -73.5 -17t-50 -43.5t-30 -63.5t-15.5 -71.5t-4 -72.5q0 -314 185 -314q85 0 127 38v233h-158v65h236v-335q-36 -31 -92 -48.5t-107 -17.5q-276 0 -276 379q0 67 13.5 123.5t42 105t80 76.5t121.5 28q95 0 158.5 -53t63.5 -146
z" />
    <glyph glyph-name="H" unicode="H" horiz-adv-x="611" 
d="M526 0h-78v326h-285v-326h-78v690h78v-299h285v299h78v-690z" />
    <glyph glyph-name="I" unicode="I" horiz-adv-x="259" 
d="M168 0h-78v690h78v-690z" />
    <glyph glyph-name="J" unicode="J" horiz-adv-x="352" 
d="M277 150q0 -88 -49 -124.5t-142 -36.5q-33 0 -86 11v71q46 -17 91 -17q108 0 108 104v532h78v-540z" />
    <glyph glyph-name="K" unicode="K" horiz-adv-x="519" 
d="M519 0h-92l-262 338h-2v-338h-78v690h78v-313h2l242 313h91l-258 -331z" />
    <glyph glyph-name="L" unicode="L" horiz-adv-x="407" 
d="M410 0h-325v690h78v-625h247v-65z" />
    <glyph glyph-name="M" unicode="M" horiz-adv-x="796" 
d="M712 0h-70v607h-2l-203 -607h-77l-203 607h-2v-607h-70v690h117l196 -587h2l196 587h116v-690z" />
    <glyph glyph-name="N" unicode="N" horiz-adv-x="630" 
d="M545 0h-100l-284 581h-2v-581h-74v690h100l284 -583h2v583h74v-690z" />
    <glyph glyph-name="O" unicode="O" horiz-adv-x="593" 
d="M542 346q0 -54 -6 -100.5t-22.5 -95.5t-43 -83t-71 -56t-102.5 -22q-73 0 -123.5 31.5t-76 86.5t-36 112.5t-10.5 126.5t10.5 126.5t36 112t76 85.5t123.5 31q58 0 102.5 -21.5t71 -55.5t43 -82t22.5 -95t6 -101zM457 347q0 289 -160 289q-161 0 -161 -289
q0 -293 161 -293q160 0 160 293z" />
    <glyph glyph-name="P" unicode="P" horiz-adv-x="481" 
d="M464 499q0 -99 -59 -145t-160 -46h-82v-308h-78v690h160q219 0 219 -191zM386 498q0 74 -40.5 100.5t-117.5 26.5h-65v-252h84q139 0 139 125z" />
    <glyph glyph-name="Q" unicode="Q" horiz-adv-x="611" 
d="M602 0h-301q-56 0 -100 21t-71.5 54.5t-46 79.5t-25.5 93t-7 98q0 70 11.5 128.5t38 112t78.5 84t126 30.5q58 0 102.5 -21.5t71 -55.5t43 -82t22.5 -95t6 -101q0 -84 -20.5 -169t-71.5 -117l2 -2l142 9v-67zM465 347q0 289 -160 289q-169 0 -169 -289q0 -47 6.5 -90
t22.5 -89.5t50.5 -74.5t84.5 -28q45 0 77.5 19t49 45t25.5 68.5t11 73.5t2 76z" />
    <glyph glyph-name="R" unicode="R" horiz-adv-x="537" 
d="M495 0h-78l-34 159q-9 41 -17 64t-23.5 44.5t-41.5 30.5t-66 9h-72v-307h-78v690h171q95 0 157.5 -41.5t62.5 -132.5q0 -73 -34.5 -114t-105.5 -59v-2q33 -9 54 -21.5t33.5 -34t18 -40t13.5 -56.5zM398 508q0 33 -10.5 56t-25 34.5t-41.5 18t-46.5 7.5t-53.5 1h-58v-253
h43q192 0 192 136z" />
    <glyph glyph-name="S" unicode="S" horiz-adv-x="481" 
d="M449 183q0 -101 -68.5 -147.5t-174.5 -46.5q-68 0 -159 21v80q87 -36 168 -36q62 0 105.5 29.5t43.5 88.5q0 28 -8 48.5t-29 38.5t-34 26l-44 26l-61 34l-38.5 21.5t-33 20.5t-32.5 26t-22 28.5t-18 38t-5 44.5q0 90 64 133.5t158 43.5q58 0 144 -18v-77q-73 30 -151 30
q-54 0 -92 -26.5t-38 -78.5q0 -22 9.5 -41t31.5 -35.5t34 -24t40 -22.5l64 -35q74 -40 110 -80t36 -110z" />
    <glyph glyph-name="T" unicode="T" horiz-adv-x="407" 
d="M408 625h-165v-625h-78v625h-165v65h408v-65z" />
    <glyph glyph-name="U" unicode="U" horiz-adv-x="593" 
d="M514 222q0 -118 -52.5 -175.5t-171.5 -57.5q-211 0 -211 233v468h78v-453q0 -42 4.5 -71t18 -56.5t42 -41.5t71.5 -14q87 0 115 45.5t28 137.5v453h78v-468z" />
    <glyph glyph-name="V" unicode="V" horiz-adv-x="519" 
d="M536 690l-230 -690h-98l-225 690h80l194 -605h2l197 605h80z" />
    <glyph glyph-name="W" unicode="W" horiz-adv-x="833" 
d="M797 690l-122 -690h-96l-160 586h-2l-162 -586h-95l-123 690h70l105 -592h2l162 592h82l161 -592h2l106 592h70z" />
    <glyph glyph-name="X" unicode="X" horiz-adv-x="519" 
d="M519 0h-85l-174 290l-175 -290h-85l217 362l-196 328h85l154 -258l152 258h85l-195 -328z" />
    <glyph glyph-name="Y" unicode="Y" 
d="M506 690l-218 -372v-318h-78v318l-215 372h85l169 -293l172 293h85z" />
    <glyph glyph-name="Z" unicode="Z" horiz-adv-x="481" 
d="M456 0h-432v67l332 558h-315v65h401v-67l-331 -558h345v-65z" />
    <glyph glyph-name="bracketleft" unicode="[" horiz-adv-x="296" 
d="M279 -136h-181v897h181v-59h-107v-779h107v-59z" />
    <glyph glyph-name="backslash" unicode="\" horiz-adv-x="296" 
d="M279 -136h-71l-190 897h71z" />
    <glyph glyph-name="bracketright" unicode="]" horiz-adv-x="296" 
d="M199 -136h-181v59h107v779h-107v59h181v-897z" />
    <glyph glyph-name="asciicircum" unicode="^" horiz-adv-x="370" 
d="M311 532h-61l-64 105l-65 -105h-61l96 158h60z" />
    <glyph glyph-name="underscore" unicode="_" 
d="M500 -116h-500v51h500v-51z" />
    <glyph glyph-name="grave" unicode="`" horiz-adv-x="300" 
d="M181 559h-63l-67 134h88z" />
    <glyph glyph-name="a" unicode="a" horiz-adv-x="463" 
d="M384 0h-66v63h-2q-18 -35 -60.5 -54.5t-85.5 -19.5q-61 0 -94.5 35.5t-33.5 97.5q0 39 22.5 69t58.5 46.5t73 24.5t73 8q31 0 47 3v10v10q0 27 -0.5 41t-5 35.5t-13.5 32.5t-27 19.5t-44 8.5q-88 0 -97 -76h-76q1 67 50.5 100t120.5 33q82 0 121 -37t39 -116v-334z
M316 216h-40q-57 0 -106.5 -25t-49.5 -76q0 -30 18.5 -49.5t48.5 -19.5q35 0 65.5 20.5t45.5 53.5q18 40 18 96z" />
    <glyph glyph-name="b" unicode="b" horiz-adv-x="481" 
d="M436 233q0 -106 -45.5 -175t-145.5 -69q-178 0 -178 207v494h68v-293h2q13 42 48.5 66t80.5 24q49 0 84 -23.5t53 -63t25.5 -80.5t7.5 -87zM358 235q0 30 -4 59.5t-14.5 62t-33 53t-53.5 20.5q-33 0 -58 -22.5t-37 -57t-17.5 -67.5t-5.5 -64q0 -173 108 -173
q34 0 58 18.5t35.5 49t16.5 60t5 61.5z" />
    <glyph glyph-name="c" unicode="c" horiz-adv-x="426" 
d="M403 331h-81q0 44 -21 71.5t-64 27.5q-59 0 -86 -50.5t-27 -115.5q0 -99 46.5 -158.5t142.5 -59.5q46 0 77 10v-54q-43 -13 -99 -13q-120 0 -182.5 69t-62.5 191q0 107 45.5 172.5t148.5 65.5q77 0 120 -40t43 -116z" />
    <glyph glyph-name="d" unicode="d" horiz-adv-x="481" 
d="M402 0h-68v81h-2q-12 -41 -46.5 -66.5t-77.5 -25.5q-163 0 -163 245q0 43 7.5 83.5t24.5 80.5t50.5 64.5t79.5 24.5q94 0 125 -89h2v292h68v-690zM334 236q0 29 -5 59t-16 62.5t-34 52.5t-55 20q-101 0 -101 -209q0 -175 99 -175q39 0 66 35t36.5 75.5t9.5 79.5z" />
    <glyph glyph-name="e" unicode="e" horiz-adv-x="444" 
d="M400 283h-274v-28q0 -86 43.5 -147.5t125.5 -61.5q42 0 94 13v-56q-45 -14 -109 -14q-118 0 -175 71.5t-57 193.5q0 103 44 168t142 65q81 0 123.5 -49.5t42.5 -131.5v-23zM322 340q0 39 -26 64.5t-65 25.5q-41 0 -66.5 -24.5t-33.5 -65.5h191z" />
    <glyph glyph-name="f" unicode="f" horiz-adv-x="315" 
d="M345 623q-37 13 -69 13q-29 0 -49 -8.5t-30 -19t-15 -34t-5.5 -37.5t-0.5 -45v-16h137v-57h-137v-419h-68v419h-80v57h80v66q0 74 40.5 112.5t115.5 38.5q40 0 81 -9v-61z" />
    <glyph glyph-name="g" unicode="g" horiz-adv-x="481" 
d="M402 -1q0 -207 -202 -207q-51 0 -129 16v69q59 -28 119 -28q79 0 111.5 39t32.5 119v84h-2q-13 -42 -47 -66.5t-79 -24.5q-47 0 -80 21t-50 57t-24 74.5t-7 82.5q0 34 4.5 66t16 66.5t29 60.5t47 42.5t66.5 16.5q43 0 78 -24t46 -65h2v78h68v-477zM334 247q0 27 -6 56.5
t-18 59t-35 48.5t-53 19q-31 0 -52 -21t-30.5 -55t-13 -62.5t-3.5 -57.5t3.5 -55t13 -56t30 -48t50.5 -18q40 0 67.5 34.5t37 75t9.5 80.5z" />
    <glyph glyph-name="h" unicode="h" 
d="M421 0h-68v264v19.5v22.5t-0.5 22t-3 23.5t-5.5 20.5t-8.5 19.5t-12.5 14t-17 10.5t-23 3q-44 0 -76.5 -41.5t-45.5 -90t-13 -91.5v-196h-68v690h68v-324h2q40 121 149 121q59 0 90.5 -43t31.5 -104v-340z" />
    <glyph glyph-name="i" unicode="i" horiz-adv-x="241" 
d="M165 600h-90v90h90v-90zM154 0h-68v476h68v-476z" />
    <glyph glyph-name="j" unicode="j" horiz-adv-x="241" 
d="M171 600h-90v90h90v-90zM161 -49q0 -79 -50 -118t-132 -39q-14 0 -21 1v60q13 -4 31 -4q56 0 80 28t24 86v511h68v-525z" />
    <glyph glyph-name="k" unicode="k" horiz-adv-x="426" 
d="M419 0h-84l-185 254h-2v-254h-68v690h68v-415h2l165 201h83l-171 -211z" />
    <glyph glyph-name="l" unicode="l" horiz-adv-x="241" 
d="M154 0h-68v690h68v-690z" />
    <glyph glyph-name="m" unicode="m" horiz-adv-x="741" 
d="M661 0h-68v264v19.5v22.5t-0.5 22t-3 23.5t-5.5 20.5t-8.5 19.5t-12.5 14t-17 10.5t-23 3q-31 0 -55.5 -25t-37.5 -62t-19.5 -72.5t-6.5 -63.5v-196h-68v264v19.5v22.5t-0.5 22t-3 23.5t-5.5 20.5t-8.5 19.5t-12.5 14t-17 10.5t-23 3q-40 0 -69 -43.5t-39.5 -92
t-10.5 -87.5v-196h-68v476h68v-110h2q34 121 133 121q54 0 85 -28t35 -81h2q16 48 51.5 78.5t83.5 30.5q59 0 90.5 -43t31.5 -104v-340z" />
    <glyph glyph-name="n" unicode="n" 
d="M421 0h-68v264v19.5v22.5t-0.5 22t-3 23.5t-5.5 20.5t-8.5 19.5t-12.5 14t-17 10.5t-23 3q-44 0 -76.5 -41.5t-45.5 -90t-13 -91.5v-196h-68v476h68v-110h2q40 121 149 121q59 0 90.5 -43t31.5 -104v-340z" />
    <glyph glyph-name="o" unicode="o" horiz-adv-x="481" 
d="M436 237q0 -108 -46.5 -178t-149.5 -70q-102 0 -148 70t-46 178t46 179t148 71q53 0 92.5 -20.5t61.5 -56.5t32 -79t10 -94zM358 238q0 33 -5 63t-16.5 61t-36.5 49.5t-60 18.5t-59.5 -18.5t-36 -50t-16 -61t-4.5 -62.5t4.5 -62.5t16 -61t36 -50t59.5 -18.5t60 18.5
t37 49.5t16.5 61t4.5 63z" />
    <glyph glyph-name="p" unicode="p" horiz-adv-x="481" 
d="M437 242q0 -43 -7.5 -83.5t-24.5 -80.5t-50.5 -64.5t-79.5 -24.5q-97 0 -125 89h-2v-292h-68v690h68v-81h2q12 41 46.5 66.5t77.5 25.5q163 0 163 -245zM359 255q0 175 -99 175q-40 0 -66.5 -35t-36 -75.5t-9.5 -79.5q0 -29 5 -59t16 -62.5t34 -52.5t55 -20
q101 0 101 209z" />
    <glyph glyph-name="q" unicode="q" horiz-adv-x="481" 
d="M402 -214h-68v292h-2q-28 -89 -125 -89q-46 0 -79.5 24.5t-50 64.5t-24 80.5t-7.5 83.5q0 245 162 245q43 0 77.5 -25.5t46.5 -66.5h2v81h68v-690zM334 240q0 39 -9.5 79.5t-36 75.5t-66.5 35q-98 0 -98 -175q0 -209 100 -209q32 0 55 20t34 52.5t16 62.5t5 59z" />
    <glyph glyph-name="r" unicode="r" horiz-adv-x="315" 
d="M309 414q-44 0 -76.5 -19t-50.5 -51t-26 -68.5t-8 -78.5v-197h-68v476h68v-92h2q45 103 159 103v-73z" />
    <glyph glyph-name="s" unicode="s" horiz-adv-x="370" 
d="M344 133q0 -75 -49 -109.5t-128 -34.5q-65 0 -130 20v62q71 -25 123 -25q116 0 116 77q0 11 -4.5 21.5t-9.5 17t-17 15l-16.5 11.5t-20.5 11.5t-18 9.5l-43 23q-29 16 -41.5 23.5t-32 24t-27 36t-7.5 45.5q0 65 47 95.5t116 30.5q46 0 112 -16v-63q-58 22 -111 22
q-35 0 -65.5 -15.5t-30.5 -46.5q0 -14 10.5 -26.5t21.5 -19.5t29.5 -16.5l24.5 -12.5l40 -24q4 -2 21 -12t21.5 -13l18 -12.5t17.5 -14.5l12.5 -15.5t11.5 -19.5t6 -22t3 -27z" />
    <glyph glyph-name="t" unicode="t" horiz-adv-x="333" 
d="M309 419h-128v-293q0 -80 78 -80q21 0 46 9v-61q-33 -5 -60 -5q-69 0 -100.5 28t-31.5 95v307h-78v57h78v111l68 43v-154h128v-57z" />
    <glyph glyph-name="u" unicode="u" 
d="M416 0h-68v110h-2q-36 -121 -148 -121q-59 0 -90.5 42.5t-31.5 104.5v340h68v-264v-19.5v-22.5t0.5 -22t3 -23.5t5.5 -20.5t8.5 -19.5t12.5 -14t17 -10.5t23 -3q34 0 61 24t42 60t23 72.5t8 66.5v196h68v-476z" />
    <glyph glyph-name="v" unicode="v" horiz-adv-x="426" 
d="M418 476l-161 -476h-69l-180 476h73l140 -376h2l122 376h73z" />
    <glyph glyph-name="w" unicode="w" horiz-adv-x="685" 
d="M643 476l-111 -476h-76l-112 365h-2l-111 -365h-74l-115 476h68l87 -370h2l114 370h59l115 -370h2l86 370h68z" />
    <glyph glyph-name="x" unicode="x" horiz-adv-x="444" 
d="M436 0h-82l-130 190l-133 -190h-82l172 250l-152 226h82l113 -166l113 166h82l-154 -226z" />
    <glyph glyph-name="y" unicode="y" horiz-adv-x="426" 
d="M421 476l-230 -669h-70l67 193l-182 476h73l139 -374h2l128 374h73z" />
    <glyph glyph-name="z" unicode="z" horiz-adv-x="407" 
d="M372 0h-341v56l249 363h-231v57h314v-58l-248 -361h257v-57z" />
    <glyph glyph-name="braceleft" unicode="{" 
d="M405 -238q-76 3 -143.5 50.5t-67.5 119.5q0 32 12 96q2 8 6.5 29t7 36t2.5 29q0 45 -32 78.5t-78 48.5v24q47 15 78.5 47.5t31.5 79.5q0 14 -2.5 29t-7 36t-6.5 29q-12 64 -12 96q0 72 67.5 119.5t143.5 50.5v-25q-49 -11 -78 -48.5t-29 -87.5q0 -27 7 -81.5t7 -82.5
q0 -66 -41.5 -105t-113.5 -69q71 -31 113 -70.5t42 -103.5q0 -27 -7 -82t-7 -82q0 -50 29 -87.5t78 -48.5v-25z" />
    <glyph glyph-name="bar" unicode="|" horiz-adv-x="333" 
d="M191 -184h-49v1017h49v-1017z" />
    <glyph glyph-name="braceright" unicode="}" 
d="M391 249q-46 -15 -78 -48.5t-32 -78.5q0 -14 2.5 -29t7 -36t6.5 -29q12 -64 12 -96q0 -72 -67.5 -119.5t-143.5 -50.5v25q49 11 78 48.5t29 87.5q0 27 -7 82t-7 82q0 64 42 103.5t113 70.5q-72 30 -113.5 69t-41.5 105q0 28 7 82.5t7 81.5q0 50 -29 87.5t-78 48.5v25
q76 -3 143.5 -50.5t67.5 -119.5q0 -32 -12 -96q-2 -8 -6.5 -29t-7 -36t-2.5 -29q0 -47 31.5 -79.5t78.5 -47.5v-24z" />
    <glyph glyph-name="asciitilde" unicode="~" horiz-adv-x="574" 
d="M516 247q0 -53 -30.5 -88t-82.5 -35q-18 0 -35 7t-25.5 14t-26.5 23l-89 82q-1 1 -8 7.5t-9 8.5t-8 6.5t-10 6.5t-10 3.5t-12 1.5q-10 0 -18.5 -2.5t-14.5 -5.5t-11 -9.5t-8 -11t-5.5 -14.5t-3.5 -14.5t-1.5 -16.5t-0.5 -16v-16.5v-14.5h-50v48q0 51 31.5 86t81.5 35
q19 0 36 -7t26 -14t27 -24l84 -77q2 -2 6 -5.5t6 -5.5t6 -5l6.5 -5t6.5 -4.5t7.5 -4t7.5 -3t8 -2t8 -0.5q11 0 20 2.5t15 8l11 10t7.5 14.5t4.5 15.5t2.5 18.5t0.5 17.5v18v16.5h50v-49z" />
    <glyph glyph-name="uni00A0" unicode="&#xa0;" horiz-adv-x="259" 
 />
    <glyph glyph-name="exclamdown" unicode="&#xa1;" horiz-adv-x="278" 
d="M151 456h-98v98h98v-98zM143 -136h-82l7 503h68z" />
    <glyph glyph-name="cent" unicode="&#xa2;" horiz-adv-x="444" 
d="M403 330h-81q0 96 -68 117v-409q20 -9 46 -9q58 0 94 18v-41q-42 -17 -140 -17v-86h-45v93q-60 10 -99 53t-53.5 95t-14.5 114q0 92 40.5 156t126.5 73v75h45v-75q68 -7 108.5 -48t40.5 -109zM209 56v391q-82 -21 -82 -178q0 -64 19 -123.5t63 -89.5z" />
    <glyph glyph-name="sterling" unicode="&#xa3;" horiz-adv-x="444" 
d="M448 522h-81q0 40 -28.5 63.5t-70.5 23.5q-51 0 -70.5 -31.5t-19.5 -85.5v-135h116v-57h-116v-232h252v-68h-330v300h-67v57h67v147q0 162 167 162q123 0 167 -87q14 -28 14 -57z" />
    <glyph glyph-name="currency" unicode="&#xa4;" horiz-adv-x="579" 
d="M513 174l-40 -41l-67 67q-51 -40 -117 -40t-117 40l-67 -67q-13 14 -40 41l68 64q-39 56 -39 116q0 66 39 116l-68 65q27 27 40 41l67 -67q54 39 117 39q68 0 116 -39l68 67l40 -41l-68 -65q39 -52 39 -116q0 -61 -39 -116zM427 355q0 59 -41.5 98t-95.5 39
q-59 0 -99 -40.5t-40 -96.5q0 -57 40.5 -98t97.5 -41t97.5 41t40.5 98z" />
    <glyph glyph-name="yen" unicode="&#xa5;" 
d="M506 690l-218 -372h112v-47h-112v-52h112v-47h-112v-172h-78v172h-112v47h112v52h-112v47h112l-215 372h84l170 -295l173 295h84z" />
    <glyph glyph-name="brokenbar" unicode="&#xa6;" horiz-adv-x="259" 
d="M164 402h-69v359h69v-359zM164 -136h-69v359h69v-359z" />
    <glyph glyph-name="section" unicode="&#xa7;" horiz-adv-x="463" 
d="M423 347q0 -71 -75 -122q54 -41 54 -97q0 -48 -32 -81t-74.5 -45.5t-89.5 -12.5q-60 0 -128 21v80q73 -44 133 -44q42 0 76.5 17.5t34.5 55.5q0 12 -5.5 23t-16.5 20.5t-21.5 17t-27.5 15l-27 12t-27 10.5t-21 8q-64 27 -79 37q-57 38 -57 99q0 38 18 64.5t54 58.5
q-45 35 -45 87q0 63 50.5 96.5t116.5 33.5q70 0 145 -24v-73q-71 40 -134 40q-34 0 -66 -15.5t-32 -45.5t28.5 -52t69 -36t81 -30.5t69 -46t28.5 -71.5zM353 322q0 22 -13 39.5t-26 25.5t-38 20q-8 4 -86 36q-34 13 -42 18q-38 -40 -38 -77q0 -16 7.5 -30t13.5 -22t26 -19
t24 -12.5t28 -12.5l46.5 -19.5t55.5 -24.5q42 42 42 78z" />
    <glyph glyph-name="dieresis" unicode="&#xa8;" horiz-adv-x="300" 
d="M283 570h-90v88h90v-88zM107 570h-90v88h90v-88z" />
    <glyph glyph-name="copyright" unicode="&#xa9;" 
d="M485 466q0 -98 -68.5 -166.5t-166.5 -68.5q-97 0 -166 69t-69 166t69 166t166 69t166 -69t69 -166zM450 466q0 82 -59 141t-141 59t-141 -59t-59 -141t59 -141t141 -59t141 59t59 141zM357 375q-40 -39 -95 -39q-56 0 -96.5 39t-40.5 95t40.5 95t96.5 39q50 0 95 -39
l-26 -33q-34 31 -69 31q-38 0 -65.5 -27.5t-27.5 -65.5t25.5 -65.5t63.5 -27.5q39 0 73 30z" />
    <glyph glyph-name="ordfeminine" unicode="&#xaa;" horiz-adv-x="259" 
d="M223 287h-36v35h-2q-23 -41 -79 -41q-31 0 -51 19.5t-20 50.5q0 85 152 85v25.5t-2.5 22t-7.5 22.5t-15.5 13t-25.5 6q-21 0 -37 -11.5t-16 -31.5h-42q0 36 27.5 54.5t66.5 18.5q46 0 67 -20t21 -65v-183zM187 406h-10q-102 0 -102 -55q0 -16 11.5 -26t27.5 -10
q27 0 48.5 20.5t23.5 47.5q1 8 1 23z" />
    <glyph glyph-name="guillemotleft" unicode="&#xab;" horiz-adv-x="352" 
d="M309 59h-72l-74 185l74 188h72l-62 -188zM178 59h-72l-74 185l74 188h72l-63 -188z" />
    <glyph glyph-name="logicalnot" unicode="&#xac;" horiz-adv-x="574" 
d="M518 65h-68v148h-394v61h462v-209z" />
    <glyph glyph-name="uni00AD" unicode="&#xad;" horiz-adv-x="407" 
d="M356 215h-304v68h304v-68z" />
    <glyph glyph-name="registered" unicode="&#xae;" 
d="M485 466q0 -98 -68.5 -166.5t-166.5 -68.5q-97 0 -166 69t-69 166t69 166t166 69t166 -69t69 -166zM450 466q0 82 -59 141t-141 59t-141 -59t-59 -141t59 -141t141 -59t141 59t59 141zM348 348h-50l-38 100h-54v-100h-45v248h83q48 0 74.5 -17t26.5 -63q0 -25 -9.5 -37.5
t-33.5 -23.5zM298 520q0 33 -42 33h-50v-65h54q16 0 27 8t11 24z" />
    <glyph glyph-name="macron" unicode="&#xaf;" horiz-adv-x="300" 
d="M276 559h-253v60h253v-60z" />
    <glyph glyph-name="degree" unicode="&#xb0;" horiz-adv-x="400" 
d="M310 537q0 -47 -31.5 -79.5t-78.5 -32.5q-45 0 -77.5 34t-32.5 79q0 43 33.5 75t76.5 32q44 0 77 -32t33 -76zM264 537q0 25 -19 43.5t-45 18.5t-45 -18.5t-19 -43.5q0 -27 18.5 -46.5t45.5 -19.5q28 0 46 18.5t18 47.5z" />
    <glyph glyph-name="plusminus" unicode="&#xb1;" horiz-adv-x="549" 
d="M506 213h-197v-213h-68v213h-198v61h197v196h68v-196h198v-61zM506 -104h-463v61h463v-61z" />
    <glyph glyph-name="twosuperior" unicode="&#xb2;" horiz-adv-x="352" 
d="M303 205h-261v47q70 58 132.5 136.5t62.5 140.5q0 30 -18 49t-48 19t-49 -15.5t-19 -45.5h-62q3 53 40.5 81t92.5 28q56 0 89.5 -33.5t33.5 -88.5q0 -96 -126 -220q-9 -9 -27 -25t-26 -25h185v-48z" />
    <glyph glyph-name="threesuperior" unicode="&#xb3;" horiz-adv-x="352" 
d="M298 317q0 -58 -36 -88.5t-95 -30.5q-55 0 -95 25.5t-40 76.5h64q0 -27 20 -40.5t48 -13.5q74 0 74 76q0 50 -22 67.5t-72 17.5v48h15q34 0 52.5 19.5t18.5 53.5q0 69 -66 69q-25 0 -44 -13.5t-19 -38.5h-62q0 48 39 74t89 26q53 0 88 -29.5t35 -81.5q0 -41 -13 -61.5
t-49 -40.5q40 -16 55 -42.5t15 -72.5z" />
    <glyph glyph-name="acute" unicode="&#xb4;" horiz-adv-x="300" 
d="M248 693l-67 -134h-63l42 134h88z" />
    <glyph glyph-name="mu" unicode="&#xb5;" horiz-adv-x="576" 
d="M490 -3q-16 -4 -24 -4q-98 0 -98 97h-2q-10 -46 -44.5 -73.5t-81.5 -27.5q-30 0 -47.5 7t-39.5 27v-227h-67v680h68v-275q0 -25 1.5 -43.5t7 -41t15.5 -36.5t29.5 -24t45.5 -10q36 0 60.5 22.5t35.5 59.5t15 69t4 67v212h68v-334q0 -3 -0.5 -16t0 -19.5t1.5 -18t4 -18
t7.5 -13.5t12 -10.5t18.5 -3.5q7 0 11 1v-47z" />
    <glyph glyph-name="paragraph" unicode="&#xb6;" 
d="M478 649h-67v-863h-37v863h-51v-863h-37v437q-97 12 -159.5 72t-62.5 155q0 80 45 136t111 80t144 24h114v-41z" />
    <glyph glyph-name="periodcentered" unicode="&#xb7;" horiz-adv-x="204" 
d="M150 269h-96v97h96v-97z" />
    <glyph glyph-name="cedilla" unicode="&#xb8;" horiz-adv-x="300" 
d="M248 -144q0 -40 -28.5 -61.5t-69.5 -21.5q-34 0 -63 13v51q22 -24 57 -24q20 0 34 13.5t14 32.5q0 9 -1.5 16t-6 11.5t-8 8.5t-11.5 6t-11.5 3.5t-14 2t-13 0.5h-14h-12.5l24 109h43l-18 -74h15q39 0 61.5 -23.5t22.5 -62.5z" />
    <glyph glyph-name="onesuperior" unicode="&#xb9;" horiz-adv-x="352" 
d="M226 205h-56v369l-81 -54v58l91 56h46v-429z" />
    <glyph glyph-name="ordmasculine" unicode="&#xba;" horiz-adv-x="278" 
d="M247 418q0 -59 -26 -97.5t-82 -38.5t-81.5 38.5t-25.5 97.5t25.5 98t81.5 39t82 -39t26 -98zM207 418q0 107 -68 107q-67 0 -67 -107q0 -106 67 -106q68 0 68 106z" />
    <glyph glyph-name="guillemotright" unicode="&#xbb;" horiz-adv-x="352" 
d="M320 248l-74 -189h-72l62 189l-62 184h72zM188 248l-73 -189h-72l62 189l-62 184h72z" />
    <glyph glyph-name="onequarter" unicode="&#xbc;" horiz-adv-x="815" 
d="M801 120h-73v-120h-56v120h-177v45l173 268h60v-265h73v-48zM540 634l-208 -634h-57l208 634h57zM226 202h-56v372l-81 -54v58l91 56h46v-432zM672 168v193h-2l-117 -193h119z" />
    <glyph glyph-name="onehalf" unicode="&#xbd;" horiz-adv-x="815" 
d="M767 0h-262v47q69 55 132.5 135t63.5 142q0 32 -17.5 51.5t-48.5 19.5q-30 0 -49 -17.5t-19 -46.5h-62q3 53 40.5 81t92.5 28t89 -33t34 -88q0 -98 -127 -221q-8 -8 -26 -24.5t-27 -25.5h186v-48zM519 634l-207 -634h-57l207 634h57zM226 202h-56v372l-81 -54v58l91 56
h46v-432z" />
    <glyph glyph-name="threequarters" unicode="&#xbe;" horiz-adv-x="815" 
d="M801 120h-73v-120h-56v120h-177v45l173 268h60v-265h73v-48zM540 634l-208 -634h-57l208 634h57zM298 317q0 -58 -36 -88.5t-95 -30.5q-55 0 -95 25.5t-40 76.5h64q0 -27 20 -40.5t48 -13.5q74 0 74 76q0 50 -22 67.5t-72 17.5v48h15q34 0 52.5 19.5t18.5 53.5
q0 69 -66 69q-25 0 -44 -13.5t-19 -38.5h-62q0 48 39 74t89 26q53 0 88 -29.5t35 -81.5q0 -41 -13 -61.5t-49 -40.5q40 -16 55 -42.5t15 -72.5zM672 168v193h-2l-117 -193h119z" />
    <glyph glyph-name="questiondown" unicode="&#xbf;" horiz-adv-x="407" 
d="M288 457h-98v97h98v-97zM339 -124q-69 -23 -133 -23q-80 0 -134.5 39t-54.5 115q0 13 2 25t4 21t8.5 21t9 17t13 18l12.5 15.5t16 17.5t15 17l51 57q3 4 9 10q29 32 37.5 50.5t8.5 61.5v30h71v-46v-31.5t-2.5 -23.5l-3.5 -16.5t-8 -15t-10.5 -14t-16.5 -17.5l-20 -22
l-58 -64q-2 -2 -9.5 -10t-10 -11l-8.5 -10.5t-8.5 -11t-7 -10.5t-6.5 -12.5l-4.5 -12.5t-3.5 -14t-1 -15q0 -46 32.5 -70t80.5 -24q67 0 130 34v-75z" />
    <glyph glyph-name="Agrave" unicode="&#xc0;" horiz-adv-x="556" 
d="M309 773h-63l-67 134h88zM547 0h-78l-69 213h-246l-67 -213h-78l220 690h95zM379 278l-101 341h-2l-101 -341h204z" />
    <glyph glyph-name="Aacute" unicode="&#xc1;" horiz-adv-x="556" 
d="M376 907l-67 -134h-63l42 134h88zM547 0h-78l-69 213h-246l-67 -213h-78l220 690h95zM379 278l-101 341h-2l-101 -341h204z" />
    <glyph glyph-name="Acircumflex" unicode="&#xc2;" horiz-adv-x="556" 
d="M403 773h-61l-63 83l-65 -83h-61l88 134h74zM547 0h-78l-69 213h-246l-67 -213h-78l220 690h95zM379 278l-101 341h-2l-101 -341h204z" />
    <glyph glyph-name="Atilde" unicode="&#xc3;" horiz-adv-x="556" 
d="M397 880q0 -109 -58 -109q-26 0 -68 25.5t-49 25.5q-11 0 -16 -17t-5 -32h-42q0 114 57 114q22 0 64 -27t54 -27q21 0 21 47h42zM547 0h-78l-69 213h-246l-67 -213h-78l220 690h95zM379 278l-101 341h-2l-101 -341h204z" />
    <glyph glyph-name="Adieresis" unicode="&#xc4;" horiz-adv-x="556" 
d="M411 784h-90v88h90v-88zM235 784h-90v88h90v-88zM547 0h-78l-69 213h-246l-67 -213h-78l220 690h95zM379 278l-101 341h-2l-101 -341h204z" />
    <glyph glyph-name="Aring" unicode="&#xc5;" horiz-adv-x="556" 
d="M364 843q0 -35 -25.5 -60.5t-60.5 -25.5t-60.5 25.5t-25.5 60.5t26 60t61 25t60 -25t25 -60zM547 0h-78l-69 213h-246l-67 -213h-78l220 690h95zM321 843q0 17 -13 29.5t-30 12.5q-18 0 -30.5 -12t-12.5 -30t12.5 -30.5t30.5 -12.5t30.5 12.5t12.5 30.5zM379 278
l-101 341h-2l-101 -341h204z" />
    <glyph glyph-name="AE" unicode="&#xc6;" horiz-adv-x="796" 
d="M762 0h-300l-21 299h-184l-170 -299h-87l393 690h359v-65h-264l20 -261h232v-65h-228l17 -234h233v-65zM436 364l-15 242h-2l-132 -242h149z" />
    <glyph glyph-name="Ccedilla" unicode="&#xc7;" horiz-adv-x="537" 
d="M525 502h-88q0 59 -33.5 96.5t-92.5 37.5q-175 0 -175 -282q0 -43 5 -81.5t18.5 -80t35 -71t57.5 -48.5t83 -19q92 0 164 57v-81q-94 -41 -183 -41q-14 0 -36 2l-12 -49h15q39 0 61.5 -23.5t22.5 -62.5q0 -40 -28.5 -61.5t-69.5 -21.5q-34 0 -63 13v51q22 -24 57 -24
q20 0 34 13.5t14 32.5q0 9 -1.5 16t-6 11.5t-8 8.5t-11.5 6t-11.5 3.5t-14 2t-13 0.5h-14h-12.5l20 92q-68 20 -112 79.5t-60 129t-16 150.5q0 69 13 127t41.5 108.5t81 79t124.5 28.5q94 0 154 -53t60 -146z" />
    <glyph glyph-name="Egrave" unicode="&#xc8;" horiz-adv-x="463" 
d="M283 773h-63l-67 134h88zM428 0h-343v690h334v-65h-256v-231h244v-65h-244v-264h265v-65z" />
    <glyph glyph-name="Eacute" unicode="&#xc9;" horiz-adv-x="463" 
d="M345 907l-67 -134h-63l42 134h88zM428 0h-343v690h334v-65h-256v-231h244v-65h-244v-264h265v-65z" />
    <glyph glyph-name="Ecircumflex" unicode="&#xca;" horiz-adv-x="463" 
d="M382 773h-61l-63 83l-65 -83h-61l88 134h74zM428 0h-343v690h334v-65h-256v-231h244v-65h-244v-264h265v-65z" />
    <glyph glyph-name="Edieresis" unicode="&#xcb;" horiz-adv-x="463" 
d="M390 784h-90v88h90v-88zM214 784h-90v88h90v-88zM428 0h-343v690h334v-65h-256v-231h244v-65h-244v-264h265v-65z" />
    <glyph glyph-name="Igrave" unicode="&#xcc;" horiz-adv-x="259" 
d="M161 773h-63l-67 134h88zM168 0h-78v690h78v-690z" />
    <glyph glyph-name="Iacute" unicode="&#xcd;" horiz-adv-x="259" 
d="M228 907l-67 -134h-63l42 134h88zM168 0h-78v690h78v-690z" />
    <glyph glyph-name="Icircumflex" unicode="&#xce;" horiz-adv-x="259" 
d="M255 773h-61l-63 83l-65 -83h-61l88 134h74zM168 0h-78v690h78v-690z" />
    <glyph glyph-name="Idieresis" unicode="&#xcf;" horiz-adv-x="259" 
d="M263 784h-90v88h90v-88zM87 784h-90v88h90v-88zM168 0h-78v690h78v-690z" />
    <glyph glyph-name="Eth" unicode="&#xd0;" horiz-adv-x="574" 
d="M523 347q0 -56 -6 -101t-22 -92.5t-50 -82t-84 -51.5q-58 -20 -157 -20h-119v337h-85v50h85v303h166q272 0 272 -343zM438 346q0 44 -3.5 77.5t-14 73.5t-35.5 69t-62 43q-41 16 -116 16h-44v-238h147v-50h-147v-272h53q81 0 124 22q32 16 53.5 45.5t30 69.5t11.5 71.5
t3 72.5z" />
    <glyph glyph-name="Ntilde" unicode="&#xd1;" horiz-adv-x="630" 
d="M434 880q0 -109 -58 -109q-26 0 -68 25.5t-49 25.5q-11 0 -16 -17t-5 -32h-42q0 114 57 114q21 0 63 -27t55 -27q21 0 21 47h42zM545 0h-100l-284 581h-2v-581h-74v690h100l284 -583h2v583h74v-690z" />
    <glyph glyph-name="Ograve" unicode="&#xd2;" horiz-adv-x="593" 
d="M318 773h-63l-67 134h88zM542 346q0 -54 -6 -100.5t-22.5 -95.5t-43 -83t-71 -56t-102.5 -22q-73 0 -123.5 31.5t-76 86.5t-36 112.5t-10.5 126.5t10.5 126.5t36 112t76 85.5t123.5 31q58 0 102.5 -21.5t71 -55.5t43 -82t22.5 -95t6 -101zM457 347q0 289 -160 289
q-161 0 -161 -289q0 -293 161 -293q160 0 160 293z" />
    <glyph glyph-name="Oacute" unicode="&#xd3;" horiz-adv-x="593" 
d="M395 907l-67 -134h-63l42 134h88zM542 346q0 -54 -6 -100.5t-22.5 -95.5t-43 -83t-71 -56t-102.5 -22q-73 0 -123.5 31.5t-76 86.5t-36 112.5t-10.5 126.5t10.5 126.5t36 112t76 85.5t123.5 31q58 0 102.5 -21.5t71 -55.5t43 -82t22.5 -95t6 -101zM457 347
q0 289 -160 289q-161 0 -161 -289q0 -293 161 -293q160 0 160 293z" />
    <glyph glyph-name="Ocircumflex" unicode="&#xd4;" horiz-adv-x="593" 
d="M422 773h-61l-63 83l-65 -83h-61l88 134h74zM542 346q0 -54 -6 -100.5t-22.5 -95.5t-43 -83t-71 -56t-102.5 -22q-73 0 -123.5 31.5t-76 86.5t-36 112.5t-10.5 126.5t10.5 126.5t36 112t76 85.5t123.5 31q58 0 102.5 -21.5t71 -55.5t43 -82t22.5 -95t6 -101zM457 347
q0 289 -160 289q-161 0 -161 -289q0 -293 161 -293q160 0 160 293z" />
    <glyph glyph-name="Otilde" unicode="&#xd5;" horiz-adv-x="593" 
d="M416 880q0 -109 -58 -109q-26 0 -68 25.5t-49 25.5q-11 0 -16 -17t-5 -32h-42q0 114 57 114q21 0 63 -27t55 -27q21 0 21 47h42zM542 346q0 -54 -6 -100.5t-22.5 -95.5t-43 -83t-71 -56t-102.5 -22q-73 0 -123.5 31.5t-76 86.5t-36 112.5t-10.5 126.5t10.5 126.5t36 112
t76 85.5t123.5 31q58 0 102.5 -21.5t71 -55.5t43 -82t22.5 -95t6 -101zM457 347q0 289 -160 289q-161 0 -161 -289q0 -293 161 -293q160 0 160 293z" />
    <glyph glyph-name="Odieresis" unicode="&#xd6;" horiz-adv-x="593" 
d="M430 784h-90v88h90v-88zM254 784h-90v88h90v-88zM542 346q0 -54 -6 -100.5t-22.5 -95.5t-43 -83t-71 -56t-102.5 -22q-73 0 -123.5 31.5t-76 86.5t-36 112.5t-10.5 126.5t10.5 126.5t36 112t76 85.5t123.5 31q58 0 102.5 -21.5t71 -55.5t43 -82t22.5 -95t6 -101zM457 347
q0 289 -160 289q-161 0 -161 -289q0 -293 161 -293q160 0 160 293z" />
    <glyph glyph-name="multiply" unicode="&#xd7;" horiz-adv-x="574" 
d="M519 52l-55 -52l-183 189l-180 -189l-47 46l184 188l-181 188l53 53l179 -185l180 185l47 -45l-180 -189z" />
    <glyph glyph-name="Oslash" unicode="&#xd8;" horiz-adv-x="593" 
d="M542 346q0 -54 -6 -100.5t-22.5 -95.5t-43 -83t-71 -56t-102.5 -22q-47 0 -79.5 11t-67.5 41l-47 -81l-43 25l54 96q-63 101 -63 265q0 69 10.5 126.5t36 112t76 85.5t123.5 31q46 0 76.5 -9t65.5 -35l43 74l42 -25l-49 -86q67 -97 67 -274zM402 592q-19 26 -43.5 35
t-61.5 9q-161 0 -161 -289q0 -115 24 -188zM457 347q0 124 -27 195l-244 -435q43 -53 111 -53q160 0 160 293z" />
    <glyph glyph-name="Ugrave" unicode="&#xd9;" horiz-adv-x="593" 
d="M328 773h-63l-67 134h88zM514 222q0 -118 -52.5 -175.5t-171.5 -57.5q-211 0 -211 233v468h78v-453q0 -42 4.5 -71t18 -56.5t42 -41.5t71.5 -14q87 0 115 45.5t28 137.5v453h78v-468z" />
    <glyph glyph-name="Uacute" unicode="&#xda;" horiz-adv-x="593" 
d="M395 907l-67 -134h-63l42 134h88zM514 222q0 -118 -52.5 -175.5t-171.5 -57.5q-211 0 -211 233v468h78v-453q0 -42 4.5 -71t18 -56.5t42 -41.5t71.5 -14q87 0 115 45.5t28 137.5v453h78v-468z" />
    <glyph glyph-name="Ucircumflex" unicode="&#xdb;" horiz-adv-x="593" 
d="M422 773h-61l-63 83l-65 -83h-61l88 134h74zM514 222q0 -118 -52.5 -175.5t-171.5 -57.5q-211 0 -211 233v468h78v-453q0 -42 4.5 -71t18 -56.5t42 -41.5t71.5 -14q87 0 115 45.5t28 137.5v453h78v-468z" />
    <glyph glyph-name="Udieresis" unicode="&#xdc;" horiz-adv-x="593" 
d="M430 784h-90v88h90v-88zM254 784h-90v88h90v-88zM514 222q0 -118 -52.5 -175.5t-171.5 -57.5q-211 0 -211 233v468h78v-453q0 -42 4.5 -71t18 -56.5t42 -41.5t71.5 -14q87 0 115 45.5t28 137.5v453h78v-468z" />
    <glyph glyph-name="Yacute" unicode="&#xdd;" 
d="M348 907l-67 -134h-63l42 134h88zM506 690l-218 -372v-318h-78v318l-215 372h85l169 -293l172 293h85z" />
    <glyph glyph-name="Thorn" unicode="&#xde;" horiz-adv-x="574" 
d="M531 362q0 -108 -48.5 -153t-157.5 -45h-166v-164h-78v690h78v-133h166q104 0 155 -46.5t51 -148.5zM446 360q0 69 -33.5 100.5t-102.5 31.5h-151v-263h151q70 0 103 29.5t33 101.5z" />
    <glyph glyph-name="germandbls" unicode="&#xdf;" horiz-adv-x="519" 
d="M474 187q0 -93 -50.5 -144.5t-143.5 -51.5q-47 0 -76 11v57q60 -11 67 -11q63 0 94 37.5t31 102.5q0 157 -136 157h-15v57h15q50 4 73.5 37.5t23.5 85.5q0 50 -27 84.5t-76 34.5q-29 0 -49.5 -9t-31.5 -22t-17 -36t-7 -41.5t-1 -47.5v-488h-68v506q0 195 175 195
q80 0 130 -46t50 -125q0 -56 -26 -97.5t-77 -56.5v-2q142 -15 142 -187z" />
    <glyph glyph-name="agrave" unicode="&#xe0;" horiz-adv-x="463" 
d="M263 559h-63l-67 134h88zM384 0h-66v63h-2q-18 -35 -60.5 -54.5t-85.5 -19.5q-61 0 -94.5 35.5t-33.5 97.5q0 39 22.5 69t58.5 46.5t73 24.5t73 8q31 0 47 3v10v10q0 27 -0.5 41t-5 35.5t-13.5 32.5t-27 19.5t-44 8.5q-88 0 -97 -76h-76q1 67 50.5 100t120.5 33
q82 0 121 -37t39 -116v-334zM316 216h-40q-57 0 -106.5 -25t-49.5 -76q0 -30 18.5 -49.5t48.5 -19.5q35 0 65.5 20.5t45.5 53.5q18 40 18 96z" />
    <glyph glyph-name="aacute" unicode="&#xe1;" horiz-adv-x="463" 
d="M330 693l-67 -134h-63l42 134h88zM384 0h-66v63h-2q-18 -35 -60.5 -54.5t-85.5 -19.5q-61 0 -94.5 35.5t-33.5 97.5q0 39 22.5 69t58.5 46.5t73 24.5t73 8q31 0 47 3v10v10q0 27 -0.5 41t-5 35.5t-13.5 32.5t-27 19.5t-44 8.5q-88 0 -97 -76h-76q1 67 50.5 100t120.5 33
q82 0 121 -37t39 -116v-334zM316 216h-40q-57 0 -106.5 -25t-49.5 -76q0 -30 18.5 -49.5t48.5 -19.5q35 0 65.5 20.5t45.5 53.5q18 40 18 96z" />
    <glyph glyph-name="acircumflex" unicode="&#xe2;" horiz-adv-x="463" 
d="M357 559h-61l-63 83l-65 -83h-61l88 134h74zM384 0h-66v63h-2q-18 -35 -60.5 -54.5t-85.5 -19.5q-61 0 -94.5 35.5t-33.5 97.5q0 39 22.5 69t58.5 46.5t73 24.5t73 8q31 0 47 3v10v10q0 27 -0.5 41t-5 35.5t-13.5 32.5t-27 19.5t-44 8.5q-88 0 -97 -76h-76q1 67 50.5 100
t120.5 33q82 0 121 -37t39 -116v-334zM316 216h-40q-57 0 -106.5 -25t-49.5 -76q0 -30 18.5 -49.5t48.5 -19.5q35 0 65.5 20.5t45.5 53.5q18 40 18 96z" />
    <glyph glyph-name="atilde" unicode="&#xe3;" horiz-adv-x="463" 
d="M351 666q0 -109 -58 -109q-26 0 -68 25.5t-49 25.5q-11 0 -16 -17t-5 -32h-42q0 114 57 114q22 0 64 -27t54 -27q21 0 21 47h42zM384 0h-66v63h-2q-18 -35 -60.5 -54.5t-85.5 -19.5q-61 0 -94.5 35.5t-33.5 97.5q0 39 22.5 69t58.5 46.5t73 24.5t73 8q31 0 47 3v10v10
q0 27 -0.5 41t-5 35.5t-13.5 32.5t-27 19.5t-44 8.5q-88 0 -97 -76h-76q1 67 50.5 100t120.5 33q82 0 121 -37t39 -116v-334zM316 216h-40q-57 0 -106.5 -25t-49.5 -76q0 -30 18.5 -49.5t48.5 -19.5q35 0 65.5 20.5t45.5 53.5q18 40 18 96z" />
    <glyph glyph-name="adieresis" unicode="&#xe4;" horiz-adv-x="463" 
d="M365 570h-90v88h90v-88zM189 570h-90v88h90v-88zM384 0h-66v63h-2q-18 -35 -60.5 -54.5t-85.5 -19.5q-61 0 -94.5 35.5t-33.5 97.5q0 39 22.5 69t58.5 46.5t73 24.5t73 8q31 0 47 3v10v10q0 27 -0.5 41t-5 35.5t-13.5 32.5t-27 19.5t-44 8.5q-88 0 -97 -76h-76
q1 67 50.5 100t120.5 33q82 0 121 -37t39 -116v-334zM316 216h-40q-57 0 -106.5 -25t-49.5 -76q0 -30 18.5 -49.5t48.5 -19.5q35 0 65.5 20.5t45.5 53.5q18 40 18 96z" />
    <glyph glyph-name="aring" unicode="&#xe5;" horiz-adv-x="463" 
d="M318 629q0 -35 -25.5 -60.5t-60.5 -25.5t-60.5 25.5t-25.5 60.5t26 60t61 25t60 -25t25 -60zM384 0h-66v63h-2q-18 -35 -60.5 -54.5t-85.5 -19.5q-61 0 -94.5 35.5t-33.5 97.5q0 39 22.5 69t58.5 46.5t73 24.5t73 8q31 0 47 3v10v10q0 27 -0.5 41t-5 35.5t-13.5 32.5
t-27 19.5t-44 8.5q-88 0 -97 -76h-76q1 67 50.5 100t120.5 33q82 0 121 -37t39 -116v-334zM275 629q0 17 -13 29.5t-30 12.5q-18 0 -30.5 -12t-12.5 -30t12.5 -30.5t30.5 -12.5t30.5 12.5t12.5 30.5zM316 216h-40q-57 0 -106.5 -25t-49.5 -76q0 -30 18.5 -49.5t48.5 -19.5
q35 0 65.5 20.5t45.5 53.5q18 40 18 96z" />
    <glyph glyph-name="ae" unicode="&#xe6;" horiz-adv-x="704" 
d="M662 253h-279v-27q0 -33 13 -67q44 -113 162 -113q41 0 93 13v-56q-45 -14 -109 -14q-58 0 -114 26.5t-79 73.5q-28 -54 -70.5 -77t-107.5 -23q-64 0 -96 44.5t-32 111.5q0 53 38 91.5t87.5 54t101.5 15.5l45 3v55q0 3 -4 15q-19 51 -84 51q-88 0 -97 -76h-76
q1 67 50.5 100t120.5 33q41 0 78 -15t54 -46q55 61 139 61q58 0 96.5 -31.5t54 -77t15.5 -101.5v-24zM584 310q0 46 -24 83t-67 37q-47 0 -72.5 -35t-32.5 -85h196zM315 188v65h-38q-59 0 -107.5 -30t-48.5 -85q0 -35 17 -63.5t50 -28.5q59 0 93 40.5t34 101.5z" />
    <glyph glyph-name="ccedilla" unicode="&#xe7;" horiz-adv-x="426" 
d="M403 331h-81q0 44 -21 71.5t-64 27.5q-59 0 -86 -50.5t-27 -115.5q0 -99 46.5 -158.5t142.5 -59.5q46 0 77 10v-54q-43 -13 -99 -13q-36 0 -66 6l-13 -53h15q39 0 61.5 -23.5t22.5 -62.5q0 -40 -28.5 -61.5t-69.5 -21.5q-34 0 -63 13v51q22 -24 57 -24q20 0 34 13.5
t14 32.5q0 9 -1.5 16t-6 11.5t-8 8.5t-11.5 6t-11.5 3.5t-14 2t-13 0.5h-14h-12.5l22 100q-139 52 -139 242q0 107 45.5 172.5t148.5 65.5q77 0 120 -40t43 -116z" />
    <glyph glyph-name="egrave" unicode="&#xe8;" horiz-adv-x="444" 
d="M253 559h-63l-67 134h88zM400 283h-274v-28q0 -86 43.5 -147.5t125.5 -61.5q42 0 94 13v-56q-45 -14 -109 -14q-118 0 -175 71.5t-57 193.5q0 103 44 168t142 65q81 0 123.5 -49.5t42.5 -131.5v-23zM322 340q0 39 -26 64.5t-65 25.5q-41 0 -66.5 -24.5t-33.5 -65.5h191z
" />
    <glyph glyph-name="eacute" unicode="&#xe9;" horiz-adv-x="444" 
d="M330 693l-67 -134h-63l42 134h88zM400 283h-274v-28q0 -86 43.5 -147.5t125.5 -61.5q42 0 94 13v-56q-45 -14 -109 -14q-118 0 -175 71.5t-57 193.5q0 103 44 168t142 65q81 0 123.5 -49.5t42.5 -131.5v-23zM322 340q0 39 -26 64.5t-65 25.5q-41 0 -66.5 -24.5
t-33.5 -65.5h191z" />
    <glyph glyph-name="ecircumflex" unicode="&#xea;" horiz-adv-x="444" 
d="M347 559h-61l-63 83l-65 -83h-61l88 134h74zM400 283h-274v-28q0 -86 43.5 -147.5t125.5 -61.5q42 0 94 13v-56q-45 -14 -109 -14q-118 0 -175 71.5t-57 193.5q0 103 44 168t142 65q81 0 123.5 -49.5t42.5 -131.5v-23zM322 340q0 39 -26 64.5t-65 25.5q-41 0 -66.5 -24.5
t-33.5 -65.5h191z" />
    <glyph glyph-name="edieresis" unicode="&#xeb;" horiz-adv-x="444" 
d="M355 570h-90v88h90v-88zM179 570h-90v88h90v-88zM400 283h-274v-28q0 -86 43.5 -147.5t125.5 -61.5q42 0 94 13v-56q-45 -14 -109 -14q-118 0 -175 71.5t-57 193.5q0 103 44 168t142 65q81 0 123.5 -49.5t42.5 -131.5v-23zM322 340q0 39 -26 64.5t-65 25.5
q-41 0 -66.5 -24.5t-33.5 -65.5h191z" />
    <glyph glyph-name="igrave" unicode="&#xec;" horiz-adv-x="241" 
d="M152 559h-63l-67 134h88zM155 0h-68v476h68v-476z" />
    <glyph glyph-name="iacute" unicode="&#xed;" horiz-adv-x="241" 
d="M219 693l-67 -134h-63l42 134h88zM155 0h-68v476h68v-476z" />
    <glyph glyph-name="icircumflex" unicode="&#xee;" horiz-adv-x="241" 
d="M246 559h-61l-63 83l-65 -83h-61l88 134h74zM155 0h-68v476h68v-476z" />
    <glyph glyph-name="idieresis" unicode="&#xef;" horiz-adv-x="241" 
d="M254 570h-90v88h90v-88zM78 570h-90v88h90v-88zM155 0h-68v476h68v-476z" />
    <glyph glyph-name="eth" unicode="&#xf0;" 
d="M453 237q0 -109 -49 -178.5t-154 -69.5t-154 69t-49 179t49 180t154 70q50 0 80 -35l2 2q-26 50 -88 97l-90 -36l-16 39l66 27q-43 28 -101 53h125l43 -27l79 32l17 -40l-58 -24q144 -135 144 -338zM375 238q0 35 -5.5 65.5t-18 60.5t-38.5 48t-63 18t-63 -17.5t-39 -48
t-18 -61t-5 -65.5t5 -65.5t18 -61t39 -48t63 -17.5t63 17.5t39 48t18 61t5 65.5z" />
    <glyph glyph-name="ntilde" unicode="&#xf1;" 
d="M369 666q0 -109 -58 -109q-26 0 -68 25.5t-49 25.5q-11 0 -16 -17t-5 -32h-42q0 114 57 114q22 0 64 -27t54 -27q21 0 21 47h42zM421 0h-68v264v19.5v22.5t-0.5 22t-3 23.5t-5.5 20.5t-8.5 19.5t-12.5 14t-17 10.5t-23 3q-44 0 -76.5 -41.5t-45.5 -90t-13 -91.5v-196h-68
v476h68v-110h2q40 121 149 121q59 0 90.5 -43t31.5 -104v-340z" />
    <glyph glyph-name="ograve" unicode="&#xf2;" horiz-adv-x="481" 
d="M272 559h-63l-67 134h88zM436 237q0 -108 -46.5 -178t-149.5 -70q-102 0 -148 70t-46 178t46 179t148 71q53 0 92.5 -20.5t61.5 -56.5t32 -79t10 -94zM358 238q0 33 -5 63t-16.5 61t-36.5 49.5t-60 18.5t-59.5 -18.5t-36 -50t-16 -61t-4.5 -62.5t4.5 -62.5t16 -61t36 -50
t59.5 -18.5t60 18.5t37 49.5t16.5 61t4.5 63z" />
    <glyph glyph-name="oacute" unicode="&#xf3;" horiz-adv-x="481" 
d="M339 693l-67 -134h-63l42 134h88zM436 237q0 -108 -46.5 -178t-149.5 -70q-102 0 -148 70t-46 178t46 179t148 71q53 0 92.5 -20.5t61.5 -56.5t32 -79t10 -94zM358 238q0 33 -5 63t-16.5 61t-36.5 49.5t-60 18.5t-59.5 -18.5t-36 -50t-16 -61t-4.5 -62.5t4.5 -62.5
t16 -61t36 -50t59.5 -18.5t60 18.5t37 49.5t16.5 61t4.5 63z" />
    <glyph glyph-name="ocircumflex" unicode="&#xf4;" horiz-adv-x="481" 
d="M366 559h-61l-63 83l-65 -83h-61l88 134h74zM436 237q0 -108 -46.5 -178t-149.5 -70q-102 0 -148 70t-46 178t46 179t148 71q53 0 92.5 -20.5t61.5 -56.5t32 -79t10 -94zM358 238q0 33 -5 63t-16.5 61t-36.5 49.5t-60 18.5t-59.5 -18.5t-36 -50t-16 -61t-4.5 -62.5
t4.5 -62.5t16 -61t36 -50t59.5 -18.5t60 18.5t37 49.5t16.5 61t4.5 63z" />
    <glyph glyph-name="otilde" unicode="&#xf5;" horiz-adv-x="481" 
d="M360 666q0 -109 -58 -109q-26 0 -68 25.5t-49 25.5q-11 0 -16 -17t-5 -32h-42q0 114 57 114q21 0 63 -27t55 -27q21 0 21 47h42zM436 237q0 -108 -46.5 -178t-149.5 -70q-102 0 -148 70t-46 178t46 179t148 71q53 0 92.5 -20.5t61.5 -56.5t32 -79t10 -94zM358 238
q0 33 -5 63t-16.5 61t-36.5 49.5t-60 18.5t-59.5 -18.5t-36 -50t-16 -61t-4.5 -62.5t4.5 -62.5t16 -61t36 -50t59.5 -18.5t60 18.5t37 49.5t16.5 61t4.5 63z" />
    <glyph glyph-name="odieresis" unicode="&#xf6;" horiz-adv-x="481" 
d="M374 570h-90v88h90v-88zM198 570h-90v88h90v-88zM436 237q0 -108 -46.5 -178t-149.5 -70q-102 0 -148 70t-46 178t46 179t148 71q53 0 92.5 -20.5t61.5 -56.5t32 -79t10 -94zM358 238q0 33 -5 63t-16.5 61t-36.5 49.5t-60 18.5t-59.5 -18.5t-36 -50t-16 -61t-4.5 -62.5
t4.5 -62.5t16 -61t36 -50t59.5 -18.5t60 18.5t37 49.5t16.5 61t4.5 63z" />
    <glyph glyph-name="divide" unicode="&#xf7;" horiz-adv-x="549" 
d="M321 396h-92v91h92v-91zM506 213h-463v61h463v-61zM321 0h-92v91h92v-91z" />
    <glyph glyph-name="oslash" unicode="&#xf8;" horiz-adv-x="481" 
d="M436 237q0 -108 -46.5 -178t-149.5 -70q-66 0 -99 28l-41 -69l-36 22l44 74q-62 66 -62 186q0 50 10 93.5t31.5 81.5t60.5 60t92 22q58 0 102 -29l40 67l36 -22l-43 -72q61 -76 61 -194zM312 403q-16 27 -72 27q-35 0 -59.5 -18.5t-36 -50t-16 -61t-4.5 -62.5
q0 -79 23 -130zM358 238q0 81 -22 128l-165 -294q26 -26 69 -26q35 0 60 18.5t37 49.5t16.5 61t4.5 63z" />
    <glyph glyph-name="ugrave" unicode="&#xf9;" 
d="M291 559h-63l-67 134h88zM416 0h-68v110h-2q-36 -121 -148 -121q-59 0 -90.5 42.5t-31.5 104.5v340h68v-264v-19.5v-22.5t0.5 -22t3 -23.5t5.5 -20.5t8.5 -19.5t12.5 -14t17 -10.5t23 -3q34 0 61 24t42 60t23 72.5t8 66.5v196h68v-476z" />
    <glyph glyph-name="uacute" unicode="&#xfa;" 
d="M348 693l-67 -134h-63l42 134h88zM416 0h-68v110h-2q-36 -121 -148 -121q-59 0 -90.5 42.5t-31.5 104.5v340h68v-264v-19.5v-22.5t0.5 -22t3 -23.5t5.5 -20.5t8.5 -19.5t12.5 -14t17 -10.5t23 -3q34 0 61 24t42 60t23 72.5t8 66.5v196h68v-476z" />
    <glyph glyph-name="ucircumflex" unicode="&#xfb;" 
d="M375 559h-61l-63 83l-65 -83h-61l88 134h74zM416 0h-68v110h-2q-36 -121 -148 -121q-59 0 -90.5 42.5t-31.5 104.5v340h68v-264v-19.5v-22.5t0.5 -22t3 -23.5t5.5 -20.5t8.5 -19.5t12.5 -14t17 -10.5t23 -3q34 0 61 24t42 60t23 72.5t8 66.5v196h68v-476z" />
    <glyph glyph-name="udieresis" unicode="&#xfc;" 
d="M388 570h-90v88h90v-88zM212 570h-90v88h90v-88zM416 0h-68v110h-2q-36 -121 -148 -121q-59 0 -90.5 42.5t-31.5 104.5v340h68v-264v-19.5v-22.5t0.5 -22t3 -23.5t5.5 -20.5t8.5 -19.5t12.5 -14t17 -10.5t23 -3q34 0 61 24t42 60t23 72.5t8 66.5v196h68v-476z" />
    <glyph glyph-name="yacute" unicode="&#xfd;" horiz-adv-x="426" 
d="M311 693l-67 -134h-63l42 134h88zM421 476l-230 -669h-70l67 193l-182 476h73l139 -374h2l128 374h73z" />
    <glyph glyph-name="thorn" unicode="&#xfe;" horiz-adv-x="463" 
d="M423 249q0 -45 -6.5 -85.5t-22.5 -82.5t-50 -67t-81 -25q-95 0 -126 89h-2v-292h-68v904h68v-295h2q39 92 130 92q46 0 78.5 -22t48.5 -59.5t22.5 -75.5t6.5 -81zM345 249q0 181 -99 181q-38 0 -64.5 -35.5t-36.5 -76.5t-10 -78q0 -30 5 -60.5t16.5 -62t35 -51.5
t55.5 -20q31 0 52.5 21.5t30.5 57t12 64.5t3 60z" />
    <glyph glyph-name="ydieresis" unicode="&#xff;" horiz-adv-x="426" 
d="M346 570h-90v88h90v-88zM170 570h-90v88h90v-88zM421 476l-230 -669h-70l67 193l-182 476h73l139 -374h2l128 374h73z" />
    <glyph glyph-name="dotlessi" unicode="&#x131;" horiz-adv-x="241" 
d="M155 0h-68v476h68v-476z" />
    <glyph glyph-name="Lslash" unicode="&#x141;" horiz-adv-x="407" 
d="M410 0h-323v286l-87 -74v58l87 74v346h78v-277l110 96v-58l-110 -96v-290h245v-65z" />
    <glyph glyph-name="lslash" unicode="&#x142;" horiz-adv-x="241" 
d="M241 460l-85 -75v-385h-68v326l-88 -76v55l88 76v309h68v-250l85 74v-54z" />
    <glyph glyph-name="OE" unicode="&#x152;" horiz-adv-x="870" 
d="M845 0h-362v94h-2q-32 -57 -75 -81t-109 -24q-73 0 -123.5 31.5t-76 86.5t-36 112.5t-10.5 126.5t10.5 126.5t36 112t76 85.5t123.5 31q122 0 184 -108h2v97h352v-65h-274v-231h261v-65h-261v-264h284v-65zM483 347q0 48 -7.5 93.5t-25 92t-54.5 75t-88 28.5
q-172 0 -172 -289q0 -293 172 -293q175 0 175 293z" />
    <glyph glyph-name="oe" unicode="&#x153;" horiz-adv-x="759" 
d="M717 251h-279v-28q0 -79 47.5 -128t127.5 -49q42 0 94 13v-56q-46 -14 -110 -14q-60 0 -113 25.5t-73 75.5q-47 -101 -171 -101q-102 0 -148 70t-46 178t46 179t148 71q49 0 93 -22t66 -62q23 40 64 62t89 22q84 0 124.5 -61.5t40.5 -150.5v-24zM639 308q0 46 -23.5 84
t-66.5 38q-48 0 -73.5 -35.5t-32.5 -86.5h196zM364 238q0 33 -5 63t-17 61t-37 49.5t-60 18.5q-36 0 -61.5 -18t-37.5 -48.5t-17 -61t-5 -64.5t5 -64.5t17 -61t37.5 -48.5t61.5 -18q35 0 60 18.5t37 49t17 60.5t5 64z" />
    <glyph glyph-name="Scaron" unicode="&#x160;" horiz-adv-x="481" 
d="M366 907l-88 -134h-74l-88 134h61l65 -84l63 84h61zM449 183q0 -101 -68.5 -147.5t-174.5 -46.5q-68 0 -159 21v80q87 -36 168 -36q62 0 105.5 29.5t43.5 88.5q0 28 -8 48.5t-29 38.5t-34 26l-44 26l-61 34l-38.5 21.5t-33 20.5t-32.5 26t-22 28.5t-18 38t-5 44.5
q0 90 64 133.5t158 43.5q58 0 144 -18v-77q-73 30 -151 30q-54 0 -92 -26.5t-38 -78.5q0 -22 9.5 -41t31.5 -35.5t34 -24t40 -22.5l64 -35q74 -40 110 -80t36 -110z" />
    <glyph glyph-name="scaron" unicode="&#x161;" horiz-adv-x="370" 
d="M305 693l-88 -134h-74l-88 134h61l65 -84l63 84h61zM344 133q0 -75 -49 -109.5t-128 -34.5q-65 0 -130 20v62q71 -25 123 -25q116 0 116 77q0 11 -4.5 21.5t-9.5 17t-17 15l-16.5 11.5t-20.5 11.5t-18 9.5l-43 23q-29 16 -41.5 23.5t-32 24t-27 36t-7.5 45.5
q0 65 47 95.5t116 30.5q46 0 112 -16v-63q-58 22 -111 22q-35 0 -65.5 -15.5t-30.5 -46.5q0 -14 10.5 -26.5t21.5 -19.5t29.5 -16.5l24.5 -12.5l40 -24q4 -2 21 -12t21.5 -13l18 -12.5t17.5 -14.5l12.5 -15.5t11.5 -19.5t6 -22t3 -27z" />
    <glyph glyph-name="Ydieresis" unicode="&#x178;" 
d="M383 784h-90v88h90v-88zM207 784h-90v88h90v-88zM506 690l-218 -372v-318h-78v318l-215 372h85l169 -293l172 293h85z" />
    <glyph glyph-name="Zcaron" unicode="&#x17d;" horiz-adv-x="481" 
d="M366 907l-88 -134h-74l-88 134h61l65 -84l63 84h61zM456 0h-432v67l332 558h-315v65h401v-67l-331 -558h345v-65z" />
    <glyph glyph-name="zcaron" unicode="&#x17e;" horiz-adv-x="407" 
d="M329 693l-88 -134h-74l-88 134h61l65 -84l63 84h61zM372 0h-341v56l249 363h-231v57h314v-58l-248 -361h257v-57z" />
    <glyph glyph-name="florin" unicode="&#x192;" horiz-adv-x="315" 
d="M386 682l-9 -57q-46 11 -63 11q-15 0 -28 -2.5t-22.5 -6t-18 -11l-14.5 -13t-11 -17.5t-8 -18t-6.5 -21.5t-4.5 -21.5l-4 -23.5l-4 -23.5h124l-10 -57h-124l-74 -421h-78l74 421h-82l10 57h82l6 27q12 59 17 73q40 115 164 115q42 0 84 -11z" />
    <glyph glyph-name="circumflex" unicode="&#x2c6;" horiz-adv-x="300" 
d="M275 559h-61l-63 83l-65 -83h-61l88 134h74z" />
    <glyph glyph-name="caron" unicode="&#x2c7;" horiz-adv-x="300" 
d="M275 693l-88 -134h-74l-88 134h61l65 -84l63 84h61z" />
    <glyph glyph-name="uni02C9" unicode="&#x2c9;" horiz-adv-x="300" 
d="M276 559h-253v60h253v-60z" />
    <glyph glyph-name="breve" unicode="&#x2d8;" horiz-adv-x="300" 
d="M274 693q0 -57 -33.5 -95.5t-89.5 -38.5t-90.5 38.5t-34.5 95.5h44q12 -73 79 -73q32 0 56 21t24 52h45z" />
    <glyph glyph-name="dotaccent" unicode="&#x2d9;" horiz-adv-x="300" 
d="M196 570h-92v91h92v-91z" />
    <glyph glyph-name="ring" unicode="&#x2da;" horiz-adv-x="300" 
d="M236 629q0 -35 -25.5 -60.5t-60.5 -25.5t-60.5 25.5t-25.5 60.5t26 60t61 25t60 -25t25 -60zM193 629q0 17 -13 29.5t-30 12.5q-18 0 -30.5 -12t-12.5 -30t12.5 -30.5t30.5 -12.5t30.5 12.5t12.5 30.5z" />
    <glyph glyph-name="ogonek" unicode="&#x2db;" horiz-adv-x="300" 
d="M273 -212q-38 -8 -58 -8q-42 0 -71 23t-29 64q0 67 86 142h43q-71 -71 -71 -125q0 -26 14 -44t39 -18q24 0 47 15v-49z" />
    <glyph glyph-name="tilde" unicode="&#x2dc;" horiz-adv-x="300" 
d="M269 666q0 -109 -58 -109q-26 0 -68 25.5t-49 25.5q-11 0 -16 -17t-5 -32h-42q0 114 57 114q21 0 63.5 -27t54.5 -27q21 0 21 47h42z" />
    <glyph glyph-name="hungarumlaut" unicode="&#x2dd;" horiz-adv-x="300" 
d="M311 693l-67 -134h-63l42 134h88zM186 693l-67 -134h-63l42 134h88z" />
    <glyph glyph-name="uni03A9" unicode="&#x3a9;" horiz-adv-x="660" 
d="M614 0h-214v65q35 35 60 68t48.5 99t23.5 143q0 120 -52.5 194t-146.5 74q-93 0 -149 -75t-56 -193q0 -187 134 -310v-65h-214v65h141q-143 126 -143 322q0 140 80.5 232.5t208.5 92.5q130 0 205 -89t75 -234q0 -107 -41.5 -189t-102.5 -135h143v-65z" />
    <glyph glyph-name="uni03BC" unicode="&#x3bc;" horiz-adv-x="576" 
d="M490 -3q-16 -4 -24 -4q-98 0 -98 97h-2q-10 -46 -44.5 -73.5t-81.5 -27.5q-30 0 -47.5 7t-39.5 27v-227h-67v680h68v-275q0 -25 1.5 -43.5t7 -41t15.5 -36.5t29.5 -24t45.5 -10q36 0 60.5 22.5t35.5 59.5t15 69t4 67v212h68v-334q0 -3 -0.5 -16t0 -19.5t1.5 -18t4 -18
t7.5 -13.5t12 -10.5t18.5 -3.5q7 0 11 1v-47z" />
    <glyph glyph-name="pi" unicode="&#x3c0;" horiz-adv-x="588" 
d="M589 8q-25 -15 -69 -15q-62 0 -90 38.5t-28 96.5v306h-177v-299q0 -77 -14 -135h-87q15 60 15 138v296q-47 0 -91 -22l-24 59q51 29 140 29h421v-66h-97v-296q0 -80 55 -80q11 0 29 8l8.5 -29.5t8.5 -28.5z" />
    <glyph glyph-name="endash" unicode="&#x2013;" 
d="M449 215h-397v68h397v-68z" />
    <glyph glyph-name="emdash" unicode="&#x2014;" horiz-adv-x="685" 
d="M634 215h-582v68h582v-68z" />
    <glyph glyph-name="quoteleft" unicode="&#x2018;" horiz-adv-x="204" 
d="M150 690l-10 -215h-90l34 215h66z" />
    <glyph glyph-name="quoteright" unicode="&#x2019;" horiz-adv-x="204" 
d="M154 690l-33 -215h-67l10 215h90z" />
    <glyph glyph-name="quotesinglbase" unicode="&#x201a;" horiz-adv-x="204" 
d="M154 100l-33 -216h-67l10 216h90z" />
    <glyph glyph-name="quotedblleft" unicode="&#x201c;" horiz-adv-x="352" 
d="M298 690l-10 -215h-90l33 215h67zM149 690l-10 -215h-90l33 215h67z" />
    <glyph glyph-name="quotedblright" unicode="&#x201d;" horiz-adv-x="352" 
d="M303 690l-33 -215h-67l10 215h90zM154 690l-33 -215h-67l10 215h90z" />
    <glyph glyph-name="quotedblbase" unicode="&#x201e;" horiz-adv-x="352" 
d="M303 100l-33 -216h-67l10 216h90zM154 100l-33 -216h-67l10 216h90z" />
    <glyph glyph-name="dagger" unicode="&#x2020;" 
d="M462 379h-174v-379h-75v379h-174v65h174v246h75v-246h174v-65z" />
    <glyph glyph-name="daggerdbl" unicode="&#x2021;" horiz-adv-x="519" 
d="M472 316h-175v-316h-75v316h-175v65h175v67h-175v65h175v177h75v-177h175v-65h-175v-67h175v-65z" />
    <glyph glyph-name="bullet" unicode="&#x2022;" 
d="M431 360q0 -74 -53.5 -127t-127.5 -53q-75 0 -128 52.5t-53 127.5t53 128.5t128 53.5t128 -53.5t53 -128.5z" />
    <glyph glyph-name="ellipsis" unicode="&#x2026;" horiz-adv-x="704" 
d="M632 0h-90v93h90v-93zM397 0h-90v93h90v-93zM162 0h-90v93h90v-93z" />
    <glyph glyph-name="perthousand" unicode="&#x2030;" horiz-adv-x="1167" 
d="M1140 213q0 -224 -148 -224t-148 224q0 223 148 223t148 -223zM788 213q0 -224 -148 -224q-44 0 -75 20t-46.5 55t-21.5 71t-6 78t6 77.5t21.5 70.5t46.5 55t75 20q148 0 148 -223zM540 634l-208 -634h-56l207 634h57zM324 422q0 -224 -148 -224t-148 224q0 223 148 223
t148 -223zM1080 213q0 32 -2 54.5t-9.5 54t-27 49t-49.5 17.5t-49.5 -17.5t-27 -49t-9.5 -54t-2 -54.5q0 -24 1 -42t5.5 -45.5t13.5 -45t26.5 -30.5t41.5 -13t41.5 13t26.5 30.5t13.5 45t5.5 45.5t1 42zM728 213q0 32 -2 54.5t-9.5 54t-27 49t-49.5 17.5t-49.5 -17.5
t-27.5 -49t-10 -54t-2 -54.5t2 -55t10 -54.5t27.5 -49t49.5 -17.5q24 0 41.5 13t26.5 30.5t13.5 45t5.5 45.5t1 42zM264 422q0 32 -2 54.5t-9.5 54t-27 49t-49.5 17.5t-49.5 -17.5t-27 -49t-9.5 -54t-2 -54.5q0 -24 1 -42t5.5 -45.5t13.5 -45t26.5 -30.5t41.5 -13t41.5 13
t26.5 30.5t13.5 45t5.5 45.5t1 42z" />
    <glyph glyph-name="guilsinglleft" unicode="&#x2039;" horiz-adv-x="222" 
d="M178 59h-72l-73 185l73 188h72l-62 -188z" />
    <glyph glyph-name="guilsinglright" unicode="&#x203a;" horiz-adv-x="222" 
d="M189 248l-73 -189h-72l61 189l-61 184h72z" />
    <glyph glyph-name="fraction" unicode="&#x2044;" horiz-adv-x="259" 
d="M262 634l-208 -634h-57l208 634h57z" />
    <glyph glyph-name="Euro" unicode="&#x20ac;" horiz-adv-x="537" 
d="M514 477h-83q-1 61 -29 94t-78 33q-63 0 -100 -53t-45 -154h223l-9 -45h-216v-5q-1 -9 -1 -15l2 -22v-6h205l-9 -45h-192q14 -106 55 -156t112 -50q75 0 141 51v-76q-81 -39 -150 -39q-103 0 -164 68.5t-76 201.5h-82l8 45h71v6q-1 11 -1 20l1 17v5h-60l9 45h53l1 6
q10 128 67.5 195.5t156.5 67.5q86 0 138 -51t52 -134v-4z" />
    <glyph glyph-name="litre" unicode="&#x2113;" horiz-adv-x="464" 
d="M380 50q-58 -63 -123 -63q-49 0 -79 30q-37 39 -37 119v113l-56 -63l-32 37l88 101v232q0 85 32 128.5t87 43.5q48 0 71.5 -32t23.5 -73q0 -115 -111 -265l-29 -39v-183q0 -90 58 -90q36 0 80 48zM300 615q0 53 -36 53q-49 0 -49 -109v-159q2 2 16 22q69 104 69 193z" />
    <glyph glyph-name="trademark" unicode="&#x2122;" horiz-adv-x="611" 
d="M520 400h-43v262h-2l-58 -262h-53l-57 262h-2v-262h-43v290h79l49 -228h2l48 228h80v-290zM228 648h-73v-248h-43v248h-73v42h189v-42z" />
    <glyph glyph-name="Omega" unicode="&#x2126;" horiz-adv-x="660" 
d="M614 0h-214v65q35 35 60 68t48.5 99t23.5 143q0 120 -52.5 194t-146.5 74q-93 0 -149 -75t-56 -193q0 -187 134 -310v-65h-214v65h141q-143 126 -143 322q0 140 80.5 232.5t208.5 92.5q130 0 205 -89t75 -234q0 -107 -41.5 -189t-102.5 -135h143v-65z" />
    <glyph glyph-name="estimated" unicode="&#x212e;" horiz-adv-x="637" 
d="M587 277h-428v-190q62 -62 152 -62q129 0 204 126q6 -3 17.5 -11t17.5 -11q-48 -70 -103 -105.5t-136 -35.5q-122 0 -196.5 83t-74.5 206q0 125 73.5 207.5t197.5 82.5q125 0 198 -81.5t78 -208.5zM464 314v153q-64 64 -154 64q-89 0 -151 -63v-154h305z" />
    <glyph glyph-name="partialdiff" unicode="&#x2202;" horiz-adv-x="537" 
d="M499 491q0 -90 -24 -195q-14 -58 -37 -109.5t-55 -97t-77.5 -72.5t-97.5 -27q-75 0 -121.5 50.5t-46.5 132.5q0 140 76.5 232.5t177.5 92.5q44 0 75 -19t46 -48h2q5 35 5 72q0 162 -128 162q-44 0 -86 -24l-20 56q50 30 116 30q90 0 142.5 -60t52.5 -176zM407 357
q-24 82 -107 82q-73 0 -127.5 -80.5t-54.5 -189.5q0 -54 25.5 -85.5t65.5 -31.5q68 0 120.5 83t77.5 222z" />
    <glyph glyph-name="Delta" unicode="&#x2206;" horiz-adv-x="579" 
d="M557 0h-536v39l220 661h99l217 -661v-39zM465 66l-162 499q-4 13 -8 32t-6 24h-3q-8 -36 -14 -55l-162 -500h355z" />
    <glyph glyph-name="product" unicode="&#x220f;" horiz-adv-x="667" 
d="M588 -230h-79v862h-350v-862h-79v930h508v-930z" />
    <glyph glyph-name="summation" unicode="&#x2211;" horiz-adv-x="589" 
d="M546 -230h-522v37l300 432l-278 418v43h476v-65h-379l263 -394l-282 -406h422v-65z" />
    <glyph glyph-name="minus" unicode="&#x2212;" horiz-adv-x="574" 
d="M518 213h-462v61h462v-61z" />
    <glyph glyph-name="uni2215" unicode="&#x2215;" horiz-adv-x="259" 
d="M262 634l-208 -634h-57l208 634h57z" />
    <glyph glyph-name="uni2219" unicode="&#x2219;" horiz-adv-x="204" 
d="M150 269h-96v97h96v-97z" />
    <glyph glyph-name="radical" unicode="&#x221a;" horiz-adv-x="461" 
d="M473 728l-171 -740h-67l-126 338l-51 -30l-27 46l116 70l120 -323l146 639h60z" />
    <glyph glyph-name="infinity" unicode="&#x221e;" horiz-adv-x="723" 
d="M674 294q0 -68 -42.5 -113.5t-107.5 -45.5q-53 0 -95.5 29t-69.5 75h-2q-68 -104 -161 -104q-66 0 -110 43t-44 112q0 70 43 113.5t109 43.5q99 0 163 -103h2q64 103 162 103q66 0 109.5 -42.5t43.5 -110.5zM608 293q0 42 -23.5 69t-67.5 27q-68 0 -128 -97
q54 -98 127 -98q44 0 68 28.5t24 70.5zM327 292q-25 43 -59 70t-69 27q-44 0 -67.5 -28.5t-23.5 -70.5t26 -69.5t65 -27.5q70 0 128 99z" />
    <glyph glyph-name="integral" unicode="&#x222b;" horiz-adv-x="462" 
d="M383 678q-18 8 -41 8q-76 0 -76 -96v-650q0 -75 -37.5 -119t-108.5 -44q-43 0 -65 10l15 60q24 -8 41 -8q77 0 77 96v650q0 75 38 119.5t110 44.5q42 0 64 -12q-3 -8 -8.5 -28.5t-8.5 -30.5z" />
    <glyph glyph-name="approxequal" unicode="&#x2248;" horiz-adv-x="574" 
d="M507 419q-53 -81 -125 -81q-51 0 -102 31q-47 31 -85 31q-47 0 -82 -63l-45 49q53 82 126 82q51 0 100 -31q51 -31 86 -31q47 0 82 63zM507 203q-52 -82 -125 -82q-51 0 -102 31q-47 31 -85 31q-47 0 -82 -63l-45 50q52 81 126 81q51 0 100 -31q51 -31 86 -31q46 0 82 63
z" />
    <glyph glyph-name="notequal" unicode="&#x2260;" horiz-adv-x="574" 
d="M488 152h-231l-56 -123h-72l57 123h-99v68h129l68 150h-197v68h227l58 129h72l-58 -129h102v-68h-133l-68 -150h201v-68z" />
    <glyph glyph-name="lessequal" unicode="&#x2264;" horiz-adv-x="574" 
d="M488 0h-401v68h401v-68zM488 135l-401 191v51l401 191v-74l-307 -142v-2l307 -142v-73z" />
    <glyph glyph-name="greaterequal" unicode="&#x2265;" horiz-adv-x="574" 
d="M488 0h-401v68h401v-68zM488 326l-401 -190v73l307 142v2l-307 142v73l401 -191v-51z" />
    <glyph glyph-name="lozenge" unicode="&#x25ca;" horiz-adv-x="501" 
d="M455 350l-185 -350h-41l-183 349l183 351h41zM390 350l-140 267l-140 -267l139 -267z" />
    </font>
</defs>
</svg>
