<?xml version="1.0" standalone="no"?>
<!DOCTYPE svg PUBLIC "-//W3C//DTD SVG 1.1//EN" "http://www.w3.org/Graphics/SVG/1.1/DTD/svg11.dtd" >
<svg>
<metadata>
Created by FontForge 20090622 at Wed Oct 30 22:25:52 2019
 By deploy user
Font software Copyright 1998 Monotype Imaging, Inc. All rights reserved.
</metadata>
<defs>
<font id="RotisSemiSansStd-Bold" horiz-adv-x="593" >
  <font-face 
    font-family="Rotis SemiSans Std"
    font-weight="700"
    font-stretch="normal"
    units-per-em="1000"
    panose-1="2 0 8 3 4 0 0 2 2 4"
    ascent="710"
    descent="-290"
    x-height="476"
    cap-height="690"
    bbox="-56 -244 1197 953"
    underline-thickness="50"
    underline-position="-75"
    unicode-range="U+0020-U+FB02"
  />
<missing-glyph horiz-adv-x="500" 
d="M12 0v665h475v-665h-475zM88 618l162 -243l161 243h-323zM60 575v-484l40 61l80 120l41 61zM440 575l-162 -242l162 -243v485zM411 48l-161 242l-162 -242h323z" />
    <glyph glyph-name="fi" unicode="fi" 
d="M518 590h-109v100h109v-100zM514 0h-101v476h101v-476zM391 621q-52 22 -89 22q-17 0 -30.5 -3t-23 -10t-16.5 -13.5t-11 -19l-6.5 -20.5t-3.5 -24.5l-1.5 -24.5t0 -27t0.5 -25h135v-52h-135v-424h-101v424h-83v52h83v45q0 94 42.5 137t138.5 43q49 0 101 -11v-69z" />
    <glyph glyph-name="fl" unicode="fl" 
d="M514 0h-101v690h101v-690zM391 621q-52 22 -89 22q-17 0 -30.5 -3t-23 -10t-16.5 -13.5t-11 -19l-6.5 -20.5t-3.5 -24.5l-1.5 -24.5t0 -27t0.5 -25h135v-52h-135v-424h-101v424h-83v52h83v45q0 94 42.5 137t138.5 43q49 0 101 -11v-69z" />
    <glyph glyph-name=".notdef" horiz-adv-x="500" 
d="M12 0v665h475v-665h-475zM88 618l162 -243l161 243h-323zM60 575v-484l40 61l80 120l41 61zM440 575l-162 -242l162 -243v485zM411 48l-161 242l-162 -242h323z" />
    <glyph glyph-name=".null" horiz-adv-x="0" 
 />
    <glyph glyph-name="nonmarkingreturn" horiz-adv-x="333" 
 />
    <glyph glyph-name="space" unicode=" " horiz-adv-x="278" 
 />
    <glyph glyph-name="exclam" unicode="!" horiz-adv-x="297" 
d="M246 690l-21 -493h-79l-20 493h120zM246 0h-121v121h121v-121z" />
    <glyph glyph-name="quotedbl" unicode="&#x22;" horiz-adv-x="408" 
d="M346 690l-20 -228h-76l-20 228h116zM178 690l-20 -228h-76l-20 228h116z" />
    <glyph glyph-name="numbersign" unicode="#" 
d="M528 433l-18 -69h-83l-24 -95h83l-18 -69h-83l-52 -200h-80l51 200h-80l-51 -200h-80l51 200h-80l18 69h80l24 95h-80l18 69h81l52 201h80l-52 -201h80l52 201h80l-52 -201h83zM347 364h-81l-24 -95h80z" />
    <glyph glyph-name="dollar" unicode="$" horiz-adv-x="575" 
d="M516 165q0 -89 -54 -128.5t-148 -47.5v-87h-54v87q-87 5 -138 38.5t-59 113.5h112q0 -38 24 -67t61 -31v275q-41 10 -70.5 22.5t-58.5 32.5t-44.5 51.5t-15.5 72.5q0 81 52.5 123.5t136.5 49.5v77h54v-77q76 -7 127.5 -44.5t59.5 -107.5h-112q0 83 -75 98v-252
q31 -10 45 -15t40.5 -16t39 -20t30.5 -24.5t26 -32t14.5 -40t6.5 -51.5zM260 383v233q-75 -19 -75 -112q0 -46 17 -72.5t58 -48.5zM402 161q0 50 -21 81.5t-67 54.5v-254q88 20 88 118z" />
    <glyph glyph-name="percent" unicode="%" horiz-adv-x="853" 
d="M825 212q0 -43 -7.5 -79.5t-24 -70.5t-49 -53.5t-77.5 -19.5t-77.5 19.5t-49 53.5t-24 70.5t-7.5 79.5t7.5 79.5t24 70.5t49 54t77.5 20t77.5 -20t49 -54t24 -70.5t7.5 -79.5zM571 634l-222 -634h-68l222 634h68zM344 422q0 -42 -7.5 -79t-24.5 -71t-49.5 -53.5
t-77.5 -19.5t-77 20t-49 53.5t-24.5 70.5t-7.5 79t7.5 79t24.5 70.5t49 53.5t77 20t77.5 -19.5t49.5 -53.5t24.5 -71t7.5 -79zM747 212q0 186 -80 186t-80 -186q0 -185 80 -185q28 0 46 19t24.5 55t8 57t1.5 54zM266 422q0 25 -0.5 41.5t-5 47t-12 48.5t-24 33t-39.5 15
q-80 0 -80 -185t80 -185q23 0 39.5 15t24 33t12 48.5t5 47t0.5 41.5z" />
    <glyph glyph-name="ampersand" unicode="&#x26;" horiz-adv-x="686" 
d="M682 323h-125v-161v-10q0 -28 1 -41.5t7.5 -31t22.5 -25t42 -7.5q16 0 48 8v-58q-54 -8 -82 -8q-73 0 -106.5 30.5t-33.5 102.5v201h-130q-83 0 -120 -27.5t-37 -109.5q0 -144 121 -144q47 0 93 20v-60q-59 -13 -109 -13q-102 0 -162 44.5t-60 143.5q0 74 33 116t105 56
v2q-64 15 -96.5 50.5t-32.5 99.5q0 85 56.5 127t144.5 42q55 0 116 -16v-64q-56 27 -106 27q-47 0 -70.5 -33.5t-23.5 -82.5q0 -73 36.5 -99t111.5 -26h130v200l101 63v-263h125v-53z" />
    <glyph glyph-name="quotesingle" unicode="'" horiz-adv-x="241" 
d="M178 690l-20 -228h-76l-20 228h116z" />
    <glyph glyph-name="parenleft" unicode="(" horiz-adv-x="315" 
d="M291 -158q-56 7 -95.5 29.5t-63.5 59t-36 78.5t-18 98q-6 54 -6 191q0 136 6 190q6 56 18 98t36 78.5t63.5 59t95.5 29.5v-52q-26 -8 -45.5 -29t-30 -44.5t-18.5 -58t-10.5 -56.5t-4.5 -53q-4 -54 -4 -162q0 -82 2 -123q1 -30 2.5 -48.5t5.5 -53.5t12 -59t19 -50.5
t29.5 -44t42.5 -24.5v-53z" />
    <glyph glyph-name="parenright" unicode=")" horiz-adv-x="315" 
d="M243 298q0 -137 -6 -191q-6 -56 -18 -98t-36 -78.5t-63.5 -59t-95.5 -29.5v53q24 7 42.5 24.5t29.5 44t19 50.5t12 58.5t5.5 53t2.5 48.5q2 42 2 124q0 108 -4 162q-2 31 -4.5 53t-10.5 56.5t-18.5 57.5t-30 44.5t-45.5 29.5v52q56 -7 95.5 -29.5t63.5 -59t36 -78.5
t18 -98q6 -54 6 -190z" />
    <glyph glyph-name="asterisk" unicode="*" horiz-adv-x="315" 
d="M307 525h-69q-5 0 -11.5 1.5t-14 3t-11.5 2.5q25 -27 59 -91l-54 -31q-39 58 -48 95q-11 -38 -49 -95l-54 31q34 64 59 91l-12 -3t-14.5 -3t-11.5 -1h-68v60h68q5 0 38 -6q-23 24 -59 91l54 31q41 -59 48 -98h2q8 31 11 36q5 10 36 62l54 -31q-35 -66 -59 -92l15 4
q15 3 22 3h69v-60z" />
    <glyph glyph-name="plus" unicode="+" 
d="M531 209h-195v-209h-80v209h-195v80h195v187h80v-187h195v-80z" />
    <glyph glyph-name="comma" unicode="," horiz-adv-x="222" 
d="M182 121l-45 -227h-80l9 227h116z" />
    <glyph glyph-name="hyphen" unicode="-" horiz-adv-x="445" 
d="M394 208h-343v91h343v-91z" />
    <glyph glyph-name="period" unicode="." horiz-adv-x="222" 
d="M172 0h-121v121h121v-121z" />
    <glyph glyph-name="slash" unicode="/" horiz-adv-x="315" 
d="M309 761l-212 -897h-91l212 897h91z" />
    <glyph glyph-name="zero" unicode="0" horiz-adv-x="537" 
d="M500 317q0 -50 -6 -93.5t-22 -88t-41 -76t-66.5 -51t-95.5 -19.5q-67 0 -115 28.5t-72 78.5t-34.5 103.5t-10.5 117.5t10.5 117.5t34.5 103.5t72 78.5t115 28.5q54 0 95.5 -19.5t66.5 -51t41 -76t22 -88t6 -93.5zM386 317q0 30 -0.5 49t-3.5 56t-10.5 61.5t-20 51
t-33.5 40t-49 13.5t-49.5 -13.5t-33.5 -40t-20 -51t-11 -61.5t-3.5 -56t-0.5 -49t0.5 -49t3.5 -56t11 -61.5t20 -51t33.5 -40t49.5 -13.5t49 13.5t33.5 40t20 51t10.5 61.5t3.5 56t0.5 49z" />
    <glyph glyph-name="one" unicode="1" horiz-adv-x="537" 
d="M344 0h-106v555l-116 -73v77l137 86h85v-645z" />
    <glyph glyph-name="two" unicode="2" horiz-adv-x="537" 
d="M461 0h-407v75q58 49 120 116t115.5 154.5t53.5 148.5q0 42 -23.5 68t-65.5 26q-41 0 -61 -29t-23 -72h-117q11 81 65 119.5t139 38.5q87 0 143.5 -44.5t56.5 -129.5q0 -53 -25 -107.5t-67.5 -103.5t-84 -87.5l-89.5 -79.5l-22 -18h292v-75z" />
    <glyph glyph-name="three" unicode="3" horiz-adv-x="537" 
d="M460 175q0 -186 -211 -186q-85 0 -143 35t-64 114h117q-1 -47 21 -69.5t70 -22.5q50 0 73 34.5t23 87.5q0 69 -22.5 102t-86.5 33h-19v60h19q97 0 97 114q0 111 -86 111q-76 0 -76 -89h-117q2 71 63 108.5t136 37.5q87 0 140.5 -41t53.5 -126q0 -114 -109 -143v-2
q121 -26 121 -158z" />
    <glyph glyph-name="four" unicode="4" horiz-adv-x="537" 
d="M517 168h-109v-168h-95v168h-277v74l262 392h110v-391h109v-75zM313 243v279h-2l-179 -279h181z" />
    <glyph glyph-name="five" unicode="5" horiz-adv-x="537" 
d="M496 185q0 -97 -61.5 -146.5t-160.5 -49.5q-189 0 -209 151h117q0 -44 24 -69t68 -25q108 0 108 144q0 58 -24 99.5t-78 41.5q-28 0 -53.5 -15t-31.5 -40h-100l17 358h334v-68h-236l-14 -209q43 31 106 31q89 0 141.5 -56.5t52.5 -146.5z" />
    <glyph glyph-name="six" unicode="6" horiz-adv-x="537" 
d="M497 192q0 -99 -55.5 -151t-155.5 -52q-59 0 -101 20t-64.5 49.5t-35.5 77.5t-16 88.5t-3 97.5q0 70 8.5 122t32 100.5t71.5 74.5t120 26q77 0 126 -37t59 -110h-117q1 38 -16.5 64t-54.5 26q-115 0 -115 -267h2q42 61 135 61q89 0 134.5 -50t45.5 -140zM383 188
q0 56 -24.5 98.5t-76.5 42.5q-50 0 -76 -36t-26 -87q0 -41 8 -74t34 -59.5t67 -26.5q94 0 94 142z" />
    <glyph glyph-name="seven" unicode="7" horiz-adv-x="537" 
d="M465 566l-223 -566h-115l223 566h-282v68h397v-68z" />
    <glyph glyph-name="eight" unicode="8" horiz-adv-x="537" 
d="M480 172q0 -94 -57 -138.5t-154 -44.5q-98 0 -154.5 44t-56.5 139q0 62 30 103.5t88 53.5v2q-58 16 -83 52t-25 98q0 82 57.5 123t143.5 41q88 0 144 -40t56 -124q0 -118 -111 -150v-2q122 -28 122 -157zM355 481q0 46 -21 76.5t-65 30.5q-45 0 -66 -30t-21 -77
q0 -122 87 -122q86 0 86 122zM366 172q0 55 -23 92.5t-74 37.5t-74 -38t-23 -92t23 -90t74 -36t74 36t23 90z" />
    <glyph glyph-name="nine" unicode="9" horiz-adv-x="537" 
d="M481 312q0 -55 -4.5 -97.5t-19.5 -86.5t-39.5 -73t-67 -47.5t-100.5 -18.5q-77 0 -126 36.5t-60 110.5h117q-1 -41 19.5 -65.5t60.5 -24.5q106 0 106 267h-2q-41 -60 -135 -60q-88 0 -134 50t-46 139q0 100 55.5 151.5t155.5 51.5q50 0 87.5 -13t61 -38.5t38.5 -54
t22 -70.5t9 -76t2 -81zM367 428q0 41 -8 74t-34 59.5t-67 26.5q-94 0 -94 -142q0 -56 25 -98.5t76 -42.5q50 0 76 36t26 87z" />
    <glyph glyph-name="colon" unicode=":" horiz-adv-x="278" 
d="M227 355h-121v121h121v-121zM227 0h-121v121h121v-121z" />
    <glyph glyph-name="semicolon" unicode=";" horiz-adv-x="278" 
d="M230 356h-121v120h121v-120zM226 120l-45 -226h-80l9 226h116z" />
    <glyph glyph-name="less" unicode="&#x3c;" 
d="M539 0l-485 216v54l485 216v-78l-387 -165l387 -165v-78z" />
    <glyph glyph-name="equal" unicode="=" 
d="M531 290h-470v80h470v-80zM531 129h-470v80h470v-80z" />
    <glyph glyph-name="greater" unicode="&#x3e;" 
d="M539 216l-485 -216v78l387 165l-387 165v78l485 -216v-54z" />
    <glyph glyph-name="question" unicode="?" horiz-adv-x="445" 
d="M398 544q0 -18 -4 -35t-13.5 -34t-17 -28.5t-24.5 -29l-24 -24.5t-28 -25.5t-25 -22.5q-33 -30 -47.5 -55t-14.5 -64v-29h-80v54q0 48 13 76t49 66l62 65q44 49 44 96q0 39 -29 59t-69 20q-71 0 -143 -51v101q81 18 134 18q57 0 102.5 -12.5t80 -49.5t34.5 -95zM221 0
h-121v121h121v-121z" />
    <glyph glyph-name="at" unicode="@" horiz-adv-x="1000" 
d="M905 321q0 -87 -42.5 -164.5t-115.5 -121.5q-60 -35 -123 -35q-34 0 -53.5 19t-18.5 52q-60 -65 -130 -65q-62 0 -97.5 40t-35.5 103q0 65 34 140.5t95.5 131t129.5 55.5q81 0 116 -74l22 54h87q-1 -3 -18.5 -45l-37 -90l-41 -101t-35 -92.5t-13.5 -48.5q0 -27 30 -27
q38 0 79 28q59 39 90.5 103.5t31.5 137.5q0 84 -44.5 147.5t-114.5 94t-153 30.5q-95 0 -184.5 -57.5t-144 -149.5t-54.5 -187q0 -93 51.5 -159.5t128.5 -96.5t168 -30q169 0 292 101l27 -23q-18 -19 -58 -45q-125 -79 -265 -79q-61 0 -119.5 12.5t-112 39.5t-93.5 65.5
t-64 93.5t-24 120q0 117 62 220.5t166 164.5t221 61q149 0 255 -88.5t106 -234.5zM632 373q0 27 -17.5 45.5t-44.5 18.5q-47 0 -96 -63.5t-77 -138.5t-28 -121q0 -67 69 -67q37 0 61.5 22.5t48.5 62.5q51 87 76 194q8 40 8 47z" />
    <glyph glyph-name="A" unicode="A" 
d="M584 0h-114l-63 205h-238l-63 -205h-97l230 690h114zM387 271l-97 320h-2l-98 -320h197z" />
    <glyph glyph-name="B" unicode="B" horiz-adv-x="556" 
d="M511 189q0 -49 -16.5 -84.5t-41.5 -55.5t-64 -31.5t-73.5 -14.5t-81.5 -3h-157v690h157q40 0 70.5 -3t65 -13t56.5 -27.5t37 -48.5t15 -73q0 -59 -32 -100t-89 -57v-2q154 -29 154 -177zM368 517q0 64 -33 85.5t-101 21.5h-47v-227h47q67 0 100.5 27.5t33.5 92.5z
M401 198q0 74 -44.5 103.5t-122.5 29.5h-47v-265h47q83 0 125 26.5t42 105.5z" />
    <glyph glyph-name="C" unicode="C" horiz-adv-x="556" 
d="M548 503h-128q0 59 -27 98.5t-84 39.5q-45 0 -76 -27t-45 -71.5t-19.5 -84t-5.5 -82.5q0 -315 191 -315q82 0 166 66v-94q-73 -44 -184 -44q-78 0 -136 30.5t-90.5 83.5t-48 117t-15.5 138q0 70 14.5 129t44.5 108.5t84.5 77.5t128.5 28q101 0 165.5 -50.5t64.5 -147.5z
" />
    <glyph glyph-name="D" unicode="D" 
d="M547 352q0 -181 -69.5 -266.5t-243.5 -85.5h-155v690h155q171 0 242 -81t71 -257zM437 352q0 40 -3 71.5t-12 71t-30 68.5t-54 44q-39 17 -104 17h-45v-558h45q54 0 92.5 15.5t60 39.5t33 64.5t14.5 76.5t3 90z" />
    <glyph glyph-name="E" unicode="E" horiz-adv-x="482" 
d="M451 0h-372v690h364v-66h-254v-232h240v-66h-240v-254h262v-72z" />
    <glyph glyph-name="F" unicode="F" horiz-adv-x="445" 
d="M431 624h-242v-232h229v-66h-229v-326h-110v690h352v-66z" />
    <glyph glyph-name="G" unicode="G" horiz-adv-x="612" 
d="M552 55q-107 -66 -215 -66q-64 0 -115 20.5t-83.5 55t-53.5 83.5t-30 101.5t-9 112.5q0 339 268 339q224 0 238 -195h-128q0 135 -110 135q-41 0 -70.5 -20t-44.5 -47.5t-23.5 -69.5t-10.5 -72.5t-2 -69.5q0 -46 3 -83t14 -82t30 -75.5t55 -51.5t84 -21q58 0 93 35v245
h-137v66h247v-340z" />
    <glyph glyph-name="H" unicode="H" horiz-adv-x="630" 
d="M551 0h-110v326h-251v-326h-110v690h110v-298h251v298h110v-690z" />
    <glyph glyph-name="I" unicode="I" horiz-adv-x="278" 
d="M194 0h-110v690h110v-690z" />
    <glyph glyph-name="J" unicode="J" horiz-adv-x="371" 
d="M302 196q0 -112 -47 -159.5t-162 -47.5q-52 0 -93 11v86q50 -25 97 -25q32 0 52 10t29 31.5t11.5 41.5t2.5 52v494h110v-494z" />
    <glyph glyph-name="K" unicode="K" horiz-adv-x="556" 
d="M556 0h-131l-233 335h-2v-335h-110v690h110v-305h2l226 305h111l-243 -315z" />
    <glyph glyph-name="L" unicode="L" horiz-adv-x="445" 
d="M445 0h-365v690h110v-618h255v-72z" />
    <glyph glyph-name="M" unicode="M" horiz-adv-x="834" 
d="M754 0h-99v596h-2l-202 -596h-84l-202 596h-2v-596h-83v690h147l191 -561h2l192 561h142v-690z" />
    <glyph glyph-name="N" unicode="N" horiz-adv-x="649" 
d="M569 0h-114l-282 562h-2v-562h-91v690h122l274 -546h2v546h91v-690z" />
    <glyph glyph-name="O" unicode="O" horiz-adv-x="630" 
d="M585 345q0 -73 -13 -133t-42.5 -112t-84 -81.5t-130.5 -29.5t-130.5 29.5t-83.5 82t-42 112.5t-13 132t13 132t42 112.5t83.5 82t130.5 29.5t130.5 -29.5t84 -81.5t42.5 -112t13 -133zM468 345q0 296 -153 296q-152 0 -152 -296t152 -296q153 0 153 296z" />
    <glyph glyph-name="P" unicode="P" horiz-adv-x="501" 
d="M488 500q0 -60 -21.5 -101t-61.5 -60.5t-83 -27t-101 -7.5h-32v-304h-110v690h142q47 0 81.5 -3.5t71.5 -15t60.5 -31.5t38.5 -55.5t15 -84.5zM378 500q0 74 -39 99t-118 25h-32v-254h32q80 0 118.5 26.5t38.5 103.5z" />
    <glyph glyph-name="Q" unicode="Q" horiz-adv-x="630" 
d="M622 0h-308q-73 0 -127 28.5t-84.5 78t-45 109t-14.5 129.5q0 73 13 133t42.5 112t84 81.5t130.5 29.5t130.5 -29.5t83.5 -81.5t42 -112t13 -133q0 -209 -109 -290l2 -2q106 21 147 43v-96zM465 345q0 296 -152 296q-153 0 -153 -296q0 -285 154 -285q47 0 79.5 29
t46.5 77.5t19.5 90.5t5.5 88z" />
    <glyph glyph-name="R" unicode="R" horiz-adv-x="556" 
d="M523 0h-111l-39 184q-13 64 -45 93.5t-97 29.5h-41v-307h-110v690h151q43 0 77 -3.5t71.5 -14.5t62.5 -30t41 -53t16 -80q0 -66 -40.5 -107t-107.5 -54v-2q37 -6 61 -19.5t38 -39t21 -47t15 -61.5zM389 504q0 71 -40.5 95.5t-117.5 24.5h-41v-251h41q158 0 158 131z" />
    <glyph glyph-name="S" unicode="S" horiz-adv-x="501" 
d="M475 191q0 -105 -70.5 -153.5t-180.5 -48.5q-103 0 -175 26v107q104 -61 192 -61q55 0 89.5 24t34.5 76q0 43 -33.5 76.5t-81.5 58.5l-95.5 52t-81 72t-33.5 104q0 92 64.5 134.5t161.5 42.5q65 0 159 -18v-95q-85 47 -171 47q-43 0 -73.5 -23t-30.5 -64q0 -34 24 -62
t60 -47l78.5 -43t78.5 -48.5t60 -65t24 -91.5z" />
    <glyph glyph-name="T" unicode="T" horiz-adv-x="445" 
d="M444 624h-167v-624h-110v624h-167v66h444v-66z" />
    <glyph glyph-name="U" unicode="U" horiz-adv-x="612" 
d="M540 245q0 -132 -51.5 -194t-182.5 -62t-182.5 62t-51.5 194v445h110v-445q0 -38 1 -58t7.5 -51t18.5 -46.5t37 -28t60 -12.5t60 12.5t37 28t18.5 46.5t7.5 51t1 58v445h110v-445z" />
    <glyph glyph-name="V" unicode="V" horiz-adv-x="538" 
d="M555 690l-230 -690h-114l-228 690h114l180 -557h2l179 557h97z" />
    <glyph glyph-name="W" unicode="W" horiz-adv-x="871" 
d="M844 690l-130 -690h-110l-166 536h-2l-167 -536h-111l-131 690h103l101 -542h2l169 542h85l168 -542h2l102 542h85z" />
    <glyph glyph-name="X" unicode="X" horiz-adv-x="538" 
d="M538 0h-126l-153 266l-154 -266h-105l209 353l-194 337h125l136 -236l133 236h105l-189 -321z" />
    <glyph glyph-name="Y" unicode="Y" horiz-adv-x="519" 
d="M531 690l-221 -369v-321h-110v321l-212 369h123l156 -271l162 271h102z" />
    <glyph glyph-name="Z" unicode="Z" horiz-adv-x="482" 
d="M461 0h-441v72l303 552h-286v66h410v-66l-303 -552h317v-72z" />
    <glyph glyph-name="bracketleft" unicode="[" horiz-adv-x="334" 
d="M317 -142h-216v897h216v-65h-117v-767h117v-65z" />
    <glyph glyph-name="backslash" unicode="\" horiz-adv-x="315" 
d="M309 -136h-91l-212 897h91z" />
    <glyph glyph-name="bracketright" unicode="]" horiz-adv-x="334" 
d="M233 -142h-216v65h117v767h-117v65h216v-897z" />
    <glyph glyph-name="asciicircum" unicode="^" horiz-adv-x="408" 
d="M344 524h-72l-68 97l-68 -97h-72l109 166h62z" />
    <glyph glyph-name="underscore" unicode="_" horiz-adv-x="500" 
d="M500 -115h-500v50h500v-50z" />
    <glyph glyph-name="grave" unicode="`" horiz-adv-x="310" 
d="M199 559h-74l-77 153h107z" />
    <glyph glyph-name="a" unicode="a" horiz-adv-x="482" 
d="M410 0h-101v66h-2q-21 -36 -56.5 -56.5t-77.5 -20.5q-53 0 -91.5 33.5t-38.5 85.5q0 32 12 57.5t35 41.5t47.5 27.5t58 17.5t58 8.5t55.5 4.5v42q0 22 -0.5 33.5t-3.5 34.5t-9.5 36t-20.5 23.5t-33 10.5q-43 0 -58.5 -27.5t-18.5 -76.5h-106q6 79 52 112.5t131 33.5
q96 0 132 -42.5t36 -137.5v-307zM309 167v56q-156 -10 -156 -100q0 -29 15 -50t43 -21q20 0 38 10q60 32 60 105z" />
    <glyph glyph-name="b" unicode="b" horiz-adv-x="519" 
d="M479 236q0 -114 -51 -180.5t-161 -66.5q-62 0 -103 17t-62.5 52t-29.5 76.5t-8 101.5v454h101v-280h2q27 40 57.5 58.5t75.5 18.5q51 0 88 -22t55.5 -59.5t27 -79t8.5 -90.5zM369 236q0 31 -3.5 59t-13.5 61t-31.5 53t-53.5 20q-98 0 -98 -193q0 -27 0.5 -40.5t2.5 -43
t8.5 -46.5t16.5 -36.5t28 -29t42 -9.5q102 0 102 205z" />
    <glyph glyph-name="c" unicode="c" horiz-adv-x="426" 
d="M412 321h-106q0 24 -1.5 41t-8 38.5t-21.5 33t-38 11.5q-34 0 -55 -29t-27 -60.5t-6 -64.5q0 -42 9 -83.5t28 -80t53.5 -62t80.5 -23.5q41 0 85 18v-47q-66 -24 -127 -24q-121 0 -180 72t-59 196q0 106 49.5 168t152.5 62q171 0 171 -166z" />
    <glyph glyph-name="d" unicode="d" horiz-adv-x="519" 
d="M446 0h-101v78h-2q-39 -89 -124 -89q-179 0 -179 249q0 38 5 71.5t17.5 67t32.5 57t51.5 38.5t72.5 15q83 0 124 -77h2v280h101v-690zM341 238q0 22 -0.5 37.5t-3 41t-9 42.5t-16.5 34.5t-27 26.5t-39 9q-30 0 -51 -20t-30 -53t-12 -61t-3 -57q0 -185 96 -185
q95 0 95 185z" />
    <glyph glyph-name="e" unicode="e" horiz-adv-x="463" 
d="M425 292h-285q0 -44 10.5 -87t32 -80t58.5 -60t84 -23q46 0 91 20v-46q-65 -27 -139 -27q-119 0 -178.5 74t-59.5 196q0 228 203 228q183 0 183 -195zM326 338q0 46 -22 76.5t-66 30.5q-43 0 -67.5 -31t-27.5 -76h183z" />
    <glyph glyph-name="f" unicode="f" horiz-adv-x="355" 
d="M391 621q-52 22 -89 22q-17 0 -30.5 -3t-23 -10t-16.5 -13.5t-11 -19l-6.5 -20.5t-3.5 -24.5l-1.5 -24.5t0 -27t0.5 -25h135v-52h-135v-424h-101v424h-83v52h83v45q0 94 42.5 137t138.5 43q49 0 101 -11v-69z" />
    <glyph glyph-name="g" unicode="g" horiz-adv-x="519" 
d="M446 14q0 -123 -55.5 -181t-179.5 -58q-66 0 -137 19v99q33 -20 50 -29t46.5 -19t56.5 -10q22 0 39.5 4.5t30 14t21.5 19.5t14 27t8 29t4 34t1.5 34t0 36t-0.5 33h-2q-39 -66 -124 -66q-66 0 -108 37.5t-56.5 89t-14.5 116.5q0 244 179 244q88 0 124 -89h2v78h101v-462z
M342 238q0 185 -96 185t-96 -180q0 -185 96 -185q32 0 53.5 17.5t29.5 49t10.5 55.5t2.5 58z" />
    <glyph glyph-name="h" unicode="h" horiz-adv-x="538" 
d="M464 0h-101v298q0 114 -60 114q-43 0 -74 -39.5t-42.5 -86t-11.5 -89.5v-197h-101v690h101v-327h2q57 124 167 124q57 0 88.5 -40t31.5 -99v-348z" />
    <glyph glyph-name="i" unicode="i" horiz-adv-x="260" 
d="M184 590h-109v100h109v-100zM180 0h-101v476h101v-476z" />
    <glyph glyph-name="j" unicode="j" horiz-adv-x="260" 
d="M188 590h-109v100h109v-100zM184 -25q0 -104 -52 -152t-157 -48q-18 0 -31 4v65q27 -9 48 -9q26 0 44 8.5t27 19.5t14 33t5.5 36.5t0.5 42.5v501h101v-501z" />
    <glyph glyph-name="k" unicode="k" horiz-adv-x="482" 
d="M479 0h-129l-174 238h-2v-238h-101v690h101v-407l165 193h115l-185 -206z" />
    <glyph glyph-name="l" unicode="l" horiz-adv-x="260" 
d="M180 0h-101v690h101v-690z" />
    <glyph glyph-name="m" unicode="m" horiz-adv-x="779" 
d="M705 0h-101v307q0 21 -1.5 35t-6.5 32t-17.5 28t-32.5 10q-31 0 -53 -23.5t-33 -60t-15.5 -69t-4.5 -61.5v-198h-101v298q0 25 -1 38t-6 34t-18 31.5t-35 10.5q-31 0 -53.5 -23.5t-32.5 -60.5t-14 -69t-4 -62v-197h-101v476h101v-113h2q16 52 54.5 88t89.5 36t83 -33
t35 -85h2q26 57 58 87.5t86 30.5q120 0 120 -164v-323z" />
    <glyph glyph-name="n" unicode="n" horiz-adv-x="538" 
d="M464 0h-101v298q0 114 -60 114q-43 0 -74 -39.5t-42.5 -86t-11.5 -89.5v-197h-101v476h101v-113h2q57 124 167 124q57 0 88.5 -40t31.5 -99v-348z" />
    <glyph glyph-name="o" unicode="o" horiz-adv-x="501" 
d="M461 238q0 -115 -50.5 -182t-160.5 -67t-160 67.5t-50 181.5t50 181.5t160 67.5t160.5 -67t50.5 -182zM351 238q0 207 -101 207q-100 0 -100 -207t100 -207q101 0 101 207z" />
    <glyph glyph-name="p" unicode="p" horiz-adv-x="519" 
d="M480 238q0 -48 -8.5 -89.5t-28 -79t-56 -59t-87.5 -21.5q-84 0 -123 77h-2v-280h-101v690h101v-78h2q39 89 123 89q180 0 180 -249zM370 238q0 185 -96 185q-95 0 -95 -185q0 -22 0.5 -37.5t3 -41t9 -42.5t16.5 -34.5t27 -26.5t39 -9q30 0 51 20t30 53t12 61t3 57z" />
    <glyph glyph-name="q" unicode="q" horiz-adv-x="519" 
d="M446 -214h-101v280h-2q-40 -77 -124 -77q-41 0 -72.5 15t-51.5 38.5t-32.5 57t-17.5 67t-5 71.5q0 249 179 249q88 0 124 -89h2v78h101v-690zM342 238q0 185 -96 185t-96 -185q0 -191 96 -191q33 0 54 19t29 53t10.5 59t2.5 60z" />
    <glyph glyph-name="r" unicode="r" horiz-adv-x="352" 
d="M331 382q-84 -2 -120 -40.5t-36 -123.5v-218h-101v476h101v-121h2q30 62 63.5 94.5t90.5 37.5v-105z" />
    <glyph glyph-name="s" unicode="s" horiz-adv-x="405" 
d="M362 133q0 -75 -51 -109.5t-130 -34.5q-64 0 -127 21v93q72 -50 132 -50q32 0 57 15t25 45q0 23 -22 43.5t-54 38t-63.5 37t-53.5 50t-22 68.5q0 69 47.5 103t119.5 34q48 0 112 -19v-86q-70 47 -120 47q-27 0 -47.5 -12.5t-20.5 -37.5q0 -23 22.5 -43t54.5 -37.5
t64 -37.5t54.5 -53t22.5 -75z" />
    <glyph glyph-name="t" unicode="t" horiz-adv-x="351" 
d="M335 424h-130v-274q0 -22 0.5 -33.5t4.5 -27.5t11 -23.5t21 -13.5t35 -6q27 0 47 8v-58q-27 -7 -70 -7q-72 0 -111 26t-39 95v314h-76v52h76v112l101 61v-173h130v-52z" />
    <glyph glyph-name="u" unicode="u" horiz-adv-x="538" 
d="M464 0h-102v113h-2q-57 -124 -166 -124q-57 0 -88.5 40t-31.5 99v348h101v-298q0 -114 60 -114q43 0 74 39.5t42.5 86t11.5 89.5v197h101v-476z" />
    <glyph glyph-name="v" unicode="v" horiz-adv-x="445" 
d="M441 476l-168 -476h-88l-181 476h107l123 -340h2l112 340h93z" />
    <glyph glyph-name="w" unicode="w" horiz-adv-x="686" 
d="M645 476l-111 -476h-88l-101 322h-2l-90 -322h-88l-124 476h96l79 -344h2l94 344h73l99 -344h2l74 344h85z" />
    <glyph glyph-name="x" unicode="x" horiz-adv-x="468" 
d="M456 0h-114l-114 174l-114 -174h-102l167 249l-147 227h114l96 -148l98 148h99l-147 -224z" />
    <glyph glyph-name="y" unicode="y" horiz-adv-x="445" 
d="M442 476l-245 -690h-81l70 209l-183 481h105l125 -340h2l112 340h95z" />
    <glyph glyph-name="z" unicode="z" horiz-adv-x="389" 
d="M369 0h-349v66l236 350h-221v60h327v-60l-236 -350h243v-66z" />
    <glyph glyph-name="braceleft" unicode="{" horiz-adv-x="537" 
d="M420 -235q-76 3 -143.5 50.5t-67.5 119.5q0 32 12 96q2 8 6.5 29t7 36t2.5 29q0 45 -32 78.5t-78 48.5v24q47 15 78.5 47.5t31.5 79.5q0 14 -2.5 29t-7 36t-6.5 29q-12 64 -12 96q0 72 67.5 119.5t143.5 50.5v-25q-49 -11 -78 -48.5t-29 -87.5q0 -28 7 -82.5t7 -81.5
q0 -66 -41.5 -105t-113.5 -69q71 -31 113 -70.5t42 -103.5q0 -28 -7 -82t-7 -82q0 -50 29 -87.5t78 -48.5v-25z" />
    <glyph glyph-name="bar" unicode="|" horiz-adv-x="333" 
d="M191 -184h-49v1017h49v-1017z" />
    <glyph glyph-name="braceright" unicode="}" horiz-adv-x="537" 
d="M409 252q-46 -15 -78 -48.5t-32 -78.5q0 -14 2.5 -29t7 -36t6.5 -29q12 -64 12 -96q0 -72 -67.5 -119.5t-143.5 -50.5v25q49 11 78 48.5t29 87.5q0 28 -7 82t-7 82q0 64 42 103.5t113 70.5q-72 30 -113.5 69t-41.5 105q0 27 7 81.5t7 82.5q0 50 -29 87.5t-78 48.5v25
q76 -3 143.5 -50.5t67.5 -119.5q0 -32 -12 -96q-2 -8 -6.5 -29t-7 -36t-2.5 -29q0 -47 31.5 -79.5t78.5 -47.5v-24z" />
    <glyph glyph-name="asciitilde" unicode="~" 
d="M532 257q0 -56 -21 -85.5t-75 -29.5q-32 0 -93 36l-130 76q-43 23 -52 23q-29 0 -29 -59v-49h-74v67q0 119 94 119q29 0 88 -34l132 -76q44 -25 57 -25q29 0 29 58v4v46h74v-71z" />
    <glyph glyph-name="uni00A0" unicode="&#xa0;" horiz-adv-x="278" 
 />
    <glyph glyph-name="exclamdown" unicode="&#xa1;" horiz-adv-x="297" 
d="M172 433h-121v121h121v-121zM172 -136h-121l21 493h79z" />
    <glyph glyph-name="cent" unicode="&#xa2;" horiz-adv-x="463" 
d="M428 322h-99q0 97 -65 119v-393q24 -6 49 -6q48 0 103 20v-44q-66 -29 -131 -29q-7 0 -21 2v-89h-47v92q-181 33 -181 266q0 96 44.5 159.5t136.5 67.5v80h47v-80q74 -9 119 -50.5t45 -114.5zM217 72v369q-71 -24 -71 -170q0 -132 71 -199z" />
    <glyph glyph-name="sterling" unicode="&#xa3;" horiz-adv-x="482" 
d="M491 520h-119q2 97 -78 97q-22 0 -38.5 -7t-26 -22.5t-15 -28t-7.5 -37t-2.5 -36t-0.5 -36.5v-96h133v-53h-133v-229h266v-72h-367v301h-73v53h73v148q0 90 47.5 129t139.5 39q174 0 201 -150z" />
    <glyph glyph-name="currency" unicode="&#xa4;" horiz-adv-x="600" 
d="M536 175l-53 -54l-68 68q-51 -37 -116 -37q-66 0 -116 37l-68 -68l-52 54l69 65q-37 56 -37 114q0 62 37 114l-69 66l52 54l68 -68q53 36 116 36q66 0 116 -36l68 68l53 -54l-69 -66q36 -51 36 -114q0 -61 -36 -114zM429 355q0 54 -39 91t-90 37q-55 0 -92.5 -38
t-37.5 -90q0 -53 38 -91t91 -38t91.5 38t38.5 91z" />
    <glyph glyph-name="yen" unicode="&#xa5;" horiz-adv-x="519" 
d="M531 690l-221 -368h112v-52h-112v-53h112v-52h-112v-165h-110v165h-101v52h101v53h-101v52h101l-212 368h126l153 -271l158 271h106z" />
    <glyph glyph-name="brokenbar" unicode="&#xa6;" horiz-adv-x="278" 
d="M179 402h-80v359h80v-359zM179 -136h-80v359h80v-359z" />
    <glyph glyph-name="section" unicode="&#xa7;" horiz-adv-x="482" 
d="M448 346q0 -68 -70 -118q50 -47 50 -99q0 -38 -19.5 -66.5t-51 -44t-65.5 -22.5t-69 -7q-76 0 -151 23v97q81 -60 156 -60q40 0 69.5 15.5t29.5 52.5q0 14 -13.5 28.5t-37 27t-44.5 22t-46 19.5t-32 13q-30 13 -45.5 21.5t-36 24t-29.5 36t-9 48.5q0 64 69 122
q-43 38 -43 92q0 34 17 60.5t44.5 41t58 21.5t62.5 7q50 0 162 -25v-89q-80 54 -155 54q-34 0 -61 -14t-27 -45q0 -12 9 -24t21.5 -21t32 -19t32.5 -15.5t32.5 -12.5t23.5 -9q54 -23 74 -36q32 -20 47 -42.5t15 -56.5zM370 311q0 14 -8.5 27t-19 22t-29 19t-30 15t-32.5 13
t-25 10q-70 28 -82 35q-32 -32 -32 -56q0 -11 5.5 -21.5t16 -20t21 -17t27 -16t26 -13t26 -11t20.5 -8.5q77 -33 84 -37q32 34 32 59z" />
    <glyph glyph-name="dieresis" unicode="&#xa8;" horiz-adv-x="310" 
d="M306 570h-109v101h109v-101zM113 570h-109v101h109v-101z" />
    <glyph glyph-name="copyright" unicode="&#xa9;" horiz-adv-x="500" 
d="M485 466q0 -98 -68.5 -166.5t-166.5 -68.5q-97 0 -166 69t-69 166t69 166t166 69t166 -69t69 -166zM450 466q0 82 -59 141t-141 59t-141 -59t-59 -141t59 -141t141 -59t141 59t59 141zM357 375q-40 -39 -95 -39q-56 0 -96.5 39t-40.5 95t40.5 95t96.5 39q50 0 95 -39
l-26 -33q-34 31 -69 31q-38 0 -65.5 -27.5t-27.5 -65.5t25.5 -65.5t63.5 -27.5q39 0 73 30z" />
    <glyph glyph-name="ordfeminine" unicode="&#xaa;" horiz-adv-x="278" 
d="M240 286h-55v37h-2q-9 -19 -30.5 -30.5t-43.5 -11.5q-30 0 -51 18.5t-21 47.5q0 79 148 87v24q0 76 -38 76q-39 0 -41 -57h-61q4 44 30 62.5t73 18.5q53 0 72.5 -23t19.5 -77v-172zM185 407v3q-89 -8 -89 -55q0 -17 9 -28t25 -11q17 0 32 13.5t20 30.5q3 11 3 47z" />
    <glyph glyph-name="guillemotleft" unicode="&#xab;" horiz-adv-x="389" 
d="M353 59h-82l-84 193l84 188h82l-60 -188zM203 59h-82l-85 193l85 188h82l-61 -188z" />
    <glyph glyph-name="logicalnot" unicode="&#xac;" 
d="M531 131h-80v159h-390v80h470v-239z" />
    <glyph glyph-name="uni00AD" unicode="&#xad;" horiz-adv-x="445" 
d="M394 208h-343v91h343v-91z" />
    <glyph glyph-name="registered" unicode="&#xae;" horiz-adv-x="500" 
d="M485 466q0 -98 -68.5 -166.5t-166.5 -68.5q-97 0 -166 69t-69 166t69 166t166 69t166 -69t69 -166zM450 466q0 82 -59 141t-141 59t-141 -59t-59 -141t59 -141t141 -59t141 59t59 141zM348 348h-50l-38 100h-54v-100h-45v248h83q48 0 74.5 -17t26.5 -63q0 -25 -9.5 -37.5
t-33.5 -23.5zM298 520q0 33 -42 33h-50v-65h54q16 0 27 8t11 24z" />
    <glyph glyph-name="macron" unicode="&#xaf;" horiz-adv-x="310" 
d="M296 559h-283v70h283v-70z" />
    <glyph glyph-name="degree" unicode="&#xb0;" horiz-adv-x="352" 
d="M314 531q0 -47 -34 -80.5t-80 -33.5t-80 33.5t-34 80.5t34 80.5t80 33.5t80 -33.5t34 -80.5zM262 531q0 25 -18 43.5t-44 18.5t-44 -18.5t-18 -43.5t18 -43.5t44 -18.5t44 18.5t18 43.5z" />
    <glyph glyph-name="plusminus" unicode="&#xb1;" 
d="M510 209h-195v-209h-80v209h-196v80h195v187h80v-187h196v-80zM510 -123h-471v80h471v-80z" />
    <glyph glyph-name="twosuperior" unicode="&#xb2;" horiz-adv-x="371" 
d="M316 202h-277v53q69 59 133.5 141t64.5 142q0 30 -16.5 49.5t-45.5 19.5q-28 0 -41.5 -20t-14.5 -49h-80q6 54 43.5 80.5t94.5 26.5q60 0 97.5 -31.5t37.5 -90.5q0 -37 -16 -73.5t-48 -72t-56 -57.5l-63 -55q-8 -7 -12 -10h199v-53z" />
    <glyph glyph-name="threesuperior" unicode="&#xb3;" horiz-adv-x="371" 
d="M314 325q0 -126 -142 -126q-58 0 -98 24t-43 77h80q0 -63 62 -63q66 0 66 83q0 50 -19.5 69t-68.5 19v41q44 0 62 17.5t18 62.5q0 33 -14.5 55.5t-45.5 22.5q-52 0 -52 -61h-80q6 51 44 75t92 24q59 0 95 -28.5t36 -85.5q0 -78 -73 -101v-2q81 -16 81 -103z" />
    <glyph glyph-name="acute" unicode="&#xb4;" horiz-adv-x="310" 
d="M261 712l-76 -153h-75l45 153h106z" />
    <glyph glyph-name="mu" unicode="&#xb5;" horiz-adv-x="537" 
d="M506 2q-32 -13 -51 -13q-58 0 -83.5 28t-24.5 86h-2q-10 -50 -38 -82t-76 -32q-40 0 -65 25v-217h-96v679h101v-269q0 -27 2 -46.5t9.5 -43t24.5 -36.5t43 -13q27 0 45.5 12.5t27 35.5t12 42.5t5.5 47.5q3 36 3 109v161h102v-330q0 -2 -0.5 -15.5t0 -19.5l1.5 -18t4 -18
t7.5 -13.5t12 -11t17.5 -3.5q1 0 19 3v-48z" />
    <glyph glyph-name="paragraph" unicode="&#xb6;" horiz-adv-x="537" 
d="M506 653h-58v-867h-37v867h-61v-867h-37v437q-97 12 -159 71.5t-62 155.5q0 80 44.5 136t110.5 80t144 24h115v-37z" />
    <glyph glyph-name="periodcentered" unicode="&#xb7;" horiz-adv-x="241" 
d="M176 261h-111v112h111v-112z" />
    <glyph glyph-name="cedilla" unicode="&#xb8;" horiz-adv-x="310" 
d="M301 -149q0 -45 -31.5 -70t-77.5 -25q-37 0 -70 17v62q32 -28 63 -28q18 0 31.5 12.5t13.5 30.5q0 25 -19.5 38.5t-45.5 13.5q-19 0 -29 -2l26 116h50l-18 -78q12 2 17 2q38 0 64 -25.5t26 -63.5z" />
    <glyph glyph-name="onesuperior" unicode="&#xb9;" horiz-adv-x="371" 
d="M237 202h-72v372l-80 -51v53l94 58h58v-432z" />
    <glyph glyph-name="ordmasculine" unicode="&#xba;" horiz-adv-x="278" 
d="M256 420q0 -139 -117 -139t-117 139q0 138 117 138t117 -138zM195 420q0 114 -56 114t-56 -114q0 -115 56 -115t56 115z" />
    <glyph glyph-name="guillemotright" unicode="&#xbb;" horiz-adv-x="389" 
d="M353 252l-84 -193h-82l60 193l-60 188h82zM202 252l-84 -193h-82l60 193l-60 188h82z" />
    <glyph glyph-name="onequarter" unicode="&#xbc;" horiz-adv-x="852" 
d="M803 114h-74v-114h-65v114h-189v52l179 267h75v-267h74v-52zM526 634l-221 -634h-68l222 634h67zM204 202h-72v372l-80 -51v53l94 58h58v-432zM664 166v190h-2l-122 -190h124z" />
    <glyph glyph-name="onehalf" unicode="&#xbd;" horiz-adv-x="852" 
d="M778 0h-278v53q67 55 133 139t66 145q0 27 -17.5 46t-44.5 19q-51 0 -57 -70h-80q7 55 44 81.5t95 26.5q59 0 97 -31t38 -88q0 -36 -15.5 -72t-48.5 -72.5t-54.5 -56.5t-62.5 -55q-9 -8 -14 -12h199v-53zM528 634l-222 -634h-68l222 634h68zM217 202h-72v372l-80 -51v53
l94 58h58v-432z" />
    <glyph glyph-name="threequarters" unicode="&#xbe;" horiz-adv-x="852" 
d="M836 114h-74v-114h-65v114h-189v51l179 268h75v-267h74v-52zM577 634l-222 -634h-68l222 634h68zM315 325q0 -126 -143 -126q-58 0 -98 24t-43 77h80q0 -63 62 -63q34 0 50.5 23.5t16.5 59.5q0 53 -19 72.5t-70 19.5v41q44 2 62.5 18.5t18.5 59.5q0 76 -61 76
q-52 0 -52 -61h-80q6 51 44 75t92 24q60 0 96 -27.5t36 -85.5q0 -78 -74 -98v-2q82 -16 82 -107zM697 166v190h-2l-122 -190h124z" />
    <glyph glyph-name="questiondown" unicode="&#xbf;" horiz-adv-x="445" 
d="M336 433h-121v121h121v-121zM388 -129q-81 -18 -134 -18q-57 0 -102.5 12.5t-80 49.5t-34.5 95q0 18 4 35t13.5 34t17 28.5t24.5 29l24 24.5t28 25.5t25 22.5q33 30 47.5 55t14.5 64v29h80v-54q0 -48 -12.5 -76t-48.5 -66l-62 -65q-45 -50 -45 -96q0 -39 29 -59t69 -20
q71 0 143 51v-101z" />
    <glyph glyph-name="Agrave" unicode="&#xc0;" 
d="M341 773h-74l-77 153h107zM584 0h-114l-63 205h-238l-63 -205h-97l230 690h114zM387 271l-97 320h-2l-98 -320h197z" />
    <glyph glyph-name="Aacute" unicode="&#xc1;" 
d="M413 926l-76 -153h-75l45 153h106zM584 0h-114l-63 205h-238l-63 -205h-97l230 690h114zM387 271l-97 320h-2l-98 -320h197z" />
    <glyph glyph-name="Acircumflex" unicode="&#xc2;" 
d="M437 773h-72l-68 81l-68 -81h-72l93 142h93zM584 0h-114l-63 205h-238l-63 -205h-97l230 690h114zM387 271l-97 320h-2l-98 -320h197z" />
    <glyph glyph-name="Atilde" unicode="&#xc3;" 
d="M427 898q0 -27 -1 -41.5t-6.5 -37.5t-20 -34.5t-37.5 -11.5q-26 0 -70.5 28.5t-53.5 28.5q-19 0 -19 -51h-52q0 25 1 40t6.5 38t19.5 35t37 12q22 0 69 -30t57 -30q18 0 18 54h52zM584 0h-114l-63 205h-238l-63 -205h-97l230 690h114zM387 271l-97 320h-2l-98 -320h197z
" />
    <glyph glyph-name="Adieresis" unicode="&#xc4;" 
d="M448 784h-109v101h109v-101zM255 784h-109v101h109v-101zM584 0h-114l-63 205h-238l-63 -205h-97l230 690h114zM387 271l-97 320h-2l-98 -320h197z" />
    <glyph glyph-name="Aring" unicode="&#xc5;" 
d="M391 858q0 -39 -27.5 -66.5t-66.5 -27.5t-67 27.5t-28 66.5t28 67t67 28t66.5 -28t27.5 -67zM584 0h-114l-63 205h-238l-63 -205h-97l230 690h114zM340 858q0 18 -12.5 31t-30.5 13q-19 0 -31.5 -12.5t-12.5 -31.5q0 -18 13 -30.5t31 -12.5q17 0 30 13t13 30zM387 271
l-97 320h-2l-98 -320h197z" />
    <glyph glyph-name="AE" unicode="&#xc6;" horiz-adv-x="834" 
d="M803 0h-326l-24 290h-190l-155 -290h-105l395 690h395v-66h-265l24 -268h232v-66h-226l20 -218h225v-72zM448 356l-19 242h-2l-128 -242h149z" />
    <glyph glyph-name="Ccedilla" unicode="&#xc7;" horiz-adv-x="556" 
d="M548 503h-128q0 59 -27 98.5t-84 39.5q-45 0 -76 -27t-45 -71.5t-19.5 -84t-5.5 -82.5q0 -315 191 -315q48 0 85 16.5t81 49.5v-94q-77 -46 -191 -44l-12 -51q12 2 17 2q38 0 64 -25.5t26 -63.5q0 -45 -31.5 -70t-77.5 -25q-39 0 -70 17v62q32 -28 63 -28q18 0 31.5 12.5
t13.5 30.5q0 25 -19.5 38.5t-45.5 13.5q-19 0 -29 -2l21 93q-65 11 -112 46.5t-73 88t-37.5 109.5t-11.5 121q0 70 14.5 129t44.5 108.5t84.5 77.5t128.5 28q101 0 165.5 -50t64.5 -148z" />
    <glyph glyph-name="Egrave" unicode="&#xc8;" horiz-adv-x="482" 
d="M310 773h-74l-77 153h107zM451 0h-372v690h364v-66h-254v-232h240v-66h-240v-254h262v-72z" />
    <glyph glyph-name="Eacute" unicode="&#xc9;" horiz-adv-x="482" 
d="M377 926l-76 -153h-75l45 153h106zM451 0h-372v690h364v-66h-254v-232h240v-66h-240v-254h262v-72z" />
    <glyph glyph-name="Ecircumflex" unicode="&#xca;" horiz-adv-x="482" 
d="M401 773h-72l-68 81l-68 -81h-72l93 142h93zM451 0h-372v690h364v-66h-254v-232h240v-66h-240v-254h262v-72z" />
    <glyph glyph-name="Edieresis" unicode="&#xcb;" horiz-adv-x="482" 
d="M412 784h-109v101h109v-101zM219 784h-109v101h109v-101zM451 0h-372v690h364v-66h-254v-232h240v-66h-240v-254h262v-72z" />
    <glyph glyph-name="Igrave" unicode="&#xcc;" horiz-adv-x="278" 
d="M183 773h-74l-77 153h107zM194 0h-110v690h110v-690z" />
    <glyph glyph-name="Iacute" unicode="&#xcd;" horiz-adv-x="278" 
d="M245 926l-76 -153h-75l45 153h106zM194 0h-110v690h110v-690z" />
    <glyph glyph-name="Icircumflex" unicode="&#xce;" horiz-adv-x="278" 
d="M269 773h-72l-68 81l-68 -81h-72l93 142h93zM194 0h-110v690h110v-690z" />
    <glyph glyph-name="Idieresis" unicode="&#xcf;" horiz-adv-x="278" 
d="M280 784h-109v101h109v-101zM87 784h-109v101h109v-101zM194 0h-110v690h110v-690z" />
    <glyph glyph-name="Eth" unicode="&#xd0;" 
d="M547 352q0 -181 -69.5 -266.5t-243.5 -85.5h-155v332h-79v58h79v300h155q171 0 242 -81t71 -257zM430 352q0 40 -2.5 71t-11 71t-29.5 69.5t-52 43.5q-35 17 -101 17h-45v-234h124v-58h-124v-266h45q45 0 78.5 10t54.5 31.5t34 45t19 59.5t8 66t2 74z" />
    <glyph glyph-name="Ntilde" unicode="&#xd1;" horiz-adv-x="649" 
d="M465 898q0 -27 -1 -41.5t-6.5 -37.5t-20 -34.5t-37.5 -11.5q-26 0 -70.5 28.5t-53.5 28.5q-19 0 -19 -51h-52q0 25 1 40t6.5 38t19.5 35t37 12q22 0 69 -30t57 -30q18 0 18 54h52zM569 0h-114l-282 562h-2v-562h-91v690h122l274 -546h2v546h91v-690z" />
    <glyph glyph-name="Ograve" unicode="&#xd2;" horiz-adv-x="630" 
d="M359 773h-74l-77 153h107zM585 345q0 -73 -13 -133t-42.5 -112t-84 -81.5t-130.5 -29.5t-130.5 29.5t-83.5 82t-42 112.5t-13 132t13 132t42 112.5t83.5 82t130.5 29.5t130.5 -29.5t84 -81.5t42.5 -112t13 -133zM468 345q0 296 -153 296q-152 0 -152 -296t152 -296
q153 0 153 296z" />
    <glyph glyph-name="Oacute" unicode="&#xd3;" horiz-adv-x="630" 
d="M421 926l-76 -153h-75l45 153h106zM585 345q0 -73 -13 -133t-42.5 -112t-84 -81.5t-130.5 -29.5t-130.5 29.5t-83.5 82t-42 112.5t-13 132t13 132t42 112.5t83.5 82t130.5 29.5t130.5 -29.5t84 -81.5t42.5 -112t13 -133zM468 345q0 296 -153 296q-152 0 -152 -296
t152 -296q153 0 153 296z" />
    <glyph glyph-name="Ocircumflex" unicode="&#xd4;" horiz-adv-x="630" 
d="M445 773h-72l-68 81l-68 -81h-72l93 142h93zM585 345q0 -73 -13 -133t-42.5 -112t-84 -81.5t-130.5 -29.5t-130.5 29.5t-83.5 82t-42 112.5t-13 132t13 132t42 112.5t83.5 82t130.5 29.5t130.5 -29.5t84 -81.5t42.5 -112t13 -133zM468 345q0 296 -153 296
q-152 0 -152 -296t152 -296q153 0 153 296z" />
    <glyph glyph-name="Otilde" unicode="&#xd5;" horiz-adv-x="630" 
d="M435 898q0 -27 -1 -41.5t-6.5 -37.5t-20 -34.5t-37.5 -11.5q-26 0 -70.5 28.5t-53.5 28.5q-19 0 -19 -51h-52q0 25 1 40t6.5 38t19.5 35t37 12q22 0 69 -30t57 -30q18 0 18 54h52zM585 345q0 -73 -13 -133t-42.5 -112t-84 -81.5t-130.5 -29.5t-130.5 29.5t-83.5 82
t-42 112.5t-13 132t13 132t42 112.5t83.5 82t130.5 29.5t130.5 -29.5t84 -81.5t42.5 -112t13 -133zM468 345q0 296 -153 296q-152 0 -152 -296t152 -296q153 0 153 296z" />
    <glyph glyph-name="Odieresis" unicode="&#xd6;" horiz-adv-x="630" 
d="M466 784h-109v101h109v-101zM273 784h-109v101h109v-101zM585 345q0 -73 -13 -133t-42.5 -112t-84 -81.5t-130.5 -29.5t-130.5 29.5t-83.5 82t-42 112.5t-13 132t13 132t42 112.5t83.5 82t130.5 29.5t130.5 -29.5t84 -81.5t42.5 -112t13 -133zM468 345q0 296 -153 296
q-152 0 -152 -296t152 -296q153 0 153 296z" />
    <glyph glyph-name="multiply" unicode="&#xd7;" 
d="M530 50l-62 -56l-172 181l-172 -181l-62 56l172 187l-172 188l62 56l172 -183l172 183l62 -56l-172 -189z" />
    <glyph glyph-name="Oslash" unicode="&#xd8;" horiz-adv-x="630" 
d="M585 345q0 -73 -13 -133t-42.5 -112t-84 -81.5t-130.5 -29.5q-100 0 -164 53l-49 -82l-50 29l58 97q-64 90 -64 259q0 73 13 133t42 112t83.5 81.5t130.5 29.5q87 0 146 -40l45 75l46 -35l-47 -78q80 -93 80 -278zM417 589q-38 52 -102 52q-152 0 -152 -296
q0 -93 13 -151zM468 345q0 111 -22 181l-246 -403q38 -74 115 -74q153 0 153 296z" />
    <glyph glyph-name="Ugrave" unicode="&#xd9;" horiz-adv-x="612" 
d="M350 773h-74l-77 153h107zM540 245q0 -132 -51.5 -194t-182.5 -62t-182.5 62t-51.5 194v445h110v-445q0 -38 1 -58t7.5 -51t18.5 -46.5t37 -28t60 -12.5t60 12.5t37 28t18.5 46.5t7.5 51t1 58v445h110v-445z" />
    <glyph glyph-name="Uacute" unicode="&#xda;" horiz-adv-x="612" 
d="M412 926l-76 -153h-75l45 153h106zM540 245q0 -132 -51.5 -194t-182.5 -62t-182.5 62t-51.5 194v445h110v-445q0 -38 1 -58t7.5 -51t18.5 -46.5t37 -28t60 -12.5t60 12.5t37 28t18.5 46.5t7.5 51t1 58v445h110v-445z" />
    <glyph glyph-name="Ucircumflex" unicode="&#xdb;" horiz-adv-x="612" 
d="M436 773h-72l-68 81l-68 -81h-72l93 142h93zM540 245q0 -132 -51.5 -194t-182.5 -62t-182.5 62t-51.5 194v445h110v-445q0 -38 1 -58t7.5 -51t18.5 -46.5t37 -28t60 -12.5t60 12.5t37 28t18.5 46.5t7.5 51t1 58v445h110v-445z" />
    <glyph glyph-name="Udieresis" unicode="&#xdc;" horiz-adv-x="612" 
d="M457 784h-109v101h109v-101zM264 784h-109v101h109v-101zM540 245q0 -132 -51.5 -194t-182.5 -62t-182.5 62t-51.5 194v445h110v-445q0 -38 1 -58t7.5 -51t18.5 -46.5t37 -28t60 -12.5t60 12.5t37 28t18.5 46.5t7.5 51t1 58v445h110v-445z" />
    <glyph glyph-name="Yacute" unicode="&#xdd;" horiz-adv-x="519" 
d="M366 926l-76 -153h-75l45 153h106zM531 690l-221 -369v-321h-110v321l-212 369h123l156 -271l162 271h102z" />
    <glyph glyph-name="Thorn" unicode="&#xde;" horiz-adv-x="612" 
d="M563 360q0 -114 -53.5 -159.5t-168.5 -45.5h-148v-155h-110v690h110v-126h143q120 0 173.5 -42.5t53.5 -161.5zM446 360q0 80 -34.5 109t-114.5 29h-104v-277h99q81 0 117.5 29.5t36.5 109.5z" />
    <glyph glyph-name="germandbls" unicode="&#xdf;" horiz-adv-x="538" 
d="M493 189q0 -200 -192 -200q-40 0 -81 11v51q40 -16 60 -16q43 0 67 25t30 55t6 74q0 85 -25.5 122.5t-103.5 37.5v46q56 0 75 33.5t19 94.5q0 31 -6.5 59.5t-26.5 52.5t-52 24q-21 0 -37 -9.5t-25 -28.5t-14.5 -36t-7.5 -44.5t-2.5 -41.5t-0.5 -38v-8v-453h-101v453
q0 59 7 99.5t26 76.5t58.5 54t99.5 18q85 0 138.5 -47t53.5 -131q0 -60 -28 -95t-86 -54v-2q81 -12 115 -55t34 -128z" />
    <glyph glyph-name="agrave" unicode="&#xe0;" horiz-adv-x="482" 
d="M285 559h-74l-77 153h107zM410 0h-101v66h-2q-21 -36 -56.5 -56.5t-77.5 -20.5q-53 0 -91.5 33.5t-38.5 85.5q0 32 12 57.5t35 41.5t47.5 27.5t58 17.5t58 8.5t55.5 4.5v42q0 22 -0.5 33.5t-3.5 34.5t-9.5 36t-20.5 23.5t-33 10.5q-43 0 -58.5 -27.5t-18.5 -76.5h-106
q6 79 52 112.5t131 33.5q96 0 132 -42.5t36 -137.5v-307zM309 167v56q-156 -10 -156 -100q0 -29 15 -50t43 -21q20 0 38 10q60 32 60 105z" />
    <glyph glyph-name="aacute" unicode="&#xe1;" horiz-adv-x="482" 
d="M347 712l-76 -153h-75l45 153h106zM410 0h-101v66h-2q-21 -36 -56.5 -56.5t-77.5 -20.5q-53 0 -91.5 33.5t-38.5 85.5q0 32 12 57.5t35 41.5t47.5 27.5t58 17.5t58 8.5t55.5 4.5v42q0 22 -0.5 33.5t-3.5 34.5t-9.5 36t-20.5 23.5t-33 10.5q-43 0 -58.5 -27.5t-18.5 -76.5
h-106q6 79 52 112.5t131 33.5q96 0 132 -42.5t36 -137.5v-307zM309 167v56q-156 -10 -156 -100q0 -29 15 -50t43 -21q20 0 38 10q60 32 60 105z" />
    <glyph glyph-name="acircumflex" unicode="&#xe2;" horiz-adv-x="482" 
d="M371 559h-72l-68 81l-68 -81h-72l93 142h93zM410 0h-101v66h-2q-21 -36 -56.5 -56.5t-77.5 -20.5q-53 0 -91.5 33.5t-38.5 85.5q0 32 12 57.5t35 41.5t47.5 27.5t58 17.5t58 8.5t55.5 4.5v42q0 22 -0.5 33.5t-3.5 34.5t-9.5 36t-20.5 23.5t-33 10.5q-43 0 -58.5 -27.5
t-18.5 -76.5h-106q6 79 52 112.5t131 33.5q96 0 132 -42.5t36 -137.5v-307zM309 167v56q-156 -10 -156 -100q0 -29 15 -50t43 -21q20 0 38 10q60 32 60 105z" />
    <glyph glyph-name="atilde" unicode="&#xe3;" horiz-adv-x="482" 
d="M371 684q0 -27 -1 -41.5t-6.5 -37.5t-20 -34.5t-37.5 -11.5q-26 0 -70.5 28.5t-53.5 28.5q-19 0 -19 -51h-52q0 25 1 40t6.5 38t19.5 35t37 12q22 0 69 -30t57 -30q18 0 18 54h52zM410 0h-101v66h-2q-21 -36 -56.5 -56.5t-77.5 -20.5q-53 0 -91.5 33.5t-38.5 85.5
q0 32 12 57.5t35 41.5t47.5 27.5t58 17.5t58 8.5t55.5 4.5v42q0 22 -0.5 33.5t-3.5 34.5t-9.5 36t-20.5 23.5t-33 10.5q-43 0 -58.5 -27.5t-18.5 -76.5h-106q6 79 52 112.5t131 33.5q96 0 132 -42.5t36 -137.5v-307zM309 167v56q-156 -10 -156 -100q0 -29 15 -50t43 -21
q20 0 38 10q60 32 60 105z" />
    <glyph glyph-name="adieresis" unicode="&#xe4;" horiz-adv-x="482" 
d="M392 570h-109v101h109v-101zM199 570h-109v101h109v-101zM410 0h-101v66h-2q-21 -36 -56.5 -56.5t-77.5 -20.5q-53 0 -91.5 33.5t-38.5 85.5q0 32 12 57.5t35 41.5t47.5 27.5t58 17.5t58 8.5t55.5 4.5v42q0 22 -0.5 33.5t-3.5 34.5t-9.5 36t-20.5 23.5t-33 10.5
q-43 0 -58.5 -27.5t-18.5 -76.5h-106q6 79 52 112.5t131 33.5q96 0 132 -42.5t36 -137.5v-307zM309 167v56q-156 -10 -156 -100q0 -29 15 -50t43 -21q20 0 38 10q60 32 60 105z" />
    <glyph glyph-name="aring" unicode="&#xe5;" horiz-adv-x="482" 
d="M335 644q0 -39 -27.5 -66.5t-66.5 -27.5t-67 27.5t-28 66.5t28 67t67 28t66.5 -28t27.5 -67zM410 0h-101v66h-2q-21 -36 -56.5 -56.5t-77.5 -20.5q-53 0 -91.5 33.5t-38.5 85.5q0 32 12 57.5t35 41.5t47.5 27.5t58 17.5t58 8.5t55.5 4.5v42q0 22 -0.5 33.5t-3.5 34.5
t-9.5 36t-20.5 23.5t-33 10.5q-43 0 -58.5 -27.5t-18.5 -76.5h-106q6 79 52 112.5t131 33.5q96 0 132 -42.5t36 -137.5v-307zM284 644q0 18 -12.5 31t-30.5 13q-19 0 -31.5 -12.5t-12.5 -31.5q0 -18 13 -30.5t31 -12.5q17 0 30 13t13 30zM309 167v56q-156 -10 -156 -100
q0 -29 15 -50t43 -21q20 0 38 10q60 32 60 105z" />
    <glyph glyph-name="ae" unicode="&#xe6;" horiz-adv-x="723" 
d="M684 244h-273q7 -84 54 -143t127 -59q10 0 18.5 1t18 4l14 4.5t17 6.5t16.5 7v-50q-65 -26 -133 -26q-116 0 -184 92q-31 -49 -68 -70.5t-94 -21.5q-66 0 -109.5 38.5t-43.5 103.5q0 159 273 159q0 154 -81 154q-36 0 -53.5 -25t-17.5 -62h-106q6 67 55 98.5t120 31.5
q48 0 79 -17t47 -58q52 75 145 75q54 0 90.5 -20t55 -56.5t26 -76t7.5 -90.5zM585 290q0 155 -75 155q-50 0 -75 -49.5t-25 -105.5h175zM317 208v36q-42 0 -75.5 -8t-60.5 -34t-27 -69q0 -35 19.5 -60.5t53.5 -25.5q31 0 50.5 15t27.5 43t10 49.5t2 53.5z" />
    <glyph glyph-name="ccedilla" unicode="&#xe7;" horiz-adv-x="426" 
d="M412 321h-106q0 24 -1.5 41t-8 38.5t-21.5 33t-38 11.5q-25 0 -43.5 -16t-27.5 -41t-13 -49t-4 -48q0 -42 9 -83.5t28 -80t53.5 -62t80.5 -23.5q41 0 85 18v-47q-71 -27 -141 -24l-12 -51q12 2 17 2q38 0 64 -25.5t26 -63.5q0 -45 -31.5 -70t-77.5 -25q-39 0 -70 17v62
q32 -28 63 -28q18 0 31.5 12.5t13.5 30.5q0 25 -19.5 38.5t-45.5 13.5q-19 0 -29 -2l21 95q-93 19 -134.5 89.5t-41.5 172.5q0 106 49.5 168t152.5 62q171 0 171 -166z" />
    <glyph glyph-name="egrave" unicode="&#xe8;" horiz-adv-x="463" 
d="M276 559h-74l-77 153h107zM425 292h-285q0 -44 10.5 -87t32 -80t58.5 -60t84 -23q46 0 91 20v-46q-65 -27 -139 -27q-119 0 -178.5 74t-59.5 196q0 228 203 228q183 0 183 -195zM326 338q0 46 -22 76.5t-66 30.5q-43 0 -67.5 -31t-27.5 -76h183z" />
    <glyph glyph-name="eacute" unicode="&#xe9;" horiz-adv-x="463" 
d="M338 712l-76 -153h-75l45 153h106zM425 292h-285q0 -44 10.5 -87t32 -80t58.5 -60t84 -23q46 0 91 20v-46q-65 -27 -139 -27q-119 0 -178.5 74t-59.5 196q0 228 203 228q183 0 183 -195zM326 338q0 46 -22 76.5t-66 30.5q-43 0 -67.5 -31t-27.5 -76h183z" />
    <glyph glyph-name="ecircumflex" unicode="&#xea;" horiz-adv-x="463" 
d="M382 559h-72l-68 81l-68 -81h-72l93 142h93zM425 292h-285q0 -44 10.5 -87t32 -80t58.5 -60t84 -23q46 0 91 20v-46q-65 -27 -139 -27q-119 0 -178.5 74t-59.5 196q0 228 203 228q183 0 183 -195zM326 338q0 46 -22 76.5t-66 30.5q-43 0 -67.5 -31t-27.5 -76h183z" />
    <glyph glyph-name="edieresis" unicode="&#xeb;" horiz-adv-x="463" 
d="M383 570h-109v101h109v-101zM190 570h-109v101h109v-101zM425 292h-285q0 -44 10.5 -87t32 -80t58.5 -60t84 -23q46 0 91 20v-46q-65 -27 -139 -27q-119 0 -178.5 74t-59.5 196q0 228 203 228q183 0 183 -195zM326 338q0 46 -22 76.5t-66 30.5q-43 0 -67.5 -31t-27.5 -76
h183z" />
    <glyph glyph-name="igrave" unicode="&#xec;" horiz-adv-x="260" 
d="M174 559h-74l-77 153h107zM180 0h-101v476h101v-476z" />
    <glyph glyph-name="iacute" unicode="&#xed;" horiz-adv-x="260" 
d="M236 712l-76 -153h-75l45 153h106zM180 0h-101v476h101v-476z" />
    <glyph glyph-name="icircumflex" unicode="&#xee;" horiz-adv-x="260" 
d="M270 559h-72l-68 81l-68 -81h-72l93 142h93zM180 0h-101v476h101v-476z" />
    <glyph glyph-name="idieresis" unicode="&#xef;" horiz-adv-x="260" 
d="M281 570h-109v101h109v-101zM88 570h-109v101h109v-101zM180 0h-101v476h101v-476z" />
    <glyph glyph-name="eth" unicode="&#xf0;" horiz-adv-x="519" 
d="M471 238q0 -114 -50 -181.5t-160 -67.5t-160.5 67t-50.5 182q0 111 45.5 180t150.5 69q54 0 92 -37l2 2q-31 49 -81 92l-101 -36l-15 45l68 24q-95 54 -125 55v3h165q21 -13 44 -29l85 31l16 -43l-55 -21q66 -60 98 -148.5t32 -186.5zM361 238q0 207 -100 207
q-101 0 -101 -207t101 -207q100 0 100 207z" />
    <glyph glyph-name="ntilde" unicode="&#xf1;" horiz-adv-x="538" 
d="M389 684q0 -27 -1 -41.5t-6.5 -37.5t-20 -34.5t-37.5 -11.5q-26 0 -70.5 28.5t-53.5 28.5q-19 0 -19 -51h-52q0 25 1 40t6.5 38t19.5 35t37 12q22 0 69 -30t57 -30q18 0 18 54h52zM464 0h-101v298q0 114 -60 114q-43 0 -74 -39.5t-42.5 -86t-11.5 -89.5v-197h-101v476
h101v-113h2q57 124 167 124q57 0 88.5 -40t31.5 -99v-348z" />
    <glyph glyph-name="ograve" unicode="&#xf2;" horiz-adv-x="501" 
d="M295 559h-74l-77 153h107zM461 238q0 -115 -50.5 -182t-160.5 -67t-160 67.5t-50 181.5t50 181.5t160 67.5t160.5 -67t50.5 -182zM351 238q0 207 -101 207q-100 0 -100 -207t100 -207q101 0 101 207z" />
    <glyph glyph-name="oacute" unicode="&#xf3;" horiz-adv-x="501" 
d="M357 712l-76 -153h-75l45 153h106zM461 238q0 -115 -50.5 -182t-160.5 -67t-160 67.5t-50 181.5t50 181.5t160 67.5t160.5 -67t50.5 -182zM351 238q0 207 -101 207q-100 0 -100 -207t100 -207q101 0 101 207z" />
    <glyph glyph-name="ocircumflex" unicode="&#xf4;" horiz-adv-x="501" 
d="M391 559h-72l-68 81l-68 -81h-72l93 142h93zM461 238q0 -115 -50.5 -182t-160.5 -67t-160 67.5t-50 181.5t50 181.5t160 67.5t160.5 -67t50.5 -182zM351 238q0 207 -101 207q-100 0 -100 -207t100 -207q101 0 101 207z" />
    <glyph glyph-name="otilde" unicode="&#xf5;" horiz-adv-x="501" 
d="M381 684q0 -27 -1 -41.5t-6.5 -37.5t-20 -34.5t-37.5 -11.5q-26 0 -70.5 28.5t-53.5 28.5q-19 0 -19 -51h-52q0 25 1 40t6.5 38t19.5 35t37 12q22 0 69 -30t57 -30q18 0 18 54h52zM461 238q0 -115 -50.5 -182t-160.5 -67t-160 67.5t-50 181.5t50 181.5t160 67.5
t160.5 -67t50.5 -182zM351 238q0 207 -101 207q-100 0 -100 -207t100 -207q101 0 101 207z" />
    <glyph glyph-name="odieresis" unicode="&#xf6;" horiz-adv-x="501" 
d="M402 570h-109v101h109v-101zM209 570h-109v101h109v-101zM461 238q0 -115 -50.5 -182t-160.5 -67t-160 67.5t-50 181.5t50 181.5t160 67.5t160.5 -67t50.5 -182zM351 238q0 207 -101 207q-100 0 -100 -207t100 -207q101 0 101 207z" />
    <glyph glyph-name="divide" unicode="&#xf7;" 
d="M327 371h-105v105h105v-105zM510 198h-471v80h471v-80zM327 0h-105v105h105v-105z" />
    <glyph glyph-name="oslash" unicode="&#xf8;" horiz-adv-x="501" 
d="M461 238q0 -115 -50.5 -182t-160.5 -67q-72 0 -121 31l-46 -72l-39 25l50 78q-54 64 -54 187q0 114 50 181.5t160 67.5q61 0 106 -23l40 63l38 -26l-40 -64q67 -62 67 -199zM319 405q-26 40 -69 40q-100 0 -100 -207q0 -54 6 -90zM351 238q0 70 -12 114l-167 -264
q23 -57 78 -57q101 0 101 207z" />
    <glyph glyph-name="ugrave" unicode="&#xf9;" horiz-adv-x="538" 
d="M313 559h-74l-77 153h107zM464 0h-102v113h-2q-57 -124 -166 -124q-57 0 -88.5 40t-31.5 99v348h101v-298q0 -114 60 -114q43 0 74 39.5t42.5 86t11.5 89.5v197h101v-476z" />
    <glyph glyph-name="uacute" unicode="&#xfa;" horiz-adv-x="538" 
d="M375 712l-76 -153h-75l45 153h106zM464 0h-102v113h-2q-57 -124 -166 -124q-57 0 -88.5 40t-31.5 99v348h101v-298q0 -114 60 -114q43 0 74 39.5t42.5 86t11.5 89.5v197h101v-476z" />
    <glyph glyph-name="ucircumflex" unicode="&#xfb;" horiz-adv-x="538" 
d="M399 559h-72l-68 81l-68 -81h-72l93 142h93zM464 0h-102v113h-2q-57 -124 -166 -124q-57 0 -88.5 40t-31.5 99v348h101v-298q0 -114 60 -114q43 0 74 39.5t42.5 86t11.5 89.5v197h101v-476z" />
    <glyph glyph-name="udieresis" unicode="&#xfc;" horiz-adv-x="538" 
d="M420 570h-109v101h109v-101zM227 570h-109v101h109v-101zM464 0h-102v113h-2q-57 -124 -166 -124q-57 0 -88.5 40t-31.5 99v348h101v-298q0 -114 60 -114q43 0 74 39.5t42.5 86t11.5 89.5v197h101v-476z" />
    <glyph glyph-name="yacute" unicode="&#xfd;" horiz-adv-x="445" 
d="M329 712l-76 -153h-75l45 153h106zM442 476l-245 -690h-81l70 209l-183 481h105l125 -340h2l112 340h95z" />
    <glyph glyph-name="thorn" unicode="&#xfe;" horiz-adv-x="519" 
d="M476 238q0 -48 -8.5 -89.5t-28 -79t-56 -59t-87.5 -21.5q-84 0 -124 77h-2v-280h-101v904h101v-292h2q38 89 124 89q180 0 180 -249zM366 238q0 185 -97 185q-95 0 -95 -185q0 -22 0.5 -37.5t3 -41t9 -42.5t16.5 -34.5t27 -26.5t39 -9q97 0 97 191z" />
    <glyph glyph-name="ydieresis" unicode="&#xff;" horiz-adv-x="445" 
d="M374 570h-109v101h109v-101zM181 570h-109v101h109v-101zM442 476l-245 -690h-81l70 209l-183 481h105l125 -340h2l112 340h95z" />
    <glyph glyph-name="dotlessi" unicode="&#x131;" horiz-adv-x="260" 
d="M180 0h-101v476h101v-476z" />
    <glyph glyph-name="Lslash" unicode="&#x141;" horiz-adv-x="445" 
d="M445 0h-365v268l-80 -64v72l80 64v350h110v-261l129 104v-72l-129 -104v-285h255v-72z" />
    <glyph glyph-name="lslash" unicode="&#x142;" horiz-adv-x="260" 
d="M254 430l-74 -60v-370h-101v288l-74 -59v64l74 60v337h101v-256l74 60v-64z" />
    <glyph glyph-name="OE" unicode="&#x152;" horiz-adv-x="890" 
d="M859 0h-383v97h-2q-58 -108 -179 -108q-73 0 -124 31t-77 85.5t-37 112.5t-11 127t11 127t37 112.5t77 85.5t124 31q120 0 179 -105h2v94h375v-66h-265v-230h251v-66h-251v-256h273v-72zM476 337q0 38 -2.5 72t-12 79t-25 76.5t-46 54t-70.5 22.5q-157 0 -157 -296
t157 -296q48 0 81 29.5t48 78t21 92t6 88.5z" />
    <glyph glyph-name="oe" unicode="&#x153;" horiz-adv-x="779" 
d="M741 244h-286q10 -88 59.5 -145t134.5 -57q33 0 84 23v-50q-65 -26 -133 -26q-130 0 -192 93q-48 -93 -158 -93t-160 67.5t-50 181.5t50 181.5t160 67.5q103 0 158 -78q47 78 154 78q179 0 179 -243zM642 290q0 29 -2 50t-9.5 48t-25.5 42t-46 15q-52 0 -78 -48.5
t-26 -106.5h187zM360 238q0 207 -110 207q-100 0 -100 -207t100 -207q110 0 110 207z" />
    <glyph glyph-name="Scaron" unicode="&#x160;" horiz-adv-x="501" 
d="M391 915l-94 -142h-93l-93 142h72l68 -81l68 81h72zM475 191q0 -105 -70.5 -153.5t-180.5 -48.5q-103 0 -175 26v107q104 -61 192 -61q55 0 89.5 24t34.5 76q0 43 -33.5 76.5t-81.5 58.5l-95.5 52t-81 72t-33.5 104q0 92 64.5 134.5t161.5 42.5q65 0 159 -18v-95
q-85 47 -171 47q-43 0 -73.5 -23t-30.5 -64q0 -34 24 -62t60 -47l78.5 -43t78.5 -48.5t60 -65t24 -91.5z" />
    <glyph glyph-name="scaron" unicode="&#x161;" horiz-adv-x="405" 
d="M343 701l-94 -142h-93l-93 142h72l68 -81l68 81h72zM362 133q0 -75 -51 -109.5t-130 -34.5q-64 0 -127 21v93q72 -50 132 -50q32 0 57 15t25 45q0 23 -22 43.5t-54 38t-63.5 37t-53.5 50t-22 68.5q0 69 47.5 103t119.5 34q48 0 112 -19v-86q-70 47 -120 47
q-27 0 -47.5 -12.5t-20.5 -37.5q0 -23 22.5 -43t54.5 -37.5t64 -37.5t54.5 -53t22.5 -75z" />
    <glyph glyph-name="Ydieresis" unicode="&#x178;" horiz-adv-x="519" 
d="M411 784h-109v101h109v-101zM218 784h-109v101h109v-101zM531 690l-221 -369v-321h-110v321l-212 369h123l156 -271l162 271h102z" />
    <glyph glyph-name="Zcaron" unicode="&#x17d;" horiz-adv-x="482" 
d="M381 915l-94 -142h-93l-93 142h72l68 -81l68 81h72zM461 0h-441v72l303 552h-286v66h410v-66l-303 -552h317v-72z" />
    <glyph glyph-name="zcaron" unicode="&#x17e;" horiz-adv-x="389" 
d="M335 701l-94 -142h-93l-93 142h72l68 -81l68 81h72zM369 0h-349v66l236 350h-221v60h327v-60l-236 -350h243v-66z" />
    <glyph glyph-name="florin" unicode="&#x192;" horiz-adv-x="426" 
d="M468 687l-12 -69q-43 23 -84 23q-15 0 -28.5 -3t-23 -6t-18.5 -12.5t-14 -13.5t-11 -18.5t-8.5 -19t-6 -23t-4 -22t-4 -24.5t-3.5 -23h134l-9 -52h-134l-74 -424h-101l74 424h-84l9 52h84l4 26q16 103 64.5 151t151.5 48q48 0 98 -14z" />
    <glyph glyph-name="circumflex" unicode="&#x2c6;" horiz-adv-x="310" 
d="M295 559h-72l-68 81l-68 -81h-72l93 142h93z" />
    <glyph glyph-name="caron" unicode="&#x2c7;" horiz-adv-x="310" 
d="M295 701l-94 -142h-93l-93 142h72l68 -81l68 81h72z" />
    <glyph glyph-name="uni02C9" unicode="&#x2c9;" horiz-adv-x="310" 
d="M296 559h-283v70h283v-70z" />
    <glyph glyph-name="breve" unicode="&#x2d8;" horiz-adv-x="310" 
d="M295 701q-5 -64 -40 -103t-99 -39q-63 0 -102 39.5t-39 102.5h57q15 -69 82 -69q66 0 84 69h57z" />
    <glyph glyph-name="dotaccent" unicode="&#x2d9;" horiz-adv-x="310" 
d="M211 570h-112v104h112v-104z" />
    <glyph glyph-name="ring" unicode="&#x2da;" horiz-adv-x="310" 
d="M249 644q0 -39 -27.5 -66.5t-66.5 -27.5t-67 27.5t-28 66.5t28 67t67 28t66.5 -28t27.5 -67zM198 644q0 18 -12.5 31t-30.5 13q-19 0 -31.5 -12.5t-12.5 -31.5q0 -18 13 -30.5t31 -12.5q17 0 30 13t13 30z" />
    <glyph glyph-name="ogonek" unicode="&#x2db;" horiz-adv-x="310" 
d="M287 -227q-40 -10 -62 -10q-44 0 -75.5 26t-31.5 69q0 40 25.5 80t61.5 70h52q-67 -67 -67 -127q0 -26 13.5 -45.5t38.5 -19.5q23 0 45 14v-57z" />
    <glyph glyph-name="tilde" unicode="&#x2dc;" horiz-adv-x="310" 
d="M285 684q0 -27 -1 -41.5t-6.5 -37.5t-20 -34.5t-37.5 -11.5q-26 0 -70.5 28.5t-53.5 28.5q-19 0 -19 -51h-52q0 25 1 40t6.5 38t19.5 35t37 12q22 0 69 -30t57 -30q18 0 18 54h52z" />
    <glyph glyph-name="hungarumlaut" unicode="&#x2dd;" horiz-adv-x="310" 
d="M306 712l-76 -153h-75l45 153h106zM160 712l-76 -153h-74l44 153h106z" />
    <glyph glyph-name="uni03A9" unicode="&#x3a9;" horiz-adv-x="686" 
d="M642 0h-240v94q118 116 118 279q0 107 -46 173t-129 66t-132 -67t-49 -175q0 -167 120 -276v-94h-240v94h143q-145 119 -145 301q0 138 85 227.5t220 89.5q139 0 217.5 -87.5t78.5 -227.5q0 -185 -146 -303h145v-94z" />
    <glyph glyph-name="uni03BC" unicode="&#x3bc;" horiz-adv-x="537" 
d="M506 2q-32 -13 -51 -13q-58 0 -83.5 28t-24.5 86h-2q-10 -50 -38 -82t-76 -32q-40 0 -65 25v-217h-96v679h101v-269q0 -27 2 -46.5t9.5 -43t24.5 -36.5t43 -13q27 0 45.5 12.5t27 35.5t12 42.5t5.5 47.5q3 36 3 109v161h102v-330q0 -2 -0.5 -15.5t0 -19.5l1.5 -18t4 -18
t7.5 -13.5t12 -11t17.5 -3.5q1 0 19 3v-48z" />
    <glyph glyph-name="pi" unicode="&#x3c0;" horiz-adv-x="634" 
d="M641 12q-30 -21 -85 -21q-37 0 -64 13t-41.5 35.5t-21 47.5t-6.5 55v271h-159v-271q0 -90 -15 -142h-120q17 66 17 148v265q-43 0 -87 -23l-32 75q57 35 155 35h452v-87h-92v-255q0 -80 49 -80q9 0 29 9z" />
    <glyph glyph-name="endash" unicode="&#x2013;" horiz-adv-x="537" 
d="M485 208h-434v91h434v-91z" />
    <glyph glyph-name="emdash" unicode="&#x2014;" horiz-adv-x="704" 
d="M654 208h-603v91h603v-91z" />
    <glyph glyph-name="quoteleft" unicode="&#x2018;" horiz-adv-x="222" 
d="M171 690l-10 -227h-116l46 227h80z" />
    <glyph glyph-name="quoteright" unicode="&#x2019;" horiz-adv-x="222" 
d="M178 690l-45 -227h-80l9 227h116z" />
    <glyph glyph-name="quotesinglbase" unicode="&#x201a;" horiz-adv-x="222" 
d="M178 121l-45 -227h-80l9 227h116z" />
    <glyph glyph-name="quotedblleft" unicode="&#x201c;" horiz-adv-x="389" 
d="M337 690l-10 -227h-116l46 227h80zM170 690l-10 -227h-116l46 227h80z" />
    <glyph glyph-name="quotedblright" unicode="&#x201d;" horiz-adv-x="389" 
d="M346 690l-46 -227h-80l10 227h116zM178 690l-45 -227h-80l9 227h116z" />
    <glyph glyph-name="quotedblbase" unicode="&#x201e;" horiz-adv-x="389" 
d="M346 121l-46 -227h-80l10 227h116zM178 121l-45 -227h-80l9 227h116z" />
    <glyph glyph-name="dagger" unicode="&#x2020;" horiz-adv-x="537" 
d="M506 376h-186v-376h-103v376h-186v73h186v241h103v-241h186v-73z" />
    <glyph glyph-name="daggerdbl" unicode="&#x2021;" horiz-adv-x="556" 
d="M516 302h-186v-302h-103v302h-186v73h186v75h-186v73h186v167h103v-167h186v-73h-186v-75h186v-73z" />
    <glyph glyph-name="bullet" unicode="&#x2022;" horiz-adv-x="537" 
d="M450 344q0 -74 -53.5 -127t-127.5 -53q-75 0 -128 52.5t-53 127.5t53 128.5t128 53.5t128 -53.5t53 -128.5z" />
    <glyph glyph-name="ellipsis" unicode="&#x2026;" horiz-adv-x="723" 
d="M657 0h-106v106h106v-106zM414 0h-106v106h106v-106zM171 0h-106v106h106v-106z" />
    <glyph glyph-name="perthousand" unicode="&#x2030;" horiz-adv-x="1223" 
d="M1197 212q0 -42 -7.5 -79t-24.5 -71t-49.5 -53.5t-77.5 -19.5t-77 20t-49 53.5t-24.5 70.5t-7.5 79t7.5 79t24.5 71t49 54t77 20t77.5 -20t49.5 -54t24.5 -71t7.5 -79zM825 212q0 -43 -7.5 -79.5t-24 -70.5t-49 -53.5t-77.5 -19.5t-77.5 19.5t-49 53.5t-24 70.5
t-7.5 79.5t7.5 79.5t24 70.5t49 54t77.5 20t77.5 -20t49 -54t24 -70.5t7.5 -79.5zM571 634l-222 -634h-68l222 634h68zM344 422q0 -42 -7.5 -79t-24.5 -71t-49.5 -53.5t-77.5 -19.5t-77 20t-49 53.5t-24.5 70.5t-7.5 79t7.5 79t24.5 70.5t49 53.5t77 20t77.5 -19.5
t49.5 -53.5t24.5 -71t7.5 -79zM1119 212q0 186 -81 186q-80 0 -80 -186q0 -185 80 -185q20 0 34.5 9t23 27.5t13.5 34.5t7 42t2.5 38t0.5 34zM747 212q0 186 -80 186t-80 -186q0 -185 80 -185q28 0 46 19t24.5 55t8 57t1.5 54zM266 422q0 25 -0.5 41.5t-5 47t-12 48.5
t-24 33t-39.5 15q-80 0 -80 -185t80 -185q23 0 39.5 15t24 33t12 48.5t5 47t0.5 41.5z" />
    <glyph glyph-name="guilsinglleft" unicode="&#x2039;" horiz-adv-x="241" 
d="M203 59h-82l-84 193l84 188h82l-60 -188z" />
    <glyph glyph-name="guilsinglright" unicode="&#x203a;" horiz-adv-x="241" 
d="M203 252l-85 -193h-81l61 193l-61 188h81z" />
    <glyph glyph-name="fraction" unicode="&#x2044;" horiz-adv-x="231" 
d="M261 634l-222 -634h-68l222 634h68z" />
    <glyph glyph-name="Euro" unicode="&#x20ac;" horiz-adv-x="574" 
d="M550 479h-120q-1 70 -20.5 100.5t-63.5 30.5q-53 0 -85 -53.5t-39 -153.5h191l-9 -51h-184v-5l2 -38v-5h172l-10 -51h-157l1 -3q25 -190 151 -190q41 0 72 13.5t75 49.5v-91q-84 -42 -166 -42q-205 0 -246 263h-92l10 51h77q-1 15 -1 32v16h-67l10 51h60
q13 128 73.5 195.5t162.5 67.5q95 0 149 -49.5t54 -137.5z" />
    <glyph glyph-name="litre" unicode="&#x2113;" horiz-adv-x="485" 
d="M400 45q-64 -60 -132 -60q-60 0 -94 36q-41 41 -41 129v82l-54 -56l-34 51l88 92v215q0 95 38 144.5t102 49.5q57 0 83.5 -35.5t26.5 -81.5q0 -120 -115 -259q-3 -4 -9.5 -12l-12 -15t-9.5 -11v-154q0 -94 58 -94q34 0 74 42l16.5 -33.5zM318 598q0 20 -9 34.5t-26 14.5
q-46 0 -46 -97v-143q7 8 16 21q65 91 65 170z" />
    <glyph glyph-name="trademark" unicode="&#x2122;" horiz-adv-x="612" 
d="M542 400h-43v262h-2l-68 -262h-53l-68 262h-2v-262h-43v290h78l60 -228h2l59 228h80v-290zM230 648h-74v-248h-43v248h-73v42h190v-42z" />
    <glyph glyph-name="Omega" unicode="&#x2126;" horiz-adv-x="686" 
d="M642 0h-240v94q118 116 118 279q0 107 -46 173t-129 66t-132 -67t-49 -175q0 -167 120 -276v-94h-240v94h143q-145 119 -145 301q0 138 85 227.5t220 89.5q139 0 217.5 -87.5t78.5 -227.5q0 -185 -146 -303h145v-94z" />
    <glyph glyph-name="estimated" unicode="&#x212e;" horiz-adv-x="654" 
d="M592 280h-432v-193q64 -62 153 -62q131 0 206 127l36 -21q-48 -71 -104 -107t-138 -36q-123 0 -198 83.5t-75 208.5q0 126 74.5 209t198.5 83q127 0 200.5 -82.5t78.5 -209.5zM468 317v154q-65 65 -155 65q-91 0 -153 -63v-156h308z" />
    <glyph glyph-name="partialdiff" unicode="&#x2202;" horiz-adv-x="565" 
d="M535 472q0 -95 -24 -191q-32 -125 -104 -208.5t-174 -83.5q-86 0 -140 54.5t-54 141.5q0 142 78 225.5t178 83.5q42 0 75 -18t47 -43h2q4 40 4 62q0 73 -33 111t-92 38q-50 0 -92 -26q-4 12 -12 38t-13 39q53 35 133 35q101 0 161 -67t60 -191zM407 343q-24 71 -94 71
q-63 0 -111 -69t-48 -167q0 -46 21.5 -73.5t58.5 -27.5q61 0 107.5 76t65.5 190z" />
    <glyph glyph-name="Delta" unicode="&#x2206;" horiz-adv-x="632" 
d="M608 0h-585v51l215 649h158l212 -649v-51zM471 94l-142 448q-4 12 -6.5 23.5l-5 22.5t-3.5 14h-4l-14 -58l-143 -450h318z" />
    <glyph glyph-name="product" unicode="&#x220f;" horiz-adv-x="704" 
d="M628 -230h-116v830h-320v-830h-117v930h553v-930z" />
    <glyph glyph-name="summation" unicode="&#x2211;" horiz-adv-x="619" 
d="M563 -230h-539v59l286 410l-267 396v65h499v-94h-360l247 -364l-263 -378h397v-94z" />
    <glyph glyph-name="minus" unicode="&#x2212;" 
d="M531 209h-470v80h470v-80z" />
    <glyph glyph-name="uni2215" unicode="&#x2215;" horiz-adv-x="231" 
d="M261 634l-222 -634h-68l222 634h68z" />
    <glyph glyph-name="uni2219" unicode="&#x2219;" horiz-adv-x="241" 
d="M176 261h-111v112h111v-112z" />
    <glyph glyph-name="radical" unicode="&#x221a;" horiz-adv-x="498" 
d="M507 729l-171 -741h-95l-123 314l-53 -34l-37 59l140 92l119 -308l141 618h79z" />
    <glyph glyph-name="infinity" unicode="&#x221e;" horiz-adv-x="766" 
d="M721 294q0 -75 -47.5 -124.5t-120.5 -49.5q-53 0 -99 28t-76 75h-2q-73 -103 -172 -103q-71 0 -120.5 46t-49.5 125q0 78 49.5 124.5t119.5 46.5q104 0 173 -103h2q27 41 71 72t101 31q74 0 122.5 -47.5t48.5 -120.5zM631 293q0 39 -23 64.5t-65 25.5q-67 0 -123 -91
q51 -94 123 -94q43 0 65.5 27.5t22.5 67.5zM334 292q-55 92 -124 92q-41 0 -64 -27t-23 -67q0 -39 25 -65.5t63 -26.5q67 0 123 94z" />
    <glyph glyph-name="integral" unicode="&#x222b;" horiz-adv-x="468" 
d="M402 654q-20 8 -41 8q-71 0 -71 -90v-614q0 -86 -42.5 -137.5t-126.5 -51.5q-49 0 -79 13l21 83q18 -8 41 -8q71 0 71 90v613q0 87 43 138.5t128 51.5q51 0 79 -15z" />
    <glyph glyph-name="approxequal" unicode="&#x2248;" 
d="M529 421q-56 -86 -134 -86q-56 0 -106 32q-51 32 -87 32q-45 0 -85 -65l-52 59q58 85 134 85q53 0 105 -31q51 -32 88 -32q45 0 85 65zM529 198q-56 -85 -134 -85q-55 0 -106 31q-51 32 -87 32q-46 0 -85 -65l-52 60q58 85 134 85q53 0 105 -31q51 -32 88 -32q45 0 85 65
z" />
    <glyph glyph-name="notequal" unicode="&#x2260;" 
d="M506 145h-236l-54 -119h-87l55 119h-97v80h133l65 143h-198v80h235l58 128h86l-58 -128h98v-80h-135l-65 -143h200v-80z" />
    <glyph glyph-name="lessequal" unicode="&#x2264;" 
d="M506 0h-419v80h419v-80zM506 138l-419 187v66l419 188v-85l-310 -135v-2l310 -135v-84z" />
    <glyph glyph-name="greaterequal" unicode="&#x2265;" 
d="M506 0h-419v80h419v-80zM506 326l-419 -188v85l311 135v2l-311 135v84l419 -187v-66z" />
    <glyph glyph-name="lozenge" unicode="&#x25ca;" horiz-adv-x="518" 
d="M481 350l-195 -350h-54l-194 349l194 351h54zM395 350l-136 248l-135 -248l135 -248z" />
    </font>
</defs>
</svg>
