<?xml version="1.0" standalone="no"?>
<!DOCTYPE svg PUBLIC "-//W3C//DTD SVG 1.1//EN" "http://www.w3.org/Graphics/SVG/1.1/DTD/svg11.dtd" >
<svg xmlns="http://www.w3.org/2000/svg" xmlns:xlink="http://www.w3.org/1999/xlink" version="1.1">
<metadata>
Created by FontForge 20190801 at Tue May 30 06:33:47 2017
 By Jimmy Wärting
Copyright (c) 2017 by TypeType. Designers Ivan Gladkikh, Pavel Emelyanov. Technical designers Olexa Volochay, Nadyr Rakhimov, Dmitriy Greshnev. All rights reserved.
</metadata>
<defs>
<font id="TTNorms-Black" horiz-adv-x="1280" >
  <font-face 
    font-family="TT Norms Black"
    font-weight="900"
    font-stretch="normal"
    units-per-em="2048"
    panose-1="2 0 9 3 4 0 0 2 0 4"
    ascent="1638"
    descent="-410"
    x-height="1004"
    cap-height="1434"
    bbox="-379 -532.003 2945.01 2060"
    underline-thickness="0"
    underline-position="0"
    unicode-range="U+000D-FB06"
  />
<missing-glyph horiz-adv-x="0" 
 />
    <glyph glyph-name="ij" unicode="ij" horiz-adv-x="1310" 
d="M768 41c-68 -27.333 -146.666 -40.998 -235.999 -40.998c-128.667 0 -230.667 38.5 -306 115.5s-113 181.833 -113 314.5v574h409v-553c0 -36.667 12 -66.334 36 -89.001s56.333 -34 97 -34c18 0 36.5 2.66699 55.5 8s33.5 10.666 43.5 15.999l14 6v646h410v-943
c0 -328 -130 -491.667 -390 -491c-39.333 0 -77.833 3.33301 -115.5 10s-65.167 13.667 -82.5 21l-27 10v307c31.333 -13.333 65.666 -20 102.999 -20c68 0 102 47.667 102 143zM543.001 1311c0 -57.333 -21.167 -105.833 -63.5 -145.5s-96.333 -59.5 -162 -59.5
s-119.667 19.833 -162 59.5s-63.5 88.167 -63.5 145.5s21.167 105.833 63.5 145.5s96.333 59.5 162 59.5s119.667 -19.833 162 -59.5s63.5 -88.167 63.5 -145.5zM1198 1311c0 -57.333 -21.167 -105.833 -63.5 -145.5s-96.333 -59.5 -162 -59.5
s-118.834 19.833 -159.501 59.5s-61 88.167 -61 145.5s20.333 105.833 61 145.5s93.834 59.5 159.501 59.5s119.667 -19.833 162 -59.5s63.5 -88.167 63.5 -145.5z" />
    <glyph glyph-name="uniFB00" unicode="ff" horiz-adv-x="1556" 
d="M1495 963v-359.002h-205v-604h-409v604h-308v-604h-409v604h-133v359h133v51c0 136.667 33.833 240.834 101.5 312.501s163.5 107.5 287.5 107.5c38 0 75.833 -3.5 113.5 -10.5s65.5 -13.833 83.5 -20.5l28 -10v-338c-27.333 13.333 -61.333 20 -102 20
c-30 0 -54.667 -8.83301 -74 -26.5s-29 -39.5 -29 -65.5v-20h308v92c0 136.667 33.667 240.834 101 312.501s163.333 107.5 288 107.5c38 0 75.833 -3.5 113.5 -10.5s65.167 -13.833 82.5 -20.5l29 -10v-338c-27.333 13.333 -61.333 20 -102 20
c-30 0 -54.667 -8.83301 -74 -26.5s-29 -39.5 -29 -65.5v-61h205z" />
    <glyph glyph-name="uniFB01" unicode="fi" horiz-adv-x="1433" 
d="M1300 963v-963.001h-409v604h-318v-604h-409v604h-133v359h133v92c0 136.667 33.833 240.834 101.5 312.501s163.5 107.5 287.5 107.5c38 0 75.833 -3.5 113.5 -10.5s65.5 -13.833 83.5 -20.5l28 -10v-338c-27.333 13.333 -61.333 20 -102 20
c-30 0 -54.667 -8.83301 -74 -26.5s-29 -39.5 -29 -65.5v-61h727zM1321 1290c0 -57.333 -21.167 -105.833 -63.5 -145.5s-96.333 -59.5 -162 -59.5s-119.667 19.833 -162 59.5s-63.5 88.167 -63.5 145.5s21.167 105.833 63.5 145.5s96.333 59.5 162 59.5
s119.667 -19.833 162 -59.5s63.5 -88.167 63.5 -145.5z" />
    <glyph glyph-name="uniFB02" unicode="fl" horiz-adv-x="1433" 
d="M891 973c0 36.667 -14.999 68 -44.999 94s-69.667 39 -119 39c-45.333 0 -82.333 -13 -111 -39s-43 -57.333 -43 -94v-10h209v-359h-209v-604h-409v604h-133v359h133c0 150 50.833 272.833 152.5 368.5s238.5 143.5 410.5 143.5c181.333 0 322.166 -46.5 422.499 -139.5
s150.5 -217.167 150.5 -372.5v-963h-409v973z" />
    <glyph glyph-name="uniFB03" unicode="ffi" horiz-adv-x="2150" 
d="M2017 963v-963.002h-409v604h-318v-604h-409v604h-308v-604h-409v604h-133v359h133v51c0 136.667 33.833 240.834 101.5 312.501s163.5 107.5 287.5 107.5c38 0 75.833 -3.5 113.5 -10.5s65.5 -13.833 83.5 -20.5l28 -10v-338c-27.333 13.333 -61.333 20 -102 20
c-30 0 -54.667 -8.83301 -74 -26.5s-29 -39.5 -29 -65.5v-20h308v92c0 136.667 33.667 240.834 101 312.501s163.333 107.5 288 107.5c38 0 75.833 -3.5 113.5 -10.5s65.167 -13.833 82.5 -20.5l29 -10v-338c-27.333 13.333 -61.333 20 -102 20
c-30 0 -54.667 -8.83301 -74 -26.5s-29 -39.5 -29 -65.5v-61h727zM2038 1290c0 -57.333 -21.167 -105.833 -63.5 -145.5s-96.333 -59.5 -162 -59.5s-119.667 19.833 -162 59.5s-63.5 88.167 -63.5 145.5s21.167 105.833 63.5 145.5s96.333 59.5 162 59.5
s119.667 -19.833 162 -59.5s63.5 -88.167 63.5 -145.5z" />
    <glyph glyph-name="uniFB06" unicode="st" horiz-adv-x="1863" 
d="M1536 993l205.001 -0.00390625v-348h-205v-194c0 -30 9.5 -54.667 28.5 -74s43.5 -29 73.5 -29c18 0 35.5 1.66699 52.5 5s29.833 7.33301 38.5 12l12 4v-349c-61.333 -27.333 -136.333 -40.666 -225 -39.999c-124 0 -220 35.833 -288 107.5s-102 175.5 -102 311.5v246
h-102v348h102c0 36.667 -14.333 68 -43 94s-65.5 39 -110.5 39s-81.833 -13.667 -110.5 -41s-43 -61.333 -43 -102c0 -18 6.83301 -37.167 20.5 -57.5s27.5 -36.5 41.5 -48.5l20 -17l-164 -194c-34 34 -71.333 51 -112 51c-23.333 0 -42.833 -5.5 -58.5 -16.5
s-23.5 -22.5 -23.5 -34.5c0 -13.333 14 -26.333 42 -39s62.167 -26.167 102.5 -40.5s80.5 -31.666 120.5 -51.999s74 -51 102 -92s42 -89.5 42 -145.5c0 -87.333 -41.667 -163.833 -125 -229.5s-195 -98.5 -335 -98.5c-62.667 0 -122.5 7.16699 -179.5 21.5
s-102.833 31.5 -137.5 51.5s-65.334 39.833 -92.001 59.5s-45.334 36.5 -56.001 50.5l-17 22l185 195c5.33301 -6.66699 13.833 -15.167 25.5 -25.5s33.5 -24.166 65.5 -41.499s63 -26 93 -26c24.667 0 44.5 6.16699 59.5 18.5s22.5 26.833 22.5 43.5
c0 13.333 -14 26.166 -42 38.499s-62.167 25.333 -102.5 39s-80.666 30.834 -120.999 51.501s-74.5 51.5 -102.5 92.5s-42 90.167 -42 147.5c0 84.667 33.167 156.334 99.5 215.001s159.5 92.667 279.5 102c0 125.333 50.167 231.833 150.5 319.5s234.5 131.5 402.5 131.5
c170.667 0 305.5 -44.833 404.5 -134.5s148.5 -205.5 148.5 -347.5z" />
    <glyph glyph-name="c_t.liga" unicode="ct" horiz-adv-x="1976" 
d="M1239 993c0 35.333 -13.335 66.333 -40.002 93s-57.667 40 -93 40c-36.667 0 -68 -13.667 -94 -41s-39 -61.333 -39 -102c0 -24.667 8.5 -50.667 25.5 -78s33.833 -48.333 50.5 -63l26 -23l-246 -246c-4 6.66699 -10.333 15.167 -19 25.5s-28.334 24.166 -59.001 41.499
s-62.667 26 -96 26c-50.667 0 -92.334 -15.833 -125.001 -47.5s-49 -70.667 -49 -117s16.5 -85.166 49.5 -116.499s74.5 -47 124.5 -47c32.667 0 63.834 7.83301 93.501 23.5s50.5 31.167 62.5 46.5l18 22l246 -246c-4 -5.33301 -9.66699 -12.833 -17 -22.5
s-24.666 -27 -51.999 -52s-57.166 -46.833 -89.499 -65.5s-74.666 -35.834 -126.999 -51.501s-107.166 -23.5 -164.499 -23.5c-161.333 0 -297.333 52.333 -408 157s-166 230 -166 376c0 139.333 50.5 258.833 151.5 358.5s228.167 154.167 381.5 163.5
c0 126.667 48.833 233.5 146.5 320.5s226.167 130.5 385.5 130.5c161.333 0 290.5 -45.167 387.5 -135.5s145.5 -205.833 145.5 -346.5h204v-348h-204v-194c0 -30 9.16699 -54.667 27.5 -74s43.166 -29 74.499 -29c18 0 35.5 1.66699 52.5 5s29.5 7.33301 37.5 12l12 4v-349
c-61.333 -27.333 -136.333 -40.666 -225 -39.999c-124 0 -219.833 35.833 -287.5 107.5s-101.5 175.5 -101.5 311.5v246h-102v348h102z" />
    <glyph glyph-name="s_p.liga" unicode="sp" horiz-adv-x="2283" 
d="M1495 123l-0.00195312 -552.999h-410v1413c0 45.333 -11.833 80.5 -35.5 105.5s-56 37.5 -97 37.5s-73.5 -11.167 -97.5 -33.5s-36 -51.833 -36 -88.5c0 -24.667 6.83301 -49 20.5 -73s27.5 -42 41.5 -54l20 -17l-164 -194c-34 34 -71.333 51 -112 51
c-23.333 0 -42.833 -5.5 -58.5 -16.5s-23.5 -22.5 -23.5 -34.5c0 -13.333 14 -26.333 42 -39s62.167 -26.167 102.5 -40.5s80.5 -31.666 120.5 -51.999s74 -51 102 -92s42 -89.5 42 -145.5c0 -87.333 -41.667 -163.833 -125 -229.5s-195 -98.5 -335 -98.5
c-62.667 0 -122.5 7.16699 -179.5 21.5s-102.833 31.5 -137.5 51.5s-65.334 39.833 -92.001 59.5s-45.334 36.5 -56.001 50.5l-17 22l185 195c5.33301 -6.66699 13.833 -15.167 25.5 -25.5s33.5 -24.166 65.5 -41.499s63 -26 93 -26c24.667 0 44.5 6.16699 59.5 18.5
s22.5 26.833 22.5 43.5c0 13.333 -14 26.166 -42 38.499s-62.167 25.333 -102.5 39s-80.666 30.834 -120.999 51.501s-74.5 51.5 -102.5 92.5s-42 90.167 -42 147.5c0 82 36.167 155.333 108.5 220s162.5 97 270.5 97c0 125.333 47.833 231.833 143.5 319.5
s218.5 131.5 368.5 131.5c165.333 0 298.833 -46.833 400.5 -140.5s152.5 -210.834 152.5 -351.501v-102l10 15c4 6 14.333 17.167 31 33.5s34.834 31 54.501 44s45.5 24.667 77.5 35s66.667 15.5 104 15.5c121.333 0 225 -49.167 311 -147.5s129 -223.166 129 -374.499
c0 -152.667 -43 -277.834 -129 -375.501s-189.667 -146.5 -311 -146.5c-36.667 0 -71.167 4.66699 -103.5 14s-58.666 21.166 -78.999 35.499s-38.166 28.666 -53.499 42.999s-26.333 26.5 -33 36.5zM1495 501.501c0 -46.333 14 -83.5 42 -111.5s65.333 -42 112 -42
c40.667 0 74.667 14.333 102 43s41 65.5 41 110.5s-13.667 81.833 -41 110.5s-61.333 43 -102 43c-46.667 0 -84 -14 -112 -42s-42 -65.167 -42 -111.5z" />
    <glyph glyph-name="f_t.liga" unicode="ft" horiz-adv-x="1628" 
d="M942 1096v152.998h358v-286h205v-359h-205v-153c0 -30 9.33301 -54.667 28 -74s43.667 -29 75 -29c18 0 35.5 1.66699 52.5 5s29.5 7.33301 37.5 12l12 4v-349c-61.333 -27.333 -136.333 -40.666 -225 -39.999c-124 0 -219.833 35.833 -287.5 107.5
s-101.5 175.5 -101.5 311.5v205h-318v-604h-409v604h-133v359h133v92c0 136.667 33.833 240.834 101.5 312.501s163.5 107.5 287.5 107.5c38 0 75.833 -3.5 113.5 -10.5s65.5 -13.833 83.5 -20.5l28 -10v-338c-27.333 13.333 -61.333 20 -102 20
c-30 0 -54.667 -8.83301 -74 -26.5s-29 -39.5 -29 -65.5v-61h236c35.333 0 66.333 13.333 93 40s40 57.667 40 93z" />
    <glyph glyph-name=".notdef" horiz-adv-x="0" 
 />
    <glyph glyph-name="glyph1" horiz-adv-x="0" 
 />
    <glyph glyph-name="glyph1" horiz-adv-x="0" 
 />
    <glyph glyph-name="uni000D" unicode="&#xd;" horiz-adv-x="0" 
 />
    <glyph glyph-name="space" unicode=" " horiz-adv-x="440" 
 />
    <glyph glyph-name="exclam" unicode="!" horiz-adv-x="716" 
d="M532 481h-348l-71 953h491zM133 184c0 57.333 21.167 105.833 63.5 145.5s96.333 59.5 162 59.5s119.667 -19.833 162 -59.5s63.5 -88.167 63.5 -145.5s-21.167 -105.666 -63.5 -144.999s-96.333 -59 -162 -59s-119.667 19.667 -162 59s-63.5 87.666 -63.5 144.999z" />
    <glyph glyph-name="quotedbl" unicode="&#x22;" horiz-adv-x="1013" 
d="M451 1434v-543h-359v543h359zM922 1434v-543h-359v543h359z" />
    <glyph glyph-name="numbersign" unicode="#" horiz-adv-x="1556" 
d="M31 328l61 286h205l41 205h-205l62 287h204l72 328h369l-72 -328h174l72 328h368l-71 -328h215l-62 -287h-215l-41 -205h215l-61 -286h-215l-72 -328h-368l71 328h-174l-72 -328h-368l72 328h-205zM707 819l-41 -205h174l41 205h-174z" />
    <glyph glyph-name="dollar" unicode="$" 
d="M707 451c0 19.333 -11.667 36.0039 -35 50.0039s-53.166 27.167 -89.499 39.5s-77 25.666 -122 39.999s-89.667 33.166 -134 56.499s-84.5 50.333 -120.5 81s-65.667 72 -89 124s-35 110.667 -35 176c0 104 36.167 194.833 108.5 272.5s165.833 131.5 280.5 161.5v176
h379v-174c69.333 -15.333 132.333 -38.333 189 -69s95.334 -57.334 116.001 -80.001l33 -35l-266 -277c-5.33301 8 -13.833 17.5 -25.5 28.5s-35.334 26.167 -71.001 45.5s-71.834 29 -108.501 29c-39.333 0 -69.666 -8.66699 -90.999 -26s-32 -39.333 -32 -66
c0 -22 15.333 -41.5 46 -58.5s69.167 -31 115.5 -42s96.5 -28.167 150.5 -51.5s104.167 -49.666 150.5 -78.999s85 -73 116 -131s46.5 -125.333 46.5 -202c0 -109.333 -33.5 -202.5 -100.5 -279.5s-156.5 -133.833 -268.5 -170.5v-185h-379v168
c-87.333 13.333 -168.5 39.666 -243.5 78.999s-128.167 74.666 -159.5 105.999l-48 47l267 266c9.33301 -9.33301 22.166 -21.5 38.499 -36.5s48.833 -34.833 97.5 -59.5s95.5 -37 140.5 -37s80.167 11 105.5 33s38 48.667 38 80z" />
    <glyph glyph-name="percent" unicode="%" horiz-adv-x="1843" 
d="M276 0l902 1434h389l-901 -1434h-390zM317 1096c0 -31.333 9.33301 -56.333 28 -75s43.667 -28 75 -28s56.166 9.33301 74.499 28s27.5 43.667 27.5 75s-9.16699 56.166 -27.5 74.499s-43.166 27.5 -74.499 27.5s-56.333 -9.16699 -75 -27.5s-28 -43.166 -28 -74.499z
M809 1095.5c0 -98.333 -38.167 -184.333 -114.5 -258s-167.833 -110.5 -274.5 -110.5s-198.167 36.833 -274.5 110.5s-114.5 159.667 -114.5 258s38.167 184.333 114.5 258s167.833 110.5 274.5 110.5s198.167 -36.833 274.5 -110.5s114.5 -159.667 114.5 -258zM1526 338
c0 31.333 -9.33301 56.166 -28 74.499s-43.667 27.5 -75 27.5s-56.166 -9.16699 -74.499 -27.5s-27.5 -43.166 -27.5 -74.499s9.16699 -56.166 27.5 -74.499s43.166 -27.5 74.499 -27.5s56.333 9.16699 75 27.5s28 43.166 28 74.499zM1034 337.5
c0 98.333 38.333 184.5 115 258.5s168.167 111 274.5 111s197.666 -37 273.999 -111s114.5 -160.167 114.5 -258.5s-38.167 -184.333 -114.5 -258s-167.666 -110.5 -273.999 -110.5s-197.833 36.833 -274.5 110.5s-115 159.667 -115 258z" />
    <glyph glyph-name="ampersand" unicode="&#x26;" horiz-adv-x="1413" 
d="M1249 358c27.333 -27.333 54.6699 -41 82.0029 -41l62 11v-328c-52 -27.333 -117 -41 -195 -41c-52 0 -100.833 11 -146.5 33s-78.834 43.667 -99.501 65l-30 35c-9.33301 -9.33301 -23.333 -21.5 -42 -36.5s-60.5 -34.833 -125.5 -59.5s-135.5 -37 -211.5 -37
c-144.667 0 -262.834 40.333 -354.501 121s-137.5 177 -137.5 289c0 49.333 9.66699 97.166 29 143.499s43 84.5 71 114.5s55.5 56.5 82.5 79.5s50.167 40.167 69.5 51.5l29 14c-12 10.667 -26.667 26 -44 46s-40.666 58.333 -69.999 115s-44 111 -44 163
c0 105.333 41 194.833 123 268.5s187.667 110.5 317 110.5c131.333 0 237.666 -36.333 318.999 -109s122 -159.334 122 -260.001c0 -38 -7.83301 -75.833 -23.5 -113.5s-34.5 -69.167 -56.5 -94.5s-43.833 -48.166 -65.5 -68.499s-40.834 -36.166 -57.501 -47.499l-23 -14
l113 -133c27.333 31.333 41 69 41 113h389c0 -68 -10.167 -134.5 -30.5 -199.5s-40.833 -112.5 -61.5 -142.5zM584.004 287c24.667 0 47.167 3.99902 67.5 11.999s34.5 16.333 42.5 25l13 14l-144 184c-6.66699 -4 -15.167 -9.33301 -25.5 -16s-24 -21.667 -41 -45
s-25.5 -47.333 -25.5 -72c0 -31.333 10 -56.166 30 -74.499s47.667 -27.5 83 -27.5zM696.004 1055c0 26 -7.83301 47.8311 -23.5 65.498s-35 26.5 -58 26.5s-42.5 -8.83301 -58.5 -26.5s-24 -39.5 -24 -65.5c0 -19.333 6.83301 -39.166 20.5 -59.499
s27.5 -36.166 41.5 -47.499l20 -16c54.667 38 82 79 82 123z" />
    <glyph glyph-name="quotesingle" unicode="'" horiz-adv-x="552" 
d="M461 1434v-543h-369v543h369z" />
    <glyph glyph-name="parenleft" unicode="(" horiz-adv-x="839" 
d="M532 512c0 -134 23.334 -268.169 70.001 -402.502s93 -235.833 139 -304.5l68 -102l-317 -184c-10.667 10.667 -24.667 26.334 -42 47.001s-48.5 64.334 -93.5 131.001s-84.667 136.167 -119 208.5s-65.5 163.833 -93.5 274.5s-42 221.334 -42 332.001
s13.333 220.667 40 330s59.167 202.166 97.5 278.499s76.666 144.5 114.999 204.5s70.5 105 96.5 135l41 45l317 -184c-6.66699 -9.33301 -16.5 -23 -29.5 -41s-35.167 -55.667 -66.5 -113s-59.333 -116 -84 -176s-47 -133.667 -67 -221s-30 -173.333 -30 -258z" />
    <glyph glyph-name="parenright" unicode=")" horiz-adv-x="839" 
d="M307 512c0 134 -23.168 268.169 -69.501 402.502s-92.833 235.833 -139.5 304.5l-67 102l317 184c10.667 -10.667 24.667 -26.334 42 -47.001s48.5 -64.334 93.5 -131.001s84.5 -136.167 118.5 -208.5s65 -163.833 93 -274.5s42 -221.334 42 -332.001
s-13.333 -220.667 -40 -330s-59 -202.166 -97 -278.499s-76.167 -144.5 -114.5 -204.5s-70.5 -105 -96.5 -135l-41 -45l-317 184c6.66699 9.33301 16.5 23 29.5 41s35.167 55.667 66.5 113s59.333 116 84 176s46.834 133.667 66.501 221s29.5 173.333 29.5 258z" />
    <glyph glyph-name="asterisk" unicode="*" horiz-adv-x="901" 
d="M297 1434h307l-20 -185l174 62l82 -256l-164 -41l112 -144l-225 -174l-112 164l-113 -164l-225 174l112 144l-164 41l82 256l174 -62z" />
    <glyph glyph-name="plus" unicode="+" horiz-adv-x="1085" 
d="M727 1085v-297h297v-378h-297v-297h-369v297h-297v378h297v297h369z" />
    <glyph glyph-name="comma" unicode="," horiz-adv-x="614" 
d="M236 399l317 -184l-307 -481l-256 143z" />
    <glyph glyph-name="hyphen" unicode="-" horiz-adv-x="890" 
d="M829 788v-368h-768v368h768z" />
    <glyph glyph-name="period" unicode="." horiz-adv-x="593" 
d="M72 184c0 57.333 21.167 105.833 63.5 145.5s96.166 59.5 161.499 59.5s119.166 -19.833 161.499 -59.5s63.5 -88.167 63.5 -145.5s-21.167 -105.666 -63.5 -144.999s-96.166 -59 -161.499 -59s-119.166 19.667 -161.499 59s-63.5 87.666 -63.5 144.999z" />
    <glyph glyph-name="slash" unicode="/" horiz-adv-x="1136" 
d="M1075 1454l-614 -1884h-400l615 1884h399z" />
    <glyph glyph-name="zero" unicode="0" horiz-adv-x="1454" 
d="M543 717c0 -118.667 17.667 -206.334 53 -263.001s79 -85 131 -85s95.667 28.333 131 85s53 144.334 53 263.001s-17.667 206.334 -53 263.001s-79 85 -131 85s-95.667 -28.333 -131 -85s-53 -144.334 -53 -263.001zM1372 717c0 -224 -62.833 -406.333 -188.5 -547
s-277.834 -211 -456.501 -211s-330.834 70.333 -456.501 211s-188.5 323 -188.5 547s62.833 406.333 188.5 547s277.834 211 456.501 211s330.834 -70.333 456.501 -211s188.5 -323 188.5 -547z" />
    <glyph glyph-name="one" unicode="1" horiz-adv-x="890" 
d="M328 1434h409v-1434h-461v963h-225v276c38 5.33301 73.5 15.833 106.5 31.5s59.333 32.5 79 50.5s37 35.5 52 52.5s25.167 31.5 30.5 43.5z" />
    <glyph glyph-name="two" unicode="2" horiz-adv-x="1269" 
d="M1178 0l-1117 0.000976562c0 96.667 11.667 185.334 35 266.001s53.166 147.667 89.499 201s76.666 101.166 120.999 143.499s89 78.166 134 107.499s85.5 56.333 121.5 81s65.667 49.5 89 74.5s35 51.167 35 78.5c0 26 -10.167 47.833 -30.5 65.5
s-47.833 26.5 -82.5 26.5c-27.333 0 -52.833 -7.5 -76.5 -22.5s-40.5 -30.5 -50.5 -46.5l-16 -23l-389 174c4 9.33301 10.5 22 19.5 38s30.167 43.833 63.5 83.5s70.5 74.834 111.5 105.501s97.333 58.667 169 84s148.5 38 230.5 38c165.333 0 298.833 -45.5 400.5 -136.5
s152.5 -202.5 152.5 -334.5c0 -65.333 -12 -124.833 -36 -178.5s-55.833 -98.5 -95.5 -134.5s-79.5 -68 -119.5 -96s-81.5 -56.333 -124.5 -85s-74.833 -55.334 -95.5 -80.001h461v-430z" />
    <glyph glyph-name="three" unicode="3" horiz-adv-x="1218" 
d="M911 758c6.66699 -2.66699 15.5029 -6.49414 26.5029 -11.4941s30.5 -17 58.5 -36s53 -40.833 75 -65.5s41.833 -58.834 59.5 -102.501s26.5 -91.5 26.5 -143.5c0 -118.667 -53.167 -221.667 -159.5 -309s-247.833 -131 -424.5 -131c-72.667 0 -142 8.16699 -208 24.5
s-120.167 36.166 -162.5 59.499s-79.5 46.166 -111.5 68.499s-55.667 41.833 -71 58.5l-20 25l256 266c8 -9.33301 19.5 -20.833 34.5 -34.5s45.167 -31.834 90.5 -54.501s89 -34 131 -34c45.333 0 80.5 10.833 105.5 32.5s37.5 48.5 37.5 80.5c0 68 -47.667 102 -143 102
h-143v348h143c34 0 61.333 8.83301 82 26.5s31 39.5 31 65.5s-12 49.667 -36 71s-53 32 -87 32c-32.667 0 -65.5 -7.83301 -98.5 -23.5s-56.833 -31.167 -71.5 -46.5l-25 -22l-266 266c4 5.33301 10.5 12.833 19.5 22.5s29.833 26 62.5 49s68.167 43.5 106.5 61.5
s89.166 34.5 152.499 49.5s130.666 22.5 201.999 22.5c161.333 0 292 -41.333 392 -124s150 -178 150 -286c0 -42 -7.5 -81.167 -22.5 -117.5s-33 -65.833 -54 -88.5s-41.833 -41.834 -62.5 -57.501s-38.334 -26.834 -53.001 -33.501z" />
    <glyph glyph-name="four" unicode="4" horiz-adv-x="1290" 
d="M1116 584h133v-379h-133v-205h-461v205h-624v409l594 820h491v-850zM655 584v317l-215 -317h215z" />
    <glyph glyph-name="five" unicode="5" horiz-adv-x="1300" 
d="M778 942c134 0 244.337 -44.332 331.004 -132.999s130 -201.334 130 -338.001c0 -146 -53.167 -267.833 -159.5 -365.5s-247.833 -146.5 -424.5 -146.5c-72.667 0 -142.334 8.16699 -209.001 24.5s-121.834 36.166 -165.501 59.499s-81.834 46.166 -114.501 68.499
s-56.667 41.833 -72 58.5l-22 25l266 276c8 -8 18.833 -18.167 32.5 -30.5s42 -29.166 85 -50.499s85.833 -32 128.5 -32c45.333 0 82.166 12.333 110.499 37s42.5 53.334 42.5 86.001c0 36.667 -13.667 68 -41 94s-61.333 39 -102 39c-27.333 0 -53 -5 -77 -15
s-40.667 -20 -50 -30l-16 -16l-314 61l58 820h962v-379h-553l-20 -154c54 27.333 118.667 41 194 41z" />
    <glyph glyph-name="six" unicode="6" horiz-adv-x="1320" 
d="M1075 1434l-297 -451c13.333 -1.33301 31 -4.66602 53 -9.99902s61.333 -20 118 -44s106.5 -53 149.5 -87s82.333 -83.833 118 -149.5s53.5 -139.5 53.5 -221.5c0 -142 -56 -262.833 -168 -362.5s-257.5 -149.5 -436.5 -149.5s-324.5 49.833 -436.5 149.5
s-168 220.5 -168 362.5c0 64 13 129.167 39 195.5s51.333 117.166 76 152.499l39 51l369 564h491zM799 471c0 40.667 -13.002 74.667 -39.002 102s-57.5 41 -94.5 41s-68.5 -13.667 -94.5 -41s-39 -61.333 -39 -102c0 -35.333 13.333 -66.333 40 -93s57.834 -40 93.501 -40
s66.834 13.333 93.501 40s40 57.667 40 93z" />
    <glyph glyph-name="seven" unicode="7" horiz-adv-x="1146" 
d="M61 1434h1045v-369l-512 -1065h-492l492 1014h-533v420z" />
    <glyph glyph-name="eight" unicode="8" horiz-adv-x="1310" 
d="M655.5 317c39.667 0 73.5 12.667 101.5 38s42 53.666 42 84.999s-14 59.666 -42 84.999s-61.833 38 -101.5 38s-73.5 -12.667 -101.5 -38s-42 -53.666 -42 -84.999s14 -59.666 42 -84.999s61.833 -38 101.5 -38zM655.5 911c34.333 0 63.333 10.667 87 32s35.5 45 35.5 71
s-11.833 49.5 -35.5 70.5s-52.667 31.5 -87 31.5s-63.5 -10.5 -87.5 -31.5s-36 -44.5 -36 -70.5s12 -49.667 36 -71s53.167 -32 87.5 -32zM655.5 -41c-181.667 0 -326.165 43.998 -433.498 131.998s-161 194.333 -161 319c0 49.333 8.33301 95 25 137s36.5 75.333 59.5 100
s45.833 45.834 68.5 63.501s42 30.167 58 37.5l25 10c-5.33301 2.66699 -12.166 6.33398 -20.499 11.001s-23 16.167 -44 34.5s-39.667 38.5 -56 60.5s-31 51.167 -44 87.5s-19.5 74.166 -19.5 113.499c0 108 50.167 203.333 150.5 286s231 124 392 124
s291.667 -41.333 392 -124s150.5 -178 150.5 -286c0 -39.333 -6.5 -77.166 -19.5 -113.499s-28.333 -65.833 -46 -88.5s-35.334 -42.167 -53.001 -58.5s-33.5 -27.833 -47.5 -34.5l-18 -12c6.66699 -2.66699 15.167 -6.5 25.5 -11.5s29.166 -16.667 56.499 -35
s51.166 -39.5 71.499 -63.5s39 -57.5 56 -100.5s25.5 -88.833 25.5 -137.5c0 -124 -53.5 -230.167 -160.5 -318.5s-251.333 -132.5 -433 -132.5z" />
    <glyph glyph-name="nine" unicode="9" horiz-adv-x="1320" 
d="M246 0l297 451.001c-13.333 1.33301 -31 4.66602 -53 9.99902s-61.333 20 -118 44s-106.5 53 -149.5 87s-82.333 83.833 -118 149.5s-53.5 139.5 -53.5 221.5c0 142 56 262.833 168 362.5s257.5 149.5 436.5 149.5s324.5 -49.833 436.5 -149.5s168 -220.5 168 -362.5
c0 -64 -12.667 -129.167 -38 -195.5s-51 -117.5 -77 -153.5l-39 -51l-369 -563h-491zM522 963.001c0 -40.667 13.001 -74.832 39.001 -102.499s57.5 -41.5 94.5 -41.5s68.333 13.667 94 41s38.5 61.666 38.5 102.999c0 35.333 -13.167 66.333 -39.5 93s-57.333 40 -93 40
s-66.834 -13.333 -93.501 -40s-40 -57.667 -40 -93z" />
    <glyph glyph-name="colon" unicode=":" horiz-adv-x="593" 
d="M72 184c0 57.333 21.167 105.833 63.5 145.5s96.166 59.5 161.499 59.5s119.166 -19.833 161.499 -59.5s63.5 -88.167 63.5 -145.5s-21.167 -105.666 -63.5 -144.999s-96.166 -59 -161.499 -59s-119.166 19.667 -161.499 59s-63.5 87.666 -63.5 144.999zM72 819
c0 57.333 21.167 105.833 63.5 145.5s96.166 59.5 161.499 59.5s119.166 -19.833 161.499 -59.5s63.5 -88.167 63.5 -145.5s-21.167 -105.833 -63.5 -145.5s-96.166 -59.5 -161.499 -59.5s-119.166 19.833 -161.499 59.5s-63.5 88.167 -63.5 145.5z" />
    <glyph glyph-name="semicolon" unicode=";" horiz-adv-x="655" 
d="M133 819c0 57.333 21.167 105.833 63.5 145.5s96.333 59.5 162 59.5s119.667 -19.833 162 -59.5s63.5 -88.167 63.5 -145.5s-21.167 -105.833 -63.5 -145.5s-96.333 -59.5 -162 -59.5s-119.667 19.833 -162 59.5s-63.5 88.167 -63.5 145.5zM236 389l317 -184l-307 -471
l-256 143z" />
    <glyph glyph-name="less" unicode="&#x3c;" horiz-adv-x="1075" 
d="M61 348v307l953 359v-359l-461 -153l461 -154v-358z" />
    <glyph glyph-name="equal" unicode="=" horiz-adv-x="1034" 
d="M963 543v-328h-891v328h891zM963 993v-327h-891v327h891z" />
    <glyph glyph-name="greater" unicode="&#x3e;" horiz-adv-x="1075" 
d="M1014 655v-307l-953 -358v358l461 154l-461 153v359z" />
    <glyph glyph-name="question" unicode="?" horiz-adv-x="1177" 
d="M348 573c0 48 10 90.499 30 127.499s44 66.667 72 89s55.833 42.5 83.5 60.5s51.5 36.167 71.5 54.5s30 37.833 30 58.5c0 54.667 -30.667 81.667 -92 81c-32.667 0 -62 -7.5 -88 -22.5s-44 -30.5 -54 -46.5l-12 -23l-389 174c4 9.33301 10.167 22 18.5 38
s28.5 43.833 60.5 83.5s68.167 74.834 108.5 105.501s96 58.667 167 84s147.5 38 229.5 38c168 0 303.833 -43.833 407.5 -131.5s155.5 -190.834 155.5 -309.501c0 -61.333 -11 -116.166 -33 -164.499s-49.667 -87.833 -83 -118.5s-67.333 -59 -102 -85
s-67.5 -54.833 -98.5 -86.5s-51.833 -64.5 -62.5 -98.5h-399c-14 34 -21 64.667 -21 92zM328 183.999c0 57.333 21.167 105.833 63.5 145.5s96.166 59.5 161.499 59.5s119.166 -19.833 161.499 -59.5s63.5 -88.167 63.5 -145.5s-21.167 -105.666 -63.5 -144.999
s-96.166 -59 -161.499 -59s-119.166 19.667 -161.499 59s-63.5 87.666 -63.5 144.999z" />
    <glyph glyph-name="at" unicode="@" horiz-adv-x="1822" 
d="M901 614c-26 0 -49.5 -11.167 -70.5 -33.5s-31.5 -48.5 -31.5 -78.5s10.5 -56.333 31.5 -79s44.5 -34 70.5 -34s49.667 11.333 71 34s32 49 32 79s-10.667 56.167 -32 78.5s-45 33.5 -71 33.5zM840 881c30 0 57.9941 -5.16992 83.9941 -15.5029
s44.333 -20.166 55 -29.499l14 -17v51h277v-389c0 -30 8.83301 -54.5 26.5 -73.5s39.5 -28.5 65.5 -28.5c32.667 0 59.667 14.333 81 43s32 72.334 32 131.001c0 144.667 -53.667 267.834 -161 369.501s-241.666 152.5 -402.999 152.5c-148.667 0 -278 -55.667 -388 -167
s-165 -243.333 -165 -396s55 -284.667 165 -396s239.333 -167 388 -167c64 0 125.833 10.167 185.5 30.5s103.834 40.833 132.501 61.5l41 31l164 -195c-5.33301 -5.33301 -13.166 -12.166 -23.499 -20.499s-32.666 -23 -66.999 -44s-70.166 -39.667 -107.499 -56
s-85.333 -31 -144 -44s-119 -19.5 -181 -19.5c-229.333 0 -424.833 80.5 -586.5 241.5s-242.5 353.5 -242.5 577.5s80.833 416.5 242.5 577.5s357.167 241.5 586.5 241.5c237.333 0 436.666 -76.167 597.999 -228.5s242 -335.5 242 -549.5
c0 -135.333 -33.833 -240.833 -101.5 -316.5s-156.834 -113.5 -267.501 -113.5c-52 0 -99 10.167 -141 30.5s-72 40.833 -90 61.5l-25 31c-2.66699 -2.66699 -6 -7.16699 -10 -13.5s-13.833 -16.333 -29.5 -30s-32.667 -25.834 -51 -36.501s-42.166 -20.5 -71.499 -29.5
s-60.666 -13.5 -93.999 -13.5c-100 0 -183 34.833 -249 104.5s-99 161.167 -99 274.5c0 109.333 31.833 199.833 95.5 271.5s137.834 107.5 222.501 107.5z" />
    <glyph glyph-name="A" unicode="A" horiz-adv-x="1515" 
d="M860 625l-102 358l-103 -358h205zM963 276h-410l-82 -276h-491l522 1434h512l522 -1434h-492z" />
    <glyph glyph-name="B" unicode="B" horiz-adv-x="1474" 
d="M860 0l-705.999 -0.000976562v1434h665c161.333 0 288.666 -37.333 381.999 -112s140 -163.667 140 -267c0 -39.333 -7.16699 -76.833 -21.5 -112.5s-31.333 -64.167 -51 -85.5s-39.334 -40.166 -59.001 -56.499s-36.5 -27.833 -50.5 -34.5l-22 -8
c6.66699 -2.66699 16.5 -6.5 29.5 -11.5s35.167 -16.667 66.5 -35s59.333 -39.5 84 -63.5s46.834 -57.5 66.501 -100.5s29.5 -88.833 29.5 -137.5c0 -113.333 -49.167 -210 -147.5 -290s-233.5 -120 -405.5 -120zM614.001 347.999h205c35.333 0 64.666 11 87.999 33
s35 48.667 35 80s-11.667 57.833 -35 79.5s-52.666 32.5 -87.999 32.5h-205v-225zM768.001 1085h-154v-184h154c30 0 54.5 8.83301 73.5 26.5s28.5 39.5 28.5 65.5s-9.5 47.833 -28.5 65.5s-43.5 26.5 -73.5 26.5z" />
    <glyph glyph-name="C" unicode="C" horiz-adv-x="1540" 
d="M532 716.5c0 -98.333 34.166 -180.835 102.499 -247.502s153.833 -100 256.5 -100c39.333 0 78.5 5.33301 117.5 16s71.833 24.334 98.5 41.001s50.167 33.167 70.5 49.5s36.166 29.833 47.499 40.5l14 16l270 -286c-5.33301 -8 -13.5 -18.5 -24.5 -31.5
s-36.167 -36 -75.5 -69s-81.166 -62.167 -125.499 -87.5s-103.166 -48.166 -176.499 -68.499s-148.666 -30.5 -225.999 -30.5c-228 0 -419.833 74.5 -575.5 223.5s-233.5 327.167 -233.5 534.5s77.833 385.5 233.5 534.5s347.5 223.5 575.5 223.5c78 0 152.667 -10 224 -30
s130.333 -44 177 -72s87.667 -56 123 -84s61.333 -52 78 -72l22 -29l-276 -287c-4 4 -9.5 9.83301 -16.5 17.5s-21.667 21 -44 40s-45.833 35.667 -70.5 50s-55.834 27.333 -93.501 39s-75.5 17.5 -113.5 17.5c-102.667 0 -188.167 -33.5 -256.5 -100.5
s-102.5 -149.667 -102.5 -248z" />
    <glyph glyph-name="D" unicode="D" horiz-adv-x="1576" 
d="M154 1434h573c222.667 0 408 -70 556 -210s222 -309 222 -507s-74 -367 -222 -507s-333.333 -210 -556 -210h-573v1434zM727 1024h-113v-614h113c91.333 0 167 29.333 227 88s90 131.667 90 219s-30 160.333 -90 219s-135.667 88 -227 88z" />
    <glyph glyph-name="E" unicode="E" horiz-adv-x="1392" 
d="M614 379h697v-379h-1157v1434h1136v-379h-676v-154h512v-348h-512v-174z" />
    <glyph glyph-name="F" unicode="F" horiz-adv-x="1361" 
d="M154 1434h1146v-400h-686v-184h523v-399h-523v-451h-460v1434z" />
    <glyph glyph-name="G" unicode="G" horiz-adv-x="1658" 
d="M881 -41c-228 0 -419.832 74.5 -575.499 223.5s-233.5 327.167 -233.5 534.5s77.833 385.5 233.5 534.5s347.5 223.5 575.5 223.5c78 0 152.667 -10 224 -30s130.333 -44 177 -72s87.667 -56 123 -84s61.333 -52 78 -72l22 -29l-276 -287c-4 4 -9.5 9.83301 -16.5 17.5
s-21.667 21 -44 40s-45.833 35.667 -70.5 50s-55.834 27.333 -93.501 39s-75.5 17.5 -113.5 17.5c-102.667 0 -188.167 -33.5 -256.5 -100.5s-102.5 -149.5 -102.5 -247.5c0 -96.667 33.833 -178.834 101.5 -246.501s150.167 -101.5 247.5 -101.5c39.333 0 75 5 107 15
s55 20 69 30l18 16v123h-205v256h666v-563c-6.66699 -8 -16.167 -18.5 -28.5 -31.5s-39.333 -36 -81 -69s-86 -62.167 -133 -87.5s-108 -48.166 -183 -68.499s-151.5 -30.5 -229.5 -30.5z" />
    <glyph glyph-name="H" unicode="H" horiz-adv-x="1658" 
d="M1505 1434v-1434h-461v522h-430v-522h-460v1434h460v-502h430v502h461z" />
    <glyph glyph-name="I" unicode="I" horiz-adv-x="768" 
d="M154 0v1434h460v-1434h-460z" />
    <glyph glyph-name="J" unicode="J" horiz-adv-x="1095" 
d="M502 1434l460.999 -0.00195312v-912c0 -169.333 -51.667 -305.5 -155 -408.5s-239.666 -154.5 -408.999 -154.5c-52 0 -102.5 6.5 -151.5 19.5s-90.167 28.333 -123.5 46s-63 35.334 -89 53.001s-45.333 32.834 -58 45.501l-18 20l266 277c34 -34 75 -51 123 -51
c46.667 0 84 14 112 42s42 65 42 111v912z" />
    <glyph glyph-name="K" unicode="K" horiz-adv-x="1536" 
d="M614 1434v-492l402 492h510l-492 -594l533 -840h-512l-318 502l-123 -154v-348h-460v1434h460z" />
    <glyph glyph-name="L" unicode="L" horiz-adv-x="1259" 
d="M1219 0h-1065v1434h460v-1014h605v-420z" />
    <glyph glyph-name="M" unicode="M" horiz-adv-x="1925" 
d="M1311 768l-348 -440l-349 440v-768h-460v1434h409l400 -512l399 512h410v-1434h-461v768z" />
    <glyph glyph-name="N" unicode="N" horiz-adv-x="1699" 
d="M1085 1434h461v-1434h-389l-543 696v-696h-460v1434h389l542 -697v697z" />
    <glyph glyph-name="O" unicode="O" horiz-adv-x="1761" 
d="M532 716.5c0 -97 33.833 -179.167 101.5 -246.5s150 -101 247 -101s179.333 33.667 247 101s101.5 149.5 101.5 246.5s-33.833 179.333 -101.5 247s-150 101.5 -247 101.5s-179.333 -33.833 -247 -101.5s-101.5 -150 -101.5 -247zM1690 717
c0 -207.333 -77.833 -385.5 -233.5 -534.5s-347.5 -223.5 -575.5 -223.5s-419.833 74.5 -575.5 223.5s-233.5 327.167 -233.5 534.5s77.833 385.5 233.5 534.5s347.5 223.5 575.5 223.5s419.833 -74.5 575.5 -223.5s233.5 -327.167 233.5 -534.5z" />
    <glyph glyph-name="P" unicode="P" horiz-adv-x="1443" 
d="M154 1434h675c166.667 0 300.5 -49.167 401.5 -147.5s151.5 -223.333 151.5 -375s-50.5 -276.667 -151.5 -375s-234.833 -147.5 -401.5 -147.5h-215v-389h-460v1434zM799 1024h-185v-225h185c35.333 0 64.666 10.833 87.999 32.5s35 48.167 35 79.5s-11.667 58 -35 80
s-52.666 33 -87.999 33z" />
    <glyph glyph-name="Q" unicode="Q" horiz-adv-x="1761" 
d="M1690 717c0 -80.667 -13 -157.832 -39 -231.499s-57.833 -134.5 -95.5 -182.5s-74.834 -90.333 -111.501 -127s-68 -63.334 -94 -80.001l-39 -24c6.66699 -8 16.5 -17.5 29.5 -28.5s44.333 -26.167 94 -45.5s103.834 -29 162.501 -29l82 11v-359
c-27.333 -6.66699 -58 -10 -92 -10c-86 0 -167.167 12 -243.5 36s-138.833 53 -187.5 87s-91 68 -127 102s-61.667 62.667 -77 86l-22 37h-49c-228 0 -419.833 74.5 -575.5 223.5s-233.5 327.167 -233.5 534.5s77.833 385.5 233.5 534.5s347.5 223.5 575.5 223.5
s419.833 -74.5 575.5 -223.5s233.5 -327.167 233.5 -534.5zM532 716.502c0 -97 33.833 -179.167 101.5 -246.5s150 -101 247 -101s179.333 33.667 247 101s101.5 149.5 101.5 246.5s-33.833 179.333 -101.5 247s-150 101.5 -247 101.5s-179.333 -33.833 -247 -101.5
s-101.5 -150 -101.5 -247z" />
    <glyph glyph-name="R" unicode="R" horiz-adv-x="1495" 
d="M154 0l0.00195312 1434h706c161.333 0 292.166 -48.833 392.499 -146.5s150.5 -219.5 150.5 -365.5c0 -57.333 -7.83301 -111 -23.5 -161s-34.5 -90.333 -56.5 -121s-43.833 -57 -65.5 -79s-40.834 -37 -57.501 -45l-22 -14l276 -502h-481l-215 410h-144v-410h-460z
M942.002 921.5c0 31.667 -9.83301 56.667 -29.5 75s-47.5 27.5 -83.5 27.5h-215v-205h215c35.333 0 63 9.16699 83 27.5s30 43.333 30 75z" />
    <glyph glyph-name="S" unicode="S" 
d="M707 451c0 19.333 -11.665 36.001 -34.998 50.001s-53.166 27.167 -89.499 39.5s-77 25.666 -122 39.999s-89.667 33.166 -134 56.499s-84.5 50.333 -120.5 81s-65.667 72 -89 124s-35 110.667 -35 176c0 122.667 52.5 229.5 157.5 320.5s243.5 136.5 415.5 136.5
c68 0 133.167 -7.16699 195.5 -21.5s113 -31.5 152 -51.5s73.167 -39.833 102.5 -59.5s50 -37.167 62 -52.5l21 -20l-266 -277c-5.33301 8 -13.833 17.5 -25.5 28.5s-35.334 26.167 -71.001 45.5s-71.834 29 -108.501 29c-39.333 0 -69.666 -8.66699 -90.999 -26
s-32 -39.333 -32 -66c0 -22 15.333 -41.5 46 -58.5s69.167 -31 115.5 -42s96.5 -28.167 150.5 -51.5s104.167 -49.666 150.5 -78.999s85 -73 116 -131s46.5 -125.333 46.5 -202c0 -132.667 -53.667 -246 -161 -340s-251.666 -141 -432.999 -141
c-72.667 0 -143.167 8.5 -211.5 25.5s-125.333 37.5 -171 61.5s-85.834 48 -120.501 72s-60.334 44.667 -77.001 62l-25 25l267 266c9.33301 -9.33301 22.166 -21.5 38.499 -36.5s48.833 -34.833 97.5 -59.5s95.5 -37 140.5 -37s80.167 11 105.5 33s38 48.667 38 80z" />
    <glyph glyph-name="T" unicode="T" horiz-adv-x="1300" 
d="M41 1434h1219v-420h-379v-1014h-461v1014h-379v420z" />
    <glyph glyph-name="U" unicode="U" horiz-adv-x="1617" 
d="M809 369c57.333 0 107.5 22.834 150.5 68.501s64.5 101.167 64.5 166.5v830h461v-830c0 -186 -63.167 -340 -189.5 -462s-288.5 -183 -486.5 -183s-360.167 61.167 -486.5 183.5s-189.5 276.166 -189.5 461.499v830h461v-830c0 -65.333 21.5 -120.833 64.5 -166.5
s93.167 -68.5 150.5 -68.5z" />
    <glyph glyph-name="V" unicode="V" horiz-adv-x="1495" 
d="M1004 0h-512l-492 1434h492l256 -922l256 922h491z" />
    <glyph glyph-name="W" unicode="W" horiz-adv-x="2211" 
d="M1341 0l-235 717l-236 -717h-399l-471 1434h492l215 -768l215 768h368l215 -768l215 768h492l-471 -1434h-400z" />
    <glyph glyph-name="X" unicode="X" horiz-adv-x="1474" 
d="M737 451l-245 -451h-502l450 748l-409 686h501l205 -390l205 390h502l-410 -686l451 -748h-502z" />
    <glyph glyph-name="Y" unicode="Y" horiz-adv-x="1443" 
d="M973 1434h491l-512 -922v-512h-460v512l-512 922h491l246 -492h10z" />
    <glyph glyph-name="Z" unicode="Z" horiz-adv-x="1382" 
d="M666 1014h-543v420h1147v-420l-574 -594h594v-420h-1198v420z" />
    <glyph glyph-name="bracketleft" unicode="[" horiz-adv-x="870" 
d="M594 1075v-1126h205v-379h-635v1884h635v-379h-205z" />
    <glyph glyph-name="backslash" unicode="\" horiz-adv-x="1136" 
d="M676 -430l-615 1884h400l614 -1884h-399z" />
    <glyph glyph-name="bracketright" unicode="]" horiz-adv-x="870" 
d="M276 -49v1126h-204v379h635v-1884h-635v379h204z" />
    <glyph glyph-name="asciicircum" unicode="^" horiz-adv-x="962" 
d="M328 1434h307l287 -646h-328l-113 267l-112 -267h-328z" />
    <glyph glyph-name="underscore" unicode="_" horiz-adv-x="727" 
d="M748 -154v-378h-768v378h768z" />
    <glyph glyph-name="grave" unicode="`" horiz-adv-x="737" 
d="M492 1464l184 -348h-359l-256 348h431z" />
    <glyph glyph-name="a" unicode="a" horiz-adv-x="1146" 
d="M1024 0l-409.997 -0.00195312v113c-5.33301 -9.33301 -14.5 -21.666 -27.5 -36.999s-42.333 -35.166 -88 -59.499s-95.834 -36.5 -150.501 -36.5c-82 0 -152 28.333 -210 85s-87 123.667 -87 201c0 161.333 106 267.333 318 318l256 61c0 22 -11 41.167 -33 57.5
s-52 24.5 -90 24.5c-32.667 0 -65.5 -7.83301 -98.5 -23.5s-56.833 -31.167 -71.5 -46.5l-25 -22l-194 205c4 5.33301 9.66699 12.333 17 21s24.666 24 51.999 46s56.666 41.5 87.999 58.5s72.666 32.667 123.999 47s104.333 21.5 159 21.5
c140.667 0 254.334 -39.167 341.001 -117.5s130 -175.5 130 -291.5v-625zM512.003 275.998c31.333 0 58 12.333 80 37s33 57 33 97v30l-113 -30c-40.667 -10.667 -61 -34.667 -61 -72c0 -41.333 20.333 -62 61 -62z" />
    <glyph glyph-name="b" unicode="b" horiz-adv-x="1320" 
d="M522 501.5c0 -46.333 14 -83.5 42 -111.5s65.333 -42 112 -42c40.667 0 74.667 14.333 102 43s41 65.5 41 110.5s-13.667 81.833 -41 110.5s-61.333 43 -102 43c-46.667 0 -84 -14 -112 -42s-42 -65.167 -42 -111.5zM522 1434v-552.998c2.66699 4 6.16699 9 10.5 15
s14.666 17.167 30.999 33.5s34.333 31 54 44s45.5 24.667 77.5 35s66.667 15.5 104 15.5c121.333 0 225 -48.833 311 -146.5s129 -222.834 129 -375.501c0 -151.333 -43 -276.166 -129 -374.499s-189.667 -147.5 -311 -147.5c-36.667 0 -71.167 4.66699 -103.5 14
s-58.666 21.166 -78.999 35.499s-38 28.666 -53 42.999s-25.5 26.5 -31.5 36.5l-10 14v-123h-409v1434h409z" />
    <glyph glyph-name="c" unicode="c" horiz-adv-x="1116" 
d="M51 502c0 146 55.3291 271.169 165.996 375.502s246.667 156.5 408 156.5c57.333 0 111.833 -7.5 163.5 -22.5s94.334 -33 128.001 -54s63 -41.833 88 -62.5s43.167 -38.334 54.5 -53.001l16 -23l-246 -246c-4 6.66699 -10.333 15.167 -19 25.5
s-28.334 24.166 -59.001 41.499s-62.667 26 -96 26c-50.667 0 -92.334 -15.833 -125.001 -47.5s-49 -70.667 -49 -117s16.5 -85.166 49.5 -116.499s74.5 -47 124.5 -47c32.667 0 63.834 7.83301 93.501 23.5s50.5 31.167 62.5 46.5l18 22l246 -246
c-4 -5.33301 -9.66699 -12.833 -17 -22.5s-24.666 -27 -51.999 -52s-57.166 -46.833 -89.499 -65.5s-74.666 -35.834 -126.999 -51.501s-107.166 -23.5 -164.499 -23.5c-161.333 0 -297.333 52.333 -408 157s-166 230 -166 376z" />
    <glyph glyph-name="d" unicode="d" horiz-adv-x="1320" 
d="M778 501.5c0 46.333 -13.999 83.5 -41.999 111.5s-65 42 -111 42c-40.667 0 -74.834 -14.333 -102.501 -43s-41.5 -65.5 -41.5 -110.5s13.667 -81.833 41 -110.5s61.666 -43 102.999 -43c46.667 0 83.834 14 111.501 42s41.5 65.167 41.5 111.5zM778.001 881
l-0.000976562 552.996h410v-1434h-410v123c-2.66699 -4 -6 -9.16699 -10 -15.5s-14.167 -17.666 -30.5 -33.999s-34.5 -31 -54.5 -44s-46 -24.5 -78 -34.5s-66.333 -15 -103 -15c-121.333 0 -225.166 49 -311.499 147s-129.5 223 -129.5 375
c0 152.667 43 277.834 129 375.501s190 146.5 312 146.5c36.667 0 71 -4.83301 103 -14.5s58.333 -21.667 79 -36s38.5 -28.666 53.5 -42.999s25.833 -26.166 32.5 -35.499z" />
    <glyph glyph-name="e" unicode="e" horiz-adv-x="1208" 
d="M1126 410h-644.999c12 -30 35.167 -56.333 69.5 -79s79.5 -34 135.5 -34c36.667 0 71.167 5.83301 103.5 17.5s55.833 23.5 70.5 35.5l21 19l163 -256c-12 -10.667 -29.333 -24 -52 -40s-70.5 -37.333 -143.5 -64s-147.5 -40 -223.5 -40
c-161.333 0 -297.333 52.333 -408 157s-166 230 -166 376s53.333 271.167 160 375.5s237.667 156.5 393 156.5c151.333 0 279.666 -50.5 384.999 -151.5s158 -221.167 158 -360.5c0 -22 -1.66699 -42.167 -5 -60.5s-7.33301 -31.5 -12 -39.5zM604.001 727
c-30 0 -57 -10.833 -81 -32.5s-41.333 -48.5 -52 -80.5h266c-10.667 31.333 -28 58 -52 80s-51 33 -81 33z" />
    <glyph glyph-name="f" unicode="f" horiz-adv-x="839" 
d="M778 963v-359.001h-205v-604h-409v604h-133v359h133v71c0 136.667 33.833 240.834 101.5 312.501s163.5 107.5 287.5 107.5c38 0 75.833 -3.33301 113.5 -10s65.5 -13.667 83.5 -21l28 -10v-338c-27.333 13.333 -61.333 20.333 -102 21c-30 0 -54.667 -9 -74 -27
s-29 -39.667 -29 -65v-41h205z" />
    <glyph glyph-name="g" unicode="g" horiz-adv-x="1290" 
d="M768 133l-0.000976562 62.002l-11 -16.5c-4.66699 -7 -16 -19.333 -34 -37s-37.167 -33.334 -57.5 -47.001s-46.833 -26 -79.5 -37s-67.667 -16.5 -105 -16.5c-110.667 0 -210 48.167 -298 144.5s-132 212 -132 347s44.333 250.667 133 347s189 144.5 301 144.5
c56 0 107.667 -12 155 -36s80.333 -47.333 99 -70l29 -37v123h410v-871c0 -161.333 -56.667 -295.5 -170 -402.5s-260.333 -160.5 -441 -160.5c-61.333 0 -120.333 7.5 -177 22.5s-102.667 32.667 -138 53s-66.666 41.166 -93.999 62.499s-47.333 39.333 -60 54l-16 23
l225 225c5.33301 -6.66699 13.5 -15.167 24.5 -25.5s36 -24 75 -41s80.833 -25.5 125.5 -25.5c70.667 0 127.667 20.167 171 60.5s65 91.833 65 154.5zM480.999 532.502c0 -41 13.667 -75.167 41 -102.5s61.5 -41 102.5 -41s75.167 13.667 102.5 41s41 61.5 41 102.5
s-13.667 75.167 -41 102.5s-61.5 41 -102.5 41s-75.167 -13.667 -102.5 -41s-41 -61.5 -41 -102.5z" />
    <glyph glyph-name="h" unicode="h" 
d="M522 1434l-0.000976562 -553.001c6.66699 10.667 16.834 23.834 30.501 39.501s44.5 36.834 92.5 63.501s99.333 40 154 40c105.333 0 191.333 -37.5 258 -112.5s100 -177.5 100 -307.5v-604h-409v512c0 35.333 -10.667 64.666 -32 87.999s-47 35 -77 35
s-57 -14.667 -81 -44s-36 -66 -36 -110v-481h-409v1434h409z" />
    <glyph glyph-name="i" unicode="i" horiz-adv-x="655" 
d="M522 1004v-1004h-409v1004h409zM543 1311c0 -57.333 -21.167 -105.833 -63.5 -145.5s-96.333 -59.5 -162 -59.5s-119.667 19.833 -162 59.5s-63.5 88.167 -63.5 145.5s21.167 105.833 63.5 145.5s96.333 59.5 162 59.5s119.667 -19.833 162 -59.5
s63.5 -88.167 63.5 -145.5z" />
    <glyph glyph-name="j" unicode="j" horiz-adv-x="655" 
d="M113 51v953.001h409v-943c0 -328 -129.667 -491.667 -389 -491c-39.333 0 -77.833 3.33301 -115.5 10s-65.5 13.667 -83.5 21l-26 10v358c31.333 -13.333 65.333 -20 102 -20c31.333 0 56.333 9.16699 75 27.5s28 43.166 28 74.499zM543 1311
c0 -57.333 -21.167 -105.833 -63.5 -145.5s-96.333 -59.5 -162 -59.5s-119 19.833 -160 59.5s-61.5 88.167 -61.5 145.5s20.5 105.833 61.5 145.5s94.333 59.5 160 59.5s119.667 -19.833 162 -59.5s63.5 -88.167 63.5 -145.5z" />
    <glyph glyph-name="k" unicode="k" horiz-adv-x="1218" 
d="M1208 1004l-346 -431l357 -573h-431l-194 338l-72 -82v-256h-409v1434h409v-727l236 297h450z" />
    <glyph glyph-name="l" unicode="l" horiz-adv-x="655" 
d="M522 1434v-1434h-409v1434h409z" />
    <glyph glyph-name="m" unicode="m" horiz-adv-x="1843" 
d="M1116 481l0.00292969 -481.002h-409v512c0 75.333 -31 113 -93 113c-27.333 0 -51.166 -13 -71.499 -39s-30.5 -61 -30.5 -105v-481h-410v1004h410v-123l10 15c4 6 13.833 17.167 29.5 33.5s32.834 31 51.501 44s42.667 24.667 72 35s60.333 15.5 93 15.5
c38 0 73.5 -5.5 106.5 -16.5s59.333 -24.667 79 -41s37 -32.666 52 -48.999s25.167 -29.833 30.5 -40.5l8 -17c2.66699 4 7.16699 9.83301 13.5 17.5s19.666 21 39.999 40s42.166 35.667 65.499 50s54.166 27.333 92.499 39s77.166 17.5 116.499 17.5
c105.333 0 189.666 -36.167 252.999 -108.5s95 -176.166 95 -311.499v-604h-409v512c0 75.333 -30.667 113 -92 113c-27.333 0 -51.333 -13 -72 -39s-31 -61 -31 -105z" />
    <glyph glyph-name="n" unicode="n" horiz-adv-x="1269" 
d="M512 1004l-0.000976562 -123.001c6.66699 10.667 16.834 23.834 30.501 39.501s44.5 36.834 92.5 63.501s99 40 153 40c105.333 0 191.5 -37.5 258.5 -112.5s100.5 -177.5 100.5 -307.5v-604h-410v512c0 35.333 -10.5 64.666 -31.5 87.999s-46.5 35 -76.5 35
s-57 -14.667 -81 -44s-36 -66 -36 -110v-481h-410v1004h410z" />
    <glyph glyph-name="o" unicode="o" horiz-adv-x="1269" 
d="M481 501.5c0 -45 13.667 -81.833 41 -110.5s61.5 -43 102.5 -43s75.167 14.333 102.5 43s41 65.5 41 110.5s-13.667 81.833 -41 110.5s-61.5 43 -102.5 43s-75.167 -14.333 -102.5 -43s-41 -65.5 -41 -110.5zM1198 502c0 -146 -55.333 -271.333 -166 -376
s-246.5 -157 -407.5 -157s-296.833 52.333 -407.5 157s-166 230 -166 376s55.333 271.167 166 375.5s246.5 156.5 407.5 156.5s296.833 -52.167 407.5 -156.5s166 -229.5 166 -375.5z" />
    <glyph glyph-name="p" unicode="p" horiz-adv-x="1310" 
d="M512 501.5c0 -46.333 14 -83.5 42 -111.5s65.333 -42 112 -42c40.667 0 74.667 14.333 102 43s41 65.5 41 110.5s-13.667 81.833 -41 110.5s-61.333 43 -102 43c-46.667 0 -84 -14 -112 -42s-42 -65.167 -42 -111.5zM512 123v-552.998h-410v1434h410v-123l10 15
c4 6 14.333 17.167 31 33.5s34.834 31 54.501 44s45.5 24.667 77.5 35s66.333 15.5 103 15.5c121.333 0 225.166 -49.167 311.499 -147.5s129.5 -223.166 129.5 -374.499c0 -152.667 -43 -277.834 -129 -375.501s-190 -146.5 -312 -146.5c-36.667 0 -71 4.66699 -103 14
s-58.333 21.166 -79 35.499s-38.5 28.666 -53.5 42.999s-25.833 26.5 -32.5 36.5z" />
    <glyph glyph-name="q" unicode="q" horiz-adv-x="1310" 
d="M778 501.5c0 46.333 -13.999 83.5 -41.999 111.5s-65 42 -111 42c-40.667 0 -74.834 -14.333 -102.501 -43s-41.5 -65.5 -41.5 -110.5s13.667 -81.833 41 -110.5s61.666 -43 102.999 -43c46.667 0 83.834 14 111.501 42s41.5 65.167 41.5 111.5zM778.001 -430
l-0.000976562 552.999c-2.66699 -4 -6 -9.16699 -10 -15.5s-14.167 -17.666 -30.5 -33.999s-34.5 -31 -54.5 -44s-46 -24.5 -78 -34.5s-66.333 -15 -103 -15c-121.333 0 -225.166 48.667 -311.499 146s-129.5 222.666 -129.5 375.999c0 151.333 43 276.166 129 374.499
s190 147.5 312 147.5c36.667 0 71 -4.83301 103 -14.5s58.333 -21.667 79 -36s38.5 -28.666 53.5 -42.999s25.833 -26.166 32.5 -35.499l8 -14v123h410v-1434h-410z" />
    <glyph glyph-name="r" unicode="r" horiz-adv-x="870" 
d="M819 1018l0.000976562 -424.001c-27.333 13.333 -61.333 20 -102 20c-62.667 0 -112.5 -19.667 -149.5 -59s-55.5 -94.666 -55.5 -165.999v-389h-410v1004h410v-123l10 15c4 6 14.333 16.833 31 32.5s34.167 29.667 52.5 42s43.166 23.333 74.499 33s64 14.5 98 14.5h41z
" />
    <glyph glyph-name="s" unicode="s" horiz-adv-x="1003" 
d="M922 860l-185 -194.003c-34 34 -71.333 51 -112 51c-23.333 0 -42.833 -5.5 -58.5 -16.5s-23.5 -22.5 -23.5 -34.5c0 -13.333 14 -26.333 42 -39s62.167 -26.167 102.5 -40.5s80.5 -31.666 120.5 -51.999s74 -51 102 -92s42 -89.5 42 -145.5
c0 -87.333 -41.667 -163.833 -125 -229.5s-195 -98.5 -335 -98.5c-62.667 0 -122.5 7.16699 -179.5 21.5s-102.833 31.5 -137.5 51.5s-65.334 39.833 -92.001 59.5s-45.334 36.5 -56.001 50.5l-17 22l185 195c5.33301 -6.66699 13.833 -15.167 25.5 -25.5
s33.5 -24.166 65.5 -41.499s63 -26 93 -26c24.667 0 44.5 6.16699 59.5 18.5s22.5 26.833 22.5 43.5c0 13.333 -14 26.166 -42 38.499s-62.167 25.333 -102.5 39s-80.666 30.834 -120.999 51.501s-74.5 51.5 -102.5 92.5s-42 90.167 -42 147.5
c0 84.667 41.667 160.334 125 227.001s192 100 326 100c56 0 108.5 -6.16699 157.5 -18.5s88.833 -27 119.5 -44s57.334 -33.667 80.001 -50s38.667 -30.5 48 -42.5z" />
    <glyph glyph-name="t" unicode="t" horiz-adv-x="911" 
d="M225 1126l0.000976562 153.999h359v-287h204v-348h-204v-194c0 -30 9.16699 -54.667 27.5 -74s43.166 -29 74.499 -29c18 0 35.5 1.66699 52.5 5s29.5 7.33301 37.5 12l12 4v-349c-61.333 -27.333 -136.333 -40.666 -225 -39.999c-124 0 -219.833 35.833 -287.5 107.5
s-101.5 175.5 -101.5 311.5v246h-143v348h61c35.333 0 66.333 13.333 93 40s40 57.667 40 93z" />
    <glyph glyph-name="u" unicode="u" 
d="M737 0l0.000976562 112.998c-6.66699 -9.33301 -16.167 -21.666 -28.5 -36.999s-42 -35.166 -89 -59.499s-98.5 -36.5 -154.5 -36.5c-106.667 0 -193.834 37.167 -261.501 111.5s-101.5 174.833 -101.5 301.5v611h410v-523c0 -35.333 9.5 -62.833 28.5 -82.5
s44.833 -29.5 77.5 -29.5c35.333 0 64 12.5 86 37.5s33 60.167 33 105.5v492h410v-1004h-410z" />
    <glyph glyph-name="v" unicode="v" horiz-adv-x="1126" 
d="M768 0h-430l-358 1004h419l154 -533l154 533h419z" />
    <glyph glyph-name="w" unicode="w" horiz-adv-x="1638" 
d="M666 1004h286l133 -451l134 451h419l-348 -1004h-327l-154 420l-154 -420h-327l-348 1004h419l133 -451z" />
    <glyph glyph-name="x" unicode="x" horiz-adv-x="1105" 
d="M676 0l-133 256l-133 -256h-430l296 512l-286 492h440l113 -236l112 236h441l-287 -492l297 -512h-430z" />
    <glyph glyph-name="y" unicode="y" horiz-adv-x="1126" 
d="M174 -51c62.667 0 115.333 30.667 158 92l-352 963h419l154 -533l154 533h419l-368 -1014c-101.333 -280 -255 -420 -461 -420c-38 0 -75.833 3.33301 -113.5 10s-66.167 13.667 -85.5 21l-26 10v358c27.333 -13.333 61.333 -20 102 -20z" />
    <glyph glyph-name="z" unicode="z" horiz-adv-x="1105" 
d="M993 1004v-349l-389 -307h410v-348h-942v348l389 307h-369v349h901z" />
    <glyph glyph-name="braceleft" unicode="{" horiz-adv-x="942" 
d="M481 512c5.33301 -1.33301 12.5 -3.33398 21.5 -6.00098s24.5 -10.167 46.5 -22.5s41.5 -27 58.5 -44s32.667 -42 47 -75s21.5 -69.167 21.5 -108.5v-184c0 -31.333 10.833 -58 32.5 -80s48.167 -33 79.5 -33h72v-389h-225c-118.667 0 -213.167 36.5 -283.5 109.5
s-105.5 173.167 -105.5 300.5v204c0 40.667 -14.333 74.834 -43 102.501s-65.667 41.5 -111 41.5v368c45.333 0 82.333 13.667 111 41s43 61.666 43 102.999v204c0 126.667 35.167 226.667 105.5 300s164.833 110 283.5 110h225v-389h-72c-31.333 0 -57.833 -11 -79.5 -33
s-32.5 -48.667 -32.5 -80v-184c0 -64 -16.333 -117.167 -49 -159.5s-65.667 -69.166 -99 -80.499z" />
    <glyph glyph-name="bar" unicode="|" horiz-adv-x="870" 
d="M655 1454v-1884h-440v1884h440z" />
    <glyph glyph-name="braceright" unicode="}" horiz-adv-x="942" 
d="M461 512c-5.33301 1.33301 -12.5 3.33398 -21.5 6.00098s-24.5 10.167 -46.5 22.5s-41.5 27 -58.5 44s-32.667 42 -47 75s-21.5 69.167 -21.5 108.5v184c0 31.333 -10.833 58 -32.5 80s-48.167 33 -79.5 33h-72v389h225c118.667 0 213.167 -36.5 283.5 -109.5
s105.5 -173.167 105.5 -300.5v-204c0 -40.667 14.333 -74.834 43 -102.501s65.667 -41.5 111 -41.5v-368c-45.333 0 -82.333 -13.667 -111 -41s-43 -61.666 -43 -102.999v-204c0 -126.667 -35.167 -226.667 -105.5 -300s-164.833 -110 -283.5 -110h-225v389h72
c31.333 0 57.833 11 79.5 33s32.5 48.667 32.5 80v184c0 64 16.5 117.167 49.5 159.5s65.833 69.166 98.5 80.499z" />
    <glyph glyph-name="asciitilde" unicode="~" horiz-adv-x="1208" 
d="M481 481c-32.667 0 -63.6641 -7.83203 -92.9971 -23.499s-50 -30.834 -62 -45.501l-19 -23l-266 195c1.33301 6.66699 4.33301 15.834 9 27.501s15.667 32.167 33 61.5s37.166 55.166 59.499 77.499s53.666 42.833 93.999 61.5s84.5 28 132.5 28
c61.333 0 126.166 -15.333 194.499 -46s122.833 -46 163.5 -46c32.667 0 63.667 7.83301 93 23.5s50.333 30.834 63 45.501l18 23l266 -195c-1.33301 -6.66699 -4.33301 -15.834 -9 -27.501s-15.5 -32.167 -32.5 -61.5s-36.833 -55.333 -59.5 -78
s-54.167 -43.167 -94.5 -61.5s-84.166 -27.5 -131.499 -27.5c-61.333 0 -126.333 15.333 -195 46s-123.334 46 -164.001 46z" />
    <glyph glyph-name="uni00A0" unicode="&#xa0;" horiz-adv-x="440" 
 />
    <glyph glyph-name="exclamdown" unicode="&#xa1;" horiz-adv-x="696" 
d="M174 522h348l72 -952h-492zM123 819c0 57.333 21.167 105.833 63.5 145.5s96.166 59.5 161.499 59.5s119.166 -19.833 161.499 -59.5s63.5 -88.167 63.5 -145.5s-21.167 -105.833 -63.5 -145.5s-96.166 -59.5 -161.499 -59.5s-119.166 19.833 -161.499 59.5
s-63.5 88.167 -63.5 145.5z" />
    <glyph glyph-name="cent" unicode="&#xa2;" horiz-adv-x="1116" 
d="M51 502c0 114.667 35.834 218.332 107.501 310.999s165.5 157 281.5 193v182h369v-182c52 -16.667 99.5 -39.667 142.5 -69s72.5 -55 88.5 -77l25 -31l-246 -245c-4 5.33301 -9.66699 12.833 -17 22.5s-25.333 22 -54 37s-59.667 22.5 -93 22.5
c-50.667 0 -92.334 -15.833 -125.001 -47.5s-49 -70.667 -49 -117s16.5 -85.166 49.5 -116.499s74.5 -47 124.5 -47c32.667 0 62.667 6.83301 90 20.5s46.666 27.167 57.999 40.5l16 21l246 -246c-2.66699 -2.66699 -6 -7 -10 -13s-14 -17 -30 -33
s-33.167 -31.167 -51.5 -45.5s-42.166 -29.333 -71.499 -45s-60.333 -28.834 -93 -39.501v-193h-369v193c-116 34 -209.833 97.833 -281.5 191.5s-107.5 197.834 -107.5 312.501z" />
    <glyph glyph-name="sterling" unicode="&#xa3;" horiz-adv-x="1239" 
d="M215 983c0 150 46.5 269.499 139.5 358.499s220.5 133.5 382.5 133.5c57.333 0 112.666 -6.83301 165.999 -20.5s97.833 -30.167 133.5 -49.5s67 -38.166 94 -56.499s46.833 -34.5 59.5 -48.5l18 -20l-317 -297c-27.333 40.667 -65 61 -113 61
c-35.333 0 -64.666 -10.833 -87.999 -32.5s-35 -48.167 -35 -79.5v-92h287v-267h-287c0 -30 -4 -58.667 -12 -86s-16.333 -47 -25 -59l-14 -18h594v-410h-1106v410c82 0 123 34 123 102v61h-123v267h123v143z" />
    <glyph glyph-name="currency" unicode="&#xa4;" horiz-adv-x="1474" 
d="M666 840h184c35.333 0 64.666 10.833 87.999 32.5s35 48.167 35 79.5s-11.667 58 -35 80s-52.666 33 -87.999 33h-184v-225zM881 532h-215v-71h389v-307h-389v-154h-461v154h-133v307h133v71h-133v308h133v594h672c170.667 0 306.167 -43.333 406.5 -130
s150.5 -193.5 150.5 -320.5s-49.833 -234 -149.5 -321s-234.167 -130.5 -403.5 -130.5z" />
    <glyph glyph-name="yen" unicode="&#xa5;" horiz-adv-x="1443" 
d="M1229 502h-277v-72h277v-287h-277v-143h-460v143h-277v287h277v72h-277v286h123l-358 646h491l246 -492h10l246 492h491l-358 -646h123v-286z" />
    <glyph glyph-name="brokenbar" unicode="&#xa6;" horiz-adv-x="870" 
d="M215 348h440v-778h-440v778zM655 676h-440v778h440v-778z" />
    <glyph glyph-name="section" unicode="&#xa7;" horiz-adv-x="1146" 
d="M1024 1300l-183.993 -194.003c-34 34 -75 51 -123 51c-28.667 0 -51.167 -6.16699 -67.5 -18.5s-24.5 -26.5 -24.5 -42.5c0 -19.333 15.333 -38.166 46 -56.499s68.167 -37.833 112.5 -58.5s88.666 -44.667 132.999 -72s81.833 -65.5 112.5 -114.5s46 -105.5 46 -169.5
c0 -34 -6.5 -67.167 -19.5 -99.5s-28.333 -58.666 -46 -78.999s-35.334 -38.333 -53.001 -54s-33.5 -27.167 -47.5 -34.5l-18 -10c4 -2.66699 9.5 -6 16.5 -10s19.333 -13.833 37 -29.5s33.334 -32.834 47.001 -51.501s25.834 -42.667 36.501 -72s16 -60.333 16 -93
c0 -92.667 -41.833 -172.167 -125.5 -238.5s-198.834 -99.5 -345.501 -99.5c-62.667 0 -122.334 7.5 -179.001 22.5s-102.334 32.833 -137.001 53.5s-65.334 41.5 -92.001 62.5s-45.334 39.167 -56.001 54.5l-17 22l184 195c5.33301 -8 13.166 -17.5 23.499 -28.5
s31.666 -26.167 63.999 -45.5s64.833 -29 97.5 -29s57.834 6.5 75.501 19.5s26.5 30.5 26.5 52.5c0 26 -16.333 51 -49 75s-72.5 47.5 -119.5 70.5s-94.5 49.167 -142.5 78.5s-88.333 69 -121 119s-49 106.333 -49 169c0 54.667 16.333 104.167 49 148.5
s65.334 74.833 98.001 91.5l47 26c-10.667 5.33301 -23.834 13.833 -39.501 25.5s-36.834 37.667 -63.501 78s-40 84.5 -40 132.5c0 87.333 41.667 163.833 125 229.5s195.333 98.5 336 98.5c56 0 109.167 -6.16699 159.5 -18.5s91.333 -26.666 123 -42.999
s59 -33.166 82 -50.499s39.5 -32 49.5 -44zM696.007 603.997c0 32.667 -13.666 62.002 -40.999 88.002s-54.666 43.667 -81.999 53l-41 13c-4 -1.33301 -9.33301 -3.83301 -16 -7.5s-15.834 -13.334 -27.501 -29.001s-17.5 -34.167 -17.5 -55.5c0 -32.667 13.667 -62 41 -88
s54.666 -44 81.999 -54l41 -12c4 1.33301 9.5 3.66602 16.5 6.99902s16.167 12.833 27.5 28.5s17 34.5 17 56.5z" />
    <glyph glyph-name="dieresis" unicode="&#xa8;" horiz-adv-x="1003" 
d="M61 1311c0 52 19.833 97.333 59.5 136s84.834 58 135.501 58s95.834 -19.333 135.501 -58s59.5 -84 59.5 -136s-19.833 -97.5 -59.5 -136.5s-84.834 -58.5 -135.501 -58.5s-95.834 19.5 -135.501 58.5s-59.5 84.5 -59.5 136.5zM553 1311c0 52 19.833 97.333 59.5 136
s84.667 58 135 58s95.333 -19.333 135 -58s59.5 -84 59.5 -136s-19.833 -97.5 -59.5 -136.5s-84.667 -58.5 -135 -58.5s-95.333 19.5 -135 58.5s-59.5 84.5 -59.5 136.5z" />
    <glyph glyph-name="copyright" unicode="&#xa9;" horiz-adv-x="1751" 
d="M870.5 154c154.333 0 286.833 55.5 397.5 166.5s166 243 166 396s-55.333 285.167 -166 396.5s-243.167 167 -397.5 167s-286.833 -55.667 -397.5 -167s-166 -243.5 -166 -396.5s55.333 -285 166 -396s243.167 -166.5 397.5 -166.5zM471 717
c0 113.333 40.668 209.833 122.001 289.5s180.666 119.5 297.999 119.5c44 0 85.667 -5.33301 125 -16s71.333 -24.334 96 -41.001s46.167 -33.167 64.5 -49.5s31.833 -29.833 40.5 -40.5l12 -16l-154 -154c-4 5.33301 -9.66699 12.833 -17 22.5s-25.333 22 -54 37
s-59.667 22.5 -93 22.5c-46.667 0 -87.334 -17.5 -122.001 -52.5s-52 -75.667 -52 -122s17.5 -86.833 52.5 -121.5s75.5 -52 121.5 -52c32.667 0 62.667 7.83301 90 23.5s46.666 30.834 57.999 45.501l16 23l154 -164c-2.66699 -4 -6.5 -9.83301 -11.5 -17.5
s-17.333 -21 -37 -40s-41.167 -35.667 -64.5 -50s-54.666 -27.333 -93.999 -39s-81.666 -17.5 -126.999 -17.5c-118.667 0 -219 40 -301 120s-123 176.667 -123 290zM870.501 -51c-223.667 0 -411 74 -562 222s-226.5 329.833 -226.5 545.5s75.5 397.667 226.5 546
s338.333 222.5 562 222.5s411 -74.167 562 -222.5s226.5 -330.333 226.5 -546s-75.5 -397.5 -226.5 -545.5s-338.333 -222 -562 -222z" />
    <glyph glyph-name="ordfeminine" unicode="&#xaa;" horiz-adv-x="819" 
d="M287 727c-65.333 0 -119.334 20.499 -162.001 61.499s-64 92.167 -64 153.5c0 54.667 19.5 101.167 58.5 139.5s94.833 63.5 167.5 75.5l184 31c0 12 -8.16699 23.5 -24.5 34.5s-38.833 16.5 -67.5 16.5c-24.667 0 -49 -4.5 -73 -13.5s-41.333 -17.5 -52 -25.5l-18 -12
l-144 143c2.66699 2.66699 6.5 7.16699 11.5 13.5s17 16.333 36 30s39.333 25.834 61 36.501s51.334 20.5 89.001 29.5s77.834 13.5 120.501 13.5c101.333 0 181.166 -28 239.499 -84s87.5 -130.333 87.5 -223v-399h-266v61c-4 -5.33301 -10.833 -12.833 -20.5 -22.5
s-30.167 -22 -61.5 -37s-65.333 -22.5 -102 -22.5zM470.999 1038c-9.33301 0 -21.5 -1 -36.5 -3s-34.833 -9.16699 -59.5 -21.5s-37 -29.166 -37 -50.499c0 -10.667 4.5 -20.167 13.5 -28.5s18.167 -12.5 27.5 -12.5c26 0 47.833 9.16699 65.5 27.5s26.5 41.166 26.5 68.499
v20z" />
    <glyph glyph-name="guillemotleft" unicode="&#xab;" horiz-adv-x="1300" 
d="M717 870l-277 -378l277 -379h-379l-277 379l277 378h379zM1239 870l-276 -378l276 -379h-379l-276 379l276 378h379z" />
    <glyph glyph-name="logicalnot" unicode="&#xac;" horiz-adv-x="1013" 
d="M952 891v-574h-358v215h-533v359h891z" />
    <glyph glyph-name="uni00AD" unicode="&#xad;" horiz-adv-x="890" 
d="M829 788v-368h-768v368h768z" />
    <glyph glyph-name="registered" unicode="&#xae;" horiz-adv-x="1751" 
d="M1096 614l153.001 -286h-286l-113 215h-41v-215h-266v778h368c90 0 163.833 -26.667 221.5 -80s86.5 -119 86.5 -197c0 -45.333 -10.333 -86 -31 -122s-41.334 -60 -62.001 -72zM809.001 870v-102h72c40.667 0 61 17 61 51s-20.333 51 -61 51h-72zM870.501 154
c154.333 0 286.833 55.5 397.5 166.5s166 243 166 396s-55.333 285.167 -166 396.5s-243.167 167 -397.5 167s-286.833 -55.667 -397.5 -167s-166 -243.5 -166 -396.5s55.333 -285 166 -396s243.167 -166.5 397.5 -166.5zM870.501 -51c-223.667 0 -411 74 -562 222
s-226.5 329.833 -226.5 545.5s75.5 397.667 226.5 546s338.333 222.5 562 222.5s411 -74.167 562 -222.5s226.5 -330.333 226.5 -546s-75.5 -397.5 -226.5 -545.5s-338.333 -222 -562 -222z" />
    <glyph glyph-name="macron" unicode="&#xaf;" horiz-adv-x="819" 
d="M758 1516v-308h-697v308h697z" />
    <glyph glyph-name="degree" unicode="&#xb0;" horiz-adv-x="839" 
d="M317 1116c0 -26 10.667 -49.5 32 -70.5s45 -31.5 71 -31.5s49.5 10.5 70.5 31.5s31.5 44.5 31.5 70.5s-10.5 49.667 -31.5 71s-44.5 32 -70.5 32s-49.667 -10.667 -71 -32s-32 -45 -32 -71zM778 1116c0 -88.667 -35.833 -167.167 -107.5 -235.5
s-155.334 -102.5 -251.001 -102.5s-179.334 34.167 -251.001 102.5s-107.5 146.833 -107.5 235.5s35.833 167.167 107.5 235.5s155.334 102.5 251.001 102.5s179.334 -34.167 251.001 -102.5s107.5 -146.833 107.5 -235.5z" />
    <glyph glyph-name="plusminus" unicode="&#xb1;" horiz-adv-x="1105" 
d="M72 0v328h962v-328h-962zM737 1341v-297h297v-378h-297v-297h-368v297h-297v378h297v297h368z" />
    <glyph glyph-name="uni00B2" unicode="&#xb2;" horiz-adv-x="706" 
d="M655 1413c0 -35.333 -8.83398 -68.668 -26.501 -100.001s-36.334 -55.166 -56.001 -71.499s-45.167 -35.166 -76.5 -56.499s-52 -36 -62 -44h211v-240h-594c0 66.667 10.667 125.667 32 177s47 90.666 77 117.999s60 50.833 90 70.5s55.5 37 76.5 52s31.5 29.5 31.5 43.5
c0 10.667 -4.66699 20.167 -14 28.5s-21.666 12.5 -36.999 12.5c-12 0 -22.833 -3.83301 -32.5 -11.5s-16.5 -15.5 -20.5 -23.5l-4 -12l-219 88c2.66699 5.33301 6 12.833 10 22.5s15.167 26 33.5 49s38.833 43.5 61.5 61.5s53.834 34.5 93.501 49.5s82.5 22.5 128.5 22.5
c94 0 167 -22 219 -66s78 -100.667 78 -170z" />
    <glyph glyph-name="uni00B3" unicode="&#xb3;" horiz-adv-x="716" 
d="M532 1280c4 -1.33301 8.83008 -2.66797 14.4971 -4.00098s16.334 -6.16602 32.001 -14.499s29.334 -17.833 41.001 -28.5s22.334 -26 32.001 -46s14.5 -42.333 14.5 -67c0 -61.333 -28 -114.833 -84 -160.5s-130.667 -68.5 -224 -68.5
c-72.667 0 -136.167 10.167 -190.5 30.5s-91.166 40.833 -110.499 61.5l-26 31l133 143c36.667 -40.667 81 -61 133 -61c40.667 0 61 17 61 51s-23.667 51 -71 51h-72v164h72c15.333 0 27.666 4 36.999 12s14 17.5 14 28.5s-4.83301 20.667 -14.5 29
s-21.834 12.5 -36.501 12.5c-16.667 0 -33.5 -4.5 -50.5 -13.5s-30.167 -17.5 -39.5 -25.5l-13 -12l-133 143c5.33301 8 14.5 18.167 27.5 30.5s45.833 29.166 98.5 50.499s112.334 32 179.001 32c90 0 161.333 -20.5 214 -61.5s79 -88.833 79 -143.5
c0 -32.667 -9.83301 -62.667 -29.5 -90s-39.167 -46.666 -58.5 -57.999z" />
    <glyph glyph-name="acute" unicode="&#xb4;" horiz-adv-x="737" 
d="M61 1116l185 348h430l-256 -348h-359z" />
    <glyph glyph-name="mu" unicode="&#xb5;" horiz-adv-x="1269" 
d="M1137 1004l0.00292969 -584c0 -40.667 17 -61.334 51 -62.001l41 11v-359c-34 -20.667 -85.333 -30.667 -154 -30c-66.667 0 -122.834 12.833 -168.501 38.5s-74.834 50.834 -87.501 75.501l-20 39c-9.33301 -10.667 -22.333 -24.5 -39 -41.5
s-49.834 -39.5 -99.501 -67.5s-99.167 -42 -148.5 -42v-412h-410v1434h410v-512c0 -82 34 -123 102 -123c31.333 0 58 12.5 80 37.5s33 60.167 33 105.5v492h410z" />
    <glyph glyph-name="paragraph" unicode="&#xb6;" horiz-adv-x="1423" 
d="M440 -205v819c-108 0 -203.167 41.333 -285.5 124s-123.5 178 -123.5 286s41.333 203.333 124 286s177.667 124 285 124h840v-1639h-358v1229h-123v-1229h-359z" />
    <glyph glyph-name="periodcentered" unicode="&#xb7;" horiz-adv-x="450" 
d="M0 506c0 57.333 21.167 105.833 63.5 145.5s96.333 59.5 162 59.5s119.667 -19.833 162 -59.5s63.5 -88.167 63.5 -145.5s-21.167 -105.833 -63.5 -145.5s-96.333 -59.5 -162 -59.5s-119.667 19.833 -162 59.5s-63.5 88.167 -63.5 145.5z" />
    <glyph glyph-name="cedilla" unicode="&#xb8;" horiz-adv-x="675" 
d="M276 41l179.004 0.00195312l-66 -123c5.33301 0 13.166 -1 23.499 -3s28.5 -7.83301 54.5 -17.5s48.833 -21.334 68.5 -35.001s37.667 -34.5 54 -62.5s24.5 -60.333 24.5 -97c0 -68 -24.833 -124.167 -74.5 -168.5s-116.834 -66.5 -201.501 -66.5
c-52 0 -100.833 9.5 -146.5 28.5s-78.834 38.167 -99.501 57.5l-31 26l93 154c44 -40.667 88.333 -61.334 133 -62.001c40.667 0 61 17.333 61 52c0 10.667 -4.83301 20 -14.5 28s-21.834 12 -36.501 12l-51 -10l-62 82z" />
    <glyph glyph-name="uni00B9" unicode="&#xb9;" horiz-adv-x="512" 
d="M184 1638h256v-737h-286v430h-123v205c32.667 4 62 14.5 88 31.5s43.667 33.167 53 48.5z" />
    <glyph glyph-name="ordmasculine" unicode="&#xba;" horiz-adv-x="839" 
d="M317 1085c0 -30 9.33301 -54.5 28 -73.5s43.667 -28.5 75 -28.5s56.166 9.5 74.499 28.5s27.5 43.5 27.5 73.5s-9.16699 54.667 -27.5 74s-43.166 29 -74.499 29s-56.333 -9.66699 -75 -29s-28 -44 -28 -74zM799 1085.5c0 -98.333 -37.667 -184.333 -113 -258
s-164.166 -110.5 -266.499 -110.5s-191 36.833 -266 110.5s-112.5 159.667 -112.5 258s37.5 184.333 112.5 258s163.667 110.5 266 110.5s191.166 -36.833 266.499 -110.5s113 -159.667 113 -258z" />
    <glyph glyph-name="guillemotright" unicode="&#xbb;" horiz-adv-x="1300" 
d="M860 492l-276 378h379l276 -378l-276 -379h-379zM338 492l-277 378h379l277 -378l-277 -379h-379z" />
    <glyph glyph-name="onequarter" unicode="&#xbc;" horiz-adv-x="1617" 
d="M154 0l890 1434h390l-891 -1434h-389zM205 1434h256v-738h-287v430h-123v205c32.667 4 62 14.667 88 32s44 33.333 54 48zM1516 737v-379h71v-245h-71v-113h-277v113h-317v225l327 399h267zM1147 338h102v133z" />
    <glyph glyph-name="onehalf" unicode="&#xbd;" horiz-adv-x="1689" 
d="M154 0l890 1434h390l-891 -1434h-389zM205 1434h256v-738h-287v430h-123v205c32.667 4 62 14.667 88 32s44 33.333 54 48zM1638 512c0 -35.333 -8.83398 -68.666 -26.501 -99.999s-36.334 -55.333 -56.001 -72s-45.167 -35.5 -76.5 -56.5s-52 -35.5 -62 -43.5h211v-240
h-594c0 66.667 10.667 125.667 32 177s47 90.666 77 117.999s60 50.833 90 70.5s55.5 37 76.5 52s31.5 29.5 31.5 43.5c0 10.667 -4.66699 20.167 -14 28.5s-21.666 12.5 -36.999 12.5c-12 0 -22.833 -3.83301 -32.5 -11.5s-16.5 -15.5 -20.5 -23.5l-4 -12l-219 88
c2.66699 5.33301 6 12.833 10 22.5s15.167 26 33.5 49s38.833 43.333 61.5 61s53.834 34.167 93.501 49.5s82.5 23 128.5 23c94 0 167 -22 219 -66s78 -100.667 78 -170z" />
    <glyph glyph-name="threequarters" unicode="&#xbe;" horiz-adv-x="1710" 
d="M246 0l891 1434h389l-891 -1434h-389zM1608 737v-379h71v-245h-71v-113h-277v113h-317v225l327 399h267zM1239 338h102v133zM512 1075c4 -1.33301 8.83008 -2.66699 14.4971 -4s16.334 -6.16602 32.001 -14.499s29.167 -17.833 40.5 -28.5s21.833 -26 31.5 -46
s14.5 -42.333 14.5 -67c0 -61.333 -28 -114.833 -84 -160.5s-130.333 -68.5 -223 -68.5c-72.667 0 -136.167 10.333 -190.5 31s-91.166 41 -110.499 61l-27 31l133 143c36.667 -40.667 81 -61 133 -61c40.667 0 61.167 17 61.5 51s-23.5 51 -71.5 51h-71v164h71
c15.333 0 27.666 4.16699 36.999 12.5s14 17.833 14 28.5s-4.66699 20.167 -14 28.5s-21.666 12.5 -36.999 12.5c-16.667 0 -33.5 -4.5 -50.5 -13.5s-30.167 -17.5 -39.5 -25.5l-12 -12l-133 143c5.33301 8 14.5 18.167 27.5 30.5s45.833 29.166 98.5 50.499
s112.334 32 179.001 32c90 0 161.333 -20.5 214 -61.5s79 -88.833 79 -143.5c0 -32.667 -10 -62.667 -30 -90s-39.333 -46.333 -58 -57z" />
    <glyph glyph-name="questiondown" unicode="&#xbf;" horiz-adv-x="1064" 
d="M819 430c0 -48 -9.83398 -90.3301 -29.501 -126.997s-43.5 -66.334 -71.5 -89.001s-56 -42.834 -84 -60.501s-52 -35.667 -72 -54s-30 -37.833 -30 -58.5c0 -54.667 31 -82 93 -82c32.667 0 62 7.5 88 22.5s43.667 30.833 53 47.5l12 22l389 -174
c-4 -9.33301 -10 -21.833 -18 -37.5s-28.167 -43.334 -60.5 -83.001s-68.5 -74.834 -108.5 -105.501s-95.5 -58.667 -166.5 -84s-147.5 -38 -229.5 -38c-168 0 -304 43.667 -408 131s-156 190.333 -156 309c0 61.333 11 116.333 33 165s49.667 88.334 83 119.001
s67.5 59 102.5 85s67.833 54.667 98.5 86s51.334 64 62.001 98h400c13.333 -34 20 -64.667 20 -92zM839.999 819.003c0 -57.333 -21.167 -105.833 -63.5 -145.5s-96.333 -59.5 -162 -59.5s-119.667 19.833 -162 59.5s-63.5 88.167 -63.5 145.5s21.167 105.833 63.5 145.5
s96.333 59.5 162 59.5s119.667 -19.833 162 -59.5s63.5 -88.167 63.5 -145.5z" />
    <glyph glyph-name="Agrave" unicode="&#xc0;" horiz-adv-x="1515" 
d="M860 625l-102 358l-103 -358h205zM963 276h-410l-82 -276h-491l522 1434h512l522 -1434h-492zM737 1935l185 -348h-359l-256 348h430z" />
    <glyph glyph-name="Aacute" unicode="&#xc1;" horiz-adv-x="1515" 
d="M860 625l-102 358l-103 -358h205zM963 276h-410l-82 -276h-491l522 1434h512l522 -1434h-492zM584 1587l184 348h430l-256 -348h-358z" />
    <glyph glyph-name="Acircumflex" unicode="&#xc2;" horiz-adv-x="1515" 
d="M860 625l-102 358l-103 -358h205zM963 276h-410l-82 -276h-491l522 1434h512l522 -1434h-492zM840 1587l-92 133l-93 -133h-368l286 348h349l286 -348h-368z" />
    <glyph glyph-name="Atilde" unicode="&#xc3;" horiz-adv-x="1515" 
d="M860 625l-102 358l-103 -358h205zM963 276h-410l-82 -276h-491l522 1434h512l522 -1434h-492zM696 1649c-20.667 0 -37.6689 -7.5 -51.002 -22.5s-20 -34.833 -20 -59.5h-246c0 246 75 368.667 225 368c46.667 0 92.167 -13.667 136.5 -41s73.833 -41 88.5 -41
c20.667 0 37.834 7.5 51.501 22.5s20.5 34.833 20.5 59.5h246c0 -246 -75 -368.667 -225 -368c-46.667 0 -92.167 13.667 -136.5 41s-74.166 41 -89.499 41z" />
    <glyph glyph-name="Adieresis" unicode="&#xc4;" horiz-adv-x="1515" 
d="M860 625l-102 358l-103 -358h205zM963 276h-410l-82 -276h-491l522 1434h512l522 -1434h-492zM317 1761c0 52 19.5 97.5 58.5 136.5s84.5 58.5 136.5 58.5s97.5 -19.5 136.5 -58.5s58.5 -84.5 58.5 -136.5s-19.5 -97.333 -58.5 -136s-84.5 -58 -136.5 -58
s-97.5 19.333 -136.5 58s-58.5 84 -58.5 136zM809 1761c0 52 19.5 97.5 58.5 136.5s84.333 58.5 136 58.5s97 -19.5 136 -58.5s58.5 -84.5 58.5 -136.5s-19.5 -97.333 -58.5 -136s-84.333 -58 -136 -58s-97 19.333 -136 58s-58.5 84 -58.5 136z" />
    <glyph glyph-name="Aring" unicode="&#xc5;" horiz-adv-x="1515" 
d="M860 625l-102 358l-103 -358h205zM963 276h-410l-82 -276h-491l522 1434h512l522 -1434h-492zM686 1792c0 -54.667 27.333 -82 82 -82s82 27.333 82 82s-27.333 82 -82 82s-82 -27.333 -82 -82zM1055 1792c0 -72.667 -27.667 -135.167 -83 -187.5
s-123.333 -78.5 -204 -78.5s-148.667 26.167 -204 78.5s-83 114.833 -83 187.5s27.667 135.167 83 187.5s123.333 78.5 204 78.5s148.667 -26.167 204 -78.5s83 -114.833 83 -187.5z" />
    <glyph glyph-name="AE" unicode="&#xc6;" horiz-adv-x="2129" 
d="M1413 379h635v-379h-1096v291h-426l-157 -291h-471l798 1434h1332v-379h-615v-154h451v-348h-451v-174zM952 1055l-225 -400h225v400z" />
    <glyph glyph-name="Ccedilla" unicode="&#xc7;" horiz-adv-x="1540" 
d="M532 716.5c0 -98.333 34.1689 -180.835 102.502 -247.502s153.833 -100 256.5 -100c39.333 0 78.5 5.33301 117.5 16s71.833 24.334 98.5 41.001s50.167 33.167 70.5 49.5s36.166 29.833 47.499 40.5l14 16l270 -286c-5.33301 -6.66699 -13.166 -16.167 -23.499 -28.5
s-34.166 -34.666 -71.499 -66.999s-77.166 -60.666 -119.499 -84.999s-98 -47.166 -167 -68.499s-140.5 -33.333 -214.5 -36l-22 -43c5.33301 0 13.166 -1 23.499 -3s28.5 -7.83301 54.5 -17.5s48.833 -21.334 68.5 -35.001s37.667 -34.5 54 -62.5s24.5 -60.333 24.5 -97
c0 -68 -24.833 -124.167 -74.5 -168.5s-116.834 -66.5 -201.501 -66.5c-52 0 -100.833 9.5 -146.5 28.5s-78.834 38.167 -99.501 57.5l-31 26l92 154c44 -40.667 88.333 -61.334 133 -62.001c40.667 0 61.334 17.333 62.001 52c0 10.667 -4.83301 20 -14.5 28
s-21.834 12 -36.501 12l-51 -10l-62 82l59 133c-195.333 30 -356.333 115.667 -483 257s-190 305 -190 491c0 207.333 77.833 385.5 233.5 534.5s347.5 223.5 575.5 223.5c78 0 152.667 -10 224 -30s130.333 -44 177 -72s87.667 -56 123 -84s61.333 -52 78 -72l22 -29
l-276 -287c-4 4 -9.5 9.83301 -16.5 17.5s-21.667 21 -44 40s-45.833 35.667 -70.5 50s-55.834 27.333 -93.501 39s-75.5 17.5 -113.5 17.5c-102.667 0 -188.167 -33.5 -256.5 -100.5s-102.5 -149.667 -102.5 -248z" />
    <glyph glyph-name="Egrave" unicode="&#xc8;" horiz-adv-x="1392" 
d="M614 379h697v-379h-1157v1434h1136v-379h-676v-154h512v-348h-512v-174zM737 1935l185 -348h-359l-256 348h430z" />
    <glyph glyph-name="Eacute" unicode="&#xc9;" horiz-adv-x="1392" 
d="M614 379h697v-379h-1157v1434h1136v-379h-676v-154h512v-348h-512v-174zM543 1587l184 348h430l-256 -348h-358z" />
    <glyph glyph-name="Ecircumflex" unicode="&#xca;" horiz-adv-x="1392" 
d="M614 379h697v-379h-1157v1434h1136v-379h-676v-154h512v-348h-512v-174zM809 1587l-92 133l-92 -133h-369l287 348h348l287 -348h-369z" />
    <glyph glyph-name="Edieresis" unicode="&#xcb;" horiz-adv-x="1392" 
d="M614 379h697v-379h-1157v1434h1136v-379h-676v-154h512v-348h-512v-174zM276 1761c0 52 19.5 97.5 58.5 136.5s84.5 58.5 136.5 58.5s97.5 -19.5 136.5 -58.5s58.5 -84.5 58.5 -136.5s-19.5 -97.333 -58.5 -136s-84.5 -58 -136.5 -58s-97.5 19.333 -136.5 58
s-58.5 84 -58.5 136zM768 1761c0 52 19.5 97.5 58.5 136.5s84.333 58.5 136 58.5s97 -19.5 136 -58.5s58.5 -84.5 58.5 -136.5s-19.5 -97.333 -58.5 -136s-84.333 -58 -136 -58s-97 19.333 -136 58s-58.5 84 -58.5 136z" />
    <glyph glyph-name="Igrave" unicode="&#xcc;" horiz-adv-x="768" 
d="M154 0v1434h460v-1434h-460zM379 1935l184 -348h-358l-256 348h430z" />
    <glyph glyph-name="Iacute" unicode="&#xcd;" horiz-adv-x="768" 
d="M154 0v1434h460v-1434h-460zM195 1587l184 348h430l-256 -348h-358z" />
    <glyph glyph-name="Icircumflex" unicode="&#xce;" horiz-adv-x="768" 
d="M154 0v1434h460v-1434h-460zM471 1587l-92 133l-92 -133h-369l287 348h348l287 -348h-369z" />
    <glyph glyph-name="Idieresis" unicode="&#xcf;" horiz-adv-x="768" 
d="M154 0v1434h460v-1434h-460zM-61 1761c0 52 19.667 97.5 59 136.5s84.333 58.5 135 58.5s95.834 -19.5 135.501 -58.5s59.5 -84.5 59.5 -136.5s-19.833 -97.333 -59.5 -136s-84.834 -58 -135.501 -58s-95.667 19.333 -135 58s-59 84 -59 136zM430 1761
c0 52 19.833 97.5 59.5 136.5s84.667 58.5 135 58.5s95.333 -19.5 135 -58.5s59.5 -84.5 59.5 -136.5s-19.833 -97.333 -59.5 -136s-84.667 -58 -135 -58s-95.333 19.333 -135 58s-59.5 84 -59.5 136z" />
    <glyph glyph-name="Eth" unicode="&#xd0;" horiz-adv-x="1607" 
d="M184 1434h574c222.667 0 408 -70 556 -210s222 -309 222 -507s-74 -367 -222 -507s-333.333 -210 -556 -210h-574v553h-143v328h143v553zM758 1024h-113v-143h195v-328h-195v-143h113c91.333 0 167 29.333 227 88s90 131.667 90 219s-30 160.333 -90 219
s-135.667 88 -227 88z" />
    <glyph glyph-name="Ntilde" unicode="&#xd1;" horiz-adv-x="1699" 
d="M1085 1434h461v-1434h-389l-543 696v-696h-460v1434h389l542 -697v697zM778 1649c-20.667 0 -37.6689 -7.5 -51.002 -22.5s-20 -34.833 -20 -59.5h-246c0 246 75 368.667 225 368c46.667 0 92.167 -13.667 136.5 -41s73.833 -41 88.5 -41
c20.667 0 37.834 7.5 51.501 22.5s20.5 34.833 20.5 59.5h246c0 -246 -75 -368.667 -225 -368c-46.667 0 -92.167 13.667 -136.5 41s-74.166 41 -89.499 41z" />
    <glyph glyph-name="Ograve" unicode="&#xd2;" horiz-adv-x="1761" 
d="M532 716.5c0 -97 33.833 -179.167 101.5 -246.5s150 -101 247 -101s179.333 33.667 247 101s101.5 149.5 101.5 246.5s-33.833 179.333 -101.5 247s-150 101.5 -247 101.5s-179.333 -33.833 -247 -101.5s-101.5 -150 -101.5 -247zM1690 717
c0 -207.333 -77.833 -385.5 -233.5 -534.5s-347.5 -223.5 -575.5 -223.5s-419.833 74.5 -575.5 223.5s-233.5 327.167 -233.5 534.5s77.833 385.5 233.5 534.5s347.5 223.5 575.5 223.5s419.833 -74.5 575.5 -223.5s233.5 -327.167 233.5 -534.5zM870 1935l185 -348h-359
l-256 348h430z" />
    <glyph glyph-name="Oacute" unicode="&#xd3;" horiz-adv-x="1761" 
d="M532 716.5c0 -97 33.833 -179.167 101.5 -246.5s150 -101 247 -101s179.333 33.667 247 101s101.5 149.5 101.5 246.5s-33.833 179.333 -101.5 247s-150 101.5 -247 101.5s-179.333 -33.833 -247 -101.5s-101.5 -150 -101.5 -247zM1690 717
c0 -207.333 -77.833 -385.5 -233.5 -534.5s-347.5 -223.5 -575.5 -223.5s-419.833 74.5 -575.5 223.5s-233.5 327.167 -233.5 534.5s77.833 385.5 233.5 534.5s347.5 223.5 575.5 223.5s419.833 -74.5 575.5 -223.5s233.5 -327.167 233.5 -534.5zM696 1587l185 348h430
l-256 -348h-359z" />
    <glyph glyph-name="Ocircumflex" unicode="&#xd4;" horiz-adv-x="1761" 
d="M532 716.5c0 -97 33.833 -179.167 101.5 -246.5s150 -101 247 -101s179.333 33.667 247 101s101.5 149.5 101.5 246.5s-33.833 179.333 -101.5 247s-150 101.5 -247 101.5s-179.333 -33.833 -247 -101.5s-101.5 -150 -101.5 -247zM1690 717
c0 -207.333 -77.833 -385.5 -233.5 -534.5s-347.5 -223.5 -575.5 -223.5s-419.833 74.5 -575.5 223.5s-233.5 327.167 -233.5 534.5s77.833 385.5 233.5 534.5s347.5 223.5 575.5 223.5s419.833 -74.5 575.5 -223.5s233.5 -327.167 233.5 -534.5zM963 1587l-93 133l-92 -133
h-368l286 348h348l287 -348h-368z" />
    <glyph glyph-name="Otilde" unicode="&#xd5;" horiz-adv-x="1761" 
d="M532 716.5c0 -97 33.833 -179.167 101.5 -246.5s150 -101 247 -101s179.333 33.667 247 101s101.5 149.5 101.5 246.5s-33.833 179.333 -101.5 247s-150 101.5 -247 101.5s-179.333 -33.833 -247 -101.5s-101.5 -150 -101.5 -247zM1690 717
c0 -207.333 -77.833 -385.5 -233.5 -534.5s-347.5 -223.5 -575.5 -223.5s-419.833 74.5 -575.5 223.5s-233.5 327.167 -233.5 534.5s77.833 385.5 233.5 534.5s347.5 223.5 575.5 223.5s419.833 -74.5 575.5 -223.5s233.5 -327.167 233.5 -534.5zM819 1659
c-20.667 0 -37.668 -7.5 -51.001 -22.5s-20 -34.833 -20 -59.5h-246c0 246 75 369 225 369c46.667 0 92.167 -13.667 136.5 -41s73.833 -41 88.5 -41c20.667 0 37.834 7.5 51.501 22.5s20.5 34.833 20.5 59.5h246c0 -246 -75.333 -369 -226 -369
c-46.667 0 -92 13.667 -136 41s-73.667 41 -89 41z" />
    <glyph glyph-name="Odieresis" unicode="&#xd6;" horiz-adv-x="1761" 
d="M532 716.5c0 -97 33.833 -179.167 101.5 -246.5s150 -101 247 -101s179.333 33.667 247 101s101.5 149.5 101.5 246.5s-33.833 179.333 -101.5 247s-150 101.5 -247 101.5s-179.333 -33.833 -247 -101.5s-101.5 -150 -101.5 -247zM1690 717
c0 -207.333 -77.833 -385.5 -233.5 -534.5s-347.5 -223.5 -575.5 -223.5s-419.833 74.5 -575.5 223.5s-233.5 327.167 -233.5 534.5s77.833 385.5 233.5 534.5s347.5 223.5 575.5 223.5s419.833 -74.5 575.5 -223.5s233.5 -327.167 233.5 -534.5zM430 1761
c0 52 19.833 97.5 59.5 136.5s84.667 58.5 135 58.5s95.333 -19.5 135 -58.5s59.5 -84.5 59.5 -136.5s-19.833 -97.333 -59.5 -136s-84.667 -58 -135 -58s-95.333 19.333 -135 58s-59.5 84 -59.5 136zM922 1761c0 52 19.667 97.5 59 136.5s84.333 58.5 135 58.5
s95.834 -19.5 135.501 -58.5s59.5 -84.5 59.5 -136.5s-19.833 -97.333 -59.5 -136s-84.834 -58 -135.501 -58s-95.667 19.333 -135 58s-59 84 -59 136z" />
    <glyph glyph-name="multiply" unicode="&#xd7;" horiz-adv-x="1085" 
d="M788 635l226 -225l-246 -246l-225 225l-226 -225l-245 246l225 225l-225 225l245 246l226 -225l225 225l246 -246z" />
    <glyph glyph-name="Oslash" unicode="&#xd8;" horiz-adv-x="1761" 
d="M543 594l481.001 461c-34 20.667 -81.667 30.667 -143 30c-98 0 -182.333 -35.833 -253 -107.5s-106 -158.5 -106 -260.5c0 -22 1.66699 -43.167 5 -63.5s6.66602 -35.5 9.99902 -45.5zM1690 717c0 -207.333 -77.834 -385.499 -233.501 -534.499
s-347.5 -223.5 -575.5 -223.5c-79.333 0 -156.5 10.167 -231.5 30.5s-130.5 40.833 -166.5 61.5l-53 31l-174 -164l-215 225l164 154c-9.33301 13.333 -21.666 31.666 -36.999 54.999s-35.166 71.833 -59.499 145.5s-36.5 146.834 -36.5 219.501
c0 207.333 77.833 385.5 233.5 534.5s347.5 223.5 575.5 223.5c82 0 160.5 -10.333 235.5 -31s129.5 -41.334 163.5 -62.001l51 -30l174 164l215 -226l-164 -153c9.33301 -13.333 21.666 -31.666 36.999 -54.999s35.333 -71.833 60 -145.5s37 -146.834 37 -219.501z
M1219 840.001l-482 -461c34 -20.667 82 -31 144 -31c98 0 182.167 35.833 252.5 107.5s105.5 158.834 105.5 261.501c0 22 -1.66699 43.167 -5 63.5s-6.33301 35.166 -9 44.499z" />
    <glyph glyph-name="Ugrave" unicode="&#xd9;" horiz-adv-x="1617" 
d="M809 369c57.333 0 107.5 22.834 150.5 68.501s64.5 101.167 64.5 166.5v830h461v-830c0 -186 -63.167 -340 -189.5 -462s-288.5 -183 -486.5 -183s-360.167 61.167 -486.5 183.5s-189.5 276.166 -189.5 461.499v830h461v-830c0 -65.333 21.5 -120.833 64.5 -166.5
s93.167 -68.5 150.5 -68.5zM819 1935l185 -348h-359l-256 348h430z" />
    <glyph glyph-name="Uacute" unicode="&#xda;" horiz-adv-x="1617" 
d="M809 369c57.333 0 107.5 22.834 150.5 68.501s64.5 101.167 64.5 166.5v830h461v-830c0 -186 -63.167 -340 -189.5 -462s-288.5 -183 -486.5 -183s-360.167 61.167 -486.5 183.5s-189.5 276.166 -189.5 461.499v830h461v-830c0 -65.333 21.5 -120.833 64.5 -166.5
s93.167 -68.5 150.5 -68.5zM635 1587l184 348h430l-256 -348h-358z" />
    <glyph glyph-name="Ucircumflex" unicode="&#xdb;" horiz-adv-x="1617" 
d="M809 369c57.333 0 107.5 22.834 150.5 68.501s64.5 101.167 64.5 166.5v830h461v-830c0 -186 -63.167 -340 -189.5 -462s-288.5 -183 -486.5 -183s-360.167 61.167 -486.5 183.5s-189.5 276.166 -189.5 461.499v830h461v-830c0 -65.333 21.5 -120.833 64.5 -166.5
s93.167 -68.5 150.5 -68.5zM901 1587l-92 133l-92 -133h-369l287 348h348l287 -348h-369z" />
    <glyph glyph-name="Udieresis" unicode="&#xdc;" horiz-adv-x="1617" 
d="M809 369c57.333 0 107.5 22.834 150.5 68.501s64.5 101.167 64.5 166.5v830h461v-830c0 -186 -63.167 -340 -189.5 -462s-288.5 -183 -486.5 -183s-360.167 61.167 -486.5 183.5s-189.5 276.166 -189.5 461.499v830h461v-830c0 -65.333 21.5 -120.833 64.5 -166.5
s93.167 -68.5 150.5 -68.5zM369 1761c0 52 19.667 97.5 59 136.5s84.333 58.5 135 58.5s95.834 -19.5 135.501 -58.5s59.5 -84.5 59.5 -136.5s-19.833 -97.333 -59.5 -136s-84.834 -58 -135.501 -58s-95.667 19.333 -135 58s-59 84 -59 136zM860 1761
c0 52 19.833 97.5 59.5 136.5s84.667 58.5 135 58.5s95.333 -19.5 135 -58.5s59.5 -84.5 59.5 -136.5s-19.833 -97.333 -59.5 -136s-84.667 -58 -135 -58s-95.333 19.333 -135 58s-59.5 84 -59.5 136z" />
    <glyph glyph-name="Yacute" unicode="&#xdd;" horiz-adv-x="1443" 
d="M973 1434h491l-512 -922v-512h-460v512l-512 922h491l246 -492h10zM543 1587l184 348h430l-256 -348h-358z" />
    <glyph glyph-name="Thorn" unicode="&#xde;" horiz-adv-x="1423" 
d="M614 1321h102.999c186 0 340 -57 462 -171s183 -251.5 183 -412.5s-61.167 -298.5 -183.5 -412.5s-276.166 -171 -461.499 -171h-103v-195h-460v1516h460v-154zM613.999 963v-451h21c84.667 0 150.167 20.5 196.5 61.5s69.5 95.667 69.5 164s-23.167 123 -69.5 164
s-111.833 61.5 -196.5 61.5h-21z" />
    <glyph glyph-name="germandbls" unicode="&#xdf;" horiz-adv-x="1300" 
d="M973 778c6.66699 -2.66699 16.166 -6.33203 28.499 -10.999s33.833 -16.167 64.5 -34.5s57.667 -39.5 81 -63.5s44.5 -57.5 63.5 -100.5s28.5 -89.167 28.5 -138.5c0 -120 -49.167 -221.667 -147.5 -305s-230.833 -125 -397.5 -125h-80v358h82c30 0 54.667 9.33301 74 28
s29 43.667 29 75s-9.66699 56.166 -29 74.499s-44 27.5 -74 27.5h-82v338h21c30 0 54.5 9.5 73.5 28.5s28.5 43.833 28.5 74.5c0 26 -9.5 47.833 -28.5 65.5s-43.5 26.5 -73.5 26.5c-31.333 0 -58 -12.333 -80 -37s-33 -56.667 -33 -96v-963h-409v967
c0 148.667 47 267 141 355s225.667 132 395 132c146 0 263.833 -38.167 353.5 -114.5s134.5 -167.833 134.5 -274.5c0 -60 -13.667 -114 -41 -162s-54.666 -80.667 -81.999 -98z" />
    <glyph glyph-name="agrave" unicode="&#xe0;" horiz-adv-x="1146" 
d="M1024 0l-409.997 -0.00195312v113c-5.33301 -9.33301 -14.5 -21.666 -27.5 -36.999s-42.333 -35.166 -88 -59.499s-95.834 -36.5 -150.501 -36.5c-82 0 -152 28.333 -210 85s-87 123.667 -87 201c0 161.333 106 267.333 318 318l256 61c0 22 -11 41.167 -33 57.5
s-52 24.5 -90 24.5c-32.667 0 -65.5 -7.83301 -98.5 -23.5s-56.833 -31.167 -71.5 -46.5l-25 -22l-194 205c4 5.33301 9.66699 12.333 17 21s24.666 24 51.999 46s56.666 41.5 87.999 58.5s72.666 32.667 123.999 47s104.333 21.5 159 21.5
c140.667 0 254.334 -39.167 341.001 -117.5s130 -175.5 130 -291.5v-625zM512.003 275.998c31.333 0 58 12.333 80 37s33 57 33 97v30l-113 -30c-40.667 -10.667 -61 -34.667 -61 -72c0 -41.333 20.333 -62 61 -62zM604.003 1475l184 -349h-358l-256 349h430z" />
    <glyph glyph-name="aacute" unicode="&#xe1;" horiz-adv-x="1146" 
d="M1024 0l-409.997 -0.00195312v113c-5.33301 -9.33301 -14.5 -21.666 -27.5 -36.999s-42.333 -35.166 -88 -59.499s-95.834 -36.5 -150.501 -36.5c-82 0 -152 28.333 -210 85s-87 123.667 -87 201c0 161.333 106 267.333 318 318l256 61c0 22 -11 41.167 -33 57.5
s-52 24.5 -90 24.5c-32.667 0 -65.5 -7.83301 -98.5 -23.5s-56.833 -31.167 -71.5 -46.5l-25 -22l-194 205c4 5.33301 9.66699 12.333 17 21s24.666 24 51.999 46s56.666 41.5 87.999 58.5s72.666 32.667 123.999 47s104.333 21.5 159 21.5
c140.667 0 254.334 -39.167 341.001 -117.5s130 -175.5 130 -291.5v-625zM512.003 275.998c31.333 0 58 12.333 80 37s33 57 33 97v30l-113 -30c-40.667 -10.667 -61 -34.667 -61 -72c0 -41.333 20.333 -62 61 -62zM389.003 1126l184 349h431l-256 -349h-359z" />
    <glyph glyph-name="acircumflex" unicode="&#xe2;" horiz-adv-x="1146" 
d="M1024 0l-409.997 -0.00195312v113c-5.33301 -9.33301 -14.5 -21.666 -27.5 -36.999s-42.333 -35.166 -88 -59.499s-95.834 -36.5 -150.501 -36.5c-82 0 -152 28.333 -210 85s-87 123.667 -87 201c0 161.333 106 267.333 318 318l256 61c0 22 -11 41.167 -33 57.5
s-52 24.5 -90 24.5c-32.667 0 -65.5 -7.83301 -98.5 -23.5s-56.833 -31.167 -71.5 -46.5l-25 -22l-194 205c4 5.33301 9.66699 12.333 17 21s24.666 24 51.999 46s56.666 41.5 87.999 58.5s72.666 32.667 123.999 47s104.333 21.5 159 21.5
c140.667 0 254.334 -39.167 341.001 -117.5s130 -175.5 130 -291.5v-625zM512.003 275.998c31.333 0 58 12.333 80 37s33 57 33 97v30l-113 -30c-40.667 -10.667 -61 -34.667 -61 -72c0 -41.333 20.333 -62 61 -62zM666.003 1126l-93 134l-92 -134h-368l286 349h349
l286 -349h-368z" />
    <glyph glyph-name="atilde" unicode="&#xe3;" horiz-adv-x="1146" 
d="M1024 0l-409.997 -0.00195312v113c-5.33301 -9.33301 -14.5 -21.666 -27.5 -36.999s-42.333 -35.166 -88 -59.499s-95.834 -36.5 -150.501 -36.5c-82 0 -152 28.333 -210 85s-87 123.667 -87 201c0 161.333 106 267.333 318 318l256 61c0 22 -11 41.167 -33 57.5
s-52 24.5 -90 24.5c-32.667 0 -65.5 -7.83301 -98.5 -23.5s-56.833 -31.167 -71.5 -46.5l-25 -22l-194 205c4 5.33301 9.66699 12.333 17 21s24.666 24 51.999 46s56.666 41.5 87.999 58.5s72.666 32.667 123.999 47s104.333 21.5 159 21.5
c140.667 0 254.334 -39.167 341.001 -117.5s130 -175.5 130 -291.5v-625zM512.003 275.998c31.333 0 58 12.333 80 37s33 57 33 97v30l-113 -30c-40.667 -10.667 -61 -34.667 -61 -72c0 -41.333 20.333 -62 61 -62zM532.003 1188c-20.667 0 -37.667 -7.5 -51 -22.5
s-20 -34.833 -20 -59.5h-246c0 246 75 369 225 369c46.667 0 92.167 -13.667 136.5 -41s74.166 -41 89.499 -41c20.667 0 37.667 7.5 51 22.5s20 34.833 20 59.5h246c0 -246 -75 -369 -225 -369c-46.667 0 -92.167 13.667 -136.5 41s-74.166 41 -89.499 41z" />
    <glyph glyph-name="adieresis" unicode="&#xe4;" horiz-adv-x="1146" 
d="M1024 0l-409.997 -0.00195312v113c-5.33301 -9.33301 -14.5 -21.666 -27.5 -36.999s-42.333 -35.166 -88 -59.499s-95.834 -36.5 -150.501 -36.5c-82 0 -152 28.333 -210 85s-87 123.667 -87 201c0 161.333 106 267.333 318 318l256 61c0 22 -11 41.167 -33 57.5
s-52 24.5 -90 24.5c-32.667 0 -65.5 -7.83301 -98.5 -23.5s-56.833 -31.167 -71.5 -46.5l-25 -22l-194 205c4 5.33301 9.66699 12.333 17 21s24.666 24 51.999 46s56.666 41.5 87.999 58.5s72.666 32.667 123.999 47s104.333 21.5 159 21.5
c140.667 0 254.334 -39.167 341.001 -117.5s130 -175.5 130 -291.5v-625zM512.003 275.998c31.333 0 58 12.333 80 37s33 57 33 97v30l-113 -30c-40.667 -10.667 -61 -34.667 -61 -72c0 -41.333 20.333 -62 61 -62zM143.003 1300.5c0 50.333 19.833 95.333 59.5 135
s84.834 59.5 135.501 59.5s95.667 -19.833 135 -59.5s59 -84.667 59 -135s-19.667 -95.333 -59 -135s-84.333 -59.5 -135 -59.5s-95.834 19.833 -135.501 59.5s-59.5 84.667 -59.5 135zM635.003 1300.5c0 50.333 19.833 95.333 59.5 135s84.667 59.5 135 59.5
s95.333 -19.833 135 -59.5s59.5 -84.667 59.5 -135s-19.833 -95.333 -59.5 -135s-84.667 -59.5 -135 -59.5s-95.333 19.833 -135 59.5s-59.5 84.667 -59.5 135z" />
    <glyph glyph-name="aring" unicode="&#xe5;" horiz-adv-x="1146" 
d="M1024 0l-409.997 -0.00195312v113c-5.33301 -9.33301 -14.5 -21.666 -27.5 -36.999s-42.333 -35.166 -88 -59.499s-95.834 -36.5 -150.501 -36.5c-82 0 -152 28.333 -210 85s-87 123.667 -87 201c0 161.333 106 267.333 318 318l256 61c0 22 -11 41.167 -33 57.5
s-52 24.5 -90 24.5c-32.667 0 -65.5 -7.83301 -98.5 -23.5s-56.833 -31.167 -71.5 -46.5l-25 -22l-194 205c4 5.33301 9.66699 12.333 17 21s24.666 24 51.999 46s56.666 41.5 87.999 58.5s72.666 32.667 123.999 47s104.333 21.5 159 21.5
c140.667 0 254.334 -39.167 341.001 -117.5s130 -175.5 130 -291.5v-625zM512.003 275.998c31.333 0 58 12.333 80 37s33 57 33 97v30l-113 -30c-40.667 -10.667 -61 -34.667 -61 -72c0 -41.333 20.333 -62 61 -62zM512.003 1352c0 -54.667 27.333 -82 82 -82
s82 27.333 82 82s-27.333 82 -82 82s-82 -27.333 -82 -82zM881.003 1351.5c0 -72.333 -27.667 -134.833 -83 -187.5s-123.333 -79 -204 -79s-148.667 26.333 -204 79s-83 115.167 -83 187.5s27.667 134.833 83 187.5s123.333 79 204 79s148.667 -26.333 204 -79
s83 -115.167 83 -187.5z" />
    <glyph glyph-name="ae" unicode="&#xe6;" horiz-adv-x="1771" 
d="M522 1034c61.333 0 118.328 -12.6641 170.995 -37.9971s90.667 -50 114 -74l33 -37c2.66699 4 7.33398 9.33301 14.001 16s21.334 18.667 44.001 36s46.334 32.333 71.001 45s56.667 24.5 96 35.5s80.333 16.5 123 16.5c143.333 0 266.166 -50.5 368.499 -151.5
s153.5 -221.167 153.5 -360.5c0 -22 -1.66699 -42.167 -5 -60.5s-6.33301 -31.5 -9 -39.5l-6 -12h-635c24.667 -75.333 93 -113 205 -113c32.667 0 65.334 5.83301 98.001 17.5s56.667 23.5 72 35.5l24 19l154 -256c-4 -4 -10.167 -9.16699 -18.5 -15.5
s-25.833 -17.333 -52.5 -33s-54.667 -29.667 -84 -42s-67.166 -23.333 -113.499 -33s-93.5 -14.5 -141.5 -14.5s-93.5 5.5 -136.5 16.5s-78.167 24 -105.5 39s-50.833 30.333 -70.5 46s-33.5 29.167 -41.5 40.5l-15 16c-2.66699 -4 -7 -9.83301 -13 -17.5
s-20.667 -20.334 -44 -38.001s-49 -33.334 -77 -47.001s-65.833 -26.334 -113.5 -38.001s-98.167 -17.5 -151.5 -17.5c-117.333 0 -209.833 28.333 -277.5 85s-101.5 126.667 -101.5 210c0 186 112.667 295.333 338 328l246 37c0 27.333 -10.667 49.5 -32 66.5
s-51.666 25.5 -90.999 25.5c-36.667 0 -71.167 -7.83301 -103.5 -23.5s-55.166 -31.167 -68.499 -46.5l-23 -22l-194 205c4 5.33301 9.5 12.333 16.5 21s22.667 24 47 46s50.833 41.5 79.5 58.5s66.167 32.667 112.5 47s94.166 21.5 143.499 21.5zM501.995 276.003
c36.667 0 67.999 14.335 93.999 43.002s39 65.667 39 111l-103 -10c-30 -2.66699 -54.5 -11.834 -73.5 -27.501s-28.5 -33.834 -28.5 -54.501c0 -16.667 6.83301 -31.167 20.5 -43.5s30.834 -18.5 51.501 -18.5zM1166.99 727.005c-30 0 -56.833 -10.833 -80.5 -32.5
s-41.167 -48.5 -52.5 -80.5h266c-10.667 31.333 -28 58 -52 80s-51 33 -81 33z" />
    <glyph glyph-name="ccedilla" unicode="&#xe7;" horiz-adv-x="1116" 
d="M51 502c0 146 55.335 271.17 166.002 375.503s246.667 156.5 408 156.5c57.333 0 111.833 -7.5 163.5 -22.5s94.334 -33 128.001 -54s63 -41.833 88 -62.5s43.167 -38.334 54.5 -53.001l16 -23l-246 -246c-4 6.66699 -10.333 15.167 -19 25.5
s-28.334 24.166 -59.001 41.499s-62.667 26 -96 26c-50.667 0 -92.334 -15.833 -125.001 -47.5s-49 -70.667 -49 -117s16.5 -85.166 49.5 -116.499s74.5 -47 124.5 -47c32.667 0 63.834 7.83301 93.501 23.5s50.5 31.167 62.5 46.5l18 22l246 -246
c-4 -5.33301 -9.33301 -12.333 -16 -21s-22.667 -24.667 -48 -48s-52.666 -44.166 -81.999 -62.499s-68.333 -35.833 -117 -52.5s-98.667 -26.334 -150 -29.001l-27 -53c5.33301 0 13.166 -1 23.499 -3s28.5 -7.83301 54.5 -17.5s48.833 -21.334 68.5 -35.001
s37.667 -34.5 54 -62.5s24.5 -60.333 24.5 -97c0 -68 -24.833 -124.167 -74.5 -168.5s-116.834 -66.5 -201.501 -66.5c-52 0 -100.833 9.5 -146.5 28.5s-78.834 38.167 -99.501 57.5l-31 26l92 154c44 -40.667 88.333 -61.334 133 -62.001c40.667 0 61.334 17.333 62.001 52
c0 10.667 -4.83301 20 -14.5 28s-21.834 12 -36.501 12l-51 -10l-62 82l66 148c-131.333 26 -238.333 87.833 -321 185.5s-124 208.5 -124 332.5z" />
    <glyph glyph-name="egrave" unicode="&#xe8;" horiz-adv-x="1208" 
d="M1126 410h-644.999c12 -30 35.167 -56.333 69.5 -79s79.5 -34 135.5 -34c36.667 0 71.167 5.83301 103.5 17.5s55.833 23.5 70.5 35.5l21 19l163 -256c-12 -10.667 -29.333 -24 -52 -40s-70.5 -37.333 -143.5 -64s-147.5 -40 -223.5 -40
c-161.333 0 -297.333 52.333 -408 157s-166 230 -166 376s53.333 271.167 160 375.5s237.667 156.5 393 156.5c151.333 0 279.666 -50.5 384.999 -151.5s158 -221.167 158 -360.5c0 -22 -1.66699 -42.167 -5 -60.5s-7.33301 -31.5 -12 -39.5zM604.001 727
c-30 0 -57 -10.833 -81 -32.5s-41.333 -48.5 -52 -80.5h266c-10.667 31.333 -28 58 -52 80s-51 33 -81 33zM614.001 1475l185 -349h-359l-256 349h430z" />
    <glyph glyph-name="eacute" unicode="&#xe9;" horiz-adv-x="1208" 
d="M1126 410h-644.999c12 -30 35.167 -56.333 69.5 -79s79.5 -34 135.5 -34c36.667 0 71.167 5.83301 103.5 17.5s55.833 23.5 70.5 35.5l21 19l163 -256c-12 -10.667 -29.333 -24 -52 -40s-70.5 -37.333 -143.5 -64s-147.5 -40 -223.5 -40
c-161.333 0 -297.333 52.333 -408 157s-166 230 -166 376s53.333 271.167 160 375.5s237.667 156.5 393 156.5c151.333 0 279.666 -50.5 384.999 -151.5s158 -221.167 158 -360.5c0 -22 -1.66699 -42.167 -5 -60.5s-7.33301 -31.5 -12 -39.5zM604.001 727
c-30 0 -57 -10.833 -81 -32.5s-41.333 -48.5 -52 -80.5h266c-10.667 31.333 -28 58 -52 80s-51 33 -81 33zM420.001 1126l184 349h430l-256 -349h-358z" />
    <glyph glyph-name="ecircumflex" unicode="&#xea;" horiz-adv-x="1208" 
d="M1126 410h-644.999c12 -30 35.167 -56.333 69.5 -79s79.5 -34 135.5 -34c36.667 0 71.167 5.83301 103.5 17.5s55.833 23.5 70.5 35.5l21 19l163 -256c-12 -10.667 -29.333 -24 -52 -40s-70.5 -37.333 -143.5 -64s-147.5 -40 -223.5 -40
c-161.333 0 -297.333 52.333 -408 157s-166 230 -166 376s53.333 271.167 160 375.5s237.667 156.5 393 156.5c151.333 0 279.666 -50.5 384.999 -151.5s158 -221.167 158 -360.5c0 -22 -1.66699 -42.167 -5 -60.5s-7.33301 -31.5 -12 -39.5zM604.001 727
c-30 0 -57 -10.833 -81 -32.5s-41.333 -48.5 -52 -80.5h266c-10.667 31.333 -28 58 -52 80s-51 33 -81 33zM686.001 1126l-92 134l-92 -134h-369l287 349h348l287 -349h-369z" />
    <glyph glyph-name="edieresis" unicode="&#xeb;" horiz-adv-x="1208" 
d="M1126 410h-644.999c12 -30 35.167 -56.333 69.5 -79s79.5 -34 135.5 -34c36.667 0 71.167 5.83301 103.5 17.5s55.833 23.5 70.5 35.5l21 19l163 -256c-12 -10.667 -29.333 -24 -52 -40s-70.5 -37.333 -143.5 -64s-147.5 -40 -223.5 -40
c-161.333 0 -297.333 52.333 -408 157s-166 230 -166 376s53.333 271.167 160 375.5s237.667 156.5 393 156.5c151.333 0 279.666 -50.5 384.999 -151.5s158 -221.167 158 -360.5c0 -22 -1.66699 -42.167 -5 -60.5s-7.33301 -31.5 -12 -39.5zM604.001 727
c-30 0 -57 -10.833 -81 -32.5s-41.333 -48.5 -52 -80.5h266c-10.667 31.333 -28 58 -52 80s-51 33 -81 33zM154.001 1300.5c0 50.333 19.333 95.333 58 135s84 59.5 136 59.5s97.5 -19.833 136.5 -59.5s58.5 -84.667 58.5 -135s-19.5 -95.333 -58.5 -135
s-84.5 -59.5 -136.5 -59.5s-97.333 19.833 -136 59.5s-58 84.667 -58 135zM645.001 1300.5c0 50.333 19.5 95.333 58.5 135s84.5 59.5 136.5 59.5s97.333 -19.833 136 -59.5s58 -84.667 58 -135s-19.333 -95.333 -58 -135s-84 -59.5 -136 -59.5s-97.5 19.833 -136.5 59.5
s-58.5 84.667 -58.5 135z" />
    <glyph glyph-name="igrave" unicode="&#xec;" horiz-adv-x="655" 
d="M307 1475l185 -349h-359l-256 349h430zM522 1004v-1004h-409v1004h409z" />
    <glyph glyph-name="iacute" unicode="&#xed;" horiz-adv-x="655" 
d="M133 1126l184 349h431l-256 -349h-359zM522 1004v-1004h-409v1004h409z" />
    <glyph glyph-name="icircumflex" unicode="&#xee;" horiz-adv-x="675" 
d="M526 1004v-1004h-409v1004h409zM410 1126l-93 134l-92 -134h-368l286 349h349l286 -349h-368z" />
    <glyph glyph-name="idieresis" unicode="&#xef;" horiz-adv-x="655" 
d="M-123 1300.5c0 50.333 19.833 95.333 59.5 135s84.667 59.5 135 59.5s95.333 -19.833 135 -59.5s59.5 -84.667 59.5 -135s-19.833 -95.333 -59.5 -135s-84.667 -59.5 -135 -59.5s-95.333 19.833 -135 59.5s-59.5 84.667 -59.5 135zM369 1300.5
c0 50.333 19.667 95.333 59 135s84.333 59.5 135 59.5s95.834 -19.833 135.501 -59.5s59.5 -84.667 59.5 -135s-19.833 -95.333 -59.5 -135s-84.834 -59.5 -135.501 -59.5s-95.667 19.833 -135 59.5s-59 84.667 -59 135zM522 1004v-1004h-409v1004h409z" />
    <glyph glyph-name="eth" unicode="&#xf0;" horiz-adv-x="1259" 
d="M768 870c-15.333 49.333 -37.667 94.5 -67 135.5s-54 69.833 -74 86.5l-33 24l-195 -123l-143 205l61 51c-34 13.333 -78.333 27 -133 41l92 297c72.667 -18 139.667 -37.167 201 -57.5s104.333 -35.833 129 -46.5l39 -19l225 144l154 -205l-143 -103
c8 -6.66699 18.5 -16.5 31.5 -29.5s35.833 -41.333 68.5 -85s61.667 -90 87 -139s48.166 -112.833 68.499 -191.5s30.5 -159 30.5 -241c0 -196.667 -53.167 -352.334 -159.5 -467.001s-247.5 -172 -423.5 -172c-155.333 0 -284.666 48.5 -387.999 145.5
s-155 213.833 -155 350.5c0 132.667 48.167 247.834 144.5 345.501s208.5 146.5 336.5 146.5c49.333 0 94.5 -7.5 135.5 -22.5s69.5 -30.833 85.5 -47.5zM726.999 471c0 35.333 -13.333 66.333 -40 93s-57.667 40 -93 40c-31.333 0 -59.666 -13.333 -84.999 -40
s-38 -57.667 -38 -93s12.667 -66.333 38 -93s53.666 -40 84.999 -40c35.333 0 66.333 13.333 93 40s40 57.667 40 93z" />
    <glyph glyph-name="ntilde" unicode="&#xf1;" horiz-adv-x="1269" 
d="M512 1004l-0.000976562 -123.001c6.66699 10.667 16.834 23.834 30.501 39.501s44.5 36.834 92.5 63.501s99 40 153 40c105.333 0 191.5 -37.5 258.5 -112.5s100.5 -177.5 100.5 -307.5v-604h-410v512c0 35.333 -10.5 64.666 -31.5 87.999s-46.5 35 -76.5 35
s-57 -14.667 -81 -44s-36 -66 -36 -110v-481h-410v1004h410zM562.999 1188c-20.667 0 -37.668 -7.5 -51.001 -22.5s-20 -34.833 -20 -59.5h-246c0 246 75 369 225 369c46.667 0 92.167 -13.667 136.5 -41s73.833 -41 88.5 -41c20.667 0 37.834 7.5 51.501 22.5
s20.5 34.833 20.5 59.5h246c0 -246 -75.333 -369 -226 -369c-46.667 0 -92 13.667 -136 41s-73.667 41 -89 41z" />
    <glyph glyph-name="ograve" unicode="&#xf2;" horiz-adv-x="1269" 
d="M481 501.5c0 -45 13.667 -81.833 41 -110.5s61.5 -43 102.5 -43s75.167 14.333 102.5 43s41 65.5 41 110.5s-13.667 81.833 -41 110.5s-61.5 43 -102.5 43s-75.167 -14.333 -102.5 -43s-41 -65.5 -41 -110.5zM1198 502c0 -146 -55.333 -271.333 -166 -376
s-246.5 -157 -407.5 -157s-296.833 52.333 -407.5 157s-166 230 -166 376s55.333 271.167 166 375.5s246.5 156.5 407.5 156.5s296.833 -52.167 407.5 -156.5s166 -229.5 166 -375.5zM625 1475l184 -349h-358l-256 349h430z" />
    <glyph glyph-name="oacute" unicode="&#xf3;" horiz-adv-x="1269" 
d="M481 501.5c0 -45 13.667 -81.833 41 -110.5s61.5 -43 102.5 -43s75.167 14.333 102.5 43s41 65.5 41 110.5s-13.667 81.833 -41 110.5s-61.5 43 -102.5 43s-75.167 -14.333 -102.5 -43s-41 -65.5 -41 -110.5zM1198 502c0 -146 -55.333 -271.333 -166 -376
s-246.5 -157 -407.5 -157s-296.833 52.333 -407.5 157s-166 230 -166 376s55.333 271.167 166 375.5s246.5 156.5 407.5 156.5s296.833 -52.167 407.5 -156.5s166 -229.5 166 -375.5zM430 1126l184 349h430l-256 -349h-358z" />
    <glyph glyph-name="ocircumflex" unicode="&#xf4;" horiz-adv-x="1269" 
d="M481 501.5c0 -45 13.667 -81.833 41 -110.5s61.5 -43 102.5 -43s75.167 14.333 102.5 43s41 65.5 41 110.5s-13.667 81.833 -41 110.5s-61.5 43 -102.5 43s-75.167 -14.333 -102.5 -43s-41 -65.5 -41 -110.5zM1198 502c0 -146 -55.333 -271.333 -166 -376
s-246.5 -157 -407.5 -157s-296.833 52.333 -407.5 157s-166 230 -166 376s55.333 271.167 166 375.5s246.5 156.5 407.5 156.5s296.833 -52.167 407.5 -156.5s166 -229.5 166 -375.5zM707 1126l-93 134l-92 -134h-368l286 349h348l287 -349h-368z" />
    <glyph glyph-name="otilde" unicode="&#xf5;" horiz-adv-x="1269" 
d="M481 501.5c0 -45 13.667 -81.833 41 -110.5s61.5 -43 102.5 -43s75.167 14.333 102.5 43s41 65.5 41 110.5s-13.667 81.833 -41 110.5s-61.5 43 -102.5 43s-75.167 -14.333 -102.5 -43s-41 -65.5 -41 -110.5zM1198 502c0 -146 -55.333 -271.333 -166 -376
s-246.5 -157 -407.5 -157s-296.833 52.333 -407.5 157s-166 230 -166 376s55.333 271.167 166 375.5s246.5 156.5 407.5 156.5s296.833 -52.167 407.5 -156.5s166 -229.5 166 -375.5zM553 1188c-20.667 0 -37.834 -7.5 -51.501 -22.5s-20.5 -34.833 -20.5 -59.5h-245
c0 246 75 369 225 369c46.667 0 92.167 -13.667 136.5 -41s73.833 -41 88.5 -41c20.667 0 37.834 7.5 51.501 22.5s20.5 34.833 20.5 59.5h246c0 -246 -75.333 -369 -226 -369c-46.667 0 -92 13.667 -136 41s-73.667 41 -89 41z" />
    <glyph glyph-name="odieresis" unicode="&#xf6;" horiz-adv-x="1269" 
d="M481 501.5c0 -45 13.667 -81.833 41 -110.5s61.5 -43 102.5 -43s75.167 14.333 102.5 43s41 65.5 41 110.5s-13.667 81.833 -41 110.5s-61.5 43 -102.5 43s-75.167 -14.333 -102.5 -43s-41 -65.5 -41 -110.5zM1198 502c0 -146 -55.333 -271.333 -166 -376
s-246.5 -157 -407.5 -157s-296.833 52.333 -407.5 157s-166 230 -166 376s55.333 271.167 166 375.5s246.5 156.5 407.5 156.5s296.833 -52.167 407.5 -156.5s166 -229.5 166 -375.5zM174 1300.5c0 50.333 19.5 95.333 58.5 135s84.333 59.5 136 59.5s97 -19.833 136 -59.5
s58.5 -84.667 58.5 -135s-19.5 -95.333 -58.5 -135s-84.333 -59.5 -136 -59.5s-97 19.833 -136 59.5s-58.5 84.667 -58.5 135zM666 1300.5c0 50.333 19.333 95.333 58 135s84 59.5 136 59.5s97.5 -19.833 136.5 -59.5s58.5 -84.667 58.5 -135s-19.5 -95.333 -58.5 -135
s-84.5 -59.5 -136.5 -59.5s-97.333 19.833 -136 59.5s-58 84.667 -58 135z" />
    <glyph glyph-name="divide" unicode="&#xf7;" horiz-adv-x="1085" 
d="M1024 737v-266h-963v266h963zM328 1014c0 57.333 19.333 104 58 140s90.834 54 156.501 54s118 -18 157 -54s58.5 -82.667 58.5 -140s-19.5 -104.166 -58.5 -140.499s-91.333 -54.5 -157 -54.5s-117.834 18.167 -156.501 54.5s-58 83.166 -58 140.499zM1024 737h-963
v-266h963v266zM328 195c0 57.333 19.333 104 58 140s90.834 54 156.501 54s118 -18 157 -54s58.5 -82.667 58.5 -140s-19.5 -104.166 -58.5 -140.499s-91.333 -54.5 -157 -54.5s-117.834 18.167 -156.501 54.5s-58 83.166 -58 140.499z" />
    <glyph glyph-name="oslash" unicode="&#xf8;" horiz-adv-x="1269" 
d="M625 -31c-54.667 0 -104.836 5.16895 -150.503 15.502s-78.167 20.833 -97.5 31.5l-29 15l-112 -113l-185 184l103 103c-8 9.33301 -17.5 22.166 -28.5 38.499s-26.167 50.5 -45.5 102.5s-29 104 -29 156c0 146 55.333 271.167 166 375.5s246.667 156.5 408 156.5
c54.667 0 104.834 -5 150.501 -15s77.834 -20.667 96.501 -32l29 -14l113 112l184 -184l-102 -102c8 -9.33301 17.5 -22.333 28.5 -39s26 -50.834 45 -102.501s28.5 -103.5 28.5 -155.5c0 -146 -55.167 -271.333 -165.5 -376s-246.166 -157 -407.499 -157zM624.998 307.002
c53.333 0 97.333 18.168 132 54.501s52 83.166 52 140.499zM624.998 696.003c-53.333 0 -97.5 -18 -132.5 -54s-52.5 -82.667 -52.5 -140z" />
    <glyph glyph-name="ugrave" unicode="&#xf9;" 
d="M737 0l0.000976562 112.998c-6.66699 -9.33301 -16.167 -21.666 -28.5 -36.999s-42 -35.166 -89 -59.499s-98.5 -36.5 -154.5 -36.5c-106.667 0 -193.834 37.167 -261.501 111.5s-101.5 174.833 -101.5 301.5v611h410v-523c0 -35.333 9.5 -62.833 28.5 -82.5
s44.833 -29.5 77.5 -29.5c35.333 0 64 12.5 86 37.5s33 60.167 33 105.5v492h410v-1004h-410zM625.001 1475l184 -349h-358l-256 349h430z" />
    <glyph glyph-name="uacute" unicode="&#xfa;" 
d="M737 0l0.000976562 112.998c-6.66699 -9.33301 -16.167 -21.666 -28.5 -36.999s-42 -35.166 -89 -59.499s-98.5 -36.5 -154.5 -36.5c-106.667 0 -193.834 37.167 -261.501 111.5s-101.5 174.833 -101.5 301.5v611h410v-523c0 -35.333 9.5 -62.833 28.5 -82.5
s44.833 -29.5 77.5 -29.5c35.333 0 64 12.5 86 37.5s33 60.167 33 105.5v492h410v-1004h-410zM430.001 1126l184 349h430l-256 -349h-358z" />
    <glyph glyph-name="ucircumflex" unicode="&#xfb;" 
d="M737 0l0.000976562 112.998c-6.66699 -9.33301 -16.167 -21.666 -28.5 -36.999s-42 -35.166 -89 -59.499s-98.5 -36.5 -154.5 -36.5c-106.667 0 -193.834 37.167 -261.501 111.5s-101.5 174.833 -101.5 301.5v611h410v-523c0 -35.333 9.5 -62.833 28.5 -82.5
s44.833 -29.5 77.5 -29.5c35.333 0 64 12.5 86 37.5s33 60.167 33 105.5v492h410v-1004h-410zM707.001 1126l-93 134l-92 -134h-368l286 349h348l287 -349h-368z" />
    <glyph glyph-name="udieresis" unicode="&#xfc;" 
d="M737 0l0.000976562 112.998c-6.66699 -9.33301 -16.167 -21.666 -28.5 -36.999s-42 -35.166 -89 -59.499s-98.5 -36.5 -154.5 -36.5c-106.667 0 -193.834 37.167 -261.501 111.5s-101.5 174.833 -101.5 301.5v611h410v-523c0 -35.333 9.5 -62.833 28.5 -82.5
s44.833 -29.5 77.5 -29.5c35.333 0 64 12.5 86 37.5s33 60.167 33 105.5v492h410v-1004h-410zM174.001 1300.5c0 50.333 19.5 95.333 58.5 135s84.333 59.5 136 59.5s97 -19.833 136 -59.5s58.5 -84.667 58.5 -135s-19.5 -95.333 -58.5 -135s-84.333 -59.5 -136 -59.5
s-97 19.833 -136 59.5s-58.5 84.667 -58.5 135zM666.001 1300.5c0 50.333 19.333 95.333 58 135s84 59.5 136 59.5s97.5 -19.833 136.5 -59.5s58.5 -84.667 58.5 -135s-19.5 -95.333 -58.5 -135s-84.5 -59.5 -136.5 -59.5s-97.333 19.833 -136 59.5s-58 84.667 -58 135z" />
    <glyph glyph-name="yacute" unicode="&#xfd;" horiz-adv-x="1126" 
d="M174 -51c62.667 0 115.333 30.667 158 92l-352 963h419l154 -533l154 533h419l-368 -1014c-101.333 -280 -255 -420 -461 -420c-38 0 -75.833 3.33301 -113.5 10s-66.167 13.667 -85.5 21l-26 10v358c27.333 -13.333 61.333 -20 102 -20zM378.999 1130l184 349h430
l-256 -349h-358z" />
    <glyph glyph-name="thorn" unicode="&#xfe;" horiz-adv-x="1331" 
d="M532 501.5c0 -46.333 14 -83.5 42 -111.5s65.333 -42 112 -42c40.667 0 74.667 14.333 102 43s41 65.5 41 110.5s-13.5 81.833 -40.5 110.5s-61.167 43 -102.5 43c-46.667 0 -84 -14 -112 -42s-42 -65.167 -42 -111.5zM532 123v-552.998h-409v1864h409v-553
c2.66699 4 6.16699 9 10.5 15s14.666 17.167 30.999 33.5s34.333 31 54 44s45.667 24.667 78 35s66.833 15.5 103.5 15.5c121.333 0 225 -49.167 311 -147.5s129 -223.166 129 -374.499c0 -152.667 -43 -277.834 -129 -375.501s-189.667 -146.5 -311 -146.5
c-36.667 0 -71.167 4.66699 -103.5 14s-58.666 21.166 -78.999 35.499s-38 28.666 -53 42.999s-25.833 26.5 -32.5 36.5z" />
    <glyph glyph-name="ydieresis" unicode="&#xff;" horiz-adv-x="1126" 
d="M174 -51c62.667 0 115.333 30.667 158 92l-352 963h419l154 -533l154 533h419l-368 -1014c-101.333 -280 -255 -420 -461 -420c-38 0 -75.833 3.33301 -113.5 10s-66.167 13.667 -85.5 21l-26 10v358c27.333 -13.333 61.333 -20 102 -20zM112.999 1304.5
c0 50.333 19.333 95.333 58 135s84 59.5 136 59.5s97.5 -19.833 136.5 -59.5s58.5 -84.667 58.5 -135s-19.5 -95.333 -58.5 -135s-84.5 -59.5 -136.5 -59.5s-97.333 19.833 -136 59.5s-58 84.667 -58 135zM603.999 1304.5c0 50.333 19.5 95.333 58.5 135
s84.5 59.5 136.5 59.5s97.333 -19.833 136 -59.5s58 -84.667 58 -135s-19.333 -95.333 -58 -135s-84 -59.5 -136 -59.5s-97.5 19.833 -136.5 59.5s-58.5 84.667 -58.5 135z" />
    <glyph glyph-name="Amacron" unicode="&#x100;" horiz-adv-x="1515" 
d="M860 625l-102 358l-103 -358h205zM963 276h-410l-82 -276h-491l522 1434h512l522 -1434h-492zM1106 1935v-307h-696v307h696z" />
    <glyph glyph-name="amacron" unicode="&#x101;" horiz-adv-x="1146" 
d="M1024 0l-409.997 -0.00195312v113c-5.33301 -9.33301 -14.5 -21.666 -27.5 -36.999s-42.333 -35.166 -88 -59.499s-95.834 -36.5 -150.501 -36.5c-82 0 -152 28.333 -210 85s-87 123.667 -87 201c0 161.333 106 267.333 318 318l256 61c0 22 -11 41.167 -33 57.5
s-52 24.5 -90 24.5c-32.667 0 -65.5 -7.83301 -98.5 -23.5s-56.833 -31.167 -71.5 -46.5l-25 -22l-194 205c4 5.33301 9.66699 12.333 17 21s24.666 24 51.999 46s56.666 41.5 87.999 58.5s72.666 32.667 123.999 47s104.333 21.5 159 21.5
c140.667 0 254.334 -39.167 341.001 -117.5s130 -175.5 130 -291.5v-625zM512.003 275.998c31.333 0 58 12.333 80 37s33 57 33 97v30l-113 -30c-40.667 -10.667 -61 -34.667 -61 -72c0 -41.333 20.333 -62 61 -62zM952.003 1485v-307h-696v307h696z" />
    <glyph glyph-name="Abreve" unicode="&#x102;" horiz-adv-x="1515" 
d="M860 625l-102 358l-103 -358h205zM963 276h-410l-82 -276h-491l522 1434h512l522 -1434h-492zM758 1587c-105.333 0 -193.167 33.5 -263.5 100.5s-105.5 149.5 -105.5 247.5h287c0 -61.333 27.333 -92 82 -92s82 30.667 82 92h286c0 -98 -34.667 -180.5 -104 -247.5
s-157.333 -100.5 -264 -100.5z" />
    <glyph glyph-name="abreve" unicode="&#x103;" horiz-adv-x="1146" 
d="M1024 0l-409.997 -0.00195312v113c-5.33301 -9.33301 -14.5 -21.666 -27.5 -36.999s-42.333 -35.166 -88 -59.499s-95.834 -36.5 -150.501 -36.5c-82 0 -152 28.333 -210 85s-87 123.667 -87 201c0 161.333 106 267.333 318 318l256 61c0 22 -11 41.167 -33 57.5
s-52 24.5 -90 24.5c-32.667 0 -65.5 -7.83301 -98.5 -23.5s-56.833 -31.167 -71.5 -46.5l-25 -22l-194 205c4 5.33301 9.66699 12.333 17 21s24.666 24 51.999 46s56.666 41.5 87.999 58.5s72.666 32.667 123.999 47s104.333 21.5 159 21.5
c140.667 0 254.334 -39.167 341.001 -117.5s130 -175.5 130 -291.5v-625zM512.003 275.998c31.333 0 58 12.333 80 37s33 57 33 97v30l-113 -30c-40.667 -10.667 -61 -34.667 -61 -72c0 -41.333 20.333 -62 61 -62zM594.003 1126
c-105.333 0 -193.166 33.499 -263.499 100.499s-105.5 149.833 -105.5 248.5h287c0 -61.333 27.333 -92.166 82 -92.499s82 30.5 82 92.5h287c0 -98 -34.833 -180.667 -104.5 -248s-157.834 -101 -264.501 -101z" />
    <glyph glyph-name="Aogonek" unicode="&#x104;" horiz-adv-x="1515" 
d="M1044 0l-81.002 276.001h-410l-82 -276h-491l522 1434h512l522 -1434h-328c-34 -68 -51 -136.333 -51 -205c0 -54.667 27.333 -82 82 -82c15.333 0 30.833 2.83301 46.5 8.5s26.834 11.167 33.501 16.5l12 6v-215c-48 -27.333 -112.667 -41 -194 -41
c-75.333 0 -138.666 24.167 -189.999 72.5s-77 106.166 -77 173.499c0 48 14.667 94.167 44 138.5s58.333 76.5 87 96.5zM859.998 625.001l-102 358l-103 -358h205z" />
    <glyph glyph-name="aogonek" unicode="&#x105;" horiz-adv-x="1146" 
d="M1024 0h-245.998c-40.667 -68 -61 -136.333 -61 -205c0 -54.667 27.333 -82 82 -82c15.333 0 30.666 2.83301 45.999 8.5s27.333 11.167 36 16.5l10 6v-215c-48 -27.333 -113 -41 -195 -41c-75.333 0 -138.5 24.167 -189.5 72.5s-76.5 106.166 -76.5 173.499
c0 30 6.5 60 19.5 90s28.333 54.833 46 74.5s35.334 37.667 53.001 54s32.834 28.166 45.501 35.499l20 12v113c-5.33301 -9.33301 -14.5 -21.666 -27.5 -36.999s-42.333 -35.166 -88 -59.499s-95.834 -36.5 -150.501 -36.5c-82 0 -152 28.333 -210 85s-87 123.667 -87 201
c0 161.333 106 267.333 318 318l256 61c0 22 -11 41.167 -33 57.5s-52 24.5 -90 24.5c-32.667 0 -65.5 -7.83301 -98.5 -23.5s-56.833 -31.167 -71.5 -46.5l-25 -22l-194 205c4 5.33301 9.66699 12.333 17 21s24.666 24 51.999 46s56.666 41.5 87.999 58.5
s72.666 32.667 123.999 47s104.333 21.5 159 21.5c140.667 0 254.334 -39.167 341.001 -117.5s130 -175.5 130 -291.5v-625zM512.002 276c31.333 0 58 12.333 80 37s33 57 33 97v30l-113 -30c-40.667 -10.667 -61 -34.667 -61 -72c0 -41.333 20.333 -62 61 -62z" />
    <glyph glyph-name="Cacute" unicode="&#x106;" horiz-adv-x="1540" 
d="M532 716.5c0 -98.333 34.166 -180.835 102.499 -247.502s153.833 -100 256.5 -100c39.333 0 78.5 5.33301 117.5 16s71.833 24.334 98.5 41.001s50.167 33.167 70.5 49.5s36.166 29.833 47.499 40.5l14 16l270 -286c-5.33301 -8 -13.5 -18.5 -24.5 -31.5
s-36.167 -36 -75.5 -69s-81.166 -62.167 -125.499 -87.5s-103.166 -48.166 -176.499 -68.499s-148.666 -30.5 -225.999 -30.5c-228 0 -419.833 74.5 -575.5 223.5s-233.5 327.167 -233.5 534.5s77.833 385.5 233.5 534.5s347.5 223.5 575.5 223.5c78 0 152.667 -10 224 -30
s130.333 -44 177 -72s87.667 -56 123 -84s61.333 -52 78 -72l22 -29l-276 -287c-4 4 -9.5 9.83301 -16.5 17.5s-21.667 21 -44 40s-45.833 35.667 -70.5 50s-55.834 27.333 -93.501 39s-75.5 17.5 -113.5 17.5c-102.667 0 -188.167 -33.5 -256.5 -100.5
s-102.5 -149.667 -102.5 -248zM665.999 1587l184 348h430l-256 -348h-358z" />
    <glyph glyph-name="cacute" unicode="&#x107;" horiz-adv-x="1116" 
d="M51 502c0 146 55.3291 271.169 165.996 375.502s246.667 156.5 408 156.5c57.333 0 111.833 -7.5 163.5 -22.5s94.334 -33 128.001 -54s63 -41.833 88 -62.5s43.167 -38.334 54.5 -53.001l16 -23l-246 -246c-4 6.66699 -10.333 15.167 -19 25.5
s-28.334 24.166 -59.001 41.499s-62.667 26 -96 26c-50.667 0 -92.334 -15.833 -125.001 -47.5s-49 -70.667 -49 -117s16.5 -85.166 49.5 -116.499s74.5 -47 124.5 -47c32.667 0 63.834 7.83301 93.501 23.5s50.5 31.167 62.5 46.5l18 22l246 -246
c-4 -5.33301 -9.66699 -12.833 -17 -22.5s-24.666 -27 -51.999 -52s-57.166 -46.833 -89.499 -65.5s-74.666 -35.834 -126.999 -51.501s-107.166 -23.5 -164.499 -23.5c-161.333 0 -297.333 52.333 -408 157s-166 230 -166 376zM419.996 1126l184 349h430l-256 -349h-358z
" />
    <glyph glyph-name="Ccircumflex" unicode="&#x108;" horiz-adv-x="1540" 
d="M532 716.5c0 -98.333 34.166 -180.835 102.499 -247.502s153.833 -100 256.5 -100c39.333 0 78.5 5.33301 117.5 16s71.833 24.334 98.5 41.001s50.167 33.167 70.5 49.5s36.166 29.833 47.499 40.5l14 16l270 -286c-5.33301 -8 -13.5 -18.5 -24.5 -31.5
s-36.167 -36 -75.5 -69s-81.166 -62.167 -125.499 -87.5s-103.166 -48.166 -176.499 -68.499s-148.666 -30.5 -225.999 -30.5c-228 0 -419.833 74.5 -575.5 223.5s-233.5 327.167 -233.5 534.5s77.833 385.5 233.5 534.5s347.5 223.5 575.5 223.5c78 0 152.667 -10 224 -30
s130.333 -44 177 -72s87.667 -56 123 -84s61.333 -52 78 -72l22 -29l-276 -287c-4 4 -9.5 9.83301 -16.5 17.5s-21.667 21 -44 40s-45.833 35.667 -70.5 50s-55.834 27.333 -93.501 39s-75.5 17.5 -113.5 17.5c-102.667 0 -188.167 -33.5 -256.5 -100.5
s-102.5 -149.667 -102.5 -248zM941.999 1587l-92 133l-92 -133h-369l287 348h348l287 -348h-369z" />
    <glyph glyph-name="ccircumflex" unicode="&#x109;" horiz-adv-x="1116" 
d="M51 502c0 146 55.3291 271.169 165.996 375.502s246.667 156.5 408 156.5c57.333 0 111.833 -7.5 163.5 -22.5s94.334 -33 128.001 -54s63 -41.833 88 -62.5s43.167 -38.334 54.5 -53.001l16 -23l-246 -246c-4 6.66699 -10.333 15.167 -19 25.5
s-28.334 24.166 -59.001 41.499s-62.667 26 -96 26c-50.667 0 -92.334 -15.833 -125.001 -47.5s-49 -70.667 -49 -117s16.5 -85.166 49.5 -116.499s74.5 -47 124.5 -47c32.667 0 63.834 7.83301 93.501 23.5s50.5 31.167 62.5 46.5l18 22l246 -246
c-4 -5.33301 -9.66699 -12.833 -17 -22.5s-24.666 -27 -51.999 -52s-57.166 -46.833 -89.499 -65.5s-74.666 -35.834 -126.999 -51.501s-107.166 -23.5 -164.499 -23.5c-161.333 0 -297.333 52.333 -408 157s-166 230 -166 376zM695.996 1126l-92 134l-92 -134h-369l287 349
h348l287 -349h-369z" />
    <glyph glyph-name="Ccaron" unicode="&#x10c;" horiz-adv-x="1540" 
d="M532 716.5c0 -98.333 34.166 -180.835 102.499 -247.502s153.833 -100 256.5 -100c39.333 0 78.5 5.33301 117.5 16s71.833 24.334 98.5 41.001s50.167 33.167 70.5 49.5s36.166 29.833 47.499 40.5l14 16l270 -286c-5.33301 -8 -13.5 -18.5 -24.5 -31.5
s-36.167 -36 -75.5 -69s-81.166 -62.167 -125.499 -87.5s-103.166 -48.166 -176.499 -68.499s-148.666 -30.5 -225.999 -30.5c-228 0 -419.833 74.5 -575.5 223.5s-233.5 327.167 -233.5 534.5s77.833 385.5 233.5 534.5s347.5 223.5 575.5 223.5c78 0 152.667 -10 224 -30
s130.333 -44 177 -72s87.667 -56 123 -84s61.333 -52 78 -72l22 -29l-276 -287c-4 4 -9.5 9.83301 -16.5 17.5s-21.667 21 -44 40s-45.833 35.667 -70.5 50s-55.834 27.333 -93.501 39s-75.5 17.5 -113.5 17.5c-102.667 0 -188.167 -33.5 -256.5 -100.5
s-102.5 -149.667 -102.5 -248zM849.999 1802l92 133h369l-287 -348h-348l-287 348h369z" />
    <glyph glyph-name="ccaron" unicode="&#x10d;" horiz-adv-x="1116" 
d="M51 502c0 146 55.3291 271.169 165.996 375.502s246.667 156.5 408 156.5c57.333 0 111.833 -7.5 163.5 -22.5s94.334 -33 128.001 -54s63 -41.833 88 -62.5s43.167 -38.334 54.5 -53.001l16 -23l-246 -246c-4 6.66699 -10.333 15.167 -19 25.5
s-28.334 24.166 -59.001 41.499s-62.667 26 -96 26c-50.667 0 -92.334 -15.833 -125.001 -47.5s-49 -70.667 -49 -117s16.5 -85.166 49.5 -116.499s74.5 -47 124.5 -47c32.667 0 63.834 7.83301 93.501 23.5s50.5 31.167 62.5 46.5l18 22l246 -246
c-4 -5.33301 -9.66699 -12.833 -17 -22.5s-24.666 -27 -51.999 -52s-57.166 -46.833 -89.499 -65.5s-74.666 -35.834 -126.999 -51.501s-107.166 -23.5 -164.499 -23.5c-161.333 0 -297.333 52.333 -408 157s-166 230 -166 376zM603.996 1341l92 134h369l-287 -349h-348
l-287 349h369z" />
    <glyph glyph-name="Dcaron" unicode="&#x10e;" horiz-adv-x="1576" 
d="M154 1434h573c222.667 0 408 -70 556 -210s222 -309 222 -507s-74 -367 -222 -507s-333.333 -210 -556 -210h-573v1434zM727 1024h-113v-614h113c91.333 0 167 29.333 227 88s90 131.667 90 219s-30 160.333 -90 219s-135.667 88 -227 88zM782 1802l92 133h369l-287 -348
h-348l-286 348h368z" />
    <glyph glyph-name="dcaron" unicode="&#x10f;" horiz-adv-x="1525" 
d="M778 501.5c0 46.333 -13.999 83.5 -41.999 111.5s-65 42 -111 42c-40.667 0 -74.834 -14.333 -102.501 -43s-41.5 -65.5 -41.5 -110.5s13.667 -81.833 41 -110.5s61.666 -43 102.999 -43c46.667 0 83.834 14 111.501 42s41.5 65.167 41.5 111.5zM778.001 881
l-0.000976562 552.996h410v-1434h-410v123c-2.66699 -4 -6 -9.16699 -10 -15.5s-14.167 -17.666 -30.5 -33.999s-34.5 -31 -54.5 -44s-46 -24.5 -78 -34.5s-66.333 -15 -103 -15c-121.333 0 -225.166 49 -311.499 147s-129.5 223 -129.5 375
c0 152.667 43 277.834 129 375.501s190 146.5 312 146.5c36.667 0 71 -4.83301 103 -14.5s58.333 -21.667 79 -36s38.5 -28.666 53.5 -42.999s25.833 -26.166 32.5 -35.499zM1219 1085l112 349h389l-164 -349h-337z" />
    <glyph glyph-name="Dcroat" unicode="&#x110;" horiz-adv-x="1607" 
d="M184 1434h574c222.667 0 408 -70 556 -210s222 -309 222 -507s-74 -367 -222 -507s-333.333 -210 -556 -210h-574v553h-143v328h143v553zM758 1024h-113v-143h195v-328h-195v-143h113c91.333 0 167 29.333 227 88s90 131.667 90 219s-30 160.333 -90 219
s-135.667 88 -227 88z" />
    <glyph glyph-name="dcroat" unicode="&#x111;" horiz-adv-x="1320" 
d="M553 963l0.00195312 347.998h195v123h409v-123h154v-348h-154v-963h-409v113c-6.66699 -9.33301 -16.334 -21.666 -29.001 -36.999s-42.5 -35.166 -89.5 -59.499s-98.5 -36.5 -154.5 -36.5c-116 0 -217.333 45.667 -304 137s-130 202.5 -130 333.5s43 242.333 129 334
s186.333 137.5 301 137.5c36.667 0 71.167 -4.5 103.5 -13.5s58.666 -20 78.999 -33s38 -26.333 53 -40s25.167 -24.5 30.5 -32.5l11 -15v175h-195zM604.502 306.998c41 0 75.167 13.667 102.5 41s41 61.5 41 102.5s-13.667 75.167 -41 102.5s-61.5 41 -102.5 41
s-75.167 -13.667 -102.5 -41s-41 -61.5 -41 -102.5s13.667 -75.167 41 -102.5s61.5 -41 102.5 -41z" />
    <glyph glyph-name="Emacron" unicode="&#x112;" horiz-adv-x="1392" 
d="M614 379h697v-379h-1157v1434h1136v-379h-676v-154h512v-348h-512v-174zM1075 1935v-307h-696v307h696z" />
    <glyph glyph-name="emacron" unicode="&#x113;" horiz-adv-x="1208" 
d="M1126 410h-644.999c12 -30 35.167 -56.333 69.5 -79s79.5 -34 135.5 -34c36.667 0 71.167 5.83301 103.5 17.5s55.833 23.5 70.5 35.5l21 19l163 -256c-12 -10.667 -29.333 -24 -52 -40s-70.5 -37.333 -143.5 -64s-147.5 -40 -223.5 -40
c-161.333 0 -297.333 52.333 -408 157s-166 230 -166 376s53.333 271.167 160 375.5s237.667 156.5 393 156.5c151.333 0 279.666 -50.5 384.999 -151.5s158 -221.167 158 -360.5c0 -22 -1.66699 -42.167 -5 -60.5s-7.33301 -31.5 -12 -39.5zM604.001 727
c-30 0 -57 -10.833 -81 -32.5s-41.333 -48.5 -52 -80.5h266c-10.667 31.333 -28 58 -52 80s-51 33 -81 33zM952.001 1464v-307h-696v307h696z" />
    <glyph glyph-name="Edotaccent" unicode="&#x116;" horiz-adv-x="1392" 
d="M614 379h697v-379h-1157v1434h1136v-379h-676v-154h512v-348h-512v-174zM973 1761c0 -57.333 -21.167 -105.833 -63.5 -145.5s-96.333 -59.5 -162 -59.5s-119.667 19.833 -162 59.5s-63.5 88.167 -63.5 145.5s21.167 105.833 63.5 145.5s96.333 59.5 162 59.5
s119.667 -19.833 162 -59.5s63.5 -88.167 63.5 -145.5z" />
    <glyph glyph-name="edotaccent" unicode="&#x117;" horiz-adv-x="1208" 
d="M1126 410h-644.999c12 -30 35.167 -56.333 69.5 -79s79.5 -34 135.5 -34c36.667 0 71.167 5.83301 103.5 17.5s55.833 23.5 70.5 35.5l21 19l163 -256c-12 -10.667 -29.333 -24 -52 -40s-70.5 -37.333 -143.5 -64s-147.5 -40 -223.5 -40
c-161.333 0 -297.333 52.333 -408 157s-166 230 -166 376s53.333 271.167 160 375.5s237.667 156.5 393 156.5c151.333 0 279.666 -50.5 384.999 -151.5s158 -221.167 158 -360.5c0 -22 -1.66699 -42.167 -5 -60.5s-7.33301 -31.5 -12 -39.5zM604.001 727
c-30 0 -57 -10.833 -81 -32.5s-41.333 -48.5 -52 -80.5h266c-10.667 31.333 -28 58 -52 80s-51 33 -81 33zM829.001 1321c0 -57.333 -21.167 -105.833 -63.5 -145.5s-96.166 -59.5 -161.499 -59.5s-119.166 19.833 -161.499 59.5s-63.5 88.167 -63.5 145.5
s21.167 105.833 63.5 145.5s96.166 59.5 161.499 59.5s119.166 -19.833 161.499 -59.5s63.5 -88.167 63.5 -145.5z" />
    <glyph glyph-name="Eogonek" unicode="&#x118;" horiz-adv-x="1392" 
d="M1147 0l-993.001 0.000976562v1434h1136v-379h-676v-154h512v-348h-512v-174h697v-379c-34 -68 -51 -136.333 -51 -205c0 -54.667 27 -82 81 -82c15.333 0 30.833 2.83301 46.5 8.5s26.834 11.167 33.501 16.5l13 6v-215c-48 -27.333 -113 -41 -195 -41
c-75.333 0 -138.5 24.167 -189.5 72.5s-76.5 106.166 -76.5 173.499c0 48 14.667 94.167 44 138.5s58.333 76.5 87 96.5z" />
    <glyph glyph-name="eogonek" unicode="&#x119;" horiz-adv-x="1208" 
d="M1126 410l-645 0.000976562c12 -30 35.167 -56.333 69.5 -79s79.5 -34 135.5 -34c36.667 0 71.167 5.83301 103.5 17.5s55.833 23.5 70.5 35.5l21 19l163 -256c-9.33301 -8 -22.5 -18.333 -39.5 -31s-52.833 -31.167 -107.5 -55.5s-111.334 -40.833 -170.001 -49.5
c-27.333 -66.667 -41 -127.334 -41 -182.001s27.333 -82 82 -82c15.333 0 30.833 2.83301 46.5 8.5s26.834 11.167 33.501 16.5l12 6v-215c-48 -27.333 -112.667 -41 -194 -41c-75.333 0 -138.666 24.167 -189.999 72.5s-77 106.166 -77 173.499
c0 90 46.667 170.333 140 241c-142 19.333 -258.833 78.833 -350.5 178.5s-137.5 215.834 -137.5 348.501c0 146 53.333 271.167 160 375.5s237.667 156.5 393 156.5c151.333 0 279.666 -50.5 384.999 -151.5s158 -221.167 158 -360.5c0 -22 -1.66699 -42.167 -5 -60.5
s-7.33301 -31.5 -12 -39.5zM604 727.001c-30 0 -57 -10.833 -81 -32.5s-41.333 -48.5 -52 -80.5h266c-10.667 31.333 -28 58 -52 80s-51 33 -81 33z" />
    <glyph glyph-name="Ecaron" unicode="&#x11a;" horiz-adv-x="1392" 
d="M614 379h697v-379h-1157v1434h1136v-379h-676v-154h512v-348h-512v-174zM727 1802l92 133h369l-287 -348h-348l-287 348h369z" />
    <glyph glyph-name="ecaron" unicode="&#x11b;" horiz-adv-x="1208" 
d="M1126 410h-644.999c12 -30 35.167 -56.333 69.5 -79s79.5 -34 135.5 -34c36.667 0 71.167 5.83301 103.5 17.5s55.833 23.5 70.5 35.5l21 19l163 -256c-12 -10.667 -29.333 -24 -52 -40s-70.5 -37.333 -143.5 -64s-147.5 -40 -223.5 -40
c-161.333 0 -297.333 52.333 -408 157s-166 230 -166 376s53.333 271.167 160 375.5s237.667 156.5 393 156.5c151.333 0 279.666 -50.5 384.999 -151.5s158 -221.167 158 -360.5c0 -22 -1.66699 -42.167 -5 -60.5s-7.33301 -31.5 -12 -39.5zM604.001 727
c-30 0 -57 -10.833 -81 -32.5s-41.333 -48.5 -52 -80.5h266c-10.667 31.333 -28 58 -52 80s-51 33 -81 33zM594.001 1341l92 134h369l-287 -349h-348l-287 349h369z" />
    <glyph glyph-name="Gbreve" unicode="&#x11e;" horiz-adv-x="1658" 
d="M881 -41c-228 0 -419.832 74.5 -575.499 223.5s-233.5 327.167 -233.5 534.5s77.833 385.5 233.5 534.5s347.5 223.5 575.5 223.5c78 0 152.667 -10 224 -30s130.333 -44 177 -72s87.667 -56 123 -84s61.333 -52 78 -72l22 -29l-276 -287c-4 4 -9.5 9.83301 -16.5 17.5
s-21.667 21 -44 40s-45.833 35.667 -70.5 50s-55.834 27.333 -93.501 39s-75.5 17.5 -113.5 17.5c-102.667 0 -188.167 -33.5 -256.5 -100.5s-102.5 -149.5 -102.5 -247.5c0 -96.667 33.833 -178.834 101.5 -246.501s150.167 -101.5 247.5 -101.5c39.333 0 75 5 107 15
s55 20 69 30l18 16v123h-205v256h666v-563c-6.66699 -8 -16.167 -18.5 -28.5 -31.5s-39.333 -36 -81 -69s-86 -62.167 -133 -87.5s-108 -48.166 -183 -68.499s-151.5 -30.5 -229.5 -30.5zM850.001 1587c-105.333 0 -193.166 33.5 -263.499 100.5s-105.5 149.5 -105.5 247.5
h287c0 -61.333 27.333 -92 82 -92s82 30.667 82 92h287c0 -98 -34.833 -180.5 -104.5 -247.5s-157.834 -100.5 -264.501 -100.5z" />
    <glyph glyph-name="gbreve" unicode="&#x11f;" horiz-adv-x="1290" 
d="M768 133l-0.000976562 62.002l-11 -16.5c-4.66699 -7 -16 -19.333 -34 -37s-37.167 -33.334 -57.5 -47.001s-46.833 -26 -79.5 -37s-67.667 -16.5 -105 -16.5c-110.667 0 -210 48.167 -298 144.5s-132 212 -132 347s44.333 250.667 133 347s189 144.5 301 144.5
c56 0 107.667 -12 155 -36s80.333 -47.333 99 -70l29 -37v123h410v-871c0 -161.333 -56.667 -295.5 -170 -402.5s-260.333 -160.5 -441 -160.5c-61.333 0 -120.333 7.5 -177 22.5s-102.667 32.667 -138 53s-66.666 41.166 -93.999 62.499s-47.333 39.333 -60 54l-16 23
l225 225c5.33301 -6.66699 13.5 -15.167 24.5 -25.5s36 -24 75 -41s80.833 -25.5 125.5 -25.5c70.667 0 127.667 20.167 171 60.5s65 91.833 65 154.5zM480.999 532.502c0 -41 13.667 -75.167 41 -102.5s61.5 -41 102.5 -41s75.167 13.667 102.5 41s41 61.5 41 102.5
s-13.667 75.167 -41 102.5s-61.5 41 -102.5 41s-75.167 -13.667 -102.5 -41s-41 -61.5 -41 -102.5zM638.999 1130c-105.333 0 -193.166 33.499 -263.499 100.499s-105.5 149.833 -105.5 248.5h287c0 -61.333 27.333 -92.166 82 -92.499s82 30.5 82 92.5h287
c0 -98 -34.833 -180.667 -104.5 -248s-157.834 -101 -264.501 -101z" />
    <glyph glyph-name="uni0122" unicode="&#x122;" horiz-adv-x="1658" 
d="M881 -41c-228 0 -419.832 74.5 -575.499 223.5s-233.5 327.167 -233.5 534.5s77.833 385.5 233.5 534.5s347.5 223.5 575.5 223.5c78 0 152.667 -10 224 -30s130.333 -44 177 -72s87.667 -56 123 -84s61.333 -52 78 -72l22 -29l-276 -287c-4 4 -9.5 9.83301 -16.5 17.5
s-21.667 21 -44 40s-45.833 35.667 -70.5 50s-55.834 27.333 -93.501 39s-75.5 17.5 -113.5 17.5c-102.667 0 -188.167 -33.5 -256.5 -100.5s-102.5 -149.5 -102.5 -247.5c0 -96.667 33.833 -178.834 101.5 -246.501s150.167 -101.5 247.5 -101.5c39.333 0 75 5 107 15
s55 20 69 30l18 16v123h-205v256h666v-563c-6.66699 -8 -16.167 -18.5 -28.5 -31.5s-39.333 -36 -81 -69s-86 -62.167 -133 -87.5s-108 -48.166 -183 -68.499s-151.5 -30.5 -229.5 -30.5zM563.001 -512l113 348h389l-164 -348h-338z" />
    <glyph glyph-name="uni0123" unicode="&#x123;" horiz-adv-x="1290" 
d="M768 133l-0.000976562 62.002l-11 -16.5c-4.66699 -7 -16 -19.333 -34 -37s-37.167 -33.334 -57.5 -47.001s-46.833 -26 -79.5 -37s-67.667 -16.5 -105 -16.5c-110.667 0 -210 48.167 -298 144.5s-132 212 -132 347s44.333 250.667 133 347s189 144.5 301 144.5
c56 0 107.667 -12 155 -36s80.333 -47.333 99 -70l29 -37v123h410v-871c0 -161.333 -56.667 -295.5 -170 -402.5s-260.333 -160.5 -441 -160.5c-61.333 0 -120.333 7.5 -177 22.5s-102.667 32.667 -138 53s-66.666 41.166 -93.999 62.499s-47.333 39.333 -60 54l-16 23
l225 225c5.33301 -6.66699 13.5 -15.167 24.5 -25.5s36 -24 75 -41s80.833 -25.5 125.5 -25.5c70.667 0 127.667 20.167 171 60.5s65 91.833 65 154.5zM480.999 532.502c0 -41 13.667 -75.167 41 -102.5s61.5 -41 102.5 -41s75.167 13.667 102.5 41s41 61.5 41 102.5
s-13.667 75.167 -41 102.5s-61.5 41 -102.5 41s-75.167 -13.667 -102.5 -41s-41 -61.5 -41 -102.5zM931.999 1475l-113 -349h-389l164 349h338z" />
    <glyph glyph-name="Imacron" unicode="&#x12a;" horiz-adv-x="768" 
d="M154 0v1434h460v-1434h-460zM727 1933v-307h-696v307h696z" />
    <glyph glyph-name="imacron" unicode="&#x12b;" horiz-adv-x="655" 
d="M666 1464v-307h-697v307h697zM522 1004v-1004h-409v1004h409z" />
    <glyph glyph-name="Iogonek" unicode="&#x12e;" horiz-adv-x="768" 
d="M154 0v1434h460v-1434h-297c-34 -68 -51 -136.333 -51 -205c0 -54.667 27.333 -82 82 -82c15.333 0 30.833 2.83301 46.5 8.5s27.5 11.167 35.5 16.5l10 6v-215c-48 -27.333 -112.667 -41 -194 -41c-75.333 0 -138.5 24.167 -189.5 72.5s-76.5 106.166 -76.5 173.499
c0 30 6 59.667 18 89s26.333 54.166 43 74.499s33.5 38.333 50.5 54s31.5 27.834 43.5 36.501z" />
    <glyph glyph-name="iogonek" unicode="&#x12f;" horiz-adv-x="655" 
d="M113 0v1004h409v-1004h-246c-34 -68 -51 -136.333 -51 -205c0 -54.667 27.333 -82 82 -82c15.333 0 30.833 2.83301 46.5 8.5s27.5 11.167 35.5 16.5l10 6v-215c-48 -27.333 -112.667 -41 -194 -41c-75.333 0 -138.5 24.167 -189.5 72.5s-76.5 106.166 -76.5 173.499
c0 30 6 59.667 18 89s26.333 54.166 43 74.499s33.5 38.333 50.5 54s31.5 27.834 43.5 36.501zM543 1311c0 -57.333 -21.167 -105.833 -63.5 -145.5s-96.333 -59.5 -162 -59.5s-119.667 19.833 -162 59.5s-63.5 88.167 -63.5 145.5s21.167 105.833 63.5 145.5
s96.333 59.5 162 59.5s119.667 -19.833 162 -59.5s63.5 -88.167 63.5 -145.5z" />
    <glyph glyph-name="Idotaccent" unicode="&#x130;" horiz-adv-x="768" 
d="M154 0v1434h460v-1434h-460zM614 1761c0 -57.333 -21.167 -105.833 -63.5 -145.5s-96.166 -59.5 -161.499 -59.5s-119.166 19.833 -161.499 59.5s-63.5 88.167 -63.5 145.5s21.167 105.833 63.5 145.5s96.166 59.5 161.499 59.5s119.166 -19.833 161.499 -59.5
s63.5 -88.167 63.5 -145.5z" />
    <glyph glyph-name="dotlessi" unicode="&#x131;" horiz-adv-x="655" 
d="M522 1004v-1004h-409v1004h409z" />
    <glyph glyph-name="uni0136" unicode="&#x136;" horiz-adv-x="1536" 
d="M614 1434v-492l402 492h510l-492 -594l533 -840h-512l-318 502l-123 -154v-348h-460v1434h460zM532 -512l113 348h389l-164 -348h-338z" />
    <glyph glyph-name="uni0137" unicode="&#x137;" horiz-adv-x="1218" 
d="M1208 1004l-346 -431l357 -573h-431l-194 338l-72 -82v-256h-409v1434h409v-727l236 297h450zM348 -512l113 348h389l-164 -348h-338z" />
    <glyph glyph-name="Lacute" unicode="&#x139;" horiz-adv-x="1259" 
d="M1219 0h-1065v1434h460v-1014h605v-420zM215 1587l184 348h430l-256 -348h-358z" />
    <glyph glyph-name="lacute" unicode="&#x13a;" horiz-adv-x="655" 
d="M522 1434v-1434h-409v1434h409zM154 1587l184 348h430l-256 -348h-358z" />
    <glyph glyph-name="uni013B" unicode="&#x13b;" horiz-adv-x="1259" 
d="M1219 0h-1065v1434h460v-1014h605v-420zM410 -512l112 348h389l-163 -348h-338z" />
    <glyph glyph-name="uni013C" unicode="&#x13c;" horiz-adv-x="655" 
d="M522 1434v-1434h-409v1434h409zM10 -512l113 348h389l-164 -348h-338z" />
    <glyph glyph-name="Lcaron" unicode="&#x13d;" horiz-adv-x="1259" 
d="M1219 0h-1065v1434h460v-1014h605v-420zM686 1085l113 349h389l-164 -349h-338z" />
    <glyph glyph-name="lcaron" unicode="&#x13e;" horiz-adv-x="860" 
d="M522 1434v-1434h-409v1434h409zM563 1085l113 349h389l-164 -349h-338z" />
    <glyph glyph-name="Lslash" unicode="&#x141;" horiz-adv-x="1361" 
d="M1321 0h-1065v389l-113 -61l-194 348l307 174v584h461v-369l112 61l195 -348l-307 -174v-184h604v-420z" />
    <glyph glyph-name="lslash" unicode="&#x142;" horiz-adv-x="849" 
d="M614 1434v-379l113 71l174 -317l-287 -174v-635h-409v399l-103 -61l-174 307l277 164v625h409z" />
    <glyph glyph-name="Nacute" unicode="&#x143;" horiz-adv-x="1699" 
d="M1085 1434h461v-1434h-389l-543 696v-696h-460v1434h389l542 -697v697zM655 1587l185 348h430l-256 -348h-359z" />
    <glyph glyph-name="nacute" unicode="&#x144;" horiz-adv-x="1269" 
d="M512 1004l-0.000976562 -123.001c6.66699 10.667 16.834 23.834 30.501 39.501s44.5 36.834 92.5 63.501s99 40 153 40c105.333 0 191.5 -37.5 258.5 -112.5s100.5 -177.5 100.5 -307.5v-604h-410v512c0 35.333 -10.5 64.666 -31.5 87.999s-46.5 35 -76.5 35
s-57 -14.667 -81 -44s-36 -66 -36 -110v-481h-410v1004h410zM439.999 1126l185 349h430l-256 -349h-359z" />
    <glyph glyph-name="uni0145" unicode="&#x145;" horiz-adv-x="1699" 
d="M1085 1434h461v-1434h-389l-543 696v-696h-460v1434h389l542 -697v697zM573 -512l113 348h389l-164 -348h-338z" />
    <glyph glyph-name="uni0146" unicode="&#x146;" horiz-adv-x="1269" 
d="M512 1004l-0.000976562 -123.001c6.66699 10.667 16.834 23.834 30.501 39.501s44.5 36.834 92.5 63.501s99 40 153 40c105.333 0 191.5 -37.5 258.5 -112.5s100.5 -177.5 100.5 -307.5v-604h-410v512c0 35.333 -10.5 64.666 -31.5 87.999s-46.5 35 -76.5 35
s-57 -14.667 -81 -44s-36 -66 -36 -110v-481h-410v1004h410zM316.999 -512.001l113 348h389l-164 -348h-338z" />
    <glyph glyph-name="Ncaron" unicode="&#x147;" horiz-adv-x="1699" 
d="M1085 1434h461v-1434h-389l-543 696v-696h-460v1434h389l542 -697v697zM840 1802l92 133h368l-286 -348h-348l-287 348h369z" />
    <glyph glyph-name="ncaron" unicode="&#x148;" horiz-adv-x="1269" 
d="M512 1004l-0.000976562 -123.001c6.66699 10.667 16.834 23.834 30.501 39.501s44.5 36.834 92.5 63.501s99 40 153 40c105.333 0 191.5 -37.5 258.5 -112.5s100.5 -177.5 100.5 -307.5v-604h-410v512c0 35.333 -10.5 64.666 -31.5 87.999s-46.5 35 -76.5 35
s-57 -14.667 -81 -44s-36 -66 -36 -110v-481h-410v1004h410zM613.999 1341l93 134h368l-287 -349h-348l-286 349h368z" />
    <glyph glyph-name="Omacron" unicode="&#x14c;" horiz-adv-x="1761" 
d="M532 716.5c0 -97 33.833 -179.167 101.5 -246.5s150 -101 247 -101s179.333 33.667 247 101s101.5 149.5 101.5 246.5s-33.833 179.333 -101.5 247s-150 101.5 -247 101.5s-179.333 -33.833 -247 -101.5s-101.5 -150 -101.5 -247zM1690 717
c0 -207.333 -77.833 -385.5 -233.5 -534.5s-347.5 -223.5 -575.5 -223.5s-419.833 74.5 -575.5 223.5s-233.5 327.167 -233.5 534.5s77.833 385.5 233.5 534.5s347.5 223.5 575.5 223.5s419.833 -74.5 575.5 -223.5s233.5 -327.167 233.5 -534.5zM1229 1935v-307h-697v307
h697z" />
    <glyph glyph-name="omacron" unicode="&#x14d;" horiz-adv-x="1269" 
d="M481 501.5c0 -45 13.667 -81.833 41 -110.5s61.5 -43 102.5 -43s75.167 14.333 102.5 43s41 65.5 41 110.5s-13.667 81.833 -41 110.5s-61.5 43 -102.5 43s-75.167 -14.333 -102.5 -43s-41 -65.5 -41 -110.5zM1198 502c0 -146 -55.333 -271.333 -166 -376
s-246.5 -157 -407.5 -157s-296.833 52.333 -407.5 157s-166 230 -166 376s55.333 271.167 166 375.5s246.5 156.5 407.5 156.5s296.833 -52.167 407.5 -156.5s166 -229.5 166 -375.5zM973 1464v-307h-697v307h697z" />
    <glyph glyph-name="Ohungarumlaut" unicode="&#x150;" horiz-adv-x="1761" 
d="M532 716.5c0 -97 33.833 -179.167 101.5 -246.5s150 -101 247 -101s179.333 33.667 247 101s101.5 149.5 101.5 246.5s-33.833 179.333 -101.5 247s-150 101.5 -247 101.5s-179.333 -33.833 -247 -101.5s-101.5 -150 -101.5 -247zM1690 717
c0 -207.333 -77.833 -385.5 -233.5 -534.5s-347.5 -223.5 -575.5 -223.5s-419.833 74.5 -575.5 223.5s-233.5 327.167 -233.5 534.5s77.833 385.5 233.5 534.5s347.5 223.5 575.5 223.5s419.833 -74.5 575.5 -223.5s233.5 -327.167 233.5 -534.5zM492 1587l194 348h369
l-267 -348h-296zM952 1587l195 348h369l-267 -348h-297z" />
    <glyph glyph-name="ohungarumlaut" unicode="&#x151;" horiz-adv-x="1269" 
d="M481 501.5c0 -45 13.667 -81.833 41 -110.5s61.5 -43 102.5 -43s75.167 14.333 102.5 43s41 65.5 41 110.5s-13.667 81.833 -41 110.5s-61.5 43 -102.5 43s-75.167 -14.333 -102.5 -43s-41 -65.5 -41 -110.5zM1198 502c0 -146 -55.333 -271.333 -166 -376
s-246.5 -157 -407.5 -157s-296.833 52.333 -407.5 157s-166 230 -166 376s55.333 271.167 166 375.5s246.5 156.5 407.5 156.5s296.833 -52.167 407.5 -156.5s166 -229.5 166 -375.5zM236 1126l194 349h369l-267 -349h-296zM696 1126l195 349h369l-267 -349h-297z" />
    <glyph glyph-name="OE" unicode="&#x152;" horiz-adv-x="2088" 
d="M1382 379h625v-379h-1147c-226.667 0 -414.667 70 -564 210s-224 309 -224 507s74.667 367 224 507s337.333 210 564 210h1127v-379h-605v-154h441v-348h-441v-174zM532 717c0 -88.667 31.833 -162 95.5 -220s148.167 -87 253.5 -87h41v614h-41
c-105.333 0 -189.833 -29 -253.5 -87s-95.5 -131.333 -95.5 -220z" />
    <glyph glyph-name="oe" unicode="&#x153;" horiz-adv-x="1914" 
d="M1831 410h-643.001c12 -30 35.167 -56.333 69.5 -79s79.5 -34 135.5 -34c36.667 0 71 5.83301 103 17.5s55 23.5 69 35.5l22 19l164 -256c-12 -10.667 -29.333 -24 -52 -40s-70.5 -37.333 -143.5 -64s-147.833 -40 -224.5 -40c-69.333 0 -134.833 10.333 -196.5 31
s-105.167 41 -130.5 61l-41 31c-9.33301 -9.33301 -23.666 -20.833 -42.999 -34.5s-59 -31.834 -119 -54.501s-122.333 -34 -187 -34c-157.333 0 -290.5 52.667 -399.5 158s-163.5 230.333 -163.5 375s54.667 269.5 164 374.5s242.333 157.5 399 157.5
c64 0 125.167 -9.16699 183.5 -27.5s100.5 -37.166 126.5 -56.499l39 -28c9.33301 8 23.5 18.167 42.5 30.5s58.5 29 118.5 50s121.667 31.5 185 31.5c151.333 0 279.833 -50.5 385.5 -151.5s158.5 -221.167 158.5 -360.5c0 -22 -1.66699 -42.167 -5 -60.5
s-7 -31.5 -11 -39.5zM614.499 348c37 0 68.5 14.333 94.5 43s39 65.5 39 110.5s-13 81.833 -39 110.5s-57.5 43 -94.5 43s-68.5 -14.333 -94.5 -43s-39 -65.5 -39 -110.5s13 -81.833 39 -110.5s57.5 -43 94.5 -43zM1311 727c-30 0 -57 -10.833 -81 -32.5
s-41.333 -48.5 -52 -80.5h266c-10.667 31.333 -28 58 -52 80s-51 33 -81 33z" />
    <glyph glyph-name="Racute" unicode="&#x154;" horiz-adv-x="1495" 
d="M154 0l0.00195312 1434h706c161.333 0 292.166 -48.833 392.499 -146.5s150.5 -219.5 150.5 -365.5c0 -57.333 -7.83301 -111 -23.5 -161s-34.5 -90.333 -56.5 -121s-43.833 -57 -65.5 -79s-40.834 -37 -57.501 -45l-22 -14l276 -502h-481l-215 410h-144v-410h-460z
M942.002 921.5c0 31.667 -9.83301 56.667 -29.5 75s-47.5 27.5 -83.5 27.5h-215v-205h215c35.333 0 63 9.16699 83 27.5s30 43.333 30 75zM563.002 1587l185 348h430l-256 -348h-359z" />
    <glyph glyph-name="racute" unicode="&#x155;" horiz-adv-x="870" 
d="M819 1018l0.000976562 -424.001c-27.333 13.333 -61.333 20 -102 20c-62.667 0 -112.5 -19.667 -149.5 -59s-55.5 -94.666 -55.5 -165.999v-389h-410v1004h410v-123l10 15c4 6 14.333 16.833 31 32.5s34.167 29.667 52.5 42s43.166 23.333 74.499 33s64 14.5 98 14.5h41z
M266.001 1126l185 349h430l-256 -349h-359z" />
    <glyph glyph-name="uni0156" unicode="&#x156;" horiz-adv-x="1495" 
d="M154 0l0.00195312 1434h706c161.333 0 292.166 -48.833 392.499 -146.5s150.5 -219.5 150.5 -365.5c0 -57.333 -7.83301 -111 -23.5 -161s-34.5 -90.333 -56.5 -121s-43.833 -57 -65.5 -79s-40.834 -37 -57.501 -45l-22 -14l276 -502h-481l-215 410h-144v-410h-460z
M942.002 921.5c0 31.667 -9.83301 56.667 -29.5 75s-47.5 27.5 -83.5 27.5h-215v-205h215c35.333 0 63 9.16699 83 27.5s30 43.333 30 75zM481.002 -512l113 348h389l-164 -348h-338z" />
    <glyph glyph-name="uni0157" unicode="&#x157;" horiz-adv-x="870" 
d="M819 1018l0.000976562 -424.001c-27.333 13.333 -61.333 20 -102 20c-62.667 0 -112.5 -19.667 -149.5 -59s-55.5 -94.666 -55.5 -165.999v-389h-410v1004h410v-123l10 15c4 6 14.333 16.833 31 32.5s34.167 29.667 52.5 42s43.166 23.333 74.499 33s64 14.5 98 14.5h41z
M0.000976562 -512.001l113 348h389l-164 -348h-338z" />
    <glyph glyph-name="Rcaron" unicode="&#x158;" horiz-adv-x="1495" 
d="M154 0l0.00195312 1434h706c161.333 0 292.166 -48.833 392.499 -146.5s150.5 -219.5 150.5 -365.5c0 -57.333 -7.83301 -111 -23.5 -161s-34.5 -90.333 -56.5 -121s-43.833 -57 -65.5 -79s-40.834 -37 -57.501 -45l-22 -14l276 -502h-481l-215 410h-144v-410h-460z
M942.002 921.5c0 31.667 -9.83301 56.667 -29.5 75s-47.5 27.5 -83.5 27.5h-215v-205h215c35.333 0 63 9.16699 83 27.5s30 43.333 30 75zM737.002 1802l92 133h369l-287 -348h-348l-287 348h369z" />
    <glyph glyph-name="rcaron" unicode="&#x159;" horiz-adv-x="870" 
d="M819 1018l0.000976562 -424.001c-27.333 13.333 -61.333 20 -102 20c-62.667 0 -112.5 -19.667 -149.5 -59s-55.5 -94.666 -55.5 -165.999v-389h-410v1004h410v-123l10 15c4 6 14.333 16.833 31 32.5s34.167 29.667 52.5 42s43.166 23.333 74.499 33s64 14.5 98 14.5h41z
M451.001 1341l92 134h368l-286 -349h-349l-286 349h368z" />
    <glyph glyph-name="Sacute" unicode="&#x15a;" 
d="M707 451c0 19.333 -11.665 36.001 -34.998 50.001s-53.166 27.167 -89.499 39.5s-77 25.666 -122 39.999s-89.667 33.166 -134 56.499s-84.5 50.333 -120.5 81s-65.667 72 -89 124s-35 110.667 -35 176c0 122.667 52.5 229.5 157.5 320.5s243.5 136.5 415.5 136.5
c68 0 133.167 -7.16699 195.5 -21.5s113 -31.5 152 -51.5s73.167 -39.833 102.5 -59.5s50 -37.167 62 -52.5l21 -20l-266 -277c-5.33301 8 -13.833 17.5 -25.5 28.5s-35.334 26.167 -71.001 45.5s-71.834 29 -108.501 29c-39.333 0 -69.666 -8.66699 -90.999 -26
s-32 -39.333 -32 -66c0 -22 15.333 -41.5 46 -58.5s69.167 -31 115.5 -42s96.5 -28.167 150.5 -51.5s104.167 -49.666 150.5 -78.999s85 -73 116 -131s46.5 -125.333 46.5 -202c0 -132.667 -53.667 -246 -161 -340s-251.666 -141 -432.999 -141
c-72.667 0 -143.167 8.5 -211.5 25.5s-125.333 37.5 -171 61.5s-85.834 48 -120.501 72s-60.334 44.667 -77.001 62l-25 25l267 266c9.33301 -9.33301 22.166 -21.5 38.499 -36.5s48.833 -34.833 97.5 -59.5s95.5 -37 140.5 -37s80.167 11 105.5 33s38 48.667 38 80z
M461.002 1587l184 348h430l-256 -348h-358z" />
    <glyph glyph-name="sacute" unicode="&#x15b;" horiz-adv-x="1003" 
d="M922 860l-185 -194.003c-34 34 -71.333 51 -112 51c-23.333 0 -42.833 -5.5 -58.5 -16.5s-23.5 -22.5 -23.5 -34.5c0 -13.333 14 -26.333 42 -39s62.167 -26.167 102.5 -40.5s80.5 -31.666 120.5 -51.999s74 -51 102 -92s42 -89.5 42 -145.5
c0 -87.333 -41.667 -163.833 -125 -229.5s-195 -98.5 -335 -98.5c-62.667 0 -122.5 7.16699 -179.5 21.5s-102.833 31.5 -137.5 51.5s-65.334 39.833 -92.001 59.5s-45.334 36.5 -56.001 50.5l-17 22l185 195c5.33301 -6.66699 13.833 -15.167 25.5 -25.5
s33.5 -24.166 65.5 -41.499s63 -26 93 -26c24.667 0 44.5 6.16699 59.5 18.5s22.5 26.833 22.5 43.5c0 13.333 -14 26.166 -42 38.499s-62.167 25.333 -102.5 39s-80.666 30.834 -120.999 51.501s-74.5 51.5 -102.5 92.5s-42 90.167 -42 147.5
c0 84.667 41.667 160.334 125 227.001s192 100 326 100c56 0 108.5 -6.16699 157.5 -18.5s88.833 -27 119.5 -44s57.334 -33.667 80.001 -50s38.667 -30.5 48 -42.5zM297 1126l184 349h430l-256 -349h-358z" />
    <glyph glyph-name="Scedilla" unicode="&#x15e;" 
d="M707 451c0 19.333 -11.6641 36.0029 -34.9971 50.0029s-53.166 27.167 -89.499 39.5s-77 25.666 -122 39.999s-89.667 33.166 -134 56.499s-84.5 50.333 -120.5 81s-65.667 72 -89 124s-35 110.667 -35 176c0 122.667 52.5 229.5 157.5 320.5s243.5 136.5 415.5 136.5
c68 0 133.167 -7.16699 195.5 -21.5s113 -31.5 152 -51.5s73.167 -39.833 102.5 -59.5s50 -37.167 62 -52.5l21 -20l-266 -277c-5.33301 8 -13.833 17.5 -25.5 28.5s-35.334 26.167 -71.001 45.5s-71.834 29 -108.501 29c-39.333 0 -69.666 -8.66699 -90.999 -26
s-32 -39.333 -32 -66c0 -22 15.333 -41.5 46 -58.5s69.167 -31 115.5 -42s96.5 -28.167 150.5 -51.5s104.167 -49.666 150.5 -78.999s85 -73 116 -131s46.5 -125.333 46.5 -202c0 -122.667 -46.5 -229.667 -139.5 -321s-220.167 -143.333 -381.5 -156l-22 -45
c5.33301 0 13.166 -1 23.499 -3s28.5 -7.83301 54.5 -17.5s48.833 -21.334 68.5 -35.001s37.667 -34.5 54 -62.5s24.5 -60.333 24.5 -97c0 -68 -24.833 -124.167 -74.5 -168.5s-116.834 -66.5 -201.501 -66.5c-52 0 -100.833 9.5 -146.5 28.5s-78.834 38.167 -99.501 57.5
l-31 26l92 154c44 -40.667 88.333 -61.334 133 -62.001c40.667 0 61.334 17.333 62.001 52c0 10.667 -4.83301 20 -14.5 28s-21.834 12 -36.501 12l-52 -10l-61 82l57 129c-61.333 6.66699 -120.666 19.334 -177.999 38.001s-105 39.167 -143 61.5
s-71.833 44.166 -101.5 65.499s-51.167 39.333 -64.5 54l-21 21l267 266c9.33301 -9.33301 22.166 -21.5 38.499 -36.5s48.833 -34.833 97.5 -59.5s95.5 -37 140.5 -37s80.167 11 105.5 33s38 48.667 38 80z" />
    <glyph glyph-name="scedilla" unicode="&#x15f;" horiz-adv-x="1003" 
d="M922 860l-185.002 -194.003c-34 34 -71.333 51 -112 51c-23.333 0 -42.833 -5.5 -58.5 -16.5s-23.5 -22.5 -23.5 -34.5c0 -13.333 14 -26.333 42 -39s62.167 -26.167 102.5 -40.5s80.5 -31.666 120.5 -51.999s74 -51 102 -92s42 -89.5 42 -145.5
c0 -80.667 -35.833 -152.667 -107.5 -216s-169.5 -100 -293.5 -110l-29 -53c5.33301 0 13.166 -1 23.499 -3s28.5 -7.83301 54.5 -17.5s48.833 -21.334 68.5 -35.001s37.834 -34.5 54.501 -62.5s25 -60.333 25 -97c0 -68 -25 -124.167 -75 -168.5s-117.333 -66.5 -202 -66.5
c-52 0 -100.833 9.5 -146.5 28.5s-78.834 38.167 -99.501 57.5l-30 26l92 154c44 -40.667 88.333 -61.334 133 -62.001c40.667 0 61 17.333 61 52c0 10.667 -4.66699 20 -14 28s-21.666 12 -36.999 12l-51 -10l-62 82l64 141c-49.333 6.66699 -95.5 18.334 -138.5 35.001
s-78.167 33.834 -105.5 51.501s-50.833 35 -70.5 52s-33.5 31.167 -41.5 42.5l-15 16l185 195c5.33301 -6.66699 13.833 -15.167 25.5 -25.5s33.5 -24.166 65.5 -41.499s63 -26 93 -26c24.667 0 44.5 6.16699 59.5 18.5s22.5 26.833 22.5 43.5
c0 13.333 -14 26.166 -42 38.499s-62.167 25.333 -102.5 39s-80.666 30.834 -120.999 51.501s-74.5 51.5 -102.5 92.5s-42 90.167 -42 147.5c0 84.667 41.667 160.334 125 227.001s192 100 326 100c56 0 108.5 -6.16699 157.5 -18.5s88.833 -27 119.5 -44
s57.334 -33.667 80.001 -50s38.667 -30.5 48 -42.5z" />
    <glyph glyph-name="Scaron" unicode="&#x160;" 
d="M707 451c0 19.333 -11.665 36.001 -34.998 50.001s-53.166 27.167 -89.499 39.5s-77 25.666 -122 39.999s-89.667 33.166 -134 56.499s-84.5 50.333 -120.5 81s-65.667 72 -89 124s-35 110.667 -35 176c0 122.667 52.5 229.5 157.5 320.5s243.5 136.5 415.5 136.5
c68 0 133.167 -7.16699 195.5 -21.5s113 -31.5 152 -51.5s73.167 -39.833 102.5 -59.5s50 -37.167 62 -52.5l21 -20l-266 -277c-5.33301 8 -13.833 17.5 -25.5 28.5s-35.334 26.167 -71.001 45.5s-71.834 29 -108.501 29c-39.333 0 -69.666 -8.66699 -90.999 -26
s-32 -39.333 -32 -66c0 -22 15.333 -41.5 46 -58.5s69.167 -31 115.5 -42s96.5 -28.167 150.5 -51.5s104.167 -49.666 150.5 -78.999s85 -73 116 -131s46.5 -125.333 46.5 -202c0 -132.667 -53.667 -246 -161 -340s-251.666 -141 -432.999 -141
c-72.667 0 -143.167 8.5 -211.5 25.5s-125.333 37.5 -171 61.5s-85.834 48 -120.501 72s-60.334 44.667 -77.001 62l-25 25l267 266c9.33301 -9.33301 22.166 -21.5 38.499 -36.5s48.833 -34.833 97.5 -59.5s95.5 -37 140.5 -37s80.167 11 105.5 33s38 48.667 38 80z
M645.002 1802l92 133h369l-287 -348h-348l-287 348h369z" />
    <glyph glyph-name="scaron" unicode="&#x161;" horiz-adv-x="1003" 
d="M922 860l-185 -194.003c-34 34 -71.333 51 -112 51c-23.333 0 -42.833 -5.5 -58.5 -16.5s-23.5 -22.5 -23.5 -34.5c0 -13.333 14 -26.333 42 -39s62.167 -26.167 102.5 -40.5s80.5 -31.666 120.5 -51.999s74 -51 102 -92s42 -89.5 42 -145.5
c0 -87.333 -41.667 -163.833 -125 -229.5s-195 -98.5 -335 -98.5c-62.667 0 -122.5 7.16699 -179.5 21.5s-102.833 31.5 -137.5 51.5s-65.334 39.833 -92.001 59.5s-45.334 36.5 -56.001 50.5l-17 22l185 195c5.33301 -6.66699 13.833 -15.167 25.5 -25.5
s33.5 -24.166 65.5 -41.499s63 -26 93 -26c24.667 0 44.5 6.16699 59.5 18.5s22.5 26.833 22.5 43.5c0 13.333 -14 26.166 -42 38.499s-62.167 25.333 -102.5 39s-80.666 30.834 -120.999 51.501s-74.5 51.5 -102.5 92.5s-42 90.167 -42 147.5
c0 84.667 41.667 160.334 125 227.001s192 100 326 100c56 0 108.5 -6.16699 157.5 -18.5s88.833 -27 119.5 -44s57.334 -33.667 80.001 -50s38.667 -30.5 48 -42.5zM502 1341l92 134h369l-287 -349h-348l-287 349h369z" />
    <glyph glyph-name="uni0162" unicode="&#x162;" horiz-adv-x="1300" 
d="M41 1434h1219v-420h-379v-1014h-461v1014h-379v420zM338 -512l113 348h389l-164 -348h-338z" />
    <glyph glyph-name="uni0163" unicode="&#x163;" horiz-adv-x="911" 
d="M225 1126l0.000976562 153.999h359v-287h204v-348h-204v-194c0 -30 9.16699 -54.667 27.5 -74s43.166 -29 74.499 -29c18 0 35.5 1.66699 52.5 5s29.5 7.33301 37.5 12l12 4v-349c-61.333 -27.333 -136.333 -40.666 -225 -39.999c-124 0 -219.833 35.833 -287.5 107.5
s-101.5 175.5 -101.5 311.5v246h-143v348h61c35.333 0 66.333 13.333 93 40s40 57.667 40 93zM199.001 -512.001l112 348h389l-163 -348h-338z" />
    <glyph glyph-name="Tcaron" unicode="&#x164;" horiz-adv-x="1300" 
d="M41 1434h1219v-420h-379v-1014h-461v1014h-379v420zM645 1802l92 133h369l-287 -348h-348l-287 348h369z" />
    <glyph glyph-name="tcaron" unicode="&#x165;" horiz-adv-x="983" 
d="M225 1126l0.000976562 153.999h359v-287h204v-348h-204v-194c0 -30 9.16699 -54.667 27.5 -74s43.166 -29 74.499 -29c18 0 35.5 1.66699 52.5 5s29.5 7.33301 37.5 12l12 4v-349c-61.333 -27.333 -136.333 -40.666 -225 -39.999c-124 0 -219.833 35.833 -287.5 107.5
s-101.5 175.5 -101.5 311.5v246h-143v348h61c35.333 0 66.333 13.333 93 40s40 57.667 40 93zM686.001 1085l113 349h389l-164 -349h-338z" />
    <glyph glyph-name="Umacron" unicode="&#x16a;" horiz-adv-x="1617" 
d="M809 369c57.333 0 107.5 22.834 150.5 68.501s64.5 101.167 64.5 166.5v830h461v-830c0 -186 -63.167 -340 -189.5 -462s-288.5 -183 -486.5 -183s-360.167 61.167 -486.5 183.5s-189.5 276.166 -189.5 461.499v830h461v-830c0 -65.333 21.5 -120.833 64.5 -166.5
s93.167 -68.5 150.5 -68.5zM1157 1935v-307h-696v307h696z" />
    <glyph glyph-name="umacron" unicode="&#x16b;" 
d="M737 0l0.000976562 112.998c-6.66699 -9.33301 -16.167 -21.666 -28.5 -36.999s-42 -35.166 -89 -59.499s-98.5 -36.5 -154.5 -36.5c-106.667 0 -193.834 37.167 -261.501 111.5s-101.5 174.833 -101.5 301.5v611h410v-523c0 -35.333 9.5 -62.833 28.5 -82.5
s44.833 -29.5 77.5 -29.5c35.333 0 64 12.5 86 37.5s33 60.167 33 105.5v492h410v-1004h-410zM973.001 1464v-307h-697v307h697z" />
    <glyph glyph-name="Uring" unicode="&#x16e;" horiz-adv-x="1617" 
d="M809 369c57.333 0 107.5 22.834 150.5 68.501s64.5 101.167 64.5 166.5v830h461v-830c0 -186 -63.167 -340 -189.5 -462s-288.5 -183 -486.5 -183s-360.167 61.167 -486.5 183.5s-189.5 276.166 -189.5 461.499v830h461v-830c0 -65.333 21.5 -120.833 64.5 -166.5
s93.167 -68.5 150.5 -68.5zM727 1794c0 -54.667 27.333 -82 82 -82s82 27.333 82 82s-27.333 82 -82 82s-82 -27.333 -82 -82zM1096 1794.5c0 -72.333 -27.667 -134.833 -83 -187.5s-123.333 -79 -204 -79s-148.667 26.333 -204 79s-83 115.167 -83 187.5
s27.667 134.666 83 186.999s123.333 78.5 204 78.5s148.667 -26.167 204 -78.5s83 -114.666 83 -186.999z" />
    <glyph glyph-name="uring" unicode="&#x16f;" 
d="M737 0l0.000976562 112.998c-6.66699 -9.33301 -16.167 -21.666 -28.5 -36.999s-42 -35.166 -89 -59.499s-98.5 -36.5 -154.5 -36.5c-106.667 0 -193.834 37.167 -261.501 111.5s-101.5 174.833 -101.5 301.5v611h410v-523c0 -35.333 9.5 -62.833 28.5 -82.5
s44.833 -29.5 77.5 -29.5c35.333 0 64 12.5 86 37.5s33 60.167 33 105.5v492h410v-1004h-410zM543.001 1352c0 -54.667 27.333 -82 82 -82s82 27.333 82 82s-27.333 82 -82 82s-82 -27.333 -82 -82zM911.001 1351.5c0 -72.333 -27.667 -134.833 -83 -187.5
s-123.166 -79 -203.499 -79s-148.166 26.333 -203.499 79s-83 115.167 -83 187.5s27.667 134.833 83 187.5s123.166 79 203.499 79s148.166 -26.333 203.499 -79s83 -115.167 83 -187.5z" />
    <glyph glyph-name="Uhungarumlaut" unicode="&#x170;" horiz-adv-x="1617" 
d="M809 369c57.333 0 107.5 22.834 150.5 68.501s64.5 101.167 64.5 166.5v830h461v-830c0 -186 -63.167 -340 -189.5 -462s-288.5 -183 -486.5 -183s-360.167 61.167 -486.5 183.5s-189.5 276.166 -189.5 461.499v830h461v-830c0 -65.333 21.5 -120.833 64.5 -166.5
s93.167 -68.5 150.5 -68.5zM420 1587l194 348h369l-266 -348h-297zM881 1587l194 348h369l-266 -348h-297z" />
    <glyph glyph-name="uhungarumlaut" unicode="&#x171;" 
d="M737 0l0.000976562 112.998c-6.66699 -9.33301 -16.167 -21.666 -28.5 -36.999s-42 -35.166 -89 -59.499s-98.5 -36.5 -154.5 -36.5c-106.667 0 -193.834 37.167 -261.501 111.5s-101.5 174.833 -101.5 301.5v611h410v-523c0 -35.333 9.5 -62.833 28.5 -82.5
s44.833 -29.5 77.5 -29.5c35.333 0 64 12.5 86 37.5s33 60.167 33 105.5v492h410v-1004h-410zM225.001 1126l195 349h368l-266 -349h-297zM686.001 1126l195 349h368l-266 -349h-297z" />
    <glyph glyph-name="Uogonek" unicode="&#x172;" horiz-adv-x="1617" 
d="M809 369c57.333 0 107.502 22.8359 150.502 68.5029s64.5 101.167 64.5 166.5v830h461v-830c0 -166.667 -51.167 -308.334 -153.5 -425.001s-236.833 -187.334 -403.5 -212.001c-24.667 -56 -37 -113.333 -37 -172c0 -54.667 27.333 -82 82 -82
c15.333 0 30.666 2.83301 45.999 8.5s26.666 11.167 33.999 16.5l12 6v-215c-48 -27.333 -113 -41 -195 -41c-75.333 0 -138.5 24.167 -189.5 72.5s-76.5 106.166 -76.5 173.499c0 80.667 41 157 123 229c-176 18 -319 86.333 -429 205s-165 264 -165 436v830h461v-830
c0 -65.333 21.5 -120.833 64.5 -166.5s93.167 -68.5 150.5 -68.5z" />
    <glyph glyph-name="uogonek" unicode="&#x173;" 
d="M553 -266c0 30 6.49902 59.665 19.499 88.998s28.333 54.166 46 74.499s35.334 38.333 53.001 54s32.834 27.834 45.501 36.501l20 12v117c-2.66699 -4 -6 -9.16699 -10 -15.5s-14.167 -17.333 -30.5 -33s-34.166 -29.667 -53.499 -42s-45 -23.166 -77 -32.499
s-65.667 -14 -101 -14c-106.667 0 -193.834 37.167 -261.501 111.5s-101.5 174.833 -101.5 301.5v611h410v-523c0 -35.333 9.5 -62.833 28.5 -82.5s44.833 -29.5 77.5 -29.5c35.333 0 64 12.5 86 37.5s33 60.167 33 105.5v492h410v-1004h-246
c-40.667 -68 -61 -136.333 -61 -205c0 -54.667 27.333 -82 82 -82c15.333 0 30.666 2.83301 45.999 8.5s27.333 11.167 36 16.5l10 6v-215c-48 -27.333 -113 -41 -195 -41c-75.333 0 -138.5 24.333 -189.5 73s-76.5 106.334 -76.5 173.001z" />
    <glyph glyph-name="Ydieresis" unicode="&#x178;" horiz-adv-x="1443" 
d="M973 1434h491l-512 -922v-512h-460v512l-512 922h491l246 -492h10zM276 1761c0 52 19.5 97.5 58.5 136.5s84.5 58.5 136.5 58.5s97.5 -19.5 136.5 -58.5s58.5 -84.5 58.5 -136.5s-19.5 -97.333 -58.5 -136s-84.5 -58 -136.5 -58s-97.5 19.333 -136.5 58
s-58.5 84 -58.5 136zM768 1761c0 52 19.5 97.5 58.5 136.5s84.333 58.5 136 58.5s97 -19.5 136 -58.5s58.5 -84.5 58.5 -136.5s-19.5 -97.333 -58.5 -136s-84.333 -58 -136 -58s-97 19.333 -136 58s-58.5 84 -58.5 136z" />
    <glyph glyph-name="Zacute" unicode="&#x179;" horiz-adv-x="1382" 
d="M666 1014h-543v420h1147v-420l-574 -594h594v-420h-1198v420zM512 1587l184 348h430l-256 -348h-358z" />
    <glyph glyph-name="zacute" unicode="&#x17a;" horiz-adv-x="1105" 
d="M993 1004v-349l-389 -307h410v-348h-942v348l389 307h-369v349h901zM358 1126l185 349h430l-256 -349h-359z" />
    <glyph glyph-name="Zdotaccent" unicode="&#x17b;" horiz-adv-x="1382" 
d="M666 1014h-543v420h1147v-420l-574 -594h594v-420h-1198v420zM922 1761c0 -57.333 -21.167 -105.833 -63.5 -145.5s-96.333 -59.5 -162 -59.5s-119.667 19.833 -162 59.5s-63.5 88.167 -63.5 145.5s21.167 105.833 63.5 145.5s96.333 59.5 162 59.5
s119.667 -19.833 162 -59.5s63.5 -88.167 63.5 -145.5z" />
    <glyph glyph-name="zdotaccent" unicode="&#x17c;" horiz-adv-x="1105" 
d="M993 1004v-349l-389 -307h410v-348h-942v348l389 307h-369v349h901zM768 1300c0 -57.333 -21.167 -105.666 -63.5 -144.999s-96.333 -59 -162 -59s-119.667 19.667 -162 59s-63.5 87.666 -63.5 144.999s21.167 105.833 63.5 145.5s96.333 59.5 162 59.5
s119.667 -19.833 162 -59.5s63.5 -88.167 63.5 -145.5z" />
    <glyph glyph-name="Zcaron" unicode="&#x17d;" horiz-adv-x="1382" 
d="M666 1014h-543v420h1147v-420l-574 -594h594v-420h-1198v420zM686 1802l92 133h369l-287 -348h-348l-287 348h369z" />
    <glyph glyph-name="zcaron" unicode="&#x17e;" horiz-adv-x="1105" 
d="M993 1004v-349l-389 -307h410v-348h-942v348l389 307h-369v349h901zM532 1341l93 134h368l-286 -349h-349l-286 349h368z" />
    <glyph glyph-name="florin" unicode="&#x192;" horiz-adv-x="901" 
d="M276 901l20.999 113.001c30 164 76.667 280 140 348s156.666 102 279.999 102c36.667 0 72.834 -3.33301 108.501 -10s62.167 -13.334 79.5 -20.001l27 -11v-338c-27.333 13.333 -61.666 20.333 -102.999 21c-34 0 -59.167 -7.16699 -75.5 -21.5
s-28.5 -37.833 -36.5 -70.5l-27 -113h160v-358h-225l-93 -523c-28.667 -164 -75 -280 -139 -348s-157.333 -102 -280 -102c-36.667 0 -72.834 3.33301 -108.501 10s-62.5 13.667 -80.5 21l-26 10v338c27.333 -13.333 61.333 -20.333 102 -21
c62.667 0 100.334 30.667 113.001 92l102 523h-113v358h174z" />
    <glyph glyph-name="uni0218" unicode="&#x218;" 
d="M707 451c0 19.333 -11.665 36.001 -34.998 50.001s-53.166 27.167 -89.499 39.5s-77 25.666 -122 39.999s-89.667 33.166 -134 56.499s-84.5 50.333 -120.5 81s-65.667 72 -89 124s-35 110.667 -35 176c0 122.667 52.5 229.5 157.5 320.5s243.5 136.5 415.5 136.5
c68 0 133.167 -7.16699 195.5 -21.5s113 -31.5 152 -51.5s73.167 -39.833 102.5 -59.5s50 -37.167 62 -52.5l21 -20l-266 -277c-5.33301 8 -13.833 17.5 -25.5 28.5s-35.334 26.167 -71.001 45.5s-71.834 29 -108.501 29c-39.333 0 -69.666 -8.66699 -90.999 -26
s-32 -39.333 -32 -66c0 -22 15.333 -41.5 46 -58.5s69.167 -31 115.5 -42s96.5 -28.167 150.5 -51.5s104.167 -49.666 150.5 -78.999s85 -73 116 -131s46.5 -125.333 46.5 -202c0 -132.667 -53.667 -246 -161 -340s-251.666 -141 -432.999 -141
c-72.667 0 -143.167 8.5 -211.5 25.5s-125.333 37.5 -171 61.5s-85.834 48 -120.501 72s-60.334 44.667 -77.001 62l-25 25l267 266c9.33301 -9.33301 22.166 -21.5 38.499 -36.5s48.833 -34.833 97.5 -59.5s95.5 -37 140.5 -37s80.167 11 105.5 33s38 48.667 38 80z
M338.002 -511.999l113 348h389l-164 -348h-338z" />
    <glyph glyph-name="uni0219" unicode="&#x219;" horiz-adv-x="1003" 
d="M922 860l-185 -194.003c-34 34 -71.333 51 -112 51c-23.333 0 -42.833 -5.5 -58.5 -16.5s-23.5 -22.5 -23.5 -34.5c0 -13.333 14 -26.333 42 -39s62.167 -26.167 102.5 -40.5s80.5 -31.666 120.5 -51.999s74 -51 102 -92s42 -89.5 42 -145.5
c0 -87.333 -41.667 -163.833 -125 -229.5s-195 -98.5 -335 -98.5c-62.667 0 -122.5 7.16699 -179.5 21.5s-102.833 31.5 -137.5 51.5s-65.334 39.833 -92.001 59.5s-45.334 36.5 -56.001 50.5l-17 22l185 195c5.33301 -6.66699 13.833 -15.167 25.5 -25.5
s33.5 -24.166 65.5 -41.499s63 -26 93 -26c24.667 0 44.5 6.16699 59.5 18.5s22.5 26.833 22.5 43.5c0 13.333 -14 26.166 -42 38.499s-62.167 25.333 -102.5 39s-80.666 30.834 -120.999 51.501s-74.5 51.5 -102.5 92.5s-42 90.167 -42 147.5
c0 84.667 41.667 160.334 125 227.001s192 100 326 100c56 0 108.5 -6.16699 157.5 -18.5s88.833 -27 119.5 -44s57.334 -33.667 80.001 -50s38.667 -30.5 48 -42.5zM205 -512.003l112 348h390l-164 -348h-338z" />
    <glyph glyph-name="uni021A" unicode="&#x21a;" horiz-adv-x="1300" 
d="M41 1434h1219v-420h-379v-1014h-461v1014h-379v420zM338 -512l113 348h389l-164 -348h-338z" />
    <glyph glyph-name="uni021B" unicode="&#x21b;" horiz-adv-x="911" 
d="M225 1126l0.000976562 153.999h359v-287h204v-348h-204v-194c0 -30 9.16699 -54.667 27.5 -74s43.166 -29 74.499 -29c18 0 35.5 1.66699 52.5 5s29.5 7.33301 37.5 12l12 4v-349c-61.333 -27.333 -136.333 -40.666 -225 -39.999c-124 0 -219.833 35.833 -287.5 107.5
s-101.5 175.5 -101.5 311.5v246h-143v348h61c35.333 0 66.333 13.333 93 40s40 57.667 40 93zM199.001 -512.001l112 348h389l-163 -348h-338z" />
    <glyph glyph-name="uni02BC" unicode="&#x2bc;" horiz-adv-x="624" 
d="M61 1116l113 348h389l-164 -348h-338z" />
    <glyph glyph-name="circumflex" unicode="&#x2c6;" horiz-adv-x="1044" 
d="M614 1116l-92 133l-92 -133h-369l287 348h348l287 -348h-369z" />
    <glyph glyph-name="caron" unicode="&#x2c7;" horiz-adv-x="1044" 
d="M522 1331l92 133h369l-287 -348h-348l-287 348h369z" />
    <glyph glyph-name="breve" unicode="&#x2d8;" horiz-adv-x="860" 
d="M430 1116c-105.333 0 -193.166 33.5 -263.499 100.5s-105.5 149.5 -105.5 247.5h287c0 -61.333 27.333 -92 82 -92s82 30.667 82 92h287c0 -98 -34.833 -180.5 -104.5 -247.5s-157.834 -100.5 -264.501 -100.5z" />
    <glyph glyph-name="dotaccent" unicode="&#x2d9;" horiz-adv-x="573" 
d="M512 1311c0 -57.333 -21.167 -105.833 -63.5 -145.5s-96.333 -59.5 -162 -59.5s-119.667 19.833 -162 59.5s-63.5 88.167 -63.5 145.5s21.167 105.833 63.5 145.5s96.333 59.5 162 59.5s119.667 -19.833 162 -59.5s63.5 -88.167 63.5 -145.5z" />
    <glyph glyph-name="ring" unicode="&#x2da;" horiz-adv-x="696" 
d="M266 1259.5c0 -54.333 27.333 -81.5 82 -81.5s82 27.167 82 81.5s-27.333 81.5 -82 81.5s-82 -27.167 -82 -81.5zM635 1259.5c0 -72.333 -27.667 -134.833 -83 -187.5s-123.333 -79 -204 -79s-148.667 26.333 -204 79s-83 115.167 -83 187.5s27.667 134.833 83 187.5
s123.333 79 204 79s148.667 -26.333 204 -79s83 -115.167 83 -187.5z" />
    <glyph glyph-name="ogonek" unicode="&#x2db;" horiz-adv-x="583" 
d="M236 0l163.001 0.000976562c-34 -68 -51 -136.333 -51 -205c0 -54.667 27.333 -82 82 -82c15.333 0 30.833 2.83301 46.5 8.5s27.5 11.167 35.5 16.5l10 6v-215c-48 -27.333 -112.667 -41 -194 -41c-75.333 0 -138.666 24.167 -189.999 72.5s-77 106.166 -77 173.499
c0 30 6.16699 59.667 18.5 89s26.666 54.166 42.999 74.499s33.166 38.333 50.499 54s32 27.834 44 36.501z" />
    <glyph glyph-name="tilde" unicode="&#x2dc;" horiz-adv-x="890" 
d="M379 1198c-20.667 0 -37.834 -7.5 -51.501 -22.5s-20.5 -34.833 -20.5 -59.5h-246c0 246 75.333 369 226 369c46.667 0 92 -13.667 136 -41s73.667 -41 89 -41c20.667 0 37.834 7.5 51.501 22.5s20.5 34.833 20.5 59.5h245c0 -246 -75 -369 -225 -369
c-46.667 0 -92 13.667 -136 41s-73.667 41 -89 41z" />
    <glyph glyph-name="hungarumlaut" unicode="&#x2dd;" horiz-adv-x="1146" 
d="M61 1116l195 348h369l-267 -348h-297zM522 1116l195 348h368l-266 -348h-297z" />
    <glyph glyph-name="uni0401" unicode="&#x401;" horiz-adv-x="1392" 
d="M614 379h697v-379h-1157v1434h1136v-379h-676v-154h512v-348h-512v-174zM285 1775.5c0 50.333 19.333 95.333 58 135s84 59.5 136 59.5s97.5 -19.833 136.5 -59.5s58.5 -84.667 58.5 -135s-19.5 -95.333 -58.5 -135s-84.5 -59.5 -136.5 -59.5s-97.333 19.833 -136 59.5
s-58 84.667 -58 135zM776 1775.5c0 50.333 19.5 95.333 58.5 135s84.5 59.5 136.5 59.5s97.333 -19.833 136 -59.5s58 -84.667 58 -135s-19.333 -95.333 -58 -135s-84 -59.5 -136 -59.5s-97.5 19.833 -136.5 59.5s-58.5 84.667 -58.5 135z" />
    <glyph glyph-name="uni0402" unicode="&#x402;" horiz-adv-x="1576" 
d="M1055 430c0 23.333 -12.332 42.832 -36.999 58.499s-61.667 23.5 -111 23.5c-26 0 -51.5 -4.16699 -76.5 -12.5s-43.833 -16.5 -56.5 -24.5l-16 -14v-461h-461v1024h-297v410h1055v-410h-297v-164c61.333 40.667 139.666 61.334 234.999 62.001
c178.667 0 312.167 -36.167 400.5 -108.5s132.5 -196.833 132.5 -373.5c0 -148.667 -47.5 -267.667 -142.5 -357s-225.167 -134 -390.5 -134h-102v399c109.333 0 164 27.333 164 82z" />
    <glyph glyph-name="uni0403" unicode="&#x403;" horiz-adv-x="1249" 
d="M492 1587l184 348h430l-256 -348h-358zM154 0v1434h1065v-410h-605v-1024h-460z" />
    <glyph glyph-name="uni0404" unicode="&#x404;" horiz-adv-x="1540" 
d="M881 1475c78 0 152.665 -10 223.998 -30s130.333 -44 177 -72s87.667 -56 123 -84s61.333 -52 78 -72l22 -29l-266 -277c-4 4 -9.5 9.83301 -16.5 17.5s-21.667 21 -44 40s-46.166 35.667 -71.499 50s-57.833 27.333 -97.5 39s-79.167 17.5 -118.5 17.5
c-86 0 -156.667 -19.833 -212 -59.5s-94 -81.167 -116 -124.5h502v-348h-502c22 -44 60.667 -85.833 116 -125.5s126 -59.5 212 -59.5c66.667 0 129.667 13.667 189 41s102 54.666 128 81.999l41 41l260 -276c-5.33301 -8 -13.5 -18.5 -24.5 -31.5s-35.833 -36 -74.5 -69
s-80.167 -62.167 -124.5 -87.5s-103.166 -48.166 -176.499 -68.499s-149.333 -30.5 -228 -30.5c-228 0 -419.833 74.5 -575.5 223.5s-233.5 327.167 -233.5 534.5s77.833 385.5 233.5 534.5s347.5 223.5 575.5 223.5z" />
    <glyph glyph-name="uni0405" unicode="&#x405;" 
d="M707 451c0 19.333 -11.665 36.001 -34.998 50.001s-53.166 27.167 -89.499 39.5s-77 25.666 -122 39.999s-89.667 33.166 -134 56.499s-84.5 50.333 -120.5 81s-65.667 72 -89 124s-35 110.667 -35 176c0 122.667 52.5 229.5 157.5 320.5s243.5 136.5 415.5 136.5
c68 0 133.167 -7.16699 195.5 -21.5s113 -31.5 152 -51.5s73.167 -39.833 102.5 -59.5s50 -37.167 62 -52.5l21 -20l-266 -277c-5.33301 8 -13.833 17.5 -25.5 28.5s-35.334 26.167 -71.001 45.5s-71.834 29 -108.501 29c-39.333 0 -69.666 -8.66699 -90.999 -26
s-32 -39.333 -32 -66c0 -22 15.333 -41.5 46 -58.5s69.167 -31 115.5 -42s96.5 -28.167 150.5 -51.5s104.167 -49.666 150.5 -78.999s85 -73 116 -131s46.5 -125.333 46.5 -202c0 -132.667 -53.667 -246 -161 -340s-251.666 -141 -432.999 -141
c-72.667 0 -143.167 8.5 -211.5 25.5s-125.333 37.5 -171 61.5s-85.834 48 -120.501 72s-60.334 44.667 -77.001 62l-25 25l267 266c9.33301 -9.33301 22.166 -21.5 38.499 -36.5s48.833 -34.833 97.5 -59.5s95.5 -37 140.5 -37s80.167 11 105.5 33s38 48.667 38 80z" />
    <glyph glyph-name="uni0406" unicode="&#x406;" horiz-adv-x="768" 
d="M154 0v1434h460v-1434h-460z" />
    <glyph glyph-name="uni0407" unicode="&#x407;" horiz-adv-x="768" 
d="M147 0v1434h461v-1434h-461zM-61 1730.5c0 50.333 19.667 95.333 59 135s84.333 59.5 135 59.5s95.834 -19.833 135.501 -59.5s59.5 -84.667 59.5 -135s-19.833 -95.333 -59.5 -135s-84.834 -59.5 -135.501 -59.5s-95.667 19.833 -135 59.5s-59 84.667 -59 135z
M430 1730.5c0 50.333 19.833 95.333 59.5 135s84.667 59.5 135 59.5s95.333 -19.833 135 -59.5s59.5 -84.667 59.5 -135s-19.833 -95.333 -59.5 -135s-84.667 -59.5 -135 -59.5s-95.333 19.833 -135 59.5s-59.5 84.667 -59.5 135z" />
    <glyph glyph-name="uni0408" unicode="&#x408;" horiz-adv-x="1095" 
d="M502 1434l460.999 -0.00195312v-912c0 -169.333 -51.667 -305.5 -155 -408.5s-239.666 -154.5 -408.999 -154.5c-52 0 -102.5 6.5 -151.5 19.5s-90.167 28.333 -123.5 46s-63 35.334 -89 53.001s-45.333 32.834 -58 45.501l-18 20l266 277c34 -34 75 -51 123 -51
c46.667 0 84 14 112 42s42 65 42 111v912z" />
    <glyph glyph-name="uni0409" unicode="&#x409;" horiz-adv-x="2232" 
d="M1423 1434l0.00195312 -1434h-460v1024h-205c0 -164 -8.83301 -308 -26.5 -432s-42 -226 -73 -306s-69.667 -144.667 -116 -194s-95.833 -83.833 -148.5 -103.5s-112.334 -29.5 -179.001 -29.5c-39.333 0 -76.833 3.5 -112.5 10.5s-61.5 13.833 -77.5 20.5l-25 10v420
c27.333 -6.66699 54.666 -10 81.999 -10c49.333 0 89 13.167 119 39.5s55.167 82.166 75.5 167.499s30.5 203.333 30.5 354v463h1116zM1628 0.000976562h-665v1434h460v-390h205c166.667 0 300.5 -49 401.5 -147s151.5 -222.833 151.5 -374.5s-50.5 -276.667 -151.5 -375
s-234.833 -147.5 -401.5 -147.5zM1423 410.001h174.001c35.333 0 64.666 10.833 87.999 32.5s35 48.167 35 79.5s-11.5 58 -34.5 80s-52.5 33 -88.5 33h-174v-225z" />
    <glyph glyph-name="uni040A" unicode="&#x40a;" horiz-adv-x="2283" 
d="M1690 0h-676v614h-400v-614h-460v1434h460v-410h400v410h461v-410h215c166.667 0 298.667 -47.5 396 -142.5s146 -218.167 146 -369.5s-48.667 -274.5 -146 -369.5s-229.333 -142.5 -396 -142.5zM1475 410l184 0.00195312c35.333 0 63 9.16699 83 27.5
s30 43.166 30 74.499s-10 56.166 -30 74.499s-47.667 27.5 -83 27.5h-184v-204z" />
    <glyph glyph-name="uni040B" unicode="&#x40b;" horiz-adv-x="1628" 
d="M1065 358c0 46.667 -14.332 83.998 -42.999 111.998s-67 42 -115 42c-26 0 -51.5 -4.16699 -76.5 -12.5s-43.833 -16.5 -56.5 -24.5l-16 -14v-461h-461v1024h-297v410h1055v-410h-297v-164c61.333 40.667 139.666 61.334 234.999 62.001
c170.667 0 302.167 -48.167 394.5 -144.5s138.5 -236.166 138.5 -419.499v-358h-461v358z" />
    <glyph glyph-name="uni040C" unicode="&#x40c;" horiz-adv-x="1536" 
d="M614 1434v-492l402 492h510l-492 -594l533 -840h-512l-318 502l-123 -154v-348h-460v1434h460zM614 1587l185 348h430l-256 -348h-359z" />
    <glyph glyph-name="uni040E" unicode="&#x40e;" horiz-adv-x="1392" 
d="M715 1567c-112 0 -204.832 35.5 -278.499 106.5s-110.5 158.167 -110.5 261.5h286c0 -35.333 9.33301 -62.833 28 -82.5s43.667 -29.5 75 -29.5s56.166 9.83301 74.499 29.5s27.5 47.167 27.5 82.5h287c0 -104 -36.833 -191.333 -110.5 -262s-166.5 -106 -278.5 -106z
M492.001 1434l224.998 -543l205 543h491l-491 -1055c-54.667 -117.333 -129.167 -213.166 -223.5 -287.499s-204.166 -111.5 -329.499 -111.5c-36.667 0 -72.167 2.66699 -106.5 8s-59.166 10.666 -74.499 15.999l-24 6v400c34 -13.333 75 -20.333 123 -21
c42 0 80.167 9.5 114.5 28.5s57.5 38.167 69.5 57.5l21 27l-492 932h492z" />
    <glyph glyph-name="uni040F" unicode="&#x40f;" horiz-adv-x="1658" 
d="M1505 1434v-1434h-450v-276h-461v276h-440v1434h460v-1024h430v1024h461z" />
    <glyph glyph-name="uni0410" unicode="&#x410;" horiz-adv-x="1515" 
d="M860 625l-102 358l-103 -358h205zM963 276h-410l-82 -276h-491l522 1434h512l522 -1434h-492z" />
    <glyph glyph-name="uni0411" unicode="&#x411;" horiz-adv-x="1443" 
d="M614 369h205c30 0 54.667 9.5 74 28.5s29 43.5 29 73.5s-9.66699 54.5 -29 73.5s-44 28.5 -74 28.5h-205v-204zM850 0h-696v1434h1095v-369h-635v-123h236c158.667 0 287 -46.333 385 -139s147 -203.167 147 -331.5s-49 -239 -147 -332s-226.333 -139.5 -385 -139.5z" />
    <glyph glyph-name="uni0412" unicode="&#x412;" horiz-adv-x="1474" 
d="M860 0l-705.999 -0.000976562v1434h665c161.333 0 288.666 -37.333 381.999 -112s140 -163.667 140 -267c0 -39.333 -7.16699 -76.833 -21.5 -112.5s-31.333 -64.167 -51 -85.5s-39.334 -40.166 -59.001 -56.499s-36.5 -27.833 -50.5 -34.5l-22 -8
c6.66699 -2.66699 16.5 -6.5 29.5 -11.5s35.167 -16.667 66.5 -35s59.333 -39.5 84 -63.5s46.834 -57.5 66.501 -100.5s29.5 -88.833 29.5 -137.5c0 -113.333 -49.167 -210 -147.5 -290s-233.5 -120 -405.5 -120zM614.001 347.999h205c35.333 0 64.666 11 87.999 33
s35 48.667 35 80s-11.667 57.833 -35 79.5s-52.666 32.5 -87.999 32.5h-205v-225zM768.001 1085h-154v-184h154c30 0 54.5 8.83301 73.5 26.5s28.5 39.5 28.5 65.5s-9.5 47.833 -28.5 65.5s-43.5 26.5 -73.5 26.5z" />
    <glyph glyph-name="uni0413" unicode="&#x413;" horiz-adv-x="1249" 
d="M154 0v1434h1065v-410h-605v-1024h-460z" />
    <glyph glyph-name="uni0414" unicode="&#x414;" horiz-adv-x="1576" 
d="M0 410l72 -0.00195312c5.33301 4 12.333 10.333 21 19s24 29.834 46 63.501s41.5 70.334 58.5 110.001s32.667 92.5 47 158.5s21.5 136.667 21.5 212v461h1127v-1024h153v-686h-461v276h-624v-276h-461v686zM717 972.998c0 -75.333 -6.5 -145.667 -19.5 -211
s-28.333 -118.833 -46 -160.5s-35.5 -77.5 -53.5 -107.5s-33 -51.333 -45 -64l-21 -20h400v614h-215v-51z" />
    <glyph glyph-name="uni0415" unicode="&#x415;" horiz-adv-x="1392" 
d="M614 379h697v-379h-1157v1434h1136v-379h-676v-154h512v-348h-512v-174z" />
    <glyph glyph-name="uni0416" unicode="&#x416;" horiz-adv-x="2222" 
d="M881 0v399l-82 103l-318 -502h-512l533 840l-492 594h510l361 -441v441h460v-441l361 441h510l-492 -594l533 -840h-512l-318 502l-82 -103v-399h-460z" />
    <glyph glyph-name="uni0417" unicode="&#x417;" horiz-adv-x="1290" 
d="M973 758c6.66699 -2.66699 15.834 -6.49414 27.501 -11.4941s32.167 -17 61.5 -36s55.333 -40.833 78 -65.5s43.167 -58.834 61.5 -102.501s27.5 -91.5 27.5 -143.5c0 -120 -54.333 -223.333 -163 -310s-255.667 -130 -441 -130c-75.333 0 -147.833 8.5 -217.5 25.5
s-127.334 37.5 -173.001 61.5s-86.334 48 -122.001 72s-61.5 44.667 -77.5 62l-25 25l266 266c9.33301 -9.33301 22.333 -20.833 39 -34.5s49.167 -31.834 97.5 -54.501s95.166 -34 140.499 -34c53.333 0 94 10 122 30s42 44.333 42 73c0 68 -51.333 102 -154 102h-164v358
h154c44 0 77.167 8.33301 99.5 25s33.5 37.667 33.5 63c0 24.667 -12 45.167 -36 61.5s-59.667 24.5 -107 24.5c-36.667 0 -72.834 -7.83301 -108.501 -23.5s-62.5 -30.834 -80.5 -45.501l-26 -23l-256 267c4 5.33301 10.667 12.666 20 21.999s30.5 26.666 63.5 51.999
s69 47.166 108 65.499s90.833 35.5 155.5 51.5s133.334 24 206.001 24c170.667 0 307.167 -41 409.5 -123s153.5 -177.667 153.5 -287c0 -44 -7.5 -84.667 -22.5 -122s-33.167 -67 -54.5 -89s-42.166 -40.5 -62.499 -55.5s-38.166 -25.833 -53.499 -32.5z" />
    <glyph glyph-name="uni0418" unicode="&#x418;" horiz-adv-x="1699" 
d="M154 1434h460v-697l543 697h389v-1434h-461v696l-542 -696h-389v1434z" />
    <glyph glyph-name="uni0419" unicode="&#x419;" horiz-adv-x="1699" 
d="M854 1567c-112 0 -204.831 35.5 -278.498 106.5s-110.5 158.167 -110.5 261.5h287c0 -35.333 9.16699 -62.833 27.5 -82.5s43.166 -29.5 74.499 -29.5s56.166 9.83301 74.499 29.5s27.5 47.167 27.5 82.5h287c0 -104 -36.833 -191.333 -110.5 -262
s-166.5 -106 -278.5 -106zM154.002 1434h460v-697l543 697h389v-1434h-461v696l-542 -696h-389v1434z" />
    <glyph glyph-name="uni041A" unicode="&#x41a;" horiz-adv-x="1536" 
d="M614 1434v-492l402 492h510l-492 -594l533 -840h-512l-318 502l-123 -154v-348h-460v1434h460z" />
    <glyph glyph-name="uni041B" unicode="&#x41b;" horiz-adv-x="1617" 
d="M1464 1434l0.00195312 -1434h-460v1024h-246c0 -164 -8.83301 -308 -26.5 -432s-42 -226 -73 -306s-69.667 -144.667 -116 -194s-95.833 -83.833 -148.5 -103.5s-112.334 -29.5 -179.001 -29.5c-39.333 0 -76.833 3.5 -112.5 10.5s-61.5 13.833 -77.5 20.5l-25 10v420
c27.333 -6.66699 54.666 -10 81.999 -10c49.333 0 89 13.167 119 39.5s55.167 82.166 75.5 167.499s30.5 203.333 30.5 354v463h1157z" />
    <glyph glyph-name="uni041C" unicode="&#x41c;" horiz-adv-x="1925" 
d="M1311 768l-348 -440l-349 440v-768h-460v1434h409l400 -512l399 512h410v-1434h-461v768z" />
    <glyph glyph-name="uni041D" unicode="&#x41d;" horiz-adv-x="1658" 
d="M1505 1434v-1434h-461v522h-430v-522h-460v1434h460v-502h430v502h461z" />
    <glyph glyph-name="uni041E" unicode="&#x41e;" horiz-adv-x="1761" 
d="M532 716.5c0 -97 33.833 -179.167 101.5 -246.5s150 -101 247 -101s179.333 33.667 247 101s101.5 149.5 101.5 246.5s-33.833 179.333 -101.5 247s-150 101.5 -247 101.5s-179.333 -33.833 -247 -101.5s-101.5 -150 -101.5 -247zM1690 717
c0 -207.333 -77.833 -385.5 -233.5 -534.5s-347.5 -223.5 -575.5 -223.5s-419.833 74.5 -575.5 223.5s-233.5 327.167 -233.5 534.5s77.833 385.5 233.5 534.5s347.5 223.5 575.5 223.5s419.833 -74.5 575.5 -223.5s233.5 -327.167 233.5 -534.5z" />
    <glyph glyph-name="uni041F" unicode="&#x41f;" horiz-adv-x="1648" 
d="M1495 1434v-1434h-461v1024h-420v-1024h-460v1434h1341z" />
    <glyph glyph-name="uni0420" unicode="&#x420;" horiz-adv-x="1443" 
d="M154 1434h675c166.667 0 300.5 -49.167 401.5 -147.5s151.5 -223.333 151.5 -375s-50.5 -276.667 -151.5 -375s-234.833 -147.5 -401.5 -147.5h-215v-389h-460v1434zM799 1024h-185v-225h185c35.333 0 64.666 10.833 87.999 32.5s35 48.167 35 79.5s-11.667 58 -35 80
s-52.666 33 -87.999 33z" />
    <glyph glyph-name="uni0421" unicode="&#x421;" horiz-adv-x="1540" 
d="M532 716.5c0 -98.333 34.166 -180.835 102.499 -247.502s153.833 -100 256.5 -100c39.333 0 78.5 5.33301 117.5 16s71.833 24.334 98.5 41.001s50.167 33.167 70.5 49.5s36.166 29.833 47.499 40.5l14 16l270 -286c-5.33301 -8 -13.5 -18.5 -24.5 -31.5
s-36.167 -36 -75.5 -69s-81.166 -62.167 -125.499 -87.5s-103.166 -48.166 -176.499 -68.499s-148.666 -30.5 -225.999 -30.5c-228 0 -419.833 74.5 -575.5 223.5s-233.5 327.167 -233.5 534.5s77.833 385.5 233.5 534.5s347.5 223.5 575.5 223.5c78 0 152.667 -10 224 -30
s130.333 -44 177 -72s87.667 -56 123 -84s61.333 -52 78 -72l22 -29l-276 -287c-4 4 -9.5 9.83301 -16.5 17.5s-21.667 21 -44 40s-45.833 35.667 -70.5 50s-55.834 27.333 -93.501 39s-75.5 17.5 -113.5 17.5c-102.667 0 -188.167 -33.5 -256.5 -100.5
s-102.5 -149.667 -102.5 -248z" />
    <glyph glyph-name="uni0422" unicode="&#x422;" horiz-adv-x="1300" 
d="M41 1434h1219v-420h-379v-1014h-461v1014h-379v420z" />
    <glyph glyph-name="uni0423" unicode="&#x423;" horiz-adv-x="1392" 
d="M492 1434l224.998 -543l205 543h491l-491 -1055c-54.667 -117.333 -129.167 -213.166 -223.5 -287.499s-204.166 -111.5 -329.499 -111.5c-36.667 0 -72.167 2.66699 -106.5 8s-59.166 10.666 -74.499 15.999l-24 6v400c34 -13.333 75 -20.333 123 -21
c42 0 80.167 9.5 114.5 28.5s57.5 38.167 69.5 57.5l21 27l-492 932h492z" />
    <glyph glyph-name="uni0424" unicode="&#x424;" horiz-adv-x="1873" 
d="M512 737c0 -60 18.167 -109.5 54.5 -148.5s83.166 -61.167 140.499 -66.5v430c-57.333 -5.33301 -104.166 -27.5 -140.499 -66.5s-54.5 -88.5 -54.5 -148.5zM1167 -41h-460v174c-191.333 9.33301 -348.5 72.166 -471.5 188.499s-184.5 255 -184.5 416
s61.5 299.5 184.5 415.5s280.167 178.667 471.5 188v154h460v-154c191.333 -9.33301 348.5 -72 471.5 -188s184.5 -254.5 184.5 -415.5s-61.5 -299.667 -184.5 -416s-280.167 -179.166 -471.5 -188.499v-174zM1362 737c0 60 -18.167 109.5 -54.5 148.5
s-83.166 61.167 -140.499 66.5v-430c57.333 5.33301 104.166 27.5 140.499 66.5s54.5 88.5 54.5 148.5z" />
    <glyph glyph-name="uni0425" unicode="&#x425;" horiz-adv-x="1474" 
d="M737 451l-245 -451h-502l450 748l-409 686h501l205 -390l205 390h502l-410 -686l451 -748h-502z" />
    <glyph glyph-name="uni0426" unicode="&#x426;" horiz-adv-x="1658" 
d="M154 0v1434h460v-1024h400v1024h461v-1024h153v-686h-461v276h-1013z" />
    <glyph glyph-name="uni0427" unicode="&#x427;" horiz-adv-x="1566" 
d="M594 1434l-0.000976562 -450.999c0 -56 16 -100.667 48 -134s74 -50 126 -50c30 0 60.333 4 91 12s54.334 16.333 71.001 25l22 14v584h461v-1434h-461v440c-75.333 -34 -164 -51 -266 -51c-170.667 0 -305.5 52.167 -404.5 156.5s-148.5 250.166 -148.5 437.499v451h461
z" />
    <glyph glyph-name="uni0428" unicode="&#x428;" horiz-adv-x="2242" 
d="M2089 1434v-1434h-1935v1434h460v-1024h277v1024h461v-1024h276v1024h461z" />
    <glyph glyph-name="uni0429" unicode="&#x429;" horiz-adv-x="2273" 
d="M2089 1434v-1024h154v-684h-461v274h-1628v1434h460v-1024h277v1024h461v-1024h276v1024h461z" />
    <glyph glyph-name="uni042A" unicode="&#x42a;" horiz-adv-x="1566" 
d="M963 0h-656v1034h-307v400h768v-390h195c166.667 0 300.5 -49 401.5 -147s151.5 -222.833 151.5 -374.5s-50.5 -276.667 -151.5 -375s-234.833 -147.5 -401.5 -147.5zM768 410h164c35.333 0 64.666 10.833 87.999 32.5s35 48.167 35 79.5s-11.667 58 -35 80
s-52.666 33 -87.999 33h-164v-225z" />
    <glyph glyph-name="uni042B" unicode="&#x42b;" horiz-adv-x="2099" 
d="M1946 1434v-1434h-461v1434h461zM154 0v1434h460v-390h195c166.667 0 300.5 -49 401.5 -147s151.5 -222.833 151.5 -374.5s-50.5 -276.667 -151.5 -375s-234.833 -147.5 -401.5 -147.5h-655zM778 410c35.333 0 64.666 10.833 87.999 32.5s35 48.167 35 79.5
s-11.667 58 -35 80s-52.666 33 -87.999 33h-164v-225h164z" />
    <glyph glyph-name="uni042C" unicode="&#x42c;" horiz-adv-x="1433" 
d="M829 0h-675v1434h460v-390h215c166.667 0 300.5 -49 401.5 -147s151.5 -222.833 151.5 -374.5s-50.5 -276.667 -151.5 -375s-234.833 -147.5 -401.5 -147.5zM614 410h185c35.333 0 64.666 10.833 87.999 32.5s35 48.167 35 79.5s-11.667 58 -35 80s-52.666 33 -87.999 33
h-185v-225z" />
    <glyph glyph-name="uni042D" unicode="&#x42d;" horiz-adv-x="1540" 
d="M659 1475c228 0 419.832 -74.5029 575.499 -223.503s233.5 -327.167 233.5 -534.5s-77.833 -385.5 -233.5 -534.5s-347.5 -223.5 -575.5 -223.5c-79.333 0 -155 9.83301 -227 29.5s-131.333 43.5 -178 71.5s-87.667 56 -123 84s-61.333 52.333 -78 73l-22 29l260 276
c4 -4 9.33301 -9.66699 16 -17s21.667 -20.666 45 -39.999s48 -36.166 74 -50.499s59.167 -27.333 99.5 -39s81.5 -17.5 123.5 -17.5c86 0 156.667 19.833 212 59.5s94 81.5 116 125.5h-502v348h502c-22 44 -60.667 85.667 -116 125s-126 59 -212 59
c-39.333 0 -78.5 -5.5 -117.5 -16.5s-71.833 -24.667 -98.5 -41s-50.167 -32.666 -70.5 -48.999s-36.166 -29.833 -47.499 -40.5l-14 -17l-266 277c5.33301 8 13.5 18.5 24.5 31.5s36 35.833 75 68.5s80.667 61.667 125 87s102.5 48.333 174.5 69s147 31 225 31z" />
    <glyph glyph-name="uni042E" unicode="&#x42e;" horiz-adv-x="2293" 
d="M1761 716.5c0 103.667 -28 187.667 -84 252s-123.5 96.5 -202.5 96.5s-146.5 -32.167 -202.5 -96.5s-84 -148.333 -84 -252s28 -187.5 84 -251.5s123.5 -96 202.5 -96s146.5 32 202.5 96s84 147.833 84 251.5zM758 522l-144.002 -0.00195312v-522h-460v1434h460v-502h144
c38 148.667 121.833 276.334 251.5 383.001s284.834 160 465.501 160c210 0 387 -72.833 531 -218.5s216 -325.667 216 -540s-72 -394.166 -216 -539.499s-321 -218 -531 -218c-181.333 0 -336.666 54.5 -465.999 163.5s-213 242.167 -251 399.5z" />
    <glyph glyph-name="uni042F" unicode="&#x42f;" horiz-adv-x="1495" 
d="M1341 1434l0.000976562 -1434h-460v410h-144l-215 -410h-481l276 502c-5.33301 2.66699 -13 7 -23 13s-28 21.333 -54 46s-49 51.334 -69 80.001s-38.167 68.334 -54.5 119.001s-24.5 104.667 -24.5 162c0 146 50.167 267.833 150.5 365.5s231.166 146.5 392.499 146.5
h706zM553.001 921.498c0 -31.667 9.83301 -56.667 29.5 -75s47.5 -27.5 83.5 -27.5h215v205h-215c-35.333 0 -63 -9.16699 -83 -27.5s-30 -43.333 -30 -75z" />
    <glyph glyph-name="uni0430" unicode="&#x430;" horiz-adv-x="1146" 
d="M1024 0l-409.997 -0.00195312v113c-5.33301 -9.33301 -14.5 -21.666 -27.5 -36.999s-42.333 -35.166 -88 -59.499s-95.834 -36.5 -150.501 -36.5c-82 0 -152 28.333 -210 85s-87 123.667 -87 201c0 161.333 106 267.333 318 318l256 61c0 22 -11 41.167 -33 57.5
s-52 24.5 -90 24.5c-32.667 0 -65.5 -7.83301 -98.5 -23.5s-56.833 -31.167 -71.5 -46.5l-25 -22l-194 205c4 5.33301 9.66699 12.333 17 21s24.666 24 51.999 46s56.666 41.5 87.999 58.5s72.666 32.667 123.999 47s104.333 21.5 159 21.5
c140.667 0 254.334 -39.167 341.001 -117.5s130 -175.5 130 -291.5v-625zM512.003 275.998c31.333 0 58 12.333 80 37s33 57 33 97v30l-113 -30c-40.667 -10.667 -61 -34.667 -61 -72c0 -41.333 20.333 -62 61 -62z" />
    <glyph glyph-name="uni0431" unicode="&#x431;" horiz-adv-x="1259" 
d="M1188 471c0 -144.667 -49.5 -264.498 -148.5 -359.498s-227.167 -142.5 -384.5 -142.5c-177.333 0 -318.833 58 -424.5 174s-158.5 280 -158.5 492c0 244.667 43 426 129 544s213.667 196 383 234c66.667 15.333 129.667 33.166 189 53.499s102 36.833 128 49.5l41 20
l184 -307c-82 -48 -204.667 -92.333 -368 -133c-98 -24.667 -169 -55.167 -213 -91.5s-68.667 -81.166 -74 -134.499c6.66699 6.66699 16.5 15.167 29.5 25.5s41 24.166 84 41.499s87.167 26 132.5 26c130 0 241 -47.833 333 -143.5s138 -211.834 138 -348.501zM512 471.002
c0 -35.333 12.667 -66.333 38 -93s53.666 -40 84.999 -40c35.333 0 66.333 13.333 93 40s40 57.667 40 93s-13.333 66.333 -40 93s-57.667 40 -93 40c-31.333 0 -59.666 -13.333 -84.999 -40s-38 -57.667 -38 -93z" />
    <glyph glyph-name="uni0432" unicode="&#x432;" horiz-adv-x="1157" 
d="M102 1004l553.004 -0.000976562c126.667 0 225 -27 295 -81s105 -119.333 105 -196c0 -45.333 -12 -85 -36 -119s-48.333 -56.333 -73 -67l-35 -19c5.33301 -1.33301 12.166 -3.33301 20.499 -6s23.166 -10.167 44.499 -22.5s40.166 -26.333 56.499 -42
s31 -37.167 44 -64.5s19.5 -57.333 19.5 -90c0 -87.333 -35.833 -158.666 -107.5 -213.999s-175.834 -83 -312.501 -83h-574v1004zM625.004 388.999h-123v-123h123c40.667 0 61 20.5 61 61.5s-20.333 61.5 -61 61.5zM655.004 685.999c0 34 -17 51 -51 51h-102v-102h102
c34 0 51 17 51 51z" />
    <glyph glyph-name="uni0433" unicode="&#x433;" horiz-adv-x="952" 
d="M911 1004v-379h-399v-625h-410v1004h809z" />
    <glyph glyph-name="uni0434" unicode="&#x434;" horiz-adv-x="1228" 
d="M-10 358l61.001 -0.000976562c4 4 9.16699 9.5 15.5 16.5s17.666 23.833 33.999 50.5s31 55.334 44 86.001s24.667 72 35 124s15.5 106.667 15.5 164v205h870v-646h123v-573h-410v215h-379v-215h-409v573zM655.001 654.999h-112c0 -54.667 -7.83301 -106.5 -23.5 -155.5
s-31.167 -84.5 -46.5 -106.5l-22 -35h204v297z" />
    <glyph glyph-name="uni0435" unicode="&#x435;" horiz-adv-x="1208" 
d="M1126 410h-644.999c12 -30 35.167 -56.333 69.5 -79s79.5 -34 135.5 -34c36.667 0 71.167 5.83301 103.5 17.5s55.833 23.5 70.5 35.5l21 19l163 -256c-12 -10.667 -29.333 -24 -52 -40s-70.5 -37.333 -143.5 -64s-147.5 -40 -223.5 -40
c-161.333 0 -297.333 52.333 -408 157s-166 230 -166 376s53.333 271.167 160 375.5s237.667 156.5 393 156.5c151.333 0 279.666 -50.5 384.999 -151.5s158 -221.167 158 -360.5c0 -22 -1.66699 -42.167 -5 -60.5s-7.33301 -31.5 -12 -39.5zM604.001 727
c-30 0 -57 -10.833 -81 -32.5s-41.333 -48.5 -52 -80.5h266c-10.667 31.333 -28 58 -52 80s-51 33 -81 33z" />
    <glyph glyph-name="uni0436" unicode="&#x436;" horiz-adv-x="1740" 
d="M655 279l-51 59l-194 -338h-430l356 573l-346 431h450l215 -273v273h410v-273l215 273h451l-347 -431l357 -573h-430l-195 338l-51 -59v-279h-410v279z" />
    <glyph glyph-name="uni0437" unicode="&#x437;" horiz-adv-x="1013" 
d="M922 737c0 -34 -7.16406 -64.999 -21.4971 -92.999s-31.5 -49.833 -51.5 -65.5s-39.833 -29 -59.5 -40s-37.167 -18.5 -52.5 -22.5l-20 -4c5.33301 -1.33301 13.166 -3.33301 23.499 -6s28.5 -9.83398 54.5 -21.501s48.833 -25.334 68.5 -41.001s37.667 -38.167 54 -67.5
s24.5 -62.666 24.5 -99.999c0 -78 -42 -148.667 -126 -212s-195.667 -95 -335 -95c-62.667 0 -122.334 7.16699 -179.001 21.5s-102.334 31.5 -137.001 51.5s-65.334 39.833 -92.001 59.5s-45.667 36.5 -57 50.5l-16 22l184 195
c5.33301 -6.66699 13.166 -15.167 23.499 -25.5s33.333 -24.166 69 -41.499s73.167 -26 112.5 -26c34 0 59.667 6.16699 77 18.5s26 26.666 26 42.999s-8.66699 30.666 -26 42.999s-43 18.5 -77 18.5h-82v226h82c26 0 46.167 5 60.5 15s21.5 21.833 21.5 35.5
s-7.16699 25.667 -21.5 36s-34.5 15.5 -60.5 15.5c-27.333 0 -54.666 -5.16699 -81.999 -15.5s-47.666 -20.833 -60.999 -31.5l-21 -14l-194 194c4 4 9.33301 10.167 16 18.5s23.334 22.333 50.001 42s56 37.334 88 53.001s74.667 29.667 128 42s109.333 18.5 168 18.5
c135.333 0 242.666 -30 321.999 -90s119 -129 119 -207z" />
    <glyph glyph-name="uni0438" unicode="&#x438;" horiz-adv-x="1269" 
d="M799 1004h348v-1004h-410v389l-286 -389h-349v1004h410v-390z" />
    <glyph glyph-name="uni0439" unicode="&#x439;" horiz-adv-x="1269" 
d="M618 1116c-105.333 0 -192.999 33.5 -262.999 100.5s-105 149.5 -105 247.5h287c0 -61.333 27.167 -92 81.5 -92s81.5 30.667 81.5 92h287c0 -98 -34.833 -180.5 -104.5 -247.5s-157.834 -100.5 -264.501 -100.5zM799.001 1004h348v-1004h-410v389l-286 -389h-349v1004
h410v-390z" />
    <glyph glyph-name="uni043A" unicode="&#x43a;" horiz-adv-x="1208" 
d="M1198 1004l-346 -431l356 -573h-430l-194 338l-72 -82v-256h-410v1004h410v-297l236 297h450z" />
    <glyph glyph-name="uni043B" unicode="&#x43b;" horiz-adv-x="1228" 
d="M205 1004l900.999 0.000976562v-1004h-410v645h-123c0 -243.333 -34.667 -416.833 -104 -520.5s-167.666 -155.5 -294.999 -155.5c-30 0 -60.333 2.83301 -91 8.5s-54.334 10.5 -71.001 14.5l-22 8v369c20.667 -6.66699 41 -10.334 61 -11.001c34 0 61.333 10 82 30
s37.834 63 51.501 129s20.5 160 20.5 282v205z" />
    <glyph glyph-name="uni043C" unicode="&#x43c;" horiz-adv-x="1413" 
d="M881 451l-185 -236l-184 236v-451h-410v1004h349l245 -308l246 308h348v-1004h-409v451z" />
    <glyph glyph-name="uni043D" unicode="&#x43d;" horiz-adv-x="1259" 
d="M512 328v-328h-410v1004h410v-318h215v318h410v-1004h-410v328h-215z" />
    <glyph glyph-name="uni043E" unicode="&#x43e;" horiz-adv-x="1269" 
d="M481 501.5c0 -45 13.667 -81.833 41 -110.5s61.5 -43 102.5 -43s75.167 14.333 102.5 43s41 65.5 41 110.5s-13.667 81.833 -41 110.5s-61.5 43 -102.5 43s-75.167 -14.333 -102.5 -43s-41 -65.5 -41 -110.5zM1198 502c0 -146 -55.333 -271.333 -166 -376
s-246.5 -157 -407.5 -157s-296.833 52.333 -407.5 157s-166 230 -166 376s55.333 271.167 166 375.5s246.5 156.5 407.5 156.5s296.833 -52.167 407.5 -156.5s166 -229.5 166 -375.5z" />
    <glyph glyph-name="uni043F" unicode="&#x43f;" horiz-adv-x="1259" 
d="M512 645v-645h-410v1004h1035v-1004h-410v645h-215z" />
    <glyph glyph-name="uni0440" unicode="&#x440;" horiz-adv-x="1310" 
d="M512 501.5c0 -46.333 14 -83.5 42 -111.5s65.333 -42 112 -42c40.667 0 74.667 14.333 102 43s41 65.5 41 110.5s-13.667 81.833 -41 110.5s-61.333 43 -102 43c-46.667 0 -84 -14 -112 -42s-42 -65.167 -42 -111.5zM512 123v-552.998h-410v1434h410v-123l10 15
c4 6 14.333 17.167 31 33.5s34.834 31 54.501 44s45.5 24.667 77.5 35s66.333 15.5 103 15.5c121.333 0 225.166 -49.167 311.499 -147.5s129.5 -223.166 129.5 -374.499c0 -152.667 -43 -277.834 -129 -375.501s-190 -146.5 -312 -146.5c-36.667 0 -71 4.66699 -103 14
s-58.333 21.166 -79 35.499s-38.5 28.666 -53.5 42.999s-25.833 26.5 -32.5 36.5z" />
    <glyph glyph-name="uni0441" unicode="&#x441;" horiz-adv-x="1116" 
d="M51 502c0 146 55.3291 271.169 165.996 375.502s246.667 156.5 408 156.5c57.333 0 111.833 -7.5 163.5 -22.5s94.334 -33 128.001 -54s63 -41.833 88 -62.5s43.167 -38.334 54.5 -53.001l16 -23l-246 -246c-4 6.66699 -10.333 15.167 -19 25.5
s-28.334 24.166 -59.001 41.499s-62.667 26 -96 26c-50.667 0 -92.334 -15.833 -125.001 -47.5s-49 -70.667 -49 -117s16.5 -85.166 49.5 -116.499s74.5 -47 124.5 -47c32.667 0 63.834 7.83301 93.501 23.5s50.5 31.167 62.5 46.5l18 22l246 -246
c-4 -5.33301 -9.66699 -12.833 -17 -22.5s-24.666 -27 -51.999 -52s-57.166 -46.833 -89.499 -65.5s-74.666 -35.834 -126.999 -51.501s-107.166 -23.5 -164.499 -23.5c-161.333 0 -297.333 52.333 -408 157s-166 230 -166 376z" />
    <glyph glyph-name="uni0442" unicode="&#x442;" horiz-adv-x="1044" 
d="M31 625v379h962v-379h-276v-625h-410v625h-276z" />
    <glyph glyph-name="uni0443" unicode="&#x443;" horiz-adv-x="1126" 
d="M174 -51c62.667 0 115.333 30.667 158 92l-352 963h419l154 -533l154 533h419l-368 -1014c-101.333 -280 -255 -420 -461 -420c-38 0 -75.833 3.33301 -113.5 10s-66.167 13.667 -85.5 21l-26 10v358c27.333 -13.333 61.333 -20 102 -20z" />
    <glyph glyph-name="uni0444" unicode="&#x444;" horiz-adv-x="1617" 
d="M604 311v359.001c-38 -2.66699 -71.333 -20.834 -100 -54.501s-43 -75 -43 -124s14.333 -90.667 43 -125s62 -52.833 100 -55.5zM1004 -40.999v-389h-410v389c-152.667 15.333 -281.334 74.5 -386.001 177.5s-157 221.333 -157 355s52.333 252 157 355
s233.334 162.167 386.001 177.5v410h410v-410c152.667 -15.333 281.167 -74.5 385.5 -177.5s156.5 -221.333 156.5 -355s-52.167 -252 -156.5 -355s-232.833 -162.167 -385.5 -177.5zM993 670.001v-359.001c38 2.66699 71.5 21.167 100.5 55.5s43.5 76 43.5 125
s-14.5 90.333 -43.5 124s-62.5 51.834 -100.5 54.501z" />
    <glyph glyph-name="uni0445" unicode="&#x445;" horiz-adv-x="1126" 
d="M676 0l-133 256l-133 -256h-430l296 512l-286 492h440l113 -236l112 236h441l-287 -492l297 -512h-430z" />
    <glyph glyph-name="uni0446" unicode="&#x446;" horiz-adv-x="1259" 
d="M102 0v1004h410v-646h174v646h410v-646h123v-573h-410v215h-707z" />
    <glyph glyph-name="uni0447" unicode="&#x447;" horiz-adv-x="1187" 
d="M655 0l-0.00195312 274.001c-61.333 -32.667 -129.333 -49 -204 -49c-109.333 0 -198.166 36.5 -266.499 109.5s-102.5 171.167 -102.5 294.5v375h410v-318c0 -61.333 27 -92 81 -92c15.333 0 29.833 2.66699 43.5 8s23.834 10.666 30.501 15.999l8 7v379h410v-1004h-410
z" />
    <glyph glyph-name="uni0448" unicode="&#x448;" horiz-adv-x="1730" 
d="M102 0v1004h410v-646h143v646h400v-646h143v646h410v-1004h-1506z" />
    <glyph glyph-name="uni0449" unicode="&#x449;" horiz-adv-x="1771" 
d="M102 0v1004h410v-646h143v646h400v-646h143v646h410v-646h123v-573h-410v215h-1219z" />
    <glyph glyph-name="uni044A" unicode="&#x44a;" horiz-adv-x="1198" 
d="M1137 369c0 -109.333 -37.332 -198.167 -111.999 -266.5s-177.334 -102.5 -308.001 -102.5h-512v625h-205v379h614v-277h103c130 0 232.5 -33.333 307.5 -100s112.5 -152.667 112.5 -258zM604.001 296.999h51c20.667 0 37.834 6.83301 51.501 20.5s20.5 30.667 20.5 51
s-6.83301 37.333 -20.5 51s-30.834 20.5 -51.501 20.5h-51v-143z" />
    <glyph glyph-name="uni044B" unicode="&#x44b;" horiz-adv-x="1669" 
d="M1546 1004v-1004h-409v1004h409zM502 297h51c20.667 0 37.834 6.83301 51.501 20.5s20.5 30.667 20.5 51s-6.83301 37.333 -20.5 51s-30.834 20.5 -51.501 20.5h-51v-143zM1034 369c0 -109.333 -37.168 -198.167 -111.501 -266.5s-177.166 -102.5 -308.499 -102.5h-512
v1004h410v-277h102c130 0 232.5 -33.333 307.5 -100s112.5 -152.667 112.5 -258z" />
    <glyph glyph-name="uni044C" unicode="&#x44c;" horiz-adv-x="1116" 
d="M502 297h71c20.667 0 37.834 6.83301 51.501 20.5s20.5 30.667 20.5 51s-6.83301 37.333 -20.5 51s-30.834 20.5 -51.501 20.5h-71v-143zM1055 369c0 -109.333 -37.332 -198.167 -111.999 -266.5s-177.334 -102.5 -308.001 -102.5h-533v1004h410v-277h123
c130 0 232.5 -33.333 307.5 -100s112.5 -152.667 112.5 -258z" />
    <glyph glyph-name="uni044D" unicode="&#x44d;" horiz-adv-x="1116" 
d="M1044 502c0 -146 -55.1699 -271.331 -165.503 -375.998s-246.166 -157 -407.499 -157c-57.333 0 -112 7.5 -164 22.5s-94.667 33.167 -128 54.5s-62.666 42.166 -87.999 62.499s-43.333 38.166 -54 53.499l-17 22l195 205c1.33301 -2.66699 4 -6.66699 8 -12
s12.833 -14.5 26.5 -27.5s28.667 -24.333 45 -34s37.5 -18.667 63.5 -27s53.333 -12.5 82 -12.5c36.667 0 70.5 8.66699 101.5 26s52.5 34 64.5 50l19 27h-308v246h308c-4 8 -10.833 17.5 -20.5 28.5s-30.167 26 -61.5 45s-65.666 28.5 -102.999 28.5
c-45.333 0 -86.666 -9.16699 -123.999 -27.5s-63.333 -37.166 -78 -56.499l-23 -29l-195 205c4 5.33301 9.83301 12.833 17.5 22.5s25.167 27.167 52.5 52.5s57 47.166 89 65.499s74.333 35.333 127 51s107.667 23.5 165 23.5c161.333 0 297.166 -52.167 407.499 -156.5
s165.5 -229.5 165.5 -375.5z" />
    <glyph glyph-name="uni044E" unicode="&#x44e;" horiz-adv-x="1751" 
d="M1679 502c0 -147.333 -53.167 -273.001 -159.5 -377.001s-237.5 -156 -393.5 -156c-124 0 -230 33.833 -318 101.5s-151.333 149.834 -190 246.501h-106v-317h-410v1004h410v-328h102c34 96.667 96.833 180.5 188.5 251.5s199.5 106.5 323.5 106.5
c155.333 0 286.333 -52.167 393 -156.5s160 -229.5 160 -375.5zM1260 501.499c0 49 -13 88.667 -39 119s-57.5 45.5 -94.5 45.5s-68.5 -15.167 -94.5 -45.5s-39 -70 -39 -119s13 -88.5 39 -118.5s57.5 -45 94.5 -45s68.5 15 94.5 45s39 69.5 39 118.5z" />
    <glyph glyph-name="uni044F" unicode="&#x44f;" horiz-adv-x="1157" 
d="M492 1004l542.001 0.00195312v-1004h-409v266h-31l-154 -266h-420l216 358c-4 2.66699 -9.83301 6.16699 -17.5 10.5s-21 14.666 -40 30.999s-35.833 34.333 -50.5 54s-27.667 45.667 -39 78s-17 66.833 -17 103.5c0 105.333 38.667 193.166 116 263.499
s178.666 105.5 303.999 105.5zM635.001 707.002l-82 0.00195312c-20.667 0 -37.834 -6.83301 -51.501 -20.5s-20.5 -30.834 -20.5 -51.501s6.83301 -37.834 20.5 -51.501s30.834 -20.5 51.501 -20.5h82v144z" />
    <glyph glyph-name="uni0451" unicode="&#x451;" horiz-adv-x="1208" 
d="M1126 410h-644.999c12 -30 35.167 -56.333 69.5 -79s79.5 -34 135.5 -34c36.667 0 71.167 5.83301 103.5 17.5s55.833 23.5 70.5 35.5l21 19l163 -256c-12 -10.667 -29.333 -24 -52 -40s-70.5 -37.333 -143.5 -64s-147.5 -40 -223.5 -40
c-161.333 0 -297.333 52.333 -408 157s-166 230 -166 376s53.333 271.167 160 375.5s237.667 156.5 393 156.5c151.333 0 279.666 -50.5 384.999 -151.5s158 -221.167 158 -360.5c0 -22 -1.66699 -42.167 -5 -60.5s-7.33301 -31.5 -12 -39.5zM604.001 727
c-30 0 -57 -10.833 -81 -32.5s-41.333 -48.5 -52 -80.5h266c-10.667 31.333 -28 58 -52 80s-51 33 -81 33zM156.001 1311c0 52 19.667 97.333 59 136s84.333 58 135 58s95.834 -19.333 135.501 -58s59.5 -84 59.5 -136s-19.833 -97.5 -59.5 -136.5
s-84.834 -58.5 -135.501 -58.5s-95.667 19.5 -135 58.5s-59 84.5 -59 136.5zM647.001 1311c0 52 19.833 97.333 59.5 136s84.834 58 135.501 58s95.667 -19.333 135 -58s59 -84 59 -136s-19.667 -97.5 -59 -136.5s-84.333 -58.5 -135 -58.5s-95.834 19.5 -135.501 58.5
s-59.5 84.5 -59.5 136.5z" />
    <glyph glyph-name="uni0452" unicode="&#x452;" horiz-adv-x="1269" 
d="M543 1434l-0.00195312 -113.001h194v-358h-194v-195c6.66699 10.667 16.834 23.834 30.501 39.501s44.334 36.834 92.001 63.501s98.834 40 153.501 40c106.667 0 193.167 -38.5 259.5 -115.5s99.5 -185.167 99.5 -324.5c0 -174.667 -43.333 -303.667 -130 -387
s-224.334 -125 -413.001 -125v389c88.667 0 133 34.333 133 103c0 20.667 -7.5 37.667 -22.5 51s-34.833 20 -59.5 20c-40.667 0 -74.667 -14.333 -102 -43s-41 -65.334 -41 -110.001v-369h-410v963h-143v358h143v113h410z" />
    <glyph glyph-name="uni0453" unicode="&#x453;" horiz-adv-x="952" 
d="M317 1116l185 348h430l-256 -348h-359zM911 1004v-379h-399v-625h-410v1004h809z" />
    <glyph glyph-name="uni0454" unicode="&#x454;" horiz-adv-x="1116" 
d="M51 502c0 146 55.3281 271.168 165.995 375.501s246.667 156.5 408 156.5c57.333 0 111.833 -7.5 163.5 -22.5s94.334 -33 128.001 -54s63 -41.833 88 -62.5s43.167 -38.334 54.5 -53.001l16 -23l-194 -205c-1.33301 2.66699 -4.16602 6.83398 -8.49902 12.501
s-13.333 15 -27 28s-28.667 24.167 -45 33.5s-37.5 18.166 -63.5 26.499s-53.333 12.5 -82 12.5c-36.667 0 -70.334 -8.5 -101.001 -25.5s-52.334 -33.833 -65.001 -50.5l-18 -26h307v-246h-307c4 -8 10.833 -17.5 20.5 -28.5s30.167 -26.167 61.5 -45.5s65.333 -29 102 -29
c45.333 0 86.833 9.33301 124.5 28s63.834 37.334 78.501 56.001l23 29l194 -205c-4 -5.33301 -9.66699 -12.833 -17 -22.5s-24.666 -27 -51.999 -52s-57.166 -46.833 -89.499 -65.5s-74.666 -35.834 -126.999 -51.501s-107.166 -23.5 -164.499 -23.5
c-161.333 0 -297.333 52.333 -408 157s-166 230 -166 376z" />
    <glyph glyph-name="uni0455" unicode="&#x455;" horiz-adv-x="1003" 
d="M922 860l-185 -194.003c-34 34 -71.333 51 -112 51c-23.333 0 -42.833 -5.5 -58.5 -16.5s-23.5 -22.5 -23.5 -34.5c0 -13.333 14 -26.333 42 -39s62.167 -26.167 102.5 -40.5s80.5 -31.666 120.5 -51.999s74 -51 102 -92s42 -89.5 42 -145.5
c0 -87.333 -41.667 -163.833 -125 -229.5s-195 -98.5 -335 -98.5c-62.667 0 -122.5 7.16699 -179.5 21.5s-102.833 31.5 -137.5 51.5s-65.334 39.833 -92.001 59.5s-45.334 36.5 -56.001 50.5l-17 22l185 195c5.33301 -6.66699 13.833 -15.167 25.5 -25.5
s33.5 -24.166 65.5 -41.499s63 -26 93 -26c24.667 0 44.5 6.16699 59.5 18.5s22.5 26.833 22.5 43.5c0 13.333 -14 26.166 -42 38.499s-62.167 25.333 -102.5 39s-80.666 30.834 -120.999 51.501s-74.5 51.5 -102.5 92.5s-42 90.167 -42 147.5
c0 84.667 41.667 160.334 125 227.001s192 100 326 100c56 0 108.5 -6.16699 157.5 -18.5s88.833 -27 119.5 -44s57.334 -33.667 80.001 -50s38.667 -30.5 48 -42.5z" />
    <glyph glyph-name="uni0456" unicode="&#x456;" horiz-adv-x="655" 
d="M522 1004v-1004h-409v1004h409zM543 1311c0 -57.333 -21.167 -105.833 -63.5 -145.5s-96.333 -59.5 -162 -59.5s-119.667 19.833 -162 59.5s-63.5 88.167 -63.5 145.5s21.167 105.833 63.5 145.5s96.333 59.5 162 59.5s119.667 -19.833 162 -59.5
s63.5 -88.167 63.5 -145.5z" />
    <glyph glyph-name="uni0457" unicode="&#x457;" horiz-adv-x="655" 
d="M-123 1294.5c0 51.667 19.833 97 59.5 136s84.667 58.5 135 58.5s95.333 -19.5 135 -58.5s59.5 -84.333 59.5 -136s-19.833 -97 -59.5 -136s-84.667 -58.5 -135 -58.5s-95.333 19.5 -135 58.5s-59.5 84.333 -59.5 136zM369 1294.5c0 51.667 19.667 97 59 136
s84.333 58.5 135 58.5s95.834 -19.5 135.501 -58.5s59.5 -84.333 59.5 -136s-19.833 -97 -59.5 -136s-84.834 -58.5 -135.501 -58.5s-95.667 19.5 -135 58.5s-59 84.333 -59 136zM522 1004v-1004h-409v1004h409z" />
    <glyph glyph-name="uni0458" unicode="&#x458;" horiz-adv-x="655" 
d="M113 51v953.001h409v-943c0 -328 -129.667 -491.667 -389 -491c-39.333 0 -77.833 3.33301 -115.5 10s-65.5 13.667 -83.5 21l-26 10v358c31.333 -13.333 65.333 -20 102 -20c31.333 0 56.333 9.16699 75 27.5s28 43.166 28 74.499zM543 1311
c0 -57.333 -21.167 -105.833 -63.5 -145.5s-96.333 -59.5 -162 -59.5s-119 19.833 -160 59.5s-61.5 88.167 -61.5 145.5s20.5 105.833 61.5 145.5s94.333 59.5 160 59.5s119.667 -19.833 162 -59.5s63.5 -88.167 63.5 -145.5z" />
    <glyph glyph-name="uni0459" unicode="&#x459;" horiz-adv-x="1679" 
d="M1065 287h72c20.667 0 37.667 6.83301 51 20.5s20 30.667 20 51s-6.83301 37.333 -20.5 51s-30.5 20.5 -50.5 20.5h-72v-143zM205 1004l879.999 0.000976562v-287h113c130 0 232.5 -33.5 307.5 -100.5s112.5 -153 112.5 -258s-37.5 -191 -112.5 -258
s-177.5 -100.5 -307.5 -100.5h-522v645h-103c0 -243.333 -34.667 -416.833 -104 -520.5s-167.666 -155.5 -294.999 -155.5c-30 0 -60.333 2.83301 -91 8.5s-54.334 10.5 -71.001 14.5l-22 8v369c20.667 -6.66699 41 -10.334 61 -11.001c34 0 61.333 10 82 30
s37.834 63 51.501 129s20.5 160 20.5 282v205z" />
    <glyph glyph-name="uni045A" unicode="&#x45a;" horiz-adv-x="1699" 
d="M1638 358.5c0 -105 -37.5 -191 -112.5 -258s-177.167 -100.5 -306.5 -100.5h-523v369h-184v-369h-410v1004h410v-287h184v287h410v-287h113c130 0 232.333 -33.5 307 -100.5s112 -153 112 -258zM1085 287h72c20.667 0 37.834 6.83301 51.501 20.5s20.5 30.667 20.5 51
s-6.83301 37.333 -20.5 51s-30.834 20.5 -51.501 20.5h-72v-143z" />
    <glyph glyph-name="uni045B" unicode="&#x45b;" horiz-adv-x="1300" 
d="M543 1434l-0.00292969 -113.002h194v-358h-194v-195c6.66699 10.667 16.834 23.834 30.501 39.501s44.334 36.834 92.001 63.501s98.834 40 153.501 40c105.333 0 191.5 -37.5 258.5 -112.5s100.5 -177.167 100.5 -306.5v-492h-410v399
c0 35.333 -10.5 64.666 -31.5 87.999s-46.667 35 -77 35s-57.333 -14.667 -81 -44s-35.5 -65.666 -35.5 -108.999v-369h-410v963h-143v358h143v113h410z" />
    <glyph glyph-name="uni045C" unicode="&#x45c;" horiz-adv-x="1208" 
d="M440 1116l185 348h430l-256 -348h-359zM1198 1004l-346 -431l356 -573h-430l-194 338l-72 -82v-256h-410v1004h410v-297l236 297h450z" />
    <glyph glyph-name="uni045E" unicode="&#x45e;" horiz-adv-x="1126" 
d="M174 -51c62.667 0 115.333 30.667 158 92l-352 963h419l154 -533l154 533h419l-368 -1014c-101.333 -280 -255 -420 -461 -420c-38 0 -75.833 3.33301 -113.5 10s-66.167 13.667 -85.5 21l-26 10v358c27.333 -13.333 61.333 -20 102 -20zM566.999 1116
c-105.333 0 -192.999 33.5 -262.999 100.5s-105 149.5 -105 247.5h286c0 -61.333 27.333 -92 82 -92s82 30.667 82 92h287c0 -98 -34.833 -180.5 -104.5 -247.5s-157.834 -100.5 -264.501 -100.5z" />
    <glyph glyph-name="uni045F" unicode="&#x45f;" horiz-adv-x="1259" 
d="M512 1004v-646h215v646h410v-1004h-318v-215h-409v215h-308v1004h410z" />
    <glyph glyph-name="uni0490" unicode="&#x490;" horiz-adv-x="1249" 
d="M154 0v1434h614v256h451v-666h-605v-1024h-460z" />
    <glyph glyph-name="uni0491" unicode="&#x491;" horiz-adv-x="952" 
d="M911 625h-399v-625h-410v1004h410v194h399v-573z" />
    <glyph glyph-name="uni1E9E" unicode="&#x1e9e;" horiz-adv-x="1443" 
d="M1300 1065l-184 -256.001c6.66699 -1.33301 16.167 -4.33301 28.5 -9s33.833 -16.667 64.5 -36s57.667 -41.166 81 -65.499s44.5 -59.5 63.5 -105.5s28.5 -97 28.5 -153c0 -121.333 -49.167 -225 -147.5 -311s-227.833 -129 -388.5 -129h-139v348h61
c88.667 0 133 37.5 133 112.5s-44.333 112.5 -133 112.5h-61v287l143 195h-102c-46.667 0 -84 -14 -112 -42s-42 -65.333 -42 -112v-901h-461v911c0 150 52.167 274.667 156.5 374s239.833 149 406.5 149h604v-369z" />
    <glyph glyph-name="endash" unicode="&#x2013;" horiz-adv-x="1095" 
d="M1034 768v-338h-973v338h973z" />
    <glyph glyph-name="emdash" unicode="&#x2014;" horiz-adv-x="1587" 
d="M1526 768v-338h-1465v338h1465z" />
    <glyph glyph-name="quoteleft" unicode="&#x2018;" horiz-adv-x="645" 
d="M358 809l-317 184l307 482l256 -144z" />
    <glyph glyph-name="quoteright" unicode="&#x2019;" horiz-adv-x="645" 
d="M287 1475l317 -185l-307 -481l-256 143z" />
    <glyph glyph-name="quotesinglbase" unicode="&#x201a;" horiz-adv-x="614" 
d="M236 399l317 -184l-307 -481l-256 143z" />
    <glyph glyph-name="quotedblleft" unicode="&#x201c;" horiz-adv-x="1105" 
d="M829 819l-297 174l308 482l225 -134zM338 819l-297 174l307 482l225 -134z" />
    <glyph glyph-name="quotedblright" unicode="&#x201d;" horiz-adv-x="1105" 
d="M276 1475l297 -175l-307 -481l-225 133zM768 1475l297 -175l-307 -481l-226 133z" />
    <glyph glyph-name="quotedblbase" unicode="&#x201e;" horiz-adv-x="1054" 
d="M205 389l297 -174l-307 -481l-226 133zM696 389l297 -174l-307 -481l-225 133z" />
    <glyph glyph-name="dagger" unicode="&#x2020;" horiz-adv-x="1034" 
d="M338 1178v256h358v-256h246v-318h-246v-624h-358v624h-246v318h246z" />
    <glyph glyph-name="daggerdbl" unicode="&#x2021;" horiz-adv-x="1034" 
d="M338 1229v205h358v-205h246v-318h-246v-153h246v-318h-246v-204h-358v204h-246v318h246v153h-246v318h246z" />
    <glyph glyph-name="bullet" unicode="&#x2022;" horiz-adv-x="921" 
d="M154 491.5c0 87.667 29.333 160.834 88 219.501s131.667 88 219 88s160.333 -29.333 219 -88s88 -131.834 88 -219.501s-29.333 -160.834 -88 -219.501s-131.667 -88 -219 -88s-160.333 29.333 -219 88s-88 131.834 -88 219.501z" />
    <glyph glyph-name="ellipsis" unicode="&#x2026;" horiz-adv-x="1781" 
d="M72 184c0 57.333 21.167 105.833 63.5 145.5s96.166 59.5 161.499 59.5s119.166 -19.833 161.499 -59.5s63.5 -88.167 63.5 -145.5s-21.167 -105.666 -63.5 -144.999s-96.166 -59 -161.499 -59s-119.166 19.667 -161.499 59s-63.5 87.666 -63.5 144.999zM666 184
c0 57.333 21.167 105.833 63.5 145.5s96.166 59.5 161.499 59.5s119.166 -19.833 161.499 -59.5s63.5 -88.167 63.5 -145.5s-21.167 -105.666 -63.5 -144.999s-96.166 -59 -161.499 -59s-119.166 19.667 -161.499 59s-63.5 87.666 -63.5 144.999zM1260 184
c0 57.333 21 105.833 63 145.5s95.833 59.5 161.5 59.5s119.667 -19.833 162 -59.5s63.5 -88.167 63.5 -145.5s-21.167 -105.666 -63.5 -144.999s-96.333 -59 -162 -59s-119.5 19.667 -161.5 59s-63 87.666 -63 144.999z" />
    <glyph glyph-name="perthousand" unicode="&#x2030;" horiz-adv-x="2652" 
d="M276 0l902 1434h389l-901 -1434h-390zM317 1096c0 -31.333 9.33301 -56.333 28 -75s43.667 -28 75 -28s56.166 9.33301 74.499 28s27.5 43.667 27.5 75s-9.16699 56.166 -27.5 74.499s-43.166 27.5 -74.499 27.5s-56.333 -9.16699 -75 -27.5s-28 -43.166 -28 -74.499z
M809 1095.5c0 -98.333 -38.167 -184.333 -114.5 -258s-167.833 -110.5 -274.5 -110.5s-198.167 36.833 -274.5 110.5s-114.5 159.667 -114.5 258s38.167 184.333 114.5 258s167.833 110.5 274.5 110.5s198.167 -36.833 274.5 -110.5s114.5 -159.667 114.5 -258zM1526 338
c0 31.333 -9.33301 56.166 -28 74.499s-43.667 27.5 -75 27.5s-56.166 -9.16699 -74.499 -27.5s-27.5 -43.166 -27.5 -74.499s9.16699 -56.166 27.5 -74.499s43.166 -27.5 74.499 -27.5s56.333 9.16699 75 27.5s28 43.166 28 74.499zM1034 337.5
c0 98.333 38.333 184.5 115 258.5s168.167 111 274.5 111s197.666 -37 273.999 -111s114.5 -160.167 114.5 -258.5s-38.167 -184.333 -114.5 -258s-167.666 -110.5 -273.999 -110.5s-197.833 36.833 -274.5 110.5s-115 159.667 -115 258zM2335 338
c0 31.333 -9.66699 56.166 -29 74.499s-44 27.5 -74 27.5s-54.5 -9.16699 -73.5 -27.5s-28.5 -43.166 -28.5 -74.499s9.5 -56.166 28.5 -74.499s43.5 -27.5 73.5 -27.5s54.667 9.16699 74 27.5s29 43.166 29 74.499zM1843 337.5c0 98.333 38.333 184.5 115 258.5
s168.167 111 274.5 111s197.666 -37 273.999 -111s114.5 -160.167 114.5 -258.5s-38.167 -184.333 -114.5 -258s-167.666 -110.5 -273.999 -110.5s-197.833 36.833 -274.5 110.5s-115 159.667 -115 258z" />
    <glyph glyph-name="guilsinglleft" unicode="&#x2039;" horiz-adv-x="808" 
d="M748 870l-277 -378l277 -379h-410l-277 379l277 378h410z" />
    <glyph glyph-name="guilsinglright" unicode="&#x203a;" horiz-adv-x="808" 
d="M338 492l-277 378h410l277 -378l-277 -379h-410z" />
    <glyph glyph-name="fraction" unicode="&#x2044;" horiz-adv-x="522" 
d="M-379 0l891 1434h389l-891 -1434h-389z" />
    <glyph glyph-name="uni2070" unicode="&#x2070;" horiz-adv-x="778" 
d="M317 1269.5c0 -45 6.83105 -78.333 20.498 -100s30.834 -32.5 51.501 -32.5c48 0 72 44.333 72 133s-24 133 -72 133c-19.333 0 -36.166 -11 -50.499 -33s-21.5 -55.5 -21.5 -100.5zM736.998 1270c0 -110.667 -33.333 -201.5 -100 -272.5s-149.167 -106.5 -247.5 -106.5
s-181 35.5 -248 106.5s-100.5 161.833 -100.5 272.5s33.5 201.5 100.5 272.5s149.667 106.5 248 106.5s180.833 -35.5 247.5 -106.5s100 -161.833 100 -272.5z" />
    <glyph glyph-name="uni2074" unicode="&#x2074;" horiz-adv-x="716" 
d="M614 1638v-378h72v-246h-72v-113h-276v113h-318v225l328 399h266zM246 1239h102v133z" />
    <glyph glyph-name="uni2075" unicode="&#x2075;" horiz-adv-x="686" 
d="M430 1382c61.333 0 114.165 -22.1699 158.498 -66.5029s66.5 -97.166 66.5 -158.499c0 -79.333 -28 -143.5 -84 -192.5s-133.667 -73.5 -233 -73.5c-44 0 -85 3.66699 -123 11s-68.333 16.5 -91 27.5s-42.167 22.333 -58.5 34s-27.833 20.834 -34.5 27.501l-11 13
l134 143c34 -34 74.667 -51 122 -51c20.667 0 37.834 6.83301 51.501 20.5s20.5 30.5 20.5 50.5c0 40.667 -20.333 61.334 -61 62.001c-9.33301 0 -19.166 -1.66699 -29.499 -5s-18.5 -7.33301 -24.5 -12l-8 -4h-153l51 430h481v-204h-246l-10 -62
c20.667 6.66699 48 10 82 10z" />
    <glyph glyph-name="uni2076" unicode="&#x2076;" horiz-adv-x="686" 
d="M604 1638l-164 -204c5.33301 -1.33301 13.166 -3.5 23.499 -6.5s28.5 -11 54.5 -24s48.833 -28.333 68.5 -46s37.834 -43.167 54.501 -76.5s25 -71.333 25 -114c0 -79.333 -29 -145.166 -87 -197.499s-134.833 -78.5 -230.5 -78.5s-172.5 26 -230.5 78s-87 118 -87 198
c0 36.667 5.83301 72.167 17.5 106.5s23.5 59.166 35.5 74.499l18 24l205 266h297zM410 1167.5c0 41 -20.5 61.5 -61.5 61.5s-61.5 -20.5 -61.5 -61.5s20.5 -61.5 61.5 -61.5s61.5 20.5 61.5 61.5z" />
    <glyph glyph-name="uni2077" unicode="&#x2077;" horiz-adv-x="624" 
d="M20 1638h584v-256l-215 -481h-297l215 481h-287v256z" />
    <glyph glyph-name="uni2078" unicode="&#x2078;" horiz-adv-x="696" 
d="M348.5 1096c41 0 61.5 17 61.5 51s-20.5 51 -61.5 51s-61.5 -17 -61.5 -51s20.5 -51 61.5 -51zM348.5 1362c15 0 27.167 4 36.5 12s14 17.5 14 28.5s-4.66699 20.667 -14 29s-21.5 12.5 -36.5 12.5s-27.333 -4.16699 -37 -12.5s-14.5 -18 -14.5 -29
s4.83301 -20.5 14.5 -28.5s22 -12 37 -12zM348.5 1649c98.333 0 174.002 -19.833 227.002 -59.5s79.5 -88.167 79.5 -145.5c0 -32.667 -10.167 -62 -30.5 -88s-40.833 -43.667 -61.5 -53l-31 -13c4 -1.33301 9.16699 -3 15.5 -5s17.666 -7.83301 33.999 -17.5
s31 -20.5 44 -32.5s24.667 -28.667 35 -50s15.5 -44.333 15.5 -69c0 -60 -29 -112.5 -87 -157.5s-138.167 -67.5 -240.5 -67.5s-182.666 22.5 -240.999 67.5s-87.5 97.5 -87.5 157.5c0 39.333 12 73.5 36 102.5s47.667 48.167 71 57.5l37 14
c-2.66699 1.33301 -7.16699 3 -13.5 5s-16.333 7.5 -30 16.5s-25.834 19 -36.501 30s-20.5 25.667 -29.5 44s-13.5 37.833 -13.5 58.5c0 57.333 26.667 105.833 80 145.5s129.166 59.5 227.499 59.5z" />
    <glyph glyph-name="uni2079" unicode="&#x2079;" horiz-adv-x="686" 
d="M82 901l164.001 204.999c-5.33301 1.33301 -13.166 3.33301 -23.499 6s-28.5 10.5 -54.5 23.5s-48.833 28.333 -68.5 46s-37.834 43.334 -54.501 77.001s-25 71.5 -25 113.5c0 79.333 29.167 145.333 87.5 198s135.166 79 230.499 79s172 -26 230 -78
s87 -118.333 87 -199c0 -36.667 -6.16699 -72.167 -18.5 -106.5s-23.833 -58.833 -34.5 -73.5l-18 -25l-205 -266h-297zM276.001 1372.5c0 -41 20.5 -61.5 61.5 -61.5s61.5 20.5 61.5 61.5s-20.5 61.5 -61.5 61.5s-61.5 -20.5 -61.5 -61.5z" />
    <glyph glyph-name="uni2080" unicode="&#x2080;" horiz-adv-x="778" 
d="M317 163.5c0 -45 6.83105 -78.333 20.498 -100s30.834 -32.5 51.501 -32.5c48 0 72 44.333 72 133s-24 133 -72 133c-19.333 0 -36.166 -11 -50.499 -33s-21.5 -55.5 -21.5 -100.5zM736.998 164c0 -110.667 -33.333 -201.5 -100 -272.5s-149.167 -106.5 -247.5 -106.5
s-181 35.5 -248 106.5s-100.5 161.833 -100.5 272.5s33.5 201.5 100.5 272.5s149.667 106.5 248 106.5s180.833 -35.5 247.5 -106.5s100 -161.833 100 -272.5z" />
    <glyph glyph-name="uni2081" unicode="&#x2081;" horiz-adv-x="512" 
d="M184 532h256v-737h-286v430h-123v205c32.667 4 62 14.5 88 31.5s43.667 33.167 53 48.5z" />
    <glyph glyph-name="uni2082" unicode="&#x2082;" horiz-adv-x="706" 
d="M655 307c0 -35.333 -8.83398 -68.667 -26.501 -100s-36.334 -55.166 -56.001 -71.499s-45.167 -35.166 -76.5 -56.499s-52 -36 -62 -44h211v-240h-594c0 66.667 10.667 125.667 32 177s47 90.666 77 117.999s60 50.833 90 70.5s55.5 37.167 76.5 52.5
s31.5 29.666 31.5 42.999c0 10.667 -4.66699 20.167 -14 28.5s-21.666 12.5 -36.999 12.5c-12 0 -22.833 -3.83301 -32.5 -11.5s-16.5 -15.5 -20.5 -23.5l-4 -12l-219 88c2.66699 5.33301 6 12.833 10 22.5s15.167 26 33.5 49s38.833 43.5 61.5 61.5
s53.834 34.5 93.501 49.5s82.5 22.5 128.5 22.5c94 0 167 -22 219 -66s78 -100.667 78 -170z" />
    <glyph glyph-name="uni2083" unicode="&#x2083;" horiz-adv-x="716" 
d="M532 174c4 -1.33301 8.83008 -2.66797 14.4971 -4.00098s16.334 -6.16602 32.001 -14.499s29.334 -17.833 41.001 -28.5s22.334 -26 32.001 -46s14.5 -42.333 14.5 -67c0 -61.333 -28 -114.833 -84 -160.5s-130.667 -68.5 -224 -68.5
c-72.667 0 -136.167 10.167 -190.5 30.5s-91.166 40.833 -110.499 61.5l-26 31l133 143c36.667 -40.667 81 -61 133 -61c40.667 0 61 17 61 51s-23.667 51 -71 51h-72v164h72c15.333 0 27.666 4.16699 36.999 12.5s14 17.833 14 28.5s-4.83301 20.167 -14.5 28.5
s-21.834 12.5 -36.501 12.5c-16.667 0 -33.5 -4.5 -50.5 -13.5s-30.167 -17.5 -39.5 -25.5l-13 -12l-133 143c5.33301 8 14.5 18.167 27.5 30.5s45.833 29.166 98.5 50.499s112.334 32 179.001 32c90 0 161.333 -20.5 214 -61.5s79 -88.833 79 -143.5
c0 -32.667 -9.83301 -62.667 -29.5 -90s-39.167 -46.666 -58.5 -57.999z" />
    <glyph glyph-name="uni2084" unicode="&#x2084;" horiz-adv-x="716" 
d="M614 532v-378h72v-246h-72v-113h-276v113h-318v225l328 399h266zM246 133h102v133z" />
    <glyph glyph-name="uni2085" unicode="&#x2085;" horiz-adv-x="686" 
d="M430 276c61.333 0 114.165 -22.1699 158.498 -66.5029s66.5 -97.166 66.5 -158.499c0 -79.333 -28 -143.5 -84 -192.5s-133.667 -73.5 -233 -73.5c-44 0 -85 3.66699 -123 11s-68.333 16.5 -91 27.5s-42.167 22.333 -58.5 34s-27.833 20.834 -34.5 27.501l-11 13l134 143
c34 -34 74.667 -51 122 -51c20.667 0 37.834 6.83301 51.501 20.5s20.5 30.5 20.5 50.5c0 40.667 -20.333 61.334 -61 62.001c-9.33301 0 -19.166 -1.66699 -29.499 -5s-18.5 -7.33301 -24.5 -12l-8 -4h-153l51 430h481v-204h-246l-10 -62c20.667 6.66699 48 10 82 10z" />
    <glyph glyph-name="uni2086" unicode="&#x2086;" horiz-adv-x="686" 
d="M604 532l-164 -204c5.33301 -1.33301 13.166 -3.5 23.499 -6.5s28.5 -10.833 54.5 -23.5s48.833 -28 68.5 -46s37.834 -43.667 54.501 -77s25 -71.333 25 -114c0 -79.333 -29 -145.166 -87 -197.499s-134.833 -78.5 -230.5 -78.5s-172.5 26 -230.5 78s-87 118 -87 198
c0 36.667 5.83301 72.167 17.5 106.5s23.5 59.166 35.5 74.499l18 24l205 266h297zM410 61.5c0 41 -20.5 61.5 -61.5 61.5s-61.5 -20.5 -61.5 -61.5s20.5 -61.5 61.5 -61.5s61.5 20.5 61.5 61.5z" />
    </font>
</defs>
</svg>
