<?xml version="1.0" standalone="no"?>
<!DOCTYPE svg PUBLIC "-//W3C//DTD SVG 1.1//EN" "http://www.w3.org/Graphics/SVG/1.1/DTD/svg11.dtd" >
<svg xmlns="http://www.w3.org/2000/svg" xmlns:xlink="http://www.w3.org/1999/xlink" version="1.1">
<metadata>
Created by FontForge 20190801 at Tue May 30 06:32:50 2017
 By Jimmy Wärting
Copyright (c) 2017 by TypeType. Designers Ivan Gladkikh, Pavel Emelyanov. Technical designers Olexa Volochay, Nadyr Rakhimov, Dmitriy Greshnev. All rights reserved.
</metadata>
<defs>
<font id="TTNorms-BlackItalic" horiz-adv-x="1269" >
  <font-face 
    font-family="TT Norms Black Italic"
    font-weight="900"
    font-style="italic"
    font-stretch="normal"
    units-per-em="2048"
    panose-1="2 0 9 3 4 0 0 9 0 4"
    ascent="1638"
    descent="-410"
    x-height="1004"
    cap-height="1434"
    bbox="-471 -532.001 2945.01 2060"
    underline-thickness="0"
    underline-position="0"
    unicode-range="U+000D-FB06"
  />
<missing-glyph horiz-adv-x="0" 
 />
    <glyph glyph-name="ij" unicode="ij" horiz-adv-x="1310" 
d="M684 41c-66.667 -27.333 -144.334 -40.998 -233.001 -40.998c-130 0 -226 38.5 -288 115.5s-79.333 181.833 -52 314.5l122 574h410l-119 -553c-6.66699 -36.667 -2.16699 -66.334 13.5 -89.001s43.5 -34 83.5 -34c18 0 37.833 2.66699 59.5 8s39.167 10.666 52.5 15.999
l19 6l137 646h409l-200 -943c-36.667 -173.333 -94 -298.5 -172 -375.5s-183.333 -115.5 -316 -115.5c-39.333 0 -77.5 3.33301 -114.5 10s-64.167 13.667 -81.5 21l-27 10l66 307c28.667 -13.333 61.334 -20 98.001 -20c68 0 112.333 47.667 133 143zM270 1288
c0 61.333 24 114.666 72 159.999s104.667 68 170 68s117.833 -17.5 157.5 -52.5s59.5 -79.167 59.5 -132.5c0 -61.333 -24.167 -114.166 -72.5 -158.499s-105.333 -66.5 -171 -66.5s-118 17.333 -157 52s-58.5 78 -58.5 130zM928 1288c0 61.333 23.833 114.666 71.5 159.999
s104.334 68 170.001 68s118.167 -17.5 157.5 -52.5s59 -79.167 59 -132.5c0 -61.333 -24.167 -114.166 -72.5 -158.499s-105.333 -66.5 -171 -66.5s-117.834 17.333 -156.501 52s-58 78 -58 130z" />
    <glyph glyph-name="uniFB00" unicode="ff" horiz-adv-x="1556" 
d="M1606 963l-75.999 -359h-205l-127 -604h-410l127 604h-307l-127 -604h-409l127 604h-133l75 359h133l13 51c58.667 280 217 420 475 420c38 0 75.5 -3.5 112.5 -10.5s63.5 -13.833 79.5 -20.5l27 -10l-72 -338c-22 13.333 -53.333 20 -94 20
c-70.667 0 -112.334 -30.667 -125.001 -92l-6 -20h307l21 92c60 280 219 420 477 420c38 0 75.167 -3.5 111.5 -10.5s62.5 -13.833 78.5 -20.5l27 -10l-72 -338c-22 13.333 -53.333 20 -94 20c-34 0 -62 -8.5 -84 -25.5s-35.667 -39.167 -41 -66.5l-14 -61h205z" />
    <glyph glyph-name="uniFB01" unicode="fi" horiz-adv-x="1433" 
d="M1411 963l-203.002 -963.001h-409l127 604h-318l-127 -604h-409l127 604h-133l75 359h133l21 92c30 140.667 82.833 245.834 158.5 315.501s179.167 104.5 310.5 104.5c38 0 75.833 -3.5 113.5 -10.5s66.167 -13.833 85.5 -20.5l26 -10l-71 -338
c-23.333 13.333 -55.666 20 -96.999 20c-31.333 0 -58.166 -8.83301 -80.499 -26.5s-36.5 -39.5 -42.5 -65.5l-14 -61h727zM1049 1268c0 61.333 23.833 114.5 71.5 159.5s104.334 67.5 170.001 67.5s118.167 -17.333 157.5 -52s59 -78.667 59 -132
c0 -61.333 -24.167 -114.333 -72.5 -159s-105.333 -67 -171 -67s-117.834 17.5 -156.501 52.5s-58 78.5 -58 130.5z" />
    <glyph glyph-name="uniFB02" unicode="fl" horiz-adv-x="1433" 
d="M1004 973c1.33301 5.33301 2 13.334 2 24.001c0 31.333 -12.667 57.333 -38 78s-60 31 -104 31c-45.333 0 -84.333 -13 -117 -39s-53 -57.333 -61 -94l-2 -10h209l-76 -359h-209l-127 -604h-409l127 604h-133l75 359h133c34 154 106 277.833 216 371.5
s249.667 140.5 419 140.5c160 0 285.667 -36.333 377 -109s137 -170.334 137 -293.001c0 -35.333 -4 -72 -12 -110l-203 -963h-409z" />
    <glyph glyph-name="uniFB03" unicode="ffi" horiz-adv-x="2150" 
d="M2128 963l-203 -963.002h-409l126 604h-317l-127 -604h-410l127 604h-307l-127 -604h-409l127 604h-133l75 359h133l13 51c28.667 140.667 81.167 245.834 157.5 315.501s180.166 104.5 311.499 104.5c38 0 75.833 -3.5 113.5 -10.5s65.834 -13.833 84.501 -20.5l27 -10
l-72 -338c-26 13.333 -59.333 20 -100 20c-61.333 0 -101 -30.667 -119 -92l-6 -20h307l21 92c31.333 140.667 84.833 245.834 160.5 315.501s179.167 104.5 310.5 104.5c38 0 75.5 -3.5 112.5 -10.5s64.833 -13.833 83.5 -20.5l27 -10l-72 -338
c-26 13.333 -59.333 20 -100 20c-64 0 -103.667 -30.667 -119 -92l-14 -61h727zM1761 1268c0 61.333 24 114.5 72 159.5s104.667 67.5 170 67.5s117.833 -17.333 157.5 -52s59.5 -78.667 59.5 -132c0 -61.333 -24.167 -114.333 -72.5 -159s-105.333 -67 -171 -67
s-118 17.5 -157 52.5s-58.5 78.5 -58.5 130.5z" />
    <glyph glyph-name="uniFB06" unicode="st" horiz-adv-x="1863" 
d="M1655 993l205.002 0.00488281l-76 -348h-205l-41 -194c-8 -28.667 -5.5 -53 7.5 -73s37.167 -30 72.5 -30c18 0 36.167 1.66699 54.5 5s31.5 7.33301 39.5 12l14 4l-73 -349c-62.667 -27.333 -138.667 -40.666 -228 -39.999c-100 0 -178.833 24.5 -236.5 73.5
s-86.5 119.833 -86.5 212.5c0 36.667 5.33301 81 16 133l51 246h-102l76 348h102c1.33301 5.33301 2 13.666 2 24.999c0 30 -13.667 55.5 -41 76.5s-61.333 31.5 -102 31.5c-49.333 0 -90 -14 -122 -42s-48 -64.333 -48 -109c0 -42 19 -80.333 57 -115l-200 -190
c-34 31.333 -74.333 47 -121 47c-26 0 -45.5 -5.16699 -58.5 -15.5s-19.5 -21.5 -19.5 -33.5c0 -16.667 17.333 -34.834 52 -54.501s73.167 -39.167 115.5 -58.5s81 -49 116 -89s52.5 -86.667 52.5 -140c0 -100 -40.667 -184.5 -122 -253.5s-202 -103.5 -362 -103.5
c-62.667 0 -122.334 7.16699 -179.001 21.5s-103 31.5 -139 51.5s-67.667 39.833 -95 59.5s-47.333 36.5 -60 50.5l-16 22l221 191c5.33301 -6.66699 13.166 -14.834 23.499 -24.501s31.166 -22.834 62.499 -39.501s63.333 -25 96 -25c24.667 0 44.5 5.83301 59.5 17.5
s22.5 25.667 22.5 42s-17.667 34.166 -53 53.499s-74.166 38.166 -116.499 56.499s-81.333 48 -117 89s-53.5 88.167 -53.5 141.5c0 88.667 40 167.834 120 237.501s191.667 106.5 335 110.5c16.667 126.667 78.5 233.5 185.5 320.5s245.833 130.5 416.5 130.5
c150 0 272.167 -34.833 366.5 -104.5s141.5 -159.834 141.5 -270.501c0 -40 -3.33301 -75.667 -10 -107z" />
    <glyph glyph-name="c_t.liga" unicode="ct" horiz-adv-x="1976" 
d="M53 432c0 166.667 64.834 308.001 194.501 424.001s284.167 175.333 463.5 178c18 125.333 79.833 230.166 185.5 314.499s236.834 126.5 393.501 126.5c142 0 258.833 -34.833 350.5 -104.5s137.5 -159.834 137.5 -270.501c0 -39.333 -3.66699 -75 -11 -107h205
l-76 -348h-204l-41 -194c-8 -28.667 -5.33301 -53 8 -73s36.666 -30 69.999 -30c18 0 36 1.66699 54 5s32 7.33301 42 12l14 4l-74 -349c-54.667 -27.333 -126.334 -40.666 -215.001 -39.999c-104 0 -186 24.5 -246 73.5s-90 119.833 -90 212.5c0 36.667 5.66699 81 17 133
l51 246h-102l75 348h103c1.33301 5.33301 2 13.666 2 24.999c0 30 -11.667 55.5 -35 76.5s-52.666 31.5 -87.999 31.5c-40.667 0 -75.834 -14.667 -105.501 -44s-44.5 -67 -44.5 -113c0 -56 23.333 -106 70 -150l-291 -237c-4 6.66699 -10 14.334 -18 23.001
s-26.333 21 -55 37s-59.667 24 -93 24c-57.333 0 -106.333 -19.167 -147 -57.5s-61 -84.833 -61 -139.5c0 -36.667 13.5 -67.667 40.5 -93s62.5 -38 106.5 -38c32.667 0 65 7.5 97 22.5s55.667 30.167 71 45.5l22 22l205 -258c-4 -5.33301 -10 -12.5 -18 -21.5
s-26.833 -25 -56.5 -48s-61.167 -43.5 -94.5 -61.5s-77.333 -34.167 -132 -48.5s-112 -21.5 -172 -21.5c-142 0 -262.167 46.5 -360.5 139.5s-147.5 200.833 -147.5 323.5z" />
    <glyph glyph-name="s_p.liga" unicode="sp" horiz-adv-x="2283" 
d="M1612 983l-21.001 -91.9961c8 9.33301 19.333 21.5 34 36.5s47.834 34.833 99.501 59.5s106.167 37 163.5 37c104 0 189.167 -38.833 255.5 -116.5s99.5 -175.5 99.5 -293.5c0 -186 -53.667 -338.167 -161 -456.5s-230 -177.5 -368 -177.5
c-60 0 -113.833 12.833 -161.5 38.5s-80.5 50.834 -98.5 75.501l-24 39l-119 -563h-410l301 1413c2.66699 19.333 4 33 4 41c0 32.667 -10.833 57.834 -32.5 75.501s-50.5 26.5 -86.5 26.5c-45.333 0 -81.833 -13.167 -109.5 -39.5s-41.5 -60.833 -41.5 -103.5
c0 -20.667 4.5 -41.167 13.5 -61.5s18.167 -35.166 27.5 -44.499l14 -17l-200 -190c-34 31.333 -74.333 47 -121 47c-26 0 -45.5 -5.16699 -58.5 -15.5s-19.5 -21.5 -19.5 -33.5c0 -16.667 17.333 -34.834 52 -54.501s73.167 -39.167 115.5 -58.5s81 -49 116 -89
s52.5 -86.667 52.5 -140c0 -100 -40.667 -184.5 -122 -253.5s-202 -103.5 -362 -103.5c-62.667 0 -122.334 7.16699 -179.001 21.5s-103 31.5 -139 51.5s-67.667 39.833 -95 59.5s-47.333 36.5 -60 50.5l-16 22l221 191c5.33301 -6.66699 13.166 -14.834 23.499 -24.501
s31.166 -22.834 62.499 -39.501s63.333 -25 96 -25c24.667 0 44.5 5.83301 59.5 17.5s22.5 25.667 22.5 42s-17.667 34.166 -53 53.499s-74.166 38.166 -116.499 56.499s-81.333 48 -117 89s-53.5 88.167 -53.5 141.5c0 91.333 39.667 171.166 119 239.499
s191.333 104.5 336 108.5c10.667 125.333 69.334 231.833 176.001 319.5s236.334 131.5 389.001 131.5c147.333 0 267.833 -36.667 361.5 -110s140.5 -166 140.5 -278c0 -40.667 -3.33301 -75.334 -10 -104.001zM1688 655.004c-50.667 0 -93.833 -17.668 -129.5 -53.001
s-53.5 -79.666 -53.5 -132.999c0 -35.333 12 -64.333 36 -87s55 -34 93 -34c48 0 89.333 17.5 124 52.5s52 80.5 52 136.5c0 34 -11.5 62.167 -34.5 84.5s-52.167 33.5 -87.5 33.5z" />
    <glyph glyph-name="f_t.liga" unicode="ft" horiz-adv-x="1628" 
d="M1081 1096l32.9961 152.998h359l-62 -286h205l-76 -359h-205l-32 -153c-5.33301 -30 -0.666016 -54.667 14.001 -74s37 -29 67 -29c18 0 35.833 1.66699 53.5 5s31.5 7.33301 41.5 12l12 4l-74 -349c-68 -27.333 -146.333 -40.666 -235 -39.999
c-124 0 -212.333 35.833 -265 107.5s-64 175.5 -34 311.5l43 205h-318l-127 -604h-409l127 604h-133l75 359h133l21 92c30 140.667 82.833 245.834 158.5 315.501s179.167 104.5 310.5 104.5c38 0 75.833 -3.5 113.5 -10.5s66.167 -13.833 85.5 -20.5l26 -10l-71 -338
c-27.333 13.333 -61.666 20 -102.999 20c-31.333 0 -57.166 -8.5 -77.499 -25.5s-33.5 -39.167 -39.5 -66.5l-14 -61h236c35.333 0 69.333 13.333 102 40s52.334 57.667 59.001 93z" />
    <glyph glyph-name=".notdef" horiz-adv-x="0" 
 />
    <glyph glyph-name="glyph1" horiz-adv-x="0" 
 />
    <glyph glyph-name="glyph1" horiz-adv-x="0" 
 />
    <glyph glyph-name="uni000D" unicode="&#xd;" horiz-adv-x="0" 
 />
    <glyph glyph-name="space" unicode=" " horiz-adv-x="440" 
 />
    <glyph glyph-name="exclam" unicode="!" horiz-adv-x="716" 
d="M541 481h-348l131 953h491zM84 162c0 61.333 23.8311 114.499 71.498 159.499s104.334 67.5 170.001 67.5s118.334 -17.333 158.001 -52s59.5 -78.667 59.5 -132c0 -61.333 -24.333 -114.166 -73 -158.499s-105.667 -66.5 -171 -66.5s-117.5 17.333 -156.5 52
s-58.5 78 -58.5 130z" />
    <glyph glyph-name="quotedbl" unicode="&#x22;" horiz-adv-x="1013" 
d="M662 1434l-115 -543h-359l115 543h359zM1133 1434l-115 -543h-359l115 543h359z" />
    <glyph glyph-name="numbersign" unicode="#" horiz-adv-x="1556" 
d="M8 328l121 286h205l86 205h-205l121 287h205l141 328h369l-142 -328h174l142 328h368l-141 -328h215l-121 -287h-215l-86 -205h215l-121 -286h-215l-141 -328h-369l142 328h-174l-142 -328h-368l141 328h-205zM788 819l-86 -205h175l86 205h-175z" />
    <glyph glyph-name="dollar" unicode="$" horiz-adv-x="1280" 
d="M549 338c38 0 74.167 8.83008 108.5 26.4971s51.5 45.834 51.5 84.501c0 22 -17.833 43.167 -53.5 63.5s-78.667 41.666 -129 63.999s-100.833 48.5 -151.5 78.5s-93.667 71.667 -129 125s-53 114.333 -53 183c0 121.333 43.333 229.5 130 324.5
s208.334 153.833 365.001 176.5l35 164h379l-39 -184c60 -16.667 115.333 -39.667 166 -69s86 -54.333 106 -75l29 -30l-309 -264c-5.33301 6.66699 -13.833 15.167 -25.5 25.5s-35.334 23.666 -71.001 39.999s-71.834 24.5 -108.501 24.5
c-42 0 -75.333 -8.16699 -100 -24.5s-37 -38.166 -37 -65.499c0 -22 17.667 -43 53 -63s78.333 -41.167 129 -63.5s101.5 -48.166 152.5 -77.499s94.333 -70.666 130 -123.999s53.5 -114 53.5 -182c0 -130 -41.667 -242.5 -125 -337.5s-202 -156.167 -356 -183.5l-35 -170
h-379l37 179c-76.667 18 -148.5 45.333 -215.5 82s-114.833 69.334 -143.5 98.001l-43 41l308 254c8 -9.33301 19.833 -20.5 35.5 -33.5s47.334 -30.833 95.001 -53.5s94.167 -34 139.5 -34z" />
    <glyph glyph-name="percent" unicode="%" horiz-adv-x="1843" 
d="M567 1198c-30 0 -56.167 -11.333 -78.5 -34s-33.5 -51 -33.5 -85c0 -26 8.5 -46.833 25.5 -62.5s40.5 -23.5 70.5 -23.5c31.333 0 58.333 11 81 33s34 50.667 34 86c0 26 -9 46.833 -27 62.5s-42 23.5 -72 23.5zM956 1126c0 -105.333 -43.333 -198.167 -130 -278.5
s-187.334 -120.5 -302.001 -120.5c-106.667 0 -193.667 33.167 -261 99.5s-101 145.833 -101 238.5c0 104 43.333 196.5 130 277.5s187.334 121.5 302.001 121.5c106.667 0 193.667 -33.167 261 -99.5s101 -145.833 101 -238.5zM184 -0.000976562l1190 1434h404l-1190 -1434
h-404zM1411 439.999c-30 0 -56.332 -11.167 -78.999 -33.5s-34 -50.5 -34 -84.5c0 -26 8.66699 -46.833 26 -62.5s41 -23.5 71 -23.5c31.333 0 58.166 10.833 80.499 32.5s33.5 50.167 33.5 85.5c0 26 -8.83301 46.833 -26.5 62.5s-41.5 23.5 -71.5 23.5zM1800 368.999
c0 -105.333 -43.333 -198.333 -130 -279s-187.334 -121 -302.001 -121c-106.667 0 -193.667 33.167 -261 99.5s-101 145.833 -101 238.5c0 104 43.333 196.667 130 278s187.334 122 302.001 122c106.667 0 193.667 -33.167 261 -99.5s101 -145.833 101 -238.5z" />
    <glyph glyph-name="ampersand" unicode="&#x26;" horiz-adv-x="1413" 
d="M1225 358c23.333 -27.333 48.333 -40.999 75 -40.999l70 11l-70 -328c-49.333 -27.333 -112.666 -41 -189.999 -41c-32.667 0 -63.334 4.5 -92.001 13.5s-51.834 20 -69.501 33s-33 26.333 -46 40s-22.5 24.5 -28.5 32.5l-8 14c-12 -9.33301 -29 -21.5 -51 -36.5
s-68.5 -34.833 -139.5 -59.5s-144.5 -37 -220.5 -37c-130 0 -233.5 36.5 -310.5 109.5s-115.5 158.167 -115.5 255.5c0 57.333 12.833 112.166 38.5 164.499s57 96 94 131s73.667 65.5 110 91.5s67.5 44.333 93.5 55l38 18c-64 83.333 -96 173 -96 269
c0 118.667 46.5 218.667 139.5 300s212.5 122 358.5 122c116 0 211.167 -31.167 285.5 -93.5s111.5 -135.833 111.5 -220.5c0 -45.333 -10.5 -90.833 -31.5 -136.5s-46.5 -84.5 -76.5 -116.5s-60.5 -60.667 -91.5 -86s-56.5 -44 -76.5 -56l-33 -21l90 -133
c38 46.667 62 92 72 136h383c-15.333 -68 -40.666 -134.5 -75.999 -199.5s-67.333 -112.5 -96 -142.5zM557 287.001c24.667 0 48.335 4 71.002 12s38.667 16.333 48 25l16 14l-117 197c-2.66699 0 -12.834 -5.83301 -30.501 -17.5s-36.334 -30.5 -56.001 -56.5
s-29.5 -53.333 -29.5 -82c0 -24.667 8.83301 -46.167 26.5 -64.5s41.5 -27.5 71.5 -27.5zM719.001 936.001c74 44 110.667 89.667 110 137c0 22 -6.33301 39.833 -19 53.5s-30.667 20.5 -54 20.5c-24.667 0 -46.5 -9.16699 -65.5 -27.5s-28.5 -41.833 -28.5 -70.5
c0 -16.667 4.66699 -34.5 14 -53.5s19 -34.167 29 -45.5z" />
    <glyph glyph-name="quotesingle" unicode="'" horiz-adv-x="552" 
d="M672 1434l-115 -543h-369l115 543h369z" />
    <glyph glyph-name="parenleft" unicode="(" horiz-adv-x="839" 
d="M548.5 512c-17.667 -84.667 -26.502 -168.002 -26.502 -250.002c0 -96.667 11 -191.5 33 -284.5s44 -161.833 66 -206.5l32 -68l-356 -184c-5.33301 8 -12.833 20.167 -22.5 36.5s-26.5 50.166 -50.5 101.499s-45.167 104.333 -63.5 159s-35 122.834 -50 204.501
s-22.5 162.834 -22.5 243.501c0 101.333 11.667 202.5 35 303.5s53.333 191.333 90 271s77.5 155.834 122.5 228.501s89.833 135.167 134.5 187.5s85.667 97.666 123 135.999s67.333 67.333 90 87s34.667 28.834 36 27.501l278 -184
c-9.33301 -9.33301 -22.166 -23 -38.499 -41s-46.666 -55.667 -90.999 -113s-85 -116 -122 -176s-74.667 -133.667 -113 -221s-66.333 -173.333 -84 -258z" />
    <glyph glyph-name="parenright" unicode=")" horiz-adv-x="839" 
d="M324 512c16.667 76.667 24.665 159.33 23.998 247.997c0 96.667 -10.833 191.834 -32.5 285.501s-43.5 162.834 -65.5 207.501l-31 68l356 184c5.33301 -8 12.833 -20.167 22.5 -36.5s26.5 -50.166 50.5 -101.499s45.167 -104.666 63.5 -159.999s35 -123.833 50 -205.5
s22.5 -162.834 22.5 -243.501c0 -101.333 -11.5 -202.5 -34.5 -303.5s-53 -191 -90 -270s-78 -154.833 -123 -227.5s-90 -135.167 -135 -187.5s-86 -97.666 -123 -135.999s-67 -67.333 -90 -87s-34.5 -28.834 -34.5 -27.501l-277 184c9.33301 9.33301 22.333 23 39 41
s46.834 55.667 90.501 113s83.834 116 120.501 176s74.167 133.667 112.5 221s66.5 173.333 84.5 258z" />
    <glyph glyph-name="asterisk" unicode="*" horiz-adv-x="901" 
d="M508 1434h307l-59 -185l188 62l27 -256l-180 -41l86 -144l-248 -174l-82 172l-144 -172l-202 174l139 144l-147 41l137 256l159 -62z" />
    <glyph glyph-name="plus" unicode="+" horiz-adv-x="1085" 
d="M864 1085l-63 -297h297l-80 -378h-297l-64 -297h-368l63 297h-297l80 378h297l64 297h368z" />
    <glyph glyph-name="comma" unicode="," horiz-adv-x="614" 
d="M219 403l287 -188l-410 -481l-227 145z" />
    <glyph glyph-name="hyphen" unicode="-" horiz-adv-x="890" 
d="M903 788l-78 -368h-768l78 368h768z" />
    <glyph glyph-name="period" unicode="." horiz-adv-x="593" 
d="M14 162c0 61.333 24 114.499 72 159.499s104.667 67.5 170 67.5s117.833 -17.333 157.5 -52s59.5 -78.667 59.5 -132c0 -61.333 -24.167 -114.166 -72.5 -158.499s-105.333 -66.5 -171 -66.5s-118 17.333 -157 52s-58.5 78 -58.5 130z" />
    <glyph glyph-name="slash" unicode="/" horiz-adv-x="1136" 
d="M1290 1454l-1001 -1884h-410l1002 1884h409z" />
    <glyph glyph-name="zero" unicode="0" horiz-adv-x="1454" 
d="M725 369c44 0 83.666 17.998 118.999 53.998s63.166 80.333 83.499 133s35.666 105.334 45.999 158.001s15.5 99.334 15.5 140.001c0 70.667 -13.667 123.5 -41 158.5s-61.333 52.5 -102 52.5c-57.333 0 -107.166 -31 -149.499 -93s-71.666 -128.5 -87.999 -199.5
s-24.5 -135.167 -24.5 -192.5c0 -70.667 13.333 -123.5 40 -158.5s60.334 -52.5 101.001 -52.5zM689.999 -41.002c-165.333 0 -301.833 57.001 -409.5 171.001s-161.5 262.333 -161.5 445c0 259.333 77.5 474.166 232.5 644.499s332.167 255.5 531.5 255.5
c165.333 0 301.833 -57 409.5 -171s161.5 -262.667 161.5 -446c0 -259.333 -77.5 -474 -232.5 -644s-332.167 -255 -531.5 -255z" />
    <glyph glyph-name="one" unicode="1" horiz-adv-x="890" 
d="M539 1434l408.999 0.000976562l-303 -1434h-461l203 963h-225l59 276c62.667 9.33301 120.334 30.166 173.001 62.499s90 62.833 112 91.5z" />
    <glyph glyph-name="two" unicode="2" 
d="M1085 0l-1116 0.000976562c20.667 100 52.167 191.167 94.5 273.5s88.333 150.166 138 203.499s102.5 101.5 158.5 144.5s109.667 79.167 161 108.5s97.5 56.333 138.5 81s74.167 50.334 99.5 77.001s38 55 38 85c0 22 -8.16699 39.333 -24.5 52s-39.833 19 -70.5 19
c-27.333 0 -54.5 -7.5 -81.5 -22.5s-47.5 -30.5 -61.5 -46.5l-20 -23l-353 174c5.33301 9.33301 13.166 22 23.499 38s34.333 43.833 72 83.5s78.334 74.834 122.001 105.501s102.667 58.667 177 84s152.5 38 234.5 38c143.333 0 263.166 -42.333 359.499 -127
s144.5 -182.334 144.5 -293.001c0 -78 -14.667 -147.667 -44 -209s-68.333 -111.5 -117 -150.5s-97.5 -72.833 -146.5 -101.5s-100.5 -57.334 -154.5 -86.001s-93.333 -54.667 -118 -78h437z" />
    <glyph glyph-name="three" unicode="3" horiz-adv-x="1218" 
d="M979 737c5.33301 -2.66699 11.8359 -5.99609 19.5029 -9.99609s22 -14.5 43 -31.5s39.333 -35.833 55 -56.5s30 -48.334 43 -83.001s19.5 -71.334 19.5 -110.001c0 -135.333 -57.333 -250.333 -172 -345s-273 -142 -475 -142c-72.667 0 -141.667 8.16699 -207 24.5
s-118.833 36.166 -160.5 59.499s-77.834 46.166 -108.501 68.499s-53 41.833 -67 58.5l-20 25l299 256c8 -8 19.167 -18.333 33.5 -31s43.333 -29.5 87 -50.5s86.834 -31.5 129.501 -31.5c50.667 0 90.167 11.667 118.5 35s42.5 53.333 42.5 90
c0 26 -10.833 47.5 -32.5 64.5s-53.167 25.5 -94.5 25.5h-139l74 348h154c36.667 0 66.5 10.333 89.5 31s34.5 46 34.5 76c0 24.667 -8.83301 45.5 -26.5 62.5s-42.834 25.5 -75.501 25.5s-67.167 -7.83301 -103.5 -23.5s-63.833 -31.167 -82.5 -46.5l-29 -22l-211 266
c4 5.33301 10.833 12.833 20.5 22.5s31.167 26 64.5 49s69.5 43.5 108.5 61.5s90.667 34.5 155 49.5s131.833 22.5 202.5 22.5c143.333 0 262.166 -39.333 356.499 -118s141.5 -165.667 141.5 -261c0 -28.667 -3.5 -56.667 -10.5 -84s-16 -51.333 -27 -72
s-24 -40.167 -39 -58.5s-30.333 -34.333 -46 -48s-31.667 -26 -48 -37s-31.333 -20.167 -45 -27.5s-26.334 -13.5 -38.001 -18.5s-20.167 -8.16699 -25.5 -9.5z" />
    <glyph glyph-name="four" unicode="4" horiz-adv-x="1290" 
d="M1147 584h133l-80 -379h-133l-43 -205h-461l43 205h-624l86 409l741 820h518zM686 584l68 317l-267 -317h199z" />
    <glyph glyph-name="five" unicode="5" horiz-adv-x="1300" 
d="M877 942c110.667 0 201.665 -38.8311 272.998 -116.498s107 -171.834 107 -282.501c0 -170.667 -61.333 -310.667 -184 -420s-283.667 -164 -483 -164c-72.667 0 -142 8.16699 -208 24.5s-119.833 36.166 -161.5 59.499s-78.667 46.166 -111 68.499
s-55.166 41.833 -68.499 58.5l-21 25l316 268c6.66699 -8 16.834 -17.833 30.501 -29.5s41.334 -27.167 83.001 -46.5s83.5 -29 125.5 -29c52 0 93.833 14.333 125.5 43s47.5 61.667 47.5 99c0 32.667 -11.667 59.834 -35 81.501s-53.333 32.5 -90 32.5
c-27.333 0 -53.333 -5 -78 -15s-42.334 -20 -53.001 -30l-17 -16l-301 61l232 820h962l-80 -379h-557l-51 -150c56 24.667 121.667 37 197 37z" />
    <glyph glyph-name="six" unicode="6" horiz-adv-x="1320" 
d="M1286 1434l-390.999 -454.998c10.667 -1.33301 25 -4.33301 43 -9s49.5 -17.334 94.5 -38.001s84.5 -45 118.5 -73s65.333 -68.667 94 -122s43 -112 43 -176c0 -166.667 -62.833 -308.667 -188.5 -426s-292.167 -176 -499.5 -176
c-158.667 0 -288.834 41.667 -390.501 125s-152.5 184.333 -152.5 303c0 147.333 77.333 309.666 232 486.999l487 560h510zM649.001 338.002c44 0 81.666 15.999 112.999 47.999s47 70 47 114c0 32.667 -10.167 59.834 -30.5 81.501s-47.166 32.5 -80.499 32.5
c-40.667 0 -77.667 -16 -111 -48s-50 -70.333 -50 -115c0 -31.333 10.5 -58 31.5 -80s47.833 -33 80.5 -33z" />
    <glyph glyph-name="seven" unicode="7" horiz-adv-x="1146" 
d="M272 1434h1045l-78 -369l-737 -1065h-504l702 1014h-516z" />
    <glyph glyph-name="eight" unicode="8" horiz-adv-x="1310" 
d="M633 317c46.667 0 86.332 14.333 118.999 43s49 61 49 97c0 28.667 -11.333 53.5 -34 74.5s-52.334 31.5 -89.001 31.5c-45.333 0 -84.666 -14.333 -117.999 -43s-50 -60.667 -50 -96c0 -28.667 11.333 -53.667 34 -75s52.334 -32 89.001 -32zM759.998 911
c39.333 0 73.001 11.668 101.001 35.001s42 50 42 80c0 23.333 -9.83301 44.166 -29.5 62.499s-45.834 27.5 -78.501 27.5c-40.667 0 -74.5 -12 -101.5 -36s-40.5 -51 -40.5 -81c0 -23.333 9.66699 -43.833 29 -61.5s45.333 -26.5 78 -26.5zM593.999 -40.999
c-161.333 0 -292.833 40.332 -394.5 120.999s-152.5 174 -152.5 280c0 168 79.333 294.333 238 379c45.333 24.667 72 37 80 37c-9.33301 6.66699 -21.333 16.167 -36 28.5s-33.5 39.666 -56.5 81.999s-34.5 87.5 -34.5 135.5c0 121.333 53.833 227.166 161.5 317.499
s253.167 135.5 436.5 135.5c143.333 0 262.666 -38.667 357.999 -116s143 -163.666 143 -258.999c-1.33301 -154 -86.666 -274.333 -255.999 -361c4 -2.66699 10.167 -6 18.5 -10s22.333 -13.833 42 -29.5s37.167 -33.167 52.5 -52.5s29 -45.666 41 -78.999
s18 -68.333 18 -105c0 -139.333 -59 -258.166 -177 -356.499s-278.667 -147.5 -482 -147.5z" />
    <glyph glyph-name="nine" unicode="9" horiz-adv-x="1320" 
d="M154 0l391 454.999c-10.667 1.33301 -25 4.33301 -43 9s-49.5 17.167 -94.5 37.5s-84.5 44.5 -118.5 72.5s-65.333 68.667 -94 122s-43 112 -43 176c0 166.667 62.667 308.834 188 426.501s292 176.5 500 176.5c158.667 0 288.667 -41.667 390 -125
s152 -184.333 152 -303c0 -147.333 -77 -310 -231 -488l-487 -559h-510zM791 1096c-44 0 -81.668 -16.168 -113.001 -48.501s-47 -70.166 -47 -113.499c0 -32.667 10.167 -60 30.5 -82s46.833 -33 79.5 -33c40.667 0 77.834 16 111.501 48s50.5 70.667 50.5 116
c0 31.333 -10.5 58 -31.5 80s-47.833 33 -80.5 33z" />
    <glyph glyph-name="colon" unicode=":" horiz-adv-x="593" 
d="M14 162c0 61.333 24 114.499 72 159.499s104.667 67.5 170 67.5s117.833 -17.333 157.5 -52s59.5 -78.667 59.5 -132c0 -61.333 -24.167 -114.166 -72.5 -158.499s-105.333 -66.5 -171 -66.5s-118 17.333 -157 52s-58.5 78 -58.5 130zM150 796.999
c0 61.333 23.834 114.5 71.501 159.5s104.167 67.5 169.5 67.5s117.833 -17.333 157.5 -52s59.5 -78.667 59.5 -132c0 -61.333 -24.167 -114.333 -72.5 -159s-105.333 -67 -171 -67s-117.834 17.5 -156.501 52.5s-58 78.5 -58 130.5z" />
    <glyph glyph-name="semicolon" unicode=";" horiz-adv-x="655" 
d="M217 395l287 -188l-408 -473l-227 145zM211 797c0 61.333 23.8311 114.5 71.498 159.5s104.334 67.5 170.001 67.5s118.334 -17.333 158.001 -52s59.5 -78.667 59.5 -132c0 -61.333 -24.333 -114.333 -73 -159s-105.667 -67 -171 -67s-117.5 17.5 -156.5 52.5
s-58.5 78.5 -58.5 130.5z" />
    <glyph glyph-name="less" unicode="&#x3c;" horiz-adv-x="1075" 
d="M43 348l66 307l1028 359l-78 -373l-494 -154l428 -153l-75 -344z" />
    <glyph glyph-name="equal" unicode="=" horiz-adv-x="1034" 
d="M985 543l-70 -328h-890l69 328h891zM1081 993l-69 -327h-891l69 327h891z" />
    <glyph glyph-name="greater" unicode="&#x3e;" horiz-adv-x="1075" 
d="M1061 655l-66 -307l-1030 -358l80 372l494 154l-428 154l73 344z" />
    <glyph glyph-name="question" unicode="?" horiz-adv-x="1177" 
d="M373 530c0 54.667 13 102.834 39 144.501s57.333 74.5 94 98.5s73.167 46.167 109.5 66.5s67.5 42.166 93.5 65.499s39 48.666 39 75.999c0 42 -28.667 63 -86 63c-31.333 0 -61.166 -7.5 -89.499 -22.5s-48.5 -29.167 -60.5 -42.5l-20 -23l-347 170
c5.33301 9.33301 12.833 22 22.5 38s33 43.833 70 83.5s77.333 74.834 121 105.501s102.334 58.667 176.001 84s151.5 38 233.5 38c152.667 0 276.5 -38.667 371.5 -116s142.5 -168 142.5 -272c0 -68 -14.333 -128.667 -43 -182s-65.167 -97.333 -109.5 -132
s-89.333 -66 -135 -94s-89.334 -59 -131.001 -93s-70.834 -69 -87.501 -105h-399c-2.66699 14.667 -4 31 -4 49zM285 162c0 61.333 23.833 114.499 71.5 159.499s104.334 67.5 170.001 67.5s118.167 -17.333 157.5 -52s59 -78.667 59 -132
c0 -61.333 -24.167 -114.166 -72.5 -158.499s-105.333 -66.5 -171 -66.5s-117.834 17.333 -156.501 52s-58 78 -58 130z" />
    <glyph glyph-name="at" unicode="@" horiz-adv-x="1822" 
d="M934 614c-32.667 0 -61.667 -13.667 -87 -41s-38 -58.666 -38 -93.999c0 -24.667 8.16699 -45.834 24.5 -63.501s36.833 -26.5 61.5 -26.5c31.333 0 60 13.333 86 40s39 57.667 39 93c0 26 -8.16699 47.833 -24.5 65.5s-36.833 26.5 -61.5 26.5zM907 881
c32.667 0 62.999 -6.1709 90.999 -18.5039s47.667 -24.166 59 -35.499l16 -18l12 61h277l-82 -389c-2.66699 -13.333 -4 -22.666 -4 -27.999c0 -22 6.83301 -39.833 20.5 -53.5s31.5 -20.5 53.5 -20.5c40.667 0 77.667 23.167 111 69.5s50 114.5 50 204.5
c0 122.667 -46.333 223.667 -139 303s-210.667 119 -354 119c-169.333 0 -321 -64.167 -455 -192.5s-201 -279.833 -201 -454.5c0 -131.333 42.667 -244 128 -338s195.666 -141 330.999 -141c64 0 127.5 10.167 190.5 30.5s109.5 40.833 139.5 61.5l47 31l125 -205
c-5.33301 -4 -13.166 -10.167 -23.499 -18.5s-32.5 -22.333 -66.5 -42s-69.833 -37.334 -107.5 -53.001s-85.834 -29.667 -144.501 -42s-118.667 -18.5 -180 -18.5c-203.333 0 -374.333 68.5 -513 205.5s-208 302.5 -208 496.5c0 168 43.333 324 130 468s204 258 352 342
s308.667 126 482 126c210 0 387.167 -62.5 531.5 -187.5s216.5 -276.167 216.5 -453.5s-43.667 -316.166 -131 -416.499s-195.333 -150.5 -324 -150.5c-52 0 -97.333 10.5 -136 31.5s-65 41.833 -79 62.5l-20 33c-8 -9.33301 -19.667 -21.166 -35 -35.499
s-47.166 -33.166 -95.499 -56.499s-98.5 -35 -150.5 -35c-83.333 0 -153.333 28.667 -210 86s-85 129 -85 215c0 132.667 39.333 242 118 328s166.334 129 263.001 129z" />
    <glyph glyph-name="A" unicode="A" horiz-adv-x="1515" 
d="M911 625l-24 358l-180 -358h204zM940 276h-410l-139 -276h-504l826 1434h512l219 -1434h-477z" />
    <glyph glyph-name="B" unicode="B" horiz-adv-x="1474" 
d="M788 0h-727l304 1434h653c143.333 0 256 -33.167 338 -99.5s123 -145.166 123 -236.499c0 -28.667 -3.16699 -56 -9.5 -82s-15 -48.833 -26 -68.5s-23.667 -38.834 -38 -57.501s-29 -34.5 -44 -47.5s-30.333 -25.333 -46 -37s-30 -20.834 -43 -27.501
s-24.833 -12.667 -35.5 -18s-19 -8.66602 -25 -9.99902l-8 -5c5.33301 -2.66699 12.833 -6.33398 22.5 -11.001s26.834 -16.5 51.501 -35.5s46.167 -39.167 64.5 -60.5s35 -49.666 50 -84.999s22.5 -72.333 22.5 -111c0 -126.667 -55.333 -232 -166 -316
s-264.334 -126 -461.001 -126zM596 348h210.999c40.667 0 74.334 12.667 101.001 38s40 56.333 40 93c0 26 -9.5 48.167 -28.5 66.5s-43.5 27.5 -73.5 27.5h-203zM902.999 1085h-151l-39 -184h159c34 0 62.333 10 85 30s34 45 34 75c0 22 -8.16699 40.667 -24.5 56
s-37.5 23 -63.5 23z" />
    <glyph glyph-name="C" unicode="C" horiz-adv-x="1540" 
d="M1006 1065c-112 0 -210.329 -38.5049 -294.996 -115.505s-127 -172.833 -127 -287.5c0 -80.667 29.667 -149.667 89 -207s132.666 -86 219.999 -86c64 0 126 14.333 186 43s104.333 56.667 133 84l41 43l228 -310c-5.33301 -6.66699 -13.833 -16.167 -25.5 -28.5
s-38 -34.166 -79 -65.499s-84.667 -58.666 -131 -81.999s-106.833 -44.833 -181.5 -64.5s-152.334 -29.5 -233.001 -29.5c-203.333 0 -373.5 65.167 -510.5 195.5s-205.5 282.833 -205.5 457.5c0 241.333 90 445.5 270 612.5s403.333 250.5 670 250.5
c78 0 152.333 -10 223 -30s128.667 -44 174 -72s84.666 -56 117.999 -84s57.333 -52 72 -72l23 -29l-330 -281c-2.66699 4 -7.33398 9.83301 -14.001 17.5s-21 20.334 -43 38.001s-44.833 33.334 -68.5 47.001s-54 26.334 -91 38.001s-74.5 17.5 -112.5 17.5z" />
    <glyph glyph-name="D" unicode="D" horiz-adv-x="1576" 
d="M365 1434l534 -0.00195312c194 0 355.833 -62.167 485.5 -186.5s194.5 -271.166 194.5 -440.499c0 -225.333 -85.667 -416.166 -257 -572.499s-384 -234.5 -638 -234.5h-623zM842 1024h-103l-131 -614h123c104 0 193.167 36.167 267.5 108.5s111.5 159.5 111.5 261.5
c0 70.667 -24.833 129 -74.5 175s-114.167 69 -193.5 69z" />
    <glyph glyph-name="E" unicode="E" horiz-adv-x="1392" 
d="M602 379h696l-79 -379h-1158l304 1434h1136l-80 -379h-676l-32 -154h512l-74 -348h-512z" />
    <glyph glyph-name="F" unicode="F" horiz-adv-x="1361" 
d="M365 1434h1146l-84 -400h-686l-39 -184h523l-86 -399h-523l-94 -451h-461z" />
    <glyph glyph-name="G" unicode="G" horiz-adv-x="1658" 
d="M829 -41c-200.667 0 -369.832 65.4961 -507.499 196.496s-206.5 284.5 -206.5 460.5c0 240 90.333 443.167 271 609.5s402.334 249.5 665.001 249.5c78 0 152.333 -10 223 -30s129 -44 175 -72s86 -56 120 -84s58.333 -52 73 -72l23 -29l-330 -281
c-4 4 -9 9.83301 -15 17.5s-20.333 20.334 -43 38.001s-46 33.334 -70 47.001s-54.667 26.334 -92 38.001s-75.333 17.5 -114 17.5c-114.667 0 -212.834 -40.333 -294.501 -121s-122.5 -177.667 -122.5 -291c0 -79.333 29.667 -146.5 89 -201.5s130.666 -82.5 213.999 -82.5
c36.667 0 70.667 5 102 15s53.333 20 66 30l18 16l27 123h-205l53 256h666l-119 -563c-6.66699 -8 -16.5 -18.5 -29.5 -31.5s-41 -36 -84 -69s-88.333 -62.167 -136 -87.5s-109.5 -48.166 -185.5 -68.499s-153 -30.5 -231 -30.5z" />
    <glyph glyph-name="H" unicode="H" horiz-adv-x="1658" 
d="M1716 1434l-303 -1434h-461l111 522h-430l-111 -522h-461l304 1434h460l-106 -502h430l106 502h461z" />
    <glyph glyph-name="I" unicode="I" horiz-adv-x="768" 
d="M61 0l304 1434h460l-303 -1434h-461z" />
    <glyph glyph-name="J" unicode="J" horiz-adv-x="1095" 
d="M713 1434l461.001 -0.000976562l-193 -912c-36.667 -173.333 -110 -310.5 -220 -411.5s-249.667 -151.5 -419 -151.5c-52 0 -102.5 6.5 -151.5 19.5s-90.667 28.333 -125 46s-64.333 35.334 -90 53.001s-44.834 32.834 -57.501 45.501l-20 20l323 277
c30 -34 69 -51 117 -51s87.667 13.667 119 41s52.333 64.666 63 111.999z" />
    <glyph glyph-name="K" unicode="K" horiz-adv-x="1536" 
d="M825 1434l-100 -469l473 469h539l-617 -607l355 -827h-502l-211 500l-168 -166l-72 -334h-461l304 1434h460z" />
    <glyph glyph-name="L" unicode="L" horiz-adv-x="1259" 
d="M1126 0h-1065l304 1434h460l-215 -1014h604z" />
    <glyph glyph-name="M" unicode="M" horiz-adv-x="1925" 
d="M1380 768l-440 -440l-256 440l-162 -768h-461l304 1434h389l290 -512l508 512h430l-303 -1434h-460z" />
    <glyph glyph-name="N" unicode="N" horiz-adv-x="1699" 
d="M1296 1434h461l-303 -1434h-375l-409 696l-148 -696h-461l304 1434h376l408 -697z" />
    <glyph glyph-name="O" unicode="O" horiz-adv-x="1761" 
d="M977 1065c-101.333 0 -192.5 -39 -273.5 -117s-121.5 -169.333 -121.5 -274c0 -87.333 30 -160.333 90 -219s136.333 -88 229 -88c102.667 0 194.167 38.833 274.5 116.5s120.5 169.167 120.5 274.5c0 86 -30 158.667 -90 218s-136.333 89 -229 89zM1765 786
c0 -143.333 -41.168 -279.167 -123.501 -407.5s-192.5 -230.333 -330.5 -306s-284.333 -113.5 -439 -113.5c-225.333 0 -408.166 66.833 -548.499 200.5s-210.5 295.5 -210.5 485.5c0 146 40.833 282.833 122.5 410.5s191.5 229.5 329.5 305.5s285.667 114 443 114
c225.333 0 407.833 -67.333 547.5 -202s209.5 -297 209.5 -487z" />
    <glyph glyph-name="P" unicode="P" horiz-adv-x="1443" 
d="M365 1434h638.999c142 0 259.333 -43.833 352 -131.5s139 -192.167 139 -313.5c0 -176 -59.667 -320 -179 -432s-272.666 -168 -459.999 -168h-252l-82 -389h-461zM919.999 1024h-181l-49 -225h189c39.333 0 73.333 13 102 39s43 56.667 43 92
c0 26 -9.5 48.167 -28.5 66.5s-44.167 27.5 -75.5 27.5z" />
    <glyph glyph-name="Q" unicode="Q" horiz-adv-x="1761" 
d="M1765 786c0 -154 -47.3291 -298.167 -141.996 -432.5s-217.334 -237.166 -368.001 -308.499c54.667 -50.667 135.334 -76 242.001 -76l84 11l-76 -359c-28.667 -6.66699 -60 -10 -94 -10c-84.667 0 -162.5 12 -233.5 36s-126.333 51 -166 81s-74.834 64.667 -105.501 104
s-50.334 67.666 -59.001 84.999s-15.334 32 -20.001 44c-214.667 9.33301 -387.334 80 -518.001 212s-196 289.333 -196 472c0 146 40.833 282.833 122.5 410.5s191.5 229.5 329.5 305.5s285.667 114 443 114c225.333 0 407.833 -67.333 547.5 -202s209.5 -297 209.5 -487z
M977.004 1065c-101.333 0 -192.5 -39 -273.5 -117s-121.5 -169.333 -121.5 -274c0 -87.333 30 -160.333 90 -219s136.333 -88 229 -88c102.667 0 194.167 38.833 274.5 116.5s120.5 169.167 120.5 274.5c0 86 -30 158.667 -90 218s-136.333 89 -229 89z" />
    <glyph glyph-name="R" unicode="R" horiz-adv-x="1495" 
d="M61 0l304 1434h665c139.333 0 255.5 -43.833 348.5 -131.5s139.5 -190.834 139.5 -309.501c0 -72.667 -11.333 -139.334 -34 -200.001s-49.667 -108.334 -81 -143.001s-63 -64 -95 -88s-59.667 -40 -83 -48l-33 -12l170 -502h-467l-131 410h-156l-86 -410h-461z
M918 819.003c35.333 0 65.667 10.668 91 32.001s38 51.666 38 90.999c0 23.333 -9 42.833 -27 58.5s-42 23.5 -72 23.5h-209l-43 -205h222z" />
    <glyph glyph-name="S" unicode="S" horiz-adv-x="1280" 
d="M549 338c38 0 74.1689 8.83203 108.502 26.499s51.5 45.834 51.5 84.501c0 22 -17.833 43.167 -53.5 63.5s-78.667 41.666 -129 63.999s-100.833 48.5 -151.5 78.5s-93.667 71.667 -129 125s-53 114.333 -53 183c0 140.667 55.833 261.167 167.5 361.5
s267.167 150.5 466.5 150.5c68 0 133.167 -7.16699 195.5 -21.5s113.333 -31.5 153 -51.5s74.5 -39.833 104.5 -59.5s51 -37.167 63 -52.5l21 -20l-309 -264c-5.33301 6.66699 -13.833 15.167 -25.5 25.5s-35.334 23.666 -71.001 39.999s-71.834 24.5 -108.501 24.5
c-42 0 -75.333 -8.16699 -100 -24.5s-37 -38.166 -37 -65.499c0 -22 17.667 -43 53 -63s78.333 -41.167 129 -63.5s101.5 -48.166 152.5 -77.499s94.333 -70.666 130 -123.999s53.5 -114 53.5 -182c0 -152.667 -57 -280.334 -171 -383.001s-274.667 -154 -482 -154
c-72.667 0 -143.167 8.5 -211.5 25.5s-125.333 37.5 -171 61.5s-86.334 48 -122.001 72s-61.5 44.667 -77.5 62l-25 25l308 254c8 -9.33301 19.833 -20.5 35.5 -33.5s47.334 -30.833 95.001 -53.5s94.167 -34 139.5 -34z" />
    <glyph glyph-name="T" unicode="T" horiz-adv-x="1300" 
d="M252 1434h1218l-88 -420h-378l-216 -1014h-460l215 1014h-379z" />
    <glyph glyph-name="U" unicode="U" horiz-adv-x="1617" 
d="M803 369c58.667 0 112.166 22.501 160.499 67.501s80.166 100.833 95.499 167.5l176 830h461l-176 -830c-40.667 -192.667 -127.667 -348.334 -261 -467.001s-301.666 -178 -504.999 -178c-176 0 -320 48.5 -432 145.5s-168 221.167 -168 372.5
c0 45.333 4.66699 87.666 14 126.999l176 830h461l-176 -830c-4 -16.667 -6 -33 -6 -49c0 -53.333 17.333 -97.666 52 -132.999s77.334 -53 128.001 -53z" />
    <glyph glyph-name="V" unicode="V" horiz-adv-x="1474" 
d="M891 0h-512l-189 1434h474l61 -920l451 920h510z" />
    <glyph glyph-name="W" unicode="W" horiz-adv-x="2191" 
d="M1223 0l-82 713l-373 -713h-418l-160 1434h467l58 -764l377 764h372l60 -764l372 764h506l-762 -1434h-417z" />
    <glyph glyph-name="X" unicode="X" horiz-adv-x="1464" 
d="M750 451l-344 -451h-519l609 750l-265 684h482l125 -390l286 390h521l-555 -689l292 -745h-483z" />
    <glyph glyph-name="Y" unicode="Y" horiz-adv-x="1433" 
d="M1153 1434h512l-707 -922l-108 -512h-461l109 512l-318 922h471l142 -492h10z" />
    <glyph glyph-name="Z" unicode="Z" horiz-adv-x="1382" 
d="M768 1014h-522l88 420h1147l-88 -420l-680 -594h573l-88 -420h-1198l88 420z" />
    <glyph glyph-name="bracketleft" unicode="[" horiz-adv-x="870" 
d="M729 1075l-240 -1126h205l-80 -379h-634l399 1884h635l-80 -379h-205z" />
    <glyph glyph-name="backslash" unicode="\" horiz-adv-x="1136" 
d="M504 -430l-228 1884h390l225 -1884h-387z" />
    <glyph glyph-name="bracketright" unicode="]" horiz-adv-x="870" 
d="M172 -49l240 1126h-205l82 379h635l-402 -1884h-633l78 379h205z" />
    <glyph glyph-name="asciicircum" unicode="^" horiz-adv-x="962" 
d="M539 1434h307l149 -646h-315l-57 267l-168 -267h-340z" />
    <glyph glyph-name="underscore" unicode="_" horiz-adv-x="727" 
d="M623 -154l-82 -378h-766l82 378h766z" />
    <glyph glyph-name="grave" unicode="`" horiz-adv-x="737" 
d="M692 1464l107 -348h-338l-182 348h413z" />
    <glyph glyph-name="a" unicode="a" horiz-adv-x="1312" 
d="M614 348c50.667 0 93.833 17.834 129.5 53.501s53.5 80.167 53.5 133.5c0 35.333 -12 64.166 -36 86.499s-55 33.5 -93 33.5c-48 0 -89.333 -17.333 -124 -52s-52 -80 -52 -136c0 -34 11.5 -62.333 34.5 -85s52.167 -34 87.5 -34zM869.999 870.001l29.002 133.998h410
l-213 -1004h-410l23 113c-8 -9.33301 -19.333 -21.666 -34 -36.999s-47.5 -35.166 -98.5 -59.499s-105.167 -36.5 -162.5 -36.5c-104 0 -189.167 38.833 -255.5 116.5s-99.5 175.167 -99.5 292.5c0 186 54.667 338.333 164 457s235.666 178 378.999 178
c36.667 0 71.167 -5.16699 103.5 -15.5s58 -23.333 77 -39s35.667 -31 50 -46s24.166 -27.833 29.499 -38.5z" />
    <glyph glyph-name="b" unicode="b" horiz-adv-x="1320" 
d="M715 655c-50.667 0 -93.834 -17.668 -129.501 -53.001s-53.5 -79.666 -53.5 -132.999c0 -35.333 12 -64.333 36 -87s55.333 -34 94 -34c48 0 89.333 17.5 124 52.5s52 80.5 52 136.5c0 34 -11.667 62.167 -35 84.5s-52.666 33.5 -87.999 33.5zM457 132.999l-27 -133.001
h-410l304 1434h409l-115 -543c8 9.33301 19.333 21.5 34 36.5s47.834 34.833 99.501 59.5s106.167 37 163.5 37c104 0 189.167 -38.833 255.5 -116.5s99.5 -175.5 99.5 -293.5c0 -186 -53.667 -338.167 -161 -456.5s-230 -177.5 -368 -177.5
c-60 0 -113.833 12.833 -161.5 38.5s-79.834 50.834 -96.501 75.501z" />
    <glyph glyph-name="c" unicode="c" horiz-adv-x="1116" 
d="M53 432c0 166.667 65.999 308.667 197.999 426s287.333 176 466 176c57.333 0 111.5 -7.5 162.5 -22.5s93 -33 126 -54s61.333 -41.833 85 -62.5s41.167 -38.334 52.5 -53.001l14 -23l-291 -237c-4 6.66699 -10 14.334 -18 23.001s-27.167 21 -57.5 37
s-61.833 24 -94.5 24c-57.333 0 -105.666 -18.5 -144.999 -55.5s-59 -82.833 -59 -137.5c0 -38 13.5 -70 40.5 -96s62.5 -39 106.5 -39c32.667 0 65 7.5 97 22.5s55.667 30.167 71 45.5l22 22l205 -258c-4 -5.33301 -10 -12.5 -18 -21.5s-26.833 -25 -56.5 -48
s-61.5 -43.5 -95.5 -61.5s-78.333 -34.167 -133 -48.5s-112 -21.5 -172 -21.5c-143.333 0 -263.5 46.5 -360.5 139.5s-145.5 200.833 -145.5 323.5z" />
    <glyph glyph-name="d" unicode="d" horiz-adv-x="1320" 
d="M614 348c50.667 0 93.833 17.834 129.5 53.501s53.5 80.167 53.5 133.5c0 35.333 -12 64.166 -36 86.499s-55 33.5 -93 33.5c-48 0 -89.333 -17.333 -124 -52s-52 -80 -52 -136c0 -34 11.5 -62.333 34.5 -85s52.167 -34 87.5 -34zM869.999 870.001l119.002 563.998h410
l-303 -1434h-410l23 113c-8 -9.33301 -19.333 -21.666 -34 -36.999s-47.5 -35.166 -98.5 -59.499s-105.167 -36.5 -162.5 -36.5c-104 0 -189.167 38.833 -255.5 116.5s-99.5 175.167 -99.5 292.5c0 186 54.667 338.333 164 457s235.666 178 378.999 178
c36.667 0 71.167 -5.16699 103.5 -15.5s58 -23.333 77 -39s35.667 -31 50 -46s24.166 -27.833 29.499 -38.5z" />
    <glyph glyph-name="e" unicode="e" horiz-adv-x="1208" 
d="M1120 410l-643 -0.000976562c30 -75.333 95 -113 195 -113c28.667 0 59 5.83301 91 17.5s57.667 23.5 77 35.5l26 19l115 -267c-10.667 -9.33301 -26.667 -21.5 -48 -36.5s-66.5 -34.833 -135.5 -59.5s-139.5 -37 -211.5 -37c-161.333 0 -290.5 46.5 -387.5 139.5
s-145.5 203.5 -145.5 331.5c0 165.333 62.833 305.666 188.5 420.999s275.834 173 450.501 173c135.333 0 249.833 -39.833 343.5 -119.5s140.5 -177.5 140.5 -293.5c0 -15.333 -1.16699 -31.166 -3.5 -47.499s-4.83301 -31.333 -7.5 -45s-6 -27 -10 -40
s-7.66699 -24.333 -11 -34s-6.83301 -18.167 -10.5 -25.5s-6.83398 -12.666 -9.50098 -15.999s-4 -4.33301 -4 -3zM653 726.999c-74 0 -127.668 -37.667 -161.001 -113h282c1.33301 31.333 -9.66699 58 -33 80s-52.666 33 -87.999 33z" />
    <glyph glyph-name="f" unicode="f" horiz-adv-x="839" 
d="M889 963l-76 -359h-205l-127 -604h-409l127 604h-133l75 359h133l17 71c64 280 219.667 420 467 420c38 0 76.167 -3.33301 114.5 -10s66.833 -13.667 85.5 -21l27 -10l-72 -338c-26 13.333 -59.333 20.333 -100 21c-30 0 -55.5 -8.66699 -76.5 -26
s-35.167 -39.333 -42.5 -66l-10 -41h205z" />
    <glyph glyph-name="g" unicode="g" horiz-adv-x="1290" 
d="M702 133l13.001 51c-2.66699 -4 -6.83398 -9 -12.501 -15s-17.667 -17.167 -36 -33.5s-38.166 -31 -59.499 -44s-49 -24.667 -83 -35s-69.333 -15.5 -106 -15.5c-94 0 -177.333 41.333 -250 124s-109 178.667 -109 288c0 160 53 295.167 159 405.5s226 165.5 360 165.5
c57.333 0 109.5 -13 156.5 -39s79.167 -51.333 96.5 -76l29 -39l29 134h409l-186 -871c-35.333 -165.333 -113.5 -300.5 -234.5 -405.5s-269.5 -157.5 -445.5 -157.5c-61.333 0 -120.666 7.16699 -177.999 21.5s-104.5 31.666 -141.5 51.999s-69.5 40.833 -97.5 61.5
s-48 38.334 -60 53.001l-21 21l283 231c5.33301 -6.66699 14.166 -15.167 26.499 -25.5s37.666 -24 75.999 -41s78.5 -25.5 120.5 -25.5c69.333 0 126.5 19.833 171.5 59.5s75.167 91.5 90.5 155.5zM668.001 676c-46.667 0 -86.6689 -16.332 -120.002 -48.999
s-50 -73 -50 -121c0 -32.667 11.833 -60.334 35.5 -83.001s53.5 -34 89.5 -34c46.667 0 86.334 16 119.001 48s49 72 49 120c0 32.667 -11.667 60.667 -35 84s-52.666 35 -87.999 35z" />
    <glyph glyph-name="h" unicode="h" horiz-adv-x="1280" 
d="M733 1434l-114.998 -542.998c8 9.33301 20 21.5 36 36.5s49.5 34.833 100.5 59.5s103.833 37 158.5 37c87.333 0 157.666 -26.667 210.999 -80s80 -127 80 -221c0 -36.667 -4 -76.334 -12 -119.001l-127 -604h-410l109 512c5.33301 31.333 1.16602 59.666 -12.501 84.999
s-37.5 38 -71.5 38s-65.333 -15.667 -94 -47s-48 -70.333 -58 -117l-98 -471h-410l304 1434h409z" />
    <glyph glyph-name="i" unicode="i" horiz-adv-x="655" 
d="M643 1004l-213 -1004h-410l213 1004h410zM270 1288c0 61.333 24 114.666 72 159.999s104.667 68 170 68s117.833 -17.5 157.5 -52.5s59.5 -79.167 59.5 -132.5c0 -61.333 -24.167 -114.166 -72.5 -158.499s-105.333 -66.5 -171 -66.5s-118 17.333 -157 52
s-58.5 78 -58.5 130z" />
    <glyph glyph-name="j" unicode="j" horiz-adv-x="665" 
d="M31 51l201.998 953.001h410l-201 -943c-35.333 -170.667 -93.333 -295.167 -174 -373.5s-185 -117.5 -313 -117.5c-38 0 -75.5 3.33301 -112.5 10s-64.5 13.667 -82.5 21l-26 10l76 358c28.667 -13.333 61.334 -20 98.001 -20c30 0 56.333 9.16699 79 27.5
s37.334 43.166 44.001 74.499zM267.998 1288c0 61.333 24 114.666 72 159.999s104.667 68 170 68s117.833 -17.5 157.5 -52.5s59.5 -79.167 59.5 -132.5c0 -61.333 -24.167 -114.166 -72.5 -158.499s-105.333 -66.5 -171 -66.5s-118 17.333 -157 52s-58.5 78 -58.5 130z" />
    <glyph glyph-name="k" unicode="k" horiz-adv-x="1218" 
d="M1329 1004l-434 -433l227 -571h-415l-129 334l-97 -90l-51 -244h-410l304 1434h409l-151 -717l280 287h467z" />
    <glyph glyph-name="l" unicode="l" horiz-adv-x="655" 
d="M733 1434l-303 -1434h-410l304 1434h409z" />
    <glyph glyph-name="m" unicode="m" horiz-adv-x="1843" 
d="M1122 471l-98.001 -471.002h-410l109 512c18 75.333 -5.33301 113 -70 113c-32.667 0 -61 -14 -85 -42s-40.667 -65.333 -50 -112l-98 -471h-410l213 1004h410l-27 -121c8 10.667 19.333 23.834 34 39.501s45.834 36.5 93.501 62.5s97.5 39 149.5 39
c60 0 110.5 -13.667 151.5 -41s66.167 -54.666 75.5 -81.999l16 -39c10.667 12 25.667 27 45 45s60 42 122 72s125.333 45 190 45c87.333 0 156.833 -25.333 208.5 -76s77.5 -123 77.5 -217c0 -42 -4.66699 -84.333 -14 -127l-127 -604h-409l108 512
c18 75.333 -5.33301 113 -70 113c-32.667 0 -61 -14 -85 -42s-40.667 -65.333 -50 -112z" />
    <glyph glyph-name="n" unicode="n" 
d="M633 1004l-24.998 -112.998c8 9.33301 20 21.5 36 36.5s49.5 34.833 100.5 59.5s103.833 37 158.5 37c87.333 0 157.666 -26.667 210.999 -80s80 -127 80 -221c0 -36.667 -4 -76.334 -12 -119.001l-127 -604h-410l109 512c5.33301 31.333 1.16602 59.666 -12.501 84.999
s-37.667 38 -72 38s-65.833 -15.667 -94.5 -47s-47.667 -70.333 -57 -117l-98 -471h-410l213 1004h410z" />
    <glyph glyph-name="o" unicode="o" 
d="M655 655c-45.333 0 -84.333 -17.333 -117 -52s-49 -76 -49 -124c0 -38 12 -69.333 36 -94s56 -37 96 -37c44 0 82.5 16.833 115.5 50.5s49.5 76.167 49.5 127.5c0 38 -12 69 -36 93s-55.667 36 -95 36zM1223 553c0 -157.333 -63.167 -293.999 -189.5 -409.999
s-274.833 -174 -445.5 -174c-157.333 0 -285.833 47.5 -385.5 142.5s-149.5 209.5 -149.5 343.5c0 155.333 63.167 290.666 189.5 405.999s275.5 173 447.5 173c157.333 0 285.5 -47 384.5 -141s148.5 -207.333 148.5 -340z" />
    <glyph glyph-name="p" unicode="p" horiz-adv-x="1310" 
d="M705 655c-50.667 0 -93.833 -17.334 -129.5 -52.001s-53.5 -78.667 -53.5 -132c0 -35.333 12 -64.666 36 -87.999s55 -35 93 -35c48 0 89.333 17.5 124 52.5s52 80.5 52 136.5c0 34 -11.5 62.167 -34.5 84.5s-52.167 33.5 -87.5 33.5zM446.001 132.999l-118.001 -563.001
h-410l305 1434h410l-25 -113c8 9.33301 19.333 21.5 34 36.5s47.834 34.833 99.501 59.5s106.167 37 163.5 37c104 0 189.167 -38.833 255.5 -116.5s99.5 -175.5 99.5 -293.5c0 -186 -53.667 -338.167 -161 -456.5s-230 -177.5 -368 -177.5
c-60 0 -113.833 12.833 -161.5 38.5s-80.5 50.834 -98.5 75.501z" />
    <glyph glyph-name="q" unicode="q" horiz-adv-x="1310" 
d="M614 348c50.667 0 93.833 17.834 129.5 53.501s53.5 80.167 53.5 133.5c0 35.333 -12 64.166 -36 86.499s-55 33.5 -93 33.5c-48 0 -89.333 -17.333 -124 -52s-52 -80 -52 -136c0 -34 11.5 -62.333 34.5 -85s52.167 -34 87.5 -34zM869.999 870.001l27.002 133.998h410
l-303 -1434h-410l115 543c-8 -9.33301 -19.333 -21.666 -34 -36.999s-47.5 -35.166 -98.5 -59.499s-105.167 -36.5 -162.5 -36.5c-104 0 -189.167 38.833 -255.5 116.5s-99.5 175.167 -99.5 292.5c0 186 54.667 338.333 164 457s235.666 178 378.999 178
c36.667 0 71.167 -5.16699 103.5 -15.5s58 -23.333 77 -39s35.667 -31 50 -46s24.166 -27.833 29.499 -38.5z" />
    <glyph glyph-name="r" unicode="r" horiz-adv-x="870" 
d="M942 1018l-89.998 -423.998c-24.667 13.333 -57.334 20 -98.001 20c-61.333 0 -115.333 -21.5 -162 -64.5s-77.334 -99.833 -92.001 -170.5l-80 -379h-410l213 1004h410l-25 -113c8 9.33301 20 21.166 36 35.499s49.167 33.166 99.5 56.499s102.833 35 157.5 35h41z" />
    <glyph glyph-name="s" unicode="s" horiz-adv-x="1003" 
d="M1012 860l-220.998 -189.995c-34 31.333 -74.333 47 -121 47c-26 0 -45.5 -5.16699 -58.5 -15.5s-19.5 -21.5 -19.5 -33.5c0 -16.667 17.333 -34.834 52 -54.501s73.167 -39.167 115.5 -58.5s81 -49 116 -89s52.5 -86.667 52.5 -140c0 -100 -40.667 -184.5 -122 -253.5
s-202 -103.5 -362 -103.5c-62.667 0 -122.334 7.16699 -179.001 21.5s-103 31.5 -139 51.5s-67.667 39.833 -95 59.5s-47.333 36.5 -60 50.5l-16 22l221 191c5.33301 -6.66699 13.166 -14.834 23.499 -24.501s31.166 -22.834 62.499 -39.501s63.333 -25 96 -25
c24.667 0 44.5 5.83301 59.5 17.5s22.5 25.667 22.5 42s-17.667 34.166 -53 53.499s-74.166 38.166 -116.499 56.499s-81.333 48 -117 89s-53.5 88.167 -53.5 141.5c0 94 42.667 177.167 128 249.5s205.333 108.5 360 108.5c87.333 0 166.5 -14.667 237.5 -44
s119.5 -58.333 145.5 -87z" />
    <glyph glyph-name="t" unicode="t" horiz-adv-x="911" 
d="M371 1126l31.999 153.999h359l-60 -287h205l-76 -348h-204l-41 -194c-13.333 -68 14 -102.333 82 -103c18 0 35.833 1.66699 53.5 5s31.167 7.33301 40.5 12l12 4l-74 -349c-60 -27.333 -134.333 -40.666 -223 -39.999c-125.333 0 -215.666 35.833 -270.999 107.5
s-68.666 175.5 -39.999 311.5l51 246h-143l76 348h61c35.333 0 69.166 13.333 101.499 40s51.833 57.667 58.5 93z" />
    <glyph glyph-name="u" unicode="u" 
d="M645 0l23.0039 106c-2.66699 -4 -6.83398 -8.66699 -12.501 -14s-17.334 -15.166 -35.001 -29.499s-36.834 -27.333 -57.501 -39s-47.667 -21.834 -81 -30.501s-67.666 -13 -102.999 -13c-90 0 -162.333 26.5 -217 79.5s-82 126.833 -82 221.5c0 34 4 71.333 12 112
l131 611h410l-113 -523c-6.66699 -31.333 -2.83398 -57.833 11.499 -79.5s39.166 -32.5 74.499 -32.5c78 0 126.667 44.333 146 133l106 502h410l-213 -1004h-410z" />
    <glyph glyph-name="v" unicode="v" horiz-adv-x="1126" 
d="M676 0h-430l-146 1004h400l47 -531l260 531h440z" />
    <glyph glyph-name="w" unicode="w" horiz-adv-x="1638" 
d="M774 1004h283l45 -447l223 447h434l-540 -1004h-351l-67 416l-234 -416h-340l-127 1004h396l41 -447z" />
    <glyph glyph-name="x" unicode="x" horiz-adv-x="1105" 
d="M604 0l-86 256l-186 -256h-445l404 514l-180 490h421l68 -236l164 236h453l-390 -494l187 -510h-410z" />
    <glyph glyph-name="y" unicode="y" horiz-adv-x="1126" 
d="M76 -51c62.667 0 119.999 32 171.999 96l-146 959h398l49 -529l264 529h434l-585 -1014c-82 -142 -165.667 -247.5 -251 -316.5s-180.666 -103.5 -285.999 -103.5c-38 0 -75.833 3.33301 -113.5 10s-66.167 13.667 -85.5 21l-28 10l73 358
c29.333 -13.333 64.333 -20 105 -20z" />
    <glyph glyph-name="z" unicode="z" horiz-adv-x="1105" 
d="M1114 1004l-74 -349l-438 -307h393l-73 -348h-942l73 348l436 307h-350l74 349h901z" />
    <glyph glyph-name="braceleft" unicode="{" horiz-adv-x="942" 
d="M498 512c2.66699 0 6 -0.668945 10 -2.00195s12.5 -4.66602 25.5 -9.99902s24.333 -12.166 34 -20.499s21 -19.333 34 -33s22.167 -29 27.5 -46s10 -37.833 14 -62.5s2 -52 -6 -82l-39 -184c-6.66699 -31.333 -1.16699 -58 16.5 -80s41.5 -33 71.5 -33h72l-82 -389h-184
c-121.333 0 -215.5 37.167 -282.5 111.5s-87.833 173.833 -62.5 298.5l46 204c8 40.667 0.666992 74.834 -22 102.501s-56.334 41.5 -101.001 41.5l77 368c45.333 0 85 13.667 119 41s56 61.666 66 102.999l43 204c27.333 131.333 77.5 232.5 150.5 303.5
s167.5 106.5 283.5 106.5h266l-82 -389h-71c-30 0 -58.667 -11 -86 -33s-44.666 -48.667 -51.999 -80l-39 -184c-8 -39.333 -22.167 -75.5 -42.5 -108.5s-41.833 -58 -64.5 -75s-44.5 -31.667 -65.5 -44s-38.5 -20.5 -52.5 -24.5z" />
    <glyph glyph-name="bar" unicode="|" horiz-adv-x="870" 
d="M870 1454l-399 -1884h-440l399 1884h440z" />
    <glyph glyph-name="braceright" unicode="}" horiz-adv-x="942" 
d="M477 512c-2.66699 0 -5.99707 0.669922 -9.99707 2.00293s-12.5 4.66602 -25.5 9.99902s-24.333 12.166 -34 20.499s-21.334 19.333 -35.001 33s-23.167 29 -28.5 46s-10 37.833 -14 62.5s-2 52 6 82l39 184c6.66699 30 1.5 56.333 -15.5 79s-41.167 34 -72.5 34h-72
l82 389h184c121.333 0 215.5 -37.167 282.5 -111.5s87.5 -173.833 61.5 -298.5l-43 -204c-9.33301 -40.667 -2.33301 -74.834 21 -102.501s57.333 -41.5 102 -41.5l-78 -368c-45.333 0 -85.333 -13.667 -120 -41s-56 -61.666 -64 -102.999l-45 -204
c-27.333 -131.333 -77.5 -232.5 -150.5 -303.5s-167.5 -106.5 -283.5 -106.5h-264l80 389h71c31.333 0 60.666 11.333 87.999 34s43.666 49 48.999 79l39 184c13.333 64 41 117.167 83 159.5s80.667 69.166 116 80.499z" />
    <glyph glyph-name="asciitilde" unicode="~" horiz-adv-x="1208" 
d="M489 481c-32.667 0 -65 -7.83203 -97 -23.499s-56.333 -30.834 -73 -45.501l-22 -23l-225 195c2.66699 6.66699 7 15.834 13 27.501s19.667 32.167 41 61.5s44.5 55.166 69.5 77.499s59 42.833 102 61.5s88.5 28 136.5 28c61.333 0 126.166 -15.333 194.499 -46
s123.166 -46 164.499 -46c32.667 0 65.334 7.83301 98.001 23.5s56.667 30.834 72 45.501l24 23l223 -195c-2.66699 -6.66699 -6.66699 -15.834 -12 -27.501s-19 -32.167 -41 -61.5s-45.167 -55.333 -69.5 -78s-58 -43.167 -101 -61.5s-88.5 -27.5 -136.5 -27.5
c-61.333 0 -126.666 15.333 -195.999 46s-124.333 46 -165 46z" />
    <glyph glyph-name="uni00A0" unicode="&#xa0;" horiz-adv-x="440" 
 />
    <glyph glyph-name="exclamdown" unicode="&#xa1;" horiz-adv-x="696" 
d="M193 522h348l-131 -952h-492zM649 842c0 -61.333 -23.8311 -114.666 -71.498 -159.999s-104.334 -68 -170.001 -68s-118.334 17.5 -158.001 52.5s-59.5 79.167 -59.5 132.5c0 61.333 24.333 114.166 73 158.499s105.667 66.5 171 66.5s117.5 -17.333 156.5 -52
s58.5 -78 58.5 -130z" />
    <glyph glyph-name="cent" unicode="&#xa2;" horiz-adv-x="1116" 
d="M1149 829l-291.001 -237c-39.333 49.333 -92 74 -158 74c-57.333 0 -106.333 -19.167 -147 -57.5s-61 -84.833 -61 -139.5c0 -36.667 13.5 -67.667 40.5 -93s62.5 -38 106.5 -38c65.333 0 125.333 25.333 180 76l205 -256c-78 -87.333 -181.667 -144.666 -311 -171.999
l-39 -181h-369l43 207c-88.667 38 -160 95.667 -214 173s-81 159.666 -81 246.999c0 142 48.5 267 145.5 375s218.5 178.333 364.5 211l37 170h369l-41 -193c84.667 -34 158.334 -89.333 221.001 -166z" />
    <glyph glyph-name="sterling" unicode="&#xa3;" horiz-adv-x="1239" 
d="M332 983c31.333 152.667 97.834 272.832 199.501 360.499s232.5 131.5 392.5 131.5c57.333 0 112.166 -6.83301 164.499 -20.5s96 -30.167 131 -49.5s65.833 -38.166 92.5 -56.499s45.334 -34.5 56.001 -48.5l18 -20l-368 -289c-31.333 35.333 -71 53 -119 53
c-35.333 0 -65.333 -10.5 -90 -31.5s-41 -47.833 -49 -80.5l-19 -92h287l-57 -267h-287c-6.66699 -30 -15.834 -58.667 -27.501 -86s-21.5 -47 -29.5 -59l-15 -18h580l-86 -410h-1106l86 410c80.667 0 129 34 145 102l13 61h-123l57 267h123z" />
    <glyph glyph-name="currency" unicode="&#xa4;" horiz-adv-x="1474" 
d="M752 840h188.001c39.333 0 73 12.5 101 37.5s42 56.833 42 95.5c0 26 -9.83301 47.833 -29.5 65.5s-45.834 26.5 -78.501 26.5h-176zM922.001 532h-235.999l-16 -71h389l-66 -307h-389l-31 -154h-460l30 154h-133l66 307h133l16 71h-133l66 308h133l125 594h651
c155.333 0 276.166 -39 362.499 -117s129.5 -172.333 129.5 -283c0 -143.333 -59 -262.833 -177 -358.5s-271.333 -143.5 -460 -143.5z" />
    <glyph glyph-name="yen" unicode="&#xa5;" horiz-adv-x="1433" 
d="M1233 502h-277l-16 -72h277l-62 -287h-276l-29 -143h-461l29 143h-277l62 287h276l17 72h-277l60 286h122l-221 646h471l142 -492h10l350 492h512l-496 -646h123z" />
    <glyph glyph-name="brokenbar" unicode="&#xa6;" horiz-adv-x="870" 
d="M197 348h440l-166 -778h-440zM707 676h-441l164 778h440z" />
    <glyph glyph-name="section" unicode="&#xa7;" horiz-adv-x="1146" 
d="M1206 1300l-225.001 -194.002c-31.333 34 -71 51 -119 51c-31.333 0 -55.833 -7.16699 -73.5 -21.5s-26.5 -30.5 -26.5 -48.5c0 -24.667 18.667 -49.5 56 -74.5s78.666 -48.833 123.999 -71.5s86.666 -57.167 123.999 -103.5s56 -99.5 56 -159.5
c0 -44 -8.5 -85.667 -25.5 -125s-37.833 -71.333 -62.5 -96s-49.167 -46.667 -73.5 -66s-45.5 -33 -63.5 -41l-25 -12c2.66699 -2.66699 6.5 -5.66699 11.5 -9s13.667 -12.166 26 -26.499s22.833 -29 31.5 -44s16.834 -34.5 24.501 -58.5s11.5 -48.333 11.5 -73
c0 -104 -41.333 -192.167 -124 -264.5s-199 -108.5 -349 -108.5c-66.667 0 -130.5 7.16699 -191.5 21.5s-110.667 31.5 -149 51.5s-72.166 39.833 -101.499 59.5s-50 37.167 -62 52.5l-18 20l225 193c5.33301 -6.66699 13.166 -15.167 23.499 -25.5s31.5 -23.833 63.5 -40.5
s64.333 -25 97 -25c35.333 0 62.333 8 81 24s28 36 28 60c0 30 -19.833 60.5 -59.5 91.5s-83.667 59.333 -132 85s-92.333 62.834 -132 111.501s-59.5 103.667 -59.5 165c0 68 21.833 129 65.5 183s86.5 91.333 128.5 112l66 29c-6.66699 5.33301 -15.5 13.166 -26.5 23.499
s-25.667 32.166 -44 65.499s-27.5 68.333 -27.5 105c0 98 41.167 182.333 123.5 253s198.833 106 349.5 106c58.667 0 114.5 -6.16699 167.5 -18.5s96.333 -26.666 130 -42.999s62.834 -33.166 87.501 -50.499s42.334 -32 53.001 -44zM599.999 757.998
c-5.33301 -1.33301 -12.833 -4.16699 -22.5 -8.5s-22 -16.333 -37 -36s-22.5 -43.167 -22.5 -70.5c0 -24.667 11.333 -47.834 34 -69.501s44.667 -37.5 66 -47.5l33 -14c5.33301 1.33301 12.833 4 22.5 8s22 16 37 36s22.5 43.667 22.5 71
c0 24.667 -10.833 47.834 -32.5 69.501s-43.5 37.167 -65.5 46.5z" />
    <glyph glyph-name="dieresis" unicode="&#xa8;" horiz-adv-x="1003" 
d="M244 1294c0 54.667 22.166 103.5 66.499 146.5s95.833 64.5 154.5 64.5c52 0 94 -17 126 -51s48 -75.667 48 -125c0 -56 -22.167 -105.5 -66.5 -148.5s-95.166 -64.5 -152.499 -64.5c-52 0 -94.333 17.333 -127 52s-49 76.667 -49 126zM736.999 1294
c0 54.667 22.167 103.5 66.5 146.5s95.833 64.5 154.5 64.5c52 0 94.167 -17 126.5 -51s48.5 -75.667 48.5 -125c0 -56 -22.333 -105.5 -67 -148.5s-95.667 -64.5 -153 -64.5c-52 0 -94.333 17.333 -127 52s-49 76.667 -49 126z" />
    <glyph glyph-name="copyright" unicode="&#xa9;" horiz-adv-x="1751" 
d="M522 659c0 126.667 47.8311 236.17 143.498 328.503s211.167 138.5 346.5 138.5c44 0 85.333 -5.33301 124 -16s70 -24.334 94 -41.001s44.5 -33.167 61.5 -49.5s28.833 -29.833 35.5 -40.5l12 -16l-178 -148c-4 5.33301 -9.66699 12.166 -17 20.499
s-25.333 19.666 -54 33.999s-59.667 21.5 -93 21.5c-54.667 0 -102.334 -20.167 -143.001 -60.5s-61 -87.166 -61 -140.499c0 -40.667 12.5 -75.334 37.5 -104.001s59.5 -43 103.5 -43c32.667 0 64.334 7.83301 95.001 23.5s53 30.834 67 45.501l20 23l123 -168
c-2.66699 -4 -7 -9.83301 -13 -17.5s-20 -20.667 -42 -39s-45.667 -34.333 -71 -48s-58.166 -26.334 -98.499 -38.001s-82.166 -17.5 -125.499 -17.5c-102.667 0 -189.5 35.167 -260.5 105.5s-106.5 152.5 -106.5 246.5zM351.998 657.003
c0 -139.333 49.833 -258.002 149.5 -356.002s220.5 -147 362.5 -147c169.333 0 318.833 62.333 448.5 187s194.5 270.334 194.5 437.001c0 139.333 -48.833 257.5 -146.5 354.5s-219.5 145.5 -365.5 145.5c-168 0 -317.167 -62.167 -447.5 -186.5
s-195.5 -269.166 -195.5 -434.499zM857.998 -50.999c-124 0 -241.669 27 -353.002 81s-203.166 133.833 -275.499 239.5s-108.5 226.167 -108.5 361.5c0 154 40.667 296.833 122 428.5s189.833 235.167 325.5 310.5s280.834 113 435.501 113
c217.333 0 393.833 -65.167 529.5 -195.5s203.5 -291.833 203.5 -484.5c0 -234.667 -87.5 -435.667 -262.5 -603s-380.5 -251 -616.5 -251z" />
    <glyph glyph-name="ordfeminine" unicode="&#xaa;" horiz-adv-x="804" 
d="M578 1038c-56 0 -99 -11.333 -129 -34c-15.333 -12 -23 -27.333 -23 -46c0 -9.33301 3.83301 -17.666 11.5 -24.999s17.5 -11 29.5 -11c23.333 0 45.5 9.16699 66.5 27.5s34.167 41.166 39.5 68.499zM328 727c-50.667 0 -94.166 17.333 -130.499 52
s-54.5 76.667 -54.5 126c0 64 24.333 118.667 73 164s116.667 74.666 204 87.999l190 31v4c0 10.667 -7.83301 21.167 -23.5 31.5s-36.5 15.5 -62.5 15.5c-24.667 0 -49.167 -4.5 -73.5 -13.5s-43.5 -17.5 -57.5 -25.5l-18 -12l-113 143
c9.33301 9.33301 22.333 20.833 39 34.5s53.334 31.834 110.001 54.501s115 34 175 34c87.333 0 157.666 -20.833 210.999 -62.5s80 -97.834 80 -168.501c0 -27.333 -3 -52.666 -9 -75.999l-86 -399h-266l12 61c-5.33301 -5.33301 -13.5 -12.833 -24.5 -22.5
s-33.833 -22 -68.5 -37s-70.334 -22.5 -107.001 -22.5z" />
    <glyph glyph-name="guillemotleft" unicode="&#xab;" horiz-adv-x="1300" 
d="M817 870l-371 -395l187 -362h-365l-194 379l356 378h387zM1339 870l-370 -395l186 -362h-364l-195 379l356 378h387z" />
    <glyph glyph-name="logicalnot" unicode="&#xac;" horiz-adv-x="1013" 
d="M1049 891l-123 -574h-359l47 215h-532l76 359h891z" />
    <glyph glyph-name="uni00AD" unicode="&#xad;" horiz-adv-x="890" 
d="M903 788l-78 -368h-768l78 368h768z" />
    <glyph glyph-name="registered" unicode="&#xae;" horiz-adv-x="1751" 
d="M1130 606l91.002 -277.999h-271l-65 215h-54l-45 -215h-266l164 778h354c79.333 0 144.333 -21.833 195 -65.5s76 -97.5 76 -161.5c0 -16.667 -1.83301 -33.167 -5.5 -49.5s-7.16699 -31 -10.5 -44s-9 -26.333 -17 -40s-14.833 -25 -20.5 -34s-14 -18.5 -25 -28.5
s-18.833 -17.833 -23.5 -23.5s-12.834 -12.5 -24.501 -20.5s-18.5 -12.667 -20.5 -14s-7.83301 -4.83301 -17.5 -10.5s-12.834 -7.83398 -9.50098 -6.50098c-2 -1.33301 -3.66699 -2 -5 -2zM901.002 870.001l-22 -102.001h71c22 0 39.833 5.83301 53.5 17.5
s20.5 26.834 20.5 45.501c0 26 -17 39 -51 39h-72zM352.002 657c0 -139.333 49.833 -258.002 149.5 -356.002s220.5 -147 362.5 -147c169.333 0 318.833 62.333 448.5 187s194.5 270.334 194.5 437.001c0 139.333 -48.833 257.5 -146.5 354.5s-219.5 145.5 -365.5 145.5
c-168 0 -317.167 -62.167 -447.5 -186.5s-195.5 -269.166 -195.5 -434.499zM858.002 -51.002c-124 0 -241.669 27 -353.002 81s-203.166 133.833 -275.499 239.5s-108.5 226.167 -108.5 361.5c0 154 40.667 296.833 122 428.5s189.833 235.167 325.5 310.5
s280.834 113 435.501 113c217.333 0 393.833 -65.167 529.5 -195.5s203.5 -291.833 203.5 -484.5c0 -234.667 -87.5 -435.667 -262.5 -603s-380.5 -251 -616.5 -251z" />
    <glyph glyph-name="macron" unicode="&#xaf;" horiz-adv-x="819" 
d="M987 1516l-65 -308h-697l66 308h696z" />
    <glyph glyph-name="degree" unicode="&#xb0;" horiz-adv-x="839" 
d="M575 1219c-28.667 0 -55.167 -11.666 -79.5 -34.999s-36.5 -50 -36.5 -80c0 -26 9.16699 -47.5 27.5 -64.5s41.166 -25.5 68.499 -25.5c28.667 0 54.667 11.833 78 35.5s35 49.167 35 76.5s-8.66699 49.666 -26 66.999s-39.666 26 -66.999 26zM930 1143
c0 -95.333 -40 -179.999 -120 -253.999s-174.667 -111 -284 -111c-95.333 0 -173.666 31.167 -234.999 93.5s-92 135.166 -92 218.499c0 94 39.5 178.167 118.5 252.5s173.167 111.5 282.5 111.5c95.333 0 174.166 -31 236.499 -93s93.5 -134.667 93.5 -218z" />
    <glyph glyph-name="plusminus" unicode="&#xb1;" horiz-adv-x="1105" 
d="M-20 0l69 328h963l-70 -328h-962zM930 1341l-64 -297h297l-80 -378h-297l-63 -297h-369l64 297h-297l80 378h297l63 297h369z" />
    <glyph glyph-name="uni00B2" unicode="&#xb2;" horiz-adv-x="706" 
d="M868 1444c0 -32.667 -4.33203 -61.667 -12.999 -87s-24.334 -48.666 -47.001 -69.999s-41.834 -38 -57.501 -50s-41.167 -28.667 -76.5 -50s-60 -36.666 -74 -45.999h195l-52 -240h-593c18 83.333 50 154.666 96 213.999s91.333 101 136 125s84.667 46.833 120 68.5
s53 41.5 53 59.5c0 23.333 -14.333 35 -43 35c-12 0 -24.167 -3.83301 -36.5 -11.5s-22.166 -14.834 -29.499 -21.501l-10 -10l-192 84c2.66699 5.33301 7 12.833 13 22.5s19.333 26 40 49s43.5 43.5 68.5 61.5s58 34.5 99 49.5s84.833 22.5 131.5 22.5
c80.667 0 146.167 -20.167 196.5 -60.5s75.5 -88.5 75.5 -144.5z" />
    <glyph glyph-name="uni00B3" unicode="&#xb3;" horiz-adv-x="716" 
d="M711 1272c8 -2.66699 17.832 -7.16699 29.499 -13.5s27 -21.333 46 -45s28.5 -50.5 28.5 -80.5c0 -66.667 -30.667 -123.667 -92 -171s-143.333 -71 -246 -71c-44 0 -85.333 4 -124 12s-69.667 18.167 -93 30.5s-43.5 24.666 -60.5 36.999s-28.833 22.5 -35.5 30.5
l-10 13l155 137c36.667 -36.667 81 -55 133 -55c46.667 0 70 19 70 57c0 30 -22.667 45 -68 45h-67l35 164h75c15.333 0 28.5 4.83301 39.5 14.5s16.5 20.5 16.5 32.5c0 23.333 -16.333 35 -49 35c-19.333 0 -38.166 -3.83301 -56.499 -11.5s-31.833 -15.5 -40.5 -23.5
l-14 -10l-98 137c8 8 19.167 18.167 33.5 30.5s48.5 29.166 102.5 50.499s111.667 32 173 32c80.667 0 146.167 -19.5 196.5 -58.5s75.5 -82.5 75.5 -130.5c0 -39.333 -13 -74.666 -39 -105.999s-51.667 -52.666 -77 -63.999z" />
    <glyph glyph-name="acute" unicode="&#xb4;" horiz-adv-x="737" 
d="M201 1116l250 348h442l-330 -348h-362z" />
    <glyph glyph-name="mu" unicode="&#xb5;" 
d="M1257 1004l-123.998 -583.999c-8 -40.667 4.66699 -61.334 38 -62.001c9.33301 0 17.5 1.16699 24.5 3.5s11.833 4.16602 14.5 5.49902l4 2l-75 -359c-32.667 -20.667 -83.334 -30.667 -152.001 -30c-42 0 -78.833 5 -110.5 15s-55.334 22.5 -71.001 37.5
s-27.834 30.333 -36.501 46s-13.667 29.167 -15 40.5l-4 14c-12 -10.667 -29 -24.5 -51 -41.5s-62.5 -39.5 -121.5 -67.5s-112.833 -42 -161.5 -42l-88 -412h-410l305 1434h410l-109 -512c-9.33301 -39.333 -6.16602 -69.666 9.50098 -90.999s39.167 -32 70.5 -32
s60 12.5 86 37.5s43.667 60.167 53 105.5l105 492h409z" />
    <glyph glyph-name="paragraph" unicode="&#xb6;" horiz-adv-x="1423" 
d="M303 -205l173.999 819c-91.333 0 -169.166 38.333 -233.499 115s-96.5 162 -96.5 256c0 120 51 224.833 153 314.5s215 134.5 339 134.5h852l-348 -1639h-359l263 1229h-123l-262 -1229h-359z" />
    <glyph glyph-name="periodcentered" unicode="&#xb7;" horiz-adv-x="450" 
d="M10 483c0 61.333 24 114.666 72 159.999s104.667 68 170 68s117.833 -17.5 157.5 -52.5s59.5 -79.167 59.5 -132.5c0 -61.333 -24.167 -114.166 -72.5 -158.499s-105.333 -66.5 -171 -66.5s-118 17.333 -157 52s-58.5 78 -58.5 130z" />
    <glyph glyph-name="cedilla" unicode="&#xb8;" horiz-adv-x="675" 
d="M193 41l178.001 -0.00292969l-92 -123c5.33301 -1.33301 12 -2.66602 20 -3.99902s22.667 -6.5 44 -15.5s40.166 -19.667 56.499 -32s31 -29.666 44 -51.999s19.5 -47.833 19.5 -76.5c0 -79.333 -27 -144.166 -81 -194.499s-127.333 -75.5 -220 -75.5
c-52 0 -101.167 9.5 -147.5 28.5s-79.833 38.167 -100.5 57.5l-33 26l121 152c38 -39.333 79.667 -59.333 125 -60c46.667 0 70 18 70 54c0 9.33301 -4.5 18 -13.5 26s-21.167 12 -36.5 12l-47 -10l-45 82z" />
    <glyph glyph-name="uni00B9" unicode="&#xb9;" horiz-adv-x="512" 
d="M440 1638h256l-157 -737h-287l92 430h-123l43 205c34 4 65.667 14.5 95 31.5s50.333 33.167 63 48.5z" />
    <glyph glyph-name="ordmasculine" unicode="&#xba;" horiz-adv-x="839" 
d="M565 1188c-30 0 -56.167 -11.333 -78.5 -34s-33.5 -51 -33.5 -85c0 -26 8.83301 -46.833 26.5 -62.5s41.5 -23.5 71.5 -23.5c31.333 0 58 11 80 33s33 50.667 33 86c0 26 -9 46.833 -27 62.5s-42 23.5 -72 23.5zM944 1116c0 -106.667 -43.001 -199.834 -129.001 -279.501
s-185.667 -119.5 -299 -119.5c-96.667 0 -178.167 33 -244.5 99s-99.5 145 -99.5 237c0 108 43.333 201.5 130 280.5s186.667 118.5 300 118.5c96.667 0 177.834 -33.167 243.501 -99.5s98.5 -145.166 98.5 -236.499z" />
    <glyph glyph-name="guillemotright" unicode="&#xbb;" horiz-adv-x="1300" 
d="M508 113l371 395l-187 362h365l194 -378l-356 -379h-387zM-14 113l370 395l-186 362h365l194 -378l-356 -379h-387z" />
    <glyph glyph-name="onequarter" unicode="&#xbc;" horiz-adv-x="1617" 
d="M61 0l1182 1434h402l-1180 -1434h-404zM418 1434h256l-158 -738h-287l93 430h-123l43 205c34 4 65.667 14.667 95 32s50 33.333 62 48zM1579 737l-82 -379h72l-51 -245h-72l-25 -113h-276l24 113h-317l47 225l383 399h297zM1137 338h90l28 133z" />
    <glyph glyph-name="onehalf" unicode="&#xbd;" horiz-adv-x="1689" 
d="M61 0l1182 1434h402l-1180 -1434h-404zM418 1434h256l-158 -738h-287l93 430h-123l43 205c34 4 65.667 14.667 95 32s50 33.333 62 48zM1663 543c0 -32.667 -4.49512 -61.667 -13.4951 -87s-24.667 -48.666 -47 -69.999s-41.333 -38.166 -57 -50.499
s-41.334 -29 -77.001 -50s-60.167 -36.167 -73.5 -45.5h194l-51 -240h-594c18 83.333 50.167 154.666 96.5 213.999s91.666 101 135.999 125s84.333 46.833 120 68.5s53.5 41.5 53.5 59.5c0 23.333 -14.333 35 -43 35c-12 0 -24.333 -3.83301 -37 -11.5
s-22.334 -14.834 -29.001 -21.501l-10 -10l-193 84c2.66699 5.33301 7.16699 12.833 13.5 22.5s19.666 26 39.999 49s43.166 43.333 68.499 61s58.5 34.167 99.5 49.5s84.833 23 131.5 23c80.667 0 146.167 -20.167 196.5 -60.5s75.5 -88.5 75.5 -144.5z" />
    <glyph glyph-name="threequarters" unicode="&#xbe;" horiz-adv-x="1710" 
d="M154 0l1181 1434h402l-1180 -1434h-403zM1673 737l-82 -379h72l-51 -245h-72l-24 -113h-277l25 113h-318l47 225l383 399h297zM1231 338h90l29 133zM647 1067c8 -2.66699 17.8301 -7.16699 29.4971 -13.5s27.167 -21.333 46.5 -45s29 -50.5 29 -80.5
c0 -66.667 -30.833 -123.667 -92.5 -171s-143.5 -71 -245.5 -71c-44 0 -85.5 4.16699 -124.5 12.5s-70 18.666 -93 30.999s-43 24.5 -60 36.5s-29.167 22.333 -36.5 31l-10 12l156 137c36.667 -36.667 81 -55 133 -55c46.667 0 70 19 70 57c0 30 -22.667 45 -68 45h-68
l35 164h76c15.333 0 28.333 4.83301 39 14.5s16 20.5 16 32.5c0 23.333 -16.333 35 -49 35c-19.333 0 -38.166 -3.66699 -56.499 -11s-32.166 -15.333 -41.499 -24l-13 -10l-98 137c8 8 19.167 18.167 33.5 30.5s48.5 29.166 102.5 50.499s111.667 32 173 32
c80.667 0 146.334 -19.5 197.001 -58.5s76 -82.5 76 -130.5c0 -39.333 -13 -74.666 -39 -105.999s-52 -52.666 -78 -63.999z" />
    <glyph glyph-name="questiondown" unicode="&#xbf;" horiz-adv-x="1064" 
d="M821 473c0 -54.667 -12.999 -102.829 -38.999 -144.496s-57 -74.334 -93 -98.001s-72.5 -45.834 -109.5 -66.501s-68.5 -42.667 -94.5 -66s-39 -48.333 -39 -75c0 -42 28.667 -63.333 86 -64c31.333 0 61.166 7.5 89.499 22.5s49.166 29.5 62.499 43.5l18 22l347 -170
c-5.33301 -9.33301 -12.833 -21.833 -22.5 -37.5s-33 -43.334 -70 -83.001s-77.333 -74.834 -121 -105.501s-102.334 -58.667 -176.001 -84s-151.5 -38 -233.5 -38c-152.667 0 -276.5 38.5 -371.5 115.5s-142.5 167.5 -142.5 271.5c0 68 14.333 128.667 43 182
s65.167 97.5 109.5 132.5s89.333 66.5 135 94.5s89.334 59 131.001 93s70.834 68.667 87.501 104h399c2.66699 -14.667 4 -31 4 -49zM909.001 842.005c0 -61.333 -23.833 -114.666 -71.5 -159.999s-104.334 -68 -170.001 -68s-118.167 17.5 -157.5 52.5
s-59 79.167 -59 132.5c0 61.333 24.167 114.166 72.5 158.499s105.333 66.5 171 66.5s117.834 -17.333 156.501 -52s58 -78 58 -130z" />
    <glyph glyph-name="Agrave" unicode="&#xc0;" horiz-adv-x="1515" 
d="M911 625l-24 358l-180 -358h204zM940 276h-410l-139 -276h-504l826 1434h512l219 -1434h-477zM1028 1935l107 -348h-338l-183 348h414z" />
    <glyph glyph-name="Aacute" unicode="&#xc1;" horiz-adv-x="1515" 
d="M911 625l-24 358l-180 -358h204zM940 276h-410l-139 -276h-504l826 1434h512l219 -1434h-477zM831 1587l250 348h443l-330 -348h-363z" />
    <glyph glyph-name="Acircumflex" unicode="&#xc2;" horiz-adv-x="1515" 
d="M911 625l-24 358l-180 -358h204zM940 276h-410l-139 -276h-504l826 1434h512l219 -1434h-477zM1028 1720l-119 -133h-383l361 348h348l213 -348h-354z" />
    <glyph glyph-name="Atilde" unicode="&#xc3;" horiz-adv-x="1515" 
d="M911 625l-24 358l-180 -358h204zM940 276h-410l-139 -276h-504l826 1434h512l219 -1434h-477zM926 1649c-46.667 0 -76.667 -27.333 -90 -82h-246c28.667 134 65.834 228.833 111.501 284.5s103.167 83.5 172.5 83.5c46.667 0 92.5 -13.667 137.5 -41
s75.167 -41 90.5 -41c46.667 0 76.667 27.333 90 82h246c-28.667 -134 -66 -228.833 -112 -284.5s-103.667 -83.5 -173 -83.5c-46.667 0 -92.334 13.667 -137.001 41s-74.667 41 -90 41z" />
    <glyph glyph-name="Adieresis" unicode="&#xc4;" horiz-adv-x="1515" 
d="M911 625l-24 358l-180 -358h204zM940 276h-410l-139 -276h-504l826 1434h512l219 -1434h-477zM575 1745c0 54.667 22.3311 103.5 66.998 146.5s96.334 64.5 155.001 64.5c52 0 94 -17.167 126 -51.5s48 -75.833 48 -124.5c0 -56 -22.167 -105.5 -66.5 -148.5
s-95.166 -64.5 -152.499 -64.5c-52 0 -94.5 17.333 -127.5 52s-49.5 76.667 -49.5 126zM1069 1745c0 54.667 22.166 103.5 66.499 146.5s95.833 64.5 154.5 64.5c52 0 94 -17.167 126 -51.5s48 -75.833 48 -124.5c0 -56 -22.167 -105.5 -66.5 -148.5
s-95.166 -64.5 -152.499 -64.5c-52 0 -94.333 17.333 -127 52s-49 76.667 -49 126z" />
    <glyph glyph-name="Aring" unicode="&#xc5;" horiz-adv-x="1515" 
d="M911 625l-24 358l-180 -358h204zM940 276h-410l-139 -276h-504l826 1434h512l219 -1434h-477zM1034 1874c-23.333 0 -43.833 -8.83398 -61.5 -26.501s-26.5 -39.5 -26.5 -65.5c0 -48 27.333 -72 82 -72c24.667 0 45.5 8.83301 62.5 26.5s25.5 40.834 25.5 69.501
c0 45.333 -27.333 68 -82 68zM1323 1815c0 -79.333 -31 -147.331 -93 -203.998s-136 -85 -222 -85c-78 0 -142.667 23.833 -194 71.5s-77 104.167 -77 169.5c0 79.333 30.5 147.666 91.5 204.999s135.833 86 224.5 86c78 0 142.5 -23.833 193.5 -71.5
s76.5 -104.834 76.5 -171.501z" />
    <glyph glyph-name="AE" unicode="&#xc6;" horiz-adv-x="2129" 
d="M1401 379h635l-80 -379h-1096l62 291h-406l-219 -291h-492l1102 1434h1331l-79 -379h-615l-33 -154h451l-74 -348h-450zM1083 1055l-295 -400h211z" />
    <glyph glyph-name="Ccedilla" unicode="&#xc7;" horiz-adv-x="1540" 
d="M1006 1065c-112 0 -210.326 -38.5059 -294.993 -115.506s-127 -172.833 -127 -287.5c0 -80.667 29.667 -149.667 89 -207s132.666 -86 219.999 -86c64 0 126 14.333 186 43s104.333 56.667 133 84l41 43l228 -310c-5.33301 -6.66699 -13.833 -16.167 -25.5 -28.5
s-38 -34.166 -79 -65.499s-84.667 -58.666 -131 -81.999s-106.833 -44.833 -181.5 -64.5s-152.334 -29.5 -233.001 -29.5h-20l-29 -41c5.33301 -1.33301 12.166 -2.66602 20.499 -3.99902s23.166 -6.5 44.499 -15.5s40.166 -19.667 56.499 -32s31 -29.666 44 -51.999
s19.5 -47.833 19.5 -76.5c0 -79.333 -27 -144.166 -81 -194.499s-127.333 -75.5 -220 -75.5c-52 0 -101.167 9.5 -147.5 28.5s-79.833 38.167 -100.5 57.5l-33 26l121 152c38 -39.333 79.667 -59.333 125 -60c46.667 0 69.667 18 69 54c0 9.33301 -4.33301 18 -13 26
s-20.667 12 -36 12l-47 -10l-45 82l94 144c-158.667 35.333 -288 112.666 -388 231.999s-150 252.666 -150 399.999c0 241.333 90 445.5 270 612.5s403.333 250.5 670 250.5c78 0 152.333 -10 223 -30s128.667 -44 174 -72s84.666 -56 117.999 -84s57.333 -52 72 -72l23 -29
l-330 -281c-2.66699 4 -7.33398 9.83301 -14.001 17.5s-21 20.334 -43 38.001s-44.833 33.334 -68.5 47.001s-54 26.334 -91 38.001s-74.5 17.5 -112.5 17.5z" />
    <glyph glyph-name="Egrave" unicode="&#xc8;" horiz-adv-x="1392" 
d="M602 379h696l-79 -379h-1158l304 1434h1136l-80 -379h-676l-32 -154h512l-74 -348h-512zM1018 1935l106 -348h-338l-182 348h414z" />
    <glyph glyph-name="Eacute" unicode="&#xc9;" horiz-adv-x="1392" 
d="M602 379h696l-79 -379h-1158l304 1434h1136l-80 -379h-676l-32 -154h512l-74 -348h-512zM764 1587l250 348h442l-330 -348h-362z" />
    <glyph glyph-name="Ecircumflex" unicode="&#xca;" horiz-adv-x="1392" 
d="M602 379h696l-79 -379h-1158l304 1434h1136l-80 -379h-676l-32 -154h512l-74 -348h-512zM983 1720l-119 -133h-383l361 348h348l213 -348h-354z" />
    <glyph glyph-name="Edieresis" unicode="&#xcb;" horiz-adv-x="1392" 
d="M602 379h696l-79 -379h-1158l304 1434h1136l-80 -379h-676l-32 -154h512l-74 -348h-512zM530 1745c0 54.667 22.3311 103.5 66.998 146.5s96.334 64.5 155.001 64.5c52 0 94 -17.167 126 -51.5s48 -75.833 48 -124.5c0 -56 -22.167 -105.5 -66.5 -148.5
s-95.166 -64.5 -152.499 -64.5c-52 0 -94.5 17.333 -127.5 52s-49.5 76.667 -49.5 126zM1024 1745c0 54.667 22.166 103.5 66.499 146.5s95.833 64.5 154.5 64.5c52 0 94 -17.167 126 -51.5s48 -75.833 48 -124.5c0 -56 -22.167 -105.5 -66.5 -148.5
s-95.166 -64.5 -152.499 -64.5c-52 0 -94.333 17.333 -127 52s-49 76.667 -49 126z" />
    <glyph glyph-name="Igrave" unicode="&#xcc;" horiz-adv-x="768" 
d="M61 0l304 1434h460l-303 -1434h-461zM670 1935l106 -348h-338l-182 348h414z" />
    <glyph glyph-name="Iacute" unicode="&#xcd;" horiz-adv-x="768" 
d="M61 0l304 1434h460l-303 -1434h-461zM442 1587l250 348h443l-330 -348h-363z" />
    <glyph glyph-name="Icircumflex" unicode="&#xce;" horiz-adv-x="768" 
d="M61 0l304 1434h460l-303 -1434h-461zM645 1720l-119 -133h-383l361 348h348l213 -348h-354z" />
    <glyph glyph-name="Idieresis" unicode="&#xcf;" horiz-adv-x="768" 
d="M61 0l304 1434h460l-303 -1434h-461zM203 1745c0 54.667 22.166 103.5 66.499 146.5s95.833 64.5 154.5 64.5c52 0 94 -17.167 126 -51.5s48 -75.833 48 -124.5c0 -56 -22.167 -105.5 -66.5 -148.5s-95.166 -64.5 -152.499 -64.5c-52 0 -94.333 17.333 -127 52
s-49 76.667 -49 126zM695.999 1745c0 54.667 22.168 103.5 66.501 146.5s96.166 64.5 155.499 64.5c52 0 94 -17.167 126 -51.5s48 -75.833 48 -124.5c0 -56 -22.333 -105.5 -67 -148.5s-95.667 -64.5 -153 -64.5c-52 0 -94.333 17.333 -127 52s-49 76.667 -49 126z" />
    <glyph glyph-name="Eth" unicode="&#xd0;" horiz-adv-x="1607" 
d="M397 1434l535 -0.00195312c194 0 355.833 -62.167 485.5 -186.5s194.5 -271.166 194.5 -440.499c0 -225.333 -85.667 -416.166 -257 -572.499s-384 -234.5 -638 -234.5h-623l117 553h-145l69 328h146zM874 1024h-102l-31 -143h193l-70 -328h-192l-31 -143h123
c104 0 193.167 36.167 267.5 108.5s111.5 159.5 111.5 261.5c0 70.667 -25 129 -75 175s-114.667 69 -194 69z" />
    <glyph glyph-name="Ntilde" unicode="&#xd1;" horiz-adv-x="1699" 
d="M1296 1434h461l-303 -1434h-375l-409 696l-148 -696h-461l304 1434h376l408 -697zM1001 1649c-46.667 0 -76.667 -27.333 -90 -82h-245c28.667 134 65.834 228.833 111.501 284.5s103.167 83.5 172.5 83.5c46.667 0 92.5 -13.667 137.5 -41s75.167 -41 90.5 -41
c46.667 0 76.667 27.333 90 82h245c-28.667 -134 -65.834 -228.833 -111.501 -284.5s-103.167 -83.5 -172.5 -83.5c-46.667 0 -92.5 13.667 -137.5 41s-75.167 41 -90.5 41z" />
    <glyph glyph-name="Ograve" unicode="&#xd2;" horiz-adv-x="1761" 
d="M977 1065c-101.333 0 -192.5 -39 -273.5 -117s-121.5 -169.333 -121.5 -274c0 -87.333 30 -160.333 90 -219s136.333 -88 229 -88c102.667 0 194.167 38.833 274.5 116.5s120.5 169.167 120.5 274.5c0 86 -30 158.667 -90 218s-136.333 89 -229 89zM1765 786
c0 -143.333 -41.168 -279.167 -123.501 -407.5s-192.5 -230.333 -330.5 -306s-284.333 -113.5 -439 -113.5c-225.333 0 -408.166 66.833 -548.499 200.5s-210.5 295.5 -210.5 485.5c0 146 40.833 282.833 122.5 410.5s191.5 229.5 329.5 305.5s285.667 114 443 114
c225.333 0 407.833 -67.333 547.5 -202s209.5 -297 209.5 -487zM1122 1935l107 -348h-338l-182 348h413z" />
    <glyph glyph-name="Oacute" unicode="&#xd3;" horiz-adv-x="1761" 
d="M977 1065c-101.333 0 -192.5 -39 -273.5 -117s-121.5 -169.333 -121.5 -274c0 -87.333 30 -160.333 90 -219s136.333 -88 229 -88c102.667 0 194.167 38.833 274.5 116.5s120.5 169.167 120.5 274.5c0 86 -30 158.667 -90 218s-136.333 89 -229 89zM1765 786
c0 -143.333 -41.168 -279.167 -123.501 -407.5s-192.5 -230.333 -330.5 -306s-284.333 -113.5 -439 -113.5c-225.333 0 -408.166 66.833 -548.499 200.5s-210.5 295.5 -210.5 485.5c0 146 40.833 282.833 122.5 410.5s191.5 229.5 329.5 305.5s285.667 114 443 114
c225.333 0 407.833 -67.333 547.5 -202s209.5 -297 209.5 -487zM876.999 1587l249 348h443l-330 -348h-362z" />
    <glyph glyph-name="Ocircumflex" unicode="&#xd4;" horiz-adv-x="1761" 
d="M977 1065c-101.333 0 -192.5 -39 -273.5 -117s-121.5 -169.333 -121.5 -274c0 -87.333 30 -160.333 90 -219s136.333 -88 229 -88c102.667 0 194.167 38.833 274.5 116.5s120.5 169.167 120.5 274.5c0 86 -30 158.667 -90 218s-136.333 89 -229 89zM1765 786
c0 -143.333 -41.168 -279.167 -123.501 -407.5s-192.5 -230.333 -330.5 -306s-284.333 -113.5 -439 -113.5c-225.333 0 -408.166 66.833 -548.499 200.5s-210.5 295.5 -210.5 485.5c0 146 40.833 282.833 122.5 410.5s191.5 229.5 329.5 305.5s285.667 114 443 114
c225.333 0 407.833 -67.333 547.5 -202s209.5 -297 209.5 -487zM1098 1720l-119 -133h-383l360 348h349l213 -348h-355z" />
    <glyph glyph-name="Otilde" unicode="&#xd5;" horiz-adv-x="1761" 
d="M977 1065c-101.333 0 -192.5 -39 -273.5 -117s-121.5 -169.333 -121.5 -274c0 -87.333 30 -160.333 90 -219s136.333 -88 229 -88c102.667 0 194.167 38.833 274.5 116.5s120.5 169.167 120.5 274.5c0 86 -30 158.667 -90 218s-136.333 89 -229 89zM1765 786
c0 -143.333 -41.168 -279.167 -123.501 -407.5s-192.5 -230.333 -330.5 -306s-284.333 -113.5 -439 -113.5c-225.333 0 -408.166 66.833 -548.499 200.5s-210.5 295.5 -210.5 485.5c0 146 40.833 282.833 122.5 410.5s191.5 229.5 329.5 305.5s285.667 114 443 114
c225.333 0 407.833 -67.333 547.5 -202s209.5 -297 209.5 -487zM986.999 1659c-46.667 0 -76.666 -27.333 -89.999 -82h-246c28.667 134 65.834 229 111.501 285s103.5 84 173.5 84c46.667 0 92.5 -13.667 137.5 -41s74.833 -41 89.5 -41c46.667 0 76.667 27.333 90 82h246
c-28.667 -134 -65.834 -229 -111.501 -285s-103.5 -84 -173.5 -84c-46.667 0 -92.334 13.667 -137.001 41s-74.667 41 -90 41z" />
    <glyph glyph-name="Odieresis" unicode="&#xd6;" horiz-adv-x="1761" 
d="M977 1065c-101.333 0 -192.5 -39 -273.5 -117s-121.5 -169.333 -121.5 -274c0 -87.333 30 -160.333 90 -219s136.333 -88 229 -88c102.667 0 194.167 38.833 274.5 116.5s120.5 169.167 120.5 274.5c0 86 -30 158.667 -90 218s-136.333 89 -229 89zM1765 786
c0 -143.333 -41.168 -279.167 -123.501 -407.5s-192.5 -230.333 -330.5 -306s-284.333 -113.5 -439 -113.5c-225.333 0 -408.166 66.833 -548.499 200.5s-210.5 295.5 -210.5 485.5c0 146 40.833 282.833 122.5 410.5s191.5 229.5 329.5 305.5s285.667 114 443 114
c225.333 0 407.833 -67.333 547.5 -202s209.5 -297 209.5 -487zM646.999 1745c0 54.667 22.166 103.5 66.499 146.5s95.833 64.5 154.5 64.5c52 0 94 -17.167 126 -51.5s48 -75.833 48 -124.5c0 -56 -22.167 -105.5 -66.5 -148.5s-95.166 -64.5 -152.499 -64.5
c-52 0 -94.333 17.333 -127 52s-49 76.667 -49 126zM1141 1745c0 54.667 22.166 103.5 66.499 146.5s95.833 64.5 154.5 64.5c52 0 94 -17.167 126 -51.5s48 -75.833 48 -124.5c0 -56 -22.167 -105.5 -66.5 -148.5s-95.166 -64.5 -152.499 -64.5
c-52 0 -94.333 17.333 -127 52s-49 76.667 -49 126z" />
    <glyph glyph-name="multiply" unicode="&#xd7;" horiz-adv-x="1085" 
d="M823 623l183 -230l-277 -229l-182 229l-275 -227l-202 254l274 227l-180 230l276 229l183 -229l274 225l203 -254z" />
    <glyph glyph-name="Oslash" unicode="&#xd8;" horiz-adv-x="1761" 
d="M1765 786c0 -143.333 -41.168 -279.166 -123.501 -407.499s-192.5 -230.333 -330.5 -306s-284.333 -113.5 -439 -113.5c-187.333 0 -347.666 48.333 -480.999 145l-244 -190l-172 233l222 172c-56 100 -84 208.667 -84 326c0 146 40.833 282.833 122.5 410.5
s191.5 229.5 329.5 305.5s285.667 114 443 114c186 0 345.667 -48.667 479 -146l246 191l170 -234l-224 -174c57.333 -102.667 86 -211.334 86 -326.001zM1315 760c0 20.667 -2 41 -6 61l-564 -440c48 -22 99.333 -33 154 -33c106.667 0 202.667 41 288 123
s128 178.333 128 289zM978.999 1083c-106.667 0 -202.668 -41.168 -288.001 -123.501s-128 -178.166 -128 -287.499c0 -13.333 1.33301 -34 4 -62l563 441c-47.333 21.333 -97.666 32 -150.999 32z" />
    <glyph glyph-name="Ugrave" unicode="&#xd9;" horiz-adv-x="1617" 
d="M803 369c58.667 0 112.166 22.501 160.499 67.501s80.166 100.833 95.499 167.5l176 830h461l-176 -830c-40.667 -192.667 -127.667 -348.334 -261 -467.001s-301.666 -178 -504.999 -178c-176 0 -320 48.5 -432 145.5s-168 221.167 -168 372.5
c0 45.333 4.66699 87.666 14 126.999l176 830h461l-176 -830c-4 -16.667 -6 -33 -6 -49c0 -53.333 17.333 -97.666 52 -132.999s77.334 -53 128.001 -53zM1081 1935l107 -348h-338l-182 348h413z" />
    <glyph glyph-name="Uacute" unicode="&#xda;" horiz-adv-x="1617" 
d="M803 369c58.667 0 112.166 22.501 160.499 67.501s80.166 100.833 95.499 167.5l176 830h461l-176 -830c-40.667 -192.667 -127.667 -348.334 -261 -467.001s-301.666 -178 -504.999 -178c-176 0 -320 48.5 -432 145.5s-168 221.167 -168 372.5
c0 45.333 4.66699 87.666 14 126.999l176 830h461l-176 -830c-4 -16.667 -6 -33 -6 -49c0 -53.333 17.333 -97.666 52 -132.999s77.334 -53 128.001 -53zM847.999 1587l250 348h442l-330 -348h-362z" />
    <glyph glyph-name="Ucircumflex" unicode="&#xdb;" horiz-adv-x="1617" 
d="M803 369c58.667 0 112.166 22.501 160.499 67.501s80.166 100.833 95.499 167.5l176 830h461l-176 -830c-40.667 -192.667 -127.667 -348.334 -261 -467.001s-301.666 -178 -504.999 -178c-176 0 -320 48.5 -432 145.5s-168 221.167 -168 372.5
c0 45.333 4.66699 87.666 14 126.999l176 830h461l-176 -830c-4 -16.667 -6 -33 -6 -49c0 -53.333 17.333 -97.666 52 -132.999s77.334 -53 128.001 -53zM1067 1720l-119 -133h-383l361 348h348l213 -348h-354z" />
    <glyph glyph-name="Udieresis" unicode="&#xdc;" horiz-adv-x="1617" 
d="M803 369c58.667 0 112.166 22.501 160.499 67.501s80.166 100.833 95.499 167.5l176 830h461l-176 -830c-40.667 -192.667 -127.667 -348.334 -261 -467.001s-301.666 -178 -504.999 -178c-176 0 -320 48.5 -432 145.5s-168 221.167 -168 372.5
c0 45.333 4.66699 87.666 14 126.999l176 830h461l-176 -830c-4 -16.667 -6 -33 -6 -49c0 -53.333 17.333 -97.666 52 -132.999s77.334 -53 128.001 -53zM632.999 1745c0 54.667 22.166 103.5 66.499 146.5s95.833 64.5 154.5 64.5c52 0 94 -17.167 126 -51.5
s48 -75.833 48 -124.5c0 -56 -22.167 -105.5 -66.5 -148.5s-95.166 -64.5 -152.499 -64.5c-52 0 -94.333 17.333 -127 52s-49 76.667 -49 126zM1126 1745c0 54.667 22.3311 103.5 66.998 146.5s96.334 64.5 155.001 64.5c52 0 94 -17.167 126 -51.5s48 -75.833 48 -124.5
c0 -56 -22.167 -105.5 -66.5 -148.5s-95.166 -64.5 -152.499 -64.5c-52 0 -94.5 17.333 -127.5 52s-49.5 76.667 -49.5 126z" />
    <glyph glyph-name="Yacute" unicode="&#xdd;" horiz-adv-x="1433" 
d="M1153 1434h512l-707 -922l-108 -512h-461l109 512l-318 922h471l142 -492h10zM727 1587l250 348h442l-329 -348h-363z" />
    <glyph glyph-name="Thorn" unicode="&#xde;" horiz-adv-x="1423" 
d="M803 1321h67c162.667 0 298 -49.833 406 -149.5s162 -219.167 162 -358.5c0 -188.667 -71.667 -345.667 -215 -471s-321 -188 -533 -188h-137l-41 -195h-461l324 1516h461zM725 963l-94 -451h28c94 0 169.5 25 226.5 75s85.5 115.667 85.5 197
c0 53.333 -20.167 96.5 -60.5 129.5s-97.5 49.5 -171.5 49.5h-14z" />
    <glyph glyph-name="germandbls" unicode="&#xdf;" horiz-adv-x="1300" 
d="M1044 758c5.33301 -2.66699 12.499 -6.1709 21.499 -10.5039s25.167 -14.666 48.5 -30.999s43.833 -34.666 61.5 -54.999s33.667 -47.666 48 -81.999s21.5 -70.5 21.5 -108.5c0 -134 -56.333 -246 -169 -336s-261 -135 -445 -135h-109l76 358h88
c34 0 62.667 11.667 86 35s35 53.333 35 90c0 23.333 -8.16699 42.5 -24.5 57.5s-37.5 22.5 -63.5 22.5h-78l72 338h22c32.667 0 61.667 11.333 87 34s38 51 38 85c0 22 -8.5 40.167 -25.5 54.5s-39.167 21.5 -66.5 21.5c-31.333 0 -59.666 -12.333 -84.999 -37
s-42 -56.667 -50 -96l-203 -963h-410l205 967c31.333 151.333 99 270.333 203 357s239.333 130 406 130c128.667 0 234.5 -36.167 317.5 -108.5s124.5 -154.166 124.5 -245.499c0 -27.333 -2.66699 -53.666 -8 -78.999s-12.5 -47.833 -21.5 -67.5s-19.667 -38.5 -32 -56.5
s-25 -33.5 -38 -46.5s-26 -24.5 -39 -34.5s-25 -18.833 -36 -26.5s-21.167 -13.834 -30.5 -18.501s-16 -7.66699 -20 -9z" />
    <glyph glyph-name="agrave" unicode="&#xe0;" horiz-adv-x="1312" 
d="M614 348c50.667 0 93.833 17.834 129.5 53.501s53.5 80.167 53.5 133.5c0 35.333 -12 64.166 -36 86.499s-55 33.5 -93 33.5c-48 0 -89.333 -17.333 -124 -52s-52 -80 -52 -136c0 -34 11.5 -62.333 34.5 -85s52.167 -34 87.5 -34zM869.999 870.001l29.002 133.998h410
l-213 -1004h-410l23 113c-8 -9.33301 -19.333 -21.666 -34 -36.999s-47.5 -35.166 -98.5 -59.499s-105.167 -36.5 -162.5 -36.5c-104 0 -189.167 38.833 -255.5 116.5s-99.5 175.167 -99.5 292.5c0 186 54.667 338.333 164 457s235.666 178 378.999 178
c36.667 0 71.167 -5.16699 103.5 -15.5s58 -23.333 77 -39s35.667 -31 50 -46s24.166 -27.833 29.499 -38.5zM831.001 1475l107 -349h-338l-182 349h413z" />
    <glyph glyph-name="aacute" unicode="&#xe1;" horiz-adv-x="1312" 
d="M614 348c50.667 0 93.833 17.834 129.5 53.501s53.5 80.167 53.5 133.5c0 35.333 -12 64.166 -36 86.499s-55 33.5 -93 33.5c-48 0 -89.333 -17.333 -124 -52s-52 -80 -52 -136c0 -34 11.5 -62.333 34.5 -85s52.167 -34 87.5 -34zM869.999 870.001l29.002 133.998h410
l-213 -1004h-410l23 113c-8 -9.33301 -19.333 -21.666 -34 -36.999s-47.5 -35.166 -98.5 -59.499s-105.167 -36.5 -162.5 -36.5c-104 0 -189.167 38.833 -255.5 116.5s-99.5 175.167 -99.5 292.5c0 186 54.667 338.333 164 457s235.666 178 378.999 178
c36.667 0 71.167 -5.16699 103.5 -15.5s58 -23.333 77 -39s35.667 -31 50 -46s24.166 -27.833 29.499 -38.5zM563.001 1126l250 349h442l-329 -349h-363z" />
    <glyph glyph-name="acircumflex" unicode="&#xe2;" horiz-adv-x="1312" 
d="M614 348c50.667 0 93.833 17.834 129.5 53.501s53.5 80.167 53.5 133.5c0 35.333 -12 64.166 -36 86.499s-55 33.5 -93 33.5c-48 0 -89.333 -17.333 -124 -52s-52 -80 -52 -136c0 -34 11.5 -62.333 34.5 -85s52.167 -34 87.5 -34zM869.999 870.001l29.002 133.998h410
l-213 -1004h-410l23 113c-8 -9.33301 -19.333 -21.666 -34 -36.999s-47.5 -35.166 -98.5 -59.499s-105.167 -36.5 -162.5 -36.5c-104 0 -189.167 38.833 -255.5 116.5s-99.5 175.167 -99.5 292.5c0 186 54.667 338.333 164 457s235.666 178 378.999 178
c36.667 0 71.167 -5.16699 103.5 -15.5s58 -23.333 77 -39s35.667 -31 50 -46s24.166 -27.833 29.499 -38.5zM809.001 1260l-119 -134h-383l361 349h348l213 -349h-355z" />
    <glyph glyph-name="atilde" unicode="&#xe3;" horiz-adv-x="1312" 
d="M614 348c50.667 0 93.833 17.834 129.5 53.501s53.5 80.167 53.5 133.5c0 35.333 -12 64.166 -36 86.499s-55 33.5 -93 33.5c-48 0 -89.333 -17.333 -124 -52s-52 -80 -52 -136c0 -34 11.5 -62.333 34.5 -85s52.167 -34 87.5 -34zM869.999 870.001l29.002 133.998h410
l-213 -1004h-410l23 113c-8 -9.33301 -19.333 -21.666 -34 -36.999s-47.5 -35.166 -98.5 -59.499s-105.167 -36.5 -162.5 -36.5c-104 0 -189.167 38.833 -255.5 116.5s-99.5 175.167 -99.5 292.5c0 186 54.667 338.333 164 457s235.666 178 378.999 178
c36.667 0 71.167 -5.16699 103.5 -15.5s58 -23.333 77 -39s35.667 -31 50 -46s24.166 -27.833 29.499 -38.5zM723.001 1188c-46.667 0 -76.666 -27.333 -89.999 -82h-246c28.667 134 65.834 229 111.501 285s103.5 84 173.5 84c46.667 0 92.5 -13.667 137.5 -41
s74.833 -41 89.5 -41c46.667 0 76.667 27.333 90 82h246c-28.667 -134 -65.834 -229 -111.501 -285s-103.5 -84 -173.5 -84c-46.667 0 -92.334 13.667 -137.001 41s-74.667 41 -90 41z" />
    <glyph glyph-name="adieresis" unicode="&#xe4;" horiz-adv-x="1312" 
d="M614 348c50.667 0 93.833 17.834 129.5 53.501s53.5 80.167 53.5 133.5c0 35.333 -12 64.166 -36 86.499s-55 33.5 -93 33.5c-48 0 -89.333 -17.333 -124 -52s-52 -80 -52 -136c0 -34 11.5 -62.333 34.5 -85s52.167 -34 87.5 -34zM869.999 870.001l29.002 133.998h410
l-213 -1004h-410l23 113c-8 -9.33301 -19.333 -21.666 -34 -36.999s-47.5 -35.166 -98.5 -59.499s-105.167 -36.5 -162.5 -36.5c-104 0 -189.167 38.833 -255.5 116.5s-99.5 175.167 -99.5 292.5c0 186 54.667 338.333 164 457s235.666 178 378.999 178
c36.667 0 71.167 -5.16699 103.5 -15.5s58 -23.333 77 -39s35.667 -31 50 -46s24.166 -27.833 29.499 -38.5zM356.001 1284c0 54.667 22.168 103.5 66.501 146.5s96.166 64.5 155.499 64.5c52 0 94 -17 126 -51s48 -75.667 48 -125c0 -56 -22.333 -105.5 -67 -148.5
s-95.667 -64.5 -153 -64.5c-52 0 -94.333 17.333 -127 52s-49 76.667 -49 126zM850.002 1284c0 54.667 22.166 103.5 66.499 146.5s95.833 64.5 154.5 64.5c52 0 94 -17 126 -51s48 -75.667 48 -125c0 -56 -22.167 -105.5 -66.5 -148.5s-95.166 -64.5 -152.499 -64.5
c-52 0 -94.333 17.333 -127 52s-49 76.667 -49 126z" />
    <glyph glyph-name="aring" unicode="&#xe5;" horiz-adv-x="1312" 
d="M614 348c50.667 0 93.833 17.834 129.5 53.501s53.5 80.167 53.5 133.5c0 35.333 -12 64.166 -36 86.499s-55 33.5 -93 33.5c-48 0 -89.333 -17.333 -124 -52s-52 -80 -52 -136c0 -34 11.5 -62.333 34.5 -85s52.167 -34 87.5 -34zM869.999 870.001l29.002 133.998h410
l-213 -1004h-410l23 113c-8 -9.33301 -19.333 -21.666 -34 -36.999s-47.5 -35.166 -98.5 -59.499s-105.167 -36.5 -162.5 -36.5c-104 0 -189.167 38.833 -255.5 116.5s-99.5 175.167 -99.5 292.5c0 186 54.667 338.333 164 457s235.666 178 378.999 178
c36.667 0 71.167 -5.16699 103.5 -15.5s58 -23.333 77 -39s35.667 -31 50 -46s24.166 -27.833 29.499 -38.5zM809.001 1434c-23.333 0 -43.833 -9.00098 -61.5 -27.001s-26.5 -40 -26.5 -66c0 -48 27.333 -71.667 82 -71c24.667 0 45.5 8.83301 62.5 26.5
s25.5 40.834 25.5 69.501c0 45.333 -27.333 68 -82 68zM1098 1374c0 -79.333 -31.168 -147.332 -93.501 -203.999s-136.5 -85 -222.5 -85c-78 0 -142.5 24 -193.5 72s-76.5 104.667 -76.5 170c0 79.333 30.333 147.666 91 204.999s135.334 86 224.001 86
c78 0 142.667 -24 194 -72s77 -105.333 77 -172z" />
    <glyph glyph-name="ae" unicode="&#xe6;" horiz-adv-x="1761" 
d="M608 1034c61.333 0 116.666 -12.668 165.999 -38.001s83.666 -50 102.999 -74l28 -37c4 4 9.83301 9.33301 17.5 16s23.834 18.667 48.501 36s50.167 32.333 76.5 45s60 24.5 101 35.5s82.833 16.5 125.5 16.5c134 0 243.333 -38.5 328 -115.5s127 -173.5 127 -289.5
c0 -38 -4.83301 -75.167 -14.5 -111.5s-18.5 -63.5 -26.5 -81.5l-15 -26h-645c9.33301 -75.333 70 -113 182 -113c32.667 0 67.5 5.83301 104.5 17.5s65.833 22.834 86.5 33.501l31 17l98 -256c-12 -9.33301 -29.333 -21.666 -52 -36.999s-70.5 -35.333 -143.5 -60
s-147.833 -37 -224.5 -37c-48 0 -92.5 5.5 -133.5 16.5s-73.333 24 -97 39s-43.667 30.333 -60 46s-28.166 29.167 -35.499 40.5l-10 16c-4 -4 -10.167 -9.83301 -18.5 -17.5s-25.666 -20.334 -51.999 -38.001s-54.666 -33.334 -84.999 -47.001
s-69.333 -26.334 -117 -38.001s-96.167 -17.5 -145.5 -17.5c-112 0 -199.333 26.333 -262 79s-94 115.334 -94 188.001c0 196.667 138 315.334 414 356.001l252 37c1.33301 4 2 10.667 2 20c0 20.667 -9.66699 37.834 -29 51.501s-46 20.5 -80 20.5
c-36.667 0 -72.834 -7.16699 -108.501 -21.5s-62.167 -28.833 -79.5 -43.5l-27 -23l-154 211c4 5.33301 10.167 12.166 18.5 20.499s26.166 23 53.499 44s56 39.667 86 56s68.5 31 115.5 44s95.167 19.5 144.5 19.5zM461 275.999c36.667 0 70.333 14.332 101 42.999
s51 65.667 61 111l-105 -10c-34 -2.66699 -62.667 -12.5 -86 -29.5s-35 -37.167 -35 -60.5c0 -13.333 5.83301 -25.666 17.5 -36.999s27.167 -17 46.5 -17zM1219 726.998c-34 0 -67.167 -10.833 -99.5 -32.5s-57.5 -48.5 -75.5 -80.5h287c0 31.333 -10.5 58 -31.5 80
s-47.833 33 -80.5 33z" />
    <glyph glyph-name="ccedilla" unicode="&#xe7;" horiz-adv-x="1116" 
d="M53 432c0 166.667 66.0029 308.664 198.003 425.997s287.333 176 466 176c57.333 0 111.5 -7.5 162.5 -22.5s93 -33 126 -54s61.333 -41.833 85 -62.5s41.167 -38.334 52.5 -53.001l14 -23l-291 -237c-4 6.66699 -10 14.334 -18 23.001s-26.333 21 -55 37
s-59.667 24 -93 24c-57.333 0 -106.333 -19.167 -147 -57.5s-61 -84.833 -61 -139.5c0 -36.667 13.5 -67.667 40.5 -93s62.5 -38 106.5 -38c32.667 0 65 7.5 97 22.5s55.667 30.167 71 45.5l22 22l205 -258c-4 -5.33301 -10 -12.5 -18 -21.5s-26.833 -25 -56.5 -48
s-61.167 -43.5 -94.5 -61.5s-77.333 -34.167 -132 -48.5s-112 -21.5 -172 -21.5l-37 -51c5.33301 -1.33301 12.166 -2.66602 20.499 -3.99902s23.166 -6.5 44.499 -15.5s40.166 -19.667 56.499 -32s31 -29.666 44 -51.999s19.5 -47.833 19.5 -76.5
c0 -79.333 -27 -144.166 -81 -194.499s-127.333 -75.5 -220 -75.5c-52 0 -101.333 9.5 -148 28.5s-80 38.167 -100 57.5l-33 26l121 152c38 -39.333 79.667 -59.333 125 -60c46.667 0 69.667 18 69 54c0 9.33301 -4.33301 18 -13 26s-20.667 12 -36 12l-47 -10l-45 82
l105 156c-104 30 -188.833 86.333 -254.5 169s-98.5 173 -98.5 271z" />
    <glyph glyph-name="egrave" unicode="&#xe8;" horiz-adv-x="1208" 
d="M1120 410l-643 -0.000976562c30 -75.333 95 -113 195 -113c28.667 0 59 5.83301 91 17.5s57.667 23.5 77 35.5l26 19l115 -267c-10.667 -9.33301 -26.667 -21.5 -48 -36.5s-66.5 -34.833 -135.5 -59.5s-139.5 -37 -211.5 -37c-161.333 0 -290.5 46.5 -387.5 139.5
s-145.5 203.5 -145.5 331.5c0 165.333 62.833 305.666 188.5 420.999s275.834 173 450.501 173c135.333 0 249.833 -39.833 343.5 -119.5s140.5 -177.5 140.5 -293.5c0 -15.333 -1.16699 -31.166 -3.5 -47.499s-4.83301 -31.333 -7.5 -45s-6 -27 -10 -40
s-7.66699 -24.333 -11 -34s-6.83301 -18.167 -10.5 -25.5s-6.83398 -12.666 -9.50098 -15.999s-4 -4.33301 -4 -3zM653 726.999c-74 0 -127.668 -37.667 -161.001 -113h282c1.33301 31.333 -9.66699 58 -33 80s-52.666 33 -87.999 33zM781.999 1475l107 -349h-338l-182 349
h413z" />
    <glyph glyph-name="eacute" unicode="&#xe9;" horiz-adv-x="1208" 
d="M1120 410l-643 -0.000976562c30 -75.333 95 -113 195 -113c28.667 0 59 5.83301 91 17.5s57.667 23.5 77 35.5l26 19l115 -267c-10.667 -9.33301 -26.667 -21.5 -48 -36.5s-66.5 -34.833 -135.5 -59.5s-139.5 -37 -211.5 -37c-161.333 0 -290.5 46.5 -387.5 139.5
s-145.5 203.5 -145.5 331.5c0 165.333 62.833 305.666 188.5 420.999s275.834 173 450.501 173c135.333 0 249.833 -39.833 343.5 -119.5s140.5 -177.5 140.5 -293.5c0 -15.333 -1.16699 -31.166 -3.5 -47.499s-4.83301 -31.333 -7.5 -45s-6 -27 -10 -40
s-7.66699 -24.333 -11 -34s-6.83301 -18.167 -10.5 -25.5s-6.83398 -12.666 -9.50098 -15.999s-4 -4.33301 -4 -3zM653 726.999c-74 0 -127.668 -37.667 -161.001 -113h282c1.33301 31.333 -9.66699 58 -33 80s-52.666 33 -87.999 33zM531.999 1126l250 349h443l-330 -349
h-363z" />
    <glyph glyph-name="ecircumflex" unicode="&#xea;" horiz-adv-x="1208" 
d="M1120 410l-643 -0.000976562c30 -75.333 95 -113 195 -113c28.667 0 59 5.83301 91 17.5s57.667 23.5 77 35.5l26 19l115 -267c-10.667 -9.33301 -26.667 -21.5 -48 -36.5s-66.5 -34.833 -135.5 -59.5s-139.5 -37 -211.5 -37c-161.333 0 -290.5 46.5 -387.5 139.5
s-145.5 203.5 -145.5 331.5c0 165.333 62.833 305.666 188.5 420.999s275.834 173 450.501 173c135.333 0 249.833 -39.833 343.5 -119.5s140.5 -177.5 140.5 -293.5c0 -15.333 -1.16699 -31.166 -3.5 -47.499s-4.83301 -31.333 -7.5 -45s-6 -27 -10 -40
s-7.66699 -24.333 -11 -34s-6.83301 -18.167 -10.5 -25.5s-6.83398 -12.666 -9.50098 -15.999s-4 -4.33301 -4 -3zM653 726.999c-74 0 -127.668 -37.667 -161.001 -113h282c1.33301 31.333 -9.66699 58 -33 80s-52.666 33 -87.999 33zM761.999 1260l-119 -134h-383l361 349
h348l213 -349h-355z" />
    <glyph glyph-name="edieresis" unicode="&#xeb;" horiz-adv-x="1208" 
d="M1120 410l-643 -0.000976562c30 -75.333 95 -113 195 -113c28.667 0 59 5.83301 91 17.5s57.667 23.5 77 35.5l26 19l115 -267c-10.667 -9.33301 -26.667 -21.5 -48 -36.5s-66.5 -34.833 -135.5 -59.5s-139.5 -37 -211.5 -37c-161.333 0 -290.5 46.5 -387.5 139.5
s-145.5 203.5 -145.5 331.5c0 165.333 62.833 305.666 188.5 420.999s275.834 173 450.501 173c135.333 0 249.833 -39.833 343.5 -119.5s140.5 -177.5 140.5 -293.5c0 -15.333 -1.16699 -31.166 -3.5 -47.499s-4.83301 -31.333 -7.5 -45s-6 -27 -10 -40
s-7.66699 -24.333 -11 -34s-6.83301 -18.167 -10.5 -25.5s-6.83398 -12.666 -9.50098 -15.999s-4 -4.33301 -4 -3zM653 726.999c-74 0 -127.668 -37.667 -161.001 -113h282c1.33301 31.333 -9.66699 58 -33 80s-52.666 33 -87.999 33zM312.999 1284
c0 54.667 22.168 103.5 66.501 146.5s96.166 64.5 155.499 64.5c52 0 94 -17 126 -51s48 -75.667 48 -125c0 -56 -22.333 -105.5 -67 -148.5s-95.667 -64.5 -153 -64.5c-52 0 -94.333 17.333 -127 52s-49 76.667 -49 126zM807 1284c0 54.667 22.166 103.5 66.499 146.5
s95.833 64.5 154.5 64.5c52 0 94 -17 126 -51s48 -75.667 48 -125c0 -56 -22.167 -105.5 -66.5 -148.5s-95.166 -64.5 -152.499 -64.5c-52 0 -94.333 17.333 -127 52s-49 76.667 -49 126z" />
    <glyph glyph-name="igrave" unicode="&#xec;" horiz-adv-x="655" 
d="M508 1475l106 -349h-338l-182 349h414zM643 1004l-213 -1004h-410l213 1004h410z" />
    <glyph glyph-name="iacute" unicode="&#xed;" horiz-adv-x="655" 
d="M285 1126l250 349h442l-330 -349h-362zM643 1004l-213 -1004h-410l213 1004h410z" />
    <glyph glyph-name="icircumflex" unicode="&#xee;" horiz-adv-x="675" 
d="M647 1004l-213 -1004h-409l213 1004h409zM489 1260l-118 -134h-383l360 349h348l213 -349h-354z" />
    <glyph glyph-name="idieresis" unicode="&#xef;" horiz-adv-x="655" 
d="M57 1284c0 54.667 22.168 103.5 66.501 146.5s96.166 64.5 155.499 64.5c52 0 94 -17 126 -51s48 -75.667 48 -125c0 -56 -22.333 -105.5 -67 -148.5s-95.667 -64.5 -153 -64.5c-52 0 -94.333 17.333 -127 52s-49 76.667 -49 126zM551.001 1284
c0 54.667 22.166 103.5 66.499 146.5s95.833 64.5 154.5 64.5c52 0 94 -17 126 -51s48 -75.667 48 -125c0 -56 -22.167 -105.5 -66.5 -148.5s-95.166 -64.5 -152.499 -64.5c-52 0 -94.333 17.333 -127 52s-49 76.667 -49 126zM643 1004l-213 -1004h-410l213 1004h410z" />
    <glyph glyph-name="eth" unicode="&#xf0;" horiz-adv-x="1259" 
d="M864 856c-2.66699 49.333 -14.501 95.832 -35.501 139.499s-41.833 75.167 -62.5 94.5l-29 26l-219 -123l-100 205l71 51c-31.333 13.333 -72.666 27 -123.999 41l155 297c69.333 -18 132.5 -37.167 189.5 -57.5s96.167 -35.833 117.5 -46.5l35 -19l256 144l111 -205
l-166 -103c4 -5.33301 9.83301 -12.666 17.5 -21.999s21 -30.833 40 -64.5s35.667 -68.5 50 -104.5s27.333 -82.333 39 -139s17.5 -114.334 17.5 -173.001c0 -250 -69.333 -449.5 -208 -598.5s-309.667 -223.5 -513 -223.5c-135.333 0 -247.333 42.333 -336 127
s-133 184.334 -133 299.001c0 157.333 55 290.333 165 399s239.333 163 388 163c60 0 112.833 -9 158.5 -27s76.167 -35.667 91.5 -53zM579.999 337.999c40.667 0 76.666 15 107.999 45s47 66.333 47 109c0 30 -10.833 56.167 -32.5 78.5s-48.167 33.5 -79.5 33.5
c-36.667 0 -70.5 -15.333 -101.5 -46s-46.5 -65.667 -46.5 -105c0 -31.333 10.333 -58.333 31 -81s45.334 -34 74.001 -34z" />
    <glyph glyph-name="ntilde" unicode="&#xf1;" 
d="M633 1004l-24.998 -112.998c8 9.33301 20 21.5 36 36.5s49.5 34.833 100.5 59.5s103.833 37 158.5 37c87.333 0 157.666 -26.667 210.999 -80s80 -127 80 -221c0 -36.667 -4 -76.334 -12 -119.001l-127 -604h-410l109 512c5.33301 31.333 1.16602 59.666 -12.501 84.999
s-37.667 38 -72 38s-65.833 -15.667 -94.5 -47s-47.667 -70.333 -57 -117l-98 -471h-410l213 1004h410zM696.002 1188c-46.667 0 -76.666 -27.333 -89.999 -82h-246c28.667 134 66 229 112 285s103.667 84 173 84c46.667 0 92.5 -13.667 137.5 -41s74.833 -41 89.5 -41
c46.667 0 77 27.333 91 82h245c-28.667 -134 -65.834 -229 -111.501 -285s-103.167 -84 -172.5 -84c-46.667 0 -92.5 13.667 -137.5 41s-75.167 41 -90.5 41z" />
    <glyph glyph-name="ograve" unicode="&#xf2;" 
d="M655 655c-45.333 0 -84.333 -17.333 -117 -52s-49 -76 -49 -124c0 -38 12 -69.333 36 -94s56 -37 96 -37c44 0 82.5 16.833 115.5 50.5s49.5 76.167 49.5 127.5c0 38 -12 69 -36 93s-55.667 36 -95 36zM1223 553c0 -157.333 -63.167 -293.999 -189.5 -409.999
s-274.833 -174 -445.5 -174c-157.333 0 -285.833 47.5 -385.5 142.5s-149.5 209.5 -149.5 343.5c0 155.333 63.167 290.666 189.5 405.999s275.5 173 447.5 173c157.333 0 285.5 -47 384.5 -141s148.5 -207.333 148.5 -340zM795 1475l106 -349h-338l-182 349h414z" />
    <glyph glyph-name="oacute" unicode="&#xf3;" 
d="M655 655c-45.333 0 -84.333 -17.333 -117 -52s-49 -76 -49 -124c0 -38 12 -69.333 36 -94s56 -37 96 -37c44 0 82.5 16.833 115.5 50.5s49.5 76.167 49.5 127.5c0 38 -12 69 -36 93s-55.667 36 -95 36zM1223 553c0 -157.333 -63.167 -293.999 -189.5 -409.999
s-274.833 -174 -445.5 -174c-157.333 0 -285.833 47.5 -385.5 142.5s-149.5 209.5 -149.5 343.5c0 155.333 63.167 290.666 189.5 405.999s275.5 173 447.5 173c157.333 0 285.5 -47 384.5 -141s148.5 -207.333 148.5 -340zM543 1126l250 349h442l-330 -349h-362z" />
    <glyph glyph-name="ocircumflex" unicode="&#xf4;" 
d="M655 655c-45.333 0 -84.333 -17.333 -117 -52s-49 -76 -49 -124c0 -38 12 -69.333 36 -94s56 -37 96 -37c44 0 82.5 16.833 115.5 50.5s49.5 76.167 49.5 127.5c0 38 -12 69 -36 93s-55.667 36 -95 36zM1223 553c0 -157.333 -63.167 -293.999 -189.5 -409.999
s-274.833 -174 -445.5 -174c-157.333 0 -285.833 47.5 -385.5 142.5s-149.5 209.5 -149.5 343.5c0 155.333 63.167 290.666 189.5 405.999s275.5 173 447.5 173c157.333 0 285.5 -47 384.5 -141s148.5 -207.333 148.5 -340zM760 1260l-119 -134h-383l360 349h349l213 -349
h-355z" />
    <glyph glyph-name="otilde" unicode="&#xf5;" 
d="M655 655c-45.333 0 -84.333 -17.333 -117 -52s-49 -76 -49 -124c0 -38 12 -69.333 36 -94s56 -37 96 -37c44 0 82.5 16.833 115.5 50.5s49.5 76.167 49.5 127.5c0 38 -12 69 -36 93s-55.667 36 -95 36zM1223 553c0 -157.333 -63.167 -293.999 -189.5 -409.999
s-274.833 -174 -445.5 -174c-157.333 0 -285.833 47.5 -385.5 142.5s-149.5 209.5 -149.5 343.5c0 155.333 63.167 290.666 189.5 405.999s275.5 173 447.5 173c157.333 0 285.5 -47 384.5 -141s148.5 -207.333 148.5 -340zM662 1188c-46.667 0 -77 -27.333 -91 -82h-245
c28.667 134 65.834 229 111.501 285s103.167 84 172.5 84c46.667 0 92.5 -13.667 137.5 -41s75.167 -41 90.5 -41c46.667 0 76.667 27.333 90 82h246c-28.667 -134 -66 -229 -112 -285s-103.667 -84 -173 -84c-46.667 0 -92.334 13.667 -137.001 41s-74.667 41 -90 41z" />
    <glyph glyph-name="odieresis" unicode="&#xf6;" 
d="M655 655c-45.333 0 -84.333 -17.333 -117 -52s-49 -76 -49 -124c0 -38 12 -69.333 36 -94s56 -37 96 -37c44 0 82.5 16.833 115.5 50.5s49.5 76.167 49.5 127.5c0 38 -12 69 -36 93s-55.667 36 -95 36zM1223 553c0 -157.333 -63.167 -293.999 -189.5 -409.999
s-274.833 -174 -445.5 -174c-157.333 0 -285.833 47.5 -385.5 142.5s-149.5 209.5 -149.5 343.5c0 155.333 63.167 290.666 189.5 405.999s275.5 173 447.5 173c157.333 0 285.5 -47 384.5 -141s148.5 -207.333 148.5 -340zM326 1284c0 54.667 22.166 103.5 66.499 146.5
s95.833 64.5 154.5 64.5c52 0 94 -17 126 -51s48 -75.667 48 -125c0 -56 -22.167 -105.5 -66.5 -148.5s-95.166 -64.5 -152.499 -64.5c-52 0 -94.333 17.333 -127 52s-49 76.667 -49 126zM818.999 1284c0 54.667 22.166 103.5 66.499 146.5s95.833 64.5 154.5 64.5
c52 0 94 -17 126 -51s48 -75.667 48 -125c0 -56 -22.167 -105.5 -66.5 -148.5s-95.166 -64.5 -152.499 -64.5c-52 0 -94.333 17.333 -127 52s-49 76.667 -49 126z" />
    <glyph glyph-name="divide" unicode="&#xf7;" horiz-adv-x="1085" 
d="M1087 737l-57 -266h-962l57 266h962zM444 989c0 60 22.6689 111.5 68.002 154.5s100 64.5 164 64.5c65.333 0 116.5 -16 153.5 -48s55.5 -73.333 55.5 -124c0 -62.667 -21.833 -114.5 -65.5 -155.5s-98.334 -61.5 -164.001 -61.5s-117.334 15.667 -155.001 47
s-56.5 72.333 -56.5 123zM270.002 170c0 60 22.6689 111.5 68.002 154.5s100 64.5 164 64.5c65.333 0 116.5 -16 153.5 -48s55.5 -73.333 55.5 -124c0 -62.667 -21.833 -114.5 -65.5 -155.5s-98.334 -61.5 -164.001 -61.5s-117.334 15.667 -155.001 47
s-56.5 72.333 -56.5 123z" />
    <glyph glyph-name="oslash" unicode="&#xf8;" 
d="M1223 553c0 -157.333 -63.167 -293.999 -189.5 -409.999s-274.833 -174 -445.5 -174c-113.333 0 -215 27.333 -305 82l-158 -133l-145 184l137 115c-42 74 -63.333 153.333 -64 238c0 155.333 63.167 290.666 189.5 405.999s275.5 173 447.5 173
c112 0 213 -27.333 303 -82l158 133l145 -184l-137 -115c42.667 -72 64 -149.667 64 -233zM616 317.001c48 0 91.167 16.5 129.5 49.5s60.833 76.167 67.5 129.5l-213 -179h16zM659 686.001c-49.333 0 -93 -17.668 -131 -53.001s-60.333 -77.666 -67 -126.999l213 180h-15z
" />
    <glyph glyph-name="ugrave" unicode="&#xf9;" 
d="M645 0l23.0039 106c-2.66699 -4 -6.83398 -8.66699 -12.501 -14s-17.334 -15.166 -35.001 -29.499s-36.834 -27.333 -57.501 -39s-47.667 -21.834 -81 -30.501s-67.666 -13 -102.999 -13c-90 0 -162.333 26.5 -217 79.5s-82 126.833 -82 221.5c0 34 4 71.333 12 112
l131 611h410l-113 -523c-6.66699 -31.333 -2.83398 -57.833 11.499 -79.5s39.166 -32.5 74.499 -32.5c78 0 126.667 44.333 146 133l106 502h410l-213 -1004h-410zM811.004 1475l107 -349h-338l-183 349h414z" />
    <glyph glyph-name="uacute" unicode="&#xfa;" 
d="M645 0l23.0039 106c-2.66699 -4 -6.83398 -8.66699 -12.501 -14s-17.334 -15.166 -35.001 -29.499s-36.834 -27.333 -57.501 -39s-47.667 -21.834 -81 -30.501s-67.666 -13 -102.999 -13c-90 0 -162.333 26.5 -217 79.5s-82 126.833 -82 221.5c0 34 4 71.333 12 112
l131 611h410l-113 -523c-6.66699 -31.333 -2.83398 -57.833 11.499 -79.5s39.166 -32.5 74.499 -32.5c78 0 126.667 44.333 146 133l106 502h410l-213 -1004h-410zM569.004 1126l250 349h443l-330 -349h-363z" />
    <glyph glyph-name="ucircumflex" unicode="&#xfb;" 
d="M645 0l23.0039 106c-2.66699 -4 -6.83398 -8.66699 -12.501 -14s-17.334 -15.166 -35.001 -29.499s-36.834 -27.333 -57.501 -39s-47.667 -21.834 -81 -30.501s-67.666 -13 -102.999 -13c-90 0 -162.333 26.5 -217 79.5s-82 126.833 -82 221.5c0 34 4 71.333 12 112
l131 611h410l-113 -523c-6.66699 -31.333 -2.83398 -57.833 11.499 -79.5s39.166 -32.5 74.499 -32.5c78 0 126.667 44.333 146 133l106 502h410l-213 -1004h-410zM791.004 1260l-119 -134h-383l360 349h348l213 -349h-354z" />
    <glyph glyph-name="udieresis" unicode="&#xfc;" 
d="M645 0l23.0039 106c-2.66699 -4 -6.83398 -8.66699 -12.501 -14s-17.334 -15.166 -35.001 -29.499s-36.834 -27.333 -57.501 -39s-47.667 -21.834 -81 -30.501s-67.666 -13 -102.999 -13c-90 0 -162.333 26.5 -217 79.5s-82 126.833 -82 221.5c0 34 4 71.333 12 112
l131 611h410l-113 -523c-6.66699 -31.333 -2.83398 -57.833 11.499 -79.5s39.166 -32.5 74.499 -32.5c78 0 126.667 44.333 146 133l106 502h410l-213 -1004h-410zM344.004 1284c0 54.667 22.166 103.5 66.499 146.5s95.833 64.5 154.5 64.5c52 0 94 -17 126 -51
s48 -75.667 48 -125c0 -56 -22.167 -105.5 -66.5 -148.5s-95.166 -64.5 -152.499 -64.5c-52 0 -94.333 17.333 -127 52s-49 76.667 -49 126zM838.003 1284c0 54.667 22.166 103.5 66.499 146.5s95.833 64.5 154.5 64.5c52 0 94 -17 126 -51s48 -75.667 48 -125
c0 -56 -22.167 -105.5 -66.5 -148.5s-95.166 -64.5 -152.499 -64.5c-52 0 -94.333 17.333 -127 52s-49 76.667 -49 126z" />
    <glyph glyph-name="yacute" unicode="&#xfd;" horiz-adv-x="1126" 
d="M76 -51c62.667 0 119.999 32 171.999 96l-146 959h398l49 -529l264 529h434l-585 -1014c-82 -142 -165.667 -247.5 -251 -316.5s-180.666 -103.5 -285.999 -103.5c-38 0 -75.833 3.33301 -113.5 10s-66.167 13.667 -85.5 21l-28 10l73 358
c29.333 -13.333 64.333 -20 105 -20zM493.999 1130l249 349h443l-330 -349h-362z" />
    <glyph glyph-name="thorn" unicode="&#xfe;" horiz-adv-x="1331" 
d="M725 655c-50.667 0 -93.6689 -17.668 -129.002 -53.001s-53 -79.666 -53 -132.999c0 -35.333 11.833 -64.333 35.5 -87s54.834 -34 93.501 -34c48 0 89.333 17.5 124 52.5s52 80.5 52 136.5c0 34 -11.667 62.167 -35 84.5s-52.666 33.5 -87.999 33.5zM466.998 132.999
l-119.001 -563.001h-409l395 1864h409l-114 -543c8 9.33301 19.167 21.5 33.5 36.5s47.5 34.833 99.5 59.5s106.667 37 164 37c104 0 189 -38.833 255 -116.5s99 -175.5 99 -293.5c0 -186 -53.667 -338.167 -161 -456.5s-229.666 -177.5 -366.999 -177.5
c-60 0 -114 12.833 -162 38.5s-80.667 50.834 -98 75.501z" />
    <glyph glyph-name="ydieresis" unicode="&#xff;" horiz-adv-x="1126" 
d="M76 -51c62.667 0 119.999 32 171.999 96l-146 959h398l49 -529l264 529h434l-585 -1014c-82 -142 -165.667 -247.5 -251 -316.5s-180.666 -103.5 -285.999 -103.5c-38 0 -75.833 3.33301 -113.5 10s-66.167 13.667 -85.5 21l-28 10l73 358
c29.333 -13.333 64.333 -20 105 -20zM267.999 1288c0 54.667 22.167 103.5 66.5 146.5s95.833 64.5 154.5 64.5c52 0 94.167 -17 126.5 -51s48.5 -75.667 48.5 -125c0 -56 -22.333 -105.5 -67 -148.5s-95.667 -64.5 -153 -64.5c-52 0 -94.333 17.333 -127 52
s-49 76.667 -49 126zM761.999 1288c0 54.667 22.166 103.5 66.499 146.5s95.833 64.5 154.5 64.5c52 0 94 -17 126 -51s48 -75.667 48 -125c0 -56 -22.167 -105.5 -66.5 -148.5s-95.166 -64.5 -152.499 -64.5c-52 0 -94.333 17.333 -127 52s-49 76.667 -49 126z" />
    <glyph glyph-name="Amacron" unicode="&#x100;" horiz-adv-x="1515" 
d="M911 625l-24 358l-180 -358h204zM940 276h-410l-139 -276h-504l826 1434h512l219 -1434h-477zM1415 1935l-65 -307h-697l66 307h696z" />
    <glyph glyph-name="amacron" unicode="&#x101;" horiz-adv-x="1312" 
d="M614 348c50.667 0 93.833 17.834 129.5 53.501s53.5 80.167 53.5 133.5c0 35.333 -12 64.166 -36 86.499s-55 33.5 -93 33.5c-48 0 -89.333 -17.333 -124 -52s-52 -80 -52 -136c0 -34 11.5 -62.333 34.5 -85s52.167 -34 87.5 -34zM869.999 870.001l29.002 133.998h410
l-213 -1004h-410l23 113c-8 -9.33301 -19.333 -21.666 -34 -36.999s-47.5 -35.166 -98.5 -59.499s-105.167 -36.5 -162.5 -36.5c-104 0 -189.167 38.833 -255.5 116.5s-99.5 175.167 -99.5 292.5c0 186 54.667 338.333 164 457s235.666 178 378.999 178
c36.667 0 71.167 -5.16699 103.5 -15.5s58 -23.333 77 -39s35.667 -31 50 -46s24.166 -27.833 29.499 -38.5zM1198 1485l-65 -307h-697l66 307h696z" />
    <glyph glyph-name="Abreve" unicode="&#x102;" horiz-adv-x="1515" 
d="M911 625l-24 358l-180 -358h204zM940 276h-410l-139 -276h-504l826 1434h512l219 -1434h-477zM1004 1587c-108 0 -195.833 34.167 -263.5 102.5s-91.167 150.166 -70.5 245.499h286c-5.33301 -30 -1.5 -52.833 11.5 -68.5s32.5 -23.5 58.5 -23.5
c52 0 83.333 30.667 94 92h287c-18 -101.333 -62 -184.666 -132 -249.999s-160.333 -98 -271 -98z" />
    <glyph glyph-name="abreve" unicode="&#x103;" horiz-adv-x="1312" 
d="M614 348c50.667 0 93.833 17.834 129.5 53.501s53.5 80.167 53.5 133.5c0 35.333 -12 64.166 -36 86.499s-55 33.5 -93 33.5c-48 0 -89.333 -17.333 -124 -52s-52 -80 -52 -136c0 -34 11.5 -62.333 34.5 -85s52.167 -34 87.5 -34zM869.999 870.001l29.002 133.998h410
l-213 -1004h-410l23 113c-8 -9.33301 -19.333 -21.666 -34 -36.999s-47.5 -35.166 -98.5 -59.499s-105.167 -36.5 -162.5 -36.5c-104 0 -189.167 38.833 -255.5 116.5s-99.5 175.167 -99.5 292.5c0 186 54.667 338.333 164 457s235.666 178 378.999 178
c36.667 0 71.167 -5.16699 103.5 -15.5s58 -23.333 77 -39s35.667 -31 50 -46s24.166 -27.833 29.499 -38.5zM793.001 1126c-108 0 -195.833 34.167 -263.5 102.5s-91.167 150.5 -70.5 246.5h286c-5.33301 -30 -1.5 -53 11.5 -69s32.5 -24 58.5 -24c52 0 83.333 31 94 93
h287c-18 -101.333 -62 -184.833 -132 -250.5s-160.333 -98.5 -271 -98.5z" />
    <glyph glyph-name="Aogonek" unicode="&#x104;" horiz-adv-x="1515" 
d="M967 0l-26.999 275.999h-410l-139 -276h-504l826 1434h512l219 -1434h-314c-65.333 -83.333 -98 -157.666 -98 -222.999c0 -19.333 6.83301 -34.833 20.5 -46.5s31.5 -17.5 53.5 -17.5c15.333 0 30.833 2.83301 46.5 8.5s27.5 11.167 35.5 16.5l10 6l-45 -215
c-53.333 -27.333 -121 -41 -203 -41c-66.667 0 -119.834 18.833 -159.501 56.5s-59.5 85.167 -59.5 142.5c0 34 8.16699 68.333 24.5 103s35.833 64 58.5 88s45.667 45.5 69 64.5s43 33.5 59 43.5zM911.001 624.999l-24 358l-180 -358h204z" />
    <glyph glyph-name="aogonek" unicode="&#x105;" horiz-adv-x="1312" 
d="M614 348c50.667 0 93.833 17.834 129.5 53.501s53.5 80.167 53.5 133.5c0 35.333 -12 64.166 -36 86.499s-55 33.5 -93 33.5c-48 0 -89.333 -17.333 -124 -52s-52 -80 -52 -136c0 -34 11.5 -62.333 34.5 -85s52.167 -34 87.5 -34zM685.999 0.000976562l23.001 112.997
c-8 -9.33301 -19.333 -21.666 -34 -36.999s-47.5 -35.166 -98.5 -59.499s-105.167 -36.5 -162.5 -36.5c-104 0 -189.167 38.833 -255.5 116.5s-99.5 175.167 -99.5 292.5c0 186 54.667 338.333 164 457s235.666 178 378.999 178c36.667 0 71.167 -5.16699 103.5 -15.5
s58 -23.333 77 -39s35.667 -31 50 -46s24.166 -27.833 29.499 -38.5l8 -15l29 134h410l-213 -1004h-246c-65.333 -83.333 -98 -157.666 -98 -222.999c0 -19.333 6.83301 -34.833 20.5 -46.5s31.167 -17.5 52.5 -17.5c15.333 0 30.833 2.83301 46.5 8.5
s26.834 11.167 33.501 16.5l13 6l-46 -215c-53.333 -27.333 -120.666 -41 -201.999 -41c-66.667 0 -119.834 18.833 -159.501 56.5s-59.5 85.167 -59.5 142.5c0 54.667 19.667 108.167 59 160.5s78.333 90.833 117 115.5z" />
    <glyph glyph-name="Cacute" unicode="&#x106;" horiz-adv-x="1540" 
d="M1006 1065c-112 0 -210.329 -38.5049 -294.996 -115.505s-127 -172.833 -127 -287.5c0 -80.667 29.667 -149.667 89 -207s132.666 -86 219.999 -86c64 0 126 14.333 186 43s104.333 56.667 133 84l41 43l228 -310c-5.33301 -6.66699 -13.833 -16.167 -25.5 -28.5
s-38 -34.166 -79 -65.499s-84.667 -58.666 -131 -81.999s-106.833 -44.833 -181.5 -64.5s-152.334 -29.5 -233.001 -29.5c-203.333 0 -373.5 65.167 -510.5 195.5s-205.5 282.833 -205.5 457.5c0 241.333 90 445.5 270 612.5s403.333 250.5 670 250.5
c78 0 152.333 -10 223 -30s128.667 -44 174 -72s84.666 -56 117.999 -84s57.333 -52 72 -72l23 -29l-330 -281c-2.66699 4 -7.33398 9.83301 -14.001 17.5s-21 20.334 -43 38.001s-44.833 33.334 -68.5 47.001s-54 26.334 -91 38.001s-74.5 17.5 -112.5 17.5zM899.004 1587
l250 348h442l-329 -348h-363z" />
    <glyph glyph-name="cacute" unicode="&#x107;" horiz-adv-x="1116" 
d="M53 432c0 166.667 65.999 308.667 197.999 426s287.333 176 466 176c57.333 0 111.5 -7.5 162.5 -22.5s93 -33 126 -54s61.333 -41.833 85 -62.5s41.167 -38.334 52.5 -53.001l14 -23l-291 -237c-4 6.66699 -10 14.334 -18 23.001s-27.167 21 -57.5 37
s-61.833 24 -94.5 24c-57.333 0 -105.666 -18.5 -144.999 -55.5s-59 -82.833 -59 -137.5c0 -38 13.5 -70 40.5 -96s62.5 -39 106.5 -39c32.667 0 65 7.5 97 22.5s55.667 30.167 71 45.5l22 22l205 -258c-4 -5.33301 -10 -12.5 -18 -21.5s-26.833 -25 -56.5 -48
s-61.5 -43.5 -95.5 -61.5s-78.333 -34.167 -133 -48.5s-112 -21.5 -172 -21.5c-143.333 0 -263.5 46.5 -360.5 139.5s-145.5 200.833 -145.5 323.5zM540.999 1126l250 349h442l-330 -349h-362z" />
    <glyph glyph-name="Ccircumflex" unicode="&#x108;" horiz-adv-x="1540" 
d="M1006 1065c-112 0 -210.329 -38.5049 -294.996 -115.505s-127 -172.833 -127 -287.5c0 -80.667 29.667 -149.667 89 -207s132.666 -86 219.999 -86c64 0 126 14.333 186 43s104.333 56.667 133 84l41 43l228 -310c-5.33301 -6.66699 -13.833 -16.167 -25.5 -28.5
s-38 -34.166 -79 -65.499s-84.667 -58.666 -131 -81.999s-106.833 -44.833 -181.5 -64.5s-152.334 -29.5 -233.001 -29.5c-203.333 0 -373.5 65.167 -510.5 195.5s-205.5 282.833 -205.5 457.5c0 241.333 90 445.5 270 612.5s403.333 250.5 670 250.5
c78 0 152.333 -10 223 -30s128.667 -44 174 -72s84.666 -56 117.999 -84s57.333 -52 72 -72l23 -29l-330 -281c-2.66699 4 -7.33398 9.83301 -14.001 17.5s-21 20.334 -43 38.001s-44.833 33.334 -68.5 47.001s-54 26.334 -91 38.001s-74.5 17.5 -112.5 17.5zM1108 1720
l-119 -133h-383l361 348h348l213 -348h-354z" />
    <glyph glyph-name="ccircumflex" unicode="&#x109;" horiz-adv-x="1116" 
d="M53 432c0 166.667 65.999 308.667 197.999 426s287.333 176 466 176c57.333 0 111.5 -7.5 162.5 -22.5s93 -33 126 -54s61.333 -41.833 85 -62.5s41.167 -38.334 52.5 -53.001l14 -23l-291 -237c-4 6.66699 -10 14.334 -18 23.001s-27.167 21 -57.5 37
s-61.833 24 -94.5 24c-57.333 0 -105.666 -18.5 -144.999 -55.5s-59 -82.833 -59 -137.5c0 -38 13.5 -70 40.5 -96s62.5 -39 106.5 -39c32.667 0 65 7.5 97 22.5s55.667 30.167 71 45.5l22 22l205 -258c-4 -5.33301 -10 -12.5 -18 -21.5s-26.833 -25 -56.5 -48
s-61.5 -43.5 -95.5 -61.5s-78.333 -34.167 -133 -48.5s-112 -21.5 -172 -21.5c-143.333 0 -263.5 46.5 -360.5 139.5s-145.5 200.833 -145.5 323.5zM759.999 1260l-119 -134h-383l360 349h349l213 -349h-355z" />
    <glyph glyph-name="Ccaron" unicode="&#x10c;" horiz-adv-x="1540" 
d="M1006 1065c-112 0 -210.329 -38.5049 -294.996 -115.505s-127 -172.833 -127 -287.5c0 -80.667 29.667 -149.667 89 -207s132.666 -86 219.999 -86c64 0 126 14.333 186 43s104.333 56.667 133 84l41 43l228 -310c-5.33301 -6.66699 -13.833 -16.167 -25.5 -28.5
s-38 -34.166 -79 -65.499s-84.667 -58.666 -131 -81.999s-106.833 -44.833 -181.5 -64.5s-152.334 -29.5 -233.001 -29.5c-203.333 0 -373.5 65.167 -510.5 195.5s-205.5 282.833 -205.5 457.5c0 241.333 90 445.5 270 612.5s403.333 250.5 670 250.5
c78 0 152.333 -10 223 -30s128.667 -44 174 -72s84.666 -56 117.999 -84s57.333 -52 72 -72l23 -29l-330 -281c-2.66699 4 -7.33398 9.83301 -14.001 17.5s-21 20.334 -43 38.001s-44.833 33.334 -68.5 47.001s-54 26.334 -91 38.001s-74.5 17.5 -112.5 17.5zM1104 1802
l119 133h383l-361 -348h-348l-213 348h354z" />
    <glyph glyph-name="ccaron" unicode="&#x10d;" horiz-adv-x="1116" 
d="M53 432c0 166.667 65.999 308.667 197.999 426s287.333 176 466 176c57.333 0 111.5 -7.5 162.5 -22.5s93 -33 126 -54s61.333 -41.833 85 -62.5s41.167 -38.334 52.5 -53.001l14 -23l-291 -237c-4 6.66699 -10 14.334 -18 23.001s-27.167 21 -57.5 37
s-61.833 24 -94.5 24c-57.333 0 -105.666 -18.5 -144.999 -55.5s-59 -82.833 -59 -137.5c0 -38 13.5 -70 40.5 -96s62.5 -39 106.5 -39c32.667 0 65 7.5 97 22.5s55.667 30.167 71 45.5l22 22l205 -258c-4 -5.33301 -10 -12.5 -18 -21.5s-26.833 -25 -56.5 -48
s-61.5 -43.5 -95.5 -61.5s-78.333 -34.167 -133 -48.5s-112 -21.5 -172 -21.5c-143.333 0 -263.5 46.5 -360.5 139.5s-145.5 200.833 -145.5 323.5zM759.999 1341l119 134h383l-361 -349h-348l-213 349h354z" />
    <glyph glyph-name="Dcaron" unicode="&#x10e;" horiz-adv-x="1576" 
d="M365 1434l534 -0.00195312c194 0 355.833 -62.167 485.5 -186.5s194.5 -271.166 194.5 -440.499c0 -225.333 -85.667 -416.166 -257 -572.499s-384 -234.5 -638 -234.5h-623zM842 1024h-103l-131 -614h123c104 0 193.167 36.167 267.5 108.5s111.5 159.5 111.5 261.5
c0 70.667 -24.833 129 -74.5 175s-114.167 69 -193.5 69zM969 1802l118 133h383l-360 -348h-348l-213 348h354z" />
    <glyph glyph-name="dcaron" unicode="&#x10f;" horiz-adv-x="1525" 
d="M614 348c50.667 0 93.833 17.834 129.5 53.501s53.5 80.167 53.5 133.5c0 35.333 -12 64.166 -36 86.499s-55 33.5 -93 33.5c-48 0 -89.333 -17.333 -124 -52s-52 -80 -52 -136c0 -34 11.5 -62.333 34.5 -85s52.167 -34 87.5 -34zM869.999 870.001l119.002 563.998h410
l-303 -1434h-410l23 113c-8 -9.33301 -19.333 -21.666 -34 -36.999s-47.5 -35.166 -98.5 -59.499s-105.167 -36.5 -162.5 -36.5c-104 0 -189.167 38.833 -255.5 116.5s-99.5 175.167 -99.5 292.5c0 186 54.667 338.333 164 457s235.666 178 378.999 178
c36.667 0 71.167 -5.16699 103.5 -15.5s58 -23.333 77 -39s35.667 -31 50 -46s24.166 -27.833 29.499 -38.5zM1350 1085l178 349h399l-237 -349h-340z" />
    <glyph glyph-name="Dcroat" unicode="&#x110;" horiz-adv-x="1607" 
d="M397 1434l535 -0.00195312c194 0 355.833 -62.167 485.5 -186.5s194.5 -271.166 194.5 -440.499c0 -225.333 -85.667 -416.166 -257 -572.499s-384 -234.5 -638 -234.5h-623l117 553h-145l69 328h146zM874 1024h-102l-31 -143h193l-70 -328h-192l-31 -143h123
c104 0 193.167 36.167 267.5 108.5s111.5 159.5 111.5 261.5c0 70.667 -25 129 -75 175s-114.667 69 -194 69z" />
    <glyph glyph-name="dcroat" unicode="&#x111;" horiz-adv-x="1320" 
d="M664 963l75 347.997h195l24 123h410l-25 -123h154l-76 -348h-153l-203 -963h-410l21 100c-6.66699 -9.33301 -16.5 -20.5 -29.5 -33.5s-43.833 -30.667 -92.5 -53s-101 -33.5 -157 -33.5c-101.333 0 -187.333 37.833 -258 113.5s-106 166.834 -106 273.501
c0 154 52.5 285 157.5 393s223.833 162 356.5 162c39.333 0 75.833 -4.83301 109.5 -14.5s60 -21.667 79 -36s35.333 -28.666 49 -42.999s22.5 -26.166 26.5 -35.499l8 -15l39 185h-194zM582 306.997c46.667 0 87.001 16.5 121.001 49.5s51 73.167 51 120.5
c0 32.667 -12 60.334 -36 83.001s-53 34 -87 34c-46.667 0 -87 -16.333 -121 -49s-51 -73 -51 -121c0 -32.667 11.667 -60.334 35 -83.001s52.666 -34 87.999 -34z" />
    <glyph glyph-name="Emacron" unicode="&#x112;" horiz-adv-x="1392" 
d="M602 379h696l-79 -379h-1158l304 1434h1136l-80 -379h-676l-32 -154h512l-74 -348h-512zM1370 1935l-65 -307h-697l66 307h696z" />
    <glyph glyph-name="emacron" unicode="&#x113;" horiz-adv-x="1208" 
d="M1120 410l-643 -0.000976562c30 -75.333 95 -113 195 -113c28.667 0 59 5.83301 91 17.5s57.667 23.5 77 35.5l26 19l115 -267c-10.667 -9.33301 -26.667 -21.5 -48 -36.5s-66.5 -34.833 -135.5 -59.5s-139.5 -37 -211.5 -37c-161.333 0 -290.5 46.5 -387.5 139.5
s-145.5 203.5 -145.5 331.5c0 165.333 62.833 305.666 188.5 420.999s275.834 173 450.501 173c135.333 0 249.833 -39.833 343.5 -119.5s140.5 -177.5 140.5 -293.5c0 -15.333 -1.16699 -31.166 -3.5 -47.499s-4.83301 -31.333 -7.5 -45s-6 -27 -10 -40
s-7.66699 -24.333 -11 -34s-6.83301 -18.167 -10.5 -25.5s-6.83398 -12.666 -9.50098 -15.999s-4 -4.33301 -4 -3zM653 726.999c-74 0 -127.668 -37.667 -161.001 -113h282c1.33301 31.333 -9.66699 58 -33 80s-52.666 33 -87.999 33zM1133 1464l-66 -307h-696l65 307h697z
" />
    <glyph glyph-name="Edotaccent" unicode="&#x116;" horiz-adv-x="1392" 
d="M602 379h696l-79 -379h-1158l304 1434h1136l-80 -379h-676l-32 -154h512l-74 -348h-512zM1204 1782c0 -61.333 -24.167 -114.333 -72.5 -159s-105.333 -67 -171 -67s-118 17.5 -157 52.5s-58.5 78.5 -58.5 130.5c0 62.667 23.667 116.167 71 160.5s104.333 66.5 171 66.5
c65.333 0 117.833 -17.333 157.5 -52s59.5 -78.667 59.5 -132z" />
    <glyph glyph-name="edotaccent" unicode="&#x117;" horiz-adv-x="1208" 
d="M1120 410l-643 -0.000976562c30 -75.333 95 -113 195 -113c28.667 0 59 5.83301 91 17.5s57.667 23.5 77 35.5l26 19l115 -267c-10.667 -9.33301 -26.667 -21.5 -48 -36.5s-66.5 -34.833 -135.5 -59.5s-139.5 -37 -211.5 -37c-161.333 0 -290.5 46.5 -387.5 139.5
s-145.5 203.5 -145.5 331.5c0 165.333 62.833 305.666 188.5 420.999s275.834 173 450.501 173c135.333 0 249.833 -39.833 343.5 -119.5s140.5 -177.5 140.5 -293.5c0 -15.333 -1.16699 -31.166 -3.5 -47.499s-4.83301 -31.333 -7.5 -45s-6 -27 -10 -40
s-7.66699 -24.333 -11 -34s-6.83301 -18.167 -10.5 -25.5s-6.83398 -12.666 -9.50098 -15.999s-4 -4.33301 -4 -3zM653 726.999c-74 0 -127.668 -37.667 -161.001 -113h282c1.33301 31.333 -9.66699 58 -33 80s-52.666 33 -87.999 33zM988.999 1341
c0 -61.333 -24.167 -114.168 -72.5 -158.501s-105.333 -66.5 -171 -66.5s-118 17.5 -157 52.5s-58.5 78.167 -58.5 129.5c0 62.667 23.667 116.334 71 161.001s104.333 67 171 67c65.333 0 117.833 -17.5 157.5 -52.5s59.5 -79.167 59.5 -132.5z" />
    <glyph glyph-name="Eogonek" unicode="&#x118;" horiz-adv-x="1392" 
d="M1055 0l-994 -0.000976562l304 1434h1136l-80 -379h-676l-32 -154h512l-74 -348h-512l-37 -174h696l-79 -379c-65.333 -83.333 -98.333 -157.666 -99 -222.999c0 -19.333 6.83301 -34.833 20.5 -46.5s31.5 -17.5 53.5 -17.5c15.333 0 30.833 2.83301 46.5 8.5
s26.834 11.167 33.501 16.5l12 6l-45 -215c-53.333 -27.333 -121 -41 -203 -41c-66.667 0 -119.834 18.833 -159.501 56.5s-59.5 85.167 -59.5 142.5c0 54.667 19.833 108.167 59.5 160.5s78.5 90.833 116.5 115.5z" />
    <glyph glyph-name="eogonek" unicode="&#x119;" horiz-adv-x="1208" 
d="M1120 410l-642.998 0.000976562c30 -75.333 95 -113 195 -113c28.667 0 59 5.83301 91 17.5s57.667 23.5 77 35.5l26 19l115 -267c-9.33301 -8 -23.666 -18.833 -42.999 -32.5s-60.333 -32.5 -123 -56.5s-126.667 -38 -192 -42
c-50.667 -76.667 -76 -141.334 -76 -194.001c0 -19.333 6.83301 -34.833 20.5 -46.5s31.5 -17.5 53.5 -17.5c15.333 0 30.666 2.83301 45.999 8.5s26.333 11.167 33 16.5l13 6l-45 -215c-53.333 -27.333 -121 -41 -203 -41c-66.667 0 -119.834 18.833 -159.501 56.5
s-59.5 85.167 -59.5 142.5c0 44 13.667 88 41 132s54.666 77.667 81.999 101s55.333 44.666 84 63.999c-121.333 24.667 -218.333 80 -291 166s-109 182.667 -109 290c0 165.333 62.833 305.666 188.5 420.999s275.834 173 450.501 173
c135.333 0 249.833 -39.833 343.5 -119.5s140.5 -177.5 140.5 -293.5c0 -15.333 -1.16699 -31.166 -3.5 -47.499s-4.83301 -31.333 -7.5 -45s-6 -27 -10 -40s-7.66699 -24.333 -11 -34s-6.83301 -18.167 -10.5 -25.5s-6.83398 -12.666 -9.50098 -15.999s-4 -4.33301 -4 -3z
M653.002 727.001c-74 0 -127.668 -37.667 -161.001 -113h282c1.33301 31.333 -9.66699 58 -33 80s-52.666 33 -87.999 33z" />
    <glyph glyph-name="Ecaron" unicode="&#x11a;" horiz-adv-x="1392" 
d="M602 379h696l-79 -379h-1158l304 1434h1136l-80 -379h-676l-32 -154h512l-74 -348h-512zM981 1802l119 133h383l-361 -348h-348l-213 348h354z" />
    <glyph glyph-name="ecaron" unicode="&#x11b;" horiz-adv-x="1208" 
d="M1120 410l-643 -0.000976562c30 -75.333 95 -113 195 -113c28.667 0 59 5.83301 91 17.5s57.667 23.5 77 35.5l26 19l115 -267c-10.667 -9.33301 -26.667 -21.5 -48 -36.5s-66.5 -34.833 -135.5 -59.5s-139.5 -37 -211.5 -37c-161.333 0 -290.5 46.5 -387.5 139.5
s-145.5 203.5 -145.5 331.5c0 165.333 62.833 305.666 188.5 420.999s275.834 173 450.501 173c135.333 0 249.833 -39.833 343.5 -119.5s140.5 -177.5 140.5 -293.5c0 -15.333 -1.16699 -31.166 -3.5 -47.499s-4.83301 -31.333 -7.5 -45s-6 -27 -10 -40
s-7.66699 -24.333 -11 -34s-6.83301 -18.167 -10.5 -25.5s-6.83398 -12.666 -9.50098 -15.999s-4 -4.33301 -4 -3zM653 726.999c-74 0 -127.668 -37.667 -161.001 -113h282c1.33301 31.333 -9.66699 58 -33 80s-52.666 33 -87.999 33zM751.999 1341l118 134h383l-360 -349
h-348l-213 349h354z" />
    <glyph glyph-name="Gbreve" unicode="&#x11e;" horiz-adv-x="1658" 
d="M829 -41c-200.667 0 -369.832 65.4961 -507.499 196.496s-206.5 284.5 -206.5 460.5c0 240 90.333 443.167 271 609.5s402.334 249.5 665.001 249.5c78 0 152.333 -10 223 -30s129 -44 175 -72s86 -56 120 -84s58.333 -52 73 -72l23 -29l-330 -281
c-4 4 -9 9.83301 -15 17.5s-20.333 20.334 -43 38.001s-46 33.334 -70 47.001s-54.667 26.334 -92 38.001s-75.333 17.5 -114 17.5c-114.667 0 -212.834 -40.333 -294.501 -121s-122.5 -177.667 -122.5 -291c0 -79.333 29.667 -146.5 89 -201.5s130.666 -82.5 213.999 -82.5
c36.667 0 70.667 5 102 15s53.333 20 66 30l18 16l27 123h-205l53 256h666l-119 -563c-6.66699 -8 -16.5 -18.5 -29.5 -31.5s-41 -36 -84 -69s-88.333 -62.167 -136 -87.5s-109.5 -48.166 -185.5 -68.499s-153 -30.5 -231 -30.5zM1071 1587
c-108 0 -195.667 34.167 -263 102.5s-91 150.166 -71 245.499h287c-5.33301 -30 -1.5 -52.833 11.5 -68.5s32.5 -23.5 58.5 -23.5c52 0 83.333 30.667 94 92h287c-18 -101.333 -62.167 -184.666 -132.5 -249.999s-160.833 -98 -271.5 -98z" />
    <glyph glyph-name="gbreve" unicode="&#x11f;" horiz-adv-x="1290" 
d="M702 133l13.001 51c-2.66699 -4 -6.83398 -9 -12.501 -15s-17.667 -17.167 -36 -33.5s-38.166 -31 -59.499 -44s-49 -24.667 -83 -35s-69.333 -15.5 -106 -15.5c-94 0 -177.333 41.333 -250 124s-109 178.667 -109 288c0 160 53 295.167 159 405.5s226 165.5 360 165.5
c57.333 0 109.5 -13 156.5 -39s79.167 -51.333 96.5 -76l29 -39l29 134h409l-186 -871c-35.333 -165.333 -113.5 -300.5 -234.5 -405.5s-269.5 -157.5 -445.5 -157.5c-61.333 0 -120.666 7.16699 -177.999 21.5s-104.5 31.666 -141.5 51.999s-69.5 40.833 -97.5 61.5
s-48 38.334 -60 53.001l-21 21l283 231c5.33301 -6.66699 14.166 -15.167 26.499 -25.5s37.666 -24 75.999 -41s78.5 -25.5 120.5 -25.5c69.333 0 126.5 19.833 171.5 59.5s75.167 91.5 90.5 155.5zM668.001 676c-46.667 0 -86.6689 -16.332 -120.002 -48.999
s-50 -73 -50 -121c0 -32.667 11.833 -60.334 35.5 -83.001s53.5 -34 89.5 -34c46.667 0 86.334 16 119.001 48s49 72 49 120c0 32.667 -11.667 60.667 -35 84s-52.666 35 -87.999 35zM812.999 1130c-108 0 -195.667 34.167 -263 102.5s-91 150.5 -71 246.5h287
c-5.33301 -30 -1.5 -53 11.5 -69s32.5 -24 58.5 -24c52 0 83.333 31 94 93h287c-18 -101.333 -62.167 -184.833 -132.5 -250.5s-160.833 -98.5 -271.5 -98.5z" />
    <glyph glyph-name="uni0122" unicode="&#x122;" horiz-adv-x="1658" 
d="M829 -41c-200.667 0 -369.832 65.4961 -507.499 196.496s-206.5 284.5 -206.5 460.5c0 240 90.333 443.167 271 609.5s402.334 249.5 665.001 249.5c78 0 152.333 -10 223 -30s129 -44 175 -72s86 -56 120 -84s58.333 -52 73 -72l23 -29l-330 -281
c-4 4 -9 9.83301 -15 17.5s-20.333 20.334 -43 38.001s-46 33.334 -70 47.001s-54.667 26.334 -92 38.001s-75.333 17.5 -114 17.5c-114.667 0 -212.834 -40.333 -294.501 -121s-122.5 -177.667 -122.5 -291c0 -79.333 29.667 -146.5 89 -201.5s130.666 -82.5 213.999 -82.5
c36.667 0 70.667 5 102 15s53.333 20 66 30l18 16l27 123h-205l53 256h666l-119 -563c-6.66699 -8 -16.5 -18.5 -29.5 -31.5s-41 -36 -84 -69s-88.333 -62.167 -136 -87.5s-109.5 -48.166 -185.5 -68.499s-153 -30.5 -231 -30.5zM436.002 -512.004l178 348h400l-238 -348
h-340z" />
    <glyph glyph-name="uni0123" unicode="&#x123;" horiz-adv-x="1290" 
d="M1145 1475l-180 -349h-402l240 349h342zM702 133l13.001 51c-2.66699 -4 -6.83398 -9 -12.501 -15s-17.667 -17.167 -36 -33.5s-38.166 -31 -59.499 -44s-49 -24.667 -83 -35s-69.333 -15.5 -106 -15.5c-94 0 -177.333 41.333 -250 124s-109 178.667 -109 288
c0 160 53 295.167 159 405.5s226 165.5 360 165.5c57.333 0 109.5 -13 156.5 -39s79.167 -51.333 96.5 -76l29 -39l29 134h409l-186 -871c-35.333 -165.333 -113.5 -300.5 -234.5 -405.5s-269.5 -157.5 -445.5 -157.5c-61.333 0 -120.666 7.16699 -177.999 21.5
s-104.5 31.666 -141.5 51.999s-69.5 40.833 -97.5 61.5s-48 38.334 -60 53.001l-21 21l283 231c5.33301 -6.66699 14.166 -15.167 26.499 -25.5s37.666 -24 75.999 -41s78.5 -25.5 120.5 -25.5c69.333 0 126.5 19.833 171.5 59.5s75.167 91.5 90.5 155.5zM668.001 676
c-46.667 0 -86.6689 -16.332 -120.002 -48.999s-50 -73 -50 -121c0 -32.667 11.833 -60.334 35.5 -83.001s53.5 -34 89.5 -34c46.667 0 86.334 16 119.001 48s49 72 49 120c0 32.667 -11.667 60.667 -35 84s-52.666 35 -87.999 35z" />
    <glyph glyph-name="Imacron" unicode="&#x12a;" horiz-adv-x="768" 
d="M61 0l304 1434h460l-303 -1434h-461zM1036 1933l-65 -307h-697l66 307h696z" />
    <glyph glyph-name="imacron" unicode="&#x12b;" horiz-adv-x="655" 
d="M881 1464l-66 -307h-696l65 307h697zM643 1004l-213 -1004h-410l213 1004h410z" />
    <glyph glyph-name="Iogonek" unicode="&#x12e;" horiz-adv-x="768" 
d="M61 0l304.002 1434h460l-303 -1434h-297c-65.333 -83.333 -98 -157.666 -98 -222.999c0 -19.333 6.83301 -34.833 20.5 -46.5s31.5 -17.5 53.5 -17.5c15.333 0 30.666 2.83301 45.999 8.5s27.333 11.167 36 16.5l10 6l-45 -215c-53.333 -27.333 -121 -41 -203 -41
c-66.667 0 -119.834 18.833 -159.501 56.5s-59.5 85.167 -59.5 142.5c0 34 8.16699 68.333 24.5 103s35.833 64 58.5 88s45.5 45.5 68.5 64.5s42.833 33.5 59.5 43.5z" />
    <glyph glyph-name="iogonek" unicode="&#x12f;" horiz-adv-x="655" 
d="M20 0l213.004 1004h410l-213 -1004h-246c-65.333 -83.333 -98 -157.666 -98 -222.999c0 -19.333 6.83301 -34.833 20.5 -46.5s31.5 -17.5 53.5 -17.5c15.333 0 30.666 2.83301 45.999 8.5s27.333 11.167 36 16.5l10 6l-45 -215c-53.333 -27.333 -121 -41 -203 -41
c-66.667 0 -119.834 18.833 -159.501 56.5s-59.5 85.167 -59.5 142.5c0 34 8.16699 68.333 24.5 103s36.166 64 59.499 88s46.166 45.5 68.499 64.5s41.833 33.5 58.5 43.5zM270.004 1288c0 61.333 24 114.666 72 159.999s104.667 68 170 68s117.833 -17.5 157.5 -52.5
s59.5 -79.167 59.5 -132.5c0 -61.333 -24.167 -114.166 -72.5 -158.499s-105.333 -66.5 -171 -66.5s-118 17.333 -157 52s-58.5 78 -58.5 130z" />
    <glyph glyph-name="Idotaccent" unicode="&#x130;" horiz-adv-x="768" 
d="M61 0l304 1434h460l-303 -1434h-461zM883 1782c0 -61.333 -24.333 -114.333 -73 -159s-105.667 -67 -171 -67s-117.5 17.5 -156.5 52.5s-58.5 78.5 -58.5 130.5c0 62.667 23.5 116.167 70.5 160.5s104.167 66.5 171.5 66.5c65.333 0 117.833 -17.333 157.5 -52
s59.5 -78.667 59.5 -132z" />
    <glyph glyph-name="dotlessi" unicode="&#x131;" horiz-adv-x="655" 
d="M643 1004l-213 -1004h-410l213 1004h410z" />
    <glyph glyph-name="uni0136" unicode="&#x136;" horiz-adv-x="1536" 
d="M825 1434l-100 -469l473 469h539l-617 -607l355 -827h-502l-211 500l-168 -166l-72 -334h-461l304 1434h460zM365 -512l178 348h399l-237 -348h-340z" />
    <glyph glyph-name="uni0137" unicode="&#x137;" horiz-adv-x="1218" 
d="M1329 1004l-434 -433l227 -571h-415l-129 334l-97 -90l-51 -244h-410l304 1434h409l-151 -717l280 287h467zM164 -512l178 348h399l-237 -348h-340z" />
    <glyph glyph-name="Lacute" unicode="&#x139;" horiz-adv-x="1259" 
d="M1126 0h-1065l304 1434h460l-215 -1014h604zM453 1587l249 348h443l-330 -348h-362z" />
    <glyph glyph-name="lacute" unicode="&#x13a;" horiz-adv-x="655" 
d="M733 1434l-303 -1434h-410l304 1434h409zM385 1587l250 348h442l-329 -348h-363z" />
    <glyph glyph-name="uni013B" unicode="&#x13b;" horiz-adv-x="1259" 
d="M1126 0h-1065l304 1434h460l-215 -1014h604zM225 -512l178 348h400l-238 -348h-340z" />
    <glyph glyph-name="uni013C" unicode="&#x13c;" horiz-adv-x="655" 
d="M733 1434l-303 -1434h-410l304 1434h409zM-182 -512l178 348h399l-237 -348h-340z" />
    <glyph glyph-name="Lcaron" unicode="&#x13d;" horiz-adv-x="1259" 
d="M1126 0h-1065l304 1434h460l-215 -1014h604zM829 1085l179 349h401l-238 -349h-342z" />
    <glyph glyph-name="lcaron" unicode="&#x13e;" horiz-adv-x="860" 
d="M733 1434l-303 -1434h-410l304 1434h409zM702 1085l179 349h401l-238 -349h-342z" />
    <glyph glyph-name="Lslash" unicode="&#x141;" horiz-adv-x="1361" 
d="M1229 0h-1065l82 389l-125 -61l-121 348l344 174l123 584h461l-78 -369l125 61l121 -348l-344 -174l-39 -184h604z" />
    <glyph glyph-name="lslash" unicode="&#x142;" horiz-adv-x="849" 
d="M825 1434l-80 -379l127 71l107 -317l-324 -174l-133 -635h-409l84 399l-115 -61l-111 307l312 164l133 625h409z" />
    <glyph glyph-name="Nacute" unicode="&#x143;" horiz-adv-x="1699" 
d="M1296 1434h461l-303 -1434h-375l-409 696l-148 -696h-461l304 1434h376l408 -697zM852 1587l250 348h442l-330 -348h-362z" />
    <glyph glyph-name="nacute" unicode="&#x144;" 
d="M633 1004l-24.998 -112.998c8 9.33301 20 21.5 36 36.5s49.5 34.833 100.5 59.5s103.833 37 158.5 37c87.333 0 157.666 -26.667 210.999 -80s80 -127 80 -221c0 -36.667 -4 -76.334 -12 -119.001l-127 -604h-410l109 512c5.33301 31.333 1.16602 59.666 -12.501 84.999
s-37.667 38 -72 38s-65.833 -15.667 -94.5 -47s-47.667 -70.333 -57 -117l-98 -471h-410l213 1004h410zM547.002 1126l250 349h442l-330 -349h-362z" />
    <glyph glyph-name="uni0145" unicode="&#x145;" horiz-adv-x="1699" 
d="M1296 1434h461l-303 -1434h-375l-409 696l-148 -696h-461l304 1434h376l408 -697zM426 -512l178 348h400l-238 -348h-340z" />
    <glyph glyph-name="uni0146" unicode="&#x146;" 
d="M633 1004l-24.998 -112.998c8 9.33301 20 21.5 36 36.5s49.5 34.833 100.5 59.5s103.833 37 158.5 37c87.333 0 157.666 -26.667 210.999 -80s80 -127 80 -221c0 -36.667 -4 -76.334 -12 -119.001l-127 -604h-410l109 512c5.33301 31.333 1.16602 59.666 -12.501 84.999
s-37.667 38 -72 38s-65.833 -15.667 -94.5 -47s-47.667 -70.333 -57 -117l-98 -471h-410l213 1004h410zM133.002 -511.998l178 348h400l-238 -348h-340z" />
    <glyph glyph-name="Ncaron" unicode="&#x147;" horiz-adv-x="1699" 
d="M1296 1434h461l-303 -1434h-375l-409 696l-148 -696h-461l304 1434h376l408 -697zM1079 1802l119 133h383l-360 -348h-349l-213 348h355z" />
    <glyph glyph-name="ncaron" unicode="&#x148;" 
d="M633 1004l-24.998 -112.998c8 9.33301 20 21.5 36 36.5s49.5 34.833 100.5 59.5s103.833 37 158.5 37c87.333 0 157.666 -26.667 210.999 -80s80 -127 80 -221c0 -36.667 -4 -76.334 -12 -119.001l-127 -604h-410l109 512c5.33301 31.333 1.16602 59.666 -12.501 84.999
s-37.667 38 -72 38s-65.833 -15.667 -94.5 -47s-47.667 -70.333 -57 -117l-98 -471h-410l213 1004h410zM774.002 1341l119 134h383l-361 -349h-348l-213 349h355z" />
    <glyph glyph-name="Omacron" unicode="&#x14c;" horiz-adv-x="1761" 
d="M977 1065c-101.333 0 -192.5 -39 -273.5 -117s-121.5 -169.333 -121.5 -274c0 -87.333 30 -160.333 90 -219s136.333 -88 229 -88c102.667 0 194.167 38.833 274.5 116.5s120.5 169.167 120.5 274.5c0 86 -30 158.667 -90 218s-136.333 89 -229 89zM1765 786
c0 -143.333 -41.168 -279.167 -123.501 -407.5s-192.5 -230.333 -330.5 -306s-284.333 -113.5 -439 -113.5c-225.333 0 -408.166 66.833 -548.499 200.5s-210.5 295.5 -210.5 485.5c0 146 40.833 282.833 122.5 410.5s191.5 229.5 329.5 305.5s285.667 114 443 114
c225.333 0 407.833 -67.333 547.5 -202s209.5 -297 209.5 -487zM1475 1935l-66 -307h-696l65 307h697z" />
    <glyph glyph-name="omacron" unicode="&#x14d;" 
d="M655 655c-45.333 0 -84.333 -17.333 -117 -52s-49 -76 -49 -124c0 -38 12 -69.333 36 -94s56 -37 96 -37c44 0 82.5 16.833 115.5 50.5s49.5 76.167 49.5 127.5c0 38 -12 69 -36 93s-55.667 36 -95 36zM1223 553c0 -157.333 -63.167 -293.999 -189.5 -409.999
s-274.833 -174 -445.5 -174c-157.333 0 -285.833 47.5 -385.5 142.5s-149.5 209.5 -149.5 343.5c0 155.333 63.167 290.666 189.5 405.999s275.5 173 447.5 173c157.333 0 285.5 -47 384.5 -141s148.5 -207.333 148.5 -340zM1151 1464l-66 -307h-696l66 307h696z" />
    <glyph glyph-name="Ohungarumlaut" unicode="&#x150;" horiz-adv-x="1761" 
d="M977 1065c-101.333 0 -192.5 -39 -273.5 -117s-121.5 -169.333 -121.5 -274c0 -87.333 30 -160.333 90 -219s136.333 -88 229 -88c102.667 0 194.167 38.833 274.5 116.5s120.5 169.167 120.5 274.5c0 86 -30 158.667 -90 218s-136.333 89 -229 89zM1765 786
c0 -143.333 -41.168 -279.167 -123.501 -407.5s-192.5 -230.333 -330.5 -306s-284.333 -113.5 -439 -113.5c-225.333 0 -408.166 66.833 -548.499 200.5s-210.5 295.5 -210.5 485.5c0 146 40.833 282.833 122.5 410.5s191.5 229.5 329.5 305.5s285.667 114 443 114
c225.333 0 407.833 -67.333 547.5 -202s209.5 -297 209.5 -487zM675.999 1587l258 348h385l-340 -348h-303zM1137 1587l258 348h385l-340 -348h-303z" />
    <glyph glyph-name="ohungarumlaut" unicode="&#x151;" 
d="M655 655c-45.333 0 -84.333 -17.333 -117 -52s-49 -76 -49 -124c0 -38 12 -69.333 36 -94s56 -37 96 -37c44 0 82.5 16.833 115.5 50.5s49.5 76.167 49.5 127.5c0 38 -12 69 -36 93s-55.667 36 -95 36zM1223 553c0 -157.333 -63.167 -293.999 -189.5 -409.999
s-274.833 -174 -445.5 -174c-157.333 0 -285.833 47.5 -385.5 142.5s-149.5 209.5 -149.5 343.5c0 155.333 63.167 290.666 189.5 405.999s275.5 173 447.5 173c157.333 0 285.5 -47 384.5 -141s148.5 -207.333 148.5 -340zM326 1126l258 349h385l-340 -349h-303zM786 1126
l258 349h386l-340 -349h-304z" />
    <glyph glyph-name="OE" unicode="&#x152;" horiz-adv-x="2088" 
d="M1370 379h625.001l-80 -379h-1118c-196.667 0 -359.167 61.167 -487.5 183.5s-192.5 266.5 -192.5 432.5c0 225.333 88.667 418 266 578s393.666 240 648.999 240h1166l-80 -379h-605l-32 -154h440l-74 -348h-440zM989.001 1024c-108 0 -202.5 -33.833 -283.5 -101.5
s-121.5 -156.167 -121.5 -265.5c0 -72.667 25.833 -132 77.5 -178s122.5 -69 212.5 -69h41l132 614h-58z" />
    <glyph glyph-name="oe" unicode="&#x153;" horiz-adv-x="1914" 
d="M1825 410h-643c5.33301 -30 22.666 -56.333 51.999 -79s72 -34 128 -34c36.667 0 72.5 5.83301 107.5 17.5s61.167 22.834 78.5 33.501l25 17l113 -261c-4 -4 -10.167 -9 -18.5 -15s-26.5 -16.5 -54.5 -31.5s-57 -28.667 -87 -41s-68.667 -23.333 -116 -33
s-95.333 -14.5 -144 -14.5c-69.333 0 -133.166 10.333 -191.499 31s-98.5 41 -120.5 61l-34 31c-10.667 -9.33301 -26.667 -20.833 -48 -34.5s-64.833 -31.834 -130.5 -54.501s-131.167 -34 -196.5 -34c-146 0 -264.5 43.333 -355.5 130s-136.5 191.667 -136.5 315
c0 168 61.833 313.333 185.5 436s277.5 184 461.5 184c39.333 0 77.833 -3.66699 115.5 -11s68.834 -16.5 93.501 -27.5s46.167 -22.333 64.5 -34s32.5 -20.834 42.5 -27.501l12 -12c12 8 28.667 18.167 50 30.5s64.5 29 129.5 50s128.833 31.5 191.5 31.5
c135.333 0 249.666 -39.167 342.999 -117.5s140 -174.833 140 -289.5c0 -39.333 -4.83301 -77.166 -14.5 -113.499s-19.167 -62.833 -28.5 -79.5zM600 348c40.667 0 78.501 18.168 113.501 54.501s52.5 81.166 52.5 134.499c0 34 -10.167 62.167 -30.5 84.5
s-46.5 33.5 -78.5 33.5c-42 0 -80 -18 -114 -54s-51 -81.333 -51 -136c0 -34 10.167 -62 30.5 -84s46.166 -33 77.499 -33zM1364 727.001c-69.333 0 -125.333 -37.667 -168 -113h287c-2.66699 32.667 -14.667 59.667 -36 81s-49 32 -83 32z" />
    <glyph glyph-name="Racute" unicode="&#x154;" horiz-adv-x="1495" 
d="M61 0l304 1434h665c139.333 0 255.5 -43.833 348.5 -131.5s139.5 -190.834 139.5 -309.501c0 -72.667 -11.333 -139.334 -34 -200.001s-49.667 -108.334 -81 -143.001s-63 -64 -95 -88s-59.667 -40 -83 -48l-33 -12l170 -502h-467l-131 410h-156l-86 -410h-461z
M918 819.003c35.333 0 65.667 10.668 91 32.001s38 51.666 38 90.999c0 23.333 -9 42.833 -27 58.5s-42 23.5 -72 23.5h-209l-43 -205h222zM750.001 1587l249 348h443l-330 -348h-362z" />
    <glyph glyph-name="racute" unicode="&#x155;" horiz-adv-x="870" 
d="M942 1018l-89.998 -423.998c-24.667 13.333 -57.334 20 -98.001 20c-61.333 0 -115.333 -21.5 -162 -64.5s-77.334 -99.833 -92.001 -170.5l-80 -379h-410l213 1004h410l-25 -113c8 9.33301 20 21.166 36 35.499s49.167 33.166 99.5 56.499s102.833 35 157.5 35h41z
M412.002 1126l250 349h442l-330 -349h-362z" />
    <glyph glyph-name="uni0156" unicode="&#x156;" horiz-adv-x="1495" 
d="M61 0l304 1434h665c139.333 0 255.5 -43.833 348.5 -131.5s139.5 -190.834 139.5 -309.501c0 -72.667 -11.333 -139.334 -34 -200.001s-49.667 -108.334 -81 -143.001s-63 -64 -95 -88s-59.667 -40 -83 -48l-33 -12l170 -502h-467l-131 410h-156l-86 -410h-461z
M918 819.003c35.333 0 65.667 10.668 91 32.001s38 51.666 38 90.999c0 23.333 -9 42.833 -27 58.5s-42 23.5 -72 23.5h-209l-43 -205h222zM330.001 -511.996l178 348h399l-237 -348h-340z" />
    <glyph glyph-name="uni0157" unicode="&#x157;" horiz-adv-x="870" 
d="M942 1018l-89.998 -423.998c-24.667 13.333 -57.334 20 -98.001 20c-61.333 0 -115.333 -21.5 -162 -64.5s-77.334 -99.833 -92.001 -170.5l-80 -379h-410l213 1004h410l-25 -113c8 9.33301 20 21.166 36 35.499s49.167 33.166 99.5 56.499s102.833 35 157.5 35h41z
M-196.998 -511.998l179 348h399l-238 -348h-340z" />
    <glyph glyph-name="Rcaron" unicode="&#x158;" horiz-adv-x="1495" 
d="M61 0l304 1434h665c139.333 0 255.5 -43.833 348.5 -131.5s139.5 -190.834 139.5 -309.501c0 -72.667 -11.333 -139.334 -34 -200.001s-49.667 -108.334 -81 -143.001s-63 -64 -95 -88s-59.667 -40 -83 -48l-33 -12l170 -502h-467l-131 410h-156l-86 -410h-461z
M918 819.003c35.333 0 65.667 10.668 91 32.001s38 51.666 38 90.999c0 23.333 -9 42.833 -27 58.5s-42 23.5 -72 23.5h-209l-43 -205h222zM967.001 1802l118 133h383l-360 -348h-348l-213 348h354z" />
    <glyph glyph-name="rcaron" unicode="&#x159;" horiz-adv-x="870" 
d="M942 1018l-89.998 -423.998c-24.667 13.333 -57.334 20 -98.001 20c-61.333 0 -115.333 -21.5 -162 -64.5s-77.334 -99.833 -92.001 -170.5l-80 -379h-410l213 1004h410l-25 -113c8 9.33301 20 21.166 36 35.499s49.167 33.166 99.5 56.499s102.833 35 157.5 35h41z
M637.002 1341l119 134h383l-361 -349h-348l-213 349h354z" />
    <glyph glyph-name="Sacute" unicode="&#x15a;" horiz-adv-x="1280" 
d="M549 338c38 0 74.1689 8.83203 108.502 26.499s51.5 45.834 51.5 84.501c0 22 -17.833 43.167 -53.5 63.5s-78.667 41.666 -129 63.999s-100.833 48.5 -151.5 78.5s-93.667 71.667 -129 125s-53 114.333 -53 183c0 140.667 55.833 261.167 167.5 361.5
s267.167 150.5 466.5 150.5c68 0 133.167 -7.16699 195.5 -21.5s113.333 -31.5 153 -51.5s74.5 -39.833 104.5 -59.5s51 -37.167 63 -52.5l21 -20l-309 -264c-5.33301 6.66699 -13.833 15.167 -25.5 25.5s-35.334 23.666 -71.001 39.999s-71.834 24.5 -108.501 24.5
c-42 0 -75.333 -8.16699 -100 -24.5s-37 -38.166 -37 -65.499c0 -22 17.667 -43 53 -63s78.333 -41.167 129 -63.5s101.5 -48.166 152.5 -77.499s94.333 -70.666 130 -123.999s53.5 -114 53.5 -182c0 -152.667 -57 -280.334 -171 -383.001s-274.667 -154 -482 -154
c-72.667 0 -143.167 8.5 -211.5 25.5s-125.333 37.5 -171 61.5s-86.334 48 -122.001 72s-61.5 44.667 -77.5 62l-25 25l308 254c8 -9.33301 19.833 -20.5 35.5 -33.5s47.334 -30.833 95.001 -53.5s94.167 -34 139.5 -34zM664.002 1587l249 348h443l-330 -348h-362z" />
    <glyph glyph-name="sacute" unicode="&#x15b;" horiz-adv-x="1003" 
d="M1012 860l-220.998 -189.995c-34 31.333 -74.333 47 -121 47c-26 0 -45.5 -5.16699 -58.5 -15.5s-19.5 -21.5 -19.5 -33.5c0 -16.667 17.333 -34.834 52 -54.501s73.167 -39.167 115.5 -58.5s81 -49 116 -89s52.5 -86.667 52.5 -140c0 -100 -40.667 -184.5 -122 -253.5
s-202 -103.5 -362 -103.5c-62.667 0 -122.334 7.16699 -179.001 21.5s-103 31.5 -139 51.5s-67.667 39.833 -95 59.5s-47.333 36.5 -60 50.5l-16 22l221 191c5.33301 -6.66699 13.166 -14.834 23.499 -24.501s31.166 -22.834 62.499 -39.501s63.333 -25 96 -25
c24.667 0 44.5 5.83301 59.5 17.5s22.5 25.667 22.5 42s-17.667 34.166 -53 53.499s-74.166 38.166 -116.499 56.499s-81.333 48 -117 89s-53.5 88.167 -53.5 141.5c0 94 42.667 177.167 128 249.5s205.333 108.5 360 108.5c87.333 0 166.5 -14.667 237.5 -44
s119.5 -58.333 145.5 -87zM428.002 1126l250 349h442l-329 -349h-363z" />
    <glyph glyph-name="Scedilla" unicode="&#x15e;" horiz-adv-x="1280" 
d="M549 338c38 0 74.1699 8.83008 108.503 26.4971s51.5 45.834 51.5 84.501c0 22 -17.833 43.167 -53.5 63.5s-78.667 41.666 -129 63.999s-100.833 48.5 -151.5 78.5s-93.667 71.667 -129 125s-53 114.333 -53 183c0 140.667 55.833 261.167 167.5 361.5
s267.167 150.5 466.5 150.5c68 0 133.167 -7.16699 195.5 -21.5s113.333 -31.5 153 -51.5s74.5 -39.833 104.5 -59.5s51 -37.167 63 -52.5l21 -20l-309 -264c-5.33301 6.66699 -13.833 15.167 -25.5 25.5s-35.334 23.666 -71.001 39.999s-71.834 24.5 -108.501 24.5
c-42 0 -75.333 -8.16699 -100 -24.5s-37 -38.166 -37 -65.499c0 -22 17.667 -43 53 -63s78.333 -41.167 129 -63.5s101.5 -48.166 152.5 -77.499s94.333 -70.666 130 -123.999s53.5 -114 53.5 -182c0 -150 -55.667 -276 -167 -378s-267.333 -155 -468 -159l-31 -41
c5.33301 -1.33301 12.166 -2.66602 20.499 -3.99902s23.166 -6.5 44.499 -15.5s40.166 -19.667 56.499 -32s31 -29.666 44 -51.999s19.5 -47.833 19.5 -76.5c0 -79.333 -27 -144.166 -81 -194.499s-127.333 -75.5 -220 -75.5c-52 0 -101.333 9.5 -148 28.5
s-80 38.167 -100 57.5l-33 26l121 152c38 -39.333 79.667 -59.333 125 -60c46.667 0 69.667 18 69 54c0 9.33301 -4.33301 18 -13 26s-20.667 12 -36 12l-47 -10l-45 82l90 135c-88.667 13.333 -171.167 39.666 -247.5 78.999s-131.166 74.666 -164.499 105.999l-49 49
l308 254c8 -9.33301 19.833 -20.5 35.5 -33.5s47.334 -30.833 95.001 -53.5s94.167 -34 139.5 -34z" />
    <glyph glyph-name="scedilla" unicode="&#x15f;" horiz-adv-x="1003" 
d="M1012 860l-220.997 -189.998c-34 31.333 -74.333 47 -121 47c-26 0 -45.5 -5.16699 -58.5 -15.5s-19.5 -21.5 -19.5 -33.5c0 -16.667 17.333 -34.834 52 -54.501s73.167 -39.167 115.5 -58.5s81 -49 116 -89s52.5 -86.667 52.5 -140c0 -100 -40.333 -184.167 -121 -252.5
s-200 -103.166 -358 -104.499l-37 -51c5.33301 -1.33301 12 -2.66602 20 -3.99902s22.667 -6.5 44 -15.5s40.166 -19.667 56.499 -32s31 -29.666 44 -51.999s19.5 -47.833 19.5 -76.5c0 -79.333 -27 -144.166 -81 -194.499s-127.333 -75.5 -220 -75.5
c-52 0 -101.167 9.5 -147.5 28.5s-80.5 38.167 -102.5 57.5l-31 26l121 152c38 -39.333 79.667 -59.333 125 -60c46.667 0 70 18 70 54c0 9.33301 -4.5 18 -13.5 26s-20.833 12 -35.5 12l-48 -10l-45 82l99 150c-66.667 13.333 -127.834 35.666 -183.501 66.999
s-94.167 59.333 -115.5 84l-33 37l221 191c5.33301 -6.66699 13.166 -14.834 23.499 -24.501s31.166 -22.834 62.499 -39.501s63.333 -25 96 -25c24.667 0 44.5 5.83301 59.5 17.5s22.5 25.667 22.5 42s-17.667 34.166 -53 53.499s-74.166 38.166 -116.499 56.499
s-81.333 48 -117 89s-53.5 88.167 -53.5 141.5c0 94 42.667 177.167 128 249.5s205.333 108.5 360 108.5c87.333 0 166.5 -14.667 237.5 -44s119.5 -58.333 145.5 -87z" />
    <glyph glyph-name="Scaron" unicode="&#x160;" horiz-adv-x="1280" 
d="M549 338c38 0 74.1689 8.83203 108.502 26.499s51.5 45.834 51.5 84.501c0 22 -17.833 43.167 -53.5 63.5s-78.667 41.666 -129 63.999s-100.833 48.5 -151.5 78.5s-93.667 71.667 -129 125s-53 114.333 -53 183c0 140.667 55.833 261.167 167.5 361.5
s267.167 150.5 466.5 150.5c68 0 133.167 -7.16699 195.5 -21.5s113.333 -31.5 153 -51.5s74.5 -39.833 104.5 -59.5s51 -37.167 63 -52.5l21 -20l-309 -264c-5.33301 6.66699 -13.833 15.167 -25.5 25.5s-35.334 23.666 -71.001 39.999s-71.834 24.5 -108.501 24.5
c-42 0 -75.333 -8.16699 -100 -24.5s-37 -38.166 -37 -65.499c0 -22 17.667 -43 53 -63s78.333 -41.167 129 -63.5s101.5 -48.166 152.5 -77.499s94.333 -70.666 130 -123.999s53.5 -114 53.5 -182c0 -152.667 -57 -280.334 -171 -383.001s-274.667 -154 -482 -154
c-72.667 0 -143.167 8.5 -211.5 25.5s-125.333 37.5 -171 61.5s-86.334 48 -122.001 72s-61.5 44.667 -77.5 62l-25 25l308 254c8 -9.33301 19.833 -20.5 35.5 -33.5s47.334 -30.833 95.001 -53.5s94.167 -34 139.5 -34zM874.002 1802l119 133h383l-360 -348h-348l-213 348
h354z" />
    <glyph glyph-name="scaron" unicode="&#x161;" horiz-adv-x="1003" 
d="M1012 860l-220.998 -189.995c-34 31.333 -74.333 47 -121 47c-26 0 -45.5 -5.16699 -58.5 -15.5s-19.5 -21.5 -19.5 -33.5c0 -16.667 17.333 -34.834 52 -54.501s73.167 -39.167 115.5 -58.5s81 -49 116 -89s52.5 -86.667 52.5 -140c0 -100 -40.667 -184.5 -122 -253.5
s-202 -103.5 -362 -103.5c-62.667 0 -122.334 7.16699 -179.001 21.5s-103 31.5 -139 51.5s-67.667 39.833 -95 59.5s-47.333 36.5 -60 50.5l-16 22l221 191c5.33301 -6.66699 13.166 -14.834 23.499 -24.501s31.166 -22.834 62.499 -39.501s63.333 -25 96 -25
c24.667 0 44.5 5.83301 59.5 17.5s22.5 25.667 22.5 42s-17.667 34.166 -53 53.499s-74.166 38.166 -116.499 56.499s-81.333 48 -117 89s-53.5 88.167 -53.5 141.5c0 94 42.667 177.167 128 249.5s205.333 108.5 360 108.5c87.333 0 166.5 -14.667 237.5 -44
s119.5 -58.333 145.5 -87zM647.002 1341l119 134h383l-361 -349h-348l-213 349h355z" />
    <glyph glyph-name="uni0162" unicode="&#x162;" horiz-adv-x="1300" 
d="M252 1434h1218l-88 -420h-378l-216 -1014h-460l215 1014h-379zM145 -512l179 348h399l-238 -348h-340z" />
    <glyph glyph-name="uni0163" unicode="&#x163;" horiz-adv-x="911" 
d="M371 1126l31.999 153.999h359l-60 -287h205l-76 -348h-204l-41 -194c-13.333 -68 14 -102.333 82 -103c18 0 35.833 1.66699 53.5 5s31.167 7.33301 40.5 12l12 4l-74 -349c-60 -27.333 -134.333 -40.666 -223 -39.999c-125.333 0 -215.666 35.833 -270.999 107.5
s-68.666 175.5 -39.999 311.5l51 246h-143l76 348h61c35.333 0 69.166 13.333 101.499 40s51.833 57.667 58.5 93zM22.999 -512.001l178 348h399l-238 -348h-339z" />
    <glyph glyph-name="Tcaron" unicode="&#x164;" horiz-adv-x="1300" 
d="M252 1434h1218l-88 -420h-378l-216 -1014h-460l215 1014h-379zM899 1802l119 133h383l-361 -348h-348l-213 348h355z" />
    <glyph glyph-name="tcaron" unicode="&#x165;" horiz-adv-x="983" 
d="M371 1126l31.999 153.999h359l-60 -287h205l-76 -348h-204l-41 -194c-13.333 -68 14 -102.333 82 -103c18 0 35.833 1.66699 53.5 5s31.167 7.33301 40.5 12l12 4l-74 -349c-60 -27.333 -134.333 -40.666 -223 -39.999c-125.333 0 -215.666 35.833 -270.999 107.5
s-68.666 175.5 -39.999 311.5l51 246h-143l76 348h61c35.333 0 69.166 13.333 101.499 40s51.833 57.667 58.5 93zM824.999 1085l179 349h401l-238 -349h-342z" />
    <glyph glyph-name="Umacron" unicode="&#x16a;" horiz-adv-x="1617" 
d="M803 369c58.667 0 112.166 22.501 160.499 67.501s80.166 100.833 95.499 167.5l176 830h461l-176 -830c-40.667 -192.667 -127.667 -348.334 -261 -467.001s-301.666 -178 -504.999 -178c-176 0 -320 48.5 -432 145.5s-168 221.167 -168 372.5
c0 45.333 4.66699 87.666 14 126.999l176 830h461l-176 -830c-4 -16.667 -6 -33 -6 -49c0 -53.333 17.333 -97.666 52 -132.999s77.334 -53 128.001 -53zM1452 1935l-66 -307h-696l66 307h696z" />
    <glyph glyph-name="umacron" unicode="&#x16b;" 
d="M645 0l23.0039 106c-2.66699 -4 -6.83398 -8.66699 -12.501 -14s-17.334 -15.166 -35.001 -29.499s-36.834 -27.333 -57.501 -39s-47.667 -21.834 -81 -30.501s-67.666 -13 -102.999 -13c-90 0 -162.333 26.5 -217 79.5s-82 126.833 -82 221.5c0 34 4 71.333 12 112
l131 611h410l-113 -523c-6.66699 -31.333 -2.83398 -57.833 11.499 -79.5s39.166 -32.5 74.499 -32.5c78 0 126.667 44.333 146 133l106 502h410l-213 -1004h-410zM1161 1464l-65 -307h-697l66 307h696z" />
    <glyph glyph-name="Uring" unicode="&#x16e;" horiz-adv-x="1617" 
d="M803 369c58.667 0 112.166 22.501 160.499 67.501s80.166 100.833 95.499 167.5l176 830h461l-176 -830c-40.667 -192.667 -127.667 -348.334 -261 -467.001s-301.666 -178 -504.999 -178c-176 0 -320 48.5 -432 145.5s-168 221.167 -168 372.5
c0 45.333 4.66699 87.666 14 126.999l176 830h461l-176 -830c-4 -16.667 -6 -33 -6 -49c0 -53.333 17.333 -97.666 52 -132.999s77.334 -53 128.001 -53zM1067 1876c-23.333 0 -43.833 -8.83398 -61.5 -26.501s-26.5 -39.5 -26.5 -65.5c0 -48 27.333 -72 82 -72
c24.667 0 45.5 8.83301 62.5 26.5s25.5 40.834 25.5 69.501c0 45.333 -27.333 68 -82 68zM1356 1817c0 -79.333 -31.168 -147.331 -93.501 -203.998s-136.5 -85 -222.5 -85c-78 0 -142.5 23.833 -193.5 71.5s-76.5 104.167 -76.5 169.5c0 79.333 30.333 147.666 91 204.999
s135.334 86 224.001 86c78 0 142.667 -23.833 194 -71.5s77 -104.834 77 -171.501z" />
    <glyph glyph-name="uring" unicode="&#x16f;" 
d="M645 0l23.0039 106c-2.66699 -4 -6.83398 -8.66699 -12.501 -14s-17.334 -15.166 -35.001 -29.499s-36.834 -27.333 -57.501 -39s-47.667 -21.834 -81 -30.501s-67.666 -13 -102.999 -13c-90 0 -162.333 26.5 -217 79.5s-82 126.833 -82 221.5c0 34 4 71.333 12 112
l131 611h410l-113 -523c-6.66699 -31.333 -2.83398 -57.833 11.499 -79.5s39.166 -32.5 74.499 -32.5c78 0 126.667 44.333 146 133l106 502h410l-213 -1004h-410zM795.004 1434c-23.333 0 -43.833 -9.00098 -61.5 -27.001s-26.5 -40 -26.5 -66c0 -48 27 -71.667 81 -71
c24.667 0 45.667 8.83301 63 26.5s26 40.834 26 69.501c0 45.333 -27.333 68 -82 68zM1083 1374c0 -79.333 -31.001 -147.332 -93.001 -203.999s-136 -85 -222 -85c-78 0 -142.5 24 -193.5 72s-76.5 104.667 -76.5 170c0 79.333 30.333 147.666 91 204.999
s135.334 86 224.001 86c78 0 142.5 -24 193.5 -72s76.5 -105.333 76.5 -172z" />
    <glyph glyph-name="Uhungarumlaut" unicode="&#x170;" horiz-adv-x="1617" 
d="M803 369c58.667 0 112.166 22.501 160.499 67.501s80.166 100.833 95.499 167.5l176 830h461l-176 -830c-40.667 -192.667 -127.667 -348.334 -261 -467.001s-301.666 -178 -504.999 -178c-176 0 -320 48.5 -432 145.5s-168 221.167 -168 372.5
c0 45.333 4.66699 87.666 14 126.999l176 830h461l-176 -830c-4 -16.667 -6 -33 -6 -49c0 -53.333 17.333 -97.666 52 -132.999s77.334 -53 128.001 -53zM673.999 1587l258 348h385l-340 -348h-303zM1135 1587l258 348h385l-340 -348h-303z" />
    <glyph glyph-name="uhungarumlaut" unicode="&#x171;" 
d="M645 0l23.0039 106c-2.66699 -4 -6.83398 -8.66699 -12.501 -14s-17.334 -15.166 -35.001 -29.499s-36.834 -27.333 -57.501 -39s-47.667 -21.834 -81 -30.501s-67.666 -13 -102.999 -13c-90 0 -162.333 26.5 -217 79.5s-82 126.833 -82 221.5c0 34 4 71.333 12 112
l131 611h410l-113 -523c-6.66699 -31.333 -2.83398 -57.833 11.499 -79.5s39.166 -32.5 74.499 -32.5c78 0 126.667 44.333 146 133l106 502h410l-213 -1004h-410zM358.004 1126l258 349h385l-339 -349h-304zM819.004 1126l258 349h385l-340 -349h-303z" />
    <glyph glyph-name="Uogonek" unicode="&#x172;" horiz-adv-x="1617" 
d="M803 369c58.667 0 112.167 22.499 160.5 67.499s80.166 100.833 95.499 167.5l176 830h461l-176 -830c-38 -180 -117.833 -328.667 -239.5 -446s-274.834 -183 -459.501 -197c-46.667 -69.333 -69.667 -130.666 -69 -183.999c0 -19.333 6.83301 -34.833 20.5 -46.5
s31.167 -17.5 52.5 -17.5c15.333 0 30.833 2.83301 46.5 8.5s26.834 11.167 33.501 16.5l13 6l-46 -215c-53.333 -27.333 -120.666 -41 -201.999 -41c-66.667 0 -119.834 18.833 -159.501 56.5s-59.5 85.167 -59.5 142.5c0 100 61.333 194 184 282
c-144.667 20.667 -261 77 -349 169s-132 205 -132 339c0 45.333 4.66699 87.666 14 126.999l176 830h461l-176 -830c-4 -16.667 -6 -33 -6 -49c0 -53.333 17.333 -97.666 52 -132.999s77.334 -53 128.001 -53z" />
    <glyph glyph-name="uogonek" unicode="&#x173;" 
d="M645 0l23.0029 105.999c-2.66699 -4 -6.83398 -8.66699 -12.501 -14s-17.334 -15.166 -35.001 -29.499s-36.834 -27.333 -57.501 -39s-47.667 -21.834 -81 -30.501s-67.666 -13 -102.999 -13c-90 0 -162.333 26.5 -217 79.5s-82 126.833 -82 221.5c0 34 4 71.333 12 112
l131 611h410l-113 -523c-6.66699 -31.333 -2.83398 -57.833 11.499 -79.5s39.166 -32.5 74.499 -32.5c78 0 126.667 44.333 146 133l106 502h410l-213 -1004h-246c-65.333 -83.333 -98 -157.666 -98 -222.999c0 -19.333 6.83301 -34.833 20.5 -46.5s31.167 -17.5 52.5 -17.5
c15.333 0 30.833 2.83301 46.5 8.5s26.834 11.167 33.501 16.5l13 6l-46 -215c-53.333 -27.333 -120.666 -41 -201.999 -41c-66.667 0 -119.834 18.833 -159.501 56.5s-59.5 85.167 -59.5 142.5c0 54.667 19.667 108.167 59 160.5s78.333 90.833 117 115.5z" />
    <glyph glyph-name="Ydieresis" unicode="&#x178;" horiz-adv-x="1433" 
d="M1153 1434h512l-707 -922l-108 -512h-461l109 512l-318 922h471l142 -492h10zM510 1745c0 54.667 22.166 103.5 66.499 146.5s95.833 64.5 154.5 64.5c52 0 94 -17.167 126 -51.5s48 -75.833 48 -124.5c0 -56 -22.167 -105.5 -66.5 -148.5s-95.166 -64.5 -152.499 -64.5
c-52 0 -94.333 17.333 -127 52s-49 76.667 -49 126zM1004 1745c0 54.667 22.166 103.5 66.499 146.5s95.833 64.5 154.5 64.5c52 0 94 -17.167 126 -51.5s48 -75.833 48 -124.5c0 -56 -22.167 -105.5 -66.5 -148.5s-95.166 -64.5 -152.499 -64.5
c-52 0 -94.333 17.333 -127 52s-49 76.667 -49 126z" />
    <glyph glyph-name="Zacute" unicode="&#x179;" horiz-adv-x="1382" 
d="M768 1014h-522l88 420h1147l-88 -420l-680 -594h573l-88 -420h-1198l88 420zM727 1587l250 348h442l-329 -348h-363z" />
    <glyph glyph-name="zacute" unicode="&#x17a;" horiz-adv-x="1105" 
d="M1114 1004l-74 -349l-438 -307h393l-73 -348h-942l73 348l436 307h-350l74 349h901zM473 1126l250 349h442l-329 -349h-363z" />
    <glyph glyph-name="Zdotaccent" unicode="&#x17b;" horiz-adv-x="1382" 
d="M768 1014h-522l88 420h1147l-88 -420l-680 -594h573l-88 -420h-1198l88 420zM1167 1782c0 -61.333 -24.166 -114.333 -72.499 -159s-105.333 -67 -171 -67s-117.834 17.5 -156.501 52.5s-58 78.5 -58 130.5c0 62.667 23.5 116.167 70.5 160.5s103.833 66.5 170.5 66.5
c65.333 0 117.833 -17.333 157.5 -52s59.5 -78.667 59.5 -132z" />
    <glyph glyph-name="zdotaccent" unicode="&#x17c;" horiz-adv-x="1105" 
d="M1114 1004l-74 -349l-438 -307h393l-73 -348h-942l73 348l436 307h-350l74 349h901zM942 1321c0 -61.333 -24.167 -114.167 -72.5 -158.5s-105.333 -66.5 -171 -66.5s-118 17.333 -157 52s-58.5 78 -58.5 130c0 62.667 23.667 116.167 71 160.5s104.333 66.5 171 66.5
c65.333 0 117.833 -17.333 157.5 -52s59.5 -78.667 59.5 -132z" />
    <glyph glyph-name="Zcaron" unicode="&#x17d;" horiz-adv-x="1382" 
d="M768 1014h-522l88 420h1147l-88 -420l-680 -594h573l-88 -420h-1198l88 420zM950 1802l119 133h383l-360 -348h-349l-213 348h355z" />
    <glyph glyph-name="zcaron" unicode="&#x17e;" horiz-adv-x="1105" 
d="M1114 1004l-74 -349l-438 -307h393l-73 -348h-942l73 348l436 307h-350l74 349h901zM707 1341l118 134h383l-360 -349h-348l-213 349h354z" />
    <glyph glyph-name="florin" unicode="&#x192;" horiz-adv-x="901" 
d="M375 901l45 113.001c65.333 165.333 134.833 281.666 208.5 348.999s171.5 101 293.5 101c36.667 0 73 -3.33301 109 -10s63.667 -13.334 83 -20.001l27 -11l-72 -338c-24.667 13.333 -57.334 20.333 -98.001 21c-34 0 -61 -7.16699 -81 -21.5s-36.667 -37.833 -50 -70.5
l-52 -113h160l-76 -358h-225l-203 -523c-64 -165.333 -133.167 -281.666 -207.5 -348.999s-172.166 -101 -293.499 -101c-35.333 0 -71.5 3.33301 -108.5 10s-65.167 13.667 -84.5 21l-26 10l71 338c24.667 -13.333 57.667 -20.333 99 -21c60 0 103.667 30.667 131 92
l213 523h-113l76 358h174z" />
    <glyph glyph-name="uni0218" unicode="&#x218;" horiz-adv-x="1280" 
d="M549 338c38 0 74.1689 8.83203 108.502 26.499s51.5 45.834 51.5 84.501c0 22 -17.833 43.167 -53.5 63.5s-78.667 41.666 -129 63.999s-100.833 48.5 -151.5 78.5s-93.667 71.667 -129 125s-53 114.333 -53 183c0 140.667 55.833 261.167 167.5 361.5
s267.167 150.5 466.5 150.5c68 0 133.167 -7.16699 195.5 -21.5s113.333 -31.5 153 -51.5s74.5 -39.833 104.5 -59.5s51 -37.167 63 -52.5l21 -20l-309 -264c-5.33301 6.66699 -13.833 15.167 -25.5 25.5s-35.334 23.666 -71.001 39.999s-71.834 24.5 -108.501 24.5
c-42 0 -75.333 -8.16699 -100 -24.5s-37 -38.166 -37 -65.499c0 -22 17.667 -43 53 -63s78.333 -41.167 129 -63.5s101.5 -48.166 152.5 -77.499s94.333 -70.666 130 -123.999s53.5 -114 53.5 -182c0 -152.667 -57 -280.334 -171 -383.001s-274.667 -154 -482 -154
c-72.667 0 -143.167 8.5 -211.5 25.5s-125.333 37.5 -171 61.5s-86.334 48 -122.001 72s-61.5 44.667 -77.5 62l-25 25l308 254c8 -9.33301 19.833 -20.5 35.5 -33.5s47.334 -30.833 95.001 -53.5s94.167 -34 139.5 -34zM176.002 -512.001l178 348h400l-238 -348h-340z" />
    <glyph glyph-name="uni0219" unicode="&#x219;" horiz-adv-x="1003" 
d="M1012 860l-220.998 -189.995c-34 31.333 -74.333 47 -121 47c-26 0 -45.5 -5.16699 -58.5 -15.5s-19.5 -21.5 -19.5 -33.5c0 -16.667 17.333 -34.834 52 -54.501s73.167 -39.167 115.5 -58.5s81 -49 116 -89s52.5 -86.667 52.5 -140c0 -100 -40.667 -184.5 -122 -253.5
s-202 -103.5 -362 -103.5c-62.667 0 -122.334 7.16699 -179.001 21.5s-103 31.5 -139 51.5s-67.667 39.833 -95 59.5s-47.333 36.5 -60 50.5l-16 22l221 191c5.33301 -6.66699 13.166 -14.834 23.499 -24.501s31.166 -22.834 62.499 -39.501s63.333 -25 96 -25
c24.667 0 44.5 5.83301 59.5 17.5s22.5 25.667 22.5 42s-17.667 34.166 -53 53.499s-74.166 38.166 -116.499 56.499s-81.333 48 -117 89s-53.5 88.167 -53.5 141.5c0 94 42.667 177.167 128 249.5s205.333 108.5 360 108.5c87.333 0 166.5 -14.667 237.5 -44
s119.5 -58.333 145.5 -87zM37.002 -511.995l178 348h399l-237 -348h-340z" />
    <glyph glyph-name="uni021A" unicode="&#x21a;" horiz-adv-x="1300" 
d="M252 1434h1218l-88 -420h-378l-216 -1014h-460l215 1014h-379zM145 -512l179 348h399l-238 -348h-340z" />
    <glyph glyph-name="uni021B" unicode="&#x21b;" horiz-adv-x="911" 
d="M371 1126l31.999 153.999h359l-60 -287h205l-76 -348h-204l-41 -194c-13.333 -68 14 -102.333 82 -103c18 0 35.833 1.66699 53.5 5s31.167 7.33301 40.5 12l12 4l-74 -349c-60 -27.333 -134.333 -40.666 -223 -39.999c-125.333 0 -215.666 35.833 -270.999 107.5
s-68.666 175.5 -39.999 311.5l51 246h-143l76 348h61c35.333 0 69.166 13.333 101.499 40s51.833 57.667 58.5 93zM22.999 -512.001l178 348h399l-238 -348h-339z" />
    <glyph glyph-name="uni02BC" unicode="&#x2bc;" horiz-adv-x="624" 
d="M201 1116l178 348h401l-237 -348h-342z" />
    <glyph glyph-name="circumflex" unicode="&#x2c6;" horiz-adv-x="1044" 
d="M707 1249l-119 -133h-383l360 348h348l213 -348h-354z" />
    <glyph glyph-name="caron" unicode="&#x2c7;" horiz-adv-x="1044" 
d="M698 1331l119 133h383l-360 -348h-348l-213 348h354z" />
    <glyph glyph-name="breve" unicode="&#x2d8;" horiz-adv-x="860" 
d="M612 1116c-108 0 -195.668 34.167 -263.001 102.5s-90.666 150.166 -69.999 245.499h286c-5.33301 -30 -1.5 -52.833 11.5 -68.5s32.5 -23.5 58.5 -23.5c52 0 83.333 30.667 94 92h287c-18 -101.333 -62.167 -184.666 -132.5 -249.999s-160.833 -98 -271.5 -98z" />
    <glyph glyph-name="dotaccent" unicode="&#x2d9;" horiz-adv-x="573" 
d="M702 1331c0 -61.333 -24.166 -114.168 -72.499 -158.501s-105.333 -66.5 -171 -66.5s-117.834 17.333 -156.501 52s-58 78 -58 130c0 62.667 23.5 116.334 70.5 161.001s103.833 67 170.5 67c65.333 0 117.833 -17.5 157.5 -52.5s59.5 -79.167 59.5 -132.5z" />
    <glyph glyph-name="ring" unicode="&#x2da;" horiz-adv-x="696" 
d="M526 1341c-23.333 0 -43.833 -8.83398 -61.5 -26.501s-26.5 -39.5 -26.5 -65.5c0 -48 27.333 -71.667 82 -71c24.667 0 45.5 8.83301 62.5 26.5s25.5 40.834 25.5 69.501c0 44.667 -27.333 67 -82 67zM815 1282c0 -79.333 -31 -147.332 -93 -203.999s-136 -85 -222 -85
c-78 0 -142.667 24 -194 72s-77 104.667 -77 170c0 79.333 30.5 147.666 91.5 204.999s135.833 86 224.5 86c78 0 142.5 -24 193.5 -72s76.5 -105.333 76.5 -172z" />
    <glyph glyph-name="ogonek" unicode="&#x2db;" horiz-adv-x="583" 
d="M143 0l164.002 -0.000976562c-65.333 -83.333 -98 -157.666 -98 -222.999c0 -19.333 6.83301 -34.833 20.5 -46.5s31.5 -17.5 53.5 -17.5c15.333 0 30.666 2.83301 45.999 8.5s27.333 11.167 36 16.5l10 6l-45 -215c-53.333 -27.333 -121 -41 -203 -41
c-66.667 0 -119.834 18.833 -159.501 56.5s-59.5 85.167 -59.5 142.5c0 34 8.16699 68.333 24.5 103s35.833 64 58.5 88s45.5 45.5 68.5 64.5s42.833 33.5 59.5 43.5z" />
    <glyph glyph-name="tilde" unicode="&#x2dc;" horiz-adv-x="890" 
d="M541 1198c-46.667 0 -76.667 -27.333 -90 -82h-246c28.667 134 65.834 229 111.501 285s103.167 84 172.5 84c46.667 0 92.5 -13.667 137.5 -41s75.167 -41 90.5 -41c46.667 0 76.667 27.333 90 82h246c-28.667 -134 -66 -229 -112 -285s-103.667 -84 -173 -84
c-46.667 0 -92.334 13.667 -137.001 41s-74.667 41 -90 41z" />
    <glyph glyph-name="hungarumlaut" unicode="&#x2dd;" horiz-adv-x="1146" 
d="M199 1116l258 348h385l-340 -348h-303zM659 1116l259 348h385l-340 -348h-304z" />
    <glyph glyph-name="uni0401" unicode="&#x401;" horiz-adv-x="1392" 
d="M602 379h696l-79 -379h-1158l304 1434h1136l-80 -379h-676l-32 -154h512l-74 -348h-512zM530 1745c0 54.667 22.3311 103.5 66.998 146.5s96.334 64.5 155.001 64.5c52 0 94 -17.167 126 -51.5s48 -75.833 48 -124.5c0 -56 -22.167 -105.5 -66.5 -148.5
s-95.166 -64.5 -152.499 -64.5c-52 0 -94.5 17.333 -127.5 52s-49.5 76.667 -49.5 126zM1024 1745c0 54.667 22.166 103.5 66.499 146.5s95.833 64.5 154.5 64.5c52 0 94 -17.167 126 -51.5s48 -75.833 48 -124.5c0 -56 -22.167 -105.5 -66.5 -148.5
s-95.166 -64.5 -152.499 -64.5c-52 0 -94.333 17.333 -127 52s-49 76.667 -49 126z" />
    <glyph glyph-name="uni0402" unicode="&#x402;" horiz-adv-x="1576" 
d="M872 348c121.333 0 182.334 30.666 183.001 91.999c0 20.667 -11.667 37.834 -35 51.501s-57.333 20.5 -102 20.5c-26 0 -52 -4.16699 -78 -12.5s-45.333 -16.5 -58 -24.5l-20 -14l-96 -461h-461l217 1024h-297l86 410h1055l-86 -410h-297l-35 -164
c8 4 19.5 9.83301 34.5 17.5s47.167 17 96.5 28s100.666 16.5 153.999 16.5c125.333 -2.66699 225.5 -36.5 300.5 -101.5s111.833 -156.833 110.5 -275.5c-1.33301 -186 -61.333 -331.833 -180 -437.5s-277 -158.5 -475 -158.5h-103z" />
    <glyph glyph-name="uni0403" unicode="&#x403;" horiz-adv-x="1249" 
d="M715 1587l250 348h442l-330 -348h-362zM61 0l304 1434h1065l-87 -410h-604l-217 -1024h-461z" />
    <glyph glyph-name="uni0404" unicode="&#x404;" horiz-adv-x="1540" 
d="M997 1075c-72.667 0 -140.666 -16.334 -203.999 -49.001s-114 -77.667 -152 -135h520l-74 -348h-495c23.333 -54.667 60.166 -99.167 110.499 -133.5s109.833 -51.5 178.5 -51.5c65.333 0 130 13.667 194 41s112.667 54.666 146 81.999l47 41l213 -293
c-5.33301 -6.66699 -13.833 -16.167 -25.5 -28.5s-38 -34.166 -79 -65.499s-84.667 -58.666 -131 -81.999s-106.833 -44.833 -181.5 -64.5s-152.334 -29.5 -233.001 -29.5c-203.333 0 -373.5 65.167 -510.5 195.5s-205.5 282.833 -205.5 457.5c0 241.333 90 445.5 270 612.5
s403.333 250.5 670 250.5c78 0 152.333 -10 223 -30s128.667 -44 174 -72s84.666 -56 117.999 -84s57.333 -52 72 -72l23 -29l-326 -277c-4 4 -9 9.83301 -15 17.5s-20.333 21 -43 40s-46.167 35.667 -70.5 50s-56.166 27.333 -95.499 39s-78.666 17.5 -117.999 17.5z" />
    <glyph glyph-name="uni0405" unicode="&#x405;" horiz-adv-x="1280" 
d="M549 338c38 0 74.1689 8.83203 108.502 26.499s51.5 45.834 51.5 84.501c0 22 -17.833 43.167 -53.5 63.5s-78.667 41.666 -129 63.999s-100.833 48.5 -151.5 78.5s-93.667 71.667 -129 125s-53 114.333 -53 183c0 140.667 55.833 261.167 167.5 361.5
s267.167 150.5 466.5 150.5c68 0 133.167 -7.16699 195.5 -21.5s113.333 -31.5 153 -51.5s74.5 -39.833 104.5 -59.5s51 -37.167 63 -52.5l21 -20l-309 -264c-5.33301 6.66699 -13.833 15.167 -25.5 25.5s-35.334 23.666 -71.001 39.999s-71.834 24.5 -108.501 24.5
c-42 0 -75.333 -8.16699 -100 -24.5s-37 -38.166 -37 -65.499c0 -22 17.667 -43 53 -63s78.333 -41.167 129 -63.5s101.5 -48.166 152.5 -77.499s94.333 -70.666 130 -123.999s53.5 -114 53.5 -182c0 -152.667 -57 -280.334 -171 -383.001s-274.667 -154 -482 -154
c-72.667 0 -143.167 8.5 -211.5 25.5s-125.333 37.5 -171 61.5s-86.334 48 -122.001 72s-61.5 44.667 -77.5 62l-25 25l308 254c8 -9.33301 19.833 -20.5 35.5 -33.5s47.334 -30.833 95.001 -53.5s94.167 -34 139.5 -34z" />
    <glyph glyph-name="uni0406" unicode="&#x406;" horiz-adv-x="768" 
d="M61 0l304 1434h460l-303 -1434h-461z" />
    <glyph glyph-name="uni0407" unicode="&#x407;" horiz-adv-x="768" 
d="M61 0l304 1434h460l-303 -1434h-461zM203 1745c0 54.667 22.166 103.5 66.499 146.5s95.833 64.5 154.5 64.5c52 0 94 -17.167 126 -51.5s48 -75.833 48 -124.5c0 -56 -22.167 -105.5 -66.5 -148.5s-95.166 -64.5 -152.499 -64.5c-52 0 -94.333 17.333 -127 52
s-49 76.667 -49 126zM695.999 1745c0 54.667 22.168 103.5 66.501 146.5s96.166 64.5 155.499 64.5c52 0 94 -17.167 126 -51.5s48 -75.833 48 -124.5c0 -56 -22.333 -105.5 -67 -148.5s-95.667 -64.5 -153 -64.5c-52 0 -94.333 17.333 -127 52s-49 76.667 -49 126z" />
    <glyph glyph-name="uni0408" unicode="&#x408;" horiz-adv-x="1095" 
d="M713 1434l461.001 -0.000976562l-193 -912c-36.667 -173.333 -110 -310.5 -220 -411.5s-249.667 -151.5 -419 -151.5c-52 0 -102.5 6.5 -151.5 19.5s-90.667 28.333 -125 46s-64.333 35.334 -90 53.001s-44.834 32.834 -57.501 45.501l-20 20l323 277
c30 -34 69 -51 117 -51s87.667 13.667 119 41s52.333 64.666 63 111.999z" />
    <glyph glyph-name="uni0409" unicode="&#x409;" horiz-adv-x="2232" 
d="M1556 0l-686.001 -0.00292969l217 1024h-204c-44 -207.333 -91.833 -380.666 -143.5 -519.999s-109.667 -248.666 -174 -327.999s-132 -135.333 -203 -168s-152.167 -49 -243.5 -49c-39.333 0 -76.5 3.5 -111.5 10.5s-60.833 13.833 -77.5 20.5l-22 10l88 420
c26 -6.66699 52.667 -10 80 -10c35.333 0 67.333 7.5 96 22.5s57.667 41.833 87 80.5s57.333 96.334 84 173.001s52.334 171.667 77.001 285l98 463h1116l-82 -390h185c140.667 0 255 -43.667 343 -131s132 -191.666 132 -312.999
c0 -174.667 -62.167 -318.334 -186.5 -431.001s-280.833 -169 -469.5 -169zM1417 409.997h182c40.667 0 74.5 12.833 101.5 38.5s40.5 56.5 40.5 92.5c0 27.333 -10.333 49.833 -31 67.5s-46.667 26.5 -78 26.5h-168z" />
    <glyph glyph-name="uni040A" unicode="&#x40a;" horiz-adv-x="2283" 
d="M1618 0h-696l129 614h-400l-129 -614h-461l304 1434h460l-86 -410h400l86 410h461l-87 -410h187c144.667 0 260 -42 346 -126s129 -186.667 129 -308c0 -176 -60 -318.333 -180 -427s-274.333 -163 -463 -163zM1468 410l189 -0.00195312c39.333 0 71.333 10.833 96 32.5
s37 50.834 37 87.501c0 24.667 -8.83301 44.834 -26.5 60.501s-43.5 23.5 -77.5 23.5h-175z" />
    <glyph glyph-name="uni040B" unicode="&#x40b;" horiz-adv-x="1628" 
d="M1049 358c2.66699 16.667 4.00098 28.3311 4.00098 34.998c0 35.333 -12 64 -36 86s-57 33 -99 33c-26 0 -52 -4.16699 -78 -12.5s-45.333 -16.5 -58 -24.5l-20 -14l-96 -461h-461l217 1024h-297l86 410h1055l-86 -410h-297l-35 -164
c74 40.667 158.667 61.334 254 62.001c131.333 0 235.166 -34.833 311.499 -104.5s114.5 -169.5 114.5 -299.5c0 -49.333 -6.33301 -102.666 -19 -159.999l-75 -358h-461z" />
    <glyph glyph-name="uni040C" unicode="&#x40c;" horiz-adv-x="1536" 
d="M825 1434l-100 -469l473 469h539l-617 -607l355 -827h-502l-211 500l-168 -166l-72 -334h-461l304 1434h460zM836 1587l249 348h443l-330 -348h-362z" />
    <glyph glyph-name="uni040E" unicode="&#x40e;" horiz-adv-x="1392" 
d="M907 1567c-112 0 -200.668 35.833 -266.001 107.5s-88.666 158.5 -69.999 260.5h285c-6.66699 -34 -1.5 -61.167 15.5 -81.5s41.167 -30.5 72.5 -30.5c64 0 103.667 37.333 119 112h287c-18 -105.333 -66.667 -193 -146 -263s-178.333 -105 -297 -105zM675.999 1434
l133 -522.999l309 523h506l-709 -1055c-180 -266 -388 -399 -624 -399c-36.667 0 -73.167 2.66699 -109.5 8s-63.5 10.666 -81.5 15.999l-26 6l84 400c42 -13.333 87 -20.333 135 -21c42 0 80.5 9.5 115.5 28.5s59.167 38.167 72.5 57.5l21 27l-289 932h463z" />
    <glyph glyph-name="uni040F" unicode="&#x40f;" horiz-adv-x="1658" 
d="M1716 1434l-303 -1434h-450l-60 -276h-461l60 276h-441l304 1434h460l-217 -1024h430l217 1024h461z" />
    <glyph glyph-name="uni0410" unicode="&#x410;" horiz-adv-x="1515" 
d="M911 625l-24 358l-180 -358h204zM940 276h-410l-139 -276h-504l826 1434h512l219 -1434h-477z" />
    <glyph glyph-name="uni0411" unicode="&#x411;" horiz-adv-x="1443" 
d="M600 369h206.999c35.333 0 65 11.167 89 33.5s36 52.166 36 89.499c0 24.667 -8.16699 44.334 -24.5 59.001s-38.166 22 -65.499 22h-199zM785.999 0l-725 -0.000976562l304 1434h1095l-78 -369h-634l-27 -123h209c142 0 255.667 -41 341 -123s128 -181 128 -297
c0 -143.333 -57.167 -266.166 -171.5 -368.499s-261.5 -153.5 -441.5 -153.5z" />
    <glyph glyph-name="uni0412" unicode="&#x412;" horiz-adv-x="1474" 
d="M788 0h-727l304 1434h653c143.333 0 256 -33.167 338 -99.5s123 -145.166 123 -236.499c0 -28.667 -3.16699 -56 -9.5 -82s-15 -48.833 -26 -68.5s-23.667 -38.834 -38 -57.501s-29 -34.5 -44 -47.5s-30.333 -25.333 -46 -37s-30 -20.834 -43 -27.501
s-24.833 -12.667 -35.5 -18s-19 -8.66602 -25 -9.99902l-8 -5c5.33301 -2.66699 12.833 -6.33398 22.5 -11.001s26.834 -16.5 51.501 -35.5s46.167 -39.167 64.5 -60.5s35 -49.666 50 -84.999s22.5 -72.333 22.5 -111c0 -126.667 -55.333 -232 -166 -316
s-264.334 -126 -461.001 -126zM596 348h210.999c40.667 0 74.334 12.667 101.001 38s40 56.333 40 93c0 26 -9.5 48.167 -28.5 66.5s-43.5 27.5 -73.5 27.5h-203zM902.999 1085h-151l-39 -184h159c34 0 62.333 10 85 30s34 45 34 75c0 22 -8.16699 40.667 -24.5 56
s-37.5 23 -63.5 23z" />
    <glyph glyph-name="uni0413" unicode="&#x413;" horiz-adv-x="1249" 
d="M61 0l304 1434h1065l-87 -410h-604l-217 -1024h-461z" />
    <glyph glyph-name="uni0414" unicode="&#x414;" horiz-adv-x="1576" 
d="M-6 410l72 -0.00195312c6.66699 4 15 10.333 25 19s29.833 29.834 59.5 63.501s57 70.334 82 110.001s51.833 92.5 80.5 158.5s50.667 136.667 66 212l98 461h1127l-218 -1024h154l-145 -686h-461l59 276h-624l-60 -276h-459zM829 972.998
c-24.667 -118.667 -60.167 -224.833 -106.5 -318.5s-86.5 -157.5 -120.5 -191.5l-49 -53h373l131 614h-215z" />
    <glyph glyph-name="uni0415" unicode="&#x415;" horiz-adv-x="1392" 
d="M602 379h696l-79 -379h-1158l304 1434h1136l-80 -379h-676l-32 -154h512l-74 -348h-512z" />
    <glyph glyph-name="uni0416" unicode="&#x416;" horiz-adv-x="2222" 
d="M788 0l86 406l-53 92l-413 -498h-531l711 846l-363 588h490l280 -461l97 461h460l-88 -420l424 420h535l-619 -609l353 -825h-492l-217 502l-117 -115l-82 -387h-461z" />
    <glyph glyph-name="uni0417" unicode="&#x417;" horiz-adv-x="1290" 
d="M1040 737c5.33301 -2.66699 12.168 -6.33008 20.501 -10.9971s23.5 -15.5 45.5 -32.5s41.167 -35.833 57.5 -56.5s31.333 -48.334 45 -83.001s20.5 -72 20.5 -112c0 -131.333 -57.333 -244.666 -172 -339.999s-263 -143 -445 -143c-87.333 0 -169.166 8.5 -245.499 25.5
s-138 37.5 -185 61.5s-88.333 48 -124 72s-60.167 44.667 -73.5 62l-23 25l311 258c9.33301 -8 22.333 -18.5 39 -31.5s49.834 -30.167 99.501 -51.5s99.167 -32 148.5 -32c56 0 97 12 123 36s39 52.333 39 85c0 56 -46.333 84 -139 84h-158l76 358h153
c48 0 85.667 9.33301 113 28s41 41.667 41 69c0 52 -39 77.667 -117 77c-36.667 0 -74.834 -8.16699 -114.501 -24.5s-70.5 -32.5 -92.5 -48.5l-30 -25l-207 273c5.33301 5.33301 13.166 12.666 23.499 21.999s33.5 26.666 69.5 51.999s74.167 47.166 114.5 65.499
s92.666 35.5 156.999 51.5s129.833 24 196.5 24c160 0 286.667 -38 380 -114s140 -163 140 -261c-1.33301 -165.333 -97 -286.333 -287 -363z" />
    <glyph glyph-name="uni0418" unicode="&#x418;" horiz-adv-x="1699" 
d="M365 1434h460l-145 -686l668 686h409l-303 -1434h-461l146 686l-668 -686h-410z" />
    <glyph glyph-name="uni0419" unicode="&#x419;" horiz-adv-x="1699" 
d="M1102 1567c-112 0 -200.832 35.833 -266.499 107.5s-88.834 158.5 -69.501 260.5h285c-6.66699 -34 -1.5 -61.167 15.5 -81.5s41.167 -30.5 72.5 -30.5c64 0 103.333 37.333 118 112h287c-18 -105.333 -66.5 -193 -145.5 -263s-177.833 -105 -296.5 -105zM365.001 1434
h460l-145 -686l668 686h409l-303 -1434h-461l146 686l-668 -686h-410z" />
    <glyph glyph-name="uni041A" unicode="&#x41a;" horiz-adv-x="1536" 
d="M825 1434l-100 -469l473 469h539l-617 -607l355 -827h-502l-211 500l-168 -166l-72 -334h-461l304 1434h460z" />
    <glyph glyph-name="uni041B" unicode="&#x41b;" horiz-adv-x="1617" 
d="M1675 1434l-303 -1434h-461l217 1024h-245c-57.333 -273.333 -125 -489.5 -203 -648.5s-160.667 -268.167 -248 -327.5s-191 -89 -311 -89c-39.333 0 -76.833 3.5 -112.5 10.5s-61.834 13.833 -78.501 20.5l-22 10l88 420c26 -6.66699 52.667 -10 80 -10
c35.333 0 67.333 7.5 96 22.5s57.667 41.833 87 80.5s57.333 96.334 84 173.001s52.334 171.667 77.001 285l98 463h1157z" />
    <glyph glyph-name="uni041C" unicode="&#x41c;" horiz-adv-x="1925" 
d="M1380 768l-440 -440l-256 440l-162 -768h-461l304 1434h389l290 -512l508 512h430l-303 -1434h-460z" />
    <glyph glyph-name="uni041D" unicode="&#x41d;" horiz-adv-x="1658" 
d="M1716 1434l-303 -1434h-461l111 522h-430l-111 -522h-461l304 1434h460l-106 -502h430l106 502h461z" />
    <glyph glyph-name="uni041E" unicode="&#x41e;" horiz-adv-x="1761" 
d="M977 1065c-101.333 0 -192.5 -39 -273.5 -117s-121.5 -169.333 -121.5 -274c0 -87.333 30 -160.333 90 -219s136.333 -88 229 -88c102.667 0 194.167 38.833 274.5 116.5s120.5 169.167 120.5 274.5c0 86 -30 158.667 -90 218s-136.333 89 -229 89zM1765 786
c0 -143.333 -41.168 -279.167 -123.501 -407.5s-192.5 -230.333 -330.5 -306s-284.333 -113.5 -439 -113.5c-225.333 0 -408.166 66.833 -548.499 200.5s-210.5 295.5 -210.5 485.5c0 146 40.833 282.833 122.5 410.5s191.5 229.5 329.5 305.5s285.667 114 443 114
c225.333 0 407.833 -67.333 547.5 -202s209.5 -297 209.5 -487z" />
    <glyph glyph-name="uni041F" unicode="&#x41f;" horiz-adv-x="1648" 
d="M1706 1434l-303 -1434h-461l217 1024h-420l-217 -1024h-461l304 1434h1341z" />
    <glyph glyph-name="uni0420" unicode="&#x420;" horiz-adv-x="1443" 
d="M365 1434h638.999c142 0 259.333 -43.833 352 -131.5s139 -192.167 139 -313.5c0 -176 -59.667 -320 -179 -432s-272.666 -168 -459.999 -168h-252l-82 -389h-461zM919.999 1024h-181l-49 -225h189c39.333 0 73.333 13 102 39s43 56.667 43 92
c0 26 -9.5 48.167 -28.5 66.5s-44.167 27.5 -75.5 27.5z" />
    <glyph glyph-name="uni0421" unicode="&#x421;" horiz-adv-x="1540" 
d="M1006 1065c-112 0 -210.329 -38.5049 -294.996 -115.505s-127 -172.833 -127 -287.5c0 -80.667 29.667 -149.667 89 -207s132.666 -86 219.999 -86c64 0 126 14.333 186 43s104.333 56.667 133 84l41 43l228 -310c-5.33301 -6.66699 -13.833 -16.167 -25.5 -28.5
s-38 -34.166 -79 -65.499s-84.667 -58.666 -131 -81.999s-106.833 -44.833 -181.5 -64.5s-152.334 -29.5 -233.001 -29.5c-203.333 0 -373.5 65.167 -510.5 195.5s-205.5 282.833 -205.5 457.5c0 241.333 90 445.5 270 612.5s403.333 250.5 670 250.5
c78 0 152.333 -10 223 -30s128.667 -44 174 -72s84.666 -56 117.999 -84s57.333 -52 72 -72l23 -29l-330 -281c-2.66699 4 -7.33398 9.83301 -14.001 17.5s-21 20.334 -43 38.001s-44.833 33.334 -68.5 47.001s-54 26.334 -91 38.001s-74.5 17.5 -112.5 17.5z" />
    <glyph glyph-name="uni0422" unicode="&#x422;" horiz-adv-x="1300" 
d="M252 1434h1218l-88 -420h-378l-216 -1014h-460l215 1014h-379z" />
    <glyph glyph-name="uni0423" unicode="&#x423;" horiz-adv-x="1392" 
d="M676 1434l133 -522.999l309 523h506l-709 -1055c-180 -266 -388 -399 -624 -399c-36.667 0 -73.167 2.66699 -109.5 8s-63.5 10.666 -81.5 15.999l-26 6l84 400c42 -13.333 87 -20.333 135 -21c42 0 80.5 9.5 115.5 28.5s59.167 38.167 72.5 57.5l21 27l-289 932h463z
" />
    <glyph glyph-name="uni0424" unicode="&#x424;" horiz-adv-x="1873" 
d="M815 952c-68 -6.66699 -126.001 -33.167 -174.001 -79.5s-72 -103.833 -72 -172.5c0 -46.667 14.333 -87 43 -121s66.334 -53 113.001 -57zM1065 -41l-461 0.000976562l37 174c-166.667 9.33301 -298.167 62.166 -394.5 158.499s-144.5 216.833 -144.5 361.5
c0 190 76.833 349.5 230.5 478.5s342.5 198.833 566.5 209.5l33 154h461l-33 -154c165.333 -9.33301 296.333 -62.833 393 -160.5s145 -218.834 145 -363.501c0 -190 -76.667 -348.667 -230 -476s-342 -196.666 -566 -207.999zM1186 522.001
c68 6.66699 126.001 33.999 174.001 81.999s72 106 72 174c0 46.667 -14.333 86.334 -43 119.001s-66.334 51 -113.001 55z" />
    <glyph glyph-name="uni0425" unicode="&#x425;" horiz-adv-x="1464" 
d="M750 451l-344 -451h-519l609 750l-265 684h482l125 -390l286 390h521l-555 -689l292 -745h-483z" />
    <glyph glyph-name="uni0426" unicode="&#x426;" horiz-adv-x="1658" 
d="M61 0l304 1434h460l-217 -1024h400l217 1024h461l-218 -1024h154l-145 -686h-461l59 276h-1014z" />
    <glyph glyph-name="uni0427" unicode="&#x427;" horiz-adv-x="1566" 
d="M805 1434l-94 -450.999c-4 -16.667 -6 -32.334 -6 -47.001c0 -42 13.5 -75.333 40.5 -100s64.5 -37 112.5 -37c27.333 0 56.333 4 87 12s54.334 16.333 71.001 25l24 14l123 584h461l-303 -1434h-461l92 440c-70.667 -34 -157.334 -51 -260.001 -51
c-143.333 0 -256 37.5 -338 112.5s-123 180.167 -123 315.5c0 50.667 6.33301 106 19 166l94 451h461z" />
    <glyph glyph-name="uni0428" unicode="&#x428;" horiz-adv-x="2242" 
d="M2300 1434l-303 -1434h-1936l304 1434h460l-217 -1024h277l217 1024h461l-217 -1024h276l217 1024h461z" />
    <glyph glyph-name="uni0429" unicode="&#x429;" horiz-adv-x="2273" 
d="M2300 1434l-217 -1024h153l-145 -684h-461l60 274h-1629l304 1434h460l-217 -1024h277l217 1024h461l-217 -1024h276l217 1024h461z" />
    <glyph glyph-name="uni042A" unicode="&#x42a;" horiz-adv-x="1566" 
d="M891 0l-675.999 0.000976562l219 1034h-307l84 400h768l-82 -390h178c143.333 0 257.666 -43.333 342.999 -130s128 -191.334 128 -314.001c0 -176 -61.667 -320 -185 -432s-280 -168 -470 -168zM762.001 410.001h168c39.333 0 73.333 12.5 102 37.5s43 54.833 43 89.5
c0 30 -9.5 53.833 -28.5 71.5s-44.833 26.5 -77.5 26.5h-160z" />
    <glyph glyph-name="uni042B" unicode="&#x42b;" horiz-adv-x="2099" 
d="M2157 1434l-304 -1434h-460l303 1434h461zM61 0l304.001 1434h460l-82 -390h179c143.333 0 257.666 -43.333 342.999 -130s128 -191.334 128 -314.001c0 -176 -61.833 -320 -185.5 -432s-280.5 -168 -470.5 -168h-676zM776.001 410.001c39.333 0 73.5 12.5 102.5 37.5
s43.5 54.833 43.5 89.5c0 30 -9.66699 53.833 -29 71.5s-45.333 26.5 -78 26.5h-160l-47 -225h168z" />
    <glyph glyph-name="uni042C" unicode="&#x42c;" horiz-adv-x="1433" 
d="M758 0l-696.999 0.000976562l304 1434h460l-82 -390h199c143.333 0 257.666 -43.333 342.999 -130s128 -191.334 128 -314.001c0 -176 -61.667 -320 -185 -432s-280 -168 -470 -168zM608.001 410.001h189c39.333 0 73.333 12.5 102 37.5s43 54.833 43 89.5
c0 30 -9.5 53.833 -28.5 71.5s-44.833 26.5 -77.5 26.5h-181z" />
    <glyph glyph-name="uni042D" unicode="&#x42d;" horiz-adv-x="1540" 
d="M649 358c70.667 0 138.166 16.499 202.499 49.499s116.5 78.167 156.5 135.5h-510l73 348h500c-20.667 57.333 -57.5 102.333 -110.5 135s-116.5 49 -190.5 49c-64 0 -126.833 -13.667 -188.5 -41s-106.834 -54.666 -135.501 -81.999l-45 -41l-215 287
c6.66699 6.66699 16.167 16.5 28.5 29.5s39 35.167 80 66.5s84.833 59.333 131.5 84s105.834 47 177.501 67s144.834 30 219.501 30c200.667 0 371 -65 511 -195s210 -287 210 -471c0 -236 -88.667 -436.667 -266 -602s-398 -248 -662 -248
c-79.333 0 -155 9.83301 -227 29.5s-131.333 43.5 -178 71.5s-87.334 56 -122.001 84s-60.334 52.333 -77.001 73l-22 29l307 264c9.33301 -10.667 23.333 -24.667 42 -42s58.334 -40 119.001 -68s124.334 -42 191.001 -42z" />
    <glyph glyph-name="uni042E" unicode="&#x42e;" horiz-adv-x="2293" 
d="M1460 -41c-174.667 0 -326.833 51.834 -456.5 155.501s-206.834 239.5 -231.501 407.5h-139l-111 -522h-461l304 1434h460l-106 -502h106c64 161.333 168.833 292.166 314.5 392.499s301.834 150.5 468.501 150.5c208.667 0 376.5 -63.167 503.5 -189.5
s190.5 -283.833 190.5 -472.5c0 -155.333 -40.333 -299.333 -121 -432s-185.5 -236.167 -314.5 -310.5s-264.5 -111.5 -406.5 -111.5zM1487 369.001c96.667 0 178.5 44.001 245.5 132.001s100.5 183.667 100.5 287c0 83.333 -23.5 150.666 -70.5 201.999
s-106.833 77 -179.5 77c-86 0 -165.167 -40 -237.5 -120s-108.5 -180 -108.5 -300c0 -83.333 23.5 -150.5 70.5 -201.5s106.833 -76.5 179.5 -76.5z" />
    <glyph glyph-name="uni042F" unicode="&#x42f;" horiz-adv-x="1495" 
d="M1552 1434l-302.999 -1434h-461l86 410h-122l-299 -410h-502l379 502c-10.667 9.33301 -24.334 23.166 -41.001 41.499s-38.667 57.666 -66 117.999s-41 123.166 -41 188.499c0 168 61.167 307.333 183.5 418s275.5 166 459.5 166h727zM780.001 1024
c-35.333 0 -65.333 -10.499 -90 -31.499s-37 -50.833 -37 -89.5c0 -24.667 9.66699 -44.834 29 -60.501s44 -23.5 74 -23.5h207l43 205h-226z" />
    <glyph glyph-name="uni0430" unicode="&#x430;" horiz-adv-x="1312" 
d="M614 348c50.667 0 93.833 17.834 129.5 53.501s53.5 80.167 53.5 133.5c0 35.333 -12 64.166 -36 86.499s-55 33.5 -93 33.5c-48 0 -89.333 -17.333 -124 -52s-52 -80 -52 -136c0 -34 11.5 -62.333 34.5 -85s52.167 -34 87.5 -34zM869.999 870.001l29.002 133.998h410
l-213 -1004h-410l23 113c-8 -9.33301 -19.333 -21.666 -34 -36.999s-47.5 -35.166 -98.5 -59.499s-105.167 -36.5 -162.5 -36.5c-104 0 -189.167 38.833 -255.5 116.5s-99.5 175.167 -99.5 292.5c0 186 54.667 338.333 164 457s235.666 178 378.999 178
c36.667 0 71.167 -5.16699 103.5 -15.5s58 -23.333 77 -39s35.667 -31 50 -46s24.166 -27.833 29.499 -38.5z" />
    <glyph glyph-name="uni0431" unicode="&#x431;" horiz-adv-x="1259" 
d="M1206 549c0 -164 -58.332 -301.665 -174.999 -412.998s-261.667 -167 -435 -167c-148.667 0 -270.167 42 -364.5 126s-141.5 199.667 -141.5 347c0 68 7.66699 136.333 23 205c52 243.333 133.167 422.333 243.5 537s255.166 191 434.499 229
c69.333 15.333 136 33.166 200 53.499s110.333 36.833 139 49.5l46 20l118 -307c-91.333 -48 -223.666 -92.333 -396.999 -133c-105.333 -24.667 -184.833 -55.5 -238.5 -92.5s-88.834 -81.5 -105.501 -133.5c6.66699 6.66699 17.167 15.167 31.5 25.5
s44.333 24.166 90 41.499s93.167 26 142.5 26c109.333 0 201.5 -41 276.5 -123s112.5 -179 112.5 -291zM664.001 604.002c-38 0 -72.168 -15.333 -102.501 -46s-45.5 -65.667 -45.5 -105c0 -31.333 9.83301 -58.333 29.5 -81s44.834 -34 75.501 -34
c42 0 78.333 15.333 109 46s46 66.667 46 108c0 30 -10.5 56.167 -31.5 78.5s-47.833 33.5 -80.5 33.5z" />
    <glyph glyph-name="uni0432" unicode="&#x432;" horiz-adv-x="1157" 
d="M223 1004l533 -0.000976562c118.667 0 209 -24.667 271 -74s93 -108 93 -176c0 -35.333 -6.5 -68.166 -19.5 -98.499s-29 -54 -48 -71s-37.667 -32 -56 -45s-33.833 -22.167 -46.5 -27.5l-20 -6c4 -1.33301 9 -3.33301 15 -6s16.833 -9.16699 32.5 -19.5
s29.667 -22 42 -35s23.666 -30.833 33.999 -53.5s15.5 -46 15.5 -70c0 -95.333 -40.667 -172.833 -122 -232.5s-195.666 -89.5 -342.999 -89.5h-594zM610 388.999h-117.999l-27 -123h121c23.333 0 42.5 6.5 57.5 19.5s22.5 32.5 22.5 58.5
c-0.666992 30 -19.334 45 -56.001 45zM645.001 634.999c15.333 0 29.833 5.83203 43.5 17.499s20.5 26.834 20.5 45.501c0 26 -15 39 -45 39h-99l-22 -102h102z" />
    <glyph glyph-name="uni0433" unicode="&#x433;" horiz-adv-x="1040" 
d="M319 664l-145.001 195.998c4 4 9.83301 10.167 17.5 18.5s24.834 22.333 51.501 42s55.334 37.334 86.001 53.001s71.167 29.667 121.5 42s103.5 18.5 159.5 18.5c121.333 0 219.333 -28.333 294 -85s112 -123 112 -199c0 -54.667 -12.333 -102.834 -37 -144.501
s-55.5 -73.5 -92.5 -95.5s-76.5 -41.833 -118.5 -59.5s-81.5 -31.667 -118.5 -42s-67.833 -22.666 -92.5 -36.999s-37 -30.166 -37 -47.499c0 -31.333 26 -47.333 78 -48c28.667 0 59.667 7.66699 93 23s59.666 30.333 78.999 45l29 23l141 -193
c-4 -5.33301 -10.5 -12.833 -19.5 -22.5s-29.167 -26 -60.5 -49s-65 -43.5 -101 -61.5s-83.5 -34.5 -142.5 -49.5s-119.833 -22.5 -182.5 -22.5c-126.667 0 -228 27.667 -304 83s-114 121.333 -114 198c0 61.333 17.167 114.833 51.5 160.5s76 80.5 125 104.5
s97.833 44.5 146.5 61.5s90 33.333 124 49s51 32.5 51 50.5c0 27.333 -20.333 41 -61 41c-20.667 0 -42 -4.5 -64 -13.5s-39 -18.167 -51 -27.5z" />
    <glyph glyph-name="uni0434" unicode="&#x434;" horiz-adv-x="1294" 
d="M881 856c-53.333 226.667 -219.999 371.331 -499.999 433.998l156 297c471.333 -113.333 706.666 -376.666 705.999 -789.999c0 -250 -69.333 -449.5 -208 -598.5s-309.667 -223.5 -513 -223.5c-135.333 0 -247.333 42.333 -336 127s-133 184.334 -133 299.001
c0 157.333 55 290.333 165 399s239.333 163 388 163c60 0 113 -9 159 -27s76.333 -35.667 91 -53zM596.001 337.997c40.667 0 76.834 15 108.501 45s47.5 66.333 47.5 109c0 30 -11 56.167 -33 78.5s-48.667 33.5 -80 33.5c-36.667 0 -70.334 -15.333 -101.001 -46
s-46 -65.667 -46 -105c0 -31.333 10.167 -58.333 30.5 -81s44.833 -34 73.5 -34z" />
    <glyph glyph-name="uni0435" unicode="&#x435;" horiz-adv-x="1208" 
d="M1120 410l-643 -0.000976562c30 -75.333 95 -113 195 -113c28.667 0 59 5.83301 91 17.5s57.667 23.5 77 35.5l26 19l115 -267c-10.667 -9.33301 -26.667 -21.5 -48 -36.5s-66.5 -34.833 -135.5 -59.5s-139.5 -37 -211.5 -37c-161.333 0 -290.5 46.5 -387.5 139.5
s-145.5 203.5 -145.5 331.5c0 165.333 62.833 305.666 188.5 420.999s275.834 173 450.501 173c135.333 0 249.833 -39.833 343.5 -119.5s140.5 -177.5 140.5 -293.5c0 -15.333 -1.16699 -31.166 -3.5 -47.499s-4.83301 -31.333 -7.5 -45s-6 -27 -10 -40
s-7.66699 -24.333 -11 -34s-6.83301 -18.167 -10.5 -25.5s-6.83398 -12.666 -9.50098 -15.999s-4 -4.33301 -4 -3zM653 726.999c-74 0 -127.668 -37.667 -161.001 -113h282c1.33301 31.333 -9.66699 58 -33 80s-52.666 33 -87.999 33z" />
    <glyph glyph-name="uni0436" unicode="&#x436;" horiz-adv-x="1740" 
d="M623 289l-31 47l-260 -336h-445l478 590l-246 414h430l166 -285l61 285h410l-58 -263l258 263h465l-434 -435l228 -569h-414l-129 336l-74 -68l-55 -268h-410z" />
    <glyph glyph-name="uni0437" unicode="&#x437;" horiz-adv-x="1013" 
d="M989 754c0 -65.333 -24.833 -120.665 -74.5 -165.998s-110.167 -76 -181.5 -92c5.33301 -1.33301 11.833 -3.5 19.5 -6.5s21.667 -9.83301 42 -20.5s38.333 -23.167 54 -37.5s30 -33.833 43 -58.5s19.5 -51.334 19.5 -80.001c0 -86 -41.5 -161.5 -124.5 -226.5
s-205.167 -97.5 -366.5 -97.5c-62.667 0 -122 7.16699 -178 21.5s-101.5 31.5 -136.5 51.5s-65.167 39.833 -90.5 59.5s-43.333 36.5 -54 50.5l-16 22l219 188c4 -6.66699 10.833 -14.667 20.5 -24s31.167 -22 64.5 -38s69 -24 107 -24c35.333 0 63.333 7.16699 84 21.5
s31 30.5 31 48.5c0 35.333 -30 53 -90 53h-82l47 226h82c27.333 0 49.833 5.66699 67.5 17s26.5 24.666 26.5 39.999c0 30 -24.333 45 -73 45c-27.333 0 -55.833 -5.16699 -85.5 -15.5s-51.834 -20.833 -66.501 -31.5l-23 -14l-155 196l18.5 18.5
c8.33301 8.33301 27.166 22.333 56.499 42s60.333 37 93 52s76.334 28.667 131.001 41s111.334 18.5 170.001 18.5c121.333 0 218.5 -29 291.5 -87s109.5 -122.333 109.5 -193z" />
    <glyph glyph-name="uni0438" unicode="&#x438;" 
d="M645 0l23.0039 106c-2.66699 -4 -6.83398 -8.66699 -12.501 -14s-17.334 -15.166 -35.001 -29.499s-36.834 -27.333 -57.501 -39s-47.667 -21.834 -81 -30.501s-67.666 -13 -102.999 -13c-90 0 -162.333 26.5 -217 79.5s-82 126.833 -82 221.5c0 34 4 71.333 12 112
l131 611h410l-113 -523c-6.66699 -31.333 -2.83398 -57.833 11.499 -79.5s39.166 -32.5 74.499 -32.5c78 0 126.667 44.333 146 133l106 502h410l-213 -1004h-410z" />
    <glyph glyph-name="uni0439" unicode="&#x439;" 
d="M645 0l23.0039 106c-2.66699 -4 -6.83398 -8.66699 -12.501 -14s-17.334 -15.166 -35.001 -29.499s-36.834 -27.333 -57.501 -39s-47.667 -21.834 -81 -30.501s-67.666 -13 -102.999 -13c-90 0 -162.333 26.5 -217 79.5s-82 126.833 -82 221.5c0 34 4 71.333 12 112
l131 611h410l-113 -523c-6.66699 -31.333 -2.83398 -57.833 11.499 -79.5s39.166 -32.5 74.499 -32.5c78 0 126.667 44.333 146 133l106 502h410l-213 -1004h-410zM758.004 1116c-108 0 -195.834 34.167 -263.501 102.5s-91.167 150.166 -70.5 245.499h287
c-5.33301 -30 -1.66602 -52.833 11.001 -68.5s32 -23.5 58 -23.5c52 0 83.333 30.667 94 92h287c-18 -101.333 -62 -184.666 -132 -249.999s-160.333 -98 -271 -98z" />
    <glyph glyph-name="uni043A" unicode="&#x43a;" horiz-adv-x="1208" 
d="M1319 1004l-434 -433l227 -571h-416l-129 334l-96 -90l-51 -244h-410l213 1004h410l-62 -287l281 287h467z" />
    <glyph glyph-name="uni043B" unicode="&#x43b;" horiz-adv-x="1228" 
d="M326 1004l901 0.000976562l-213 -1004h-410l135 645h-123c-52 -244.667 -121.167 -418.5 -207.5 -521.5s-192.5 -154.5 -318.5 -154.5c-31.333 0 -63 2.83301 -95 8.5s-56.333 10.5 -73 14.5l-24 8l77 369c19.333 -6.66699 39.333 -10.334 60 -11.001
c52 0 96 29.5 132 88.5s74 176.5 114 352.5z" />
    <glyph glyph-name="uni043C" unicode="&#x43c;" horiz-adv-x="1413" 
d="M883 451l-234 -236l-135 236l-94 -451h-410l213 1004h330l180 -308l311 308h367l-213 -1004h-410z" />
    <glyph glyph-name="uni043D" unicode="&#x43d;" horiz-adv-x="1259" 
d="M489 328l-69 -328h-410l213 1004h410l-68 -318h215l68 318h409l-213 -1004h-409l70 328h-216z" />
    <glyph glyph-name="uni043E" unicode="&#x43e;" 
d="M655 655c-45.333 0 -84.333 -17.333 -117 -52s-49 -76 -49 -124c0 -38 12 -69.333 36 -94s56 -37 96 -37c44 0 82.5 16.833 115.5 50.5s49.5 76.167 49.5 127.5c0 38 -12 69 -36 93s-55.667 36 -95 36zM1223 553c0 -157.333 -63.167 -293.999 -189.5 -409.999
s-274.833 -174 -445.5 -174c-157.333 0 -285.833 47.5 -385.5 142.5s-149.5 209.5 -149.5 343.5c0 155.333 63.167 290.666 189.5 405.999s275.5 173 447.5 173c157.333 0 285.5 -47 384.5 -141s148.5 -207.333 148.5 -340z" />
    <glyph glyph-name="uni043F" unicode="&#x43f;" 
d="M633 1004l-24.998 -112.998c8 9.33301 20 21.5 36 36.5s49.5 34.833 100.5 59.5s103.833 37 158.5 37c87.333 0 157.666 -26.667 210.999 -80s80 -127 80 -221c0 -36.667 -4 -76.334 -12 -119.001l-127 -604h-410l109 512c5.33301 31.333 1.16602 59.666 -12.501 84.999
s-37.667 38 -72 38s-65.833 -15.667 -94.5 -47s-47.667 -70.333 -57 -117l-98 -471h-410l213 1004h410z" />
    <glyph glyph-name="uni0440" unicode="&#x440;" horiz-adv-x="1310" 
d="M705 655c-50.667 0 -93.833 -17.334 -129.5 -52.001s-53.5 -78.667 -53.5 -132c0 -35.333 12 -64.666 36 -87.999s55 -35 93 -35c48 0 89.333 17.5 124 52.5s52 80.5 52 136.5c0 34 -11.5 62.167 -34.5 84.5s-52.167 33.5 -87.5 33.5zM446.001 132.999l-118.001 -563.001
h-410l305 1434h410l-25 -113c8 9.33301 19.333 21.5 34 36.5s47.834 34.833 99.501 59.5s106.167 37 163.5 37c104 0 189.167 -38.833 255.5 -116.5s99.5 -175.5 99.5 -293.5c0 -186 -53.667 -338.167 -161 -456.5s-230 -177.5 -368 -177.5
c-60 0 -113.833 12.833 -161.5 38.5s-80.5 50.834 -98.5 75.501z" />
    <glyph glyph-name="uni0441" unicode="&#x441;" horiz-adv-x="1116" 
d="M53 432c0 166.667 65.999 308.667 197.999 426s287.333 176 466 176c57.333 0 111.5 -7.5 162.5 -22.5s93 -33 126 -54s61.333 -41.833 85 -62.5s41.167 -38.334 52.5 -53.001l14 -23l-291 -237c-4 6.66699 -10 14.334 -18 23.001s-27.167 21 -57.5 37
s-61.833 24 -94.5 24c-57.333 0 -105.666 -18.5 -144.999 -55.5s-59 -82.833 -59 -137.5c0 -38 13.5 -70 40.5 -96s62.5 -39 106.5 -39c32.667 0 65 7.5 97 22.5s55.667 30.167 71 45.5l22 22l205 -258c-4 -5.33301 -10 -12.5 -18 -21.5s-26.833 -25 -56.5 -48
s-61.5 -43.5 -95.5 -61.5s-78.333 -34.167 -133 -48.5s-112 -21.5 -172 -21.5c-143.333 0 -263.5 46.5 -360.5 139.5s-145.5 200.833 -145.5 323.5z" />
    <glyph glyph-name="uni0442" unicode="&#x442;" horiz-adv-x="1843" 
d="M1122 471l-98.001 -471.002h-410l109 512c18 75.333 -5.33301 113 -70 113c-32.667 0 -61 -14 -85 -42s-40.667 -65.333 -50 -112l-98 -471h-410l213 1004h410l-27 -121c8 10.667 19.333 23.834 34 39.501s45.834 36.5 93.501 62.5s97.5 39 149.5 39
c60 0 110.5 -13.667 151.5 -41s66.167 -54.666 75.5 -81.999l16 -39c10.667 12 25.667 27 45 45s60 42 122 72s125.333 45 190 45c87.333 0 156.833 -25.333 208.5 -76s77.5 -123 77.5 -217c0 -42 -4.66699 -84.333 -14 -127l-127 -604h-409l108 512
c18 75.333 -5.33301 113 -70 113c-32.667 0 -61 -14 -85 -42s-40.667 -65.333 -50 -112z" />
    <glyph glyph-name="uni0443" unicode="&#x443;" horiz-adv-x="1126" 
d="M76 -51c62.667 0 119.999 32 171.999 96l-146 959h398l49 -529l264 529h434l-585 -1014c-82 -142 -165.667 -247.5 -251 -316.5s-180.666 -103.5 -285.999 -103.5c-38 0 -75.833 3.33301 -113.5 10s-66.167 13.667 -85.5 21l-28 10l73 358
c29.333 -13.333 64.333 -20 105 -20z" />
    <glyph glyph-name="uni0444" unicode="&#x444;" horiz-adv-x="1617" 
d="M578 311l75.001 359.001c-44 -2.66699 -86 -25.5 -126 -68.5s-60 -93.833 -60 -152.5c0 -38 10.667 -69.833 32 -95.5s47.666 -39.834 78.999 -42.501zM901.001 -40.999l-82 -388.999h-409l82 389c-128.667 12 -234 60.667 -316 146s-123 187 -123 305
c0 162.667 65.167 301.167 195.5 415.5s287.166 180.5 470.499 198.5l86 410h409l-86 -410c128.667 -12 234.334 -61 317.001 -147s124 -188 124 -306c0 -162.667 -66 -300.834 -198 -414.501s-288.667 -179.5 -470 -197.5zM1042 670.002l-75.001 -359.001
c42 2.66699 83.5 25.5 124.5 68.5s61.5 93.167 61.5 150.5c0 39.333 -10.667 71.833 -32 97.5s-47.666 39.834 -78.999 42.501z" />
    <glyph glyph-name="uni0445" unicode="&#x445;" horiz-adv-x="1126" 
d="M604 0l-86 256l-186 -256h-445l404 514l-180 490h421l68 -236l164 236h453l-390 -494l187 -510h-410z" />
    <glyph glyph-name="uni0446" unicode="&#x446;" horiz-adv-x="1300" 
d="M1171 358l71.9951 0.00195312l-123 -573h-409l63 287c-5.33301 9.33301 -9.66602 19.166 -12.999 29.499s-5.66602 18.166 -6.99902 23.499v8c-9.33301 -10.667 -23.666 -24.5 -42.999 -41.5s-60.333 -39.833 -123 -68.5s-127.667 -43 -195 -43
c-92.667 0 -167.667 26.833 -225 80.5s-86 129.167 -86 226.5c0 34 4 71.333 12 112l129 605h410l-109 -512c-2.66699 -9.33301 -4 -22.333 -4 -39c0 -56 28.667 -84 86 -84c32.667 0 61.334 14 86.001 42s42.334 65 53.001 111l103 482h409l-124 -584
c-1.33301 -5.33301 -2.33301 -12.333 -3 -21c0 -27.333 13.667 -41 41 -41z" />
    <glyph glyph-name="uni0447" unicode="&#x447;" horiz-adv-x="1187" 
d="M563 0l58.002 274.001c-68 -32.667 -139.667 -49 -215 -49c-90 0 -161.667 26 -215 78s-80 123 -80 213c0 35.333 4 73 12 113l80 375h409l-67 -318c-2.66699 -13.333 -4 -23 -4 -29c0 -42 23 -63 69 -63c15.333 0 30.166 2.66699 44.499 8s24.166 10.666 29.499 15.999
l10 7l82 379h410l-213 -1004h-410z" />
    <glyph glyph-name="uni0448" unicode="&#x448;" horiz-adv-x="1843" 
d="M729 532l98 471.999h410l-109 -512c-18 -75.333 5.33301 -113 70 -113c32.667 0 61 14 85 42s40.667 65 50 111l99 472h409l-213 -1004h-409l26 121c-8 -10.667 -19.167 -24 -33.5 -40s-45.333 -36.833 -93 -62.5s-97.5 -38.5 -149.5 -38.5
c-60 0 -110.5 13.5 -151.5 40.5s-66.5 54.167 -76.5 81.5l-16 39c-10.667 -12 -25.667 -26.833 -45 -44.5s-60 -41.5 -122 -71.5s-125 -45 -189 -45c-87.333 0 -157 25.167 -209 75.5s-78 122.5 -78 216.5c0 42 4.66699 84.333 14 127l127 605h410l-109 -512
c-18 -75.333 5.33301 -113 70 -113c32.667 0 61 13.833 85 41.5s40.667 64.834 50 111.501z" />
    <glyph glyph-name="uni0449" unicode="&#x449;" horiz-adv-x="1884" 
d="M1841 1004l-124.999 -583.998c-1.33301 -5.33301 -2 -12.333 -2 -21c0 -27.333 14.333 -41 43 -41h70l-123 -573h-410l64 287c-5.33301 9.33301 -9.83301 19.166 -13.5 29.499s-5.5 18.166 -5.5 23.499l-2 8c-10.667 -10.667 -25.834 -24.5 -45.501 -41.5
s-61.667 -39.833 -126 -68.5s-129.833 -43 -196.5 -43c-60 0 -110.5 13.5 -151.5 40.5s-66.5 54.167 -76.5 81.5l-16 39c-10.667 -12 -25.667 -26.833 -45 -44.5s-60 -41.5 -122 -71.5s-125 -45 -189 -45c-87.333 0 -157 25.167 -209 75.5s-78 122.5 -78 216.5
c0 42 4.66699 84.333 14 127l127 605h410l-109 -512c-18 -75.333 5.33301 -113 70 -113c32.667 0 61 14 85 42s40.667 65 50 111l98 472h410l-109 -512c-18 -75.333 5.33301 -113 70 -113c32.667 0 61 14 85 42s40.667 65 50 111l99 472h409z" />
    <glyph glyph-name="uni044A" unicode="&#x44a;" horiz-adv-x="1198" 
d="M1130 426c0 -125.333 -46.667 -227.667 -140 -307s-208.333 -119 -345 -119h-532l131 625h-205l82 379h614l-59 -277h82c112 0 202 -29 270 -87s102 -129.333 102 -214zM573 296.999l56 0.000976562c23.333 0 43.5 8.16699 60.5 24.5s25.5 36.166 25.5 59.499
c0 18 -5.83301 32.333 -17.5 43s-27.167 16 -46.5 16h-47z" />
    <glyph glyph-name="uni044B" unicode="&#x44b;" horiz-adv-x="1669" 
d="M1667 1004l-213 -1004h-410l213 1004h410zM471 297l54.999 0.000976562c23.333 0 43.5 8.16699 60.5 24.5s25.5 36.166 25.5 59.499c0 18 -5.66699 32.333 -17 43s-26.666 16 -45.999 16h-47zM542.999 0.000976562l-533 -0.000976562l213 1004h410l-60 -277h82
c112 0 202.167 -29 270.5 -87s102.5 -129.333 102.5 -214c0 -125.333 -46.667 -227.666 -140 -306.999s-208.333 -119 -345 -119z" />
    <glyph glyph-name="uni044C" unicode="&#x44c;" horiz-adv-x="1116" 
d="M471 297l76 0.000976562c23.333 0 43.5 8.16699 60.5 24.5s25.5 36.166 25.5 59.499c0 18 -5.83301 32.333 -17.5 43s-27.167 16 -46.5 16h-67zM563 0.000976562l-552.999 -0.000976562l213 1004h410l-60 -277h103c112 0 202.167 -29 270.5 -87
s102.5 -129.333 102.5 -214c0 -125.333 -46.833 -227.666 -140.5 -306.999s-208.834 -119 -345.501 -119z" />
    <glyph glyph-name="uni044D" unicode="&#x44d;" horiz-adv-x="1116" 
d="M420 276c80.667 0 146.667 34.335 198 103.002h-313l51 246h306c-30 68 -86 102 -168 102c-44 0 -86.167 -9.16699 -126.5 -27.5s-69.833 -37.166 -88.5 -56.499l-29 -27l-148 203c4 5.33301 10.5 12.833 19.5 22.5s28.167 27.167 57.5 52.5s60.833 47.166 94.5 65.499
s77 35.333 130 51s108.167 23.5 165.5 23.5c142 0 260.833 -45 356.5 -135s143.5 -198.667 143.5 -326c0 -165.333 -63.833 -307.333 -191.5 -426s-284.167 -178 -469.5 -178c-57.333 0 -111.666 7.5 -162.999 22.5s-93.333 33.167 -126 54.5s-61 42.166 -85 62.499
s-40.667 38.166 -50 53.499l-17 22l230 199c5.33301 -8 13.166 -17.833 23.499 -29.5s34.833 -27.5 73.5 -47.5s80.667 -30 126 -30z" />
    <glyph glyph-name="uni044E" unicode="&#x44e;" horiz-adv-x="1751" 
d="M1092 -31c-114.667 0 -219.832 31.5 -315.499 94.5s-158.5 147.5 -188.5 253.5h-103l-65 -317h-410l213 1004h410l-70 -328h66c50.667 105.333 127.5 191.333 230.5 258s215.167 100 336.5 100c151.333 0 274.166 -44.667 368.499 -134s141.5 -200.333 141.5 -333
c0 -160 -60.667 -299.667 -182 -419s-265.333 -179 -432 -179zM1116 338c45.333 0 83.667 20.833 115 62.5s47 87.167 47 136.5c0 38 -11 69 -33 93s-49.333 36 -82 36c-38 0 -74.5 -18.5 -109.5 -55.5s-52.5 -84.167 -52.5 -141.5c0 -38 11 -69.333 33 -94
s49.333 -37 82 -37z" />
    <glyph glyph-name="uni044F" unicode="&#x44f;" horiz-adv-x="1157" 
d="M592 1004l563 -0.000976562l-213 -1004h-410l56 266h-37l-207 -266h-414l283 358c-8 6.66699 -18.167 15.834 -30.5 27.501s-28.5 37.667 -48.5 78s-30 82.5 -30 126.5c0 116 46.833 214 140.5 294s209.5 120 347.5 120zM692 706.999h-86
c-23.333 0 -43.5 -8.33301 -60.5 -25s-25.5 -37 -25.5 -61c0 -16.667 6.16699 -30.5 18.5 -41.5s27.5 -16.5 45.5 -16.5h78z" />
    <glyph glyph-name="uni0451" unicode="&#x451;" horiz-adv-x="1208" 
d="M1120 410l-643 -0.000976562c30 -75.333 95 -113 195 -113c28.667 0 59 5.83301 91 17.5s57.667 23.5 77 35.5l26 19l115 -267c-10.667 -9.33301 -26.667 -21.5 -48 -36.5s-66.5 -34.833 -135.5 -59.5s-139.5 -37 -211.5 -37c-161.333 0 -290.5 46.5 -387.5 139.5
s-145.5 203.5 -145.5 331.5c0 165.333 62.833 305.666 188.5 420.999s275.834 173 450.501 173c135.333 0 249.833 -39.833 343.5 -119.5s140.5 -177.5 140.5 -293.5c0 -15.333 -1.16699 -31.166 -3.5 -47.499s-4.83301 -31.333 -7.5 -45s-6 -27 -10 -40
s-7.66699 -24.333 -11 -34s-6.83301 -18.167 -10.5 -25.5s-6.83398 -12.666 -9.50098 -15.999s-4 -4.33301 -4 -3zM653 726.999c-74 0 -127.668 -37.667 -161.001 -113h282c1.33301 31.333 -9.66699 58 -33 80s-52.666 33 -87.999 33zM312.999 1284
c0 54.667 22.168 103.5 66.501 146.5s96.166 64.5 155.499 64.5c52 0 94 -17 126 -51s48 -75.667 48 -125c0 -56 -22.333 -105.5 -67 -148.5s-95.667 -64.5 -153 -64.5c-52 0 -94.333 17.333 -127 52s-49 76.667 -49 126zM807 1284c0 54.667 22.166 103.5 66.499 146.5
s95.833 64.5 154.5 64.5c52 0 94 -17 126 -51s48 -75.667 48 -125c0 -56 -22.167 -105.5 -66.5 -148.5s-95.166 -64.5 -152.499 -64.5c-52 0 -94.333 17.333 -127 52s-49 76.667 -49 126z" />
    <glyph glyph-name="uni0452" unicode="&#x452;" 
d="M754 1434l-23.001 -112.999h195l-78 -358h-195l-39 -187c2.66699 4 6.5 9.16699 11.5 15.5s16.333 17 34 32s36.834 28.667 57.501 41s47 23.166 79 32.499s65 14 99 14c91.333 0 165 -29.667 221 -89s84 -138 84 -236c0 -194 -58.667 -347 -176 -459
s-281.333 -168 -492 -168l84 389c49.333 0 87.666 10.333 114.999 31s41 48.667 41 84c0 16.667 -7.16699 30.667 -21.5 42s-33.166 17 -56.499 17c-42 0 -77.667 -14 -107 -42s-49 -65 -59 -111l-77 -369h-410l203 963h-144l78 358h144l22 113h410z" />
    <glyph glyph-name="uni0453" unicode="&#x453;" horiz-adv-x="1040" 
d="M319 664l-145.001 195.998c4 4 9.83301 10.167 17.5 18.5s24.834 22.333 51.501 42s55.334 37.334 86.001 53.001s71.167 29.667 121.5 42s103.5 18.5 159.5 18.5c121.333 0 219.333 -28.333 294 -85s112 -123 112 -199c0 -54.667 -12.333 -102.834 -37 -144.501
s-55.5 -73.5 -92.5 -95.5s-76.5 -41.833 -118.5 -59.5s-81.5 -31.667 -118.5 -42s-67.833 -22.666 -92.5 -36.999s-37 -30.166 -37 -47.499c0 -31.333 26 -47.333 78 -48c28.667 0 59.667 7.66699 93 23s59.666 30.333 78.999 45l29 23l141 -193
c-4 -5.33301 -10.5 -12.833 -19.5 -22.5s-29.167 -26 -60.5 -49s-65 -43.5 -101 -61.5s-83.5 -34.5 -142.5 -49.5s-119.833 -22.5 -182.5 -22.5c-126.667 0 -228 27.667 -304 83s-114 121.333 -114 198c0 61.333 17.167 114.833 51.5 160.5s76 80.5 125 104.5
s97.833 44.5 146.5 61.5s90 33.333 124 49s51 32.5 51 50.5c0 27.333 -20.333 41 -61 41c-20.667 0 -42 -4.5 -64 -13.5s-39 -18.167 -51 -27.5zM452.999 1116l249 348h443l-330 -348h-362z" />
    <glyph glyph-name="uni0454" unicode="&#x454;" horiz-adv-x="1116" 
d="M53 432c0 166.667 65.999 308.666 197.999 425.999s287.333 176 466 176c57.333 0 111.5 -7.5 162.5 -22.5s93 -33 126 -54s61.333 -41.833 85 -62.5s41.167 -38.334 52.5 -53.001l14 -23l-233 -198c-5.33301 8 -12.833 17.833 -22.5 29.5s-33.334 27.334 -71.001 47.001
s-78.167 29.5 -121.5 29.5c-86 0 -156.333 -34 -211 -102h319l-51 -246h-307c34 -68 93.333 -102.333 178 -103c27.333 0 54 3.83301 80 11.5s47.833 17 65.5 28s33.334 22.333 47.001 34s23.834 20.834 30.501 27.501l10 12l162 -217
c-4 -5.33301 -10.167 -12.5 -18.5 -21.5s-26.833 -25.333 -55.5 -49s-59.667 -44.5 -93 -62.5s-77.333 -34.167 -132 -48.5s-112 -21.5 -172 -21.5c-142 0 -262.167 46.5 -360.5 139.5s-147.5 200.833 -147.5 323.5z" />
    <glyph glyph-name="uni0455" unicode="&#x455;" horiz-adv-x="1003" 
d="M1012 860l-220.998 -189.995c-34 31.333 -74.333 47 -121 47c-26 0 -45.5 -5.16699 -58.5 -15.5s-19.5 -21.5 -19.5 -33.5c0 -16.667 17.333 -34.834 52 -54.501s73.167 -39.167 115.5 -58.5s81 -49 116 -89s52.5 -86.667 52.5 -140c0 -100 -40.667 -184.5 -122 -253.5
s-202 -103.5 -362 -103.5c-62.667 0 -122.334 7.16699 -179.001 21.5s-103 31.5 -139 51.5s-67.667 39.833 -95 59.5s-47.333 36.5 -60 50.5l-16 22l221 191c5.33301 -6.66699 13.166 -14.834 23.499 -24.501s31.166 -22.834 62.499 -39.501s63.333 -25 96 -25
c24.667 0 44.5 5.83301 59.5 17.5s22.5 25.667 22.5 42s-17.667 34.166 -53 53.499s-74.166 38.166 -116.499 56.499s-81.333 48 -117 89s-53.5 88.167 -53.5 141.5c0 94 42.667 177.167 128 249.5s205.333 108.5 360 108.5c87.333 0 166.5 -14.667 237.5 -44
s119.5 -58.333 145.5 -87z" />
    <glyph glyph-name="uni0456" unicode="&#x456;" horiz-adv-x="655" 
d="M643 1004l-213 -1004h-410l213 1004h410zM270 1288c0 61.333 24 114.666 72 159.999s104.667 68 170 68s117.833 -17.5 157.5 -52.5s59.5 -79.167 59.5 -132.5c0 -61.333 -24.167 -114.166 -72.5 -158.499s-105.333 -66.5 -171 -66.5s-118 17.333 -157 52
s-58.5 78 -58.5 130z" />
    <glyph glyph-name="uni0457" unicode="&#x457;" horiz-adv-x="655" 
d="M57 1284c0 54.667 22.168 103.5 66.501 146.5s96.166 64.5 155.499 64.5c52 0 94 -17 126 -51s48 -75.667 48 -125c0 -56 -22.333 -105.5 -67 -148.5s-95.667 -64.5 -153 -64.5c-52 0 -94.333 17.333 -127 52s-49 76.667 -49 126zM551.001 1284
c0 54.667 22.166 103.5 66.499 146.5s95.833 64.5 154.5 64.5c52 0 94 -17 126 -51s48 -75.667 48 -125c0 -56 -22.167 -105.5 -66.5 -148.5s-95.166 -64.5 -152.499 -64.5c-52 0 -94.333 17.333 -127 52s-49 76.667 -49 126zM643 1004l-213 -1004h-410l213 1004h410z" />
    <glyph glyph-name="uni0458" unicode="&#x458;" horiz-adv-x="665" 
d="M31 51l201.998 953.001h410l-201 -943c-35.333 -170.667 -93.333 -295.167 -174 -373.5s-185 -117.5 -313 -117.5c-38 0 -75.5 3.33301 -112.5 10s-64.5 13.667 -82.5 21l-26 10l76 358c28.667 -13.333 61.334 -20 98.001 -20c30 0 56.333 9.16699 79 27.5
s37.334 43.166 44.001 74.499zM267.998 1288c0 61.333 24 114.666 72 159.999s104.667 68 170 68s117.833 -17.5 157.5 -52.5s59.5 -79.167 59.5 -132.5c0 -61.333 -24.167 -114.166 -72.5 -158.499s-105.333 -66.5 -171 -66.5s-118 17.333 -157 52s-58.5 78 -58.5 130z" />
    <glyph glyph-name="uni0459" unicode="&#x459;" horiz-adv-x="1679" 
d="M1032 287l74 0.000976562c22 0 42.167 8.16699 60.5 24.5s27.5 36.166 27.5 59.499c0 18 -5.83301 32.333 -17.5 43s-26.167 16 -43.5 16h-70zM326 1004l879.999 0.000976562l-61 -287h96c112 0 201.5 -29.667 268.5 -89s100.5 -132 100.5 -218
c0 -121.333 -44.5 -220 -133.5 -296s-206.5 -114 -352.5 -114h-540l135 645h-103c-52 -243.333 -123.667 -416.833 -215 -520.5s-200.333 -155.5 -327 -155.5c-30 0 -59.667 2.83301 -89 8.5s-51.666 10.5 -66.999 14.5l-20 8l77 369
c19.333 -6.66699 39.333 -10.334 60 -11.001c52 0 96 29 132 87s74 176 114 354z" />
    </font>
</defs>
</svg>
