<?xml version="1.0" standalone="no"?>
<!DOCTYPE svg PUBLIC "-//W3C//DTD SVG 1.1//EN" "http://www.w3.org/Graphics/SVG/1.1/DTD/svg11.dtd" >
<svg xmlns="http://www.w3.org/2000/svg" xmlns:xlink="http://www.w3.org/1999/xlink" version="1.1">
<metadata>
Created by FontForge 20190801 at Tue May 30 06:30:51 2017
 By Jimmy Wärting
Copyright (c) 2017 by TypeType. Designers Ivan Gladkikh, Pavel Emelyanov. Technical designers Olexa Volochay, Nadyr Rakhimov, Dmitriy Greshnev. All rights reserved.
</metadata>
<defs>
<font id="TTNorms-BoldItalic" horiz-adv-x="1218" >
  <font-face 
    font-family="TT Norms Bold Italic"
    font-weight="700"
    font-style="italic"
    font-stretch="normal"
    units-per-em="2048"
    panose-1="2 0 8 3 4 0 0 9 0 4"
    ascent="1638"
    descent="-410"
    x-height="1004"
    cap-height="1434"
    bbox="-451 -479 2945.01 2007"
    underline-thickness="0"
    underline-position="0"
    unicode-range="U+000D-FB06"
  />
<missing-glyph horiz-adv-x="0" 
 />
    <glyph glyph-name="ij" unicode="ij" horiz-adv-x="1146" 
d="M610 -61l19 86.001c-52 -30 -119 -45 -201 -45c-113.333 0 -199 37.833 -257 113.5s-74 174.167 -48 295.5l131 615h276l-131 -615c-10.667 -52 -4.33398 -94 18.999 -126s60 -48 110 -48c24.667 0 49.334 3.5 74.001 10.5s43.667 13.833 57 20.5l19 10l160 748h276
l-231 -1086c-49.333 -232 -176.333 -348 -381 -348c-30 0 -60.833 2.66699 -92.5 8s-55.5 10.666 -71.5 15.999l-25 7l54 245c30 -13.333 62 -20 96 -20c35.333 0 67 11 95 33s45.333 48.667 52 80zM612 1311c0 -46.667 -16.668 -87.333 -50.001 -122
s-74.666 -52 -123.999 -52c-48 0 -85.167 11.5 -111.5 34.5s-39.5 55.167 -39.5 96.5c0 50.667 16.667 92.667 50 126s73.333 50 120 50c49.333 0 87.5 -12.333 114.5 -37s40.5 -56.667 40.5 -96zM1196 1311c0 -46.667 -16.667 -87.333 -50 -122s-74.666 -52 -123.999 -52
c-48 0 -85.333 11.5 -112 34.5s-40 55.167 -40 96.5c0 50.667 16.833 92.667 50.5 126s73.5 50 119.5 50c49.333 0 87.666 -12.333 114.999 -37s41 -56.667 41 -96z" />
    <glyph glyph-name="uniFB00" unicode="ff" horiz-adv-x="1392" 
d="M1444 973l-51.002 -246h-226l-153 -727h-277l154 727h-369l-153 -727h-277l154 727h-144l52 246h143l22 102c50.667 232 176.334 348 377.001 348c30 0 61.167 -2.33301 93.5 -7s57.166 -9.66699 74.499 -15l25 -8l-49 -236c-30 13.333 -65.667 20.333 -107 21
c-35.333 0 -65.666 -11 -90.999 -33s-41.333 -48.667 -48 -80l-21 -92h369l31 143c50.667 232 176.334 348 377.001 348c30 0 61 -2.33301 93 -7s56.333 -9.66699 73 -15l26 -8l-49 -236c-30 13.333 -65.667 20.333 -107 21c-34 0 -64 -11 -90 -33s-42.333 -48.667 -49 -80
l-28 -133h225z" />
    <glyph glyph-name="uniFB01" unicode="fi" horiz-adv-x="1259" 
d="M1219 973l-205.001 -973.002h-277l154 727h-369l-153 -727h-277l154 727h-144l52 246h143l29 133c26 118.667 69.667 206.334 131 263.001s145.333 85 252 85c30 0 60.667 -2.66699 92 -8s55 -10.666 71 -15.999l23 -7l-49 -235c-27.333 13.333 -61.666 20 -102.999 20
c-78 0 -125.667 -37.333 -143 -112l-27 -123h646zM1307 1311c0 -46.667 -16.8311 -87.333 -50.498 -122s-74.834 -52 -123.501 -52c-48 0 -85.333 11.5 -112 34.5s-40 55.167 -40 96.5c0 50.667 16.667 92.667 50 126s73.333 50 120 50c49.333 0 87.666 -12.333 114.999 -37
s41 -56.667 41 -96z" />
    <glyph glyph-name="uniFB02" unicode="fl" horiz-adv-x="1259" 
d="M956 1034c1.33301 6.66699 2.00293 16.333 2.00293 29c0 40.667 -15.333 75 -46 103s-68.334 42 -113.001 42c-50.667 0 -95.834 -17 -135.501 -51s-64.834 -75 -75.501 -123l-15 -61h226l-51 -246h-226l-153 -727h-277l154 727h-144l52 246h143l14 61
c26 126.667 84.833 230 176.5 310s204.167 120 337.5 120c122.667 0 222.667 -32.667 300 -98s116 -149.333 116 -252c0 -30 -2.66699 -56.667 -8 -80l-219 -1034h-277z" />
    <glyph glyph-name="uniFB03" unicode="ffi" horiz-adv-x="1904" 
d="M1864 973l-205 -973h-277l154 727h-369l-153 -727h-277l154 727h-369l-153 -727h-277l154 727h-144l52 246h143l22 102c50.667 232 176.334 348 377.001 348c30 0 61.167 -2.33301 93.5 -7s57.166 -9.66699 74.499 -15l25 -8l-49 -236c-26 13.333 -59.667 20.333 -101 21
c-38 0 -70 -10.667 -96 -32s-42.333 -48.333 -49 -81l-21 -92h369l31 143c50.667 232 176.334 348 377.001 348c30 0 61 -2.33301 93 -7s56.333 -9.66699 73 -15l26 -8l-49 -236c-26 13.333 -59.333 20.333 -100 21c-39.333 0 -71.333 -10.667 -96 -32
s-41.334 -48.333 -50.001 -81l-28 -133h645zM1956 1311c0 -46.667 -16.8311 -87.333 -50.498 -122s-74.834 -52 -123.501 -52c-48 0 -85.333 11.5 -112 34.5s-40 55.167 -40 96.5c0 50.667 16.833 92.667 50.5 126s73.5 50 119.5 50c49.333 0 87.666 -12.333 114.999 -37
s41 -56.667 41 -96z" />
    <glyph glyph-name="uniFB06" unicode="st" horiz-adv-x="1730" 
d="M911 870l-173.999 -158.996c-40.667 52 -95.334 77.667 -164.001 77c-42 0 -74 -8.16699 -96 -24.5s-33 -35.833 -33 -58.5c0 -20.667 13 -40.334 39 -59.001s57.833 -35.834 95.5 -51.501s75.334 -34 113.001 -55s69.334 -49.333 95.001 -85s38.5 -77.167 38.5 -124.5
c0 -105.333 -37.833 -190 -113.5 -254s-182.5 -96 -320.5 -96c-53.333 0 -103.833 6.33301 -151.5 19s-86.5 28 -116.5 46s-56 35.833 -78 53.5s-37.667 32.5 -47 44.5l-14 21l178 147c5.33301 -8 13.5 -17.833 24.5 -29.5s34.833 -27.334 71.5 -47.001s75 -29.5 115 -29.5
c94 0 141 32 141 96c0 22 -13.333 42.167 -40 60.5s-58.334 35.666 -95.001 51.999s-73.834 34.833 -111.501 55.5s-69.834 48.667 -96.501 84s-40 76.333 -40 123c0 90 40 170.5 120 241.5s183.333 106.5 310 106.5c20.667 0 35.667 -0.666992 45 -2
c20.667 135.333 76.334 242.833 167.001 322.5s205 119.5 343 119.5c118.667 0 216.334 -32 293.001 -96s115 -150 115 -258c0 -32.667 -5 -75 -15 -127h205l-53 -246h-205l-84 -399c-8 -32.667 -4.5 -59.667 10.5 -81s40.833 -32 77.5 -32c18 0 36.833 1.83301 56.5 5.5
s34.5 7.5 44.5 11.5l16 4l-49 -236c-53.333 -20.667 -114 -30.667 -182 -30c-84.667 0 -150.334 19 -197.001 57s-70 95.333 -70 172c0 36.667 5 76.334 15 119.001l86 409h-174l53 246h174c5.33301 35.333 8 59.333 8 72c0 52 -15 92.333 -45 121s-69 43 -117 43
c-60 0 -111.5 -20.167 -154.5 -60.5s-64.5 -92.833 -64.5 -157.5c0 -46.667 17 -90.334 51 -131.001z" />
    <glyph glyph-name="c_t.liga" unicode="ct" horiz-adv-x="1884" 
d="M66 432c0 160 61.6689 298.669 185.002 416.002s269.666 176 438.999 176c18 0 40.667 -1.33301 68 -4c16.667 131.333 71.334 238.166 164.001 320.499s212.667 123.5 360 123.5c118.667 0 214.167 -31.667 286.5 -95s108.5 -149.666 108.5 -258.999
c0 -32.667 -4.66699 -75 -14 -127h205l-53 -246h-205l-84 -399c-6.66699 -31.333 -2.16699 -58 13.5 -80s41.834 -33 78.501 -33c18 0 36.5 1.83301 55.5 5.5s33.167 7.5 42.5 11.5l15 4l-50 -236c-52 -20.667 -112 -30.667 -180 -30c-84.667 0 -150.5 19 -197.5 57
s-70.5 95.333 -70.5 172c0 36.667 4.66699 76.334 14 119.001l86 409h-174l53 246h174c5.33301 35.333 8.33301 59.333 9 72c0 52 -14.333 92.333 -43 121s-67 43 -115 43c-61.333 0 -113.833 -19.833 -157.5 -59.5s-65.5 -91.5 -65.5 -155.5
c0 -28.667 6.83301 -58.5 20.5 -89.5s27.167 -54.5 40.5 -70.5l21 -25l-201 -162c-5.33301 9.33301 -13.5 20.666 -24.5 33.999s-36.333 31.166 -76 53.499s-81.834 33.5 -126.501 33.5c-82 0 -156.167 -32.333 -222.5 -97s-99.5 -141.334 -99.5 -230.001
c0 -62.667 20.833 -116 62.5 -160s93.167 -66 154.5 -66c45.333 0 90.166 11.667 134.499 35s77.5 47.333 99.5 72l32 35l132 -183c-4 -5.33301 -9.83301 -12.833 -17.5 -22.5s-24.834 -26 -51.501 -49s-55 -43.333 -85 -61s-69.333 -34 -118 -49s-98.667 -22.5 -150 -22.5
c-134 0 -246.333 45.333 -337 136s-136 196 -136 316z" />
    <glyph glyph-name="s_p.liga" unicode="sp" horiz-adv-x="2191" 
d="M870 -430l306.003 1434c5.33301 23.333 8 47 8 71c0 46.667 -12.667 82.334 -38 107.001s-57.666 37 -96.999 37c-49.333 0 -92.833 -21.167 -130.5 -63.5s-56.5 -92.166 -56.5 -149.499c0 -50.667 16.333 -96 49 -136l-174 -159c-40.667 52 -95.334 77.667 -164.001 77
c-42 0 -74 -8.16699 -96 -24.5s-33 -35.833 -33 -58.5c0 -20.667 13 -40.334 39 -59.001s57.833 -35.834 95.5 -51.501s75.334 -34 113.001 -55s69.334 -49.333 95.001 -85s38.5 -77.167 38.5 -124.5c0 -105.333 -37.833 -190 -113.5 -254s-182.5 -96 -320.5 -96
c-53.333 0 -103.833 6.33301 -151.5 19s-86.5 28 -116.5 46s-56 35.833 -78 53.5s-37.667 32.5 -47 44.5l-14 21l178 147c5.33301 -8 13.5 -17.833 24.5 -29.5s34.833 -27.334 71.5 -47.001s75 -29.5 115 -29.5c94 0 141 32 141 96c0 22 -13.333 42.167 -40 60.5
s-58.334 35.666 -95.001 51.999s-73.834 34.833 -111.501 55.5s-69.834 48.667 -96.501 84s-40 76.333 -40 123c0 90 40 170.5 120 241.5s183.333 106.5 310 106.5c5.33301 0 12.833 -0.333008 22.5 -1s17.167 -1 22.5 -1l6 33c24.667 120 80 218.167 166 294.5
s189 114.5 309 114.5c110.667 0 201.5 -30 272.5 -90s106.5 -142 106.5 -246c0 -40.667 -4.66699 -82 -14 -124l-25 -113c2.66699 4 6.5 8.66699 11.5 14s16.667 16 35 32s38.5 29.667 60.5 41s51 21.833 87 31.5s74 14.5 114 14.5c110.667 0 204.834 -42 282.501 -126
s116.5 -185.333 116.5 -304c0 -172 -57.333 -317.333 -172 -436s-246.334 -178 -395.001 -178c-40.667 0 -78.834 5 -114.501 15s-64.5 22.5 -86.5 37.5s-40.833 30.333 -56.5 46s-26.834 29.167 -33.501 40.5l-10 14l-119 -563h-277zM1636 778.002
c-76.667 0 -145.667 -32.334 -207 -97.001s-92 -145 -92 -241c0 -62.667 20.167 -114.167 60.5 -154.5s89.166 -60.5 146.499 -60.5c78 0 147.333 31.833 208 95.5s91 143.834 91 240.501c0 61.333 -20.167 112.833 -60.5 154.5s-89.166 62.5 -146.499 62.5z" />
    <glyph glyph-name="f_t.liga" unicode="ft" horiz-adv-x="1464" 
d="M1022 1106l41.002 193.999h246l-70 -327h205l-51 -246h-205l-82 -389c-8 -32.667 -4.83301 -59.667 9.5 -81s40.5 -32 78.5 -32c18 0 36.833 1.83301 56.5 5.5s34.167 7.5 43.5 11.5l17 4l-49 -236c-54.667 -20.667 -116.334 -30.667 -185.001 -30
c-104 0 -177.667 29 -221 87s-53 145 -29 261l84 399h-389l-153 -727h-277l154 727h-144l52 246h143l29 133c50.667 232 177.667 348 381 348c30 0 60.667 -2.66699 92 -8s55 -10.666 71 -15.999l25 -7l-49 -235c-26 13.333 -59.667 20 -101 20
c-38 0 -69.667 -10.5 -95 -31.5s-42 -47.833 -50 -80.5l-27 -123h308c31.333 0 60.666 12.333 87.999 37s45 56.667 53 96z" />
    <glyph glyph-name=".notdef" horiz-adv-x="0" 
 />
    <glyph glyph-name="glyph1" horiz-adv-x="0" 
 />
    <glyph glyph-name="glyph1" horiz-adv-x="0" 
 />
    <glyph glyph-name="uni000D" unicode="&#xd;" horiz-adv-x="0" 
 />
    <glyph glyph-name="space" unicode=" " horiz-adv-x="419" 
 />
    <glyph glyph-name="exclam" unicode="!" horiz-adv-x="675" 
d="M444 410h-225l166 1024h328zM109 119c0 42 18.333 80.5 55 115.5s79 52.5 127 52.5c44 0 80.167 -13.667 108.5 -41s42.5 -60.333 42.5 -99c0 -45.333 -18.333 -84.5 -55 -117.5s-79 -49.5 -127 -49.5c-44 0 -80.167 14 -108.5 42s-42.5 60.333 -42.5 97z" />
    <glyph glyph-name="quotedbl" unicode="&#x22;" horiz-adv-x="849" 
d="M569 1434l-100 -471h-246l101 471h245zM948 1434l-100 -471h-246l100 471h246z" />
    <glyph glyph-name="numbersign" unicode="#" horiz-adv-x="1556" 
d="M1167 584h277l-84 -205h-277l-151 -379h-236l152 379h-297l-152 -379h-235l151 379h-276l84 205h276l109 266h-277l84 205h277l151 379h236l-152 -379h297l152 379h235l-151 -379h276l-84 -205h-276zM932 584l108 266h-297l-108 -266h297z" />
    <glyph glyph-name="dollar" unicode="$" horiz-adv-x="1228" 
d="M553 236c66.667 0 125.667 15.3369 177 46.0039s77 78.667 77 144c0 38 -20.167 72 -60.5 102s-89.166 57 -146.499 81s-114.666 50.667 -171.999 80s-106.166 70 -146.499 122s-60.5 113.333 -60.5 184c0 124 42.333 229.167 127 315.5s201.334 136.166 350.001 149.499
l41 189h267l-45 -209c57.333 -15.333 110.166 -37.333 158.499 -66s82.166 -53.334 101.499 -74.001l30 -30l-213 -185c-8 8 -19.167 18.333 -33.5 31s-44.333 29.5 -90 50.5s-93.167 31.5 -142.5 31.5c-68 0 -121.167 -14.333 -159.5 -43s-57.5 -67 -57.5 -115
c0 -32.667 14.667 -62.334 44 -89.001s65.5 -49.167 108.5 -67.5s90.167 -39.833 141.5 -64.5s98.5 -50.667 141.5 -78s79.167 -64.166 108.5 -110.499s44 -99.5 44 -159.5c0 -138 -43 -251 -129 -339s-208.333 -140.333 -367 -157l-39 -190h-266l43 201
c-48 9.33301 -93.833 23.5 -137.5 42.5s-79.834 38.167 -108.501 57.5s-53.834 38.166 -75.501 56.499s-37.5 33.5 -47.5 45.5l-14 17l211 178c9.33301 -10.667 23 -24.334 41 -41.001s56.333 -38.5 115 -65.5s120 -40.5 184 -40.5z" />
    <glyph glyph-name="percent" unicode="%" horiz-adv-x="1669" 
d="M569 1272c-42 0 -79.333 -15.999 -112 -47.999s-49 -70 -49 -114c0 -35.333 12.5 -65.333 37.5 -90s57.5 -37 97.5 -37c42 0 79 16 111 48s48 71.333 48 118c0 35.333 -12.667 64.666 -38 87.999s-57 35 -95 35zM909 1157c0 -94 -39.833 -179.333 -119.5 -256
s-169.5 -115 -269.5 -115c-92.667 0 -169 30.5 -229 91.5s-90 133.167 -90 216.5c0 92.667 39.833 177.5 119.5 254.5s170.167 115.5 271.5 115.5c92.667 0 168.667 -30.333 228 -91s89 -132.667 89 -216zM164 0.000976562l1194 1434h266l-1192 -1434h-268zM1245 455.001
c-42 0 -79.5 -16.167 -112.5 -48.5s-49.5 -70.166 -49.5 -113.499c0 -35.333 12.667 -65.333 38 -90s58 -37 98 -37c42 0 79 16 111 48s48 71.333 48 118c0 35.333 -12.667 64.666 -38 87.999s-57 35 -95 35zM1585 340.001c0 -94 -39.833 -179.333 -119.5 -256
s-169.5 -115 -269.5 -115c-92.667 0 -169 30.5 -229 91.5s-90 132.833 -90 215.5c0 92.667 39.833 177.667 119.5 255s170.167 116 271.5 116c92.667 0 168.667 -30.333 228 -91s89 -132.667 89 -216z" />
    <glyph glyph-name="ampersand" unicode="&#x26;" horiz-adv-x="1331" 
d="M1083 287c24.667 -48 60.999 -72.001 108.999 -72.001l53 10l-51 -235c-36.667 -20.667 -79 -31 -127 -31c-44 0 -84.333 12.333 -121 37s-62.667 49.334 -78 74.001l-22 36c-12 -10.667 -29 -24.167 -51 -40.5s-67.5 -38.166 -136.5 -65.499s-138.167 -41 -207.5 -41
c-116 0 -207.833 31 -275.5 93s-101.5 138.333 -101.5 229c0 58.667 12.667 115.167 38 169.5s56 99.666 92 135.999s71.833 68.166 107.5 95.499s65.5 47 89.5 59l39 21c-8 12 -18.833 28 -32.5 48s-31.334 57.667 -53.001 113s-32.5 105.333 -32.5 150
c0 113.333 40.833 208.666 122.5 285.999s180.5 116 296.5 116c98 0 181.333 -27 250 -81s103 -120 103 -198c0 -49.333 -11 -98.5 -33 -147.5s-48.667 -91.333 -80 -127s-62.666 -67.167 -93.999 -94.5s-58 -47.666 -80 -60.999l-33 -23l156 -260
c56 66.667 92.667 141.334 110 224.001h256c-16.667 -72.667 -42.667 -144.167 -78 -214.5s-66.666 -122.5 -93.999 -156.5zM513.999 204.999c36.667 0 73.832 7.16699 111.499 21.5s66.167 28.833 85.5 43.5l28 21l-182 297c-5.33301 -2.66699 -12.5 -7.16699 -21.5 -13.5
s-24.667 -18.666 -47 -36.999s-42.5 -37 -60.5 -56s-34.167 -42.5 -48.5 -70.5s-21.5 -55.667 -21.5 -83c0 -36.667 13.333 -66.334 40 -89.001s65.334 -34 116.001 -34zM656.997 894.999c116 86 174 166.001 174 240.001c0 27.333 -10.833 49.833 -32.5 67.5
s-48.167 26.5 -79.5 26.5c-44 0 -79.667 -13.333 -107 -40s-41 -61.334 -41 -104.001c0 -26 7.16699 -54.667 21.5 -86s28.5 -56.333 42.5 -75z" />
    <glyph glyph-name="quotesingle" unicode="'" horiz-adv-x="471" 
d="M569 1434l-100 -471h-246l101 471h245z" />
    <glyph glyph-name="parenleft" unicode="(" horiz-adv-x="747" 
d="M436 512c-20.667 -92.667 -30.834 -189.497 -30.501 -290.497s10.666 -199 30.999 -294s40.833 -165.167 61.5 -210.5l30 -65l-239 -123c-4 6.66699 -9.83301 17.167 -17.5 31.5s-21 44 -40 89s-35.667 92.167 -50 141.5s-27.333 111.833 -39 187.5
s-17.5 151.167 -17.5 226.5c0 143.333 20.167 285.666 60.5 426.999s88.833 262.166 145.5 362.499s113.334 189 170.001 266s105.167 136 145.5 177s60.5 60.167 60.5 57.5l186 -133c-9.33301 -9.33301 -22.333 -23.333 -39 -42s-47.167 -57.334 -91.5 -116.001
s-85.166 -119 -122.499 -181s-75.833 -139.833 -115.5 -233.5s-69.167 -186.167 -88.5 -277.5z" />
    <glyph glyph-name="parenright" unicode=")" horiz-adv-x="747" 
d="M344 512c20.667 101.333 31.002 196.338 31.002 285.005c0 101.333 -10.667 199 -32 293s-42.666 162.667 -63.999 206l-31 66l244 133c4 -6.66699 9.66699 -17.167 17 -31.5s20.666 -44.333 39.999 -90s36.166 -93.167 50.499 -142.5s27.166 -111.833 38.499 -187.5
s17 -151.167 17 -226.5c0 -367.333 -125.333 -719 -376 -1055c-54.667 -74 -123 -151.667 -205 -233l-189 123c9.33301 9.33301 22.333 23.166 39 41.499s47.167 57.666 91.5 117.999s85.333 122.166 123 185.499s76.5 142.166 116.5 236.499s69.667 187.166 89 278.499z
" />
    <glyph glyph-name="asterisk" unicode="*" horiz-adv-x="819" 
d="M526 934l-170 -197l-143 123l180 176l-203 60l101 184l198 -82l29 236h205l-70 -236l232 82l22 -184l-227 -60l106 -176l-163 -123z" />
    <glyph glyph-name="plus" unicode="+" horiz-adv-x="1075" 
d="M588 123h-236l74 348h-348l55 256h348l74 348h236l-74 -348h348l-55 -256h-348z" />
    <glyph glyph-name="comma" unicode="," horiz-adv-x="532" 
d="M178 299l205 -135l-358 -430l-164 94z" />
    <glyph glyph-name="hyphen" unicode="-" horiz-adv-x="880" 
d="M870 727l-53 -246h-737l53 246h737z" />
    <glyph glyph-name="period" unicode="." horiz-adv-x="512" 
d="M25 119c0 42 18.333 80.5 55 115.5s79 52.5 127 52.5c44 0 80.167 -13.667 108.5 -41s42.5 -60.333 42.5 -99c0 -45.333 -18.333 -84.5 -55 -117.5s-79 -49.5 -127 -49.5c-44 0 -80.167 14 -108.5 42s-42.5 60.333 -42.5 97z" />
    <glyph glyph-name="slash" unicode="/" horiz-adv-x="993" 
d="M1147 1454l-1008 -1884h-260l1006 1884h262z" />
    <glyph glyph-name="zero" unicode="0" horiz-adv-x="1454" 
d="M870 1188c-83.333 0 -157.668 -35.5 -223.001 -106.5s-112.666 -152 -141.999 -243s-44 -177.167 -44 -258.5c0 -106.667 22.833 -189 68.5 -247s103.167 -87 172.5 -87c40.667 0 84.334 13.333 131.001 40s91.167 64.167 133.5 112.5s77.166 112.833 104.499 193.5
s41 168.667 41 264c0 105.333 -23 187 -69 245s-103.667 87 -173 87zM1425 866c0 -78 -10.501 -158.5 -31.501 -241.5s-53 -163.5 -96 -241.5s-93.5 -147.667 -151.5 -209s-127 -110.833 -207 -148.5s-164.333 -56.5 -253 -56.5c-154 0 -281.833 55.667 -383.5 167
s-152.5 256.333 -152.5 435c0 106.667 14.667 207.834 44 303.501s68.833 178.667 118.5 249s106.334 131.666 170.001 183.999s130.5 91.5 200.5 117.5s139.333 39 208 39c154 0 281.5 -55 382.5 -165s151.5 -254.333 151.5 -433z" />
    <glyph glyph-name="one" unicode="1" horiz-adv-x="819" 
d="M590 1434h256.002l-303 -1434h-307l221 1044h-246l41 195c45.333 5.33301 87.666 15.833 126.999 31.5s71.333 32.5 96 50.5s46.167 35.5 64.5 52.5s31.166 31.5 38.499 43.5z" />
    <glyph glyph-name="two" unicode="2" horiz-adv-x="1187" 
d="M983 0l-1003 0.00292969c27.333 130 77.5 244 150.5 342s150.667 174.667 233 230s163.166 105.666 242.499 150.999s145.333 92.833 198 142.5s79 105.167 79 166.5c0 44 -14.667 79.333 -44 106s-71.333 40 -126 40c-52 0 -99.833 -14.667 -143.5 -44
s-75.167 -58.333 -94.5 -87l-26 -43l-232 122c4 9.33301 9.83301 21.666 17.5 36.999s26.5 42.5 56.5 81.5s63.833 73.167 101.5 102.5s88.5 56.166 152.5 80.499s133.667 36.5 209 36.5c126.667 0 233.667 -38.5 321 -115.5s131 -168.833 131 -275.5
c0 -88.667 -18 -167.167 -54 -235.5s-83.667 -125.333 -143 -171s-120.5 -86.667 -183.5 -123s-129 -77 -198 -122s-123.167 -89.833 -162.5 -134.5h577z" />
    <glyph glyph-name="three" unicode="3" horiz-adv-x="1177" 
d="M907 748c5.33301 -2.66699 12.165 -6.16895 20.498 -10.502s23.5 -15 45.5 -32s41.167 -35.833 57.5 -56.5s31.333 -48 45 -82s20.5 -70.667 20.5 -110c0 -134 -53.667 -248.833 -161 -344.5s-251 -143.5 -431 -143.5c-68 0 -133.167 7.83301 -195.5 23.5
s-113.333 34.5 -153 56.5s-74.167 43.833 -103.5 65.5s-50.666 40.834 -63.999 57.501l-19 23l213 184c2.66699 -4 7.16699 -9.16699 13.5 -15.5s19.333 -17.666 39 -33.999s40.834 -31 63.501 -44s52 -24.5 88 -34.5s73.333 -15 112 -15c87.333 0 155.833 21.5 205.5 64.5
s74.5 95.833 74.5 158.5c0 44 -17 79.167 -51 105.5s-83 39.5 -147 39.5h-156l55 256h139c65.333 0 121.666 18.833 168.999 56.5s71 85.834 71 144.501c0 39.333 -15 72 -45 98s-71 39 -123 39s-102.833 -11.333 -152.5 -34s-86.834 -44.667 -111.501 -66l-37 -35l-145 186
c4 5.33301 10.333 12.833 19 22.5s28.5 27.167 59.5 52.5s63.833 47.166 98.5 65.499s80.667 35.333 138 51s117.333 23.5 180 23.5c126.667 0 232.834 -34.5 318.501 -103.5s128.5 -150.5 128.5 -244.5c0 -38 -5.16699 -74.167 -15.5 -108.5
s-23.666 -63.666 -39.999 -87.999s-34.833 -46.833 -55.5 -67.5s-40.834 -37.167 -60.501 -49.5s-37.667 -22.833 -54 -31.5s-29.166 -14.334 -38.499 -17.001z" />
    <glyph glyph-name="four" unicode="4" horiz-adv-x="1249" 
d="M1063 522h164l-58 -266h-163l-54 -256h-307l53 256h-675l65 307l789 871h378zM756 522l116 553l-487 -553h371z" />
    <glyph glyph-name="five" unicode="5" horiz-adv-x="1269" 
d="M788 952c116 0 213 -39.834 291 -119.501s117 -175.5 117 -287.5c0 -169.333 -58 -307.666 -174 -414.999s-265 -161 -447 -161c-68 0 -132.667 7.83301 -194 23.5s-111.166 34.5 -149.499 56.5s-71.833 43.833 -100.5 65.5s-49 40.834 -61 57.501l-19 23l219 186
c2.66699 -4 6.83398 -9.16699 12.501 -15.5s18 -17 37 -32s39.167 -28.667 60.5 -41s49.666 -23.166 84.999 -32.499s71.333 -14 108 -14c84.667 0 155.667 26.167 213 78.5s86 118.166 86 197.499c0 53.333 -20 97.5 -60 132.5s-91 52.5 -153 52.5
c-49.333 0 -94.333 -9.33301 -135 -28s-69.334 -37.334 -86.001 -56.001l-26 -29l-211 20l225 820h870l-55 -267h-594l-78 -266c50.667 34 123.667 51 219 51z" />
    <glyph glyph-name="six" unicode="6" horiz-adv-x="1259" 
d="M788 971c110.667 0 204.333 -40.6689 281 -122.002s115 -178.666 115 -291.999c0 -161.333 -59.5 -299.666 -178.5 -414.999s-265.167 -173 -438.5 -173c-138 0 -254 39.667 -348 119s-141 176.333 -141 291c0 70.667 16 142.667 48 216s63.667 129 95 167l49 57l529 615
h334l-408 -471c18.667 5.33301 39.667 8 63 8zM597.999 235.998c76.667 0 143.332 26.834 199.999 80.501s85 120.167 85 199.5c0 53.333 -19.833 98.5 -59.5 135.5s-90.167 55.5 -151.5 55.5c-79.333 0 -148 -28 -206 -84s-87 -123 -87 -201
c0 -54.667 20.833 -99.334 62.5 -134.001s93.834 -52 156.501 -52z" />
    <glyph glyph-name="seven" unicode="7" horiz-adv-x="1095" 
d="M272 1434h983l-51 -246l-815 -1188h-328l795 1157h-641z" />
    <glyph glyph-name="eight" unicode="8" horiz-adv-x="1249" 
d="M590 225c72.667 0 136.169 24.3311 190.502 72.998s81.5 102.334 81.5 161.001c0 46.667 -19 87.667 -57 123s-85.667 53 -143 53c-72.667 0 -137.334 -24.667 -194.001 -74s-85 -102.666 -85 -159.999c0 -46.667 20.167 -87.667 60.5 -123s89.166 -53 146.499 -53z
M727.002 880.998c61.333 0 112.5 18.001 153.5 54.001s61.5 80.667 61.5 134c0 39.333 -14 72.333 -42 99s-66 40 -114 40c-62.667 0 -115.167 -18.333 -157.5 -55s-63.5 -82.334 -63.5 -137.001c0 -38 15 -70 45 -96s69 -39 117 -39zM569.002 -31.001
c-134 0 -247.333 39.333 -340 118s-139 171.334 -139 278.001c0 39.333 5.5 77.833 16.5 115.5s25.333 70 43 97s37.5 52.5 59.5 76.5s43.167 44.167 63.5 60.5s39.666 30.333 57.999 42s32.5 20.167 42.5 25.5l16 9c-8 5.33301 -18.167 13.833 -30.5 25.5
s-28.666 37.167 -48.999 76.5s-30.5 81 -30.5 125c0 117.333 50.167 221 150.5 311s225.5 135 375.5 135c120 0 221.667 -35.833 305 -107.5s125 -153.167 125 -244.5c0 -45.333 -8.16699 -88 -24.5 -128s-35.833 -72.667 -58.5 -98s-45.5 -48 -68.5 -68
s-42.167 -34 -57.5 -42l-22 -12c10.667 -6.66699 24.167 -16.834 40.5 -30.501s38.5 -44.5 66.5 -92.5s42 -99.333 42 -154c0 -140.667 -56 -262.167 -168 -364.5s-250.667 -153.5 -416 -153.5z" />
    <glyph glyph-name="nine" unicode="9" horiz-adv-x="1259" 
d="M590 463c-110.667 0 -204.167 40.668 -280.5 122.001s-114.5 178.666 -114.5 291.999c0 161.333 59.333 299.5 178 414.5s264.667 172.5 438 172.5c138 0 254 -39.5 348 -118.5s141 -175.833 141 -290.5c0 -70.667 -16 -142.667 -48 -216s-64.333 -129 -97 -167l-47 -58
l-528 -614h-334l407 471c-18.667 -5.33301 -39.667 -8 -63 -8zM780 1198c-76.667 0 -143.166 -27.001 -199.499 -81.001s-84.5 -120.333 -84.5 -199c0 -53.333 19.667 -98.5 59 -135.5s90 -55.5 152 -55.5c79.333 0 147.833 28 205.5 84s86.5 123 86.5 201
c0 54.667 -20.833 99.334 -62.5 134.001s-93.834 52 -156.501 52z" />
    <glyph glyph-name="colon" unicode=":" horiz-adv-x="512" 
d="M25 119c0 42 18.333 80.5 55 115.5s79 52.5 127 52.5c44 0 80.167 -13.667 108.5 -41s42.5 -60.333 42.5 -99c0 -45.333 -18.333 -84.5 -55 -117.5s-79 -49.5 -127 -49.5c-44 0 -80.167 14 -108.5 42s-42.5 60.333 -42.5 97zM180 856c0 42 18.5 80.499 55.5 115.499
s79.167 52.5 126.5 52.5c44 0 80.333 -13.667 109 -41s43 -60 43 -98c0 -45.333 -18.5 -84.666 -55.5 -117.999s-79.167 -50 -126.5 -50c-44 0 -80.333 14 -109 42s-43 60.333 -43 97z" />
    <glyph glyph-name="semicolon" unicode=";" horiz-adv-x="552" 
d="M221 856c0 42 18.5 80.499 55.5 115.499s79.167 52.5 126.5 52.5c44 0 80.333 -13.667 109 -41s43 -60 43 -98c0 -45.333 -18.5 -84.666 -55.5 -117.999s-79.167 -50 -126.5 -50c-44 0 -80.333 14 -109 42s-43 60.333 -43 97zM178 298.999l205 -135l-358 -430l-164 94z
" />
    <glyph glyph-name="less" unicode="&#x3c;" horiz-adv-x="1044" 
d="M76 410l39 184l970 420l-57 -279l-584 -246l480 -245l-58 -254z" />
    <glyph glyph-name="equal" unicode="=" horiz-adv-x="1013" 
d="M950 522l-51 -235h-850l51 235h850zM1034 922l-49 -236h-850l49 236h850z" />
    <glyph glyph-name="greater" unicode="&#x3e;" horiz-adv-x="1044" 
d="M995 594l-39 -184l-970 -420l57 278l586 246l-482 246l58 254z" />
    <glyph glyph-name="question" unicode="?" horiz-adv-x="1126" 
d="M393 502c10.667 54.667 34.168 104.171 70.501 148.504s75.666 80.5 117.999 108.5s84.333 55.667 126 83s76.167 57.666 103.5 90.999s41 69.666 41 108.999c0 35.333 -14.333 65 -43 89s-67.667 36 -117 36c-36.667 0 -70.667 -5.66699 -102 -17s-57 -25 -77 -41
s-37.167 -32.167 -51.5 -48.5s-24.833 -29.833 -31.5 -40.5l-8 -19l-238 115c4 9.33301 9.83301 22 17.5 38s26.5 43.667 56.5 83s63.833 74.5 101.5 105.5s89.5 59 155.5 84s137.333 37.5 214 37.5c128.667 0 236.667 -35.167 324 -105.5s131 -152.5 131 -246.5
c0 -79.333 -15 -148.333 -45 -207s-68 -105.667 -114 -141s-92.833 -68.5 -140.5 -99.5s-92 -67.5 -133 -109.5s-68.167 -90.333 -81.5 -145h-277c-2.66699 15.333 -4 31.666 -4 48.999c0 19.333 1.33301 33.666 4 42.999zM317.001 119.004c0 42 18.5 80.5 55.5 115.5
s79.5 52.5 127.5 52.5c44 0 80.167 -13.667 108.5 -41s42.5 -60.333 42.5 -99c0 -45.333 -18.333 -84.5 -55 -117.5s-79 -49.5 -127 -49.5c-44 0 -80.333 14 -109 42s-43 60.333 -43 97z" />
    <glyph glyph-name="at" unicode="@" horiz-adv-x="1843" 
d="M952 686c-56 0 -104.5 -21.833 -145.5 -65.5s-61.5 -97.5 -61.5 -161.5c0 -40.667 13 -74.5 39 -101.5s59.667 -40.5 101 -40.5c53.333 0 101.5 21.5 144.5 64.5s64.5 98.167 64.5 165.5c0 42 -13.833 75.667 -41.5 101s-61.167 38 -100.5 38zM954 881
c39.333 0 75.1709 -7.49805 107.504 -22.498s55.166 -30.167 68.499 -45.5l19 -22l18 79h195l-96 -450c-6.66699 -28.667 -1.16699 -54.667 16.5 -78s41.5 -35 71.5 -35c50.667 0 98.167 27.667 142.5 83s66.5 143.666 66.5 264.999c0 128.667 -50.5 237.667 -151.5 327
s-226.833 134 -377.5 134c-186 0 -349.833 -69.667 -491.5 -209s-212.5 -306.333 -212.5 -501c0 -139.333 43 -257.166 129 -353.499s198.667 -144.5 338 -144.5c69.333 0 137.833 10.5 205.5 31.5s117.167 42.5 148.5 64.5l49 31l90 -156
c-15.333 -12 -36.833 -27.333 -64.5 -46s-85.834 -43.334 -174.501 -74.001s-179 -46 -271 -46c-186 0 -342 67 -468 201s-189 292.333 -189 475c0 161.333 43.333 313.333 130 456s201.667 256 345 340s294.333 126 453 126c200.667 0 371 -62.167 511 -186.5
s210 -272.5 210 -444.5c0 -173.333 -44.5 -309.5 -133.5 -408.5s-192.167 -148.5 -309.5 -148.5c-48 0 -89.333 10.167 -124 30.5s-57.334 40.833 -68.001 61.5l-17 31c-2.66699 -2.66699 -6.33398 -7.16699 -11.001 -13.5s-15.5 -16.333 -32.5 -30
s-35.5 -25.834 -55.5 -36.501s-46 -20.5 -78 -29.5s-65 -13.5 -99 -13.5c-84.667 0 -157 28.667 -217 86s-90 129 -90 215c0 126.667 42.5 234.5 127.5 323.5s181.5 133.5 289.5 133.5z" />
    <glyph glyph-name="A" unicode="A" horiz-adv-x="1495" 
d="M965 604l-74 471l-275 -471h349zM1012 338h-553l-195 -338h-336l867 1434h327l260 -1434h-319z" />
    <glyph glyph-name="B" unicode="B" horiz-adv-x="1423" 
d="M762 0l-670 0.00195312l303 1434h604c112 0 204.5 -35.167 277.5 -105.5s109.5 -149.833 109.5 -238.5c-1.33301 -146 -79 -260 -233 -342c4 -2.66699 10.167 -6.5 18.5 -11.5s22.333 -16.333 42 -34s37 -36.834 52 -57.501s28.667 -47.334 41 -80.001
s18.5 -66.667 18.5 -102c0 -126.667 -53.833 -235.5 -161.5 -326.5s-241.5 -136.5 -401.5 -136.5zM453 256.002h338c62.667 0 116.167 20.5 160.5 61.5s66.5 91.5 66.5 151.5c0 42 -16.333 78.5 -49 109.5s-73 46.5 -121 46.5h-318zM926 1178h-277l-65 -308h297
c56 0 101.667 16.167 137 48.5s53 76.5 53 132.5c0 36.667 -13.167 67 -39.5 91s-61.5 36 -105.5 36z" />
    <glyph glyph-name="C" unicode="C" horiz-adv-x="1546" 
d="M1051 1464c75.333 0 146.331 -9.83203 212.998 -29.499s121.5 -43.5 164.5 -71.5s80.5 -56 112.5 -84s55 -51.667 69 -71l22 -30l-225 -185c-2.66699 5.33301 -7.16699 12.5 -13.5 21.5s-20.666 24.5 -42.999 46.5s-46.5 41.5 -72.5 58.5s-61.5 32.667 -106.5 47
s-92.167 21.5 -141.5 21.5c-151.333 0 -284.666 -54.667 -399.999 -164s-173 -241 -173 -395c0 -108 37.5 -198.833 112.5 -272.5s169.167 -110.5 282.5 -110.5c52 0 102.5 7.5 151.5 22.5s90.333 32.667 124 53s63.667 41.166 90 62.499s45.833 39.333 58.5 54l18 23
l152 -205c-5.33301 -8 -13.833 -18.5 -25.5 -31.5s-37.667 -36 -78 -69s-82.666 -62 -126.999 -87s-102 -47.833 -173 -68.5s-144.167 -31 -219.5 -31c-190 0 -350.5 63.5 -481.5 190.5s-196.5 276.5 -196.5 448.5c0 236 89.167 437.667 267.5 605s391.166 251 638.499 251z
" />
    <glyph glyph-name="D" unicode="D" horiz-adv-x="1556" 
d="M395 1434h498.001c180 0 331.167 -59.167 453.5 -177.5s183.5 -260.166 183.5 -425.499c0 -230.667 -85.333 -426.834 -256 -588.501s-373.334 -242.5 -608.001 -242.5h-574zM866.001 1157h-221l-188 -881h225c135.333 0 258.333 52 369 156s166 227 166 369
c0 101.333 -32.5 186 -97.5 254s-149.5 102 -253.5 102z" />
    <glyph glyph-name="E" unicode="E" horiz-adv-x="1361" 
d="M457 276h768l-58 -276h-1075l303 1434h1055l-57 -277h-748l-61 -287h583l-59 -276h-584z" />
    <glyph glyph-name="F" unicode="F" horiz-adv-x="1320" 
d="M395 1434h1055l-57 -277h-748l-67 -317h583l-59 -277h-584l-119 -563h-307z" />
    <glyph glyph-name="G" unicode="G" horiz-adv-x="1658" 
d="M1014 778h563.001l-113 -532c-6.66699 -6.66699 -16.167 -16.5 -28.5 -29.5s-39.333 -35.333 -81 -67s-86 -59.667 -133 -84s-107 -46.5 -180 -66.5s-147.833 -30 -224.5 -30c-190 0 -349.5 63.5 -478.5 190.5s-193.5 276.5 -193.5 448.5c0 236 89.167 437.667 267.5 605
s391.833 251 640.5 251c75.333 0 146.333 -9.83301 213 -29.5s121.5 -43.5 164.5 -71.5s80.5 -56 112.5 -84s55 -51.667 69 -71l20 -30l-227 -185c-2.66699 5.33301 -7.16699 12.5 -13.5 21.5s-20.666 24.5 -42.999 46.5s-46.5 41.5 -72.5 58.5s-61.5 32.667 -106.5 47
s-92.167 21.5 -141.5 21.5c-151.333 0 -284.333 -55.333 -399 -166s-172 -243 -172 -397c0 -108 37.167 -198.167 111.5 -270.5s168.166 -108.5 281.499 -108.5c64 0 123.667 9.5 179 28.5s94.666 38.167 117.999 57.5l35 26l41 195h-256z" />
    <glyph glyph-name="H" unicode="H" horiz-adv-x="1597" 
d="M1624 1434l-303 -1434h-307l123 584h-615l-123 -584h-307l303 1434h307l-120 -574h614l121 574h307z" />
    <glyph glyph-name="I" unicode="I" horiz-adv-x="675" 
d="M92 0l303 1434h307l-303 -1434h-307z" />
    <glyph glyph-name="J" unicode="J" horiz-adv-x="1054" 
d="M784 1434l308 -0.000976562l-207 -973c-31.333 -151.333 -93.833 -271.166 -187.5 -359.499s-213.5 -132.5 -359.5 -132.5c-72.667 0 -142.334 14.667 -209.001 44s-115 58.333 -145 87l-47 43l225 185l22.5 -22.5c9.66699 -9.66699 30.167 -22 61.5 -37
s63.333 -22.5 96 -22.5c128.667 0 207.334 71.667 236.001 215z" />
    <glyph glyph-name="K" unicode="K" horiz-adv-x="1454" 
d="M702 1434l-129 -600l664 600h387l-657 -596l395 -838h-340l-299 623l-238 -215l-86 -408h-307l303 1434h307z" />
    <glyph glyph-name="L" unicode="L" horiz-adv-x="1208" 
d="M1065 0h-973l303 1434h307l-245 -1158h665z" />
    <glyph glyph-name="M" unicode="M" horiz-adv-x="1904" 
d="M1010 809l628 625h293l-303 -1434h-307l203 954l-586 -585l-338 581l-201 -950h-307l303 1434h256z" />
    <glyph glyph-name="N" unicode="N" horiz-adv-x="1648" 
d="M1368 1434h307l-303 -1434h-256l-524 913l-193 -913h-307l303 1434h256l525 -914z" />
    <glyph glyph-name="O" unicode="O" horiz-adv-x="1761" 
d="M993 1190c-136.667 0 -258.5 -53.668 -365.5 -161.001s-160.5 -230.666 -160.5 -369.999c0 -117.333 39.167 -215.5 117.5 -294.5s179.166 -118.5 302.499 -118.5c135.333 0 256.833 52.5 364.5 157.5s161.5 229.833 161.5 374.5c0 117.333 -39.667 215.333 -119 294
s-179.666 118 -300.999 118zM145 640.999c0 216 87.5 407.168 262.5 573.501s377.167 249.5 606.5 249.5c211.333 0 384.333 -65.167 519 -195.5s202 -288.166 202 -473.499c0 -144.667 -40.333 -280.834 -121 -408.501s-187.5 -229.167 -320.5 -304.5
s-274.167 -113 -423.5 -113c-211.333 0 -385 65.167 -521 195.5s-204 289.166 -204 476.499z" />
    <glyph glyph-name="P" unicode="P" horiz-adv-x="1392" 
d="M395 1434l576 0.000976562c125.333 0 231.333 -43 318 -129s130 -185 130 -297c0 -158.667 -57 -287.834 -171 -387.501s-254.333 -149.5 -421 -149.5h-329l-99 -471h-307zM922 1157l-277 -0.000976562l-88 -409h301c69.333 0 128 22.833 176 68.5s72 101.167 72 166.5
c0 46.667 -17.667 87.334 -53 122.001s-79 52 -131 52z" />
    <glyph glyph-name="Q" unicode="Q" horiz-adv-x="1771" 
d="M145 641c0 216 87.5 407.168 262.5 573.501s377.167 249.5 606.5 249.5c211.333 0 384.333 -65.167 519 -195.5s202 -288.166 202 -473.499c0 -162.667 -50.167 -313.334 -150.5 -452.001s-228.5 -240.667 -384.5 -306c62.667 -79.333 168.667 -119 318 -119h41l-54 -246
h-61c-75.333 0 -145.333 9.66699 -210 29s-116.167 41.166 -154.5 65.499s-72.5 52.333 -102.5 84s-50.5 56.334 -61.5 74.001s-19.167 33.167 -24.5 46.5c-2.66699 0 -6.5 -0.333008 -11.5 -1s-8.16699 -1 -9.5 -1c-211.333 0 -385 65.167 -521 195.5
s-204 289.166 -204 476.499zM993 1190c-136.667 0 -258.5 -53.668 -365.5 -161.001s-160.5 -230.666 -160.5 -369.999c0 -117.333 39.167 -215.5 117.5 -294.5s179.166 -118.5 302.499 -118.5c135.333 0 256.833 52.5 364.5 157.5s161.5 229.833 161.5 374.5
c0 117.333 -39.667 215.333 -119 294s-179.666 118 -300.999 118z" />
    <glyph glyph-name="R" unicode="R" horiz-adv-x="1454" 
d="M92 0l303 1434h606c121.333 0 223.5 -41 306.5 -123s124.5 -177.667 124.5 -287c0 -70.667 -12.333 -135.834 -37 -195.501s-54.5 -106.5 -89.5 -140.5s-69.5 -62.667 -103.5 -86s-63.333 -39 -88 -47l-37 -12l193 -543h-320l-170 502h-274l-107 -502h-307zM879 778.001
c62.667 0 118.167 19.166 166.5 57.499s72.5 89.5 72.5 153.5c0 46.667 -14 86.334 -42 119.001s-65 49 -111 49h-320l-82 -379h316z" />
    <glyph glyph-name="S" unicode="S" horiz-adv-x="1228" 
d="M553 236c66.667 0 125.662 15.334 176.995 46.001s77 78.667 77 144c0 38 -20.167 72 -60.5 102s-89.166 57 -146.499 81s-114.666 50.667 -171.999 80s-106.166 70 -146.499 122s-60.5 113.333 -60.5 184c0 135.333 50.167 247.333 150.5 336s236.5 133 408.5 133
c58.667 0 115.334 -6.83301 170.001 -20.5s99.5 -29.667 134.5 -48s65.833 -37 92.5 -56s45.334 -35.5 56.001 -49.5l18 -20l-213 -185c-8 8 -19.167 18.333 -33.5 31s-44.333 29.5 -90 50.5s-93.167 31.5 -142.5 31.5c-68 0 -121.167 -14.333 -159.5 -43
s-57.5 -67 -57.5 -115c0 -32.667 14.667 -62.334 44 -89.001s65.5 -49.167 108.5 -67.5s90.167 -39.833 141.5 -64.5s98.5 -50.667 141.5 -78s79.167 -64.166 108.5 -110.499s44 -99.5 44 -159.5c0 -152.667 -52.667 -274.5 -158 -365.5s-252.666 -136.5 -441.999 -136.5
c-66.667 0 -130.834 8.16699 -192.501 24.5s-113 35.833 -154 58.5s-76.833 45.667 -107.5 69s-52.667 43 -66 59l-21 25l211 178c9.33301 -10.667 23 -24.334 41 -41.001s56.333 -38.5 115 -65.5s120 -40.5 184 -40.5z" />
    <glyph glyph-name="T" unicode="T" horiz-adv-x="1208" 
d="M252 1434h1126l-57 -277h-410l-245 -1157h-308l246 1157h-409z" />
    <glyph glyph-name="U" unicode="U" horiz-adv-x="1597" 
d="M768 246c87.333 0 167.166 32.001 239.499 96.001s118.833 144.667 139.5 242l180 850h307l-180 -850c-38 -178.667 -120.5 -325.834 -247.5 -441.501s-277.833 -173.5 -452.5 -173.5c-160 0 -293.5 47.167 -400.5 141.5s-160.5 213.833 -160.5 358.5
c0 36.667 4 75 12 115l180 850h307l-180 -850c-5.33301 -23.333 -8 -48 -8 -74c0 -78 24.833 -141.5 74.5 -190.5s112.834 -73.5 189.501 -73.5z" />
    <glyph glyph-name="V" unicode="V" horiz-adv-x="1454" 
d="M461 0l-230 1434h314l143 -1065l594 1065h342l-836 -1434h-327z" />
    <glyph glyph-name="W" unicode="W" horiz-adv-x="2191" 
d="M1141 1434h289l92 -981l510 981h329l-770 -1434h-291l-104 961l-504 -961h-293l-168 1434h312l96 -981z" />
    <glyph glyph-name="X" unicode="X" horiz-adv-x="1433" 
d="M741 522l-460 -522h-363l660 748l-316 686h330l211 -461l403 461h367l-606 -686l344 -748h-332z" />
    <glyph glyph-name="Y" unicode="Y" horiz-adv-x="1351" 
d="M522 1434l209 -615l467 615h344l-706 -922l-109 -512h-307l108 512l-317 922h311z" />
    <glyph glyph-name="Z" unicode="Z" horiz-adv-x="1331" 
d="M965 1157h-678l57 277h1075l-57 -277l-897 -881h729l-57 -276h-1127l58 276z" />
    <glyph glyph-name="bracketleft" unicode="[" horiz-adv-x="737" 
d="M596 1219l-301 -1414h246l-49 -235h-512l399 1884h512l-49 -235h-246z" />
    <glyph glyph-name="backslash" unicode="\" horiz-adv-x="993" 
d="M500 -430l-224 1884h248l224 -1884h-248z" />
    <glyph glyph-name="bracketright" unicode="]" horiz-adv-x="737" 
d="M172 -195l301 1414h-246l49 235h512l-399 -1884h-510l47 235h246z" />
    <glyph glyph-name="asciicircum" unicode="^" horiz-adv-x="880" 
d="M549 1434h205l147 -615h-229l-74 328l-213 -328h-242z" />
    <glyph glyph-name="underscore" unicode="_" horiz-adv-x="706" 
d="M596 -174l-53 -256h-746l53 256h746z" />
    <glyph glyph-name="grave" unicode="`" horiz-adv-x="573" 
d="M555 1444l90 -307h-211l-160 307h281z" />
    <glyph glyph-name="a" unicode="a" horiz-adv-x="1259" 
d="M631 1024c40.667 0 78.833 -5.16504 114.5 -15.498s64.334 -23.333 86.001 -39s40.334 -31 56.001 -46s27.167 -27.833 34.5 -38.5l10 -15l29 134h276l-213 -1004h-276l22 113c-2.66699 -4 -6.33398 -8.83301 -11.001 -14.5s-16.334 -16.334 -35.001 -32.001
s-38.834 -29.334 -60.501 -41.001s-50.667 -22.167 -87 -31.5s-74.166 -14 -113.499 -14c-110.667 0 -205 42.667 -283 128s-117 187.333 -117 306c0 172 57.5 316.667 172.5 434s246.833 176 395.5 176zM560.999 225.002c78 0 147.668 32.499 209.001 97.499
s92 145.167 92 240.5c0 62.667 -20.5 114.167 -61.5 154.5s-90.167 60.5 -147.5 60.5c-78 0 -147.333 -31.667 -208 -95s-91 -143.666 -91 -240.999c0 -61.333 20.167 -112.833 60.5 -154.5s89.166 -62.5 146.499 -62.5z" />
    <glyph glyph-name="b" unicode="b" horiz-adv-x="1269" 
d="M645 -20c-40.667 0 -78.833 5 -114.5 15s-64.334 22.5 -86.001 37.5s-40.334 30.333 -56.001 46s-27.167 29.167 -34.5 40.5l-10 14l-27 -133h-276l303 1434h277l-115 -543c2.66699 4 6.33398 8.66699 11.001 14s16.334 16 35.001 32s38.834 29.667 60.501 41
s50.667 21.833 87 31.5s74.166 14.5 113.499 14.5c110.667 0 205.167 -42 283.5 -126s117.5 -185.333 117.5 -304c0 -172 -57.667 -317.333 -173 -436s-247.333 -178 -396 -178zM715.001 778c-76.667 0 -145.667 -32.334 -207 -97.001s-92 -145 -92 -241
c0 -62.667 20.167 -114.167 60.5 -154.5s89.166 -60.5 146.499 -60.5c78 0 147.333 31.833 208 95.5s91 143.834 91 240.501c0 61.333 -20.167 112.833 -60.5 154.5s-89.166 62.5 -146.499 62.5z" />
    <glyph glyph-name="c" unicode="c" horiz-adv-x="1075" 
d="M66 432c0 160 61.6699 298.67 185.003 416.003s269.666 176 438.999 176c52 0 101.167 -7.16699 147.5 -21.5s84.5 -31.333 114.5 -51s56.333 -39.5 79 -59.5s39.334 -37.333 50.001 -52l15 -21l-201 -162c-5.33301 9.33301 -13.5 20.666 -24.5 33.999
s-36.333 31.166 -76 53.499s-81.834 33.5 -126.501 33.5c-82 0 -156.167 -32.333 -222.5 -97s-99.5 -141.334 -99.5 -230.001c0 -62.667 20.833 -116 62.5 -160s93.167 -66 154.5 -66c45.333 0 90.166 11.667 134.499 35s77.5 47.333 99.5 72l32 35l132 -183
c-4 -5.33301 -9.83301 -12.833 -17.5 -22.5s-24.834 -26 -51.501 -49s-55 -43.333 -85 -61s-69.333 -34 -118 -49s-98.667 -22.5 -150 -22.5c-134 0 -246.333 45.333 -337 136s-136 196 -136 316z" />
    <glyph glyph-name="d" unicode="d" horiz-adv-x="1269" 
d="M631 1024c40.667 0 78.833 -5.16504 114.5 -15.498s64.334 -23.333 86.001 -39s40.334 -31 56.001 -46s27.167 -27.833 34.5 -38.5l10 -15l119 564h276l-303 -1434h-276l22 113c-2.66699 -4 -6.33398 -8.83301 -11.001 -14.5s-16.334 -16.334 -35.001 -32.001
s-38.834 -29.334 -60.501 -41.001s-50.667 -22.167 -87 -31.5s-74.166 -14 -113.499 -14c-110.667 0 -205 42.667 -283 128s-117 187.333 -117 306c0 172 57.5 316.667 172.5 434s246.833 176 395.5 176zM560.999 225.002c78 0 147.668 32.499 209.001 97.499
s92 145.167 92 240.5c0 62.667 -20.5 114.167 -61.5 154.5s-90.167 60.5 -147.5 60.5c-78 0 -147.333 -31.667 -208 -95s-91 -143.666 -91 -240.999c0 -61.333 20.167 -112.833 60.5 -154.5s89.166 -62.5 146.499 -62.5z" />
    <glyph glyph-name="e" unicode="e" horiz-adv-x="1167" 
d="M1069 410h-729c6.66699 -57.333 30.5 -104.166 71.5 -140.499s94.167 -54.5 159.5 -54.5c52 0 101.667 10.667 149 32s81.666 42.666 102.999 63.999l33 33l107 -190l-18.5 -18.5c-8.33301 -8.33301 -26.833 -22.5 -55.5 -42.5s-58.667 -37.833 -90 -53.5
s-71.666 -29.5 -120.999 -41.5s-100 -18 -152 -18c-126.667 0 -235.5 44.333 -326.5 133s-136.5 192.334 -136.5 311.001c0 165.333 61.833 306.666 185.5 423.999s266.834 176 429.501 176c125.333 0 229.666 -36.833 312.999 -110.5s125 -167.167 125 -280.5
c0 -34 -4 -71 -12 -111zM645 788c-57.333 0 -109.833 -17 -157.5 -51s-85.167 -78.333 -112.5 -133h469c0 53.333 -17.833 97.333 -53.5 132s-84.167 52 -145.5 52z" />
    <glyph glyph-name="f" unicode="f" horiz-adv-x="747" 
d="M799 973l-51 -246.001h-226l-153 -727h-277l154 727h-144l52 246h143l29 133c50.667 232 183.667 348 399 348c30 0 59.333 -2.66699 88 -8s50 -10.666 64 -15.999l18 -7l-49 -235c-24.667 13.333 -57.334 20 -98.001 20c-35.333 0 -67.166 -10.833 -95.499 -32.5
s-45.833 -48.167 -52.5 -79.5l-27 -123h226z" />
    <glyph glyph-name="g" unicode="g" horiz-adv-x="1228" 
d="M635 768c-75.333 0 -139.998 -29.6689 -193.998 -89.002s-81 -128.666 -81 -207.999c0 -56 18.167 -102.5 54.5 -139.5s81.166 -55.5 134.499 -55.5c69.333 0 133.666 29.833 192.999 89.5s89 128.834 89 207.501c0 56 -19 102.5 -57 139.5s-84.333 55.5 -139 55.5z
M733.002 81.998l17.002 72.001c-6.66699 -9.33301 -17.667 -21.666 -33 -36.999s-49.166 -35.333 -101.499 -60s-109.5 -37 -171.5 -37c-102.667 0 -191 42.667 -265 128s-111 184.666 -111 297.999c0 155.333 56.333 290.5 169 405.5s237 172.5 373 172.5
c60 0 114.333 -13 163 -39s81.667 -51.333 99 -76l29 -39l29 134h276l-196 -922c-31.333 -147.333 -101 -269.5 -209 -366.5s-236.333 -145.5 -385 -145.5c-57.333 0 -112.333 7.5 -165 22.5s-96.334 32.667 -131.001 53s-65.334 41.166 -92.001 62.499
s-45.667 39.333 -57 54l-18 23l203 162c2.66699 -4 6 -8.83301 10 -14.5s14.167 -16 30.5 -31s33.666 -28.333 51.999 -40s43.333 -22.167 75 -31.5s64.5 -14 98.5 -14c82 0 149.5 23.5 202.5 70.5s89.167 112.167 108.5 195.5z" />
    <glyph glyph-name="h" unicode="h" horiz-adv-x="1228" 
d="M621 1434l-115 -545.001c8 9.33301 19.833 21.5 35.5 36.5s49.5 35.167 101.5 60.5s105.333 38 160 38c96.667 0 175 -28.667 235 -86s90 -136.666 90 -237.999c0 -36.667 -4 -75.334 -12 -116.001l-123 -584h-276l117 553c4 20.667 6 39.667 6 57
c0 45.333 -13 81.333 -39 108s-62.333 40 -109 40c-62.667 0 -118.5 -22.167 -167.5 -66.5s-81.833 -104.166 -98.5 -179.499l-109 -512h-276l303 1434h277z" />
    <glyph glyph-name="i" unicode="i" horiz-adv-x="563" 
d="M612 1311c0 -46.667 -16.668 -87.333 -50.001 -122s-74.666 -52 -123.999 -52c-48 0 -85.167 11.5 -111.5 34.5s-39.5 55.167 -39.5 96.5c0 50.667 16.667 92.667 50 126s73.333 50 120 50c49.333 0 87.5 -12.333 114.5 -37s40.5 -56.667 40.5 -96zM529.999 1004
l-213 -1004h-276l213 1004h276z" />
    <glyph glyph-name="j" unicode="j" horiz-adv-x="563" 
d="M27 -61l226.999 1065h276l-231 -1086c-23.333 -112 -70.166 -198 -140.499 -258s-156.5 -90 -258.5 -90c-30 0 -59 2.66699 -87 8s-49 10.666 -63 15.999l-18 7l53 245c30 -13.333 62 -20 96 -20s65.167 11 93.5 33s45.833 48.667 52.5 80zM611.999 1311
c0 -46.667 -16.668 -87.333 -50.001 -122s-74.666 -52 -123.999 -52c-48 0 -85.167 11.5 -111.5 34.5s-39.5 55.167 -39.5 96.5c0 50.667 16.667 92.667 50 126s73.333 50 120 50c49.333 0 87.5 -12.333 114.5 -37s40.5 -56.667 40.5 -96z" />
    <glyph glyph-name="k" unicode="k" horiz-adv-x="1116" 
d="M528 391l-159 -147l-52 -244h-276l303 1434h277l-175 -818l420 388h340l-469 -433l277 -571h-297z" />
    <glyph glyph-name="l" unicode="l" horiz-adv-x="563" 
d="M621 1434l-304 -1434h-276l303 1434h277z" />
    <glyph glyph-name="m" unicode="m" horiz-adv-x="1792" 
d="M1280 0l116.998 552.996c5.33301 30 8 51 8 63c0 45.333 -11.667 80.333 -35 105s-54.666 37 -93.999 37c-53.333 0 -101.833 -22.167 -145.5 -66.5s-73.834 -104.166 -90.501 -179.499l-108 -512h-277l117 553c5.33301 30 8 51 8 63c0 45.333 -11.5 80.333 -34.5 105
s-54.5 37 -94.5 37c-53.333 0 -101.833 -22.167 -145.5 -66.5s-73.5 -104.166 -89.5 -179.499l-109 -512h-276l213 1004h276l-24 -113c8 9.33301 18.833 21.5 32.5 36.5s44.334 34.833 92.001 59.5s97.5 37 149.5 37c39.333 0 75.5 -6.16699 108.5 -18.5
s58.333 -26.666 76 -42.999s32.334 -33 44.001 -50s19.5 -31.833 23.5 -44.5l6 -18c4 4 9.5 10.167 16.5 18.5s22.667 22.333 47 42s49.833 37.334 76.5 53.001s60.5 29.667 101.5 42s82.833 18.5 125.5 18.5c92.667 0 166 -25.667 220 -77s81 -126.666 81 -225.999
c0 -36.667 -5.66699 -82.334 -17 -137.001l-123 -584h-276z" />
    <glyph glyph-name="n" unicode="n" 
d="M520 1004l-23.999 -115.001c8 9.33301 19.833 21.5 35.5 36.5s49.5 35.167 101.5 60.5s105.333 38 160 38c96.667 0 175 -28.667 235 -86s90 -136.666 90 -237.999c0 -36.667 -4 -75.334 -12 -116.001l-123 -584h-276l116 553c4 20.667 6 39.667 6 57
c0 45.333 -12.833 81.333 -38.5 108s-61.834 40 -108.501 40c-62.667 0 -118.667 -22.167 -168 -66.5s-82 -104.166 -98 -179.499l-109 -512h-276l213 1004h276z" />
    <glyph glyph-name="o" unicode="o" horiz-adv-x="1208" 
d="M645 768c-75.333 0 -142.667 -31.333 -202 -94s-89 -133.667 -89 -213c0 -65.333 20.167 -119.166 60.5 -161.499s91.833 -63.5 154.5 -63.5c74 0 141 30.333 201 91s90 132.667 90 216c0 65.333 -20.167 119.166 -60.5 161.499s-91.833 63.5 -154.5 63.5zM1151 553
c0 -148.667 -61.165 -281.333 -183.498 -398s-261.833 -175 -418.5 -175c-136.667 0 -251.834 46.333 -345.501 139s-140.5 203.334 -140.5 332.001c0 150 62.833 283 188.5 399s266.5 174 422.5 174c135.333 0 248.666 -46.833 339.999 -140.5s137 -203.834 137 -330.501z
" />
    <glyph glyph-name="p" unicode="p" horiz-adv-x="1259" 
d="M635 -20c-40.667 0 -78.833 5 -114.5 15s-64.5 22.5 -86.5 37.5s-40.833 30.333 -56.5 46s-26.834 29.167 -33.501 40.5l-10 14l-119 -563h-276l305 1434h276l-24 -113c2.66699 4 6.33398 8.66699 11.001 14s16.167 16 34.5 32s38.5 29.667 60.5 41s51 21.833 87 31.5
s74 14.5 114 14.5c110.667 0 204.834 -42 282.501 -126s116.5 -185.333 116.5 -304c0 -172 -57.333 -317.333 -172 -436s-246.334 -178 -395.001 -178zM705.001 778c-76.667 0 -145.667 -32.334 -207 -97.001s-92 -145 -92 -241c0 -62.667 20 -114.167 60 -154.5
s88.667 -60.5 146 -60.5c78 0 147.333 31.833 208 95.5s91 143.834 91 240.501c0 61.333 -20 112.833 -60 154.5s-88.667 62.5 -146 62.5z" />
    <glyph glyph-name="q" unicode="q" horiz-adv-x="1259" 
d="M631 1024c40.667 0 78.833 -5.16406 114.5 -15.4971s64.334 -23.333 86.001 -39s40.334 -31 56.001 -46s27.167 -27.833 34.5 -38.5l10 -15l29 134h276l-305 -1434h-277l115 543c-2.66699 -4 -6.33398 -8.83301 -11.001 -14.5s-16.334 -16.334 -35.001 -32.001
s-38.834 -29.334 -60.501 -41.001s-50.667 -22.167 -87 -31.5s-74.166 -14 -113.499 -14c-110.667 0 -205 42.167 -283 126.5s-117 186.166 -117 305.499c0 172 57.5 317 172.5 435s246.833 177 395.5 177zM560.999 225.003c78 0 147.668 32.499 209.001 97.499
s92 145.167 92 240.5c0 62.667 -20.5 114.167 -61.5 154.5s-90.167 60.5 -147.5 60.5c-78 0 -147.333 -31.667 -208 -95s-91 -143.666 -91 -240.999c0 -61.333 20.167 -112.833 60.5 -154.5s89.166 -62.5 146.499 -62.5z" />
    <glyph glyph-name="r" unicode="r" horiz-adv-x="757" 
d="M850 1014l-59.0029 -277.002c-19.333 6.66699 -49.666 10.334 -90.999 11.001c-72.667 0 -135.167 -24.667 -187.5 -74s-87.833 -117 -106.5 -203l-99 -471h-276l213 1004h276l-24 -113c9.33301 9.33301 22.833 20.833 40.5 34.5s53.834 31.834 108.501 54.501
s109.334 34 164.001 34h41z" />
    <glyph glyph-name="s" unicode="s" horiz-adv-x="931" 
d="M911 870l-173.998 -158.996c-40.667 52 -95.334 77.667 -164.001 77c-42 0 -74 -8.16699 -96 -24.5s-33 -35.833 -33 -58.5c0 -20.667 13 -40.334 39 -59.001s57.833 -35.834 95.5 -51.501s75.334 -34 113.001 -55s69.334 -49.333 95.001 -85s38.5 -77.167 38.5 -124.5
c0 -105.333 -37.833 -190 -113.5 -254s-182.5 -96 -320.5 -96c-53.333 0 -103.833 6.33301 -151.5 19s-86.5 28 -116.5 46s-56 35.833 -78 53.5s-37.667 32.5 -47 44.5l-14 21l178 147c5.33301 -8 13.5 -17.833 24.5 -29.5s34.833 -27.334 71.5 -47.001s75 -29.5 115 -29.5
c94 0 141 32 141 96c0 22 -13.333 42.167 -40 60.5s-58.334 35.666 -95.001 51.999s-73.834 34.833 -111.501 55.5s-69.834 48.667 -96.501 84s-40 76.333 -40 123c0 90 40 170.5 120 241.5s183.333 106.5 310 106.5c69.333 0 133.5 -13 192.5 -39
s100.167 -51.333 123.5 -76z" />
    <glyph glyph-name="t" unicode="t" horiz-adv-x="829" 
d="M389 1116l39.002 184h246l-66 -317h205l-53 -246h-205l-84 -399c-8 -32.667 -4.83301 -59.667 9.5 -81s38.5 -32 72.5 -32c20.667 0 41.167 1.83301 61.5 5.5s35.166 7.5 44.499 11.5l17 4l-49 -236c-57.333 -20.667 -120.333 -30.667 -189 -30
c-214.667 0 -296.334 116 -245.001 348l86 409h-175l54 246h92c31.333 0 60.333 12.333 87 37s44 56.667 52 96z" />
    <glyph glyph-name="u" unicode="u" 
d="M707 0l18 94c-8 -8 -19.833 -18.5 -35.5 -31.5s-49.167 -30 -100.5 -51s-104.333 -31.5 -159 -31.5c-96.667 0 -175.5 28.667 -236.5 86s-91.5 134.333 -91.5 231c0 34 4.33301 69.333 13 106l129 601h276l-123 -574c-4 -16.667 -6 -31.667 -6 -45
c0 -44 15 -79.833 45 -107.5s69.667 -41.5 119 -41.5c61.333 0 114.5 21.5 159.5 64.5s75.833 102.5 92.5 178.5l113 525h276l-213 -1004h-276z" />
    <glyph glyph-name="v" unicode="v" horiz-adv-x="1064" 
d="M573 0h-286l-166 1004h272l96 -666l375 666h301z" />
    <glyph glyph-name="w" unicode="w" horiz-adv-x="1576" 
d="M784 1004h217l66 -605l326 605h284l-555 -1004h-239l-74 573l-315 -573h-244l-129 1004h266l72 -605z" />
    <glyph glyph-name="x" unicode="x" horiz-adv-x="1044" 
d="M502 317l-281 -317h-313l446 512l-213 492h291l121 -297l248 297h323l-422 -492l230 -512h-281z" />
    <glyph glyph-name="y" unicode="y" horiz-adv-x="1064" 
d="M250 -55l47 71l-176 988h276l101 -666l370 666h297l-626 -1065c-74 -125.333 -146.833 -218.166 -218.5 -278.499s-149.834 -90.5 -234.501 -90.5c-30 0 -60 2.66699 -90 8s-52.667 10.666 -68 15.999l-22 7l51 245c23.333 -13.333 55.333 -20 96 -20
c80.667 0 146.334 39.667 197.001 119z" />
    <glyph glyph-name="z" unicode="z" horiz-adv-x="1024" 
d="M1032 1004l-53 -246l-586 -512h498l-51 -246h-860l51 246l585 512h-456l53 246h819z" />
    <glyph glyph-name="braceleft" unicode="{" horiz-adv-x="808" 
d="M104 399l47.9951 225.998c40.667 0 75.667 11.833 105 35.5s48 56.167 56 97.5l74 348c50.667 232 181 348 391 348h174l-51 -246h-102c-35.333 0 -67 -11.833 -95 -35.5s-46.333 -54.834 -55 -93.501l-71 -331c-12 -60 -33.5 -109.833 -64.5 -149.5
s-58.833 -64.5 -83.5 -74.5l-35 -12c2.66699 -1.33301 6.83398 -3 12.501 -5s15.334 -8.16699 29.001 -18.5s23.834 -23.666 30.501 -39.999s12.834 -39.166 18.501 -68.499s2.83398 -64 -8.49902 -104l-69 -333c-8 -38 -3.16699 -68.667 14.5 -92s44.167 -35 79.5 -35h102
l-51 -246h-133c-109.333 0 -190 30.333 -242 91s-66.333 146.334 -43 257.001l74 348c9.33301 40.667 4.33301 73 -15 97s-49.333 36 -90 36z" />
    <glyph glyph-name="bar" unicode="|" horiz-adv-x="768" 
d="M737 1454l-399 -1884h-277l400 1884h276z" />
    <glyph glyph-name="braceright" unicode="}" horiz-adv-x="808" 
d="M735 625l-47.001 -225.997c-40.667 0 -75.334 -11.833 -104.001 -35.5s-48 -56.167 -58 -97.5l-73 -348c-49.333 -232 -180 -348 -392 -348h-172l50 246h102c35.333 0 67.333 11.5 96 34.5s47.334 53.833 56.001 92.5l69 333c8 38 20 72.167 36 102.5
s32.167 53.333 48.5 69s32.333 29 48 40s28.167 17.833 37.5 20.5l14 4c-4 1.33301 -8.33301 3 -13 5s-14.167 8.16699 -28.5 18.5s-24.5 23.666 -30.5 39.999s-12.167 39.166 -18.5 68.499s-4.16602 64 6.50098 104l72 331c8 38 2.83301 69 -15.5 93s-45.166 36 -80.499 36
h-102l51 246h133c109.333 0 190.166 -30.333 242.499 -91s66.5 -146.334 42.5 -257.001l-74 -348c-8 -40.667 -2.83301 -73 15.5 -97s47.833 -36 88.5 -36z" />
    <glyph glyph-name="asciitilde" unicode="~" horiz-adv-x="1157" 
d="M434 553c-36.667 0 -72.167 -8.49902 -106.5 -25.499s-59.5 -34.5 -75.5 -52.5l-25 -24l-139 112c2.66699 5.33301 7.16699 12.833 13.5 22.5s20 27.167 41 52.5s43.833 47.166 68.5 65.499s56.5 35.333 95.5 51s79.5 23.5 121.5 23.5
c69.333 0 137.833 -20.5 205.5 -61.5s121.5 -61.5 161.5 -61.5c36.667 0 72 8.66699 106 26s58.667 34.666 74 51.999l24 25l140 -113c-2.66699 -5.33301 -7.16699 -12.833 -13.5 -22.5s-20 -27.167 -41 -52.5s-43.5 -47.166 -67.5 -65.499s-55.5 -35.333 -94.5 -51
s-79.5 -23.5 -121.5 -23.5c-69.333 0 -138 20.5 -206 61.5s-121.667 61.5 -161 61.5z" />
    <glyph glyph-name="uni00A0" unicode="&#xa0;" horiz-adv-x="419" 
 />
    <glyph glyph-name="exclamdown" unicode="&#xa1;" horiz-adv-x="634" 
d="M238 594h225l-166 -1024h-328zM573 885c0 -42 -18.333 -80.499 -55 -115.499s-79 -52.5 -127 -52.5c-44 0 -80.167 13.667 -108.5 41s-42.5 60 -42.5 98c0 45.333 18.333 84.666 55 117.999s79 50 127 50c44 0 80.167 -14 108.5 -42s42.5 -60.333 42.5 -97z" />
    <glyph glyph-name="cent" unicode="&#xa2;" horiz-adv-x="1044" 
d="M870 1208l-44.998 -203.998c110.667 -28.667 188.667 -83.334 234 -164.001l-199 -164c-1.33301 2.66699 -3.33301 6.33398 -6 11.001s-9.83398 12.834 -21.501 24.501s-24.334 22 -38.001 31s-32 17.167 -55 24.5s-48.167 11 -75.5 11
c-76.667 0 -147.167 -32.333 -211.5 -97s-96.5 -140.667 -96.5 -228c0 -62.667 19.5 -116.334 58.5 -161.001s87.167 -67 144.5 -67c42 0 82.5 9 121.5 27s67.5 35.667 85.5 53l25 27l133 -174c-94 -92.667 -198.667 -150 -314 -172l-43 -201h-245l45 217
c-87.333 31.333 -159.833 86 -217.5 164s-86.5 164.667 -86.5 260c0 139.333 51 264.666 153 375.999s224 180.666 366 207.999l43 198h245z" />
    <glyph glyph-name="sterling" unicode="&#xa3;" horiz-adv-x="1198" 
d="M362 983c30 147.333 93.166 264.333 189.499 351s216.833 130 361.5 130c52 0 102 -6.83301 150 -20.5s87.667 -29.667 119 -48s58.833 -37 82.5 -56s41.167 -35.5 52.5 -49.5l16 -20l-235 -187c-5.33301 6.66699 -12.833 15.167 -22.5 25.5s-31.667 24.5 -66 42.5
s-71.166 27 -110.499 27c-61.333 0 -115.833 -20.5 -163.5 -61.5s-78.5 -92.167 -92.5 -153.5l-37 -175h359l-45 -215h-359l-41 -194c-5.33301 -22 -12.5 -42.167 -21.5 -60.5s-16.833 -31.5 -23.5 -39.5l-8 -13h643l-55 -266h-1024l55 266c80.667 0 129.667 37.667 147 113
l41 194h-122l45 215h122z" />
    <glyph glyph-name="currency" unicode="&#xa4;" horiz-adv-x="1423" 
d="M627 788l297 0.000976562c65.333 0 119.5 21.667 162.5 65s64.5 95.666 64.5 156.999c0 45.333 -15.333 82.833 -46 112.5s-70 44.5 -118 44.5h-278zM893 543.001h-318l-24 -113h430l-51 -246h-430l-39 -184h-307l39 184h-154l51 246h154l24 113h-153l51 245h153l138 646
h567c124 0 228.667 -41 314 -123s128 -175.667 128 -281c0 -142 -53.5 -258.667 -160.5 -350s-244.5 -137 -412.5 -137z" />
    <glyph glyph-name="yen" unicode="&#xa5;" horiz-adv-x="1351" 
d="M1133 512h-297l-23 -102h297l-45 -215h-297l-41 -195h-307l41 195h-297l45 215h297l22 102h-297l45 215h177l-242 707h311l209 -615l467 615h344l-543 -707h179z" />
    <glyph glyph-name="brokenbar" unicode="&#xa6;" horiz-adv-x="768" 
d="M227 348h277l-166 -778h-277zM573 676h-276l164 778h276z" />
    <glyph glyph-name="section" unicode="&#xa7;" horiz-adv-x="1116" 
d="M1128 1311l-180.006 -158.001c-45.333 50.667 -106 76 -182 76c-49.333 0 -87 -10.667 -113 -32s-39 -49.666 -39 -84.999c0 -26 15.5 -49.833 46.5 -71.5s68 -42.834 111 -63.501s86.333 -43.334 130 -68.001s80.834 -58.167 111.501 -100.5s46 -89.833 46 -142.5
c0 -44 -8.5 -85.167 -25.5 -123.5s-37.167 -68.666 -60.5 -90.999s-48 -41.666 -74 -57.999s-46.5 -28 -61.5 -35s-23.833 -10.5 -26.5 -10.5c8 -5.33301 17.833 -13.5 29.5 -24.5s27.5 -33.5 47.5 -67.5s30 -69.333 30 -106c0 -106.667 -43.167 -197.667 -129.5 -273
s-201.166 -113 -344.499 -113c-56 0 -109.167 7.16699 -159.5 21.5s-91.166 31.5 -122.499 51.5s-59 39.833 -83 59.5s-40.667 36.5 -50 50.5l-17 22l183 152c2.66699 -2.66699 6 -6.83398 10 -12.501s13.167 -15.667 27.5 -30s30 -26.5 47 -36.5s38.833 -19.5 65.5 -28.5
s54.334 -13.5 83.001 -13.5c61.333 0 107 12.667 137 38s45 59 45 101c0 34 -24.5 66.167 -73.5 96.5s-103.167 57 -162.5 80s-113.666 59.167 -162.999 108.5s-74 107.333 -74 174c0 44 8.5 84.333 25.5 121s37.833 66.334 62.5 89.001s49.334 42.167 74.001 58.5
s45 27.833 61 34.5l27 10c-52 49.333 -78 112.333 -78 189c0 98 39.333 183.167 118 255.5s188.334 108.5 329.001 108.5c46.667 0 91 -5 133 -15s77 -22.5 105 -37.5s52.667 -30.5 74 -46.5s36.666 -28.667 45.999 -38zM638.994 460.999
c4 1.33301 9.16699 2.99902 15.5 4.99902s17.666 7.5 33.999 16.5s31 18.833 44 29.5s24.5 26 34.5 46s15 41.667 15 65c0 36.667 -18.667 69.667 -56 99s-74.666 49.333 -111.999 60l-57 17c-4 -1.33301 -9.16699 -3 -15.5 -5s-17.666 -7.5 -33.999 -16.5s-31 -19 -44 -30
s-24.5 -26.333 -34.5 -46s-15 -41.167 -15 -64.5c0 -36.667 18.667 -69.667 56 -99s74.666 -49.666 111.999 -60.999z" />
    <glyph glyph-name="dieresis" unicode="&#xa8;" horiz-adv-x="880" 
d="M692 1284c0 42 17.834 80.833 53.501 116.5s76.5 53.5 122.5 53.5c39.333 0 72.166 -13.333 98.499 -40s39.5 -59 39.5 -97c0 -44 -18.5 -83.333 -55.5 -118s-76.833 -52 -119.5 -52c-39.333 0 -72.333 13.667 -99 41s-40 59.333 -40 96zM240.001 1284
c0 42 17.667 80.833 53 116.5s76.333 53.5 123 53.5c39.333 0 72 -13.333 98 -40s39 -59 39 -97c0 -44 -18.5 -83.333 -55.5 -118s-76.5 -52 -118.5 -52c-39.333 0 -72.333 13.667 -99 41s-40 59.333 -40 96z" />
    <glyph glyph-name="copyright" unicode="&#xa9;" horiz-adv-x="1781" 
d="M1012 932c-64 0 -123.335 -24.002 -178.002 -72.002s-82 -106 -82 -174c0 -49.333 17 -92.333 51 -129s77 -55 129 -55c39.333 0 76.5 9.5 111.5 28.5s59.833 38.167 74.5 57.5l23 28l110 -124c-4 -4 -9 -10.167 -15 -18.5s-20.333 -22.5 -43 -42.5
s-46.667 -37.833 -72 -53.5s-57.666 -29.667 -96.999 -42s-80.333 -18.5 -123 -18.5c-100 0 -183.333 33.833 -250 101.5s-100 147.834 -100 240.501c0 131.333 46 240.333 138 327s204.333 130 337 130c65.333 0 124 -13.667 176 -41s87.667 -54.666 107 -81.999l28 -41
l-143 -118c-4 6.66699 -9.83301 15.5 -17.5 26.5s-27.167 25.667 -58.5 44s-66.666 27.5 -105.999 27.5zM886.998 132.998c168 0 320.167 65.5 456.5 196.5s204.5 281.833 204.5 452.5c0 144.667 -50.833 267.667 -152.5 369s-228.167 152 -379.5 152
c-168 0 -320.333 -65.667 -457 -197s-205 -282.333 -205 -453c0 -144.667 50.667 -267.5 152 -368.5s228.333 -151.5 381 -151.5zM1737 796.998c0 -140.667 -39.668 -274.5 -119.001 -401.5s-185.5 -229.5 -318.5 -307.5s-273.833 -117 -422.5 -117
c-207.333 0 -377.666 64.833 -510.999 194.5s-200 287.5 -200 473.5c0 146 40.667 282.833 122 410.5s188.5 228.667 321.5 303s272.5 111.5 418.5 111.5c206 0 375.667 -64.667 509 -194s200 -287 200 -473z" />
    <glyph glyph-name="ordfeminine" unicode="&#xaa;" horiz-adv-x="753" 
d="M612 1096l-159 -31.001c-24.667 -5.33301 -45.5 -16.166 -62.5 -32.499s-25.5 -33.5 -25.5 -51.5c0 -13.333 6 -24.833 18 -34.5s29 -14.5 51 -14.5c35.333 0 71.5 15 108.5 45s58.833 62.667 65.5 98zM352 787.999c-52 0 -94.665 15.499 -127.998 46.499
s-50 68.833 -50 113.5c0 54.667 23.167 103.5 69.5 146.5s108.5 70.833 186.5 83.5l207 30v13c0 19.333 -8.5 35.666 -25.5 48.999s-40.5 20 -70.5 20s-59 -5 -87 -15s-48.333 -20 -61 -30l-18 -16l-90 102c6.66699 9.33301 16.5 20.833 29.5 34.5s43.667 31.834 92 54.501
s101.166 34 158.499 34c75.333 0 135.833 -17.667 181.5 -53s68.5 -83.333 68.5 -144c0 -13.333 -2.66699 -36.333 -8 -69l-82 -379h-174l16 72c-5.33301 -6.66699 -13.833 -15.167 -25.5 -25.5s-36.334 -24.166 -74.001 -41.499s-76.167 -26 -115.5 -26z" />
    <glyph glyph-name="guillemotleft" unicode="&#xab;" horiz-adv-x="1126" 
d="M1155 850l-346 -373l170 -344h-266l-178 359l331 358h289zM715 850l-346 -373l170 -344h-267l-178 359l332 358h289z" />
    <glyph glyph-name="logicalnot" unicode="&#xac;" horiz-adv-x="972" 
d="M987 840l-108 -506h-256l55 260h-574l54 246h829z" />
    <glyph glyph-name="uni00AD" unicode="&#xad;" horiz-adv-x="880" 
d="M870 727l-53 -246h-737l53 246h737z" />
    <glyph glyph-name="registered" unicode="&#xae;" horiz-adv-x="1781" 
d="M1116 633l111.001 -305h-197l-88 266h-111l-55 -266h-194l163 778h320c69.333 0 127.666 -22.167 174.999 -66.5s71 -95.833 71 -154.5c-1.33301 -116 -66.333 -200 -195 -252zM903.001 932l-35.001 -164h131c28.667 0 53.334 8.5 74.001 25.5s31 40.5 31 70.5
c0 20.667 -6.83301 37.167 -20.5 49.5s-32.167 18.5 -55.5 18.5h-125zM887 133c168 0 320.167 65.5 456.5 196.5s204.5 281.833 204.5 452.5c0 144.667 -50.833 267.667 -152.5 369s-228.167 152 -379.5 152c-168 0 -320.333 -65.667 -457 -197s-205 -282.333 -205 -453
c0 -144.667 50.667 -267.5 152 -368.5s228.333 -151.5 381 -151.5zM1737 797c0 -140.667 -39.668 -274.5 -119.001 -401.5s-185.5 -229.5 -318.5 -307.5s-273.833 -117 -422.5 -117c-207.333 0 -377.666 64.833 -510.999 194.5s-200 287.5 -200 473.5
c0 146 40.667 282.833 122 410.5s188.5 228.667 321.5 303s272.5 111.5 418.5 111.5c206 0 375.667 -64.667 509 -194s200 -287 200 -473z" />
    <glyph glyph-name="macron" unicode="&#xaf;" horiz-adv-x="778" 
d="M934 1464l-43 -204h-655l43 204h655z" />
    <glyph glyph-name="degree" unicode="&#xb0;" horiz-adv-x="778" 
d="M553 1280c-39.333 0 -72.334 -15.332 -99.001 -45.999s-40 -67.334 -40 -110.001c0 -32.667 10.833 -59.167 32.5 -79.5s49.5 -30.5 83.5 -30.5c36.667 0 68.834 14.667 96.501 44s41.5 68 41.5 116c0 31.333 -10.667 56.833 -32 76.5s-49 29.5 -83 29.5zM863.999 1174
c0 -87.333 -36.167 -164.833 -108.5 -232.5s-154.833 -101.5 -247.5 -101.5c-82 0 -150.667 28 -206 84s-83 121.333 -83 196c0 88.667 36.5 166.5 109.5 233.5s156.167 100.5 249.5 100.5c82 0 150.167 -27.833 204.5 -83.5s81.5 -121.167 81.5 -196.5z" />
    <glyph glyph-name="plusminus" unicode="&#xb1;" horiz-adv-x="1075" 
d="M-20 0l49 236h932l-50 -236h-931zM637 348h-236l70 328h-348l53 256h348l70 328h235l-69 -328h348l-53 -256h-348z" />
    <glyph glyph-name="uni00B2" unicode="&#xb2;" horiz-adv-x="675" 
d="M817 1454c0 -50.667 -12.999 -96.1689 -38.999 -136.502s-54.667 -70.333 -86 -90s-66.833 -42.167 -106.5 -67.5s-67.5 -46.666 -83.5 -63.999h231l-39 -185h-522c12 64 35.5 120.667 70.5 170s72.333 88 112 116s78.834 53.333 117.501 76s70.667 45.834 96 69.501
s38 49.167 38 76.5c0 36.667 -23 55.334 -69 56.001c-18 0 -36.5 -6.83301 -55.5 -20.5s-33.5 -27.5 -43.5 -41.5l-16 -22l-146 55c1.33301 5.33301 4.5 12.5 9.5 21.5s15.667 25.333 32 49s34.666 44.5 54.999 62.5s48.666 34.167 84.999 48.5s75.5 21.5 117.5 21.5
c69.333 0 127 -18.833 173 -56.5s69 -83.834 69 -138.501z" />
    <glyph glyph-name="uni00B3" unicode="&#xb3;" horiz-adv-x="686" 
d="M682 1294c5.33301 -2.66699 12.8369 -7.00684 22.5039 -13.0068s22 -20.667 37 -44s22.5 -49.333 22.5 -78c0 -74 -27 -135.5 -81 -184.5s-127.333 -73.5 -220 -73.5c-39.333 0 -76.5 4.5 -111.5 13.5s-62.333 20 -82 33s-37 26.333 -52 40s-25.5 24.5 -31.5 32.5l-8 14
l131 107c2.66699 -5.33301 7.5 -12.166 14.5 -20.499s23.167 -19.666 48.5 -33.999s53.666 -21.5 84.999 -21.5c75.333 0 112.666 30.667 111.999 92c0 40.667 -32 61.334 -96 62.001h-72l33 153h66c68 0 102 22 102 66c0 31.333 -24.667 47 -74 47
c-22 0 -44.833 -6.5 -68.5 -19.5s-42.5 -25.833 -56.5 -38.5l-20 -18l-80 117c2.66699 2.66699 6.5 7 11.5 13s15.667 15.833 32 29.5s34 26 53 37s43.833 21 74.5 30s62.334 13.5 95.001 13.5c69.333 0 127 -18.5 173 -55.5s69 -79.5 69 -127.5
c0 -13.333 -1.33301 -26.166 -4 -38.499s-6.83398 -23.666 -12.501 -33.999s-11.5 -19.833 -17.5 -28.5s-12.833 -16.167 -20.5 -22.5s-14.834 -12.166 -21.501 -17.499s-13.334 -10 -20.001 -14s-12.5 -7.16699 -17.5 -9.5s-8.83301 -4.16602 -11.5 -5.49902z" />
    <glyph glyph-name="acute" unicode="&#xb4;" horiz-adv-x="573" 
d="M205 1137l225 307h295l-291 -307h-229z" />
    <glyph glyph-name="mu" unicode="&#xb5;" 
d="M-61 -430l305.003 1434h276l-121 -564c-12 -60 -3.33301 -109 26 -147s70.666 -57 123.999 -57c57.333 0 106.833 20.333 148.5 61s70.5 98.667 86.5 174l115 533h277l-152 -707c-4 -20.667 -0.5 -37.834 10.5 -51.501s26.5 -20.5 46.5 -20.5l43 11l-49 -236
c-28.667 -13.333 -63.334 -20 -104.001 -20c-60 0 -107.167 12.833 -141.5 38.5s-53.5 50.834 -57.5 75.501l-6 39c-2.66699 -4 -7.16699 -9.5 -13.5 -16.5s-20.333 -19.333 -42 -37s-44.834 -33.334 -69.501 -47.001s-56.5 -25.834 -95.5 -36.501s-79.5 -16 -121.5 -16
c-18 0 -36.833 1.66699 -56.5 5s-34.167 7 -43.5 11l-17 4l-92 -430h-276z" />
    <glyph glyph-name="paragraph" unicode="&#xb6;" horiz-adv-x="1249" 
d="M293 -205l191.999 901c-83.333 0 -154 32.167 -212 96.5s-87 138.833 -87 223.5c0 109.333 44.833 206.333 134.5 291s189.834 127 300.501 127h686l-349 -1639h-245l293 1372h-175l-292 -1372h-246z" />
    <glyph glyph-name="periodcentered" unicode="&#xb7;" horiz-adv-x="409" 
d="M51 487c0 42 18.5 80.499 55.5 115.499s79.167 52.5 126.5 52.5c44 0 80.333 -13.667 109 -41s43 -60 43 -98c0 -45.333 -18.5 -84.666 -55.5 -117.999s-79.167 -50 -126.5 -50c-44 0 -80.333 14 -109 42s-43 60.333 -43 97z" />
    <glyph glyph-name="cedilla" unicode="&#xb8;" horiz-adv-x="573" 
d="M172 41l142.999 -0.000976562l-100 -143c4 0 9.5 -0.666992 16.5 -2s19 -5.16602 36 -11.499s32 -14 45 -23s25 -23 36 -42s16.5 -40.833 16.5 -65.5c0 -68 -22.333 -122.5 -67 -163.5s-105.667 -61.5 -183 -61.5c-39.333 0 -78.166 7.5 -116.499 22.5
s-66.5 30.167 -84.5 45.5l-27 22l86 115c34 -34 78.333 -51 133 -51c56 0 84 19.667 84 59c0 28.667 -21 43 -63 43l-53 -10l-39 61z" />
    <glyph glyph-name="uni00B9" unicode="&#xb9;" horiz-adv-x="471" 
d="M461 1638h163.999l-156 -727h-195l103 482h-123l33 153c42 4 78.833 15.5 110.5 34.5s52.834 38.167 63.501 57.5z" />
    <glyph glyph-name="ordmasculine" unicode="&#xba;" horiz-adv-x="778" 
d="M549 1270c-45.333 0 -84 -17.832 -116 -53.499s-48 -77.167 -48 -124.5c0 -36.667 12 -67.334 36 -92.001s55.667 -37 95 -37c42 0 79.833 16.667 113.5 50s50.5 76 50.5 128c0 38 -12 69 -36 93s-55.667 36 -95 36zM879 1151c0 -94 -38.668 -179.666 -116.001 -256.999
s-165.666 -116 -264.999 -116c-88.667 0 -162.5 29 -221.5 87s-88.5 128.667 -88.5 212c0 100 39 187.833 117 263.5s166 113.5 264 113.5c88.667 0 162.5 -29.333 221.5 -88s88.5 -130.334 88.5 -215.001z" />
    <glyph glyph-name="guillemotright" unicode="&#xbb;" horiz-adv-x="1126" 
d="M-4 133l346 373l-170 344h266l178 -358l-331 -359h-289zM436 133l346 373l-170 344h267l178 -358l-332 -359h-289z" />
    <glyph glyph-name="onequarter" unicode="&#xbc;" horiz-adv-x="1443" 
d="M41 0l1182 1434h268l-1182 -1434h-268zM438 1434l163.999 0.000976562l-156 -727h-194l102 481h-123l33 153c42 4 78.833 15.667 110.5 35s52.834 38.666 63.501 57.999zM1382 727.001l-90 -420h72l-37 -174h-72l-28 -133h-195l29 133h-328l37 174l397 420h215z
M970.999 307.001h127l37 174z" />
    <glyph glyph-name="onehalf" unicode="&#xbd;" horiz-adv-x="1525" 
d="M41 0l1182 1434h268l-1182 -1434h-268zM438 1434l163.999 0.000976562l-156 -727h-194l102 481h-123l33 153c42 4 78.833 15.667 110.5 35s52.834 38.666 63.501 57.999zM1475 543.001c0 -50.667 -12.999 -96.168 -38.999 -136.501s-54.667 -70.333 -86 -90
s-66.833 -42.167 -106.5 -67.5s-67.834 -47 -84.501 -65h232l-39 -184h-523c12 64 35.5 120.667 70.5 170s72.333 88 112 116s79 53.167 118 75.5s71.167 45.5 96.5 69.5s38 49.667 38 77c0 36.667 -23.333 55 -70 55c-18 0 -36.5 -7.16699 -55.5 -21.5
s-33.833 -28.166 -44.5 -41.499l-15 -21l-145 56c1.33301 5.33301 4.33301 12.333 9 21s15.167 25 31.5 49s34.833 44.833 55.5 62.5s49 33.667 85 48s75.333 21.5 118 21.5c69.333 0 127 -18.667 173 -56s69 -83.333 69 -138z" />
    <glyph glyph-name="threequarters" unicode="&#xbe;" horiz-adv-x="1566" 
d="M164 0l1182 1434h268l-1182 -1434h-268zM1505 727l-90 -420h72l-37 -174h-72l-28 -133h-195l29 133h-328l37 174l397 420h215zM1094 307h127l36 174zM629 1090c5.33301 -2.66699 12.835 -7.17188 22.502 -13.5049s22 -21.166 37 -44.499s22.5 -49.333 22.5 -78
c0 -74 -27 -135.5 -81 -184.5s-127.333 -73.5 -220 -73.5c-39.333 0 -76.5 4.5 -111.5 13.5s-62.5 20 -82.5 33s-37.5 26.333 -52.5 40s-25.167 24.5 -30.5 32.5l-8 14l131 107c2.66699 -5.33301 7.5 -12.166 14.5 -20.499s23 -19.666 48 -33.999s53.167 -21.5 84.5 -21.5
c75.333 0 113 30.667 113 92c0 40.667 -32 61.334 -96 62.001h-72l33 153h65c68 0 102.333 22 103 66c0 31.333 -24.667 47 -74 47c-22 0 -44.833 -6.5 -68.5 -19.5s-42.5 -25.5 -56.5 -37.5l-20 -19l-80 117c2.66699 2.66699 6.33398 7 11.001 13s15.167 15.833 31.5 29.5
s34.166 26 53.499 37s44.333 21 75 30s62.334 13.5 95.001 13.5c69.333 0 127 -18.5 173 -55.5s69 -79.167 69 -126.5c0 -13.333 -1.33301 -26.333 -4 -39s-6.83398 -24 -12.501 -34s-11.5 -19.5 -17.5 -28.5s-12.833 -16.667 -20.5 -23s-14.834 -12.166 -21.501 -17.499
s-13.5 -10 -20.5 -14s-12.833 -7 -17.5 -9s-8.33398 -3.66699 -11.001 -5z" />
    <glyph glyph-name="questiondown" unicode="&#xbf;" horiz-adv-x="972" 
d="M729 502c-10.667 -54.667 -34.1719 -104.169 -70.5049 -148.502s-75.666 -80.5 -117.999 -108.5s-84.333 -55.667 -126 -83s-76.167 -57.833 -103.5 -91.5s-41 -70.167 -41 -109.5c0 -35.333 14.333 -65 43 -89s67.667 -36 117 -36c36.667 0 70.834 5.83301 102.501 17.5
s57.334 25.334 77.001 41.001s36.667 31.667 51 48s24.833 30.166 31.5 41.499l8 18l238 -115c-4 -9.33301 -9.83301 -21.833 -17.5 -37.5s-26.5 -43.334 -56.5 -83.001s-63.667 -74.834 -101 -105.501s-89.166 -58.667 -155.499 -84s-137.833 -38 -214.5 -38
c-128.667 0 -236.5 35.167 -323.5 105.5s-130.5 152.5 -130.5 246.5c0 79.333 15 148.333 45 207s67.833 105.834 113.5 141.501s92.334 68.834 140.001 99.501s92 67.167 133 109.5s68.5 90.833 82.5 145.5h276c2.66699 -15.333 4 -31.666 4 -48.999
c0 -19.333 -1.33301 -33.666 -4 -42.999zM804.995 884.998c0 -42 -18.5 -80.499 -55.5 -115.499s-79.167 -52.5 -126.5 -52.5c-44 0 -80.333 13.667 -109 41s-43 60 -43 98c0 45.333 18.5 84.666 55.5 117.999s79.167 50 126.5 50c44 0 80.333 -14 109 -42
s43 -60.333 43 -97z" />
    <glyph glyph-name="Agrave" unicode="&#xc0;" horiz-adv-x="1495" 
d="M965 604l-74 471l-275 -471h349zM1012 338h-553l-195 -338h-336l867 1434h327l260 -1434h-319zM965 1915l90 -307h-211l-160 307h281z" />
    <glyph glyph-name="Aacute" unicode="&#xc1;" horiz-adv-x="1495" 
d="M965 604l-74 471l-275 -471h349zM1012 338h-553l-195 -338h-336l867 1434h327l260 -1434h-319zM887 1608l225 307h295l-291 -307h-229z" />
    <glyph glyph-name="Acircumflex" unicode="&#xc2;" horiz-adv-x="1495" 
d="M965 604l-74 471l-275 -471h349zM1012 338h-553l-195 -338h-336l867 1434h327l260 -1434h-319zM592 1608l311 307h246l180 -307h-233l-88 164l-158 -164h-258z" />
    <glyph glyph-name="Atilde" unicode="&#xc3;" horiz-adv-x="1495" 
d="M965 604l-74 471l-275 -471h349zM1012 338h-553l-195 -338h-336l867 1434h327l260 -1434h-319zM1120 1597c-52 0 -101.166 17.166 -147.499 51.499s-82.5 51.5 -108.5 51.5c-48 0 -78.667 -34.333 -92 -103h-174c42 204.667 132.667 307.334 272 308.001
c50.667 0 99.167 -18.833 145.5 -56.5s81.166 -56.5 104.499 -56.5c48 0 79.333 37.667 94 113h175c-22 -104 -56.333 -181.333 -103 -232s-102 -76 -166 -76z" />
    <glyph glyph-name="Adieresis" unicode="&#xc4;" horiz-adv-x="1495" 
d="M965 604l-74 471l-275 -471h349zM1012 338h-553l-195 -338h-336l867 1434h327l260 -1434h-319zM1073 1735c0 42 17.834 80.833 53.501 116.5s76.5 53.5 122.5 53.5c39.333 0 72 -13.333 98 -40s39 -59.334 39 -98.001c0 -44 -18.333 -83.333 -55 -118
s-76.334 -52 -119.001 -52c-39.333 0 -72.333 13.833 -99 41.5s-40 59.834 -40 96.501zM621.001 1735c0 42 17.667 80.833 53 116.5s76.333 53.5 123 53.5c39.333 0 72 -13.333 98 -40s39 -59.334 39 -98.001c0 -44 -18.5 -83.333 -55.5 -118s-76.5 -52 -118.5 -52
c-39.333 0 -72.333 13.833 -99 41.5s-40 59.834 -40 96.501z" />
    <glyph glyph-name="Aring" unicode="&#xc5;" horiz-adv-x="1495" 
d="M965 604l-74 471l-275 -471h349zM1012 338h-553l-195 -338h-336l867 1434h327l260 -1434h-319zM997 1853c-24.667 0 -45.5 -8.83398 -62.5 -26.501s-25.5 -40.167 -25.5 -67.5c0 -46.667 27.333 -69.667 82 -69c23.333 0 43.833 8.83301 61.5 26.5
s26.5 40.834 26.5 69.501c0 44.667 -27.333 67 -82 67zM1235 1794c0 -64 -26.333 -121.333 -79 -172s-113.667 -76 -183 -76c-64 0 -116.833 19.833 -158.5 59.5s-62.5 87.5 -62.5 143.5c0 65.333 26.5 123 79.5 173s114.5 75 184.5 75c64 0 116.5 -19.833 157.5 -59.5
s61.5 -87.5 61.5 -143.5z" />
    <glyph glyph-name="AE" unicode="&#xc6;" horiz-adv-x="2048" 
d="M-154 0l1100 1434h1200l-55 -267h-676l-65 -307h512l-56 -256h-512l-71 -338h696l-55 -266h-1004l74 348h-475l-260 -348h-353zM1079 1167l-422 -553h332l119 553h-29z" />
    <glyph glyph-name="Ccedilla" unicode="&#xc7;" horiz-adv-x="1546" 
d="M1051 1464c75.333 0 146.33 -9.83301 212.997 -29.5s121.5 -43.5 164.5 -71.5s80.5 -56 112.5 -84s55 -51.667 69 -71l22 -30l-225 -185c-2.66699 5.33301 -7.16699 12.5 -13.5 21.5s-20.666 24.5 -42.999 46.5s-46.5 41.5 -72.5 58.5s-61.5 32.667 -106.5 47
s-92.167 21.5 -141.5 21.5c-151.333 0 -284.666 -54.667 -399.999 -164s-173 -241 -173 -395c0 -108 37.5 -198.833 112.5 -272.5s169.167 -110.5 282.5 -110.5c52 0 102.5 7.5 151.5 22.5s90.333 32.667 124 53s63.667 41.166 90 62.499s45.833 39.333 58.5 54l18 23
l152 -205c-5.33301 -8 -13.833 -18.5 -25.5 -31.5s-37.667 -36 -78 -69s-82.666 -62 -126.999 -87s-102 -47.833 -173 -68.5s-144.167 -31 -219.5 -31l-49 -71c4 0 9.5 -0.666992 16.5 -2s19 -5.16602 36 -11.499s32 -14 45 -23s25 -23 36 -42s16.5 -40.833 16.5 -65.5
c0 -68 -22.167 -122.5 -66.5 -163.5s-105.5 -61.5 -183.5 -61.5c-39.333 0 -78.166 7.5 -116.499 22.5s-66.5 30.167 -84.5 45.5l-27 22l86 115c34 -34 78.667 -51 134 -51c56 0 84 19.667 84 59c0 28.667 -21.333 43 -64 43l-53 -10l-39 61l96 146
c-158.667 30 -289.167 104.333 -391.5 223s-153.5 253 -153.5 403c0 236 89.167 437.667 267.5 605s391.166 251 638.499 251z" />
    <glyph glyph-name="Egrave" unicode="&#xc8;" horiz-adv-x="1361" 
d="M457 276h768l-58 -276h-1075l303 1434h1055l-57 -277h-748l-61 -287h583l-59 -276h-584zM967 1915l90 -307h-211l-160 307h281z" />
    <glyph glyph-name="Eacute" unicode="&#xc9;" horiz-adv-x="1361" 
d="M457 276h768l-58 -276h-1075l303 1434h1055l-57 -277h-748l-61 -287h583l-59 -276h-584zM825 1608l226 307h295l-291 -307h-230z" />
    <glyph glyph-name="Ecircumflex" unicode="&#xca;" horiz-adv-x="1361" 
d="M457 276h768l-58 -276h-1075l303 1434h1055l-57 -277h-748l-61 -287h583l-59 -276h-584zM563 1608l311 307h246l180 -307h-233l-88 164l-158 -164h-258z" />
    <glyph glyph-name="Edieresis" unicode="&#xcb;" horiz-adv-x="1361" 
d="M457 276h768l-58 -276h-1075l303 1434h1055l-57 -277h-748l-61 -287h583l-59 -276h-584zM1040 1735c0 42 17.832 80.833 53.499 116.5s76.834 53.5 123.501 53.5c39.333 0 72 -13.333 98 -40s39 -59.334 39 -98.001c0 -44 -18.5 -83.333 -55.5 -118s-76.5 -52 -118.5 -52
c-39.333 0 -72.5 13.833 -99.5 41.5s-40.5 59.834 -40.5 96.501zM587.999 1735c0 42 17.668 80.833 53.001 116.5s76.333 53.5 123 53.5c39.333 0 72 -13.333 98 -40s39 -59.334 39 -98.001c0 -44 -18.333 -83.333 -55 -118s-76.334 -52 -119.001 -52
c-39.333 0 -72.333 13.833 -99 41.5s-40 59.834 -40 96.501z" />
    <glyph glyph-name="Igrave" unicode="&#xcc;" horiz-adv-x="675" 
d="M92 0l303 1434h307l-303 -1434h-307zM578 1915l90 -307h-211l-160 307h281z" />
    <glyph glyph-name="Iacute" unicode="&#xcd;" horiz-adv-x="675" 
d="M92 0l303 1434h307l-303 -1434h-307zM473 1608l225 307h295l-291 -307h-229z" />
    <glyph glyph-name="Icircumflex" unicode="&#xce;" horiz-adv-x="675" 
d="M92 0l303 1434h307l-303 -1434h-307zM193 1608l311 307h246l180 -307h-234l-88 164l-157 -164h-258z" />
    <glyph glyph-name="Idieresis" unicode="&#xcf;" horiz-adv-x="675" 
d="M92 0l303 1434h307l-303 -1434h-307zM670 1735c0 42 17.667 80.833 53 116.5s76.333 53.5 123 53.5c39.333 0 72 -13.333 98 -40s39 -59.334 39 -98.001c0 -44 -18.5 -83.333 -55.5 -118s-76.5 -52 -118.5 -52c-39.333 0 -72.333 13.833 -99 41.5s-40 59.834 -40 96.501z
M217 1735c0 42 17.834 80.833 53.501 116.5s76.5 53.5 122.5 53.5c39.333 0 72 -13.333 98 -40s39 -59.334 39 -98.001c0 -44 -18.333 -83.333 -55 -118s-76.334 -52 -119.001 -52c-39.333 0 -72.333 13.833 -99 41.5s-40 59.834 -40 96.501z" />
    <glyph glyph-name="Eth" unicode="&#xd0;" horiz-adv-x="1597" 
d="M436 1434h498.001c180 0 331.167 -59.167 453.5 -177.5s183.5 -260.166 183.5 -425.499c0 -230.667 -85.333 -426.834 -256 -588.501s-373.334 -242.5 -608.001 -242.5h-574l125 594h-174l53 246h174zM907.001 1157h-220.999l-70 -317h279l-53 -246h-277l-67 -318h225
c135.333 0 258.166 52 368.499 156s165.5 227 165.5 369c0 101.333 -32.333 186 -97 254s-149 102 -253 102z" />
    <glyph glyph-name="Ntilde" unicode="&#xd1;" horiz-adv-x="1648" 
d="M1368 1434h307l-303 -1434h-256l-524 913l-193 -913h-307l303 1434h256l525 -914zM1210 1597c-52 0 -101.168 17.166 -147.501 51.499s-82.5 51.5 -108.5 51.5c-48 0 -78.667 -34.333 -92 -103h-174c42 204.667 133 307.334 273 308.001
c52 0 100.833 -18.833 146.5 -56.5s79.834 -56.5 102.501 -56.5c48 0 79.667 37.667 95 113h174c-22 -104 -56.333 -181.333 -103 -232s-102 -76 -166 -76z" />
    <glyph glyph-name="Ograve" unicode="&#xd2;" horiz-adv-x="1761" 
d="M993 1190c-136.667 0 -258.5 -53.668 -365.5 -161.001s-160.5 -230.666 -160.5 -369.999c0 -117.333 39.167 -215.5 117.5 -294.5s179.166 -118.5 302.499 -118.5c135.333 0 256.833 52.5 364.5 157.5s161.5 229.833 161.5 374.5c0 117.333 -39.667 215.333 -119 294
s-179.666 118 -300.999 118zM145 640.999c0 216 87.5 407.168 262.5 573.501s377.167 249.5 606.5 249.5c211.333 0 384.333 -65.167 519 -195.5s202 -288.166 202 -473.499c0 -144.667 -40.333 -280.834 -121 -408.501s-187.5 -229.167 -320.5 -304.5
s-274.167 -113 -423.5 -113c-211.333 0 -385 65.167 -521 195.5s-204 289.166 -204 476.499zM1079 1915l90 -307h-211l-159 307h280z" />
    <glyph glyph-name="Oacute" unicode="&#xd3;" horiz-adv-x="1761" 
d="M993 1190c-136.667 0 -258.5 -53.668 -365.5 -161.001s-160.5 -230.666 -160.5 -369.999c0 -117.333 39.167 -215.5 117.5 -294.5s179.166 -118.5 302.499 -118.5c135.333 0 256.833 52.5 364.5 157.5s161.5 229.833 161.5 374.5c0 117.333 -39.667 215.333 -119 294
s-179.666 118 -300.999 118zM145 640.999c0 216 87.5 407.168 262.5 573.501s377.167 249.5 606.5 249.5c211.333 0 384.333 -65.167 519 -195.5s202 -288.166 202 -473.499c0 -144.667 -40.333 -280.834 -121 -408.501s-187.5 -229.167 -320.5 -304.5
s-274.167 -113 -423.5 -113c-211.333 0 -385 65.167 -521 195.5s-204 289.166 -204 476.499zM979 1608l225 307h295l-291 -307h-229z" />
    <glyph glyph-name="Ocircumflex" unicode="&#xd4;" horiz-adv-x="1761" 
d="M993 1190c-136.667 0 -258.5 -53.668 -365.5 -161.001s-160.5 -230.666 -160.5 -369.999c0 -117.333 39.167 -215.5 117.5 -294.5s179.166 -118.5 302.499 -118.5c135.333 0 256.833 52.5 364.5 157.5s161.5 229.833 161.5 374.5c0 117.333 -39.667 215.333 -119 294
s-179.666 118 -300.999 118zM145 640.999c0 216 87.5 407.168 262.5 573.501s377.167 249.5 606.5 249.5c211.333 0 384.333 -65.167 519 -195.5s202 -288.166 202 -473.499c0 -144.667 -40.333 -280.834 -121 -408.501s-187.5 -229.167 -320.5 -304.5
s-274.167 -113 -423.5 -113c-211.333 0 -385 65.167 -521 195.5s-204 289.166 -204 476.499zM709 1608l311 307h246l180 -307h-234l-88 164l-157 -164h-258z" />
    <glyph glyph-name="Otilde" unicode="&#xd5;" horiz-adv-x="1761" 
d="M993 1190c-136.667 0 -258.5 -53.668 -365.5 -161.001s-160.5 -230.666 -160.5 -369.999c0 -117.333 39.167 -215.5 117.5 -294.5s179.166 -118.5 302.499 -118.5c135.333 0 256.833 52.5 364.5 157.5s161.5 229.833 161.5 374.5c0 117.333 -39.667 215.333 -119 294
s-179.666 118 -300.999 118zM145 640.999c0 216 87.5 407.168 262.5 573.501s377.167 249.5 606.5 249.5c211.333 0 384.333 -65.167 519 -195.5s202 -288.166 202 -473.499c0 -144.667 -40.333 -280.834 -121 -408.501s-187.5 -229.167 -320.5 -304.5
s-274.167 -113 -423.5 -113c-211.333 0 -385 65.167 -521 195.5s-204 289.166 -204 476.499zM1237 1597c-52 0 -101.165 17.165 -147.498 51.498s-82.5 51.5 -108.5 51.5c-48 0 -78.667 -34.333 -92 -103h-174c42 204.667 132.667 307.334 272 308.001
c39.333 0 74.166 -9.66699 104.499 -29s56.666 -38.166 78.999 -56.499s44.5 -27.5 66.5 -27.5c48 0 79.333 37.667 94 113h174c-22 -104 -56.167 -181.333 -102.5 -232s-101.5 -76 -165.5 -76z" />
    <glyph glyph-name="Odieresis" unicode="&#xd6;" horiz-adv-x="1761" 
d="M993 1190c-136.667 0 -258.5 -53.668 -365.5 -161.001s-160.5 -230.666 -160.5 -369.999c0 -117.333 39.167 -215.5 117.5 -294.5s179.166 -118.5 302.499 -118.5c135.333 0 256.833 52.5 364.5 157.5s161.5 229.833 161.5 374.5c0 117.333 -39.667 215.333 -119 294
s-179.666 118 -300.999 118zM145 640.999c0 216 87.5 407.168 262.5 573.501s377.167 249.5 606.5 249.5c211.333 0 384.333 -65.167 519 -195.5s202 -288.166 202 -473.499c0 -144.667 -40.333 -280.834 -121 -408.501s-187.5 -229.167 -320.5 -304.5
s-274.167 -113 -423.5 -113c-211.333 0 -385 65.167 -521 195.5s-204 289.166 -204 476.499zM1184 1735c0 42 17.667 80.833 53 116.5s76.333 53.5 123 53.5c39.333 0 72 -13.333 98 -40s39 -59.334 39 -98.001c0 -44 -18.5 -83.333 -55.5 -118s-76.5 -52 -118.5 -52
c-39.333 0 -72.333 13.833 -99 41.5s-40 59.834 -40 96.501zM731 1735c0 42 17.834 80.833 53.501 116.5s76.5 53.5 122.5 53.5c39.333 0 72 -13.333 98 -40s39 -59.334 39 -98.001c0 -44 -18.333 -83.333 -55 -118s-76.334 -52 -119.001 -52
c-39.333 0 -72.333 13.833 -99 41.5s-40 59.834 -40 96.501z" />
    <glyph glyph-name="multiply" unicode="&#xd7;" horiz-adv-x="1003" 
d="M707 635l215 -270l-185 -156l-209 262l-327 -270l-140 172l318 262l-213 270l184 156l207 -262l330 270l139 -172z" />
    <glyph glyph-name="Oslash" unicode="&#xd8;" horiz-adv-x="1761" 
d="M145 641c0 216 87.5 407.167 262.5 573.5s377.167 249.5 606.5 249.5c184 0 343 -53 477 -159l248 198l133 -178l-234 -188c64 -105.333 96.333 -219.333 97 -342c0 -144.667 -40.333 -280.834 -121 -408.501s-187.5 -229.167 -320.5 -304.5s-274.167 -113 -423.5 -113
c-188.667 0 -349.667 54 -483 162l-246 -199l-133 179l232 186c-63.333 102.667 -95 217.334 -95 344.001zM1413 778c0 53.333 -9.66699 104.667 -29 154l-755 -606c72.667 -53.333 158.667 -80 258 -80c135.333 0 256.833 52.5 364.5 157.5s161.5 229.833 161.5 374.5z
M993 1190c-136.667 0 -258.5 -53.668 -365.5 -161.001s-160.5 -230.666 -160.5 -369.999c0 -54.667 9.66699 -107 29 -157l753 608c-72.667 53.333 -158 80 -256 80z" />
    <glyph glyph-name="Ugrave" unicode="&#xd9;" horiz-adv-x="1597" 
d="M768 246c87.333 0 167.166 32.001 239.499 96.001s118.833 144.667 139.5 242l180 850h307l-180 -850c-38 -178.667 -120.5 -325.834 -247.5 -441.501s-277.833 -173.5 -452.5 -173.5c-160 0 -293.5 47.167 -400.5 141.5s-160.5 213.833 -160.5 358.5
c0 36.667 4 75 12 115l180 850h307l-180 -850c-5.33301 -23.333 -8 -48 -8 -74c0 -78 24.833 -141.5 74.5 -190.5s112.834 -73.5 189.501 -73.5zM1042 1915l91 -307h-211l-160 307h280z" />
    <glyph glyph-name="Uacute" unicode="&#xda;" horiz-adv-x="1597" 
d="M768 246c87.333 0 167.166 32.001 239.499 96.001s118.833 144.667 139.5 242l180 850h307l-180 -850c-38 -178.667 -120.5 -325.834 -247.5 -441.501s-277.833 -173.5 -452.5 -173.5c-160 0 -293.5 47.167 -400.5 141.5s-160.5 213.833 -160.5 358.5
c0 36.667 4 75 12 115l180 850h307l-180 -850c-5.33301 -23.333 -8 -48 -8 -74c0 -78 24.833 -141.5 74.5 -190.5s112.834 -73.5 189.501 -73.5zM897 1608l225 307h295l-291 -307h-229z" />
    <glyph glyph-name="Ucircumflex" unicode="&#xdb;" horiz-adv-x="1597" 
d="M768 246c87.333 0 167.166 32.001 239.499 96.001s118.833 144.667 139.5 242l180 850h307l-180 -850c-38 -178.667 -120.5 -325.834 -247.5 -441.501s-277.833 -173.5 -452.5 -173.5c-160 0 -293.5 47.167 -400.5 141.5s-160.5 213.833 -160.5 358.5
c0 36.667 4 75 12 115l180 850h307l-180 -850c-5.33301 -23.333 -8 -48 -8 -74c0 -78 24.833 -141.5 74.5 -190.5s112.834 -73.5 189.501 -73.5zM653 1608l312 307h245l181 -307h-234l-88 164l-158 -164h-258z" />
    <glyph glyph-name="Udieresis" unicode="&#xdc;" horiz-adv-x="1597" 
d="M768 246c87.333 0 167.166 32.001 239.499 96.001s118.833 144.667 139.5 242l180 850h307l-180 -850c-38 -178.667 -120.5 -325.834 -247.5 -441.501s-277.833 -173.5 -452.5 -173.5c-160 0 -293.5 47.167 -400.5 141.5s-160.5 213.833 -160.5 358.5
c0 36.667 4 75 12 115l180 850h307l-180 -850c-5.33301 -23.333 -8 -48 -8 -74c0 -78 24.833 -141.5 74.5 -190.5s112.834 -73.5 189.501 -73.5zM1145 1735c0 42 17.668 80.833 53.001 116.5s76.333 53.5 123 53.5c39.333 0 72 -13.333 98 -40s39 -59.334 39 -98.001
c0 -44 -18.333 -83.333 -55 -118s-76.334 -52 -119.001 -52c-39.333 0 -72.333 13.833 -99 41.5s-40 59.834 -40 96.501zM692.001 1735c0 42 17.834 80.833 53.501 116.5s76.5 53.5 122.5 53.5c39.333 0 72.166 -13.333 98.499 -40s39.5 -59.334 39.5 -98.001
c0 -44 -18.5 -83.333 -55.5 -118s-76.833 -52 -119.5 -52c-39.333 0 -72.333 13.833 -99 41.5s-40 59.834 -40 96.501z" />
    <glyph glyph-name="Yacute" unicode="&#xdd;" horiz-adv-x="1351" 
d="M522 1434l209 -615l467 615h344l-706 -922l-109 -512h-307l108 512l-317 922h311zM766 1608l225 307h295l-291 -307h-229z" />
    <glyph glyph-name="Thorn" unicode="&#xde;" horiz-adv-x="1372" 
d="M680 1321h125c161.333 0 293.5 -49.833 396.5 -149.5s154.5 -217.167 154.5 -352.5c0 -184 -71 -340.833 -213 -470.5s-317.667 -194.5 -527 -194.5h-186l-41 -195h-307l324 1516h307zM623 1055l-136 -635h123c135.333 0 241.5 34.833 318.5 104.5
s115.5 165.167 115.5 286.5c0 75.333 -27.5 134.833 -82.5 178.5s-133.833 65.5 -236.5 65.5h-102z" />
    <glyph glyph-name="germandbls" unicode="&#xdf;" horiz-adv-x="1249" 
d="M975 778c5.33301 -2.66699 12.1689 -6.33301 20.502 -11s23.333 -16.167 45 -34.5s40.667 -38.166 57 -59.499s31.333 -49.333 45 -84s20.5 -71.334 20.5 -110.001c0 -135.333 -53.167 -249 -159.5 -341s-239.5 -138 -399.5 -138h-123l56 266h108
c64 0 118.167 20.833 162.5 62.5s66.5 89.834 66.5 144.501c0 42 -15.667 77.833 -47 107.5s-70.666 44.5 -117.999 44.5h-97l56 256h20c61.333 0 113.166 18.333 155.499 55s63.5 79 63.5 127c0 40.667 -14.667 75 -44 103s-66.333 42 -111 42
c-52 0 -98.5 -18.333 -139.5 -55s-67.833 -83 -80.5 -139l-215 -1014h-276l215 1014c27.333 132.667 86.333 239.167 177 319.5s205.667 120.5 345 120.5c116 0 214.333 -36.833 295 -110.5s121 -156.834 121 -249.501c0 -32.667 -4.16699 -63.5 -12.5 -92.5
s-19.333 -53.667 -33 -74s-28.667 -39.333 -45 -57s-32 -32 -47 -43s-29.333 -20.333 -43 -28s-23.834 -13.167 -30.501 -16.5s-9.33398 -5 -8.00098 -5z" />
    <glyph glyph-name="agrave" unicode="&#xe0;" horiz-adv-x="1259" 
d="M631 1024c40.667 0 78.833 -5.16504 114.5 -15.498s64.334 -23.333 86.001 -39s40.334 -31 56.001 -46s27.167 -27.833 34.5 -38.5l10 -15l29 134h276l-213 -1004h-276l22 113c-2.66699 -4 -6.33398 -8.83301 -11.001 -14.5s-16.334 -16.334 -35.001 -32.001
s-38.834 -29.334 -60.501 -41.001s-50.667 -22.167 -87 -31.5s-74.166 -14 -113.499 -14c-110.667 0 -205 42.667 -283 128s-117 187.333 -117 306c0 172 57.5 316.667 172.5 434s246.833 176 395.5 176zM560.999 225.002c78 0 147.668 32.499 209.001 97.499
s92 145.167 92 240.5c0 62.667 -20.5 114.167 -61.5 154.5s-90.167 60.5 -147.5 60.5c-78 0 -147.333 -31.667 -208 -95s-91 -143.666 -91 -240.999c0 -61.333 20.167 -112.833 60.5 -154.5s89.166 -62.5 146.499 -62.5zM750 1444l90 -307h-211l-160 307h281z" />
    <glyph glyph-name="aacute" unicode="&#xe1;" horiz-adv-x="1259" 
d="M631 1024c40.667 0 78.833 -5.16504 114.5 -15.498s64.334 -23.333 86.001 -39s40.334 -31 56.001 -46s27.167 -27.833 34.5 -38.5l10 -15l29 134h276l-213 -1004h-276l22 113c-2.66699 -4 -6.33398 -8.83301 -11.001 -14.5s-16.334 -16.334 -35.001 -32.001
s-38.834 -29.334 -60.501 -41.001s-50.667 -22.167 -87 -31.5s-74.166 -14 -113.499 -14c-110.667 0 -205 42.667 -283 128s-117 187.333 -117 306c0 172 57.5 316.667 172.5 434s246.833 176 395.5 176zM560.999 225.002c78 0 147.668 32.499 209.001 97.499
s92 145.167 92 240.5c0 62.667 -20.5 114.167 -61.5 154.5s-90.167 60.5 -147.5 60.5c-78 0 -147.333 -31.667 -208 -95s-91 -143.666 -91 -240.999c0 -61.333 20.167 -112.833 60.5 -154.5s89.166 -62.5 146.499 -62.5zM600 1137l225 307h295l-291 -307h-229z" />
    <glyph glyph-name="acircumflex" unicode="&#xe2;" horiz-adv-x="1259" 
d="M631 1024c40.667 0 78.833 -5.16504 114.5 -15.498s64.334 -23.333 86.001 -39s40.334 -31 56.001 -46s27.167 -27.833 34.5 -38.5l10 -15l29 134h276l-213 -1004h-276l22 113c-2.66699 -4 -6.33398 -8.83301 -11.001 -14.5s-16.334 -16.334 -35.001 -32.001
s-38.834 -29.334 -60.501 -41.001s-50.667 -22.167 -87 -31.5s-74.166 -14 -113.499 -14c-110.667 0 -205 42.667 -283 128s-117 187.333 -117 306c0 172 57.5 316.667 172.5 434s246.833 176 395.5 176zM560.999 225.002c78 0 147.668 32.499 209.001 97.499
s92 145.167 92 240.5c0 62.667 -20.5 114.167 -61.5 154.5s-90.167 60.5 -147.5 60.5c-78 0 -147.333 -31.667 -208 -95s-91 -143.666 -91 -240.999c0 -61.333 20.167 -112.833 60.5 -154.5s89.166 -62.5 146.499 -62.5zM367 1137l311 307h246l180 -307h-234l-88 163
l-157 -163h-258z" />
    <glyph glyph-name="atilde" unicode="&#xe3;" horiz-adv-x="1259" 
d="M631 1024c40.667 0 78.833 -5.16504 114.5 -15.498s64.334 -23.333 86.001 -39s40.334 -31 56.001 -46s27.167 -27.833 34.5 -38.5l10 -15l29 134h276l-213 -1004h-276l22 113c-2.66699 -4 -6.33398 -8.83301 -11.001 -14.5s-16.334 -16.334 -35.001 -32.001
s-38.834 -29.334 -60.501 -41.001s-50.667 -22.167 -87 -31.5s-74.166 -14 -113.499 -14c-110.667 0 -205 42.667 -283 128s-117 187.333 -117 306c0 172 57.5 316.667 172.5 434s246.833 176 395.5 176zM560.999 225.002c78 0 147.668 32.499 209.001 97.499
s92 145.167 92 240.5c0 62.667 -20.5 114.167 -61.5 154.5s-90.167 60.5 -147.5 60.5c-78 0 -147.333 -31.667 -208 -95s-91 -143.666 -91 -240.999c0 -61.333 20.167 -112.833 60.5 -154.5s89.166 -62.5 146.499 -62.5zM911 1126c-52 0 -101.167 17.166 -147.5 51.499
s-82.5 51.5 -108.5 51.5c-48 0 -78.667 -34.333 -92 -103h-174c42 204.667 133 307.334 273 308.001c50.667 0 99.167 -18.833 145.5 -56.5s80.833 -56.5 103.5 -56.5c48 0 79.667 37.667 95 113h174c-22 -104 -56.333 -181.333 -103 -232s-102 -76 -166 -76z" />
    <glyph glyph-name="adieresis" unicode="&#xe4;" horiz-adv-x="1259" 
d="M631 1024c40.667 0 78.833 -5.16504 114.5 -15.498s64.334 -23.333 86.001 -39s40.334 -31 56.001 -46s27.167 -27.833 34.5 -38.5l10 -15l29 134h276l-213 -1004h-276l22 113c-2.66699 -4 -6.33398 -8.83301 -11.001 -14.5s-16.334 -16.334 -35.001 -32.001
s-38.834 -29.334 -60.501 -41.001s-50.667 -22.167 -87 -31.5s-74.166 -14 -113.499 -14c-110.667 0 -205 42.667 -283 128s-117 187.333 -117 306c0 172 57.5 316.667 172.5 434s246.833 176 395.5 176zM560.999 225.002c78 0 147.668 32.499 209.001 97.499
s92 145.167 92 240.5c0 62.667 -20.5 114.167 -61.5 154.5s-90.167 60.5 -147.5 60.5c-78 0 -147.333 -31.667 -208 -95s-91 -143.666 -91 -240.999c0 -61.333 20.167 -112.833 60.5 -154.5s89.166 -62.5 146.499 -62.5zM840 1264c0 42 17.667 80.833 53 116.5
s76.333 53.5 123 53.5c39.333 0 72 -13.333 98 -40s39 -59.334 39 -98.001c0 -44 -18.5 -83.333 -55.5 -118s-76.5 -52 -118.5 -52c-39.333 0 -72.333 13.833 -99 41.5s-40 59.834 -40 96.501zM387 1264c0 42 17.834 80.833 53.501 116.5s76.5 53.5 122.5 53.5
c39.333 0 72 -13.333 98 -40s39 -59.334 39 -98.001c0 -44 -18.333 -83.333 -55 -118s-76.334 -52 -119.001 -52c-39.333 0 -72.333 13.833 -99 41.5s-40 59.834 -40 96.501z" />
    <glyph glyph-name="aring" unicode="&#xe5;" horiz-adv-x="1259" 
d="M631 1024c40.667 0 78.833 -5.16504 114.5 -15.498s64.334 -23.333 86.001 -39s40.334 -31 56.001 -46s27.167 -27.833 34.5 -38.5l10 -15l29 134h276l-213 -1004h-276l22 113c-2.66699 -4 -6.33398 -8.83301 -11.001 -14.5s-16.334 -16.334 -35.001 -32.001
s-38.834 -29.334 -60.501 -41.001s-50.667 -22.167 -87 -31.5s-74.166 -14 -113.499 -14c-110.667 0 -205 42.667 -283 128s-117 187.333 -117 306c0 172 57.5 316.667 172.5 434s246.833 176 395.5 176zM560.999 225.002c78 0 147.668 32.499 209.001 97.499
s92 145.167 92 240.5c0 62.667 -20.5 114.167 -61.5 154.5s-90.167 60.5 -147.5 60.5c-78 0 -147.333 -31.667 -208 -95s-91 -143.666 -91 -240.999c0 -61.333 20.167 -112.833 60.5 -154.5s89.166 -62.5 146.499 -62.5zM780 1403c-24.667 0 -45.5 -8.83398 -62.5 -26.501
s-25.5 -40.167 -25.5 -67.5c0 -46.667 27.333 -70 82 -70c23.333 0 43.833 8.83301 61.5 26.5s26.5 40.834 26.5 69.501c0 45.333 -27.333 68 -82 68zM1018 1343c0 -64 -26.333 -121.167 -79 -171.5s-113.667 -75.5 -183 -75.5c-64 0 -116.833 19.667 -158.5 59
s-62.5 87 -62.5 143c0 65.333 26.5 123 79.5 173s114.5 75 184.5 75c64 0 116.5 -19.833 157.5 -59.5s61.5 -87.5 61.5 -143.5z" />
    <glyph glyph-name="ae" unicode="&#xe6;" horiz-adv-x="1771" 
d="M602 1024c39.333 0 76.832 -5.49805 112.499 -16.498s64.5 -24.667 86.5 -41s41.167 -32.666 57.5 -48.999s27.833 -29.833 34.5 -40.5l10 -17c4 4 10.167 9.83301 18.5 17.5s25.833 21 52.5 40s54.667 35.667 84 50s65.833 27.333 109.5 39s87.167 17.5 130.5 17.5
c120 0 220.333 -36.5 301 -109.5s121 -166.167 121 -279.5c0 -70.667 -15.667 -145.667 -47 -225h-719c0 -54.667 19.833 -100.834 59.5 -138.501s96.5 -56.5 170.5 -56.5c49.333 0 97.166 10.667 143.499 32s80.5 42.666 102.5 63.999l32 31l105 -188
c-4 -4 -10.5 -10.167 -19.5 -18.5s-27.833 -22.5 -56.5 -42.5s-58.667 -37.833 -90 -53.5s-71.333 -29.5 -120 -41.5s-97.334 -18 -146.001 -18c-48 0 -93.5 6.33301 -136.5 19s-78.167 28 -105.5 46s-51.166 35.833 -71.499 53.5s-34.833 32.5 -43.5 44.5l-14 21
c-4 -5.33301 -10.167 -12.166 -18.5 -20.499s-26.5 -23 -54.5 -44s-57.333 -39.833 -88 -56.5s-70.5 -31.334 -119.5 -44.001s-99.5 -19 -151.5 -19c-95.333 0 -174.166 25.833 -236.499 77.5s-93.5 112.5 -93.5 182.5c0 101.333 40.667 187.333 122 258s195 106 341 106
h246c4 22 6 42 6 60c0 83.333 -49.333 124.666 -148 123.999c-45.333 0 -88.666 -9.83301 -129.999 -29.5s-71.666 -39.167 -90.999 -58.5l-26 -30l-129 159c4 5.33301 10 12.5 18 21.5s25.333 24.5 52 46.5s54.667 41.5 84 58.5s67.166 32.667 113.499 47
s93.5 21.5 141.5 21.5zM1257.5 788.002c-60.333 0 -114.332 -17.333 -161.999 -52s-81.834 -78.667 -102.501 -132h457c0 53.333 -17 97.333 -51 132s-81.167 52 -141.5 52zM393 205.002c66.667 0 126.668 21.5 180.001 64.5s87 96.5 101 160.5h-205
c-61.333 0 -108.833 -13.667 -142.5 -41s-50.5 -60 -50.5 -98c0 -23.333 10.667 -43.5 32 -60.5s49.666 -25.5 84.999 -25.5z" />
    <glyph glyph-name="ccedilla" unicode="&#xe7;" horiz-adv-x="1075" 
d="M66 432c0 160 61.667 298.673 185 416.006s269.666 176 438.999 176c52 0 101.167 -7.16699 147.5 -21.5s84.5 -31.333 114.5 -51s56.333 -39.5 79 -59.5s39.334 -37.333 50.001 -52l15 -21l-201 -162c-5.33301 9.33301 -13.5 20.666 -24.5 33.999
s-36.333 31.166 -76 53.499s-81.834 33.5 -126.501 33.5c-82 0 -156.167 -32.333 -222.5 -97s-99.5 -141.334 -99.5 -230.001c0 -62.667 20.833 -116 62.5 -160s93.167 -66 154.5 -66c45.333 0 90.166 11.667 134.499 35s77.5 47.333 99.5 72l32 35l132 -183
c-4 -5.33301 -9.83301 -12.333 -17.5 -21s-24.5 -24.334 -50.5 -47.001s-53.333 -42.834 -82 -60.501s-66.5 -34.334 -113.5 -50.001s-95.167 -24.167 -144.5 -25.5l-57 -82c4 0 9.33301 -0.666992 16 -2s18.5 -5.16602 35.5 -11.499s32 -14 45 -23s25 -23 36 -42
s16.5 -40.833 16.5 -65.5c0 -68 -22.167 -122.5 -66.5 -163.5s-105.5 -61.5 -183.5 -61.5c-39.333 0 -78.166 7.5 -116.499 22.5s-66.166 30.167 -83.499 45.5l-27 22l86 115c34 -34 78.333 -51 133 -51c56 0 84 19.667 84 59c0 28.667 -21 43 -63 43l-54 -10l-39 61
l105 158c-104 26 -189 80.167 -255 162.5s-99 174.166 -99 275.499z" />
    <glyph glyph-name="egrave" unicode="&#xe8;" horiz-adv-x="1167" 
d="M1069 410h-729c6.66699 -57.333 30.5 -104.166 71.5 -140.499s94.167 -54.5 159.5 -54.5c52 0 101.667 10.667 149 32s81.666 42.666 102.999 63.999l33 33l107 -190l-18.5 -18.5c-8.33301 -8.33301 -26.833 -22.5 -55.5 -42.5s-58.667 -37.833 -90 -53.5
s-71.666 -29.5 -120.999 -41.5s-100 -18 -152 -18c-126.667 0 -235.5 44.333 -326.5 133s-136.5 192.334 -136.5 311.001c0 165.333 61.833 306.666 185.5 423.999s266.834 176 429.501 176c125.333 0 229.666 -36.833 312.999 -110.5s125 -167.167 125 -280.5
c0 -34 -4 -71 -12 -111zM645 788c-57.333 0 -109.833 -17 -157.5 -51s-85.167 -78.333 -112.5 -133h469c0 53.333 -17.833 97.333 -53.5 132s-84.167 52 -145.5 52zM725 1444l90 -307h-211l-160 307h281z" />
    <glyph glyph-name="eacute" unicode="&#xe9;" horiz-adv-x="1167" 
d="M1069 410h-729c6.66699 -57.333 30.5 -104.166 71.5 -140.499s94.167 -54.5 159.5 -54.5c52 0 101.667 10.667 149 32s81.666 42.666 102.999 63.999l33 33l107 -190l-18.5 -18.5c-8.33301 -8.33301 -26.833 -22.5 -55.5 -42.5s-58.667 -37.833 -90 -53.5
s-71.666 -29.5 -120.999 -41.5s-100 -18 -152 -18c-126.667 0 -235.5 44.333 -326.5 133s-136.5 192.334 -136.5 311.001c0 165.333 61.833 306.666 185.5 423.999s266.834 176 429.501 176c125.333 0 229.666 -36.833 312.999 -110.5s125 -167.167 125 -280.5
c0 -34 -4 -71 -12 -111zM645 788c-57.333 0 -109.833 -17 -157.5 -51s-85.167 -78.333 -112.5 -133h469c0 53.333 -17.833 97.333 -53.5 132s-84.167 52 -145.5 52zM598 1137l225 307h295l-291 -307h-229z" />
    <glyph glyph-name="ecircumflex" unicode="&#xea;" horiz-adv-x="1167" 
d="M1069 410h-729c6.66699 -57.333 30.5 -104.166 71.5 -140.499s94.167 -54.5 159.5 -54.5c52 0 101.667 10.667 149 32s81.666 42.666 102.999 63.999l33 33l107 -190l-18.5 -18.5c-8.33301 -8.33301 -26.833 -22.5 -55.5 -42.5s-58.667 -37.833 -90 -53.5
s-71.666 -29.5 -120.999 -41.5s-100 -18 -152 -18c-126.667 0 -235.5 44.333 -326.5 133s-136.5 192.334 -136.5 311.001c0 165.333 61.833 306.666 185.5 423.999s266.834 176 429.501 176c125.333 0 229.666 -36.833 312.999 -110.5s125 -167.167 125 -280.5
c0 -34 -4 -71 -12 -111zM645 788c-57.333 0 -109.833 -17 -157.5 -51s-85.167 -78.333 -112.5 -133h469c0 53.333 -17.833 97.333 -53.5 132s-84.167 52 -145.5 52zM348 1137l311 307h246l180 -307h-233l-88 163l-158 -163h-258z" />
    <glyph glyph-name="edieresis" unicode="&#xeb;" horiz-adv-x="1167" 
d="M1069 410h-729c6.66699 -57.333 30.5 -104.166 71.5 -140.499s94.167 -54.5 159.5 -54.5c52 0 101.667 10.667 149 32s81.666 42.666 102.999 63.999l33 33l107 -190l-18.5 -18.5c-8.33301 -8.33301 -26.833 -22.5 -55.5 -42.5s-58.667 -37.833 -90 -53.5
s-71.666 -29.5 -120.999 -41.5s-100 -18 -152 -18c-126.667 0 -235.5 44.333 -326.5 133s-136.5 192.334 -136.5 311.001c0 165.333 61.833 306.666 185.5 423.999s266.834 176 429.501 176c125.333 0 229.666 -36.833 312.999 -110.5s125 -167.167 125 -280.5
c0 -34 -4 -71 -12 -111zM645 788c-57.333 0 -109.833 -17 -157.5 -51s-85.167 -78.333 -112.5 -133h469c0 53.333 -17.833 97.333 -53.5 132s-84.167 52 -145.5 52zM825 1264c0 42 17.834 80.833 53.501 116.5s76.5 53.5 122.5 53.5c39.333 0 72.166 -13.333 98.499 -40
s39.5 -59.334 39.5 -98.001c0 -44 -18.5 -83.333 -55.5 -118s-76.5 -52 -118.5 -52c-39.333 0 -72.5 13.833 -99.5 41.5s-40.5 59.834 -40.5 96.501zM373.001 1264c0 42 17.667 80.833 53 116.5s76.333 53.5 123 53.5c39.333 0 72 -13.333 98 -40s39 -59.334 39 -98.001
c0 -44 -18.5 -83.333 -55.5 -118s-76.5 -52 -118.5 -52c-39.333 0 -72.333 13.833 -99 41.5s-40 59.834 -40 96.501z" />
    <glyph glyph-name="igrave" unicode="&#xec;" horiz-adv-x="563" 
d="M416 1444l90 -307h-211l-160 307h281zM530 1004l-213 -1004h-276l213 1004h276z" />
    <glyph glyph-name="iacute" unicode="&#xed;" horiz-adv-x="563" 
d="M311 1137l226 307h294l-290 -307h-230zM530 1004l-213 -1004h-276l213 1004h276z" />
    <glyph glyph-name="icircumflex" unicode="&#xee;" horiz-adv-x="563" 
d="M530 1004l-213 -1004h-276l213 1004h276zM33 1137l311 307h246l180 -307h-233l-88 163l-158 -163h-258z" />
    <glyph glyph-name="idieresis" unicode="&#xef;" horiz-adv-x="563" 
d="M516 1264c0 42 17.834 80.833 53.501 116.5s76.5 53.5 122.5 53.5c39.333 0 72 -13.333 98 -40s39 -59.334 39 -98.001c0 -44 -18.333 -83.333 -55 -118s-76.334 -52 -119.001 -52c-39.333 0 -72.333 13.833 -99 41.5s-40 59.834 -40 96.501zM63.001 1264
c0 42 17.832 80.833 53.499 116.5s76.834 53.5 123.501 53.5c39.333 0 72 -13.333 98 -40s39 -59.334 39 -98.001c0 -44 -18.5 -83.333 -55.5 -118s-76.5 -52 -118.5 -52c-39.333 0 -72.5 13.833 -99.5 41.5s-40.5 59.834 -40.5 96.501zM530 1004l-213 -1004h-276l213 1004
h276z" />
    <glyph glyph-name="eth" unicode="&#xf0;" horiz-adv-x="1228" 
d="M920 831c-8 65.333 -25.498 127.168 -52.498 185.501s-51.167 99.833 -72.5 124.5l-33 37l-268 -154l-78 164l164 102c-54.667 27.333 -117.667 51.333 -189 72l115 205c62.667 -18 120.667 -38.167 174 -60.5s91 -39.833 113 -52.5l32 -20l271 163l88 -163l-209 -123
c5.33301 -5.33301 12.166 -12.5 20.499 -21.5s23 -29.833 44 -62.5s39.667 -67.5 56 -104.5s31.333 -85.167 45 -144.5s20.5 -120.333 20.5 -183c0 -254 -62.167 -453.333 -186.5 -598s-280.5 -217 -468.5 -217c-124 0 -229.833 42.167 -317.5 126.5
s-131.5 183.166 -131.5 296.499c0 155.333 56.667 287.5 170 396.5s243.666 163.5 390.999 163.5c60 0 115.333 -11 166 -33s85.667 -44 105 -66zM543.002 225.002c72.667 0 137.167 28.668 193.5 86.001s84.5 123.666 84.5 198.999c0 56 -19 104.5 -57 145.5
s-83.667 61.5 -137 61.5c-70.667 0 -136.167 -29 -196.5 -87s-90.5 -124 -90.5 -198c0 -56 20.167 -104.5 60.5 -145.5s87.833 -61.5 142.5 -61.5z" />
    <glyph glyph-name="ntilde" unicode="&#xf1;" 
d="M520 1004l-23.999 -115.001c8 9.33301 19.833 21.5 35.5 36.5s49.5 35.167 101.5 60.5s105.333 38 160 38c96.667 0 175 -28.667 235 -86s90 -136.666 90 -237.999c0 -36.667 -4 -75.334 -12 -116.001l-123 -584h-276l116 553c4 20.667 6 39.667 6 57
c0 45.333 -12.833 81.333 -38.5 108s-61.834 40 -108.501 40c-62.667 0 -118.667 -22.167 -168 -66.5s-82 -104.166 -98 -179.499l-109 -512h-276l213 1004h276zM895.001 1137c-52 0 -101.166 17 -147.499 51s-82.5 51 -108.5 51c-48 0 -78.667 -34 -92 -102h-174
c42 204.667 132.667 307 272 307c50.667 0 99.167 -18.833 145.5 -56.5s81.166 -56.5 104.499 -56.5c48 0 79.333 37.667 94 113h174c-22 -104 -56.167 -181.167 -102.5 -231.5s-101.5 -75.5 -165.5 -75.5z" />
    <glyph glyph-name="ograve" unicode="&#xf2;" horiz-adv-x="1208" 
d="M645 768c-75.333 0 -142.667 -31.333 -202 -94s-89 -133.667 -89 -213c0 -65.333 20.167 -119.166 60.5 -161.499s91.833 -63.5 154.5 -63.5c74 0 141 30.333 201 91s90 132.667 90 216c0 65.333 -20.167 119.166 -60.5 161.499s-91.833 63.5 -154.5 63.5zM1151 553
c0 -148.667 -61.165 -281.333 -183.498 -398s-261.833 -175 -418.5 -175c-136.667 0 -251.834 46.333 -345.501 139s-140.5 203.334 -140.5 332.001c0 150 62.833 283 188.5 399s266.5 174 422.5 174c135.333 0 248.666 -46.833 339.999 -140.5s137 -203.834 137 -330.501z
M731.001 1444l90 -307h-211l-159 307h280z" />
    <glyph glyph-name="oacute" unicode="&#xf3;" horiz-adv-x="1208" 
d="M645 768c-75.333 0 -142.667 -31.333 -202 -94s-89 -133.667 -89 -213c0 -65.333 20.167 -119.166 60.5 -161.499s91.833 -63.5 154.5 -63.5c74 0 141 30.333 201 91s90 132.667 90 216c0 65.333 -20.167 119.166 -60.5 161.499s-91.833 63.5 -154.5 63.5zM1151 553
c0 -148.667 -61.165 -281.333 -183.498 -398s-261.833 -175 -418.5 -175c-136.667 0 -251.834 46.333 -345.501 139s-140.5 203.334 -140.5 332.001c0 150 62.833 283 188.5 399s266.5 174 422.5 174c135.333 0 248.666 -46.833 339.999 -140.5s137 -203.834 137 -330.501z
M596.001 1137l225 307h295l-291 -307h-229z" />
    <glyph glyph-name="ocircumflex" unicode="&#xf4;" horiz-adv-x="1208" 
d="M645 768c-75.333 0 -142.667 -31.333 -202 -94s-89 -133.667 -89 -213c0 -65.333 20.167 -119.166 60.5 -161.499s91.833 -63.5 154.5 -63.5c74 0 141 30.333 201 91s90 132.667 90 216c0 65.333 -20.167 119.166 -60.5 161.499s-91.833 63.5 -154.5 63.5zM1151 553
c0 -148.667 -61.165 -281.333 -183.498 -398s-261.833 -175 -418.5 -175c-136.667 0 -251.834 46.333 -345.501 139s-140.5 203.334 -140.5 332.001c0 150 62.833 283 188.5 399s266.5 174 422.5 174c135.333 0 248.666 -46.833 339.999 -140.5s137 -203.834 137 -330.501z
M338.001 1137l311 307h246l180 -307h-233l-88 163l-158 -163h-258z" />
    <glyph glyph-name="otilde" unicode="&#xf5;" horiz-adv-x="1208" 
d="M645 768c-75.333 0 -142.667 -31.333 -202 -94s-89 -133.667 -89 -213c0 -65.333 20.167 -119.166 60.5 -161.499s91.833 -63.5 154.5 -63.5c74 0 141 30.333 201 91s90 132.667 90 216c0 65.333 -20.167 119.166 -60.5 161.499s-91.833 63.5 -154.5 63.5zM1151 553
c0 -148.667 -61.165 -281.333 -183.498 -398s-261.833 -175 -418.5 -175c-136.667 0 -251.834 46.333 -345.501 139s-140.5 203.334 -140.5 332.001c0 150 62.833 283 188.5 399s266.5 174 422.5 174c135.333 0 248.666 -46.833 339.999 -140.5s137 -203.834 137 -330.501z
M874.001 1137c-52 0 -101.167 17 -147.5 51s-82.5 51 -108.5 51c-48 0 -78.667 -34 -92 -102h-174c42 204.667 133 307 273 307c50.667 0 99.167 -18.833 145.5 -56.5s80.833 -56.5 103.5 -56.5c48 0 79.667 37.667 95 113h174c-22 -104 -56.333 -181.167 -103 -231.5
s-102 -75.5 -166 -75.5z" />
    <glyph glyph-name="odieresis" unicode="&#xf6;" horiz-adv-x="1208" 
d="M645 768c-75.333 0 -142.667 -31.333 -202 -94s-89 -133.667 -89 -213c0 -65.333 20.167 -119.166 60.5 -161.499s91.833 -63.5 154.5 -63.5c74 0 141 30.333 201 91s90 132.667 90 216c0 65.333 -20.167 119.166 -60.5 161.499s-91.833 63.5 -154.5 63.5zM1151 553
c0 -148.667 -61.165 -281.333 -183.498 -398s-261.833 -175 -418.5 -175c-136.667 0 -251.834 46.333 -345.501 139s-140.5 203.334 -140.5 332.001c0 150 62.833 283 188.5 399s266.5 174 422.5 174c135.333 0 248.666 -46.833 339.999 -140.5s137 -203.834 137 -330.501z
M825.001 1274c0 42 17.834 80.833 53.501 116.5s76.5 53.5 122.5 53.5c39.333 0 72.166 -13.333 98.499 -40s39.5 -59 39.5 -97c0 -44 -18.5 -83.333 -55.5 -118s-76.5 -52 -118.5 -52c-39.333 0 -72.5 13.667 -99.5 41s-40.5 59.333 -40.5 96zM373.002 1274
c0 42 17.667 80.833 53 116.5s76.333 53.5 123 53.5c39.333 0 72 -13.333 98 -40s39 -59 39 -97c0 -44 -18.5 -83.333 -55.5 -118s-76.5 -52 -118.5 -52c-39.333 0 -72.333 13.667 -99 41s-40 59.333 -40 96z" />
    <glyph glyph-name="divide" unicode="&#xf7;" horiz-adv-x="1064" 
d="M655 240c0 -44 -18 -82.999 -54 -116.999s-78.667 -51 -128 -51c-44 0 -80.167 14 -108.5 42s-42.5 60.333 -42.5 97c0 45.333 18.667 84.666 56 117.999s80 50 128 50c44 0 79.833 -14 107.5 -42s41.5 -60.333 41.5 -97zM1051 707.001l-45 -215h-922l45 215h922z
M811 987.001c0 -44 -18.167 -82.999 -54.5 -116.999s-78.833 -51 -127.5 -51c-44 0 -80.333 14 -109 42s-43 60.333 -43 97c0 45.333 18.833 84.666 56.5 117.999s80.5 50 128.5 50c44 0 79.833 -14 107.5 -42s41.5 -60.333 41.5 -97z" />
    <glyph glyph-name="oslash" unicode="&#xf8;" horiz-adv-x="1208" 
d="M1151 553c0 -148.667 -61.168 -281.334 -183.501 -398.001s-261.833 -175 -418.5 -175c-109.333 0 -205.666 30 -288.999 90l-168 -146l-121 152l158 137c-44 74 -66 153.333 -66 238c0 150 62.833 283 188.5 399s266.5 174 422.5 174c105.333 0 199.333 -30.667 282 -92
l170 147l121 -151l-160 -140c42.667 -73.333 64 -151.666 64 -234.999zM644.999 768c-75.333 0 -142.667 -31.334 -202 -94.001s-89 -133.667 -89 -213c0 -23.333 1.33301 -39.666 4 -48.999l385 333c-30 15.333 -62.667 23 -98 23zM859.998 542.999
c0 10.667 -1.33301 25.667 -4 45l-383 -332c27.333 -13.333 59.333 -20 96 -20c74 0 141 30.333 201 91s90 132.667 90 216z" />
    <glyph glyph-name="ugrave" unicode="&#xf9;" 
d="M707 0l18 94c-8 -8 -19.833 -18.5 -35.5 -31.5s-49.167 -30 -100.5 -51s-104.333 -31.5 -159 -31.5c-96.667 0 -175.5 28.667 -236.5 86s-91.5 134.333 -91.5 231c0 34 4.33301 69.333 13 106l129 601h276l-123 -574c-4 -16.667 -6 -31.667 -6 -45
c0 -44 15 -79.833 45 -107.5s69.667 -41.5 119 -41.5c61.333 0 114.5 21.5 159.5 64.5s75.833 102.5 92.5 178.5l113 525h276l-213 -1004h-276zM750 1444l90 -307h-211l-160 307h281z" />
    <glyph glyph-name="uacute" unicode="&#xfa;" 
d="M707 0l18 94c-8 -8 -19.833 -18.5 -35.5 -31.5s-49.167 -30 -100.5 -51s-104.333 -31.5 -159 -31.5c-96.667 0 -175.5 28.667 -236.5 86s-91.5 134.333 -91.5 231c0 34 4.33301 69.333 13 106l129 601h276l-123 -574c-4 -16.667 -6 -31.667 -6 -45
c0 -44 15 -79.833 45 -107.5s69.667 -41.5 119 -41.5c61.333 0 114.5 21.5 159.5 64.5s75.833 102.5 92.5 178.5l113 525h276l-213 -1004h-276zM596 1137l225 307h295l-291 -307h-229z" />
    <glyph glyph-name="ucircumflex" unicode="&#xfb;" 
d="M707 0l18 94c-8 -8 -19.833 -18.5 -35.5 -31.5s-49.167 -30 -100.5 -51s-104.333 -31.5 -159 -31.5c-96.667 0 -175.5 28.667 -236.5 86s-91.5 134.333 -91.5 231c0 34 4.33301 69.333 13 106l129 601h276l-123 -574c-4 -16.667 -6 -31.667 -6 -45
c0 -44 15 -79.833 45 -107.5s69.667 -41.5 119 -41.5c61.333 0 114.5 21.5 159.5 64.5s75.833 102.5 92.5 178.5l113 525h276l-213 -1004h-276zM356 1137l312 307h245l181 -307h-234l-88 163l-158 -163h-258z" />
    <glyph glyph-name="udieresis" unicode="&#xfc;" 
d="M707 0l18 94c-8 -8 -19.833 -18.5 -35.5 -31.5s-49.167 -30 -100.5 -51s-104.333 -31.5 -159 -31.5c-96.667 0 -175.5 28.667 -236.5 86s-91.5 134.333 -91.5 231c0 34 4.33301 69.333 13 106l129 601h276l-123 -574c-4 -16.667 -6 -31.667 -6 -45
c0 -44 15 -79.833 45 -107.5s69.667 -41.5 119 -41.5c61.333 0 114.5 21.5 159.5 64.5s75.833 102.5 92.5 178.5l113 525h276l-213 -1004h-276zM838 1274c0 42 17.667 80.833 53 116.5s76.333 53.5 123 53.5c39.333 0 72 -13.333 98 -40s39 -59 39 -97
c0 -44 -18.5 -83.333 -55.5 -118s-76.5 -52 -118.5 -52c-39.333 0 -72.333 13.667 -99 41s-40 59.333 -40 96zM385 1274c0 42 17.834 80.833 53.501 116.5s76.5 53.5 122.5 53.5c39.333 0 72 -13.333 98 -40s39 -59 39 -97c0 -44 -18.333 -83.333 -55 -118
s-76.334 -52 -119.001 -52c-39.333 0 -72.333 13.667 -99 41s-40 59.333 -40 96z" />
    <glyph glyph-name="yacute" unicode="&#xfd;" horiz-adv-x="1064" 
d="M250 -55l47 71l-176 988h276l101 -666l370 666h297l-626 -1065c-74 -125.333 -146.833 -218.166 -218.5 -278.499s-149.834 -90.5 -234.501 -90.5c-30 0 -60 2.66699 -90 8s-52.667 10.666 -68 15.999l-22 7l51 245c23.333 -13.333 55.333 -20 96 -20
c80.667 0 146.334 39.667 197.001 119zM514 1137l225 307h295l-291 -307h-229z" />
    <glyph glyph-name="thorn" unicode="&#xfe;" horiz-adv-x="1269" 
d="M645 -20c-40.667 0 -78.833 5 -114.5 15s-64.334 22.5 -86.001 37.5s-40.334 30.333 -56.001 46s-27.167 29.167 -34.5 40.5l-10 14l-119 -563h-276l395 1864h277l-115 -543c2.66699 4 6.33398 8.66699 11.001 14s16.334 16 35.001 32s38.834 29.667 60.501 41
s50.667 21.833 87 31.5s74.166 14.5 113.499 14.5c110.667 0 205.167 -42 283.5 -126s117.5 -185.333 117.5 -304c0 -172 -57.667 -317.333 -173 -436s-247.333 -178 -396 -178zM715.001 778c-76.667 0 -145.667 -32.334 -207 -97.001s-92 -145 -92 -241
c0 -62.667 20.167 -114.167 60.5 -154.5s89.166 -60.5 146.499 -60.5c78 0 147.333 31.833 208 95.5s91 143.834 91 240.501c0 61.333 -20.167 112.833 -60.5 154.5s-89.166 62.5 -146.499 62.5z" />
    <glyph glyph-name="ydieresis" unicode="&#xff;" horiz-adv-x="1064" 
d="M250 -55l47 71l-176 988h276l101 -666l370 666h297l-626 -1065c-74 -125.333 -146.833 -218.166 -218.5 -278.499s-149.834 -90.5 -234.501 -90.5c-30 0 -60 2.66699 -90 8s-52.667 10.666 -68 15.999l-22 7l51 245c23.333 -13.333 55.333 -20 96 -20
c80.667 0 146.334 39.667 197.001 119zM745 1274c0 42 17.832 80.833 53.499 116.5s76.834 53.5 123.501 53.5c39.333 0 72 -13.333 98 -40s39 -59 39 -97c0 -44 -18.5 -83.333 -55.5 -118s-76.5 -52 -118.5 -52c-39.333 0 -72.5 13.667 -99.5 41s-40.5 59.333 -40.5 96z
M292.999 1274c0 42 17.668 80.833 53.001 116.5s76.333 53.5 123 53.5c39.333 0 72 -13.333 98 -40s39 -59 39 -97c0 -44 -18.333 -83.333 -55 -118s-76.334 -52 -119.001 -52c-39.333 0 -72.333 13.667 -99 41s-40 59.333 -40 96z" />
    <glyph glyph-name="Amacron" unicode="&#x100;" horiz-adv-x="1495" 
d="M965 604l-74 471l-275 -471h349zM1012 338h-553l-195 -338h-336l867 1434h327l260 -1434h-319zM1356 1874l-43 -205h-656l43 205h656z" />
    <glyph glyph-name="amacron" unicode="&#x101;" horiz-adv-x="1259" 
d="M631 1024c40.667 0 78.833 -5.16504 114.5 -15.498s64.334 -23.333 86.001 -39s40.334 -31 56.001 -46s27.167 -27.833 34.5 -38.5l10 -15l29 134h276l-213 -1004h-276l22 113c-2.66699 -4 -6.33398 -8.83301 -11.001 -14.5s-16.334 -16.334 -35.001 -32.001
s-38.834 -29.334 -60.501 -41.001s-50.667 -22.167 -87 -31.5s-74.166 -14 -113.499 -14c-110.667 0 -205 42.667 -283 128s-117 187.333 -117 306c0 172 57.5 316.667 172.5 434s246.833 176 395.5 176zM560.999 225.002c78 0 147.668 32.499 209.001 97.499
s92 145.167 92 240.5c0 62.667 -20.5 114.167 -61.5 154.5s-90.167 60.5 -147.5 60.5c-78 0 -147.333 -31.667 -208 -95s-91 -143.666 -91 -240.999c0 -61.333 20.167 -112.833 60.5 -154.5s89.166 -62.5 146.499 -62.5zM1141 1423l-43 -204h-656l43 204h656z" />
    <glyph glyph-name="Abreve" unicode="&#x102;" horiz-adv-x="1495" 
d="M965 604l-74 471l-275 -471h349zM1012 338h-553l-195 -338h-336l867 1434h327l260 -1434h-319zM995.5 1792c35.667 0 66.999 11.667 93.999 35s44.167 52.666 51.5 87.999h205c-19.333 -91.333 -59.666 -165.333 -120.999 -222s-139.333 -85 -234 -85
c-98 0 -177 29.667 -237 89s-81.333 132 -64 218h205c-6.66699 -35.333 -0.5 -64.666 18.5 -87.999s46.333 -35 82 -35z" />
    <glyph glyph-name="abreve" unicode="&#x103;" horiz-adv-x="1259" 
d="M631 1024c40.667 0 78.833 -5.16504 114.5 -15.498s64.334 -23.333 86.001 -39s40.334 -31 56.001 -46s27.167 -27.833 34.5 -38.5l10 -15l29 134h276l-213 -1004h-276l22 113c-2.66699 -4 -6.33398 -8.83301 -11.001 -14.5s-16.334 -16.334 -35.001 -32.001
s-38.834 -29.334 -60.501 -41.001s-50.667 -22.167 -87 -31.5s-74.166 -14 -113.499 -14c-110.667 0 -205 42.667 -283 128s-117 187.333 -117 306c0 172 57.5 316.667 172.5 434s246.833 176 395.5 176zM560.999 225.002c78 0 147.668 32.499 209.001 97.499
s92 145.167 92 240.5c0 62.667 -20.5 114.167 -61.5 154.5s-90.167 60.5 -147.5 60.5c-78 0 -147.333 -31.667 -208 -95s-91 -143.666 -91 -240.999c0 -61.333 20.167 -112.833 60.5 -154.5s89.166 -62.5 146.499 -62.5zM747.5 1321c35.667 0 67.166 11.667 94.499 35
s44.333 52.666 51 87.999h205c-19.333 -91.333 -59.666 -165.333 -120.999 -222s-139.333 -85 -234 -85c-98 0 -177 29.667 -237 89s-81.333 132 -64 218h205c-6.66699 -35.333 -0.5 -64.666 18.5 -87.999s46.333 -35 82 -35z" />
    <glyph glyph-name="Aogonek" unicode="&#x104;" horiz-adv-x="1495" 
d="M1063 0l-51.001 338.001h-553l-195 -338h-336l867 1434h327l260 -1434h-176c-8 -9.33301 -18.833 -21.5 -32.5 -36.5s-31.5 -42.333 -53.5 -82s-33 -75.167 -33 -106.5c0 -40.667 26 -61.334 78 -62.001c18 0 35.833 1.83301 53.5 5.5s30.5 7.5 38.5 11.5l15 4l-33 -154
c-38 -20.667 -91.333 -31 -160 -31c-57.333 0 -104.333 16.5 -141 49.5s-55 73.833 -55 122.5c0 30 6.16699 60.167 18.5 90.5s27.333 56.333 45 78s35.334 41 53.001 58s32.5 30.5 44.5 40.5zM964.999 604.001l-74 471l-275 -471h349z" />
    <glyph glyph-name="aogonek" unicode="&#x105;" horiz-adv-x="1259" 
d="M748 0l21.999 113.003c-2.66699 -4 -6.33398 -8.83301 -11.001 -14.5s-16.334 -16.334 -35.001 -32.001s-38.834 -29.334 -60.501 -41.001s-50.667 -22.167 -87 -31.5s-74.166 -14 -113.499 -14c-110.667 0 -205 42.667 -283 128s-117 187.333 -117 306
c0 172 57.5 316.667 172.5 434s246.833 176 395.5 176c40.667 0 78.834 -5.16699 114.501 -15.5s64.334 -23.333 86.001 -39s40.334 -31 56.001 -46s27.167 -27.833 34.5 -38.5l10 -15l29 134h276l-213 -1004h-133c-8 -9.33301 -18.833 -21.5 -32.5 -36.5
s-31.5 -42.333 -53.5 -82s-33 -75.167 -33 -106.5c0 -40.667 26 -61.334 78 -62.001c18 0 35.833 1.83301 53.5 5.5s30.5 7.5 38.5 11.5l14 4l-32 -154c-38 -20.667 -91.333 -31 -160 -31c-57.333 0 -104.5 16.5 -141.5 49.5s-55.5 73.833 -55.5 122.5
c0 30 6.16699 60.167 18.5 90.5s27.333 56.333 45 78s35.5 41 53.5 58s33 30.5 45 40.5zM560.999 225.003c78 0 147.668 32.499 209.001 97.499s92 145.167 92 240.5c0 62.667 -20.5 114.167 -61.5 154.5s-90.167 60.5 -147.5 60.5c-78 0 -147.333 -31.667 -208 -95
s-91 -143.666 -91 -240.999c0 -61.333 20.167 -112.833 60.5 -154.5s89.166 -62.5 146.499 -62.5z" />
    <glyph glyph-name="Cacute" unicode="&#x106;" horiz-adv-x="1546" 
d="M1051 1464c75.333 0 146.331 -9.83203 212.998 -29.499s121.5 -43.5 164.5 -71.5s80.5 -56 112.5 -84s55 -51.667 69 -71l22 -30l-225 -185c-2.66699 5.33301 -7.16699 12.5 -13.5 21.5s-20.666 24.5 -42.999 46.5s-46.5 41.5 -72.5 58.5s-61.5 32.667 -106.5 47
s-92.167 21.5 -141.5 21.5c-151.333 0 -284.666 -54.667 -399.999 -164s-173 -241 -173 -395c0 -108 37.5 -198.833 112.5 -272.5s169.167 -110.5 282.5 -110.5c52 0 102.5 7.5 151.5 22.5s90.333 32.667 124 53s63.667 41.166 90 62.499s45.833 39.333 58.5 54l18 23
l152 -205c-5.33301 -8 -13.833 -18.5 -25.5 -31.5s-37.667 -36 -78 -69s-82.666 -62 -126.999 -87s-102 -47.833 -173 -68.5s-144.167 -31 -219.5 -31c-190 0 -350.5 63.5 -481.5 190.5s-196.5 276.5 -196.5 448.5c0 236 89.167 437.667 267.5 605s391.166 251 638.499 251z
M955.998 1608l226 307h295l-291 -307h-230z" />
    <glyph glyph-name="cacute" unicode="&#x107;" horiz-adv-x="1075" 
d="M66 432c0 160 61.6699 298.67 185.003 416.003s269.666 176 438.999 176c52 0 101.167 -7.16699 147.5 -21.5s84.5 -31.333 114.5 -51s56.333 -39.5 79 -59.5s39.334 -37.333 50.001 -52l15 -21l-201 -162c-5.33301 9.33301 -13.5 20.666 -24.5 33.999
s-36.333 31.166 -76 53.499s-81.834 33.5 -126.501 33.5c-82 0 -156.167 -32.333 -222.5 -97s-99.5 -141.334 -99.5 -230.001c0 -62.667 20.833 -116 62.5 -160s93.167 -66 154.5 -66c45.333 0 90.166 11.667 134.499 35s77.5 47.333 99.5 72l32 35l132 -183
c-4 -5.33301 -9.83301 -12.833 -17.5 -22.5s-24.834 -26 -51.501 -49s-55 -43.333 -85 -61s-69.333 -34 -118 -49s-98.667 -22.5 -150 -22.5c-134 0 -246.333 45.333 -337 136s-136 196 -136 316zM602.003 1137l225 307h295l-291 -307h-229z" />
    <glyph glyph-name="Ccircumflex" unicode="&#x108;" horiz-adv-x="1546" 
d="M1051 1464c75.333 0 146.331 -9.83203 212.998 -29.499s121.5 -43.5 164.5 -71.5s80.5 -56 112.5 -84s55 -51.667 69 -71l22 -30l-225 -185c-2.66699 5.33301 -7.16699 12.5 -13.5 21.5s-20.666 24.5 -42.999 46.5s-46.5 41.5 -72.5 58.5s-61.5 32.667 -106.5 47
s-92.167 21.5 -141.5 21.5c-151.333 0 -284.666 -54.667 -399.999 -164s-173 -241 -173 -395c0 -108 37.5 -198.833 112.5 -272.5s169.167 -110.5 282.5 -110.5c52 0 102.5 7.5 151.5 22.5s90.333 32.667 124 53s63.667 41.166 90 62.499s45.833 39.333 58.5 54l18 23
l152 -205c-5.33301 -8 -13.833 -18.5 -25.5 -31.5s-37.667 -36 -78 -69s-82.666 -62 -126.999 -87s-102 -47.833 -173 -68.5s-144.167 -31 -219.5 -31c-190 0 -350.5 63.5 -481.5 190.5s-196.5 276.5 -196.5 448.5c0 236 89.167 437.667 267.5 605s391.166 251 638.499 251z
M710.998 1608l311 307h246l180 -307h-234l-88 164l-157 -164h-258z" />
    <glyph glyph-name="ccircumflex" unicode="&#x109;" horiz-adv-x="1075" 
d="M66 432c0 160 61.6699 298.67 185.003 416.003s269.666 176 438.999 176c52 0 101.167 -7.16699 147.5 -21.5s84.5 -31.333 114.5 -51s56.333 -39.5 79 -59.5s39.334 -37.333 50.001 -52l15 -21l-201 -162c-5.33301 9.33301 -13.5 20.666 -24.5 33.999
s-36.333 31.166 -76 53.499s-81.834 33.5 -126.501 33.5c-82 0 -156.167 -32.333 -222.5 -97s-99.5 -141.334 -99.5 -230.001c0 -62.667 20.833 -116 62.5 -160s93.167 -66 154.5 -66c45.333 0 90.166 11.667 134.499 35s77.5 47.333 99.5 72l32 35l132 -183
c-4 -5.33301 -9.83301 -12.833 -17.5 -22.5s-24.834 -26 -51.501 -49s-55 -43.333 -85 -61s-69.333 -34 -118 -49s-98.667 -22.5 -150 -22.5c-134 0 -246.333 45.333 -337 136s-136 196 -136 316zM348.003 1137l311 307h246l180 -307h-233l-88 163l-158 -163h-258z" />
    <glyph glyph-name="Ccaron" unicode="&#x10c;" horiz-adv-x="1546" 
d="M1051 1464c75.333 0 146.331 -9.83203 212.998 -29.499s121.5 -43.5 164.5 -71.5s80.5 -56 112.5 -84s55 -51.667 69 -71l22 -30l-225 -185c-2.66699 5.33301 -7.16699 12.5 -13.5 21.5s-20.666 24.5 -42.999 46.5s-46.5 41.5 -72.5 58.5s-61.5 32.667 -106.5 47
s-92.167 21.5 -141.5 21.5c-151.333 0 -284.666 -54.667 -399.999 -164s-173 -241 -173 -395c0 -108 37.5 -198.833 112.5 -272.5s169.167 -110.5 282.5 -110.5c52 0 102.5 7.5 151.5 22.5s90.333 32.667 124 53s63.667 41.166 90 62.499s45.833 39.333 58.5 54l18 23
l152 -205c-5.33301 -8 -13.833 -18.5 -25.5 -31.5s-37.667 -36 -78 -69s-82.666 -62 -126.999 -87s-102 -47.833 -173 -68.5s-144.167 -31 -219.5 -31c-190 0 -350.5 63.5 -481.5 190.5s-196.5 276.5 -196.5 448.5c0 236 89.167 437.667 267.5 605s391.166 251 638.499 251z
M1513 1915l-311 -307h-246l-180 307h234l90 -164l155 164h258z" />
    <glyph glyph-name="ccaron" unicode="&#x10d;" horiz-adv-x="1075" 
d="M66 432c0 160 61.6699 298.67 185.003 416.003s269.666 176 438.999 176c52 0 101.167 -7.16699 147.5 -21.5s84.5 -31.333 114.5 -51s56.333 -39.5 79 -59.5s39.334 -37.333 50.001 -52l15 -21l-201 -162c-5.33301 9.33301 -13.5 20.666 -24.5 33.999
s-36.333 31.166 -76 53.499s-81.834 33.5 -126.501 33.5c-82 0 -156.167 -32.333 -222.5 -97s-99.5 -141.334 -99.5 -230.001c0 -62.667 20.833 -116 62.5 -160s93.167 -66 154.5 -66c45.333 0 90.166 11.667 134.499 35s77.5 47.333 99.5 72l32 35l132 -183
c-4 -5.33301 -9.83301 -12.833 -17.5 -22.5s-24.834 -26 -51.501 -49s-55 -43.333 -85 -61s-69.333 -34 -118 -49s-98.667 -22.5 -150 -22.5c-134 0 -246.333 45.333 -337 136s-136 196 -136 316zM1145 1444l-311 -307h-246l-180 307h233l90 -164l156 164h258z" />
    <glyph glyph-name="Dcaron" unicode="&#x10e;" horiz-adv-x="1556" 
d="M395 1434h498.001c180 0 331.167 -59.167 453.5 -177.5s183.5 -260.166 183.5 -425.499c0 -230.667 -85.333 -426.834 -256 -588.501s-373.334 -242.5 -608.001 -242.5h-574zM866.001 1157h-221l-188 -881h225c135.333 0 258.333 52 369 156s166 227 166 369
c0 101.333 -32.5 186 -97.5 254s-149.5 102 -253.5 102zM1370 1915l-311 -307h-246l-180 307h233l90 -164l156 164h258z" />
    <glyph glyph-name="dcaron" unicode="&#x10f;" horiz-adv-x="1413" 
d="M631 1024c40.667 0 78.833 -5.16504 114.5 -15.498s64.334 -23.333 86.001 -39s40.334 -31 56.001 -46s27.167 -27.833 34.5 -38.5l10 -15l119 564h276l-303 -1434h-276l22 113c-2.66699 -4 -6.33398 -8.83301 -11.001 -14.5s-16.334 -16.334 -35.001 -32.001
s-38.834 -29.334 -60.501 -41.001s-50.667 -22.167 -87 -31.5s-74.166 -14 -113.499 -14c-110.667 0 -205 42.667 -283 128s-117 187.333 -117 306c0 172 57.5 316.667 172.5 434s246.833 176 395.5 176zM560.999 225.002c78 0 147.668 32.499 209.001 97.499
s92 145.167 92 240.5c0 62.667 -20.5 114.167 -61.5 154.5s-90.167 60.5 -147.5 60.5c-78 0 -147.333 -31.667 -208 -95s-91 -143.666 -91 -240.999c0 -61.333 20.167 -112.833 60.5 -154.5s89.166 -62.5 146.499 -62.5zM1335 1126l148 308h264l-207 -308h-205z" />
    <glyph glyph-name="Dcroat" unicode="&#x110;" horiz-adv-x="1597" 
d="M436 1434h498.001c180 0 331.167 -59.167 453.5 -177.5s183.5 -260.166 183.5 -425.499c0 -230.667 -85.333 -426.834 -256 -588.501s-373.334 -242.5 -608.001 -242.5h-574l125 594h-174l53 246h174zM907.001 1157h-220.999l-70 -317h279l-53 -246h-277l-67 -318h225
c135.333 0 258.166 52 368.499 156s165.5 227 165.5 369c0 101.333 -32.333 186 -97 254s-149 102 -253 102z" />
    <glyph glyph-name="dcroat" unicode="&#x111;" horiz-adv-x="1249" 
d="M713 1044l51 246h225l31 144h276l-30 -144h153l-51 -246h-154l-221 -1044h-276l20 102c-8 -9.33301 -19.167 -20.833 -33.5 -34.5s-47.5 -31.667 -99.5 -54s-107.333 -33.5 -166 -33.5c-106.667 0 -197.167 39.5 -271.5 118.5s-111.5 174.5 -111.5 286.5
c0 166.667 55.333 304.667 166 414s237 164 379 164c62.667 0 118 -13 166 -39s80.667 -51.333 98 -76l25 -39l49 235h-225zM535 215c70.667 0 136.002 31.335 196.002 94.002s90 135 90 217c0 57.333 -19.333 105.166 -58 143.499s-85.334 57.5 -140.001 57.5
c-70.667 0 -135.834 -29.667 -195.501 -89s-89.5 -129.333 -89.5 -210c0 -58.667 19.5 -108.834 58.5 -150.501s85.167 -62.5 138.5 -62.5z" />
    <glyph glyph-name="Emacron" unicode="&#x112;" horiz-adv-x="1361" 
d="M457 276h768l-58 -276h-1075l303 1434h1055l-57 -277h-748l-61 -287h583l-59 -276h-584zM1317 1874l-43 -205h-656l44 205h655z" />
    <glyph glyph-name="emacron" unicode="&#x113;" horiz-adv-x="1167" 
d="M1069 410h-729c6.66699 -57.333 30.5 -104.166 71.5 -140.499s94.167 -54.5 159.5 -54.5c52 0 101.667 10.667 149 32s81.666 42.666 102.999 63.999l33 33l107 -190l-18.5 -18.5c-8.33301 -8.33301 -26.833 -22.5 -55.5 -42.5s-58.667 -37.833 -90 -53.5
s-71.666 -29.5 -120.999 -41.5s-100 -18 -152 -18c-126.667 0 -235.5 44.333 -326.5 133s-136.5 192.334 -136.5 311.001c0 165.333 61.833 306.666 185.5 423.999s266.834 176 429.501 176c125.333 0 229.666 -36.833 312.999 -110.5s125 -167.167 125 -280.5
c0 -34 -4 -71 -12 -111zM645 788c-57.333 0 -109.833 -17 -157.5 -51s-85.167 -78.333 -112.5 -133h469c0 53.333 -17.833 97.333 -53.5 132s-84.167 52 -145.5 52zM1104 1403l-43 -205h-655l43 205h655z" />
    <glyph glyph-name="Edotaccent" unicode="&#x116;" horiz-adv-x="1361" 
d="M457 276h768l-58 -276h-1075l303 1434h1055l-57 -277h-748l-61 -287h583l-59 -276h-584zM1112 1782c0 -46.667 -16.667 -87.333 -50 -122s-74.666 -52 -123.999 -52c-48 0 -85.333 11.5 -112 34.5s-40 55.167 -40 96.5c0 50.667 16.833 92.667 50.5 126s73.5 50 119.5 50
c49.333 0 87.666 -12.333 114.999 -37s41 -56.667 41 -96z" />
    <glyph glyph-name="edotaccent" unicode="&#x117;" horiz-adv-x="1167" 
d="M1069 410h-729c6.66699 -57.333 30.5 -104.166 71.5 -140.499s94.167 -54.5 159.5 -54.5c52 0 101.667 10.667 149 32s81.666 42.666 102.999 63.999l33 33l107 -190l-18.5 -18.5c-8.33301 -8.33301 -26.833 -22.5 -55.5 -42.5s-58.667 -37.833 -90 -53.5
s-71.666 -29.5 -120.999 -41.5s-100 -18 -152 -18c-126.667 0 -235.5 44.333 -326.5 133s-136.5 192.334 -136.5 311.001c0 165.333 61.833 306.666 185.5 423.999s266.834 176 429.501 176c125.333 0 229.666 -36.833 312.999 -110.5s125 -167.167 125 -280.5
c0 -34 -4 -71 -12 -111zM645 788c-57.333 0 -109.833 -17 -157.5 -51s-85.167 -78.333 -112.5 -133h469c0 53.333 -17.833 97.333 -53.5 132s-84.167 52 -145.5 52zM909 1311c0 -46.667 -16.668 -87.333 -50.001 -122s-74.666 -52 -123.999 -52
c-48 0 -85.167 11.5 -111.5 34.5s-39.5 55.167 -39.5 96.5c0 50.667 16.667 92.667 50 126s73.333 50 120 50c49.333 0 87.5 -12.333 114.5 -37s40.5 -56.667 40.5 -96z" />
    <glyph glyph-name="Eogonek" unicode="&#x118;" horiz-adv-x="1361" 
d="M1024 0l-932.001 0.000976562l303 1434h1055l-57 -277h-748l-61 -287h583l-59 -276h-584l-67 -318h768l-58 -276c-8 -9.33301 -18.833 -21.5 -32.5 -36.5s-31.334 -42.333 -53.001 -82s-32.5 -75.167 -32.5 -106.5c0 -40.667 25.667 -61.334 77 -62.001
c18 0 35.833 1.83301 53.5 5.5s31.5 7.5 41.5 11.5l12 4l-33 -154c-38 -20.667 -91.333 -31 -160 -31c-57.333 0 -104.333 16.5 -141 49.5s-55 73.833 -55 122.5c0 30 6.16699 60.167 18.5 90.5s27.333 56.333 45 78s35.334 41 53.001 58s32.834 30.5 45.501 40.5z" />
    <glyph glyph-name="eogonek" unicode="&#x119;" horiz-adv-x="1167" 
d="M1069 410l-728.998 0.000976562c6.66699 -57.333 30.5 -104.166 71.5 -140.499s94.167 -54.5 159.5 -54.5c52 0 101.667 10.667 149 32s81.666 42.666 102.999 63.999l33 33l107 -190c-10.667 -10.667 -26 -25 -46 -43s-63.833 -42.667 -131.5 -74
s-137.834 -49.666 -210.501 -54.999c-66.667 -76.667 -100 -145.667 -100 -207c0 -40.667 26 -61.334 78 -62.001c18 0 35.833 1.83301 53.5 5.5s31.167 7.5 40.5 11.5l12 4l-32 -154c-38 -20.667 -91.333 -31 -160 -31c-57.333 0 -104.5 16.5 -141.5 49.5
s-55.5 73.833 -55.5 122.5c0 95.333 54.667 185 164 269c-106.667 20.667 -195.167 72.167 -265.5 154.5s-105.5 175.5 -105.5 279.5c0 165.333 61.833 306.666 185.5 423.999s266.834 176 429.501 176c125.333 0 229.666 -36.833 312.999 -110.5s125 -167.167 125 -280.5
c0 -34 -4 -71 -12 -111zM645.002 788.001c-57.333 0 -109.833 -17 -157.5 -51s-85.167 -78.333 -112.5 -133h469c0 53.333 -17.833 97.333 -53.5 132s-84.167 52 -145.5 52z" />
    <glyph glyph-name="Ecaron" unicode="&#x11a;" horiz-adv-x="1361" 
d="M457 276h768l-58 -276h-1075l303 1434h1055l-57 -277h-748l-61 -287h583l-59 -276h-584zM1382 1915l-311 -307h-246l-180 307h234l90 -164l155 164h258z" />
    <glyph glyph-name="ecaron" unicode="&#x11b;" horiz-adv-x="1167" 
d="M1069 410h-729c6.66699 -57.333 30.5 -104.166 71.5 -140.499s94.167 -54.5 159.5 -54.5c52 0 101.667 10.667 149 32s81.666 42.666 102.999 63.999l33 33l107 -190l-18.5 -18.5c-8.33301 -8.33301 -26.833 -22.5 -55.5 -42.5s-58.667 -37.833 -90 -53.5
s-71.666 -29.5 -120.999 -41.5s-100 -18 -152 -18c-126.667 0 -235.5 44.333 -326.5 133s-136.5 192.334 -136.5 311.001c0 165.333 61.833 306.666 185.5 423.999s266.834 176 429.501 176c125.333 0 229.666 -36.833 312.999 -110.5s125 -167.167 125 -280.5
c0 -34 -4 -71 -12 -111zM645 788c-57.333 0 -109.833 -17 -157.5 -51s-85.167 -78.333 -112.5 -133h469c0 53.333 -17.833 97.333 -53.5 132s-84.167 52 -145.5 52zM1147 1444l-311 -307h-246l-180 307h233l90 -164l156 164h258z" />
    <glyph glyph-name="Gbreve" unicode="&#x11e;" horiz-adv-x="1658" 
d="M1014 778h563.001l-113 -532c-6.66699 -6.66699 -16.167 -16.5 -28.5 -29.5s-39.333 -35.333 -81 -67s-86 -59.667 -133 -84s-107 -46.5 -180 -66.5s-147.833 -30 -224.5 -30c-190 0 -349.5 63.5 -478.5 190.5s-193.5 276.5 -193.5 448.5c0 236 89.167 437.667 267.5 605
s391.833 251 640.5 251c75.333 0 146.333 -9.83301 213 -29.5s121.5 -43.5 164.5 -71.5s80.5 -56 112.5 -84s55 -51.667 69 -71l20 -30l-227 -185c-2.66699 5.33301 -7.16699 12.5 -13.5 21.5s-20.666 24.5 -42.999 46.5s-46.5 41.5 -72.5 58.5s-61.5 32.667 -106.5 47
s-92.167 21.5 -141.5 21.5c-151.333 0 -284.333 -55.333 -399 -166s-172 -243 -172 -397c0 -108 37.167 -198.167 111.5 -270.5s168.166 -108.5 281.499 -108.5c64 0 123.667 9.5 179 28.5s94.666 38.167 117.999 57.5l35 26l41 195h-256zM1095.5 1792
c35.667 0 67.166 11.667 94.499 35s44.333 52.666 51 87.999h205c-19.333 -91.333 -59.666 -165.333 -120.999 -222s-139 -85 -233 -85c-98 0 -177.167 29.667 -237.5 89s-81.5 132 -63.5 218h204c-6.66699 -35.333 -0.5 -64.666 18.5 -87.999s46.333 -35 82 -35z" />
    <glyph glyph-name="gbreve" unicode="&#x11f;" horiz-adv-x="1228" 
d="M635 768c-75.333 0 -139.998 -29.6689 -193.998 -89.002s-81 -128.666 -81 -207.999c0 -56 18.167 -102.5 54.5 -139.5s81.166 -55.5 134.499 -55.5c69.333 0 133.666 29.833 192.999 89.5s89 128.834 89 207.501c0 56 -19 102.5 -57 139.5s-84.333 55.5 -139 55.5z
M733.002 81.998l17.002 72.001c-6.66699 -9.33301 -17.667 -21.666 -33 -36.999s-49.166 -35.333 -101.499 -60s-109.5 -37 -171.5 -37c-102.667 0 -191 42.667 -265 128s-111 184.666 -111 297.999c0 155.333 56.333 290.5 169 405.5s237 172.5 373 172.5
c60 0 114.333 -13 163 -39s81.667 -51.333 99 -76l29 -39l29 134h276l-196 -922c-31.333 -147.333 -101 -269.5 -209 -366.5s-236.333 -145.5 -385 -145.5c-57.333 0 -112.333 7.5 -165 22.5s-96.334 32.667 -131.001 53s-65.334 41.166 -92.001 62.499
s-45.667 39.333 -57 54l-18 23l203 162c2.66699 -4 6 -8.83301 10 -14.5s14.167 -16 30.5 -31s33.666 -28.333 51.999 -40s43.333 -22.167 75 -31.5s64.5 -14 98.5 -14c82 0 149.5 23.5 202.5 70.5s89.167 112.167 108.5 195.5zM745.504 1325
c35.667 0 67.166 11.667 94.499 35s44.333 52.666 51 87.999h205c-19.333 -91.333 -59.666 -165.333 -120.999 -222s-139.333 -85 -234 -85c-98 0 -177 29.667 -237 89s-81.333 132 -64 218h205c-6.66699 -35.333 -0.5 -64.666 18.5 -87.999s46.333 -35 82 -35z" />
    <glyph glyph-name="uni0122" unicode="&#x122;" horiz-adv-x="1658" 
d="M1014 778h563.001l-113 -532c-6.66699 -6.66699 -16.167 -16.5 -28.5 -29.5s-39.333 -35.333 -81 -67s-86 -59.667 -133 -84s-107 -46.5 -180 -66.5s-147.833 -30 -224.5 -30c-190 0 -349.5 63.5 -478.5 190.5s-193.5 276.5 -193.5 448.5c0 236 89.167 437.667 267.5 605
s391.833 251 640.5 251c75.333 0 146.333 -9.83301 213 -29.5s121.5 -43.5 164.5 -71.5s80.5 -56 112.5 -84s55 -51.667 69 -71l20 -30l-227 -185c-2.66699 5.33301 -7.16699 12.5 -13.5 21.5s-20.666 24.5 -42.999 46.5s-46.5 41.5 -72.5 58.5s-61.5 32.667 -106.5 47
s-92.167 21.5 -141.5 21.5c-151.333 0 -284.333 -55.333 -399 -166s-172 -243 -172 -397c0 -108 37.167 -198.167 111.5 -270.5s168.166 -108.5 281.499 -108.5c64 0 123.667 9.5 179 28.5s94.666 38.167 117.999 57.5l35 26l41 195h-256zM532.001 -471l148 307h264
l-207 -307h-205z" />
    <glyph glyph-name="uni0123" unicode="&#x123;" horiz-adv-x="1228" 
d="M635 768c-75.333 0 -139.998 -29.6689 -193.998 -89.002s-81 -128.666 -81 -207.999c0 -56 18.167 -102.5 54.5 -139.5s81.166 -55.5 134.499 -55.5c69.333 0 133.666 29.833 192.999 89.5s89 128.834 89 207.501c0 56 -19 102.5 -57 139.5s-84.333 55.5 -139 55.5z
M733.002 81.998l17.002 72.001c-6.66699 -9.33301 -17.667 -21.666 -33 -36.999s-49.166 -35.333 -101.499 -60s-109.5 -37 -171.5 -37c-102.667 0 -191 42.667 -265 128s-111 184.666 -111 297.999c0 155.333 56.333 290.5 169 405.5s237 172.5 373 172.5
c60 0 114.333 -13 163 -39s81.667 -51.333 99 -76l29 -39l29 134h276l-196 -922c-31.333 -147.333 -101 -269.5 -209 -366.5s-236.333 -145.5 -385 -145.5c-57.333 0 -112.333 7.5 -165 22.5s-96.334 32.667 -131.001 53s-65.334 41.166 -92.001 62.499
s-45.667 39.333 -57 54l-18 23l203 162c2.66699 -4 6 -8.83301 10 -14.5s14.167 -16 30.5 -31s33.666 -28.333 51.999 -40s43.333 -22.167 75 -31.5s64.5 -14 98.5 -14c82 0 149.5 23.5 202.5 70.5s89.167 112.167 108.5 195.5zM975.004 1444l-156 -307h-262l209 307h209z
" />
    <glyph glyph-name="Imacron" unicode="&#x12a;" horiz-adv-x="675" 
d="M92 0l303 1434h307l-303 -1434h-307zM952 1874l-43 -205h-655l43 205h655z" />
    <glyph glyph-name="imacron" unicode="&#x12b;" horiz-adv-x="563" 
d="M797 1403l-43 -205h-656l43 205h656zM530 1004l-213 -1004h-276l213 1004h276z" />
    <glyph glyph-name="Iogonek" unicode="&#x12e;" horiz-adv-x="675" 
d="M92 0l302.998 1434h307l-303 -1434h-163c-8 -9.33301 -19 -21.5 -33 -36.5s-31.833 -42.333 -53.5 -82s-32.5 -75.167 -32.5 -106.5c0 -40.667 26 -61.334 78 -62.001c18 0 35.667 1.83301 53 5.5s30.333 7.5 39 11.5l14 4l-33 -154c-38 -20.667 -91 -31 -159 -31
c-57.333 0 -104.5 16.5 -141.5 49.5s-55.5 73.833 -55.5 122.5c0 30 6.16699 60.167 18.5 90.5s27.333 56.333 45 78s35.334 41 53.001 58s32.834 30.5 45.501 40.5z" />
    <glyph glyph-name="iogonek" unicode="&#x12f;" horiz-adv-x="563" 
d="M41 0l212.999 1004h276l-213 -1004h-133c-8 -9.33301 -18.833 -21.5 -32.5 -36.5s-31.334 -42.333 -53.001 -82s-32.5 -75.167 -32.5 -106.5c0 -40.667 25.667 -61.334 77 -62.001c18 0 35.833 1.83301 53.5 5.5s31.5 7.5 41.5 11.5l12 4l-33 -154
c-38 -20.667 -91.333 -31 -160 -31c-57.333 0 -104.333 16.5 -141 49.5s-55 73.833 -55 122.5c0 30 6.16699 60.167 18.5 90.5s27.333 56.333 45 78s35.334 41 53.001 58s32.834 30.5 45.501 40.5zM611.999 1311c0 -46.667 -16.668 -87.333 -50.001 -122
s-74.666 -52 -123.999 -52c-48 0 -85.167 11.5 -111.5 34.5s-39.5 55.167 -39.5 96.5c0 50.667 16.667 92.667 50 126s73.333 50 120 50c49.333 0 87.5 -12.333 114.5 -37s40.5 -56.667 40.5 -96z" />
    <glyph glyph-name="Idotaccent" unicode="&#x130;" horiz-adv-x="675" 
d="M92 0l303 1434h307l-303 -1434h-307zM766 1782c0 -46.667 -16.667 -87.333 -50 -122s-74.666 -52 -123.999 -52c-48 0 -85.333 11.5 -112 34.5s-40 55.167 -40 96.5c0 50.667 16.833 92.667 50.5 126s73.5 50 119.5 50c49.333 0 87.666 -12.333 114.999 -37
s41 -56.667 41 -96z" />
    <glyph glyph-name="dotlessi" unicode="&#x131;" horiz-adv-x="563" 
d="M530 1004l-213 -1004h-276l213 1004h276z" />
    <glyph glyph-name="uni0136" unicode="&#x136;" horiz-adv-x="1454" 
d="M702 1434l-129 -600l664 600h387l-657 -596l395 -838h-340l-299 623l-238 -215l-86 -408h-307l303 1434h307zM422 -471l147 307h265l-207 -307h-205z" />
    <glyph glyph-name="uni0137" unicode="&#x137;" horiz-adv-x="1116" 
d="M528 391l-159 -147l-52 -244h-276l303 1434h277l-175 -818l420 388h340l-469 -433l277 -571h-297zM217 -471l148 307h264l-207 -307h-205z" />
    <glyph glyph-name="Lacute" unicode="&#x139;" horiz-adv-x="1208" 
d="M1065 0h-973l303 1434h307l-245 -1158h665zM481 1608l226 307h294l-290 -307h-230z" />
    <glyph glyph-name="lacute" unicode="&#x13a;" horiz-adv-x="573" 
d="M621 1434l-304 -1434h-276l303 1434h277zM408 1608l225 307h295l-291 -307h-229z" />
    <glyph glyph-name="uni013B" unicode="&#x13b;" horiz-adv-x="1208" 
d="M1065 0h-973l303 1434h307l-245 -1158h665zM324 -471l147 307h264l-207 -307h-204z" />
    <glyph glyph-name="uni013C" unicode="&#x13c;" horiz-adv-x="573" 
d="M621 1434l-304 -1434h-276l303 1434h277zM-135 -471l147 307h264l-206 -307h-205z" />
    <glyph glyph-name="Lcaron" unicode="&#x13d;" horiz-adv-x="1208" 
d="M1065 0h-973l303 1434h307l-245 -1158h665zM737 1126l154 308h264l-209 -308h-209z" />
    <glyph glyph-name="lcaron" unicode="&#x13e;" horiz-adv-x="716" 
d="M621 1434l-304 -1434h-276l303 1434h277zM635 1126l153 308h265l-209 -308h-209z" />
    <glyph glyph-name="Lslash" unicode="&#x141;" horiz-adv-x="1331" 
d="M1188 0h-973l100 481l-217 -112l-84 235l367 184l137 646h307l-102 -482l229 113l86 -225l-381 -195l-77 -369h665z" />
    <glyph glyph-name="lslash" unicode="&#x142;" horiz-adv-x="788" 
d="M930 860l-359 -194l-141 -666h-276l106 502l-219 -113l-80 205l356 184l140 656h276l-104 -492l231 123z" />
    <glyph glyph-name="Nacute" unicode="&#x143;" horiz-adv-x="1648" 
d="M1368 1434h307l-303 -1434h-256l-524 913l-193 -913h-307l303 1434h256l525 -914zM907 1608l226 307h294l-290 -307h-230z" />
    <glyph glyph-name="nacute" unicode="&#x144;" 
d="M520 1004l-23.999 -115.001c8 9.33301 19.833 21.5 35.5 36.5s49.5 35.167 101.5 60.5s105.333 38 160 38c96.667 0 175 -28.667 235 -86s90 -136.666 90 -237.999c0 -36.667 -4 -75.334 -12 -116.001l-123 -584h-276l116 553c4 20.667 6 39.667 6 57
c0 45.333 -12.833 81.333 -38.5 108s-61.834 40 -108.501 40c-62.667 0 -118.667 -22.167 -168 -66.5s-82 -104.166 -98 -179.499l-109 -512h-276l213 1004h276zM655.001 1137l226 307h295l-291 -307h-230z" />
    <glyph glyph-name="uni0145" unicode="&#x145;" horiz-adv-x="1648" 
d="M1368 1434h307l-303 -1434h-256l-524 913l-193 -913h-307l303 1434h256l525 -914zM467 -471l147 307h265l-207 -307h-205z" />
    <glyph glyph-name="uni0146" unicode="&#x146;" 
d="M520 1004l-23.999 -115.001c8 9.33301 19.833 21.5 35.5 36.5s49.5 35.167 101.5 60.5s105.333 38 160 38c96.667 0 175 -28.667 235 -86s90 -136.666 90 -237.999c0 -36.667 -4 -75.334 -12 -116.001l-123 -584h-276l116 553c4 20.667 6 39.667 6 57
c0 45.333 -12.833 81.333 -38.5 108s-61.834 40 -108.501 40c-62.667 0 -118.667 -22.167 -168 -66.5s-82 -104.166 -98 -179.499l-109 -512h-276l213 1004h276zM205.001 -471.001l147 307h264l-206 -307h-205z" />
    <glyph glyph-name="Ncaron" unicode="&#x147;" horiz-adv-x="1648" 
d="M1368 1434h307l-303 -1434h-256l-524 913l-193 -913h-307l303 1434h256l525 -914zM1456 1915l-311 -307h-246l-180 307h233l90 -164l156 164h258z" />
    <glyph glyph-name="ncaron" unicode="&#x148;" 
d="M520 1004l-23.999 -115.001c8 9.33301 19.833 21.5 35.5 36.5s49.5 35.167 101.5 60.5s105.333 38 160 38c96.667 0 175 -28.667 235 -86s90 -136.666 90 -237.999c0 -36.667 -4 -75.334 -12 -116.001l-123 -584h-276l116 553c4 20.667 6 39.667 6 57
c0 45.333 -12.833 81.333 -38.5 108s-61.834 40 -108.501 40c-62.667 0 -118.667 -22.167 -168 -66.5s-82 -104.166 -98 -179.499l-109 -512h-276l213 1004h276zM1182 1444l-312 -307h-245l-181 307h234l90 -164l156 164h258z" />
    <glyph glyph-name="Omacron" unicode="&#x14c;" horiz-adv-x="1761" 
d="M993 1190c-136.667 0 -258.5 -53.668 -365.5 -161.001s-160.5 -230.666 -160.5 -369.999c0 -117.333 39.167 -215.5 117.5 -294.5s179.166 -118.5 302.499 -118.5c135.333 0 256.833 52.5 364.5 157.5s161.5 229.833 161.5 374.5c0 117.333 -39.667 215.333 -119 294
s-179.666 118 -300.999 118zM145 640.999c0 216 87.5 407.168 262.5 573.501s377.167 249.5 606.5 249.5c211.333 0 384.333 -65.167 519 -195.5s202 -288.166 202 -473.499c0 -144.667 -40.333 -280.834 -121 -408.501s-187.5 -229.167 -320.5 -304.5
s-274.167 -113 -423.5 -113c-211.333 0 -385 65.167 -521 195.5s-204 289.166 -204 476.499zM1464 1874l-43 -205h-655l43 205h655z" />
    <glyph glyph-name="omacron" unicode="&#x14d;" horiz-adv-x="1208" 
d="M645 768c-75.333 0 -142.667 -31.333 -202 -94s-89 -133.667 -89 -213c0 -65.333 20.167 -119.166 60.5 -161.499s91.833 -63.5 154.5 -63.5c74 0 141 30.333 201 91s90 132.667 90 216c0 65.333 -20.167 119.166 -60.5 161.499s-91.833 63.5 -154.5 63.5zM1151 553
c0 -148.667 -61.165 -281.333 -183.498 -398s-261.833 -175 -418.5 -175c-136.667 0 -251.834 46.333 -345.501 139s-140.5 203.334 -140.5 332.001c0 150 62.833 283 188.5 399s266.5 174 422.5 174c135.333 0 248.666 -46.833 339.999 -140.5s137 -203.834 137 -330.501z
M1106 1403l-43 -205h-655l43 205h655z" />
    <glyph glyph-name="Ohungarumlaut" unicode="&#x150;" horiz-adv-x="1761" 
d="M993 1190c-136.667 0 -258.5 -53.668 -365.5 -161.001s-160.5 -230.666 -160.5 -369.999c0 -117.333 39.167 -215.5 117.5 -294.5s179.166 -118.5 302.499 -118.5c135.333 0 256.833 52.5 364.5 157.5s161.5 229.833 161.5 374.5c0 117.333 -39.667 215.333 -119 294
s-179.666 118 -300.999 118zM145 640.999c0 216 87.5 407.168 262.5 573.501s377.167 249.5 606.5 249.5c211.333 0 384.333 -65.167 519 -195.5s202 -288.166 202 -473.499c0 -144.667 -40.333 -280.834 -121 -408.501s-187.5 -229.167 -320.5 -304.5
s-274.167 -113 -423.5 -113c-211.333 0 -385 65.167 -521 195.5s-204 289.166 -204 476.499zM768 1608l225 307h285l-301 -307h-209zM1157 1608l225 307h285l-301 -307h-209z" />
    <glyph glyph-name="ohungarumlaut" unicode="&#x151;" horiz-adv-x="1212" 
d="M645 768c-75.333 0 -142.667 -31.333 -202 -94s-89 -133.667 -89 -213c0 -65.333 20.167 -119.166 60.5 -161.499s91.833 -63.5 154.5 -63.5c74 0 141 30.333 201 91s90 132.667 90 216c0 65.333 -20.167 119.166 -60.5 161.499s-91.833 63.5 -154.5 63.5zM1151 553
c0 -148.667 -61.165 -281.333 -183.498 -398s-261.833 -175 -418.5 -175c-136.667 0 -251.834 46.333 -345.501 139s-140.5 203.334 -140.5 332.001c0 150 62.833 283 188.5 399s266.5 174 422.5 174c135.333 0 248.666 -46.833 339.999 -140.5s137 -203.834 137 -330.501z
M418.001 1137l225 307h285l-301 -307h-209zM807.001 1137l225 307h285l-301 -307h-209z" />
    <glyph glyph-name="OE" unicode="&#x152;" horiz-adv-x="2088" 
d="M1030 1434l1157 -0.00195312l-55 -267h-666l-65 -303h502l-54 -256h-501l-74 -342h686l-55 -266h-1108c-184 0 -338.667 60.833 -464 182.5s-188 264.834 -188 429.501c0 222.667 87.5 415.334 262.5 578.001s382.5 244 622.5 244zM1157 1157h-153
c-147.333 0 -275.333 -52.167 -384 -156.5s-163 -229.5 -163 -375.5c0 -106.667 36.5 -191.5 109.5 -254.5s162.833 -94.5 269.5 -94.5h133z" />
    <glyph glyph-name="oe" unicode="&#x153;" horiz-adv-x="1935" 
d="M1837 410l-733.001 0.00390625c0 -54.667 21.167 -100.834 63.5 -138.501s100.833 -56.5 175.5 -56.5c32.667 0 64.834 4.5 96.501 13.5s58 19.667 79 32s40.167 24.833 57.5 37.5s30 24 38 34l12 12l109 -180c-4 -5.33301 -10.5 -12.166 -19.5 -20.499
s-27.833 -23 -56.5 -44s-58.667 -39.833 -90 -56.5s-72 -31.334 -122 -44.001s-101 -19 -153 -19c-49.333 0 -95.666 6 -138.999 18s-78.333 27 -105 45s-50 35.833 -70 53.5s-34 32.5 -42 44.5l-12 19c-4 -5.33301 -10.167 -11.833 -18.5 -19.5s-26.5 -22 -54.5 -43
s-57 -39.5 -87 -55.5s-68.167 -30.333 -114.5 -43s-92.833 -19 -139.5 -19c-125.333 0 -231.5 41.5 -318.5 124.5s-130.5 186.167 -130.5 309.5c0 166.667 60.5 310 181.5 430s262.167 180 423.5 180c46.667 0 90.667 -6.5 132 -19.5s75.666 -28.333 102.999 -46
s51.333 -35.334 72 -53.001s35.667 -32.834 45 -45.501l14 -20c4 5.33301 10.167 12 18.5 20s26.5 22.667 54.5 44s57 40.166 87 56.499s67.5 31 112.5 44s90.833 19.5 137.5 19.5c124 0 228 -37.833 312 -113.5s126 -169.5 126 -281.5c0 -73.333 -15 -146.333 -45 -219z
M546.999 225.004c80.667 0 149.999 35.166 207.999 105.499s87 147.833 87 232.5c0 61.333 -19.167 112.5 -57.5 153.5s-84.166 61.5 -137.499 61.5c-72.667 0 -139.667 -32 -201 -96s-92 -143.333 -92 -238c0 -61.333 18.833 -113.166 56.5 -155.499
s83.167 -63.5 136.5 -63.5zM1421 799.003c-58.667 0 -112.168 -17.8311 -160.501 -53.498s-86.833 -82.834 -115.5 -141.501h471c0 57.333 -17.167 104.166 -51.5 140.499s-82.166 54.5 -143.499 54.5z" />
    <glyph glyph-name="Racute" unicode="&#x154;" horiz-adv-x="1454" 
d="M92 0l303 1434h606c121.333 0 223.5 -41 306.5 -123s124.5 -177.667 124.5 -287c0 -70.667 -12.333 -135.834 -37 -195.501s-54.5 -106.5 -89.5 -140.5s-69.5 -62.667 -103.5 -86s-63.333 -39 -88 -47l-37 -12l193 -543h-320l-170 502h-274l-107 -502h-307zM879 778.001
c62.667 0 118.167 19.166 166.5 57.499s72.5 89.5 72.5 153.5c0 46.667 -14 86.334 -42 119.001s-65 49 -111 49h-320l-82 -379h316zM784 1608l226 307h295l-291 -307h-230z" />
    <glyph glyph-name="racute" unicode="&#x155;" horiz-adv-x="757" 
d="M850 1014l-59.0029 -277.002c-19.333 6.66699 -49.666 10.334 -90.999 11.001c-72.667 0 -135.167 -24.667 -187.5 -74s-87.833 -117 -106.5 -203l-99 -471h-276l213 1004h276l-24 -113c9.33301 9.33301 22.833 20.833 40.5 34.5s53.834 31.834 108.501 54.501
s109.334 34 164.001 34h41zM454.997 1137l225 307h295l-291 -307h-229z" />
    <glyph glyph-name="uni0156" unicode="&#x156;" horiz-adv-x="1454" 
d="M92 0l303 1434h606c121.333 0 223.5 -41 306.5 -123s124.5 -177.667 124.5 -287c0 -70.667 -12.333 -135.834 -37 -195.501s-54.5 -106.5 -89.5 -140.5s-69.5 -62.667 -103.5 -86s-63.333 -39 -88 -47l-37 -12l193 -543h-320l-170 502h-274l-107 -502h-307zM879 778.001
c62.667 0 118.167 19.166 166.5 57.499s72.5 89.5 72.5 153.5c0 46.667 -14 86.334 -42 119.001s-65 49 -111 49h-320l-82 -379h316zM379 -471l147 307h265l-207 -307h-205z" />
    <glyph glyph-name="uni0157" unicode="&#x157;" horiz-adv-x="757" 
d="M850 1014l-59.0029 -277.002c-19.333 6.66699 -49.666 10.334 -90.999 11.001c-72.667 0 -135.167 -24.667 -187.5 -74s-87.833 -117 -106.5 -203l-99 -471h-276l213 1004h276l-24 -113c9.33301 9.33301 22.833 20.833 40.5 34.5s53.834 31.834 108.501 54.501
s109.334 34 164.001 34h41zM-137.003 -471.002l147 307h264l-206 -307h-205z" />
    <glyph glyph-name="Rcaron" unicode="&#x158;" horiz-adv-x="1454" 
d="M92 0l303 1434h606c121.333 0 223.5 -41 306.5 -123s124.5 -177.667 124.5 -287c0 -70.667 -12.333 -135.834 -37 -195.501s-54.5 -106.5 -89.5 -140.5s-69.5 -62.667 -103.5 -86s-63.333 -39 -88 -47l-37 -12l193 -543h-320l-170 502h-274l-107 -502h-307zM879 778.001
c62.667 0 118.167 19.166 166.5 57.499s72.5 89.5 72.5 153.5c0 46.667 -14 86.334 -42 119.001s-65 49 -111 49h-320l-82 -379h316zM1350 1915l-312 -307h-245l-181 307h234l90 -164l156 164h258z" />
    <glyph glyph-name="rcaron" unicode="&#x159;" horiz-adv-x="757" 
d="M850 1014l-59.0029 -277.002c-19.333 6.66699 -49.666 10.334 -90.999 11.001c-72.667 0 -135.167 -24.667 -187.5 -74s-87.833 -117 -106.5 -203l-99 -471h-276l213 1004h276l-24 -113c9.33301 9.33301 22.833 20.833 40.5 34.5s53.834 31.834 108.501 54.501
s109.334 34 164.001 34h41zM996.997 1444l-311 -307h-246l-180 307h234l90 -164l155 164h258z" />
    <glyph glyph-name="Sacute" unicode="&#x15a;" horiz-adv-x="1228" 
d="M553 236c66.667 0 125.662 15.334 176.995 46.001s77 78.667 77 144c0 38 -20.167 72 -60.5 102s-89.166 57 -146.499 81s-114.666 50.667 -171.999 80s-106.166 70 -146.499 122s-60.5 113.333 -60.5 184c0 135.333 50.167 247.333 150.5 336s236.5 133 408.5 133
c58.667 0 115.334 -6.83301 170.001 -20.5s99.5 -29.667 134.5 -48s65.833 -37 92.5 -56s45.334 -35.5 56.001 -49.5l18 -20l-213 -185c-8 8 -19.167 18.333 -33.5 31s-44.333 29.5 -90 50.5s-93.167 31.5 -142.5 31.5c-68 0 -121.167 -14.333 -159.5 -43
s-57.5 -67 -57.5 -115c0 -32.667 14.667 -62.334 44 -89.001s65.5 -49.167 108.5 -67.5s90.167 -39.833 141.5 -64.5s98.5 -50.667 141.5 -78s79.167 -64.166 108.5 -110.499s44 -99.5 44 -159.5c0 -152.667 -52.667 -274.5 -158 -365.5s-252.666 -136.5 -441.999 -136.5
c-66.667 0 -130.834 8.16699 -192.501 24.5s-113 35.833 -154 58.5s-76.833 45.667 -107.5 69s-52.667 43 -66 59l-21 25l211 178c9.33301 -10.667 23 -24.334 41 -41.001s56.333 -38.5 115 -65.5s120 -40.5 184 -40.5zM669.995 1608l225 307h295l-291 -307h-229z" />
    <glyph glyph-name="sacute" unicode="&#x15b;" horiz-adv-x="931" 
d="M911 870l-173.998 -158.996c-40.667 52 -95.334 77.667 -164.001 77c-42 0 -74 -8.16699 -96 -24.5s-33 -35.833 -33 -58.5c0 -20.667 13 -40.334 39 -59.001s57.833 -35.834 95.5 -51.501s75.334 -34 113.001 -55s69.334 -49.333 95.001 -85s38.5 -77.167 38.5 -124.5
c0 -105.333 -37.833 -190 -113.5 -254s-182.5 -96 -320.5 -96c-53.333 0 -103.833 6.33301 -151.5 19s-86.5 28 -116.5 46s-56 35.833 -78 53.5s-37.667 32.5 -47 44.5l-14 21l178 147c5.33301 -8 13.5 -17.833 24.5 -29.5s34.833 -27.334 71.5 -47.001s75 -29.5 115 -29.5
c94 0 141 32 141 96c0 22 -13.333 42.167 -40 60.5s-58.334 35.666 -95.001 51.999s-73.834 34.833 -111.501 55.5s-69.834 48.667 -96.501 84s-40 76.333 -40 123c0 90 40 170.5 120 241.5s183.333 106.5 310 106.5c69.333 0 133.5 -13 192.5 -39
s100.167 -51.333 123.5 -76zM467.002 1137l225 307h295l-291 -307h-229z" />
    <glyph glyph-name="Scedilla" unicode="&#x15e;" horiz-adv-x="1228" 
d="M553 236c66.667 0 125.661 15.333 176.994 46s77 78.667 77 144c0 38 -20.167 72 -60.5 102s-89.166 57 -146.499 81s-114.666 50.667 -171.999 80s-106.166 70 -146.499 122s-60.5 113.333 -60.5 184c0 135.333 50.167 247.333 150.5 336s236.5 133 408.5 133
c58.667 0 115.334 -6.83301 170.001 -20.5s99.5 -29.667 134.5 -48s65.833 -37 92.5 -56s45.334 -35.5 56.001 -49.5l18 -20l-213 -185c-8 8 -19.167 18.333 -33.5 31s-44.333 29.5 -90 50.5s-93.167 31.5 -142.5 31.5c-68 0 -121.167 -14.333 -159.5 -43
s-57.5 -67 -57.5 -115c0 -32.667 14.667 -62.334 44 -89.001s65.5 -49.167 108.5 -67.5s90.167 -39.833 141.5 -64.5s98.5 -50.667 141.5 -78s79.167 -64.166 108.5 -110.499s44 -99.5 44 -159.5c0 -150 -50.833 -270.167 -152.5 -360.5s-244.834 -137.5 -429.501 -141.5
l-49 -71c4 0 9.5 -0.666992 16.5 -2s19 -5.16602 36 -11.499s32 -14 45 -23s25 -23 36 -42s16.5 -40.833 16.5 -65.5c0 -68 -22.333 -122.5 -67 -163.5s-105.667 -61.5 -183 -61.5c-39.333 0 -78.166 7.5 -116.499 22.5s-66.5 30.167 -84.5 45.5l-27 22l86 115
c34 -34 78.333 -51 133 -51c56 0 84 19.667 84 59c0 28.667 -21 43 -63 43l-53 -10l-39 61l94 141c-52 8 -102.167 21.333 -150.5 40s-88.666 38.167 -120.999 58.5s-60.333 40.5 -84 60.5s-41.167 36 -52.5 48l-16 21l211 178c9.33301 -10.667 23 -24.334 41 -41.001
s56.333 -38.5 115 -65.5s120 -40.5 184 -40.5z" />
    <glyph glyph-name="scedilla" unicode="&#x15f;" horiz-adv-x="931" 
d="M911 870l-174.001 -158.996c-40.667 52 -95.334 77.667 -164.001 77c-42 0 -74 -8.16699 -96 -24.5s-33 -35.833 -33 -58.5c0 -20.667 13 -40.334 39 -59.001s57.833 -35.834 95.5 -51.501s75.334 -34 113.001 -55s69.334 -49.333 95.001 -85s38.5 -77.167 38.5 -124.5
c0 -101.333 -35.5 -184 -106.5 -248s-171.833 -98 -302.5 -102l-58 -82c4 0 9.5 -0.666992 16.5 -2s19 -5.16602 36 -11.499s32 -14 45 -23s25 -23 36 -42s16.5 -40.833 16.5 -65.5c0 -68 -22.167 -122.5 -66.5 -163.5s-105.5 -61.5 -183.5 -61.5
c-39.333 0 -78.166 7.5 -116.499 22.5s-66.5 30.167 -84.5 45.5l-26 22l86 115c34 -34 78.333 -51 133 -51c56 0 84 19.667 84 59c0 28.667 -21.333 43 -64 43l-53 -10l-39 61l103 154c-61.333 10.667 -116.666 30.667 -165.999 60s-83.666 55.666 -102.999 78.999l-28 35
l178 147c5.33301 -8 13.5 -17.833 24.5 -29.5s34.833 -27.334 71.5 -47.001s75 -29.5 115 -29.5c94 0 141 32 141 96c0 22 -13.333 42.167 -40 60.5s-58.334 35.666 -95.001 51.999s-73.834 34.833 -111.501 55.5s-69.834 48.667 -96.501 84s-40 76.333 -40 123
c0 90 40 170.5 120 241.5s183.333 106.5 310 106.5c69.333 0 133.5 -13 192.5 -39s100.167 -51.333 123.5 -76z" />
    <glyph glyph-name="Scaron" unicode="&#x160;" horiz-adv-x="1228" 
d="M553 236c66.667 0 125.662 15.334 176.995 46.001s77 78.667 77 144c0 38 -20.167 72 -60.5 102s-89.166 57 -146.499 81s-114.666 50.667 -171.999 80s-106.166 70 -146.499 122s-60.5 113.333 -60.5 184c0 135.333 50.167 247.333 150.5 336s236.5 133 408.5 133
c58.667 0 115.334 -6.83301 170.001 -20.5s99.5 -29.667 134.5 -48s65.833 -37 92.5 -56s45.334 -35.5 56.001 -49.5l18 -20l-213 -185c-8 8 -19.167 18.333 -33.5 31s-44.333 29.5 -90 50.5s-93.167 31.5 -142.5 31.5c-68 0 -121.167 -14.333 -159.5 -43
s-57.5 -67 -57.5 -115c0 -32.667 14.667 -62.334 44 -89.001s65.5 -49.167 108.5 -67.5s90.167 -39.833 141.5 -64.5s98.5 -50.667 141.5 -78s79.167 -64.166 108.5 -110.499s44 -99.5 44 -159.5c0 -152.667 -52.667 -274.5 -158 -365.5s-252.666 -136.5 -441.999 -136.5
c-66.667 0 -130.834 8.16699 -192.501 24.5s-113 35.833 -154 58.5s-76.833 45.667 -107.5 69s-52.667 43 -66 59l-21 25l211 178c9.33301 -10.667 23 -24.334 41 -41.001s56.333 -38.5 115 -65.5s120 -40.5 184 -40.5zM1251 1915l-311 -307h-246l-180 307h234l90 -164
l155 164h258z" />
    <glyph glyph-name="scaron" unicode="&#x161;" horiz-adv-x="931" 
d="M911 870l-173.998 -158.996c-40.667 52 -95.334 77.667 -164.001 77c-42 0 -74 -8.16699 -96 -24.5s-33 -35.833 -33 -58.5c0 -20.667 13 -40.334 39 -59.001s57.833 -35.834 95.5 -51.501s75.334 -34 113.001 -55s69.334 -49.333 95.001 -85s38.5 -77.167 38.5 -124.5
c0 -105.333 -37.833 -190 -113.5 -254s-182.5 -96 -320.5 -96c-53.333 0 -103.833 6.33301 -151.5 19s-86.5 28 -116.5 46s-56 35.833 -78 53.5s-37.667 32.5 -47 44.5l-14 21l178 147c5.33301 -8 13.5 -17.833 24.5 -29.5s34.833 -27.334 71.5 -47.001s75 -29.5 115 -29.5
c94 0 141 32 141 96c0 22 -13.333 42.167 -40 60.5s-58.334 35.666 -95.001 51.999s-73.834 34.833 -111.501 55.5s-69.834 48.667 -96.501 84s-40 76.333 -40 123c0 90 40 170.5 120 241.5s183.333 106.5 310 106.5c69.333 0 133.5 -13 192.5 -39
s100.167 -51.333 123.5 -76zM1024 1444l-311 -307h-246l-180 307h233l90 -164l156 164h258z" />
    <glyph glyph-name="uni0162" unicode="&#x162;" horiz-adv-x="1208" 
d="M252 1434h1126l-57 -277h-410l-245 -1157h-308l246 1157h-409zM199 -471l147 307h264l-207 -307h-204z" />
    <glyph glyph-name="uni0163" unicode="&#x163;" horiz-adv-x="829" 
d="M389 1116l39.002 184h246l-66 -317h205l-53 -246h-205l-84 -399c-8 -32.667 -4.83301 -59.667 9.5 -81s38.5 -32 72.5 -32c20.667 0 41.167 1.83301 61.5 5.5s35.166 7.5 44.499 11.5l17 4l-49 -236c-57.333 -20.667 -120.333 -30.667 -189 -30
c-214.667 0 -296.334 116 -245.001 348l86 409h-175l54 246h92c31.333 0 60.333 12.333 87 37s44 56.667 52 96zM104.002 -479l148 307h264l-207 -307h-205z" />
    <glyph glyph-name="Tcaron" unicode="&#x164;" horiz-adv-x="1208" 
d="M252 1434h1126l-57 -277h-410l-245 -1157h-308l246 1157h-409zM1255 1915l-311 -307h-246l-180 307h234l90 -164l155 164h258z" />
    <glyph glyph-name="tcaron" unicode="&#x165;" horiz-adv-x="870" 
d="M389 1116l39.002 184h246l-66 -317h205l-53 -246h-205l-84 -399c-8 -32.667 -4.83301 -59.667 9.5 -81s38.5 -32 72.5 -32c20.667 0 41.167 1.83301 61.5 5.5s35.166 7.5 44.499 11.5l17 4l-49 -236c-57.333 -20.667 -120.333 -30.667 -189 -30
c-214.667 0 -296.334 116 -245.001 348l86 409h-175l54 246h92c31.333 0 60.333 12.333 87 37s44 56.667 52 96zM788.002 1126l154 308h264l-209 -308h-209z" />
    <glyph glyph-name="Umacron" unicode="&#x16a;" horiz-adv-x="1597" 
d="M768 246c87.333 0 167.166 32.001 239.499 96.001s118.833 144.667 139.5 242l180 850h307l-180 -850c-38 -178.667 -120.5 -325.834 -247.5 -441.501s-277.833 -173.5 -452.5 -173.5c-160 0 -293.5 47.167 -400.5 141.5s-160.5 213.833 -160.5 358.5
c0 36.667 4 75 12 115l180 850h307l-180 -850c-5.33301 -23.333 -8 -48 -8 -74c0 -78 24.833 -141.5 74.5 -190.5s112.834 -73.5 189.501 -73.5zM1419 1874l-43 -205h-655l43 205h655z" />
    <glyph glyph-name="umacron" unicode="&#x16b;" 
d="M707 0l18 94c-8 -8 -19.833 -18.5 -35.5 -31.5s-49.167 -30 -100.5 -51s-104.333 -31.5 -159 -31.5c-96.667 0 -175.5 28.667 -236.5 86s-91.5 134.333 -91.5 231c0 34 4.33301 69.333 13 106l129 601h276l-123 -574c-4 -16.667 -6 -31.667 -6 -45
c0 -44 15 -79.833 45 -107.5s69.667 -41.5 119 -41.5c61.333 0 114.5 21.5 159.5 64.5s75.833 102.5 92.5 178.5l113 525h276l-213 -1004h-276zM1106 1403l-43 -205h-655l43 205h655z" />
    <glyph glyph-name="Uring" unicode="&#x16e;" horiz-adv-x="1597" 
d="M768 246c87.333 0 167.166 32.001 239.499 96.001s118.833 144.667 139.5 242l180 850h307l-180 -850c-38 -178.667 -120.5 -325.834 -247.5 -441.501s-277.833 -173.5 -452.5 -173.5c-160 0 -293.5 47.167 -400.5 141.5s-160.5 213.833 -160.5 358.5
c0 36.667 4 75 12 115l180 850h307l-180 -850c-5.33301 -23.333 -8 -48 -8 -74c0 -78 24.833 -141.5 74.5 -190.5s112.834 -73.5 189.501 -73.5zM1063 1864c-24.667 0 -45.5 -9.00098 -62.5 -27.001s-25.5 -40.667 -25.5 -68c0 -46.667 27.333 -69.667 82 -69
c23.333 0 43.833 8.83301 61.5 26.5s26.5 40.834 26.5 69.501c0 45.333 -27.333 68 -82 68zM1300 1804c0 -64 -26.166 -121.333 -78.499 -172s-113.5 -76 -183.5 -76c-64 0 -116.833 19.833 -158.5 59.5s-62.5 87.5 -62.5 143.5c0 65.333 26.667 123 80 173
s114.666 75 183.999 75c64 0 116.5 -19.833 157.5 -59.5s61.5 -87.5 61.5 -143.5z" />
    <glyph glyph-name="uring" unicode="&#x16f;" 
d="M707 0l18 94c-8 -8 -19.833 -18.5 -35.5 -31.5s-49.167 -30 -100.5 -51s-104.333 -31.5 -159 -31.5c-96.667 0 -175.5 28.667 -236.5 86s-91.5 134.333 -91.5 231c0 34 4.33301 69.333 13 106l129 601h276l-123 -574c-4 -16.667 -6 -31.667 -6 -45
c0 -44 15 -79.833 45 -107.5s69.667 -41.5 119 -41.5c61.333 0 114.5 21.5 159.5 64.5s75.833 102.5 92.5 178.5l113 525h276l-213 -1004h-276zM739 1413c-24.667 0 -45.5 -8.83301 -62.5 -26.5s-25.5 -40.167 -25.5 -67.5c0 -46.667 27.333 -70 82 -70
c23.333 0 43.833 9 61.5 27s26.5 41.333 26.5 70c0 44.667 -27.333 67 -82 67zM977 1354c0 -64 -26.333 -121.333 -79 -172s-113.667 -76 -183 -76c-64 0 -116.833 19.833 -158.5 59.5s-62.5 87.5 -62.5 143.5c0 65.333 26.5 122.833 79.5 172.5s114.5 74.5 184.5 74.5
c64 0 116.5 -19.667 157.5 -59s61.5 -87 61.5 -143z" />
    <glyph glyph-name="Uhungarumlaut" unicode="&#x170;" horiz-adv-x="1597" 
d="M768 246c87.333 0 167.166 32.001 239.499 96.001s118.833 144.667 139.5 242l180 850h307l-180 -850c-38 -178.667 -120.5 -325.834 -247.5 -441.501s-277.833 -173.5 -452.5 -173.5c-160 0 -293.5 47.167 -400.5 141.5s-160.5 213.833 -160.5 358.5
c0 36.667 4 75 12 115l180 850h307l-180 -850c-5.33301 -23.333 -8 -48 -8 -74c0 -78 24.833 -141.5 74.5 -190.5s112.834 -73.5 189.501 -73.5zM709 1608l225 307h285l-301 -307h-209zM1098 1608l225 307h285l-301 -307h-209z" />
    <glyph glyph-name="uhungarumlaut" unicode="&#x171;" 
d="M707 0l18 94c-8 -8 -19.833 -18.5 -35.5 -31.5s-49.167 -30 -100.5 -51s-104.333 -31.5 -159 -31.5c-96.667 0 -175.5 28.667 -236.5 86s-91.5 134.333 -91.5 231c0 34 4.33301 69.333 13 106l129 601h276l-123 -574c-4 -16.667 -6 -31.667 -6 -45
c0 -44 15 -79.833 45 -107.5s69.667 -41.5 119 -41.5c61.333 0 114.5 21.5 159.5 64.5s75.833 102.5 92.5 178.5l113 525h276l-213 -1004h-276zM414 1137l225 307h285l-301 -307h-209zM803 1137l225 307h285l-301 -307h-209z" />
    <glyph glyph-name="Uogonek" unicode="&#x172;" horiz-adv-x="1597" 
d="M768 246c87.333 0 167.168 32.002 239.501 96.002s118.833 144.667 139.5 242l180 850h307l-180 -850c-36.667 -172 -114.834 -314.667 -234.501 -428s-261.834 -175 -426.501 -185c-61.333 -72.667 -92.333 -138 -93 -196c0 -40.667 26 -61.334 78 -62.001
c18 0 35.833 1.83301 53.5 5.5s31.167 7.5 40.5 11.5l13 4l-33 -154c-38 -20.667 -91.333 -31 -160 -31c-57.333 0 -104.333 16.5 -141 49.5s-55 73.833 -55 122.5c0 91.333 49.667 176.666 149 255.999c-132.667 20.667 -241.167 76.167 -325.5 166.5
s-126.5 198.833 -126.5 325.5c0 36.667 4 75 12 115l180 850h307l-180 -850c-5.33301 -23.333 -8 -48 -8 -74c0 -78 24.833 -141.5 74.5 -190.5s112.834 -73.5 189.501 -73.5z" />
    <glyph glyph-name="uogonek" unicode="&#x173;" 
d="M707 0l18 94.001c-8 -8 -19.833 -18.5 -35.5 -31.5s-49.167 -30 -100.5 -51s-104.333 -31.5 -159 -31.5c-96.667 0 -175.5 28.667 -236.5 86s-91.5 134.333 -91.5 231c0 34 4.33301 69.333 13 106l129 601h276l-123 -574c-4 -16.667 -6 -31.667 -6 -45
c0 -44 15 -79.833 45 -107.5s69.667 -41.5 119 -41.5c61.333 0 114.5 21.5 159.5 64.5s75.833 102.5 92.5 178.5l113 525h276l-213 -1004h-133c-8 -9.33301 -18.833 -21.5 -32.5 -36.5s-31.5 -42.333 -53.5 -82s-33 -75.167 -33 -106.5c0 -40.667 26 -61.334 78 -62.001
c18 0 35.833 1.83301 53.5 5.5s30.5 7.5 38.5 11.5l14 4l-32 -154c-38 -20.667 -91.333 -31 -160 -31c-57.333 0 -104.5 16.5 -141.5 49.5s-55.5 73.833 -55.5 122.5c0 30 6.16699 60.167 18.5 90.5s27.333 56.333 45 78s35.5 41 53.5 58s33 30.5 45 40.5z" />
    <glyph glyph-name="Ydieresis" unicode="&#x178;" horiz-adv-x="1351" 
d="M522 1434l209 -615l467 615h344l-706 -922l-109 -512h-307l108 512l-317 922h311zM973 1735c0 42 17.668 80.833 53.001 116.5s76.333 53.5 123 53.5c39.333 0 72 -13.333 98 -40s39 -59.334 39 -98.001c0 -44 -18.333 -83.333 -55 -118s-76.334 -52 -119.001 -52
c-39.333 0 -72.333 13.833 -99 41.5s-40 59.834 -40 96.501zM520.001 1735c0 42 17.834 80.833 53.501 116.5s76.5 53.5 122.5 53.5c39.333 0 72.166 -13.333 98.499 -40s39.5 -59.334 39.5 -98.001c0 -44 -18.5 -83.333 -55.5 -118s-76.833 -52 -119.5 -52
c-39.333 0 -72.333 13.833 -99 41.5s-40 59.834 -40 96.501z" />
    <glyph glyph-name="Zacute" unicode="&#x179;" horiz-adv-x="1331" 
d="M965 1157h-678l57 277h1075l-57 -277l-897 -881h729l-57 -276h-1127l58 276zM737 1608l226 307h294l-290 -307h-230z" />
    <glyph glyph-name="zacute" unicode="&#x17a;" horiz-adv-x="1024" 
d="M1032 1004l-53 -246l-586 -512h498l-51 -246h-860l51 246l585 512h-456l53 246h819zM500 1137l225 307h295l-291 -307h-229z" />
    <glyph glyph-name="Zdotaccent" unicode="&#x17b;" horiz-adv-x="1331" 
d="M965 1157h-678l57 277h1075l-57 -277l-897 -881h729l-57 -276h-1127l58 276zM1079 1782c0 -46.667 -16.668 -87.333 -50.001 -122s-74.666 -52 -123.999 -52c-48 0 -85.167 11.5 -111.5 34.5s-39.5 55.167 -39.5 96.5c0 50.667 16.667 92.667 50 126s73.333 50 120 50
c49.333 0 87.5 -12.333 114.5 -37s40.5 -56.667 40.5 -96z" />
    <glyph glyph-name="zdotaccent" unicode="&#x17c;" horiz-adv-x="1024" 
d="M1032 1004l-53 -246l-586 -512h498l-51 -246h-860l51 246l585 512h-456l53 246h819zM799 1311c0 -46.667 -16.8311 -87.333 -50.498 -122s-74.834 -52 -123.501 -52c-48 0 -85.333 11.5 -112 34.5s-40 55.167 -40 96.5c0 50.667 16.667 92.667 50 126s73.333 50 120 50
c49.333 0 87.666 -12.333 114.999 -37s41 -56.667 41 -96z" />
    <glyph glyph-name="Zcaron" unicode="&#x17d;" horiz-adv-x="1331" 
d="M965 1157h-678l57 277h1075l-57 -277l-897 -881h729l-57 -276h-1127l58 276zM1329 1915l-311 -307h-246l-180 307h233l90 -164l156 164h258z" />
    <glyph glyph-name="zcaron" unicode="&#x17e;" horiz-adv-x="1024" 
d="M1032 1004l-53 -246l-586 -512h498l-51 -246h-860l51 246l585 512h-456l53 246h819zM1047 1444l-312 -307h-246l-180 307h234l90 -164l155 164h259z" />
    <glyph glyph-name="florin" unicode="&#x192;" horiz-adv-x="788" 
d="M549 614l-283.001 -696c-48 -120 -103 -208 -165 -264s-146.333 -84 -253 -84c-24.667 0 -50.834 1.66699 -78.501 5s-49.834 7 -66.501 11l-25 4l50 236c31.333 -13.333 64 -20.333 98 -21c80.667 0 136 37.667 166 113l280 696h-133l54 246h174l94 246
c46.667 120 101.334 208 164.001 264s148 84 256 84c24.667 0 50.834 -1.66699 78.501 -5s49.834 -7 66.501 -11l25 -4l-50 -236c-31.333 13.333 -64 20.333 -98 21c-82 0 -138 -37.667 -168 -113l-92 -246h195l-54 -246h-235z" />
    <glyph glyph-name="uni0218" unicode="&#x218;" horiz-adv-x="1228" 
d="M553 236c66.667 0 125.662 15.334 176.995 46.001s77 78.667 77 144c0 38 -20.167 72 -60.5 102s-89.166 57 -146.499 81s-114.666 50.667 -171.999 80s-106.166 70 -146.499 122s-60.5 113.333 -60.5 184c0 135.333 50.167 247.333 150.5 336s236.5 133 408.5 133
c58.667 0 115.334 -6.83301 170.001 -20.5s99.5 -29.667 134.5 -48s65.833 -37 92.5 -56s45.334 -35.5 56.001 -49.5l18 -20l-213 -185c-8 8 -19.167 18.333 -33.5 31s-44.333 29.5 -90 50.5s-93.167 31.5 -142.5 31.5c-68 0 -121.167 -14.333 -159.5 -43
s-57.5 -67 -57.5 -115c0 -32.667 14.667 -62.334 44 -89.001s65.5 -49.167 108.5 -67.5s90.167 -39.833 141.5 -64.5s98.5 -50.667 141.5 -78s79.167 -64.166 108.5 -110.499s44 -99.5 44 -159.5c0 -152.667 -52.667 -274.5 -158 -365.5s-252.666 -136.5 -441.999 -136.5
c-66.667 0 -130.834 8.16699 -192.501 24.5s-113 35.833 -154 58.5s-76.833 45.667 -107.5 69s-52.667 43 -66 59l-21 25l211 178c9.33301 -10.667 23 -24.334 41 -41.001s56.333 -38.5 115 -65.5s120 -40.5 184 -40.5zM275.995 -470.999l148 307h264l-207 -307h-205z" />
    <glyph glyph-name="uni0219" unicode="&#x219;" horiz-adv-x="931" 
d="M911 870l-173.998 -158.996c-40.667 52 -95.334 77.667 -164.001 77c-42 0 -74 -8.16699 -96 -24.5s-33 -35.833 -33 -58.5c0 -20.667 13 -40.334 39 -59.001s57.833 -35.834 95.5 -51.501s75.334 -34 113.001 -55s69.334 -49.333 95.001 -85s38.5 -77.167 38.5 -124.5
c0 -105.333 -37.833 -190 -113.5 -254s-182.5 -96 -320.5 -96c-53.333 0 -103.833 6.33301 -151.5 19s-86.5 28 -116.5 46s-56 35.833 -78 53.5s-37.667 32.5 -47 44.5l-14 21l178 147c5.33301 -8 13.5 -17.833 24.5 -29.5s34.833 -27.334 71.5 -47.001s75 -29.5 115 -29.5
c94 0 141 32 141 96c0 22 -13.333 42.167 -40 60.5s-58.334 35.666 -95.001 51.999s-73.834 34.833 -111.501 55.5s-69.834 48.667 -96.501 84s-40 76.333 -40 123c0 90 40 170.5 120 241.5s183.333 106.5 310 106.5c69.333 0 133.5 -13 192.5 -39
s100.167 -51.333 123.5 -76zM86.002 -470.996l147 307h265l-207 -307h-205z" />
    <glyph glyph-name="uni021A" unicode="&#x21a;" horiz-adv-x="1208" 
d="M252 1434h1126l-57 -277h-410l-245 -1157h-308l246 1157h-409zM199 -471l147 307h264l-207 -307h-204z" />
    <glyph glyph-name="uni021B" unicode="&#x21b;" horiz-adv-x="829" 
d="M389 1116l39.002 184h246l-66 -317h205l-53 -246h-205l-84 -399c-8 -32.667 -4.83301 -59.667 9.5 -81s38.5 -32 72.5 -32c20.667 0 41.167 1.83301 61.5 5.5s35.166 7.5 44.499 11.5l17 4l-49 -236c-57.333 -20.667 -120.333 -30.667 -189 -30
c-214.667 0 -296.334 116 -245.001 348l86 409h-175l54 246h92c31.333 0 60.333 12.333 87 37s44 56.667 52 96zM104.002 -479l148 307h264l-207 -307h-205z" />
    <glyph glyph-name="uni02BC" unicode="&#x2bc;" horiz-adv-x="471" 
d="M205 1137l153 307h265l-209 -307h-209z" />
    <glyph glyph-name="circumflex" unicode="&#x2c6;" horiz-adv-x="860" 
d="M209 1137l311 307h246l180 -307h-233l-88 163l-158 -163h-258z" />
    <glyph glyph-name="caron" unicode="&#x2c7;" horiz-adv-x="860" 
d="M1012 1444l-312 -307h-245l-181 307h234l90 -164l156 164h258z" />
    <glyph glyph-name="breve" unicode="&#x2d8;" horiz-adv-x="778" 
d="M579.5 1321c35.667 0 67.166 11.667 94.499 35s44.333 52.666 51 87.999h205c-19.333 -91.333 -59.666 -165.333 -120.999 -222s-139.333 -85 -234 -85c-98 0 -177 29.667 -237 89s-81.333 132 -64 218h205c-6.66699 -35.333 -0.5 -64.666 18.5 -87.999
s46.333 -35 82 -35z" />
    <glyph glyph-name="dotaccent" unicode="&#x2d9;" horiz-adv-x="440" 
d="M569 1331c0 -46.667 -16.668 -87.333 -50.001 -122s-74.666 -52 -123.999 -52c-48 0 -85.167 11.667 -111.5 35s-39.5 55.333 -39.5 96c0 50.667 16.667 92.667 50 126s73.333 50 120 50c49.333 0 87.5 -12.333 114.5 -37s40.5 -56.667 40.5 -96z" />
    <glyph glyph-name="ring" unicode="&#x2da;" horiz-adv-x="593" 
d="M471 1321c-24.667 0 -45.5 -8.83398 -62.5 -26.501s-25.5 -40.167 -25.5 -67.5c0 -46.667 27.333 -70 82 -70c23.333 0 43.833 8.83301 61.5 26.5s26.5 40.834 26.5 69.501c0 45.333 -27.333 68 -82 68zM709 1262c0 -64 -26.332 -121.333 -78.999 -172s-114 -76 -184 -76
c-64 0 -116.833 19.833 -158.5 59.5s-62.5 87.5 -62.5 143.5c0 65.333 26.667 122.833 80 172.5s114.666 74.5 183.999 74.5c64 0 116.667 -19.667 158 -59s62 -87 62 -143z" />
    <glyph glyph-name="ogonek" unicode="&#x2db;" horiz-adv-x="512" 
d="M92 0l143.998 0.000976562c-8 -9.33301 -19 -21.5 -33 -36.5s-31.833 -42.333 -53.5 -82s-32.5 -75.167 -32.5 -106.5c0 -40.667 26 -61.334 78 -62.001c18 0 35.667 1.83301 53 5.5s30.333 7.5 39 11.5l14 4l-33 -154c-38 -20.667 -91 -31 -159 -31
c-57.333 0 -104.5 16.5 -141.5 49.5s-55.5 73.833 -55.5 122.5c0 30 6.16699 60.167 18.5 90.5s27.333 56.333 45 78s35.334 41 53.001 58s32.834 30.5 45.501 40.5z" />
    <glyph glyph-name="tilde" unicode="&#x2dc;" horiz-adv-x="849" 
d="M735 1147c-52 0 -101.166 17 -147.499 51s-82.5 51 -108.5 51c-48 0 -78.667 -34 -92 -102h-174c42 204.667 132.667 307 272 307c50.667 0 99.167 -18.833 145.5 -56.5s81.166 -56.5 104.499 -56.5c48 0 79.333 37.667 94 113h175
c-22 -104 -56.333 -181.167 -103 -231.5s-102 -75.5 -166 -75.5z" />
    <glyph glyph-name="hungarumlaut" unicode="&#x2dd;" horiz-adv-x="952" 
d="M205 1137l225 307h285l-301 -307h-209zM594 1137l225 307h285l-301 -307h-209z" />
    <glyph glyph-name="uni0401" unicode="&#x401;" horiz-adv-x="1361" 
d="M457 276h768l-58 -276h-1075l303 1434h1055l-57 -277h-748l-61 -287h583l-59 -276h-584zM1040 1735c0 42 17.832 80.833 53.499 116.5s76.834 53.5 123.501 53.5c39.333 0 72 -13.333 98 -40s39 -59.334 39 -98.001c0 -44 -18.5 -83.333 -55.5 -118s-76.5 -52 -118.5 -52
c-39.333 0 -72.5 13.833 -99.5 41.5s-40.5 59.834 -40.5 96.501zM587.999 1735c0 42 17.668 80.833 53.001 116.5s76.333 53.5 123 53.5c39.333 0 72 -13.333 98 -40s39 -59.334 39 -98.001c0 -44 -18.333 -83.333 -55 -118s-76.334 -52 -119.001 -52
c-39.333 0 -72.333 13.833 -99 41.5s-40 59.834 -40 96.501z" />
    <glyph glyph-name="uni0402" unicode="&#x402;" horiz-adv-x="1505" 
d="M840 246c76.667 1.33301 143.17 24.833 199.503 70.5s84.5 107.5 84.5 185.5c0 48 -16.333 87.333 -49 118s-77 46 -133 46c-75.333 0 -142.333 -24 -201 -72s-95.334 -106 -110.001 -174l-88 -420h-307l245 1157h-327l57 277h963l-58 -277h-328l-67 -317
c8 8 20.167 17.5 36.5 28.5s51.166 26 104.499 45s108.666 28.5 165.999 28.5c130 0 231.833 -33.167 305.5 -99.5s110.5 -154.5 110.5 -264.5c0 -190 -56.667 -339 -170 -447s-256 -162 -428 -162h-66z" />
    <glyph glyph-name="uni0403" unicode="&#x403;" horiz-adv-x="1177" 
d="M795 1608l225 307h295l-291 -307h-229zM92 0l303 1434h973l-57 -277h-666l-246 -1157h-307z" />
    <glyph glyph-name="uni0404" unicode="&#x404;" horiz-adv-x="1546" 
d="M1051 1464c75.333 0 146.332 -9.83203 212.999 -29.499s121.5 -43.5 164.5 -71.5s80.5 -56 112.5 -84s55 -51.667 69 -71l22 -30l-225 -185c-2.66699 5.33301 -7.16699 12.5 -13.5 21.5s-20.666 24.5 -42.999 46.5s-46.5 41.5 -72.5 58.5s-61.5 32.667 -106.5 47
s-92.167 21.5 -141.5 21.5c-109.333 0 -211.333 -30 -306 -90s-166 -139.333 -214 -238h645l-59 -276h-637c10.667 -96.667 52.5 -177.167 125.5 -241.5s162.167 -96.5 267.5 -96.5c52 0 102.5 7.5 151.5 22.5s90.333 32.667 124 53s63.667 41.166 90 62.499
s45.833 39.333 58.5 54l18 23l152 -205c-5.33301 -8 -13.833 -18.5 -25.5 -31.5s-37.667 -36 -78 -69s-82.666 -62 -126.999 -87s-102 -47.833 -173 -68.5s-144.167 -31 -219.5 -31c-190 0 -350.5 63.5 -481.5 190.5s-196.5 276.5 -196.5 448.5
c0 236 89.167 437.667 267.5 605s391.166 251 638.499 251z" />
    <glyph glyph-name="uni0405" unicode="&#x405;" horiz-adv-x="1228" 
d="M553 236c66.667 0 125.662 15.334 176.995 46.001s77 78.667 77 144c0 38 -20.167 72 -60.5 102s-89.166 57 -146.499 81s-114.666 50.667 -171.999 80s-106.166 70 -146.499 122s-60.5 113.333 -60.5 184c0 135.333 50.167 247.333 150.5 336s236.5 133 408.5 133
c58.667 0 115.334 -6.83301 170.001 -20.5s99.5 -29.667 134.5 -48s65.833 -37 92.5 -56s45.334 -35.5 56.001 -49.5l18 -20l-213 -185c-8 8 -19.167 18.333 -33.5 31s-44.333 29.5 -90 50.5s-93.167 31.5 -142.5 31.5c-68 0 -121.167 -14.333 -159.5 -43
s-57.5 -67 -57.5 -115c0 -32.667 14.667 -62.334 44 -89.001s65.5 -49.167 108.5 -67.5s90.167 -39.833 141.5 -64.5s98.5 -50.667 141.5 -78s79.167 -64.166 108.5 -110.499s44 -99.5 44 -159.5c0 -152.667 -52.667 -274.5 -158 -365.5s-252.666 -136.5 -441.999 -136.5
c-66.667 0 -130.834 8.16699 -192.501 24.5s-113 35.833 -154 58.5s-76.833 45.667 -107.5 69s-52.667 43 -66 59l-21 25l211 178c9.33301 -10.667 23 -24.334 41 -41.001s56.333 -38.5 115 -65.5s120 -40.5 184 -40.5z" />
    <glyph glyph-name="uni0406" unicode="&#x406;" horiz-adv-x="675" 
d="M92 0l303 1434h307l-303 -1434h-307z" />
    <glyph glyph-name="uni0407" unicode="&#x407;" horiz-adv-x="675" 
d="M92 0l303 1434h307l-303 -1434h-307zM670 1735c0 42 17.667 80.833 53 116.5s76.333 53.5 123 53.5c39.333 0 72 -13.333 98 -40s39 -59.334 39 -98.001c0 -44 -18.5 -83.333 -55.5 -118s-76.5 -52 -118.5 -52c-39.333 0 -72.333 13.833 -99 41.5s-40 59.834 -40 96.501z
M217 1735c0 42 17.834 80.833 53.501 116.5s76.5 53.5 122.5 53.5c39.333 0 72 -13.333 98 -40s39 -59.334 39 -98.001c0 -44 -18.333 -83.333 -55 -118s-76.334 -52 -119.001 -52c-39.333 0 -72.333 13.833 -99 41.5s-40 59.834 -40 96.501z" />
    <glyph glyph-name="uni0408" unicode="&#x408;" horiz-adv-x="1054" 
d="M784 1434l308 -0.000976562l-207 -973c-31.333 -151.333 -93.833 -271.166 -187.5 -359.499s-213.5 -132.5 -359.5 -132.5c-72.667 0 -142.334 14.667 -209.001 44s-115 58.333 -145 87l-47 43l225 185l22.5 -22.5c9.66699 -9.66699 30.167 -22 61.5 -37
s63.333 -22.5 96 -22.5c128.667 0 207.334 71.667 236.001 215z" />
    <glyph glyph-name="uni0409" unicode="&#x409;" horiz-adv-x="2242" 
d="M1577 0l-624.999 0.00292969l246 1157h-389l-35 -164c-42 -202 -88.333 -371.5 -139 -508.5s-104.667 -242.167 -162 -315.5s-115.333 -125 -174 -155s-125 -45 -199 -45c-30 0 -61 3.16699 -93 9.5s-56.333 12.166 -73 17.499l-26 8l61 293
c31.333 -13.333 64.333 -20.333 99 -21c53.333 0 99.666 16.167 138.999 48.5s81.5 102.666 126.5 210.999s88.833 260.166 131.5 455.499l94 443h1004l-101 -471h262c126.667 0 232.834 -41.667 318.501 -125s128.5 -181 128.5 -293c0 -157.333 -57.333 -287.5 -172 -390.5
s-255.334 -154.5 -422.001 -154.5zM1679 686.003l-273.999 0.000976562l-88 -410h280c69.333 0 129.666 23.667 180.999 71s77 103.666 77 168.999c0 48 -16.333 88.333 -49 121s-75 49 -127 49z" />
    <glyph glyph-name="uni040A" unicode="&#x40a;" horiz-adv-x="2263" 
d="M1597 0h-623.999l145 686h-573l-146 -686h-307l303 1434h307l-100 -471h574l100 471h307l-100 -471h262c126.667 0 232.667 -41.667 318 -125s128 -181 128 -293c0 -157.333 -57.333 -287.5 -172 -390.5s-255.334 -154.5 -422.001 -154.5zM1337 276l281.001 0.000976562
c69.333 0 129.666 23.667 180.999 71s77 103.666 77 168.999c0 48 -16.333 88.333 -49 121s-75 49 -127 49h-275z" />
    <glyph glyph-name="uni040B" unicode="&#x40b;" horiz-adv-x="1566" 
d="M1118 451c2.66699 10.667 4 25.666 4 44.999c0 50.667 -17.333 91.667 -52 123s-80.667 47 -138 47c-74 0 -138.667 -21.167 -194 -63.5s-89 -92.833 -101 -151.5l-94 -451h-307l245 1157h-327l57 277h963l-58 -277h-328l-65 -311c8 6.66699 20.167 15.5 36.5 26.5
s51.5 25.333 105.5 43s109 26.5 165 26.5c274.667 0 412 -115.333 412 -346c0 -39.333 -5.66699 -87.666 -17 -144.999l-94 -451h-307z" />
    <glyph glyph-name="uni040C" unicode="&#x40c;" horiz-adv-x="1454" 
d="M702 1434l-129 -600l664 600h387l-657 -596l395 -838h-340l-299 623l-238 -215l-86 -408h-307l303 1434h307zM848 1608l225 307h295l-291 -307h-229z" />
    <glyph glyph-name="uni040E" unicode="&#x40e;" horiz-adv-x="1310" 
d="M918 1792c35.333 0 65.667 11.3301 91 33.9971s41.333 52.334 48 89.001h205c-20.667 -95.333 -62.834 -172.166 -126.501 -230.499s-142.5 -87.5 -236.5 -87.5c-98 0 -176 30.5 -234 91.5s-77.667 136.5 -59 226.5h205c-6.66699 -35.333 0.333008 -64.666 21 -87.999
s49.334 -35 86.001 -35zM555.001 1434l198.999 -675.998l428 676h340l-729 -1076c-87.333 -128.667 -174.166 -223.834 -260.499 -285.501s-187.5 -92.5 -303.5 -92.5c-27.333 0 -55.666 2.66699 -84.999 8s-51.333 10.666 -66 15.999l-25 6l56 266
c31.333 -13.333 70.666 -20 117.999 -20c96.667 0 182 47.667 256 143l62 80l-303 955h313z" />
    <glyph glyph-name="uni040F" unicode="&#x40f;" horiz-adv-x="1587" 
d="M1614 1434l-303 -1434h-461l-64 -297h-307l64 297h-451l303 1434h307l-245 -1158h604l246 1158h307z" />
    <glyph glyph-name="uni0410" unicode="&#x410;" horiz-adv-x="1495" 
d="M965 604l-74 471l-275 -471h349zM1012 338h-553l-195 -338h-336l867 1434h327l260 -1434h-319z" />
    <glyph glyph-name="uni0411" unicode="&#x411;" horiz-adv-x="1392" 
d="M457 276l319 -0.000976562c62.667 0 115.5 19.833 158.5 59.5s64.5 86.167 64.5 139.5c0 40.667 -15.333 75.834 -46 105.501s-69.667 44.5 -117 44.5h-306zM743 -0.000976562l-650.999 -0.000976562l303 1434h994l-58 -277h-686l-55 -256h303
c121.333 0 221.666 -39.167 300.999 -117.5s119 -170.166 119 -275.499c0 -142 -55 -262.167 -165 -360.5s-245 -147.5 -405 -147.5z" />
    <glyph glyph-name="uni0412" unicode="&#x412;" horiz-adv-x="1423" 
d="M762 0l-670 0.00195312l303 1434h604c112 0 204.5 -35.167 277.5 -105.5s109.5 -149.833 109.5 -238.5c-1.33301 -146 -79 -260 -233 -342c4 -2.66699 10.167 -6.5 18.5 -11.5s22.333 -16.333 42 -34s37 -36.834 52 -57.501s28.667 -47.334 41 -80.001
s18.5 -66.667 18.5 -102c0 -126.667 -53.833 -235.5 -161.5 -326.5s-241.5 -136.5 -401.5 -136.5zM453 256.002h338c62.667 0 116.167 20.5 160.5 61.5s66.5 91.5 66.5 151.5c0 42 -16.333 78.5 -49 109.5s-73 46.5 -121 46.5h-318zM926 1178h-277l-65 -308h297
c56 0 101.667 16.167 137 48.5s53 76.5 53 132.5c0 36.667 -13.167 67 -39.5 91s-61.5 36 -105.5 36z" />
    <glyph glyph-name="uni0413" unicode="&#x413;" horiz-adv-x="1177" 
d="M92 0l303 1434h973l-57 -277h-666l-246 -1157h-307z" />
    <glyph glyph-name="uni0414" unicode="&#x414;" horiz-adv-x="1525" 
d="M-35 276h81.999c6.66699 5.33301 16.5 13.833 29.5 25.5s37 38.334 72 80.001s67.5 87.5 97.5 137.5s62.333 117.667 97 203s62.334 175.666 83.001 270.999l92 441h993l-245 -1158h174l-121 -573h-307l63 297h-860l-63 -297h-306zM732.999 993
c-20.667 -95.333 -46.666 -185.333 -77.999 -270s-62.333 -153 -93 -205s-59.334 -97 -86.001 -135s-48.667 -65.333 -66 -82l-25 -25h573l189 881h-379z" />
    <glyph glyph-name="uni0415" unicode="&#x415;" horiz-adv-x="1361" 
d="M457 276h768l-58 -276h-1075l303 1434h1055l-57 -277h-748l-61 -287h583l-59 -276h-584z" />
    <glyph glyph-name="uni0416" unicode="&#x416;" horiz-adv-x="2109" 
d="M909 481l-90 127l-547 -608h-364l747 844l-403 590h348l393 -564l119 564h307l-112 -537l591 537h381l-659 -603l397 -831h-344l-297 618l-162 -143l-98 -475h-307z" />
    <glyph glyph-name="uni0417" unicode="&#x417;" horiz-adv-x="1290" 
d="M989 743c5.33301 -2.66699 12.5 -6.33496 21.5 -11.002s24.833 -16.167 47.5 -34.5s42.834 -38.166 60.501 -59.499s33.667 -49.666 48 -84.999s21.5 -73 21.5 -113c0 -135.333 -56 -247.666 -168 -336.999s-266.333 -134 -463 -134c-68 0 -133.833 8.5 -197.5 25.5
s-116 37.5 -157 61.5s-77.167 48 -108.5 72s-54.333 44 -69 60l-21 27l217 180c2.66699 -4 7.16699 -9.33301 13.5 -16s20.333 -18.667 42 -36s44.834 -32.333 69.501 -45s56.5 -24.5 95.5 -35.5s79.5 -16.5 121.5 -16.5c95.333 0 169 20.167 221 60.5s78 89.833 78 148.5
c0 45.333 -18.333 83.166 -55 113.499s-92 45.5 -166 45.5h-184l57 267h174c76.667 0 137.5 17 182.5 51s67.5 76.333 67.5 127c0 36.667 -17.333 67.334 -52 92.001s-84.334 37 -149.001 37c-52 0 -104.5 -11.333 -157.5 -34s-93.167 -45.667 -120.5 -69l-41 -32l-144 196
c5.33301 5.33301 12.5 12.833 21.5 22.5s30 27.167 63 52.5s67.833 47.166 104.5 65.499s84.667 35.333 144 51s120.666 23.5 183.999 23.5c139.333 0 255 -37.833 347 -113.5s138 -160.5 138 -254.5c0 -150 -72.333 -258.667 -217 -326c-38.667 -18 -62 -27 -70 -27z" />
    <glyph glyph-name="uni0418" unicode="&#x418;" horiz-adv-x="1648" 
d="M1372 0h-307l192 909l-878 -909h-287l303 1434h307l-192 -910l879 910h286z" />
    <glyph glyph-name="uni0419" unicode="&#x419;" horiz-adv-x="1648" 
d="M1092 1792c35.333 0 65.667 11.3301 91 33.9971s41.333 52.334 48 89.001h205c-20.667 -95.333 -62.834 -172.166 -126.501 -230.499s-142.5 -87.5 -236.5 -87.5c-98 0 -176 30.5 -234 91.5s-77.667 136.5 -59 226.5h205c-6.66699 -35.333 0.333008 -64.666 21 -87.999
s49.334 -35 86.001 -35zM1372 -0.00292969h-307l192 909l-878 -909h-287l303 1434h307l-192 -910l879 910h286z" />
    <glyph glyph-name="uni041A" unicode="&#x41a;" horiz-adv-x="1454" 
d="M702 1434l-129 -600l664 600h387l-657 -596l395 -838h-340l-299 623l-238 -215l-86 -408h-307l303 1434h307z" />
    <glyph glyph-name="uni041B" unicode="&#x41b;" horiz-adv-x="1566" 
d="M1593 1434l-302.998 -1434h-307l246 1157h-420l-35 -164c-42 -202 -88 -371.5 -138 -508.5s-103.667 -242.167 -161 -315.5s-115.333 -125 -174 -155s-125 -45 -199 -45c-30 0 -61.333 3.16699 -94 9.5s-57.334 12.166 -74.001 17.499l-26 8l61 293
c31.333 -13.333 64.333 -20.333 99 -21c53.333 0 99.666 16.167 138.999 48.5s81.5 102.666 126.5 210.999s88.833 260.166 131.5 455.499l94 443h1034z" />
    <glyph glyph-name="uni041C" unicode="&#x41c;" horiz-adv-x="1904" 
d="M1010 809l628 625h293l-303 -1434h-307l203 954l-586 -585l-338 581l-201 -950h-307l303 1434h256z" />
    <glyph glyph-name="uni041D" unicode="&#x41d;" horiz-adv-x="1597" 
d="M1624 1434l-303 -1434h-307l123 584h-615l-123 -584h-307l303 1434h307l-120 -574h614l121 574h307z" />
    <glyph glyph-name="uni041E" unicode="&#x41e;" horiz-adv-x="1761" 
d="M993 1190c-136.667 0 -258.5 -53.668 -365.5 -161.001s-160.5 -230.666 -160.5 -369.999c0 -117.333 39.167 -215.5 117.5 -294.5s179.166 -118.5 302.499 -118.5c135.333 0 256.833 52.5 364.5 157.5s161.5 229.833 161.5 374.5c0 117.333 -39.667 215.333 -119 294
s-179.666 118 -300.999 118zM145 640.999c0 216 87.5 407.168 262.5 573.501s377.167 249.5 606.5 249.5c211.333 0 384.333 -65.167 519 -195.5s202 -288.166 202 -473.499c0 -144.667 -40.333 -280.834 -121 -408.501s-187.5 -229.167 -320.5 -304.5
s-274.167 -113 -423.5 -113c-211.333 0 -385 65.167 -521 195.5s-204 289.166 -204 476.499z" />
    <glyph glyph-name="uni041F" unicode="&#x41f;" horiz-adv-x="1587" 
d="M1614 1434l-303 -1434h-307l245 1157h-604l-246 -1157h-307l303 1434h1219z" />
    <glyph glyph-name="uni0420" unicode="&#x420;" horiz-adv-x="1392" 
d="M395 1434l576 0.000976562c125.333 0 231.333 -43 318 -129s130 -185 130 -297c0 -158.667 -57 -287.834 -171 -387.501s-254.333 -149.5 -421 -149.5h-329l-99 -471h-307zM922 1157l-277 -0.000976562l-88 -409h301c69.333 0 128 22.833 176 68.5s72 101.167 72 166.5
c0 46.667 -17.667 87.334 -53 122.001s-79 52 -131 52z" />
    <glyph glyph-name="uni0421" unicode="&#x421;" horiz-adv-x="1546" 
d="M1051 1464c75.333 0 146.331 -9.83203 212.998 -29.499s121.5 -43.5 164.5 -71.5s80.5 -56 112.5 -84s55 -51.667 69 -71l22 -30l-225 -185c-2.66699 5.33301 -7.16699 12.5 -13.5 21.5s-20.666 24.5 -42.999 46.5s-46.5 41.5 -72.5 58.5s-61.5 32.667 -106.5 47
s-92.167 21.5 -141.5 21.5c-151.333 0 -284.666 -54.667 -399.999 -164s-173 -241 -173 -395c0 -108 37.5 -198.833 112.5 -272.5s169.167 -110.5 282.5 -110.5c52 0 102.5 7.5 151.5 22.5s90.333 32.667 124 53s63.667 41.166 90 62.499s45.833 39.333 58.5 54l18 23
l152 -205c-5.33301 -8 -13.833 -18.5 -25.5 -31.5s-37.667 -36 -78 -69s-82.666 -62 -126.999 -87s-102 -47.833 -173 -68.5s-144.167 -31 -219.5 -31c-190 0 -350.5 63.5 -481.5 190.5s-196.5 276.5 -196.5 448.5c0 236 89.167 437.667 267.5 605s391.166 251 638.499 251z
" />
    <glyph glyph-name="uni0422" unicode="&#x422;" horiz-adv-x="1208" 
d="M252 1434h1126l-57 -277h-410l-245 -1157h-308l246 1157h-409z" />
    <glyph glyph-name="uni0423" unicode="&#x423;" horiz-adv-x="1310" 
d="M555 1434l198.999 -675.998l428 676h340l-729 -1076c-87.333 -128.667 -174.166 -223.834 -260.499 -285.501s-187.5 -92.5 -303.5 -92.5c-27.333 0 -55.666 2.66699 -84.999 8s-51.333 10.666 -66 15.999l-25 6l56 266c31.333 -13.333 70.666 -20 117.999 -20
c96.667 0 182 47.667 256 143l62 80l-303 955h313z" />
    <glyph glyph-name="uni0424" unicode="&#x424;" horiz-adv-x="1781" 
d="M870 1065c-113.333 -6.66699 -212.667 -45.1689 -298 -115.502s-128 -162.166 -128 -275.499c0 -75.333 25.333 -137.166 76 -185.499s121 -74.5 211 -78.5zM980.999 142.998l-39 -183.999h-307l39 184c-164 4 -295.167 56.667 -393.5 158s-147.5 221.666 -147.5 360.999
c0 181.333 77.5 336.5 232.5 465.5s342.5 196.833 562.5 203.5l33 154h307l-33 -154c162.667 -5.33301 293.5 -58.5 392.5 -159.5s148.5 -220.5 148.5 -358.5c0 -181.333 -77.5 -337 -232.5 -467s-342.5 -197.667 -562.5 -203zM1038 409.999
c114.667 8 214.333 47.168 299 117.501s127 161.5 127 273.5c0 75.333 -25.167 137.166 -75.5 185.499s-120.5 74.5 -210.5 78.5z" />
    <glyph glyph-name="uni0425" unicode="&#x425;" horiz-adv-x="1433" 
d="M741 522l-460 -522h-363l660 748l-316 686h330l211 -461l403 461h367l-606 -686l344 -748h-332z" />
    <glyph glyph-name="uni0426" unicode="&#x426;" horiz-adv-x="1607" 
d="M92 0l303 1434h307l-245 -1158h583l246 1158h307l-245 -1158h174l-121 -573h-307l63 297h-1065z" />
    <glyph glyph-name="uni0427" unicode="&#x427;" horiz-adv-x="1505" 
d="M682 1434l-91.998 -441.001c-18 -86 -8.83301 -151.833 27.5 -197.5s96.166 -68.5 179.499 -68.5c50.667 0 101.167 8.5 151.5 25.5s87.833 33.833 112.5 50.5l37 26l127 605h307l-303 -1434h-307l112 532c-9.33301 -5.33301 -23.166 -12.666 -41.499 -21.999
s-57 -21.5 -116 -36.5s-118.5 -22.5 -178.5 -22.5c-162.667 0 -281.834 47.667 -357.501 143s-94.834 228.333 -57.501 399l92 441h307z" />
    <glyph glyph-name="uni0428" unicode="&#x428;" horiz-adv-x="2170" 
d="M2198 1434l-304 -1434h-1802l303 1434h307l-245 -1158h440l246 1158h307l-246 -1158h441l245 1158h308z" />
    <glyph glyph-name="uni0429" unicode="&#x429;" horiz-adv-x="2211" 
d="M2198 1434l-246 -1158h174l-121 -573h-307l63 297h-1669l303 1434h307l-245 -1158h440l246 1158h307l-246 -1158h441l245 1158h308z" />
    <glyph glyph-name="uni042A" unicode="&#x42a;" horiz-adv-x="1525" 
d="M860 0h-614l246 1157h-338l57 277h645l-100 -471h245c126.667 0 233.834 -41.667 321.501 -125s131.5 -181 131.5 -293c0 -157.333 -57.333 -287.5 -172 -390.5s-255.334 -154.5 -422.001 -154.5zM610 276h277.001c69.333 0 128.666 23.333 177.999 70s74 102.667 74 168
c0 46.667 -17.833 87 -53.5 121s-79.5 51 -131.5 51h-256z" />
    <glyph glyph-name="uni042B" unicode="&#x42b;" horiz-adv-x="1935" 
d="M1962 1434l-303 -1434h-307l303 1434h307zM457 276h276.001c69.333 0 128.666 23.333 177.999 70s74 102.667 74 168c0 46.667 -17.667 87 -53 121s-79 51 -131 51h-256zM707.001 0h-615l303 1434h307l-100 -471h246c126.667 0 233.667 -41.667 321 -125
s131 -181 131 -293c0 -157.333 -57.167 -287.5 -171.5 -390.5s-254.833 -154.5 -421.5 -154.5z" />
    <glyph glyph-name="uni042C" unicode="&#x42c;" horiz-adv-x="1392" 
d="M457 276h297.001c69.333 0 128.666 23.333 177.999 70s74 102.667 74 168c0 46.667 -17.833 87 -53.5 121s-79.5 51 -131.5 51h-276zM727.001 0h-635l303 1434h307l-100 -471h266c126.667 0 233.834 -41.667 321.501 -125s131.5 -181 131.5 -293
c0 -157.333 -57.333 -287.5 -172 -390.5s-255.334 -154.5 -422.001 -154.5z" />
    <glyph glyph-name="uni042D" unicode="&#x42d;" horiz-adv-x="1546" 
d="M647 246c105.333 0 204.664 31.335 297.997 94.002s163.333 144 210 244h-643l59 276h631c-10.667 94 -51.167 172.167 -121.5 234.5s-158.166 93.5 -263.499 93.5c-49.333 0 -97.833 -7.16699 -145.5 -21.5s-87.834 -31.5 -120.501 -51.5s-62 -40.167 -88 -60.5
s-45 -37.166 -57 -50.499l-19 -23l-158 197c5.33301 8 13.833 18.5 25.5 31.5s37.334 35.833 77.001 68.5s81.334 61.667 125.001 87s100.667 48.166 171 68.499s143.166 30.5 218.499 30.5c190 0 349.833 -63.167 479.5 -189.5s194.5 -275.5 194.5 -447.5
c0 -236 -89.5 -438 -268.5 -606s-391.5 -252 -637.5 -252c-75.333 0 -146.666 10 -213.999 30s-123.166 44 -167.499 72s-82.833 56 -115.5 84s-56.667 51.333 -72 70l-22 31l217 188c4 -5.33301 9.33301 -12.333 16 -21s22.667 -24.334 48 -47.001
s52.333 -42.834 81 -60.501s66.5 -33.667 113.5 -48s96.5 -21.5 148.5 -21.5z" />
    <glyph glyph-name="uni042E" unicode="&#x42e;" horiz-adv-x="2232" 
d="M1378 -31c-170.667 0 -320.832 57.667 -450.499 173s-199.834 262.666 -210.501 441.999h-195l-123 -584h-307l303 1434h307l-118 -564h172c56 172 159.333 314 310 426s311.334 168 482.001 168c191.333 0 349.166 -62.833 473.499 -188.5s186.5 -280.5 186.5 -464.5
c0 -151.333 -40 -292.666 -120 -423.999s-183.833 -233.833 -311.5 -307.5s-260.5 -110.5 -398.5 -110.5zM1397 244c134 0 250.667 56.667 350 170s149 239 149 377c0 114.667 -35.5 209.834 -106.5 285.501s-159.5 113.5 -265.5 113.5
c-122.667 0 -236.667 -53.333 -342 -160s-158 -235.667 -158 -387c0 -114.667 35.5 -209.834 106.5 -285.501s159.833 -113.5 266.5 -113.5z" />
    <glyph glyph-name="uni042F" unicode="&#x42f;" horiz-adv-x="1433" 
d="M1460 1434l-303.002 -1434h-307l106 502h-251l-386 -502h-339l421 543c-5.33301 4 -11.666 9 -18.999 15s-21.666 20.667 -42.999 44s-39.833 48 -55.5 74s-30 59.5 -43 100.5s-19.5 83.167 -19.5 126.5c0 152.667 54 279.334 162 380.001s242.333 151 403 151h674z
M761.998 1157c-61.333 0 -114.167 -21.167 -158.5 -63.5s-66.5 -94.833 -66.5 -157.5c0 -44 16 -81.333 48 -112s72 -46 120 -46h309l82 379h-334z" />
    <glyph glyph-name="uni0430" unicode="&#x430;" horiz-adv-x="1259" 
d="M631 1024c40.667 0 78.833 -5.16504 114.5 -15.498s64.334 -23.333 86.001 -39s40.334 -31 56.001 -46s27.167 -27.833 34.5 -38.5l10 -15l29 134h276l-213 -1004h-276l22 113c-2.66699 -4 -6.33398 -8.83301 -11.001 -14.5s-16.334 -16.334 -35.001 -32.001
s-38.834 -29.334 -60.501 -41.001s-50.667 -22.167 -87 -31.5s-74.166 -14 -113.499 -14c-110.667 0 -205 42.667 -283 128s-117 187.333 -117 306c0 172 57.5 316.667 172.5 434s246.833 176 395.5 176zM560.999 225.002c78 0 147.668 32.499 209.001 97.499
s92 145.167 92 240.5c0 62.667 -20.5 114.167 -61.5 154.5s-90.167 60.5 -147.5 60.5c-78 0 -147.333 -31.667 -208 -95s-91 -143.666 -91 -240.999c0 -61.333 20.167 -112.833 60.5 -154.5s89.166 -62.5 146.499 -62.5z" />
    <glyph glyph-name="uni0431" unicode="&#x431;" horiz-adv-x="1239" 
d="M1157 561c0 -157.333 -55.9971 -293.502 -167.997 -408.502s-250.667 -172.5 -416 -172.5c-135.333 0 -246.5 41.167 -333.5 123.5s-130.5 194.5 -130.5 336.5c0 105.333 15 209.5 45 312.5s73.333 198.5 130 286.5s130 163.5 220 226.5s191 105.5 303 127.5
c76.667 15.333 146.667 32 210 50s108 32.667 134 44l39 18l78 -209c-57.333 -46.667 -200 -93.667 -428 -141c-91.333 -19.333 -171.5 -56.5 -240.5 -111.5s-120.167 -122.833 -153.5 -203.5c9.33301 10.667 22.666 23.834 39.999 39.501s53.666 36.834 108.999 63.501
s111.666 40 168.999 40c116 0 210.5 -41.333 283.5 -124s109.5 -182 109.5 -298zM688.003 736.998c-82 0 -150.334 -30.667 -205.001 -92s-82 -134.333 -82 -219c0 -58.667 18.833 -106.834 56.5 -144.501s85.167 -56.5 142.5 -56.5c72.667 0 136.5 29.333 191.5 88
s82.5 133.334 82.5 224.001c0 57.333 -17.667 105 -53 143s-79.666 57 -132.999 57z" />
    <glyph glyph-name="uni0432" unicode="&#x432;" horiz-adv-x="1085" 
d="M244 1004l487.002 -0.00488281c86 0 157 -26 213 -78s84 -110.667 84 -176c0 -20.667 -2 -40.167 -6 -58.5s-9.5 -34.666 -16.5 -48.999s-14.833 -27.666 -23.5 -39.999s-17.834 -22.666 -27.501 -30.999s-19.334 -16.166 -29.001 -23.499s-18.5 -13.166 -26.5 -17.499
s-15.5 -7.83301 -22.5 -10.5s-11.833 -4.66699 -14.5 -6l-4 -2c9.33301 -4 20.5 -10.5 33.5 -19.5s30.833 -29.833 53.5 -62.5s34 -68.667 34 -108c0 -94 -37.167 -171.167 -111.5 -231.5s-172.5 -90.5 -294.5 -90.5h-542zM623.002 429.995h-225.999l-43 -205h224
c35.333 0 65.666 11 90.999 33s38 50.667 38 86c0 24.667 -7.5 45.167 -22.5 61.5s-35.5 24.5 -61.5 24.5zM639.003 613.995c27.333 0 51.5 9 72.5 27s31.5 41.333 31.5 70c0 19.333 -6.33301 35.333 -19 48s-30 19 -52 19h-201l-35 -164h203z" />
    <glyph glyph-name="uni0433" unicode="&#x433;" horiz-adv-x="931" 
d="M289 705l-110.997 164.996c2.66699 4 7.5 9.5 14.5 16.5s22 19.333 45 37s47.167 33.334 72.5 47.001s58.833 26 100.5 37s84.5 16.5 128.5 16.5c98 0 180.167 -26.667 246.5 -80s99.5 -115.333 99.5 -186c0 -69.333 -19.167 -128.333 -57.5 -177
s-84.833 -84.667 -139.5 -108s-109.334 -43.833 -164.001 -61.5s-101 -37 -139 -58s-57 -47.5 -57 -79.5c0 -46.667 38.667 -69.667 116 -69c39.333 0 78.666 9.5 117.999 28.5s69 38.167 89 57.5l29 31l127 -158c-4 -5.33301 -9.83301 -12.166 -17.5 -20.499
s-24.834 -23 -51.501 -44s-55 -39.833 -85 -56.5s-69.833 -31.334 -119.5 -44.001s-101.167 -19 -154.5 -19c-109.333 0 -196.833 24.5 -262.5 73.5s-98.5 110.5 -98.5 184.5c0 60 13.667 112.833 41 158.5s61.833 80.834 103.5 105.501s86.5 46.834 134.5 66.501
s92.833 35.667 134.5 48s76 27.333 103 45s40.5 38.167 40.5 61.5c0 44 -35.333 65.667 -106 65c-30 0 -60 -7.16699 -90 -21.5s-52.667 -28.166 -68 -41.499z" />
    <glyph glyph-name="uni0434" unicode="&#x434;" horiz-adv-x="1224" 
d="M926 831c-9.33301 80.667 -30.833 151.833 -64.5 213.5s-77.167 112.5 -130.5 152.5s-105.5 72.333 -156.5 97s-110.167 47.334 -177.5 68.001l115 205c199.333 -49.333 358.333 -138.5 477 -267.5s178 -297.167 178 -504.5c0 -254 -62 -453.333 -186 -598
s-280.333 -217 -469 -217c-124 0 -229.833 42.167 -317.5 126.5s-131.5 183.166 -131.5 296.499c0 155.333 56.667 287.5 170 396.5s244 163.5 392 163.5c60 0 115.167 -11 165.5 -33s85.833 -44 106.5 -66zM549 224.999c72.667 0 137.167 28.668 193.5 86.001
s84.5 123.666 84.5 198.999c0 56 -19 104.5 -57 145.5s-83.667 61.5 -137 61.5c-70.667 0 -136.167 -29 -196.5 -87s-90.5 -124 -90.5 -198c0 -56 20.167 -104.5 60.5 -145.5s87.833 -61.5 142.5 -61.5z" />
    <glyph glyph-name="uni0435" unicode="&#x435;" horiz-adv-x="1167" 
d="M1069 410h-729c6.66699 -57.333 30.5 -104.166 71.5 -140.499s94.167 -54.5 159.5 -54.5c52 0 101.667 10.667 149 32s81.666 42.666 102.999 63.999l33 33l107 -190l-18.5 -18.5c-8.33301 -8.33301 -26.833 -22.5 -55.5 -42.5s-58.667 -37.833 -90 -53.5
s-71.666 -29.5 -120.999 -41.5s-100 -18 -152 -18c-126.667 0 -235.5 44.333 -326.5 133s-136.5 192.334 -136.5 311.001c0 165.333 61.833 306.666 185.5 423.999s266.834 176 429.501 176c125.333 0 229.666 -36.833 312.999 -110.5s125 -167.167 125 -280.5
c0 -34 -4 -71 -12 -111zM645 788c-57.333 0 -109.833 -17 -157.5 -51s-85.167 -78.333 -112.5 -133h469c0 53.333 -17.833 97.333 -53.5 132s-84.167 52 -145.5 52z" />
    <glyph glyph-name="uni0436" unicode="&#x436;" horiz-adv-x="1607" 
d="M563 0l60 285l-64 94l-344 -379h-317l518 573l-281 431h301l256 -394l84 394h277l-80 -367l393 367h332l-471 -435l278 -569h-291l-190 397l-125 -112l-59 -285h-277z" />
    <glyph glyph-name="uni0437" unicode="&#x437;" horiz-adv-x="952" 
d="M897 758c0 -58.667 -20.1719 -109.832 -60.5049 -153.499s-91.166 -73.834 -152.499 -90.501c4 -1.33301 9.83301 -3.66602 17.5 -6.99902s20.334 -10.833 38.001 -22.5s33.334 -24.667 47.001 -39s26.334 -33.833 38.001 -58.5s17.5 -51.334 17.5 -80.001
c0 -91.333 -40.667 -168.666 -122 -231.999s-197.666 -95 -348.999 -95c-53.333 0 -104 6.33301 -152 19s-87 28 -117 46s-55.833 35.833 -77.5 53.5s-37.5 32.5 -47.5 44.5l-14 21l176 147c5.33301 -8 13.5 -17.833 24.5 -29.5s36 -27.334 75 -47.001
s81.167 -29.5 126.5 -29.5c60 0 105.667 12.333 137 37s47 56 47 94c0 56 -46.333 84 -139 84h-107l39 184h102c50.667 0 89.334 10 116.001 30s40 46.333 40 79c0 26 -10.833 46.833 -32.5 62.5s-51.834 23.5 -90.501 23.5c-32.667 0 -66.667 -7.83301 -102 -23.5
s-62.666 -31.167 -81.999 -46.5l-29 -24l-123 155c4 4 9.5 9.83301 16.5 17.5s22.833 21 47.5 40s51 35.667 79 50s65.167 27.333 111.5 39s94.166 17.5 143.499 17.5c104 0 189.667 -27 257 -81s101 -115.667 101 -185z" />
    <glyph glyph-name="uni0438" unicode="&#x438;" 
d="M707 0l18 94c-8 -8 -19.833 -18.5 -35.5 -31.5s-49.167 -30 -100.5 -51s-104.333 -31.5 -159 -31.5c-96.667 0 -175.5 28.667 -236.5 86s-91.5 134.333 -91.5 231c0 34 4.33301 69.333 13 106l129 601h276l-123 -574c-4 -16.667 -6 -31.667 -6 -45
c0 -44 15 -79.833 45 -107.5s69.667 -41.5 119 -41.5c61.333 0 114.5 21.5 159.5 64.5s75.833 102.5 92.5 178.5l113 525h276l-213 -1004h-276z" />
    <glyph glyph-name="uni0439" unicode="&#x439;" 
d="M707 0l18 94c-8 -8 -19.833 -18.5 -35.5 -31.5s-49.167 -30 -100.5 -51s-104.333 -31.5 -159 -31.5c-96.667 0 -175.5 28.667 -236.5 86s-91.5 134.333 -91.5 231c0 34 4.33301 69.333 13 106l129 601h276l-123 -574c-4 -16.667 -6 -31.667 -6 -45
c0 -44 15 -79.833 45 -107.5s69.667 -41.5 119 -41.5c61.333 0 114.5 21.5 159.5 64.5s75.833 102.5 92.5 178.5l113 525h276l-213 -1004h-276zM743.5 1321c35.667 0 67.166 11.667 94.499 35s44.333 52.666 51 87.999h205c-19.333 -91.333 -59.666 -165.333 -120.999 -222
s-139.333 -85 -234 -85c-98 0 -177 29.667 -237 89s-81.333 132 -64 218h205c-6.66699 -35.333 -0.5 -64.666 18.5 -87.999s46.333 -35 82 -35z" />
    <glyph glyph-name="uni043A" unicode="&#x43a;" horiz-adv-x="1105" 
d="M518 391l-160 -147l-51 -244h-276l213 1004h276l-84 -388l420 388h340l-469 -433l277 -571h-297z" />
    <glyph glyph-name="uni043B" unicode="&#x43b;" horiz-adv-x="1177" 
d="M346 1004h808.999l-213 -1004h-276l159 758h-266l-12 -62c-40.667 -188.667 -86.667 -337.5 -138 -446.5s-105 -183 -161 -222s-122.333 -58.5 -199 -58.5c-24.667 0 -49.5 2.83301 -74.5 8.5s-43.833 10.5 -56.5 14.5l-20 8l51 246c19.333 -6.66699 39 -10 59 -10
c40.667 0 74.834 10.5 102.501 31.5s56.5 68 86.5 141s60 179.167 90 318.5z" />
    <glyph glyph-name="uni043C" unicode="&#x43c;" horiz-adv-x="1351" 
d="M625 246l-193 348l-125 -594h-276l213 1004h219l221 -400l393 400h252l-213 -1004h-276l125 594z" />
    <glyph glyph-name="uni043D" unicode="&#x43d;" horiz-adv-x="1208" 
d="M387 379l-80 -379h-276l213 1004h276l-82 -379h389l82 379h277l-213 -1004h-277l80 379h-389z" />
    <glyph glyph-name="uni043E" unicode="&#x43e;" horiz-adv-x="1208" 
d="M645 768c-75.333 0 -142.667 -31.333 -202 -94s-89 -133.667 -89 -213c0 -65.333 20.167 -119.166 60.5 -161.499s91.833 -63.5 154.5 -63.5c74 0 141 30.333 201 91s90 132.667 90 216c0 65.333 -20.167 119.166 -60.5 161.499s-91.833 63.5 -154.5 63.5zM1151 553
c0 -148.667 -61.165 -281.333 -183.498 -398s-261.833 -175 -418.5 -175c-136.667 0 -251.834 46.333 -345.501 139s-140.5 203.334 -140.5 332.001c0 150 62.833 283 188.5 399s266.5 174 422.5 174c135.333 0 248.666 -46.833 339.999 -140.5s137 -203.834 137 -330.501z
" />
    <glyph glyph-name="uni043F" unicode="&#x43f;" 
d="M520 1004l-23.999 -115.001c8 9.33301 19.833 21.5 35.5 36.5s49.5 35.167 101.5 60.5s105.333 38 160 38c96.667 0 175 -28.667 235 -86s90 -136.666 90 -237.999c0 -36.667 -4 -75.334 -12 -116.001l-123 -584h-276l116 553c4 20.667 6 39.667 6 57
c0 45.333 -12.833 81.333 -38.5 108s-61.834 40 -108.501 40c-62.667 0 -118.667 -22.167 -168 -66.5s-82 -104.166 -98 -179.499l-109 -512h-276l213 1004h276z" />
    <glyph glyph-name="uni0440" unicode="&#x440;" horiz-adv-x="1259" 
d="M635 -20c-40.667 0 -78.833 5 -114.5 15s-64.5 22.5 -86.5 37.5s-40.833 30.333 -56.5 46s-26.834 29.167 -33.501 40.5l-10 14l-119 -563h-276l305 1434h276l-24 -113c2.66699 4 6.33398 8.66699 11.001 14s16.167 16 34.5 32s38.5 29.667 60.5 41s51 21.833 87 31.5
s74 14.5 114 14.5c110.667 0 204.834 -42 282.501 -126s116.5 -185.333 116.5 -304c0 -172 -57.333 -317.333 -172 -436s-246.334 -178 -395.001 -178zM705.001 778c-76.667 0 -145.667 -32.334 -207 -97.001s-92 -145 -92 -241c0 -62.667 20 -114.167 60 -154.5
s88.667 -60.5 146 -60.5c78 0 147.333 31.833 208 95.5s91 143.834 91 240.501c0 61.333 -20 112.833 -60 154.5s-88.667 62.5 -146 62.5z" />
    <glyph glyph-name="uni0441" unicode="&#x441;" horiz-adv-x="1075" 
d="M66 432c0 160 61.6699 298.67 185.003 416.003s269.666 176 438.999 176c52 0 101.167 -7.16699 147.5 -21.5s84.5 -31.333 114.5 -51s56.333 -39.5 79 -59.5s39.334 -37.333 50.001 -52l15 -21l-201 -162c-5.33301 9.33301 -13.5 20.666 -24.5 33.999
s-36.333 31.166 -76 53.499s-81.834 33.5 -126.501 33.5c-82 0 -156.167 -32.333 -222.5 -97s-99.5 -141.334 -99.5 -230.001c0 -62.667 20.833 -116 62.5 -160s93.167 -66 154.5 -66c45.333 0 90.166 11.667 134.499 35s77.5 47.333 99.5 72l32 35l132 -183
c-4 -5.33301 -9.83301 -12.833 -17.5 -22.5s-24.834 -26 -51.501 -49s-55 -43.333 -85 -61s-69.333 -34 -118 -49s-98.667 -22.5 -150 -22.5c-134 0 -246.333 45.333 -337 136s-136 196 -136 316z" />
    <glyph glyph-name="uni0442" unicode="&#x442;" horiz-adv-x="1792" 
d="M1280 0l116.998 552.996c5.33301 30 8 51 8 63c0 45.333 -11.667 80.333 -35 105s-54.666 37 -93.999 37c-53.333 0 -101.833 -22.167 -145.5 -66.5s-73.834 -104.166 -90.501 -179.499l-108 -512h-277l117 553c5.33301 30 8 51 8 63c0 45.333 -11.5 80.333 -34.5 105
s-54.5 37 -94.5 37c-53.333 0 -101.833 -22.167 -145.5 -66.5s-73.5 -104.166 -89.5 -179.499l-109 -512h-276l213 1004h276l-24 -113c8 9.33301 18.833 21.5 32.5 36.5s44.334 34.833 92.001 59.5s97.5 37 149.5 37c39.333 0 75.5 -6.16699 108.5 -18.5
s58.333 -26.666 76 -42.999s32.334 -33 44.001 -50s19.5 -31.833 23.5 -44.5l6 -18c4 4 9.5 10.167 16.5 18.5s22.667 22.333 47 42s49.833 37.334 76.5 53.001s60.5 29.667 101.5 42s82.833 18.5 125.5 18.5c92.667 0 166 -25.667 220 -77s81 -126.666 81 -225.999
c0 -36.667 -5.66699 -82.334 -17 -137.001l-123 -584h-276z" />
    <glyph glyph-name="uni0443" unicode="&#x443;" horiz-adv-x="1064" 
d="M250 -55l47 71l-176 988h276l101 -666l370 666h297l-626 -1065c-74 -125.333 -146.833 -218.166 -218.5 -278.499s-149.834 -90.5 -234.501 -90.5c-30 0 -60 2.66699 -90 8s-52.667 10.666 -68 15.999l-22 7l51 245c23.333 -13.333 55.333 -20 96 -20
c80.667 0 146.334 39.667 197.001 119z" />
    <glyph glyph-name="uni0444" unicode="&#x444;" horiz-adv-x="1546" 
d="M578 215l116 553c-105.333 -6.66699 -190.333 -39.667 -255 -99s-97 -139 -97 -239c0 -61.333 20.167 -111.5 60.5 -150.5s98.833 -60.5 175.5 -64.5zM801 -31l-83.999 -398.999h-277l84 399c-136.667 4 -248 51.5 -334 142.5s-129 196.5 -129 316.5
c0 157.333 67.667 292.666 203 405.999s296.666 173.333 483.999 180l88 420h276l-88 -420c138 -5.33301 249.667 -53.5 335 -144.5s128 -197.167 128 -318.5c0 -157.333 -67.833 -292.333 -203.5 -405s-296.5 -171.667 -482.5 -177zM971.001 768.001l-117 -552.999
c105.333 5.33301 190.666 37.666 255.999 96.999s98 139 98 239c0 62.667 -20.667 113.5 -62 152.5s-99.666 60.5 -174.999 64.5z" />
    <glyph glyph-name="uni0445" unicode="&#x445;" horiz-adv-x="1044" 
d="M502 317l-281 -317h-313l446 512l-213 492h291l121 -297l248 297h323l-422 -492l230 -512h-281z" />
    <glyph glyph-name="uni0446" unicode="&#x446;" horiz-adv-x="1249" 
d="M117 410l127.002 594.003h276l-121 -564c-4 -19.333 -6 -36.333 -6 -51c0 -46.667 14 -83.834 42 -111.501s64.667 -41.5 110 -41.5c57.333 0 107.5 20.333 150.5 61s72.5 98.667 88.5 174l115 533h277l-152 -707c-1.33301 -4 -2 -9.33301 -2 -16
c0 -36.667 19.667 -55.334 59 -56.001h62l-99 -461h-276l55 256c-16.667 13.333 -29.667 29.333 -39 48s-14 34.334 -14 47.001l-2 18c-2.66699 -4 -7.16699 -9.5 -13.5 -16.5s-20.333 -19.333 -42 -37s-44.834 -33.334 -69.501 -47.001s-56.834 -25.834 -96.501 -36.501
s-80.5 -16 -122.5 -16c-94 0 -170.833 28.667 -230.5 86s-89.5 135 -89.5 233c0.666992 36 5 73 13 111z" />
    <glyph glyph-name="uni0447" unicode="&#x447;" horiz-adv-x="1136" 
d="M625 0l71 337.999c-66.667 -48 -144.334 -72 -233.001 -72c-98 0 -176.167 26.667 -234.5 80s-87.5 127.666 -87.5 222.999c0 32.667 4.33301 68.334 13 107.001l69 328h277l-66 -308c-4 -13.333 -6 -27.666 -6 -42.999c0 -39.333 12.333 -71 37 -95s56.667 -36 96 -36
c32.667 0 64.834 5.16699 96.501 15.5s54.167 20.833 67.5 31.5l23 15l90 420h276l-213 -1004h-276z" />
    <glyph glyph-name="uni0448" unicode="&#x448;" horiz-adv-x="1792" 
d="M520 1004l-116.998 -553.003c-5.33301 -30 -8 -51.333 -8 -64c0 -45.333 11.667 -80.166 35 -104.499s54.666 -36.5 93.999 -36.5c53.333 0 101.833 22.167 145.5 66.5s73.834 104.166 90.501 179.499l108 512h277l-117 -553c-5.33301 -30 -8 -51.333 -8 -64
c0 -45.333 11.667 -80.166 35 -104.499s54.666 -36.5 93.999 -36.5c53.333 0 101.833 22.167 145.5 66.5s73.5 104.166 89.5 179.499l109 512h276l-213 -1004h-276l25 113c-8 -9.33301 -19 -21.666 -33 -36.999s-44.833 -35.166 -92.5 -59.499s-97.5 -36.5 -149.5 -36.5
c-39.333 0 -75.5 6 -108.5 18s-58.333 26.333 -76 43s-32.334 33.5 -44.001 50.5s-19.5 31.5 -23.5 43.5l-6 19c-4 -4 -9.5 -10.167 -16.5 -18.5s-22.667 -22.5 -47 -42.5s-49.833 -37.833 -76.5 -53.5s-60.5 -29.5 -101.5 -41.5s-82.5 -18 -124.5 -18
c-92.667 0 -166.167 25.5 -220.5 76.5s-81.5 126.5 -81.5 226.5c0 36.667 5.66699 82.334 17 137.001l123 584h276z" />
    <glyph glyph-name="uni0449" unicode="&#x449;" horiz-adv-x="1843" 
d="M1030.5 -20c-39.667 0 -75.999 6.00098 -108.999 18.001s-58.333 26.333 -76 43s-32.334 33.5 -44.001 50.5s-19.5 31.5 -23.5 43.5l-6 19c-4 -4 -9.5 -10.167 -16.5 -18.5s-22.667 -22.5 -47 -42.5s-49.833 -37.833 -76.5 -53.5s-60.5 -29.5 -101.5 -41.5
s-82.5 -18 -124.5 -18c-92.667 0 -166.167 25.5 -220.5 76.5s-81.5 126.5 -81.5 226.5c0 36.667 5.66699 82.334 17 137.001l123 584h276l-117 -553c-5.33301 -30 -8 -51.333 -8 -64c0 -45.333 11.667 -80.166 35 -104.499s54.666 -36.5 93.999 -36.5
c53.333 0 101.833 22.167 145.5 66.5s73.834 104.166 90.501 179.499l108 512h277l-117 -553c-5.33301 -30 -8 -51.333 -8 -64c0 -45.333 11.667 -80.166 35 -104.499s54.666 -36.5 93.999 -36.5c53.333 0 101.833 22.167 145.5 66.5s73.5 104.166 89.5 179.499l109 512h276
l-149 -707c-1.33301 -4 -2 -9.33301 -2 -16c0 -36.667 19.667 -55.334 59 -56.001h62l-99 -461h-276l55 256c-16.667 13.333 -29.667 29.333 -39 48s-14.666 34.334 -15.999 47.001v18c-2.66699 -4 -7.5 -9.5 -14.5 -16.5s-21.333 -19.333 -43 -37
s-44.5 -33.334 -68.5 -47.001s-54.667 -25.834 -92 -36.501s-75.833 -16 -115.5 -16z" />
    <glyph glyph-name="uni044A" unicode="&#x44a;" horiz-adv-x="1136" 
d="M1055 403c0 -120 -42.667 -217.167 -128 -291.5s-193 -111.5 -323 -111.5h-471l156 737h-236l58 267h512l-66 -308h154c102.667 0 185.667 -28.333 249 -85s95 -126 95 -208zM457 225h164c39.333 0 74.333 14.333 105 43s46 63.667 46 105
c0 28.667 -9.83301 52.167 -29.5 70.5s-45.167 27.5 -76.5 27.5h-158z" />
    <glyph glyph-name="uni044B" unicode="&#x44b;" horiz-adv-x="1505" 
d="M1483 1004l-213 -1004h-277l213 1004h277zM455 696h152.999c102.667 0 185.667 -28.333 249 -85s95 -126 95 -208c0 -120 -42.667 -217.167 -128 -291.5s-192.666 -111.5 -321.999 -111.5h-471l213 1004h276zM562.999 471h-157l-52 -246h164
c39.333 0 74.5 14.333 105.5 43s46.5 63.667 46.5 105c0 28.667 -10 52.167 -30 70.5s-45.667 27.5 -77 27.5z" />
    <glyph glyph-name="uni044C" unicode="&#x44c;" horiz-adv-x="1044" 
d="M455 696h162.999c102.667 0 185.834 -28.333 249.501 -85s95.5 -126 95.5 -208c0 -120 -42.667 -217.167 -128 -291.5s-193 -111.5 -323 -111.5h-481l213 1004h276zM572.999 471h-167l-52 -246h174c39.333 0 74.5 14.333 105.5 43s46.5 63.667 46.5 105
c0 28.667 -10 52.167 -30 70.5s-45.667 27.5 -77 27.5z" />
    <glyph glyph-name="uni044D" unicode="&#x44d;" horiz-adv-x="1064" 
d="M391 205c66.667 0 126.664 17.667 179.997 53s94.333 82.333 123 141h-415l43 205h409c-6.66699 52 -28.5 97.5 -65.5 136.5s-88.833 58.5 -155.5 58.5c-52 0 -100.833 -11.667 -146.5 -35s-78.167 -46 -97.5 -68l-30 -34l-123 157c4 5.33301 10 12.833 18 22.5
s26.333 26.167 55 49.5s58.5 43.833 89.5 61.5s71 34 120 49s98.833 22.5 149.5 22.5c128.667 0 238 -45 328 -135s135 -195.333 135 -316c0 -157.333 -61.167 -295.5 -183.5 -414.5s-263.5 -178.5 -423.5 -178.5c-54.667 0 -106.5 7.16699 -155.5 21.5
s-89.167 31.333 -120.5 51s-58.666 39.334 -81.999 59.001s-40.333 37.167 -51 52.5l-15 20l173 150c5.33301 -9.33301 13.333 -21.333 24 -36s36.834 -33.834 78.501 -57.501s87.834 -35.5 138.501 -35.5z" />
    <glyph glyph-name="uni044E" unicode="&#x44e;" horiz-adv-x="1679" 
d="M1016 -20c-114.667 0 -216.333 37.167 -305 111.5s-142 170.166 -160 287.499h-164l-80 -379h-276l213 1004h276l-82 -379h140c44 114.667 119.167 209.834 225.5 285.501s219.5 113.5 339.5 113.5c135.333 0 247.333 -45.333 336 -136s133 -201 133 -331
c0 -154 -61.167 -288.667 -183.5 -404s-259.833 -173 -412.5 -173zM1044 221c79.333 0 147.333 34.5 204 103.5s85 145.167 85 228.5c0 66.667 -20.833 121.5 -62.5 164.5s-93.834 64.5 -156.501 64.5c-72.667 0 -139 -32.333 -199 -97s-90 -142 -90 -232
c0 -66.667 20.833 -122 62.5 -166s93.834 -66 156.501 -66z" />
    <glyph glyph-name="uni044F" unicode="&#x44f;" horiz-adv-x="1095" 
d="M571 1004h502l-213 -1004h-276l61 297h-129l-244 -297h-313l285 338c-9.33301 6.66699 -21.333 16.5 -36 29.5s-33.5 41.333 -56.5 85s-34.5 90.167 -34.5 139.5c0 113.333 44 210.333 132 291s195.333 121 322 121zM745 768l-194 0.000976562
c-44 0 -80.667 -14 -110 -42s-44 -63 -44 -105c0 -28.667 10 -52.334 30 -71.001s47.667 -28 83 -28h184z" />
    <glyph glyph-name="uni0451" unicode="&#x451;" horiz-adv-x="1167" 
d="M1069 410h-729c6.66699 -57.333 30.5 -104.166 71.5 -140.499s94.167 -54.5 159.5 -54.5c52 0 101.667 10.667 149 32s81.666 42.666 102.999 63.999l33 33l107 -190l-18.5 -18.5c-8.33301 -8.33301 -26.833 -22.5 -55.5 -42.5s-58.667 -37.833 -90 -53.5
s-71.666 -29.5 -120.999 -41.5s-100 -18 -152 -18c-126.667 0 -235.5 44.333 -326.5 133s-136.5 192.334 -136.5 311.001c0 165.333 61.833 306.666 185.5 423.999s266.834 176 429.501 176c125.333 0 229.666 -36.833 312.999 -110.5s125 -167.167 125 -280.5
c0 -34 -4 -71 -12 -111zM645 788c-57.333 0 -109.833 -17 -157.5 -51s-85.167 -78.333 -112.5 -133h469c0 53.333 -17.833 97.333 -53.5 132s-84.167 52 -145.5 52zM825 1264c0 42 17.834 80.833 53.501 116.5s76.5 53.5 122.5 53.5c39.333 0 72.166 -13.333 98.499 -40
s39.5 -59.334 39.5 -98.001c0 -44 -18.5 -83.333 -55.5 -118s-76.5 -52 -118.5 -52c-39.333 0 -72.5 13.833 -99.5 41.5s-40.5 59.834 -40.5 96.501zM373.001 1264c0 42 17.667 80.833 53 116.5s76.333 53.5 123 53.5c39.333 0 72 -13.333 98 -40s39 -59.334 39 -98.001
c0 -44 -18.5 -83.333 -55.5 -118s-76.5 -52 -118.5 -52c-39.333 0 -72.333 13.833 -99 41.5s-40 59.834 -40 96.501z" />
    </font>
</defs>
</svg>
