<?xml version="1.0" standalone="no"?>
<!DOCTYPE svg PUBLIC "-//W3C//DTD SVG 1.1//EN" "http://www.w3.org/Graphics/SVG/1.1/DTD/svg11.dtd" >
<svg xmlns="http://www.w3.org/2000/svg" xmlns:xlink="http://www.w3.org/1999/xlink" version="1.1">
<metadata>
Created by FontForge 20190801 at Tue May 30 06:27:40 2017
 By Jimmy Wärting
Copyright (c) 2017 by TypeType. Designers Ivan Gladkikh, Pavel Emelyanov. Technical designers Olexa Volochay, Nadyr Rakhimov, Dmitriy Greshnev. All rights reserved.
</metadata>
<defs>
<font id="TTNorms-ExtraBoldItalic" horiz-adv-x="1249" >
  <font-face 
    font-family="TT Norms ExtraBold Italic"
    font-weight="800"
    font-style="italic"
    font-stretch="normal"
    units-per-em="2048"
    panose-1="2 0 5 3 5 0 0 9 0 4"
    ascent="1638"
    descent="-410"
    x-height="1004"
    cap-height="1434"
    bbox="-461 -502.002 2945.01 2038"
    underline-thickness="0"
    underline-position="0"
    unicode-range="U+000D-FB06"
  />
<missing-glyph horiz-adv-x="0" 
 />
    <glyph glyph-name="ij" unicode="ij" horiz-adv-x="1239" 
d="M719 307l149.002 697.001h349l-226 -1055c-28.667 -130 -77.5 -225.667 -146.5 -287s-166.167 -92 -291.5 -92c-32.667 0 -66.5 2.66699 -101.5 8s-61.167 10.666 -78.5 15.999l-29 7l59 276c27.333 -13.333 54.666 -20 81.999 -20c52 0 91 12.5 117 37.5
s46 70.5 60 136.5c-64 -27.333 -138.667 -41 -224 -41c-104 0 -185.667 27.333 -245 82s-89 129.667 -89 225c0 36.667 4.33301 74.334 13 113.001l127 594h348l-125 -584c-6.66699 -40.667 -0.833984 -74.834 17.499 -102.501s50.833 -41.5 97.5 -41.5
c22 0 44.167 2.5 66.5 7.5s39.5 10.167 51.5 15.5zM276.002 1278c0 53.333 21.1689 101.166 63.502 143.499s93.833 63.5 154.5 63.5c53.333 0 96.666 -16 129.999 -48s50 -70.667 50 -116c0 -54.667 -21.5 -102.5 -64.5 -143.5s-93.167 -61.5 -150.5 -61.5
c-54.667 0 -98.834 15.333 -132.501 46s-50.5 69.334 -50.5 116.001zM899.004 1278c0 53.333 21.168 101.166 63.501 143.499s93.5 63.5 153.5 63.5c53.333 0 96.666 -16 129.999 -48s50 -70.667 50 -116c0 -54.667 -21.5 -102.5 -64.5 -143.5s-93.167 -61.5 -150.5 -61.5
c-54.667 0 -98.667 15.333 -132 46s-50 69.334 -50 116.001z" />
    <glyph glyph-name="uniFB00" unicode="ff" horiz-adv-x="1474" 
d="M1534 963l-64 -308.002h-215l-139 -655h-348l139 655h-338l-139 -655h-348l139 655h-133l64 308h133l18 81c54.667 259.333 198.667 389.333 432 390c32.667 0 66.5 -2.83301 101.5 -8.5s61.167 -11.167 78.5 -16.5l27 -6l-63 -297c-24.667 13.333 -57.667 20 -99 20
c-35.333 0 -64.666 -9.16699 -87.999 -27.5s-38.333 -43.166 -45 -74.499l-14 -61h338l26 122c56 259.333 201 389.333 435 390c32.667 0 66 -2.83301 100 -8.5s60 -11.167 78 -16.5l26 -6l-61 -297c-24.667 13.333 -57.334 20 -98.001 20c-35.333 0 -65 -9.16699 -89 -27.5
s-39.667 -43.166 -47 -74.499l-22 -102h215z" />
    <glyph glyph-name="uniFB01" unicode="fi" horiz-adv-x="1351" 
d="M1319 963l-203.001 -963.001h-348l139 655h-338l-139 -655h-348l139 655h-133l64 308h133l22 102c56 259.333 201.333 389 436 389c32.667 0 66.167 -2.66699 100.5 -8s60.5 -10.666 78.5 -15.999l24 -7l-63 -297c-23.333 13.333 -55.666 20.333 -96.999 21
c-76.667 0 -121.667 -34.333 -135 -103l-18 -81h686zM1012 1278c0 53.333 21.168 101.166 63.501 143.499s93.5 63.5 153.5 63.5c53.333 0 96.666 -16 129.999 -48s50 -70.667 50 -116c0 -54.667 -21.5 -102.5 -64.5 -143.5s-93.167 -61.5 -150.5 -61.5
c-54.667 0 -98.667 15.333 -132 46s-50 69.334 -50 116.001z" />
    <glyph glyph-name="uniFB02" unicode="fl" horiz-adv-x="1361" 
d="M991 1004c1.33301 5.33301 2.00098 13.3311 2.00098 23.998c0 36.667 -14.333 67.334 -43 92.001s-65.334 37 -110.001 37c-50.667 0 -93.5 -14.667 -128.5 -44s-57.833 -65.666 -68.5 -108.999l-10 -41h213l-64 -308h-213l-139 -655h-348l139 655h-133l64 308h133
c34 157.333 102.5 282 205.5 374s232.5 138 388.5 138c140.667 0 254 -35.833 340 -107.5s129 -164.167 129 -277.5c0 -31.333 -3 -60 -9 -86l-213 -1004h-348z" />
    <glyph glyph-name="uniFB03" unicode="ffi" horiz-adv-x="2048" 
d="M2015 963l-203.001 -963h-348l140 655h-349l-139 -655h-348l139 655h-338l-139 -655h-348l139 655h-133l64 308h133l18 81c54.667 259.333 198 389.333 430 390c32.667 0 66.5 -2.83301 101.5 -8.5s61.167 -11.167 78.5 -16.5l29 -6l-63 -297
c-24.667 12 -57.667 18.667 -99 20c-75.333 1.33301 -119.666 -32.667 -132.999 -102l-14 -61h338l26 122c56 259.333 200.333 389.333 433 390c32.667 0 66.334 -2.83301 101.001 -8.5s61 -11.167 79 -16.5l26 -6l-61 -297c-24.667 13.333 -57.334 20 -98.001 20
c-76.667 0 -122 -34 -136 -102l-22 -102h696zM1708 1278c0 53.333 21.168 101.166 63.501 143.499s93.5 63.5 153.5 63.5c53.333 0 96.666 -16 129.999 -48s50 -70.667 50 -116c0 -54.667 -21.5 -102.5 -64.5 -143.5s-93.167 -61.5 -150.5 -61.5
c-54.667 0 -98.667 15.333 -132 46s-50 69.334 -50 116.001z" />
    <glyph glyph-name="uniFB06" unicode="st" horiz-adv-x="1781" 
d="M963 870l-201.001 -174.003c-44 34 -87.667 51.333 -131 52c-30 0 -53.5 -5.83301 -70.5 -17.5s-25.5 -26.5 -25.5 -44.5c0 -13.333 11.833 -26.833 35.5 -40.5s52.667 -27.667 87 -42s68.166 -31.5 101.499 -51.5s62 -47.667 86 -83s36 -76.333 36 -123
c0 -105.333 -42 -192.666 -126 -261.999s-201.333 -104 -352 -104c-58.667 0 -113.834 6.66699 -165.501 20s-93.667 29.666 -126 48.999s-60 38.166 -83 56.499s-39.167 34.5 -48.5 48.5l-15 20l209 180c4 -6.66699 10.833 -15.5 20.5 -26.5s30.167 -25.667 61.5 -44
s65.333 -27.5 102 -27.5c30 0 53.667 5.83301 71 17.5s26 26.167 26 43.5c0 13.333 -12 27 -36 41s-52.667 28.167 -86 42.5s-67.166 31.333 -101.499 51s-63.333 47.334 -87 83.001s-35.5 76.5 -35.5 122.5c0 102.667 39.833 188.5 119.5 257.5
s191.834 105.5 336.501 109.5c22 142 82.167 252.667 180.5 332s223.833 119 376.5 119c131.333 0 241 -34.5 329 -103.5s132 -160.167 132 -273.5c0 -35.333 -4 -73.666 -12 -114.999h205l-66 -307h-205l-61 -287c-13.333 -68 16.667 -102 90 -102
c16.667 0 33.834 1.66699 51.501 5s31.167 7 40.5 11l14 4l-61 -297c-61.333 -20.667 -129.666 -30.667 -204.999 -30c-94 0 -167 22.5 -219 67.5s-78 110.5 -78 196.5c0 40.667 5 82.334 15 125.001l65 307h-133l66 307h131c4 18 6 35 6 51c0 39.333 -14 71.333 -42 96
s-62 37 -102 37c-54.667 0 -99.334 -17 -134.001 -51s-52 -77.667 -52 -131c0 -45.333 22 -83.666 66 -114.999z" />
    <glyph glyph-name="c_t.liga" unicode="ct" horiz-adv-x="1925" 
d="M66 428c0 161.333 63.002 300.999 189.002 418.999s274.333 177 445 177h29c23.333 142 84.5 252.667 183.5 332s224.167 119 375.5 119c128.667 0 233.834 -33.5 315.501 -100.5s122.5 -155.833 122.5 -266.5c0 -39.333 -4 -81 -12 -125h205l-66 -307h-204l-62 -287
c-6.66699 -31.333 -2.5 -56.166 12.5 -74.499s39.5 -27.5 73.5 -27.5c18 0 36.167 1.66699 54.5 5s32.166 7 41.499 11l15 4l-62 -297c-61.333 -20.667 -129.333 -30.667 -204 -30c-94 0 -167 22.5 -219 67.5s-78 110.5 -78 196.5c0 40.667 4.66699 82.334 14 125.001
l65 307h-133l66 307h133c4 22 6 41.667 6 59c0 39.333 -11.5 70 -34.5 92s-54.5 33 -94.5 33c-50.667 0 -94 -18.333 -130 -55s-54 -84.334 -54 -143.001c0 -52 22.333 -102 67 -150l-241 -207c-5.33301 8 -12.833 17.833 -22.5 29.5s-32 27.167 -67 46.5
s-72.167 29 -111.5 29c-70.667 0 -131 -24.333 -181 -73s-75 -109 -75 -181c0 -49.333 16.667 -91 50 -125s76.666 -51 129.999 -51c39.333 0 77.5 9.5 114.5 28.5s64.5 38.167 82.5 57.5l26 26l164 -221c-4 -5.33301 -10.333 -12.5 -19 -21.5s-27.334 -24.667 -56.001 -47
s-59.167 -42.333 -91.5 -60s-74 -33.667 -125 -48s-103.167 -21.5 -156.5 -21.5c-132.667 0 -246 45 -340 135s-141 194.333 -141 313z" />
    <glyph glyph-name="s_p.liga" unicode="sp" horiz-adv-x="2252" 
d="M891 -430l305 1434c2.66699 22 4 37 4 45c0 35.333 -12 63.833 -36 85.5s-53.667 32.5 -89 32.5c-49.333 0 -91.333 -16 -126 -48s-52 -74 -52 -126c0 -49.333 22 -90.333 66 -123l-199 -172c-42 32.667 -86.333 49.334 -133 50.001c-30 0 -53.5 -5.83301 -70.5 -17.5
s-25.5 -26.5 -25.5 -44.5c0 -13.333 11.833 -26.833 35.5 -40.5s52.667 -27.667 87 -42s68.166 -31.5 101.499 -51.5s62 -47.667 86 -83s36 -76.333 36 -123c0 -105.333 -42 -192.666 -126 -261.999s-201.333 -104 -352 -104c-58.667 0 -113.834 6.66699 -165.501 20
s-93.667 29.666 -126 48.999s-60 38.166 -83 56.499s-39.167 34.5 -48.5 48.5l-15 20l209 180c4 -6.66699 10.833 -15.5 20.5 -26.5s30.167 -25.667 61.5 -44s65.333 -27.5 102 -27.5c30 0 53.667 5.83301 71 17.5s26 26.167 26 43.5c0 13.333 -12 27 -36 41
s-52.667 28.167 -86 42.5s-67.166 31.333 -101.499 51s-63.333 47.334 -87 83.001s-35.5 76.5 -35.5 122.5c0 102.667 39.833 188.5 119.5 257.5s191.834 105.5 336.501 109.5c24.667 142 85.5 252.667 182.5 332s219.833 119 368.5 119c124 0 228 -34.833 312 -104.5
s126 -157.834 126 -264.501c0 -39.333 -3.33301 -73.333 -10 -102l-24 -111c2.66699 4 6.66699 8.66699 12 14s16.833 15.666 34.5 30.999s37.167 28.666 58.5 39.999s48.666 21.833 81.999 31.5s68.333 14.5 105 14.5c105.333 0 196 -41 272 -123s114 -181.667 114 -299
c0 -178.667 -56.667 -327 -170 -445s-242.666 -177 -387.999 -177c-36.667 0 -71.667 5.33301 -105 16s-60.333 23.5 -81 38.5s-38.5 30 -53.5 45s-25.833 28.167 -32.5 39.5l-10 16l-119 -565h-348zM1667 717.002c-64 0 -119.167 -25.332 -165.5 -75.999
s-69.5 -109.334 -69.5 -176.001c0 -49.333 16.667 -91.333 50 -126s72.333 -52 117 -52c60 0 113.667 24.5 161 73.5s71 109.833 71 182.5c0 48 -16.333 89 -49 123s-71 51 -115 51z" />
    <glyph glyph-name="f_t.liga" unicode="ft" horiz-adv-x="1546" 
d="M1051 1096l40.9971 193.999h307l-70 -327h205l-64 -308h-204l-58 -266c-15.333 -68 13.334 -102 86.001 -102c16.667 0 34.167 1.66699 52.5 5s32.5 7 42.5 11l16 4l-62 -297c-66.667 -20.667 -137.667 -30.667 -213 -30c-113.333 0 -194.166 33 -242.499 99
s-58.833 162.667 -31.5 290l62 286h-349l-139 -655h-348l139 655h-133l64 308h133l22 102c56 259.333 200.667 389 434 389c32.667 0 66.167 -2.66699 100.5 -8s60.5 -10.666 78.5 -15.999l26 -7l-63 -297c-23.333 13.333 -55.666 20.333 -96.999 21
c-76.667 0 -121.667 -34.333 -135 -103l-18 -81h266c36.667 0 69.167 12 97.5 36s46.5 56.333 54.5 97z" />
    <glyph glyph-name=".notdef" horiz-adv-x="0" 
 />
    <glyph glyph-name="glyph1" horiz-adv-x="0" 
 />
    <glyph glyph-name="glyph1" horiz-adv-x="0" 
 />
    <glyph glyph-name="uni000D" unicode="&#xd;" horiz-adv-x="0" 
 />
    <glyph glyph-name="space" unicode=" " horiz-adv-x="430" 
 />
    <glyph glyph-name="exclam" unicode="!" horiz-adv-x="716" 
d="M504 451h-287l148 983h409zM111 141c0 53.333 21.168 101.168 63.501 143.501s93.5 63.5 153.5 63.5c53.333 0 96.666 -16 129.999 -48s50 -70.667 50 -116c0 -54.667 -21.5 -102.334 -64.5 -143.001s-93.167 -61 -150.5 -61c-54.667 0 -98.667 15.167 -132 45.5
s-50 68.833 -50 115.5z" />
    <glyph glyph-name="quotedbl" unicode="&#x22;" horiz-adv-x="942" 
d="M621 1434l-109 -512h-307l108 512h308zM1051 1434l-109 -512h-307l108 512h308z" />
    <glyph glyph-name="numbersign" unicode="#" horiz-adv-x="1556" 
d="M12 348l103 246h245l105 246h-236l103 245h235l146 349h307l-146 -349h236l145 349h308l-146 -349h246l-102 -245h-246l-105 -246h236l-103 -246h-235l-145 -348h-308l146 348h-236l-145 -348h-307l145 348h-246zM772 840l-104 -246h235l105 246h-236z" />
    <glyph glyph-name="dollar" unicode="$" 
d="M571 287c52 0 96.499 11.499 133.499 34.499s55.5 59.167 55.5 108.5c0 28.667 -19.167 56 -57.5 82s-84.5 51.333 -138.5 76s-107.833 52.667 -161.5 84s-99.667 74 -138 128s-57.5 115.667 -57.5 185c0 120 44 225.5 132 316.5s208.333 145.833 361 164.5l37 172h328
l-41 -192c58.667 -16.667 112.167 -39.667 160.5 -69s82.166 -54 101.499 -74l27 -33l-262 -226c-6.66699 8 -17 17.667 -31 29s-41.333 26.5 -82 45.5s-82.334 28.5 -125.001 28.5c-49.333 0 -89.666 -11.333 -120.999 -34s-47 -50.334 -47 -83.001
c0 -28.667 18.833 -55.667 56.5 -81s83.834 -49.5 138.501 -72.5s108.834 -49.833 162.501 -80.5s99.334 -72.667 137.001 -126s56.5 -115 56.5 -185c0 -135.333 -42.333 -249.666 -127 -342.999s-204.667 -151 -360 -173l-37 -174h-328l39 187
c-76.667 18 -147.334 45.333 -212.001 82s-110.667 69.334 -138 98.001l-41 43l264 227c4 -4 9.16699 -9 15.5 -15s20.333 -17.667 42 -35s44.167 -32.5 67.5 -45.5s52.333 -24.5 87 -34.5s69 -15 103 -15z" />
    <glyph glyph-name="percent" unicode="%" horiz-adv-x="1761" 
d="M573 1239c-36.667 0 -68.667 -13.667 -96 -41s-41 -60 -41 -98c0 -30 10.667 -55.333 32 -76s49.666 -31 84.999 -31s67 13.333 95 40s42 59 42 97c0 31.333 -10.667 57.333 -32 78s-49.666 31 -84.999 31zM940 1145c0 -101.333 -40.333 -189.5 -121 -264.5
s-177.667 -112.5 -291 -112.5c-98 0 -179.5 31 -244.5 93s-97.5 136.667 -97.5 224c0 101.333 40 189.833 120 265.5s177.333 113.5 292 113.5c100 0 182 -31.333 246 -94s96 -137.667 96 -225zM174 0l1194 1434h338l-1194 -1434h-338zM1327 440
c-36.667 0 -68.668 -13.666 -96.001 -40.999s-41 -60 -41 -98c0 -30 10.5 -55.167 31.5 -75.5s49.333 -30.5 85 -30.5s67.5 13.167 95.5 39.5s42 58.833 42 97.5c0 31.333 -10.667 57.166 -32 77.499s-49.666 30.5 -84.999 30.5zM1694 346.001
c0 -101.333 -40.333 -189.499 -121 -264.499s-177.667 -112.5 -291 -112.5c-98 0 -179.5 31.167 -244.5 93.5s-97.5 137.166 -97.5 224.499c0 101.333 40 189.833 120 265.5s177.333 113.5 292 113.5c100 0 182 -31.5 246 -94.5s96 -138.167 96 -225.5z" />
    <glyph glyph-name="ampersand" unicode="&#x26;" horiz-adv-x="1382" 
d="M1157 322c24.667 -30 57.3301 -45.3291 97.9971 -45.9961l54 11l-60 -287c-46.667 -27.333 -100.667 -41 -162 -41c-49.333 0 -93.666 12 -132.999 36s-66.666 47.667 -81.999 71l-24 36c-10.667 -10.667 -26 -23.834 -46 -39.501s-63.833 -36.834 -131.5 -63.501
s-137.5 -40 -209.5 -40c-121.333 0 -220.666 33.833 -297.999 101.5s-116 147.834 -116 240.501c0 58.667 12.667 115 38 169s56.333 98.667 93 134s73.167 66.333 109.5 93s67.5 46.334 93.5 59.001l37 18c-8 9.33301 -18.167 22.666 -30.5 39.999
s-28.5 50.833 -48.5 100.5s-30 96.5 -30 140.5c0 113.333 43.667 211.666 131 294.999s197.333 125 330 125c113.333 0 205.5 -31.5 276.5 -94.5s106.5 -136.833 106.5 -221.5c0 -44 -11 -88 -33 -132s-48.333 -82.167 -79 -114.5s-61.334 -61.833 -92.001 -88.5
s-57 -46 -79 -58l-32 -21l116 -184c46.667 49.333 76.667 104.666 90 165.999h328c-15.333 -69.333 -40.666 -137.833 -75.999 -205.5s-67.333 -117.834 -96 -150.501zM536.996 246.004c30 0 60 6.16699 90 18.5s52.333 25.166 67 38.499l23 19l-150 231
c-4 0 -18 -7.83301 -42 -23.5s-48.833 -40.667 -74.5 -75s-38.5 -69.166 -38.5 -104.499c0 -30 11.333 -54.833 34 -74.5s53 -29.5 91 -29.5zM685.996 920.004c28.667 22 50.5 39 65.5 51s31.333 31.333 49 58s26.5 53 26.5 79c0 23.333 -8.83301 42.5 -26.5 57.5
s-39.5 22.5 -65.5 22.5c-34 0 -62.333 -11.333 -85 -34s-34 -51.667 -34 -87c0 -22 5.83301 -45.167 17.5 -69.5s23.167 -43.5 34.5 -57.5z" />
    <glyph glyph-name="quotesingle" unicode="'" horiz-adv-x="512" 
d="M621 1434l-109 -512h-307l108 512h308z" />
    <glyph glyph-name="parenleft" unicode="(" horiz-adv-x="798" 
d="M497.5 512c-19 -87.333 -28.502 -176.669 -28.502 -268.002c0 -98 10.5 -193.833 31.5 -287.5s42.5 -162.5 64.5 -206.5l33 -67l-301 -164c-5.33301 8 -12.166 19.833 -20.499 35.5s-23.333 48.834 -45 99.501s-41.167 102.5 -58.5 155.5s-32.833 119.5 -46.5 199.5
s-20.5 159.667 -20.5 239c0 140.667 21.167 279.834 63.5 417.501s93.333 255.334 153 353.001s119.834 184.5 180.501 260.5s111.5 133 152.5 171s62.167 56.333 63.5 55l231 -164c-9.33301 -9.33301 -22.166 -22.833 -38.499 -40.5s-46.333 -55.834 -90 -114.501
s-84.334 -118.5 -122.001 -179.5s-76 -136.833 -115 -227.5s-68 -179.667 -87 -267z" />
    <glyph glyph-name="parenright" unicode=")" horiz-adv-x="798" 
d="M333.5 512c19 87.333 28.5 176.001 28.5 266.001c0 98 -10.5 194.167 -31.5 288.5s-42.5 163.5 -64.5 207.5l-33 67l302 164c5.33301 -8 12 -19.833 20 -35.5s23 -48.834 45 -99.501s41.167 -102.834 57.5 -156.501s31.333 -120.834 45 -201.501s20.5 -160.667 20.5 -240
c0 -102.667 -11.333 -204.834 -34 -306.501s-51.667 -192.667 -87 -273s-74.833 -157 -118.5 -230s-87.334 -136.167 -131.001 -189.5s-83.334 -99.166 -119.001 -137.499s-64.667 -67.666 -87 -87.999s-33.5 -29.833 -33.5 -28.5l-230 164
c9.33301 9.33301 22.333 22.833 39 40.5s46.834 55.834 90.501 114.501s83.834 118.5 120.501 179.5s74.5 136.833 113.5 227.5s68 179.667 87 267z" />
    <glyph glyph-name="asterisk" unicode="*" horiz-adv-x="839" 
d="M764 1434l-64 -205l209 71l25 -225l-207 -57l102 -148l-215 -153l-88 184l-157 -184l-174 153l163 158l-182 47l119 225l180 -71l23 205h266z" />
    <glyph glyph-name="plus" unicode="+" horiz-adv-x="1085" 
d="M831 1075l-67 -317h317l-67 -318h-318l-67 -317h-307l67 317h-317l67 318h318l67 317h307z" />
    <glyph glyph-name="comma" unicode="," horiz-adv-x="583" 
d="M201 352l248 -168l-383 -450l-201 125z" />
    <glyph glyph-name="hyphen" unicode="-" horiz-adv-x="890" 
d="M887 758l-66 -307h-747l65 307h748z" />
    <glyph glyph-name="period" unicode="." horiz-adv-x="552" 
d="M20 141c0 53.333 21.1689 101.168 63.502 143.501s93.833 63.5 154.5 63.5c53.333 0 96.666 -16 129.999 -48s50 -70.667 50 -116c0 -54.667 -21.5 -102.334 -64.5 -143.001s-93.167 -61 -150.5 -61c-54.667 0 -98.834 15.167 -132.501 45.5s-50.5 68.833 -50.5 115.5z
" />
    <glyph glyph-name="slash" unicode="/" horiz-adv-x="1075" 
d="M1229 1454l-1004 -1884h-346l1004 1884h346z" />
    <glyph glyph-name="zero" unicode="0" horiz-adv-x="1454" 
d="M856 1128c-54.667 0 -104.499 -18.999 -149.499 -56.999s-80.167 -86.333 -105.5 -145s-44.833 -118.167 -58.5 -178.5s-20.5 -115.5 -20.5 -165.5c0 -88.667 18.5 -156.667 55.5 -204s83.5 -71 139.5 -71c75.333 0 149.833 48.833 223.5 146.5s110.5 232.5 110.5 404.5
c0 87.333 -18.833 154.166 -56.5 200.499s-83.834 69.5 -138.501 69.5zM1444 856.001c0 -101.333 -17.166 -204.167 -51.499 -308.5s-81.833 -200.5 -142.5 -288.5s-140.167 -160 -238.5 -216s-205.5 -84 -321.5 -84c-160 0 -293.5 58 -400.5 174s-160.5 265.667 -160.5 449
c0 131.333 21.833 253.833 65.5 367.5s101 208.167 172 283.5s151.167 134.5 240.5 177.5s180.666 64.5 273.999 64.5c160 0 293.833 -57.833 401.5 -173.5s161.5 -264.167 161.5 -445.5z" />
    <glyph glyph-name="one" unicode="1" horiz-adv-x="849" 
d="M559 1434h338l-303 -1434h-389l213 1004h-236l49 235c39.333 5.33301 77.5 15.833 114.5 31.5s67.833 32.5 92.5 50.5s46.5 35.5 65.5 52.5s32.833 31.5 41.5 43.5z" />
    <glyph glyph-name="two" unicode="2" horiz-adv-x="1239" 
d="M1034 0l-1065 0.000976562c20.667 113.333 57 215.333 109 306s109.333 162 172 214s128.834 100.167 198.501 144.5s132.834 81.166 189.501 110.499s103.5 63.166 140.5 101.499s55.5 79.833 55.5 124.5c0 31.333 -11 56.666 -33 75.999s-54 29 -96 29
c-39.333 0 -76.833 -11.333 -112.5 -34s-61.167 -44.667 -76.5 -66l-24 -33l-295 153c4 9.33301 10.667 22 20 38s31.5 43.833 66.5 83.5s73 74.834 114 105.501s96.667 58.667 167 84s144.166 38 221.499 38c132.667 0 244.334 -40 335.001 -120s136 -174 136 -282
c0 -84.667 -16.333 -159.667 -49 -225s-76 -119.166 -130 -161.499s-108.667 -80 -164 -113s-112 -67.167 -170 -102.5s-100.667 -69.333 -128 -102h496z" />
    <glyph glyph-name="three" unicode="3" horiz-adv-x="1208" 
d="M958 737c5.33301 -2.66699 11.8301 -5.99609 19.4971 -9.99609s22.167 -14.5 43.5 -31.5s39.833 -35.833 55.5 -56.5s30 -48.334 43 -83.001s19.5 -71.334 19.5 -110.001c0 -132.667 -57.667 -247 -173 -343s-266.666 -144 -453.999 -144
c-70.667 0 -137.5 8.16699 -200.5 24.5s-114.333 36.166 -154 59.499s-74.5 46.166 -104.5 68.499s-51.667 41.833 -65 58.5l-19 25l264 227c8 -9.33301 20 -21.666 36 -36.999s48.5 -35.5 97.5 -60.5s99.5 -37.5 151.5 -37.5c65.333 0 116.833 16 154.5 48
s56.5 72 56.5 120c0 32.667 -13.667 60.5 -41 83.5s-66.333 34.5 -117 34.5h-153l65 308h148c50.667 0 93.334 15 128.001 45s52 65.333 52 106c0 31.333 -12.667 58.333 -38 81s-57.666 34 -96.999 34c-42 0 -84.333 -9.5 -127 -28.5s-74 -38.167 -94 -57.5l-31 -27
l-178 226c4 5.33301 10.5 12.666 19.5 21.999s29.833 26.666 62.5 51.999s67.334 47.166 104.001 65.499s85.5 35.5 146.5 51.5s124.833 24 191.5 24c135.333 0 247 -38.667 335 -116s132 -164.333 132 -261c0 -30 -3.33301 -58.667 -10 -86s-15.167 -51.666 -25.5 -72.999
s-22.666 -41.166 -36.999 -59.499s-29.333 -34.333 -45 -48s-31.334 -26 -47.001 -37s-30.334 -19.833 -44.001 -26.5s-26 -12.5 -37 -17.5s-19.167 -8.16699 -24.5 -9.5z" />
    <glyph glyph-name="four" unicode="4" horiz-adv-x="1280" 
d="M1112 563h154l-70 -327h-154l-49 -236h-389l49 236h-645l76 358l752 840h460zM723 563l90 420l-367 -420h277z" />
    <glyph glyph-name="five" unicode="5" horiz-adv-x="1280" 
d="M827 942c112 0 205.004 -39.498 279.004 -118.498s111 -173.833 111 -284.5c0 -169.333 -59.5 -308.333 -178.5 -417s-271.833 -163 -458.5 -163c-70.667 0 -137.834 8.16699 -201.501 24.5s-115.667 36.166 -156 59.499s-75.833 46.166 -106.5 68.499
s-53 41.833 -67 58.5l-18 25l268 231c8 -8 19.5 -18.833 34.5 -32.5s46.167 -31.5 93.5 -53.5s95.333 -33 144 -33c74 0 130.833 18.833 170.5 56.5s59.5 88.5 59.5 152.5c0 40.667 -14.333 74 -43 100s-68.334 39 -119.001 39c-36.667 0 -71.834 -6.83301 -105.501 -20.5
s-57.834 -27.167 -72.501 -40.5l-23 -21l-258 41l226 820h921l-70 -328h-577l-57 -205c47.333 27.333 115.333 41 204 41z" />
    <glyph glyph-name="six" unicode="6" horiz-adv-x="1300" 
d="M1225 1434l-391 -451.001c122.667 -12 221.834 -61.833 297.501 -149.5s113.5 -188.167 113.5 -301.5c0 -160 -61.833 -295.5 -185.5 -406.5s-278.834 -166.5 -465.501 -166.5c-146 0 -268.5 43.333 -367.5 130s-148.5 188.667 -148.5 306c0 74 16.667 147.833 50 221.5
s67 128.834 101 165.501l50 58l516 594h430zM629 286.999c58.667 0 110.168 21.5 154.501 64.5s66.5 94.5 66.5 154.5c0 40.667 -14.667 75.667 -44 105s-66 44 -110 44c-58.667 0 -110.5 -21.167 -155.5 -63.5s-67.5 -92.833 -67.5 -151.5c0 -42 14.667 -78 44 -108
s66.666 -45 111.999 -45z" />
    <glyph glyph-name="seven" unicode="7" horiz-adv-x="1136" 
d="M272 1434h1014l-65 -308l-770 -1126h-420l743 1085h-575z" />
    <glyph glyph-name="eight" unicode="8" horiz-adv-x="1290" 
d="M618 287c61.333 0 112.666 17.333 153.999 52s62 76 62 124c0 35.333 -15.167 66 -45.5 92s-69.166 39 -116.499 39c-61.333 0 -112.5 -17.5 -153.5 -52.5s-61.5 -76.167 -61.5 -123.5c0 -36.667 14.5 -67.667 43.5 -93s68.167 -38 117.5 -38zM750 901
c49.333 0 91 13.667 125 41s51 58.666 51 93.999c0 28.667 -12.333 54.334 -37 77.001s-56.667 34 -96 34c-50.667 0 -93.167 -14 -127.5 -42s-51.5 -59.667 -51.5 -95c0 -28.667 12.833 -54 38.5 -76s58.167 -33 97.5 -33zM575 -41
c-147.333 0 -268.667 41.002 -364 123.002s-143 177 -143 285c0 42 5.66699 81.833 17 119.5s26.333 70.5 45 98.5s39.167 53.5 61.5 76.5s44.166 42 65.499 57s41.5 28 60.5 39s33.167 19.167 42.5 24.5l17 6c-8 6.66699 -18.833 16 -32.5 28s-31.5 38.667 -53.5 80
s-33 85.333 -33 132c0 117.333 54.333 221.166 163 311.499s246.334 135.5 413.001 135.5c131.333 0 241.166 -39 329.499 -117s132.5 -164.667 132.5 -260c-1.33301 -147.333 -82.333 -265 -243 -353c4 -2.66699 9.66699 -6.33398 17 -11.001s20.333 -15.5 39 -32.5
s34.834 -35.5 48.501 -55.5s26.167 -46 37.5 -78s17 -65.667 17 -101c0 -142 -59.333 -262.167 -178 -360.5s-271.667 -147.5 -459 -147.5z" />
    <glyph glyph-name="nine" unicode="9" horiz-adv-x="1300" 
d="M195 0l390.999 451.001c-122.667 12 -222 61.667 -298 149s-114 187.666 -114 300.999c0 160 61.833 295.667 185.5 407s278.834 167 465.501 167c146 0 268.5 -43.5 367.5 -130.5s148.5 -189.167 148.5 -306.5c0 -72.667 -16.667 -146 -50 -220
s-66.333 -129.667 -99 -167l-51 -57l-516 -594h-430zM790.999 1147c-58.667 0 -110.333 -21.499 -155 -64.499s-67 -94.5 -67 -154.5c0 -40.667 14.667 -75.834 44 -105.501s66 -44.5 110 -44.5c58.667 0 110.5 21.167 155.5 63.5s67.5 92.833 67.5 151.5
c0 42 -14.5 78.167 -43.5 108.5s-66.167 45.5 -111.5 45.5z" />
    <glyph glyph-name="colon" unicode=":" horiz-adv-x="552" 
d="M162 817c0 53.333 21.168 101.166 63.501 143.499s93.5 63.5 153.5 63.5c53.333 0 96.666 -16 129.999 -48s50 -70.667 50 -116c0 -54.667 -21.5 -102.5 -64.5 -143.5s-93.167 -61.5 -150.5 -61.5c-54.667 0 -98.667 15.333 -132 46s-50 69.334 -50 116.001zM20.001 141
c0 53.333 21.1689 101.168 63.502 143.501s93.833 63.5 154.5 63.5c53.333 0 96.666 -16 129.999 -48s50 -70.667 50 -116c0 -54.667 -21.5 -102.334 -64.5 -143.001s-93.167 -61 -150.5 -61c-54.667 0 -98.834 15.167 -132.501 45.5s-50.5 68.833 -50.5 115.5z" />
    <glyph glyph-name="semicolon" unicode=";" horiz-adv-x="604" 
d="M215 817c0 53.333 21.168 101.166 63.501 143.499s93.5 63.5 153.5 63.5c53.333 0 96.666 -16 129.999 -48s50 -70.667 50 -116c0 -54.667 -21.5 -102.5 -64.5 -143.5s-93.167 -61.5 -150.5 -61.5c-54.667 0 -98.667 15.333 -132 46s-50 69.334 -50 116.001zM201.001 352
l248 -168l-383 -450l-201 125z" />
    <glyph glyph-name="less" unicode="&#x3c;" horiz-adv-x="1064" 
d="M59 379l52 246l1005 389l-67 -328l-533 -194l449 -195l-68 -307z" />
    <glyph glyph-name="equal" unicode="=" horiz-adv-x="1013" 
d="M963 532l-62 -286h-870l61 286h871zM1053 963l-60 -287h-870l59 287h871z" />
    <glyph glyph-name="greater" unicode="&#x3e;" horiz-adv-x="1064" 
d="M1032 625l-51 -246l-1006 -389l68 327l535 195l-451 195l68 307z" />
    <glyph glyph-name="question" unicode="?" horiz-adv-x="1157" 
d="M387 500c0 69.333 21.8311 130.328 65.498 182.995s91.5 92.334 143.5 119.001s99.833 57.334 143.5 92.001s65.5 71.334 65.5 110.001c0 26 -11 47.833 -33 65.5s-50.667 26.5 -86 26.5c-45.333 0 -86 -10.333 -122 -31s-60 -41 -72 -61l-21 -31l-295 153
c4 9.33301 10.167 22 18.5 38s28.833 43.833 61.5 83.5s69.167 74.834 109.5 105.501s95.333 58.667 165 84s144.834 38 225.501 38c143.333 0 260 -41.667 350 -125s135 -176.333 135 -279c0 -70.667 -15.667 -134.667 -47 -192s-70.166 -104.166 -116.499 -140.499
s-92.833 -69.5 -139.5 -99.5s-88 -60.667 -124 -92s-57.333 -63.333 -64 -96h-359c-2.66699 14.667 -4 31 -4 49zM310.998 140.995c0 53.333 21.168 101.168 63.501 143.501s93.5 63.5 153.5 63.5c53.333 0 96.833 -16 130.5 -48s50.5 -70.667 50.5 -116
c0 -54.667 -21.5 -102.334 -64.5 -143.001s-93.167 -61 -150.5 -61c-54.667 0 -98.834 15.167 -132.501 45.5s-50.5 68.833 -50.5 115.5z" />
    <glyph glyph-name="at" unicode="@" horiz-adv-x="1843" 
d="M940 645c-42 0 -79.501 -17.001 -112.501 -51.001s-49.5 -75 -49.5 -123c0 -31.333 10.667 -58 32 -80s47.666 -33 78.999 -33c40.667 0 77.834 16.833 111.501 50.5s50.5 73.5 50.5 119.5c0 32.667 -10.667 60.334 -32 83.001s-47.666 34 -78.999 34zM939.999 880.999
c32.667 0 63.3311 -6.83398 91.998 -20.501s49.334 -27.5 62.001 -41.5l18 -20l14 71h236l-86 -409c-6.66699 -26 -2.5 -51.333 12.5 -76s36.833 -37 65.5 -37c45.333 0 86.333 25.333 123 76s55 130 55 238c0 124 -47.167 227.333 -141.5 310s-213.833 124 -358.5 124
c-116 0 -227.167 -30.5 -333.5 -91.5s-192.333 -143.667 -258 -248s-98.5 -215.833 -98.5 -334.5c0 -135.333 44.333 -251.5 133 -348.5s201.334 -145.5 338.001 -145.5c66.667 0 131.834 10.667 195.501 32s110.5 43 140.5 65l45 30l119 -176
c-5.33301 -4 -13.5 -10.167 -24.5 -18.5s-34.333 -22.666 -70 -42.999s-72.5 -38 -110.5 -53s-86.833 -29 -146.5 -42s-118.834 -19.5 -177.501 -19.5c-194 0 -356.5 68 -487.5 204s-196.5 296.667 -196.5 482c0 165.333 45.5 320 136.5 464s211.167 258 360.5 342
s306.666 126 471.999 126c203.333 0 373 -60.5 509 -181.5s204 -268.167 204 -441.5c0 -176 -45.167 -315.833 -135.5 -419.5s-196.833 -155.5 -319.5 -155.5c-31.333 0 -60.333 4.5 -87 13.5s-47.834 19.167 -63.501 30.5s-29 23.166 -40 35.499s-18.5 22.5 -22.5 30.5
l-6 15c-6.66699 -9.33301 -17.167 -20.833 -31.5 -34.5s-46.166 -32.167 -95.499 -55.5s-101.333 -35 -156 -35c-83.333 0 -152.166 28.333 -206.499 85s-81.5 128 -81.5 214c0 132.667 41.5 242.334 124.5 329.001s175.833 130 278.5 130z" />
    <glyph glyph-name="A" unicode="A" horiz-adv-x="1515" 
d="M944 614l-45 420l-221 -420h266zM981 307h-471l-166 -307h-436l846 1434h430l239 -1434h-403z" />
    <glyph glyph-name="B" unicode="B" horiz-adv-x="1454" 
d="M805 0l-732.998 0.00195312l303 1434h624c130 0 235.667 -34.833 317 -104.5s122 -149.5 122 -239.5c0 -49.333 -9 -94.833 -27 -136.5s-39.167 -75.167 -63.5 -100.5s-48.833 -47.166 -73.5 -65.499s-46 -30.833 -64 -37.5l-26 -11
c5.33301 -2.66699 12.166 -6.33398 20.499 -11.001s23.666 -15.834 45.999 -33.501s42 -36.834 59 -57.501s32.333 -48 46 -82s20.5 -69.333 20.5 -106c0 -124 -52.167 -229.833 -156.5 -317.5s-242.5 -131.5 -414.5 -131.5zM524.002 307.002h274.999c52 0 95 15.333 129 46
s51 70.667 51 120c0 34 -12.667 62.667 -38 86s-57.666 35 -96.999 35h-258zM905.001 1126l-207 -0.000976562l-51 -245h223c45.333 0 82.333 12.833 111 38.5s43 59.834 43 102.501c0 28.667 -11 53.167 -33 73.5s-50.667 30.5 -86 30.5z" />
    <glyph glyph-name="C" unicode="C" horiz-adv-x="1536" 
d="M1014 1126c-134 0 -249.836 -47.6689 -347.503 -143.002s-146.5 -211.333 -146.5 -348c0 -94 31.5 -172.167 94.5 -234.5s144.167 -93.5 243.5 -93.5c46.667 0 92.5 6.83301 137.5 20.5s83.5 30.167 115.5 49.5s60.667 38.833 86 58.5s44 36.167 56 49.5l21 21l180 -260
c-6.66699 -8 -15.834 -18.5 -27.501 -31.5s-38.334 -36 -80.001 -69s-85.667 -62.167 -132 -87.5s-106.666 -48.166 -180.999 -68.499s-150.5 -30.5 -228.5 -30.5c-194 0 -355.833 65.5 -485.5 196.5s-194.5 283.833 -194.5 458.5c0 234.667 90.5 436.834 271.5 606.501
s397.833 254.5 650.5 254.5c76.667 0 149.334 -10 218.001 -30s125.167 -44 169.5 -72s83.333 -56 117 -84s57.167 -52 70.5 -72l23 -29l-277 -234c-2.66699 4 -7 10.167 -13 18.5s-19.667 22.333 -41 42s-44.666 37.167 -69.999 52.5s-58.666 29 -99.999 41
s-84.666 18 -129.999 18z" />
    <glyph glyph-name="D" unicode="D" horiz-adv-x="1556" 
d="M375 1434l521.999 0.000976562c187.333 0 343 -61.5 467 -184.5s186 -268.5 186 -436.5c0 -230.667 -85.667 -423.834 -257 -579.501s-379.666 -233.5 -624.999 -233.5h-596zM845.999 1085l-156.001 -0.000976562l-155 -737h159c114.667 0 219.834 42.667 315.501 128
s143.5 190.333 143.5 315c0 84.667 -28.333 154.834 -85 210.501s-130.667 83.5 -222 83.5z" />
    <glyph glyph-name="E" unicode="E" horiz-adv-x="1372" 
d="M530 328h738l-70 -328h-1126l303 1434h1106l-70 -328h-717l-47 -225h553l-65 -308h-553z" />
    <glyph glyph-name="F" unicode="F" horiz-adv-x="1331" 
d="M375 1434h1106l-74 -349h-717l-49 -235h553l-74 -348h-553l-106 -502h-389z" />
    <glyph glyph-name="G" unicode="G" horiz-adv-x="1658" 
d="M815 -41c-194 0 -357.501 65.498 -490.501 196.498s-199.5 283.833 -199.5 458.5c0 234.667 91.5 436.834 274.5 606.501s400.833 254.5 653.5 254.5c76.667 0 149.334 -10 218.001 -30s124.5 -44 167.5 -72s81 -56 114 -84s56.167 -52 69.5 -72l23 -29l-277 -234
c-2.66699 4 -7 10.167 -13 18.5s-20 22.333 -42 42s-45.333 37.167 -70 52.5s-57.5 29 -98.5 41s-83.167 18 -126.5 18c-134 0 -250.5 -48 -349.5 -144s-148.5 -213.667 -148.5 -353c0 -92.667 31.5 -169.5 94.5 -230.5s144.167 -91.5 243.5 -91.5
c49.333 0 95.5 7.5 138.5 22.5s74.167 30.833 93.5 47.5l28 22l33 154h-225l51 246h614l-116 -553c-6.66699 -8 -16.667 -18.5 -30 -31.5s-41.5 -36 -84.5 -69s-88.333 -62.167 -136 -87.5s-108.667 -48.166 -183 -68.499s-149.833 -30.5 -226.5 -30.5z" />
    <glyph glyph-name="H" unicode="H" horiz-adv-x="1628" 
d="M1675 1434l-303 -1434h-389l117 553h-522l-117 -553h-389l303 1434h389l-113 -533h523l112 533h389z" />
    <glyph glyph-name="I" unicode="I" horiz-adv-x="716" 
d="M72 0l303 1434h389l-303 -1434h-389z" />
    <glyph glyph-name="J" unicode="J" horiz-adv-x="1075" 
d="M743 1434l389.995 -0.00292969l-199 -942c-34 -161.333 -103.667 -290.5 -209 -387.5s-233.666 -145.5 -384.999 -145.5c-52 0 -101.833 6.5 -149.5 19.5s-87.5 28.333 -119.5 46s-60.333 35.334 -85 53.001s-42.667 32.834 -54 45.501l-16 20l287 236
c2.66699 -5.33301 7.33398 -12.166 14.001 -20.499s22.334 -19 47.001 -32s52 -19.5 82 -19.5c46.667 0 88.334 16.833 125.001 50.5s61.334 78.5 74.001 134.5z" />
    <glyph glyph-name="K" unicode="K" horiz-adv-x="1495" 
d="M745 549l-208 -191l-76 -358h-389l303 1434h389l-113 -531l553 531h482l-637 -607l374 -827h-430z" />
    <glyph glyph-name="L" unicode="L" horiz-adv-x="1228" 
d="M1096 0h-1024l303 1434h389l-229 -1086h634z" />
    <glyph glyph-name="M" unicode="M" horiz-adv-x="1904" 
d="M934 348l-293 502l-180 -850h-389l303 1434h323l322 -564l559 564h373l-303 -1434h-389l180 850z" />
    <glyph glyph-name="N" unicode="N" horiz-adv-x="1669" 
d="M1327 1434h389l-303 -1434h-330l-454 799l-168 -799h-389l303 1434h332l450 -799z" />
    <glyph glyph-name="O" unicode="O" horiz-adv-x="1761" 
d="M985 1126c-121.333 0 -227.5 -45.667 -318.5 -137s-136.5 -199 -136.5 -323c0 -102.667 34.167 -188.167 102.5 -256.5s155.833 -102.5 262.5 -102.5c120 0 225.833 44.333 317.5 133s137.5 198 137.5 328c0 101.333 -34.167 186.333 -102.5 255s-155.833 103 -262.5 103
zM1755 793c0 -143.333 -40.334 -279.166 -121.001 -407.499s-188.167 -231.5 -322.5 -309.5s-276.5 -117 -426.5 -117c-217.333 0 -398.333 66.833 -543 200.5s-217 294.167 -217 481.5c0 221.333 87.333 415.666 262 582.999s377.334 251 608.001 251
c217.333 0 398.333 -66.833 543 -200.5s217 -294.167 217 -481.5z" />
    <glyph glyph-name="P" unicode="P" horiz-adv-x="1423" 
d="M375 1434h615.999c134 0 245.333 -42.667 334 -128s133 -186 133 -302c0 -168 -58.667 -305.667 -176 -413s-264.666 -161 -441.999 -161h-289l-90 -430h-389zM923.999 1085h-234l-65 -307h249c52 0 96.167 17.833 132.5 53.5s54.5 77.167 54.5 124.5c0 34 -13 64 -39 90
s-58.667 39 -98 39z" />
    <glyph glyph-name="Q" unicode="Q" horiz-adv-x="1761" 
d="M1755 793c0 -155.333 -47.835 -301.831 -143.502 -439.498s-218.5 -241.834 -368.5 -312.501c57.333 -61.333 147.333 -92 270 -92h52l-66 -307h-72c-82 0 -157.333 10.833 -226 32.5s-122.5 46.167 -161.5 73.5s-73.5 58.833 -103.5 94.5s-49.167 61.667 -57.5 78
s-14.5 29.833 -18.5 40.5c-211.333 5.33301 -386.666 74 -525.999 206s-209 290 -209 474c0 221.333 87.333 415.666 262 582.999s377.334 251 608.001 251c217.333 0 398.333 -66.833 543 -200.5s217 -294.167 217 -481.5zM984.998 1126
c-121.333 0 -227.5 -45.667 -318.5 -137s-136.5 -199 -136.5 -323c0 -102.667 34.167 -188.167 102.5 -256.5s155.833 -102.5 262.5 -102.5c120 0 225.833 44.333 317.5 133s137.5 198 137.5 328c0 101.333 -34.167 186.333 -102.5 255s-155.833 103 -262.5 103z" />
    <glyph glyph-name="R" unicode="R" horiz-adv-x="1474" 
d="M72 0l303 1434h643c131.333 0 241.333 -42.333 330 -127s133 -184.334 133 -299.001c0 -72.667 -12 -139 -36 -199s-53 -106.833 -87 -140.5s-67.833 -62.334 -101.5 -86.001s-62.167 -39.5 -85.5 -47.5l-36 -13l186 -522h-401l-150 451h-215l-94 -451h-389zM897 799.002
c49.333 0 92.667 15 130 45s56 69.667 56 119c0 34 -12.167 62.833 -36.5 86.5s-56.5 35.5 -96.5 35.5h-260l-61 -286h268z" />
    <glyph glyph-name="S" unicode="S" 
d="M571 287c52 0 96.498 11.501 133.498 34.501s55.5 59.167 55.5 108.5c0 28.667 -19.167 56 -57.5 82s-84.5 51.333 -138.5 76s-107.833 52.667 -161.5 84s-99.667 74 -138 128s-57.5 115.667 -57.5 185c0 135.333 54.167 250.833 162.5 346.5s255.5 143.5 441.5 143.5
c65.333 0 127 -7.16699 185 -21.5s105.5 -31.5 142.5 -51.5s69.5 -39.833 97.5 -59.5s47.333 -37.167 58 -52.5l19 -20l-262 -226c-6.66699 8 -17 17.667 -31 29s-41.333 26.5 -82 45.5s-82.334 28.5 -125.001 28.5c-49.333 0 -89.666 -11.333 -120.999 -34
s-47 -50.334 -47 -83.001c0 -28.667 18.833 -55.667 56.5 -81s83.834 -49.5 138.501 -72.5s108.834 -49.833 162.501 -80.5s99.334 -72.667 137.001 -126s56.5 -115 56.5 -185c0 -154 -55 -280.167 -165 -378.5s-262.667 -147.5 -458 -147.5
c-70.667 0 -138.834 8.5 -204.501 25.5s-120.334 37.5 -164.001 61.5s-82.167 48 -115.5 72s-57.666 44.667 -72.999 62l-24 25l264 227c4 -4 9.16699 -9 15.5 -15s20.333 -17.667 42 -35s44.167 -32.5 67.5 -45.5s52.333 -24.5 87 -34.5s69 -15 103 -15z" />
    <glyph glyph-name="T" unicode="T" horiz-adv-x="1269" 
d="M252 1434h1188l-74 -349h-399l-230 -1085h-389l230 1085h-400z" />
    <glyph glyph-name="U" unicode="U" horiz-adv-x="1617" 
d="M797 307c70.667 0 135.667 27.333 195 82s98 123 116 205l178 840h389l-178 -840c-39.333 -184 -124.666 -335.833 -255.999 -455.5s-289 -179.5 -473 -179.5c-192.667 0 -347 61.833 -463 185.5s-155.667 273.5 -119 449.5l179 840h389l-179 -840
c-16.667 -80.667 -2.33398 -148.667 42.999 -204s105 -83 179 -83z" />
    <glyph glyph-name="V" unicode="V" horiz-adv-x="1474" 
d="M420 0l-209 1434h399l103 -983l512 983h440l-815 -1434h-430z" />
    <glyph glyph-name="W" unicode="W" horiz-adv-x="2191" 
d="M1169 829l-438 -829h-362l-158 1434h399l66 -869l442 869h330l72 -869l430 869h432l-758 -1434h-367z" />
    <glyph glyph-name="X" unicode="X" horiz-adv-x="1443" 
d="M745 481l-387 -481h-450l629 748l-285 686h410l157 -420l334 420h451l-576 -686l313 -748h-409z" />
    <glyph glyph-name="Y" unicode="Y" horiz-adv-x="1402" 
d="M1174 1434h440l-707 -922l-108 -512h-389l108 512l-317 922h399l172 -553z" />
    <glyph glyph-name="Z" unicode="Z" horiz-adv-x="1351" 
d="M852 1085h-592l74 349h1116l-74 -349l-778 -737h643l-74 -348h-1167l74 348z" />
    <glyph glyph-name="bracketleft" unicode="[" horiz-adv-x="808" 
d="M664 1147l-271 -1270h225l-65 -307h-573l399 1884h573l-63 -307h-225z" />
    <glyph glyph-name="backslash" unicode="\" horiz-adv-x="1075" 
d="M504 -430l-228 1884h326l227 -1884h-325z" />
    <glyph glyph-name="bracketright" unicode="]" horiz-adv-x="808" 
d="M178 -123l271 1270h-226l64 307h573l-399 -1884h-572l64 307h225z" />
    <glyph glyph-name="asciicircum" unicode="^" horiz-adv-x="921" 
d="M539 1434h266l143 -625h-278l-62 287l-184 -287h-295z" />
    <glyph glyph-name="underscore" unicode="_" horiz-adv-x="716" 
d="M608 -164l-65 -317h-756l66 317h755z" />
    <glyph glyph-name="grave" unicode="`" horiz-adv-x="665" 
d="M641 1456l98 -330h-286l-174 330h362z" />
    <glyph glyph-name="a" unicode="a" horiz-adv-x="1302" 
d="M596 287c64 0 119.167 25.168 165.5 75.501s69.5 109.166 69.5 176.499c0 49.333 -16.667 91.333 -50 126s-72.333 52 -117 52c-60 0 -113.667 -24.667 -161 -74s-71 -110 -71 -182c0 -48 16.333 -89 49 -123s71 -51 115 -51zM905 868.001l28.999 136h348l-213 -1004
h-348l22 111c-2.66699 -4 -6.66699 -8.83301 -12 -14.5s-16.833 -16 -34.5 -31s-37.167 -28.333 -58.5 -40s-48.666 -22.167 -81.999 -31.5s-68.333 -14 -105 -14c-105.333 0 -195.833 40.833 -271.5 122.5s-113.5 181.167 -113.5 298.5c0 178.667 56.667 327.167 170 445.5
s242.333 177.5 387 177.5c36.667 0 71.667 -5.5 105 -16.5s60.333 -24 81 -39s38.5 -30 53.5 -45s25.833 -27.833 32.5 -38.5z" />
    <glyph glyph-name="b" unicode="b" horiz-adv-x="1300" 
d="M715 717c-64 0 -119.334 -25.332 -166.001 -75.999s-70 -109.334 -70 -176.001c0 -49.333 16.833 -91.333 50.5 -126s72.834 -52 117.501 -52c60 0 113.667 24.5 161 73.5s71 109.833 71 182.5c0 48 -16.333 89 -49 123s-71 51 -115 51zM405.999 135.001l-27 -134.998
h-348l303 1434h348l-115 -541c2.66699 4 6.83398 8.66699 12.501 14s17.334 15.666 35.001 30.999s37.167 28.666 58.5 39.999s48.666 21.833 81.999 31.5s68.333 14.5 105 14.5c105.333 0 195.833 -41 271.5 -123s113.5 -181.667 113.5 -299
c0 -178.667 -56.667 -327 -170 -445s-242.333 -177 -387 -177c-36.667 0 -71.834 5.33301 -105.501 16s-60.667 23.5 -81 38.5s-38 30 -53 45s-25.833 28.167 -32.5 39.5z" />
    <glyph glyph-name="c" unicode="c" horiz-adv-x="1105" 
d="M66 428c0 161.333 63.0039 301 189.004 419s274.333 177 445 177c53.333 0 104.666 -7.16699 153.999 -21.5s89.666 -31.333 120.999 -51s59 -39.5 83 -59.5s41.333 -37.333 52 -52l16 -21l-241 -207c-5.33301 8 -12.833 17.833 -22.5 29.5s-32 27.167 -67 46.5
s-72.167 29 -111.5 29c-70.667 0 -131 -24.333 -181 -73s-75 -109 -75 -181c0 -49.333 16.667 -91 50 -125s76.666 -51 129.999 -51c39.333 0 77.5 9.5 114.5 28.5s64.5 38.167 82.5 57.5l26 26l164 -221c-4 -5.33301 -10.333 -12.5 -19 -21.5s-27.334 -24.667 -56.001 -47
s-59.167 -42.333 -91.5 -60s-74 -33.667 -125 -48s-103.167 -21.5 -156.5 -21.5c-132.667 0 -246 45 -340 135s-141 194.333 -141 313z" />
    <glyph glyph-name="d" unicode="d" horiz-adv-x="1300" 
d="M592 287c64 0 119.166 25.168 165.499 75.501s69.5 109.166 69.5 176.499c0 49.333 -16.667 91.333 -50 126s-72.666 52 -117.999 52c-60 0 -113.5 -24.667 -160.5 -74s-70.5 -110 -70.5 -182c0 -48 16.333 -89 49 -123s71 -51 115 -51zM900.999 868.001l118.996 566h348
l-303 -1434h-348l22 111c-2.66699 -4 -6.66699 -8.83301 -12 -14.5s-16.833 -16 -34.5 -31s-37.167 -28.333 -58.5 -40s-48.666 -22.167 -81.999 -31.5s-68.666 -14 -105.999 -14c-105.333 0 -195.833 40.833 -271.5 122.5s-113.5 181.167 -113.5 298.5
c0 178.667 56.667 327.167 170 445.5s242.333 177.5 387 177.5c36.667 0 71.834 -5.5 105.501 -16.5s60.834 -24 81.501 -39s38.5 -30 53.5 -45s25.833 -27.833 32.5 -38.5z" />
    <glyph glyph-name="e" unicode="e" horiz-adv-x="1187" 
d="M1100 410h-690c9.33301 -46.667 32.833 -84 70.5 -112s85.167 -42 142.5 -42c42 0 83.5 8.16699 124.5 24.5s71.167 32.833 90.5 49.5l28 24l107 -229c-4 -4 -10.167 -9.16699 -18.5 -15.5s-26.5 -18 -54.5 -35s-57 -32 -87 -45s-69.167 -24.5 -117.5 -34.5
s-97.166 -15 -146.499 -15c-136.667 0 -251.834 43.667 -345.501 131s-140.5 191 -140.5 311c0 165.333 62.5 307 187.5 425s271.5 177 439.5 177c130 0 238.333 -38.167 325 -114.5s130 -171.166 130 -284.499c0 -70.667 -15 -142.334 -45 -215.001zM649 758
c-90 0 -158.333 -48.001 -205 -144.001h361c-1.33301 40.667 -16.333 74.834 -45 102.501s-65.667 41.5 -111 41.5z" />
    <glyph glyph-name="f" unicode="f" horiz-adv-x="788" 
d="M848 963l-64.001 -308.001h-215l-139 -655h-348l139 655h-133l64 308h133l22 102c56 259.333 197.333 389 424 389c39.333 0 76.833 -2.66699 112.5 -8s61.834 -10.666 78.501 -15.999l24 -7l-63 -297c-24.667 13.333 -57.667 20.333 -99 21
c-35.333 0 -64.5 -9.16699 -87.5 -27.5s-38.167 -43.5 -45.5 -75.5l-18 -81h215z" />
    <glyph glyph-name="g" unicode="g" horiz-adv-x="1269" 
d="M719 113l13.999 58.999c-2.66699 -4 -7 -8.66699 -13 -14s-19 -15.666 -39 -30.999s-40.833 -28.666 -62.5 -39.999s-50 -21.833 -85 -31.5s-70.167 -14.5 -105.5 -14.5c-94 0 -177.167 40.333 -249.5 121s-108.5 175.334 -108.5 284.001c0 157.333 54.5 293 163.5 407
s227.167 171 354.5 171c58.667 0 112.167 -13 160.5 -39s82.833 -52 103.5 -78l29 -39l28 136h348l-190 -891c-32.667 -152.667 -108.834 -281.334 -228.501 -386.001s-259.167 -157 -418.5 -157c-60 0 -117 7.5 -171 22.5s-98 32.667 -132 53s-64 41.166 -90 62.499
s-44.667 39.333 -56 54l-18 23l231 201c5.33301 -8 13.5 -19 24.5 -33s36.333 -31.833 76 -53.5s84.167 -32.5 133.5 -32.5c76.667 0 141.834 22.5 195.501 67.5s88.834 104.5 105.501 178.5zM650.999 716.999c-56 0 -105.833 -20.832 -149.5 -62.499
s-65.5 -92.5 -65.5 -152.5c0 -42 15.333 -78.167 46 -108.5s68 -45.5 112 -45.5c58.667 0 109.5 21.167 152.5 63.5s64.5 92.166 64.5 149.499c0 42 -15.667 78.5 -47 109.5s-69 46.5 -113 46.5z" />
    <glyph glyph-name="h" unicode="h" horiz-adv-x="1259" 
d="M682 1434l-114.998 -543.001c8 9.33301 20 21.5 36 36.5s49.5 34.833 100.5 59.5s103.833 37 158.5 37c91.333 0 165.666 -29 222.999 -87s86 -135.333 86 -232c0 -35.333 -4 -72.333 -12 -111l-125 -594h-348l113 532c2.66699 19.333 4 32.333 4 39
c0 38 -12 68.333 -36 91s-53.667 34 -89 34c-46.667 0 -87.334 -18.667 -122.001 -56s-59 -86.666 -73 -147.999l-104 -492h-348l303 1434h348z" />
    <glyph glyph-name="i" unicode="i" horiz-adv-x="614" 
d="M592 1004l-213 -1004h-348l213 1004h348zM276 1278c0 53.333 21.1689 101.166 63.502 143.499s93.833 63.5 154.5 63.5c53.333 0 96.666 -16 129.999 -48s50 -70.667 50 -116c0 -54.667 -21.5 -102.5 -64.5 -143.5s-93.167 -61.5 -150.5 -61.5
c-54.667 0 -98.834 15.333 -132.501 46s-50.5 69.334 -50.5 116.001z" />
    <glyph glyph-name="j" unicode="j" horiz-adv-x="614" 
d="M31 0l212.999 1004h348l-225 -1055c-24.667 -116 -77 -208.167 -157 -276.5s-174 -102.5 -282 -102.5c-35.333 0 -69.333 2.66699 -102 8s-56.667 10.666 -72 15.999l-22 7l65 307c31.333 -13.333 64.333 -20.333 99 -21c30 0 58.333 11.333 85 34s43.334 49 50.001 79z
M275.999 1278c0 53.333 21.1689 101.166 63.502 143.499s93.833 63.5 154.5 63.5c53.333 0 96.666 -16 129.999 -48s50 -70.667 50 -116c0 -54.667 -21.5 -102.5 -64.5 -143.5s-93.167 -61.5 -150.5 -61.5c-54.667 0 -98.834 15.333 -132.501 46s-50.5 69.334 -50.5 116.001
z" />
    <glyph glyph-name="k" unicode="k" horiz-adv-x="1177" 
d="M827 567l258 -567h-370l-162 358l-123 -110l-51 -248h-348l303 1434h348l-162 -766l354 336h414z" />
    <glyph glyph-name="l" unicode="l" horiz-adv-x="614" 
d="M682 1434l-303 -1434h-348l303 1434h348z" />
    <glyph glyph-name="m" unicode="m" horiz-adv-x="1822" 
d="M1249 0l113 531.999c9.33301 50.667 4.83301 89 -13.5 115s-48.833 39 -91.5 39c-36.667 0 -71 -17.333 -103 -52s-54.333 -82 -67 -142l-104 -492h-348l113 532c9.33301 50.667 4.83301 89 -13.5 115s-48.833 39 -91.5 39c-36.667 0 -71 -17.333 -103 -52
s-54.333 -82 -67 -142l-104 -492h-349l213 1004h349l-25 -113c6.66699 9.33301 16.5 21.5 29.5 36.5s42.333 34.833 88 59.5s94.5 37 146.5 37c38 0 73.167 -5.5 105.5 -16.5s57.666 -24.667 75.999 -41s34 -32.666 47 -48.999s22.167 -29.833 27.5 -40.5l6 -17
c10.667 12 25.667 27.333 45 46s59.333 43 120 73s123.334 45 188.001 45c108 0 189.833 -38.5 245.5 -115.5s69.167 -181.833 40.5 -314.5l-125 -594h-348z" />
    <glyph glyph-name="n" unicode="n" 
d="M582 1004l-24.999 -113.001c8 9.33301 19.833 21.5 35.5 36.5s49.167 34.833 100.5 59.5s104.333 37 159 37c91.333 0 165.666 -29 222.999 -87s86 -135.333 86 -232c0 -35.333 -4 -72.333 -12 -111l-125 -594h-348l112 532c2.66699 19.333 4.33398 32.333 5.00098 39
c0 38 -12 68.333 -36 91s-53.667 34 -89 34c-46.667 0 -87.334 -18.667 -122.001 -56s-59 -86.666 -73 -147.999l-104 -492h-349l213 1004h349z" />
    <glyph glyph-name="o" unicode="o" 
d="M657 717c-60 0 -113.167 -25.666 -159.5 -76.999s-69.5 -108.333 -69.5 -171c0 -52 16 -95.333 48 -130s72.667 -52 122 -52c57.333 0 109.833 24.833 157.5 74.5s71.5 108.167 71.5 175.5c0 53.333 -16 96.666 -48 129.999s-72.667 50 -122 50zM1192 547.001
c0 -150 -61.167 -282 -183.5 -396s-263.166 -171 -422.499 -171c-151.333 0 -275.833 47.333 -373.5 142s-146.5 207 -146.5 337c0 148.667 60.667 280 182 394s262.666 171 423.999 171c151.333 0 275.833 -47 373.5 -141s146.5 -206 146.5 -336z" />
    <glyph glyph-name="p" unicode="p" horiz-adv-x="1290" 
d="M705 717c-64 0 -119.332 -25.332 -165.999 -75.999s-70 -109.334 -70 -176.001c0 -49.333 16.667 -91.333 50 -126s72.666 -52 117.999 -52c60 0 113.5 24.5 160.5 73.5s70.5 109.833 70.5 182.5c0 48 -16.167 89 -48.5 123s-70.5 51 -114.5 51zM395.001 135.001
l-119.002 -564.998h-348l305 1434h349l-25 -111c2.66699 4 6.83398 8.66699 12.501 14s17.334 15.666 35.001 30.999s37 28.666 58 39.999s48.333 21.833 82 31.5s68.834 14.5 105.501 14.5c105.333 0 195.833 -41 271.5 -123s113.5 -181.667 113.5 -299
c0 -178.667 -56.667 -327 -170 -445s-242.333 -177 -387 -177c-36.667 0 -71.834 5.33301 -105.501 16s-60.667 23.5 -81 38.5s-38 30 -53 45s-25.833 28.167 -32.5 39.5z" />
    <glyph glyph-name="q" unicode="q" horiz-adv-x="1290" 
d="M592 287c64 0 119.166 25.168 165.499 75.501s69.5 109.166 69.5 176.499c0 49.333 -16.667 91.333 -50 126s-72.666 52 -117.999 52c-60 0 -113.5 -24.667 -160.5 -74s-70.5 -110 -70.5 -182c0 -48 16.333 -89 49 -123s71 -51 115 -51zM900.999 868.001l26.9961 136h348
l-303 -1434h-348l114 541c-2.66699 -4 -6.66699 -8.83301 -12 -14.5s-16.833 -16 -34.5 -31s-37.167 -28.333 -58.5 -40s-48.666 -22.167 -81.999 -31.5s-68.666 -14 -105.999 -14c-105.333 0 -195.833 40.833 -271.5 122.5s-113.5 181.167 -113.5 298.5
c0 178.667 56.667 327.167 170 445.5s242.333 177.5 387 177.5c36.667 0 71.834 -5.5 105.501 -16.5s60.834 -24 81.501 -39s38.5 -30 53.5 -45s25.833 -27.833 32.5 -38.5z" />
    <glyph glyph-name="r" unicode="r" horiz-adv-x="829" 
d="M825 655c-24.667 13.333 -57.333 20.333 -98 21c-66.667 0 -124 -22.5 -172 -67.5s-80.667 -107.833 -98 -188.5l-88 -420h-349l213 1004h349l-25 -115c9.33301 9.33301 22.333 20.833 39 34.5s51.167 32.167 103.5 55.5s105.833 35 160.5 35h41z" />
    <glyph glyph-name="s" unicode="s" horiz-adv-x="962" 
d="M983 870l-208.999 -182c-40.667 39.333 -88.334 59.333 -143.001 60c-30 0 -53.5 -5.83301 -70.5 -17.5s-25.5 -26.5 -25.5 -44.5c0 -13.333 11.833 -26.833 35.5 -40.5s52.667 -27.667 87 -42s68.166 -31.5 101.499 -51.5s62 -47.667 86 -83s36 -76.333 36 -123
c0 -105.333 -42 -192.666 -126 -261.999s-201.333 -104 -352 -104c-58.667 0 -113.834 6.66699 -165.501 20s-93.667 29.666 -126 48.999s-60 38.166 -83 56.499s-39.167 34.5 -48.5 48.5l-15 20l209 180c4 -6.66699 10.833 -15.5 20.5 -26.5s30.167 -25.667 61.5 -44
s65.333 -27.5 102 -27.5c30 0 53.667 5.83301 71 17.5s26 26.167 26 43.5c0 13.333 -12 27 -36 41s-52.667 28.167 -86 42.5s-67.166 31.333 -101.499 51s-63.333 47.334 -87 83.001s-35.5 76.5 -35.5 122.5c0 105.333 41.833 192.833 125.5 262.5
s200.834 104.5 351.501 104.5c79.333 0 152 -13 218 -39s112 -51.333 138 -76z" />
    <glyph glyph-name="t" unicode="t" horiz-adv-x="870" 
d="M379 1116l36.998 174h307l-64 -307h205l-65 -307h-205l-62 -287c-15.333 -68 11.334 -102 80.001 -102c16.667 0 34.834 1.66699 54.501 5s35.167 7 46.5 11l16 4l-61 -297c-57.333 -20.667 -123.666 -30.667 -198.999 -30c-114.667 0 -198.334 33.333 -251.001 100
s-65.334 163 -38.001 289l66 307h-154l66 307h71c36.667 0 68.834 12 96.501 36s45.5 56.333 53.5 97z" />
    <glyph glyph-name="u" unicode="u" horiz-adv-x="1259" 
d="M676 0l19.999 102.001c-8 -9.33301 -19.167 -20.833 -33.5 -34.5s-46 -31.667 -95 -54s-100.833 -33.5 -155.5 -33.5c-94 0 -170.833 28.667 -230.5 86s-89.5 133.666 -89.5 228.999c0 32.667 4 67.334 12 104.001l129 605h349l-117 -543
c-2.66699 -16.667 -4 -28.334 -4 -35.001c0 -36.667 10.833 -65.667 32.5 -87s51.167 -32 88.5 -32c46.667 0 88.334 16.833 125.001 50.5s61 78.5 73 134.5l109 512h348l-213 -1004h-348z" />
    <glyph glyph-name="v" unicode="v" horiz-adv-x="1105" 
d="M635 0h-369l-155 1004h352l61 -584l307 584h386z" />
    <glyph glyph-name="w" unicode="w" horiz-adv-x="1617" 
d="M780 1004h252l55 -512l273 512h369l-558 -1004h-294l-68 489l-272 -489h-295l-131 1004h342l55 -512z" />
    <glyph glyph-name="x" unicode="x" horiz-adv-x="1085" 
d="M510 287l-234 -287h-378l426 512l-193 492h365l88 -267l200 267h392l-402 -492l209 -512h-358z" />
    <glyph glyph-name="y" unicode="y" horiz-adv-x="1105" 
d="M231 -20l37.002 49.001l-157 975h352l63 -584l310 584h381l-592 -1004c-88.667 -150 -174 -259.167 -256 -327.5s-171 -102.5 -267 -102.5c-32.667 0 -65.334 2.66699 -98.001 8s-57.334 10.666 -74.001 15.999l-24 7l63 307c26 -13.333 59.667 -20.333 101 -21
c65.333 0.666992 119 31.667 161 93z" />
    <glyph glyph-name="z" unicode="z" horiz-adv-x="1044" 
d="M1063 1004l-66 -308l-493 -389h430l-64 -307h-901l64 307l495 389h-391l66 308h860z" />
    <glyph glyph-name="braceleft" unicode="{" horiz-adv-x="880" 
d="M86 358l65.9971 307.997c40.667 0 77.334 13.667 110.001 41s53.334 61.333 62.001 102l53 246c57.333 266 198 399 422 399h225l-70 -328h-92c-31.333 0 -60.333 -11.5 -87 -34.5s-43.334 -52.167 -50.001 -87.5l-49 -226c-8 -42 -21.667 -79.833 -41 -113.5
s-39.5 -59.667 -60.5 -78s-41.167 -33.666 -60.5 -45.999s-35 -20.5 -47 -24.5l-21 -4c2.66699 0 5.83398 -0.666992 9.50098 -2s11.334 -5.16602 23.001 -11.499s21.5 -13.166 29.5 -20.499s17.833 -18.166 29.5 -32.499s19.5 -30.333 23.5 -48s7.33301 -39.5 10 -65.5
s0 -54.667 -8 -86l-47 -226c-8 -35.333 -3.5 -64.5 13.5 -87.5s41.167 -34.5 72.5 -34.5h92l-69 -328h-185c-116 0 -201 34.167 -255 102.5s-67.333 167.166 -40 296.499l54 246c8 40.667 1.33301 74.667 -20 102s-52.333 41 -93 41z" />
    <glyph glyph-name="bar" unicode="|" horiz-adv-x="829" 
d="M809 1454l-399 -1884h-359l400 1884h358z" />
    <glyph glyph-name="braceright" unicode="}" horiz-adv-x="880" 
d="M827 666l-65 -307.999c-40.667 0 -77.834 -13.667 -111.501 -41s-54.5 -61.333 -62.5 -102l-53 -246c-56 -266 -196.667 -399 -422 -399h-224l68 328h92c31.333 0 60.333 11.5 87 34.5s44 52.167 52 87.5l48 226c8 42 21.5 79.833 40.5 113.5s39.167 59.667 60.5 78
s41.833 33.666 61.5 45.999s35.5 20.5 47.5 24.5l21 4c-4 1.33301 -9.5 3.33301 -16.5 6s-20 10.167 -39 22.5s-33 27.666 -42 45.999s-17.833 44 -26.5 77s-7 71.167 5 114.5l49 226c6.66699 35.333 1.5 64.5 -15.5 87.5s-41.167 34.5 -72.5 34.5h-92l70 328h184
c116 0 201 -34.167 255 -102.5s67.333 -167.166 40 -296.499l-53 -246c-8 -40.667 -1.16699 -74.667 20.5 -102s52.834 -41 93.501 -41z" />
    <glyph glyph-name="asciitilde" unicode="~" horiz-adv-x="1187" 
d="M467 512c-32.667 0 -66.168 -7.50195 -100.501 -22.502s-60.166 -30.833 -77.499 -47.5l-27 -22l-182 153c2.66699 6.66699 7 15.167 13 25.5s19.667 29.166 41 56.499s44.333 51.333 69 72s57 39.5 97 56.5s82 25.5 126 25.5c65.333 0 133.166 -17 203.499 -51
s125.5 -51 165.5 -51c32.667 0 66 7.83301 100 23.5s59.333 30.834 76 45.501l26 23l183 -154c-2.66699 -6.66699 -7.16699 -15.167 -13.5 -25.5s-20 -29.166 -41 -56.499s-43.833 -51.166 -68.5 -71.499s-57.167 -39 -97.5 -56s-82.166 -25.5 -125.499 -25.5
c-65.333 0 -133 17 -203 51s-124.667 51 -164 51z" />
    <glyph glyph-name="uni00A0" unicode="&#xa0;" horiz-adv-x="430" 
 />
    <glyph glyph-name="exclamdown" unicode="&#xa1;" horiz-adv-x="675" 
d="M219 553h287l-148 -983h-409zM612 862c0 -53.333 -21.168 -101.166 -63.501 -143.499s-93.5 -63.5 -153.5 -63.5c-53.333 0 -96.666 16.167 -129.999 48.5s-50 70.833 -50 115.5c0 54.667 21.5 102.5 64.5 143.5s93.167 61.5 150.5 61.5c54.667 0 98.667 -15.333 132 -46
s50 -69.334 50 -116.001z" />
    <glyph glyph-name="cent" unicode="&#xa2;" horiz-adv-x="1085" 
d="M973 156c-8 -9.33301 -20.3311 -20.999 -36.998 -34.999s-50.834 -35.667 -102.501 -65s-104.834 -50 -159.501 -62l-43 -199h-318l47 219c-88.667 35.333 -159.834 91.666 -213.501 168.999s-80.5 161.666 -80.5 252.999c0 136.667 48 259 144 367s216.333 177 361 207
l41 188h318l-43 -203c45.333 -15.333 86.333 -35.833 123 -61.5s62.334 -47.5 77.001 -65.5l23 -28l-240 -205c-4 5.33301 -10.333 12.833 -19 22.5s-29.167 22 -61.5 37s-68.166 22.5 -107.499 22.5c-70.667 0 -130.667 -24.333 -180 -73s-74 -109 -74 -181
c0 -49.333 16.667 -91 50 -125s76.666 -51 129.999 -51c38 0 73.5 7.83301 106.5 23.5s56.833 30.834 71.5 45.501l21 25z" />
    <glyph glyph-name="sterling" unicode="&#xa3;" horiz-adv-x="1228" 
d="M352 983c31.333 152.667 96.168 272.833 194.501 360.5s225.5 131.5 381.5 131.5c53.333 0 105.166 -6.83301 155.499 -20.5s91.833 -30.167 124.5 -49.5s61.334 -38.166 86.001 -56.499s42.667 -34.5 54 -48.5l18 -20l-305 -246c-36.667 48 -89.334 72 -158.001 72
c-45.333 0 -86 -15.667 -122 -47s-59.333 -69.666 -70 -114.999l-25 -125h318l-54 -246h-317l-27 -122c-5.33301 -24.667 -12.833 -46.334 -22.5 -65.001s-18.5 -31.334 -26.5 -38.001l-10 -10h610l-72 -338h-1065l72 338c38 0 70 10.167 96 30.5s42.667 47.833 50 82.5
l26 122h-123l54 246h122z" />
    <glyph glyph-name="currency" unicode="&#xa4;" horiz-adv-x="1474" 
d="M707 819h237c52 0 95.667 16.5 131 49.5s53 73.833 53 122.5c0 32.667 -11.5 60 -34.5 82s-54.5 33 -94.5 33h-233zM924 543h-277l-20 -92h409l-57 -277h-410l-37 -174h-389l37 174h-143l57 277h144l20 92h-143l59 276h143l129 615h611c138 0 251 -40.333 339 -121
s132 -175 132 -283c0 -144.667 -55.333 -262 -166 -352s-256.667 -135 -438 -135z" />
    <glyph glyph-name="yen" unicode="&#xa5;" horiz-adv-x="1402" 
d="M1192 502h-287l-18 -82h287l-54 -256h-286l-35 -164h-389l34 164h-286l53 256h287l18 82h-287l54 256h149l-231 676h399l170 -553l404 553h440l-520 -676h151z" />
    <glyph glyph-name="brokenbar" unicode="&#xa6;" horiz-adv-x="829" 
d="M217 348h358l-165 -778h-359zM645 676h-358l164 778h358z" />
    <glyph glyph-name="section" unicode="&#xa7;" horiz-adv-x="1157" 
d="M1180 1311l-212.999 -173.997c-40.667 42 -91.334 63 -152.001 63c-35.333 0 -62.5 -8.5 -81.5 -25.5s-28.5 -38.5 -28.5 -64.5c0 -20.667 13.5 -41.167 40.5 -61.5s60 -40.833 99 -61.5s78 -43.834 117 -69.501s72.167 -59 99.5 -100s41 -87.5 41 -139.5
c0 -44 -8.5 -85.333 -25.5 -124s-37.5 -70.334 -61.5 -95.001s-48.667 -46.167 -74 -64.5s-45.833 -31.666 -61.5 -39.999s-24.834 -12.5 -27.501 -12.5c8 -6.66699 17.833 -15.834 29.5 -27.501s27.334 -36 47.001 -73s29.5 -74.5 29.5 -112.5
c0 -105.333 -47.333 -194.166 -142 -266.499s-220 -108.5 -376 -108.5c-60 0 -115.833 7.5 -167.5 22.5s-93.334 32.833 -125.001 53.5s-59 41.5 -82 62.5s-39.5 39.167 -49.5 54.5l-14 22l205 170c5.33301 -8 13.833 -18.167 25.5 -30.5s35.834 -28.333 72.501 -48
s75 -29.5 115 -29.5c46.667 0 81.834 10.5 105.501 31.5s35.5 49.167 35.5 84.5c0 24.667 -14.667 48.667 -44 72s-64.833 45.833 -106.5 67.5s-83 45.5 -124 71.5s-76.167 59.5 -105.5 100.5s-44 87.5 -44 139.5c0 44 8.5 84.667 25.5 122s37.833 67.666 62.5 90.999
s49.334 43.5 74.001 60.5s45 28.833 61 35.5l27 11c-6.66699 5.33301 -14.834 13.833 -24.501 25.5s-22.667 34.834 -39 69.501s-24.5 69.667 -24.5 105c0 95.333 45.667 178.666 137 249.999s211 107 359 107c52 0 100.5 -5.5 145.5 -16.5s81.5 -24.667 109.5 -41
s52.167 -32.833 72.5 -49.5s35.166 -30.334 44.499 -41.001zM657.001 492.003c28.667 8 53.667 23.1689 75 45.502s32 49.333 32 81s-15 60.667 -45 87s-60 45.166 -90 56.499l-45 16c-28.667 -8 -53.667 -23.333 -75 -46s-32 -49.667 -32 -81s15 -60.333 45 -87
s60 -45.334 90 -56.001z" />
    <glyph glyph-name="dieresis" unicode="&#xa8;" horiz-adv-x="942" 
d="M242 1286c0 48 20.5 91.5 61.5 130.5s86.5 58.5 136.5 58.5c44 0 81 -15.833 111 -47.5s45 -68.5 45 -110.5c0 -49.333 -20.5 -93.5 -61.5 -132.5s-86.833 -58.5 -137.5 -58.5c-44 0 -80.833 16.167 -110.5 48.5s-44.5 69.5 -44.5 111.5zM713 1286
c0 48 20.5 91.5 61.5 130.5s86.5 58.5 136.5 58.5c44 0 81 -15.833 111 -47.5s45 -68.5 45 -110.5c0 -49.333 -20.5 -93.5 -61.5 -132.5s-86.833 -58.5 -137.5 -58.5c-44 0 -80.833 16.167 -110.5 48.5s-44.5 69.5 -44.5 111.5z" />
    <glyph glyph-name="copyright" unicode="&#xa9;" horiz-adv-x="1781" 
d="M541 653c0 128.667 48.332 239.666 144.999 332.999s212.667 140 348 140c44 0 84.333 -5.33301 121 -16s66.334 -24.334 89.001 -41.001s42.167 -33.167 58.5 -49.5s27.833 -29.833 34.5 -40.5l11 -16l-166 -138c-2.66699 6.66699 -7.83398 14.834 -15.501 24.501
s-25.5 22.334 -53.5 38.001s-60.333 23.5 -97 23.5c-58.667 0 -112.667 -23.5 -162 -70.5s-74 -99.167 -74 -156.5c0 -44 15.667 -82 47 -114s69.666 -48 114.999 -48c36.667 0 70.834 8.5 102.501 25.5s54.167 34.5 67.5 52.5l21 27l116 -152
c-2.66699 -4 -7 -9.83301 -13 -17.5s-20 -21.334 -42 -41.001s-45.333 -36.667 -70 -51s-57 -27.666 -97 -39.999s-82 -18.5 -126 -18.5c-101.333 0 -186.666 34.167 -255.999 102.5s-104 149.5 -104 243.5zM1018 1290c-170.667 0 -323 -63.167 -457 -189.5
s-201 -273.5 -201 -441.5c0 -140.667 50.333 -262.167 151 -364.5s224 -153.5 370 -153.5c173.333 0 325.833 64.167 457.5 192.5s197.5 275.833 197.5 442.5c0 140.667 -49.833 261.5 -149.5 362.5s-222.5 151.5 -368.5 151.5zM1745 798.999
c0 -108 -22.8359 -213.166 -68.5029 -315.499s-107.167 -191.833 -184.5 -268.5s-170.166 -138.5 -278.499 -185.5s-222.166 -70.5 -341.499 -70.5c-211.333 0 -384.166 65.5 -518.499 196.5s-201.5 290.833 -201.5 479.5c0 229.333 86.333 426.666 259 591.999
s377 248 613 248c211.333 0 384.333 -65.167 519 -195.5s202 -290.5 202 -480.5z" />
    <glyph glyph-name="ordfeminine" unicode="&#xaa;" horiz-adv-x="792" 
d="M610 1065l-128.999 -31c-18 -4 -33.667 -12.833 -47 -26.5s-20 -28.5 -20 -44.5c0 -27.333 19 -41 57 -41c26 0 53.667 12.833 83 38.5s46.666 53.5 51.999 83.5zM350.001 758c-53.333 0 -96 15.998 -128 47.998s-48 75.333 -48 130c0 60 23.833 110.5 71.5 151.5
s111.834 67.5 192.501 79.5l201 31v8c0 35.333 -26.667 53.333 -80 54c-30 0 -59 -5.16699 -87 -15.5s-48 -21.166 -60 -32.499l-19 -16l-104 135c8 9.33301 19.833 20.833 35.5 34.5s50.5 31.834 104.5 54.501s111.667 34 173 34c82 0 146.167 -19.167 192.5 -57.5
s69.5 -91.5 69.5 -159.5c0 -27.333 -2.66699 -54 -8 -80l-82 -379h-225l16 72c-5.33301 -6.66699 -13.833 -15.167 -25.5 -25.5s-36.334 -24 -74.001 -41s-76.167 -25.5 -115.5 -25.5z" />
    <glyph glyph-name="guillemotleft" unicode="&#xab;" horiz-adv-x="1218" 
d="M1249 860l-360 -383l178 -354h-315l-187 369l344 368h340zM768 860l-360 -383l178 -354h-316l-186 369l344 368h340z" />
    <glyph glyph-name="logicalnot" unicode="&#xac;" horiz-adv-x="1003" 
d="M1024 870l-115 -542h-307l49 235h-553l66 307h860z" />
    <glyph glyph-name="uni00AD" unicode="&#xad;" horiz-adv-x="890" 
d="M887 758l-66 -307h-747l65 307h748z" />
    <glyph glyph-name="registered" unicode="&#xae;" horiz-adv-x="1781" 
d="M1124 625l103 -297.001h-240l-76 225h-77l-48 -225h-235l164 778h354c69.333 0 127 -23.167 173 -69.5s69 -101.166 69 -164.499c0 -56 -15.667 -104.667 -47 -146s-62.333 -69 -93 -83zM905 890.999l-26 -123h106c22 0 41.167 7.16699 57.5 21.5s24.5 30.5 24.5 48.5
c0 15.333 -5.5 28 -16.5 38s-25.167 15 -42.5 15h-103zM1018 1290c-170.667 0 -323 -63.167 -457 -189.5s-201 -273.5 -201 -441.5c0 -140.667 50.333 -262.167 151 -364.5s224 -153.5 370 -153.5c173.333 0 325.833 64.167 457.5 192.5s197.5 275.833 197.5 442.5
c0 140.667 -49.833 261.5 -149.5 362.5s-222.5 151.5 -368.5 151.5zM1745 798.999c0 -108 -22.8359 -213.166 -68.5029 -315.499s-107.167 -191.833 -184.5 -268.5s-170.166 -138.5 -278.499 -185.5s-222.166 -70.5 -341.499 -70.5c-211.333 0 -384.166 65.5 -518.499 196.5
s-201.5 290.833 -201.5 479.5c0 229.333 86.333 426.666 259 591.999s377 248 613 248c211.333 0 384.333 -65.167 519 -195.5s202 -290.5 202 -480.5z" />
    <glyph glyph-name="macron" unicode="&#xaf;" horiz-adv-x="798" 
d="M963 1495l-58 -266h-676l58 266h676z" />
    <glyph glyph-name="degree" unicode="&#xb0;" horiz-adv-x="819" 
d="M571 1251c-31.333 0 -60.667 -12.832 -88 -38.499s-41 -55.834 -41 -90.501c0 -28.667 9.66699 -52.5 29 -71.5s43.333 -28.5 72 -28.5c34 0 64.333 13 91 39s40 56 40 90c0 28.667 -9.66699 52.5 -29 71.5s-44 28.5 -74 28.5zM900.999 1159
c0 -88.667 -38.168 -167.501 -114.501 -236.501s-163.166 -103.5 -260.499 -103.5c-88.667 0 -163 29 -223 87s-90 126.667 -90 206c0 88.667 37.5 167.834 112.5 237.501s162.5 104.5 262.5 104.5c90 0 164.667 -29.333 224 -88s89 -127.667 89 -207z" />
    <glyph glyph-name="plusminus" unicode="&#xb1;" horiz-adv-x="1085" 
d="M440 676h-317l67 317h318l61 297h308l-62 -297h318l-68 -317h-317l-64 -297h-307zM-20 0l59 287h942l-59 -287h-942z" />
    <glyph glyph-name="uni00B2" unicode="&#xb2;" horiz-adv-x="696" 
d="M848 1452c0 -48 -11.3359 -90.333 -34.0029 -127s-48 -64.667 -76 -84s-61 -40.833 -99 -64.5s-65.333 -43.834 -82 -60.501h211l-45 -215h-563c13.333 66.667 37.166 125.334 71.499 176.001s70.833 90 109.5 118s76.5 52.5 113.5 73.5s67.5 41.5 91.5 61.5s36 41 36 63
c0 27.333 -17.333 41 -52 41c-15.333 0 -30.666 -5.5 -45.999 -16.5s-26.333 -22.167 -33 -33.5l-13 -14l-176 80c2.66699 5.33301 6.83398 12.5 12.501 21.5s18 24.667 37 47s39.833 42.5 62.5 60.5s53.334 34.167 92.001 48.5s79.334 21.5 122.001 21.5
c78 0 140.833 -18.833 188.5 -56.5s71.5 -84.5 71.5 -140.5z" />
    <glyph glyph-name="uni00B3" unicode="&#xb3;" horiz-adv-x="706" 
d="M702 1282c6.66699 -2.66699 15.167 -6.66699 25.5 -12s24.166 -19.666 41.499 -42.999s26 -50 26 -80c0 -70.667 -30.833 -131 -92.5 -181s-141.5 -75 -239.5 -75c-65.333 0 -123 11.167 -173 33.5s-83.333 44.5 -100 66.5l-24 33l145 127c35.333 -44 84 -66 146 -66
c24.667 0 45.167 7.16699 61.5 21.5s24.5 30.5 24.5 48.5c0 35.333 -28 53 -84 53h-70l35 164h72c54.667 0 82 17.667 82 53c0 26 -22 39 -66 39c-18 0 -37.5 -5 -58.5 -15s-36.833 -20 -47.5 -30l-19 -14l-92 131c6.66699 8 16.834 18.167 30.501 30.5
s46.167 29.166 97.5 50.499s107 32 167 32c75.333 0 136.166 -19.5 182.499 -58.5s69.5 -82.5 69.5 -130.5c0 -15.333 -1.83301 -29.333 -5.5 -42s-8.16699 -24.5 -13.5 -35.5s-11.333 -21 -18 -30s-14.167 -16.833 -22.5 -23.5s-16.166 -12.667 -23.499 -18
s-14.5 -9.83301 -21.5 -13.5s-13.167 -6.5 -18.5 -8.5s-9.33301 -3.66699 -12 -5z" />
    <glyph glyph-name="acute" unicode="&#xb4;" horiz-adv-x="665" 
d="M203 1126l241 330h377l-317 -330h-301z" />
    <glyph glyph-name="mu" unicode="&#xb5;" horiz-adv-x="1259" 
d="M1227 1004l-136.999 -645.999c-10.667 -40.667 5 -61 47 -61l43 10l-62 -297c-36.667 -20.667 -82.334 -30.667 -137.001 -30c-64 0 -114.5 12.833 -151.5 38.5s-58.167 50.834 -63.5 75.501l-8 39c-4 -4 -9.83301 -9.5 -17.5 -16.5s-24.167 -19.333 -49.5 -37
s-51.666 -33.334 -78.999 -47.001s-61.833 -25.834 -103.5 -36.501s-83.5 -16 -125.5 -16h-21l-86 -410h-348l305 1434h349l-115 -533c-9.33301 -49.333 -2.83301 -89 19.5 -119s54.666 -45 96.999 -45s81 17.167 116 51.5s58.5 78.833 70.5 133.5l109 512h348z" />
    <glyph glyph-name="paragraph" unicode="&#xb6;" horiz-adv-x="1372" 
d="M313 -205l185 859.999c-90 0 -165.167 33.833 -225.5 101.5s-90.5 145.834 -90.5 234.501c0 117.333 49.5 220.5 148.5 309.5s209.5 133.5 331.5 133.5h757l-348 -1639h-307l274 1290h-143l-274 -1290h-308z" />
    <glyph glyph-name="periodcentered" unicode="&#xb7;" horiz-adv-x="430" 
d="M31 489c0 53.333 21.168 101.168 63.501 143.501s93.5 63.5 153.5 63.5c53.333 0 96.666 -16 129.999 -48s50 -70.667 50 -116c0 -54.667 -21.5 -102.334 -64.5 -143.001s-93.167 -61 -150.5 -61c-54.667 0 -98.667 15.167 -132 45.5s-50 68.833 -50 115.5z" />
    <glyph glyph-name="cedilla" unicode="&#xb8;" horiz-adv-x="634" 
d="M182 41l167.998 0.000976562l-96 -133c4 0 10.167 -1 18.5 -3s22 -6.83301 41 -14.5s36 -16.667 51 -27s28.667 -26 41 -47s18.5 -45.167 18.5 -72.5c0 -72.667 -26.333 -131.834 -79 -177.501s-122.667 -68.5 -210 -68.5c-45.333 0 -88.666 8.5 -129.999 25.5
s-71.666 33.833 -90.999 50.5l-29 27l107 131c32.667 -39.333 73 -59.333 121 -60c57.333 0 86 21.333 86 64c0 26 -18.667 39 -56 39l-51 -11l-47 72z" />
    <glyph glyph-name="uni00B9" unicode="&#xb9;" horiz-adv-x="491" 
d="M451 1638h215l-158 -737h-246l98 461h-122l36 174c31.333 2.66699 61.833 12.5 91.5 29.5s51.167 33.167 64.5 48.5z" />
    <glyph glyph-name="ordmasculine" unicode="&#xba;" horiz-adv-x="819" 
d="M424 1094c0 -31.333 11.332 -57.666 33.999 -78.999s50.334 -32 83.001 -32c36.667 0 68.667 13.667 96 41s41 60.666 41 99.999c0 30 -10.333 55 -31 75s-48.667 30 -84 30c-36.667 0 -69 -13 -97 -39s-42 -58 -42 -96zM513.999 758c-84.667 0 -160.5 30.667 -227.5 92
s-100.5 137 -100.5 227c0 98 41.667 185.333 125 262s176.333 115 279 115c92.667 0 170.5 -31.667 233.5 -95s94.5 -138 94.5 -224c0 -98 -41.333 -185.333 -124 -262s-176 -115 -280 -115z" />
    <glyph glyph-name="guillemotright" unicode="&#xbb;" horiz-adv-x="1218" 
d="M-6 123l360 383l-178 354h316l186 -368l-344 -369h-340zM475 123l361 383l-179 354h316l186 -368l-344 -369h-340z" />
    <glyph glyph-name="onequarter" unicode="&#xbc;" horiz-adv-x="1536" 
d="M51 0l1184 1434h338l-1182 -1434h-340zM428 1434h215.001l-158 -738h-245l98 461h-123l37 174c31.333 2.66699 61.666 12.5 90.999 29.5s51 33.167 65 48.5zM1489 737l-86 -399h72l-43 -205h-72l-29 -133h-235l28 133h-317l41 195l389 409h252zM1065 328h111l34 164z" />
    <glyph glyph-name="onehalf" unicode="&#xbd;" horiz-adv-x="1617" 
d="M51 0l1184 1434h338l-1182 -1434h-340zM428 1434h215.001l-158 -738h-245l98 461h-123l37 174c31.333 2.66699 61.666 12.5 90.999 29.5s51 33.167 65 48.5zM1583 551c0 -48 -11.167 -90.332 -33.5 -126.999s-47.5 -64.667 -75.5 -84s-61.167 -40.833 -99.5 -64.5
s-65.833 -43.834 -82.5 -60.501h211l-45 -215h-563c13.333 66.667 37.166 125.334 71.499 176.001s71 90 110 118s76.833 52.5 113.5 73.5s67 41.5 91 61.5s36 41 36 63c0 27.333 -17 40.666 -51 39.999c-15.333 0 -30.833 -5.33301 -46.5 -16s-27.5 -21.667 -35.5 -33
l-10 -14l-177 80c2.66699 5.33301 6.83398 12.5 12.501 21.5s18 24.667 37 47s39.833 42.5 62.5 60.5s53.5 34.167 92.5 48.5s79.5 21.5 121.5 21.5c78 0 140.833 -18.833 188.5 -56.5s71.5 -84.5 71.5 -140.5z" />
    <glyph glyph-name="threequarters" unicode="&#xbe;" horiz-adv-x="1648" 
d="M164 0l1184 1434h338l-1182 -1434h-340zM1599 737l-86 -399h72l-43 -205h-72l-28 -133h-236l29 133h-317l40 195l390 409h251zM1176 328h110l35 164zM649 1077c6.66699 -2.66699 15.1689 -6.66602 25.502 -11.999s24 -19.666 41 -42.999s25.5 -50 25.5 -80
c0 -70.667 -30.667 -131 -92 -181s-141 -75 -239 -75c-65.333 0 -123 11.333 -173 34s-83.333 44.667 -100 66l-24 33l145 127c35.333 -44 83.666 -65.667 144.999 -65c24.667 0 45.167 7.16699 61.5 21.5s24.5 30.166 24.5 47.499c0 35.333 -27.667 53.333 -83 54h-70
l35 163h71c54.667 0 82 18 82 54c0 26 -21.667 39 -65 39c-18 0 -37.5 -5.16699 -58.5 -15.5s-37.167 -20.5 -48.5 -30.5l-18 -14l-92 131c6.66699 8 16.834 18.167 30.501 30.5s46 29.166 97 50.499s106.833 32 167.5 32c75.333 0 136 -19.5 182 -58.5s69 -82.5 69 -130.5
c0 -15.333 -1.66699 -29.333 -5 -42s-7.66602 -24.5 -12.999 -35.5s-11.5 -20.833 -18.5 -29.5s-14.5 -16.5 -22.5 -23.5s-15.833 -13.167 -23.5 -18.5s-14.834 -9.83301 -21.501 -13.5s-12.834 -6.5 -18.501 -8.5s-9.83398 -3.66699 -12.501 -5z" />
    <glyph glyph-name="questiondown" unicode="&#xbf;" horiz-adv-x="1024" 
d="M776 504c0 -69.333 -21.834 -130.33 -65.501 -182.997s-91.5 -92.334 -143.5 -119.001s-99.833 -57.5 -143.5 -92.5s-65.5 -71.5 -65.5 -109.5c0 -26 11 -47.833 33 -65.5s50.667 -26.5 86 -26.5c45.333 0 86 10.167 122 30.5s60.333 40.833 73 61.5l20 31l295 -154
c-4 -9.33301 -10.167 -21.833 -18.5 -37.5s-28.833 -43.334 -61.5 -83.001s-69.167 -74.834 -109.5 -105.501s-95.333 -58.667 -165 -84s-144.5 -38 -224.5 -38c-143.333 0 -260.166 41.667 -350.499 125s-135.5 176 -135.5 278c0 70.667 15.667 134.834 47 192.501
s70.333 104.5 117 140.5s93.167 69.167 139.5 99.5s87.5 61.166 123.5 92.499s57.667 63.333 65 96h358c2.66699 -14.667 4 -31 4 -49zM851.999 862.003c0 -53.333 -21.168 -101.166 -63.501 -143.499s-93.5 -63.5 -153.5 -63.5c-53.333 0 -96.666 16.167 -129.999 48.5
s-50 70.833 -50 115.5c0 54.667 21.5 102.5 64.5 143.5s93.167 61.5 150.5 61.5c54.667 0 98.667 -15.333 132 -46s50 -69.334 50 -116.001z" />
    <glyph glyph-name="Agrave" unicode="&#xc0;" horiz-adv-x="1515" 
d="M944 614l-45 420l-221 -420h266zM981 307h-471l-166 -307h-436l846 1434h430l239 -1434h-403zM1004 1927l98 -330h-287l-174 330h363z" />
    <glyph glyph-name="Aacute" unicode="&#xc1;" horiz-adv-x="1515" 
d="M944 614l-45 420l-221 -420h266zM981 307h-471l-166 -307h-436l846 1434h430l239 -1434h-403zM860 1597l242 330h377l-318 -330h-301z" />
    <glyph glyph-name="Acircumflex" unicode="&#xc2;" horiz-adv-x="1515" 
d="M944 614l-45 420l-221 -420h266zM981 307h-471l-166 -307h-436l846 1434h430l239 -1434h-403zM1018 1741l-131 -144h-334l332 328h311l197 -328h-299z" />
    <glyph glyph-name="Atilde" unicode="&#xc3;" horiz-adv-x="1515" 
d="M944 614l-45 420l-221 -420h266zM981 307h-471l-166 -307h-436l846 1434h430l239 -1434h-403zM895 1679c-48 0 -79.335 -33.999 -94.002 -101.999h-215c26 117.333 63.833 204.666 113.5 261.999s106.5 86 170.5 86c49.333 0 96.833 -17 142.5 -51s78.167 -51 97.5 -51
c48 0 79.333 34 94 102h215c-50.667 -232 -144.667 -348 -282 -348c-49.333 0 -97.166 17 -143.499 51s-79.166 51 -98.499 51z" />
    <glyph glyph-name="Adieresis" unicode="&#xc4;" horiz-adv-x="1515" 
d="M944 614l-45 420l-221 -420h266zM981 307h-471l-166 -307h-436l846 1434h430l239 -1434h-403zM608 1737c0 48 20.5 91.333 61.5 130s86.833 58 137.5 58c44 0 81 -15.667 111 -47s45 -68.333 45 -111c0 -49.333 -20.5 -93.333 -61.5 -132s-86.833 -58 -137.5 -58
c-44 0 -81 16.167 -111 48.5s-45 69.5 -45 111.5zM1079 1737c0 48 20.5 91.333 61.5 130s86.833 58 137.5 58c44 0 81 -15.667 111 -47s45 -68.333 45 -111c0 -49.333 -20.5 -93.333 -61.5 -132s-86.833 -58 -137.5 -58c-44 0 -81 16.167 -111 48.5s-45 69.5 -45 111.5z" />
    <glyph glyph-name="Aring" unicode="&#xc5;" horiz-adv-x="1515" 
d="M944 614l-45 420l-221 -420h266zM981 307h-471l-166 -307h-436l846 1434h430l239 -1434h-403zM1022 1864c-24.667 0 -45.499 -9.00098 -62.499 -27.001s-25.5 -41.333 -25.5 -70c0 -45.333 26.667 -67.666 80 -66.999c23.333 0 44.166 8.83301 62.499 26.5
s27.5 40.167 27.5 67.5c0 46.667 -27.333 70 -82 70zM1290 1800c0 -70.667 -29.667 -132.332 -89 -184.999s-127.333 -79 -204 -79c-75.333 0 -136.166 21.5 -182.499 64.5s-69.5 95.833 -69.5 158.5c0 72.667 29.167 135.667 87.5 189s126.833 80 205.5 80
c75.333 0 136.166 -22.333 182.499 -67s69.5 -98.334 69.5 -161.001z" />
    <glyph glyph-name="AE" unicode="&#xc6;" horiz-adv-x="2088" 
d="M1319 328h666l-70 -328h-1055l66 317h-439l-239 -317h-422l1102 1434h1270l-70 -328h-645l-47 -225h481l-66 -308h-481zM1085 1106l-356 -471h264l101 471h-9z" />
    <glyph glyph-name="Ccedilla" unicode="&#xc7;" horiz-adv-x="1536" 
d="M1014 1126c-134 0 -249.84 -47.667 -347.507 -143s-146.5 -211.333 -146.5 -348c0 -94 31.5 -172.167 94.5 -234.5s144.167 -93.5 243.5 -93.5c46.667 0 92.5 6.83301 137.5 20.5s83.5 30.167 115.5 49.5s60.667 38.833 86 58.5s44 36.167 56 49.5l21 21l180 -260
c-5.33301 -8 -14.166 -18.167 -26.499 -30.5s-38.666 -35 -78.999 -68s-83.333 -61.667 -129 -86s-105 -47.166 -178 -68.499s-147.833 -32.666 -224.5 -33.999l-37 -51c4 0 10.167 -1 18.5 -3s22 -6.83301 41 -14.5s36 -16.667 51 -27s28.667 -26 41 -47
s18.5 -45.167 18.5 -72.5c0 -72.667 -26.167 -131.834 -78.5 -177.501s-122.166 -68.5 -209.499 -68.5c-45.333 0 -88.833 8.5 -130.5 25.5s-72.167 33.833 -91.5 50.5l-28 27l106 131c32.667 -39.333 73 -59.333 121 -60c57.333 0 86 21.333 86 64c0 26 -18.333 39 -55 39
l-52 -11l-47 72l93 137c-158.667 31.333 -288.167 108.166 -388.5 230.499s-150.5 259.166 -150.5 410.499c0 234.667 90.5 436.834 271.5 606.501s397.833 254.5 650.5 254.5c76.667 0 149.334 -10 218.001 -30s125.167 -44 169.5 -72s83.333 -56 117 -84
s57.167 -52 70.5 -72l23 -29l-277 -234c-2.66699 4 -7 10.167 -13 18.5s-19.667 22.333 -41 42s-44.666 37.167 -69.999 52.5s-58.666 29 -99.999 41s-84.666 18 -129.999 18z" />
    <glyph glyph-name="Egrave" unicode="&#xc8;" horiz-adv-x="1372" 
d="M530 328h738l-70 -328h-1126l303 1434h1106l-70 -328h-717l-47 -225h553l-65 -308h-553zM1006 1927l98 -330h-287l-174 330h363z" />
    <glyph glyph-name="Eacute" unicode="&#xc9;" horiz-adv-x="1372" 
d="M530 328h738l-70 -328h-1126l303 1434h1106l-70 -328h-717l-47 -225h553l-65 -308h-553zM776 1597l242 330h377l-318 -330h-301z" />
    <glyph glyph-name="Ecircumflex" unicode="&#xca;" horiz-adv-x="1372" 
d="M530 328h738l-70 -328h-1126l303 1434h1106l-70 -328h-717l-47 -225h553l-65 -308h-553zM1006 1741l-132 -144h-333l331 328h312l196 -328h-299z" />
    <glyph glyph-name="Edieresis" unicode="&#xcb;" horiz-adv-x="1372" 
d="M530 328h738l-70 -328h-1126l303 1434h1106l-70 -328h-717l-47 -225h553l-65 -308h-553zM588 1737c0 48 20.5 91.333 61.5 130s86.5 58 136.5 58c44 0 81 -15.667 111 -47s45 -68.333 45 -111c0 -49.333 -20.5 -93.333 -61.5 -132s-86.833 -58 -137.5 -58
c-44 0 -80.833 16.167 -110.5 48.5s-44.5 69.5 -44.5 111.5zM1059 1737c0 48 20.5 91.333 61.5 130s86.5 58 136.5 58c44 0 81 -15.667 111 -47s45 -68.333 45 -111c0 -49.333 -20.5 -93.333 -61.5 -132s-86.833 -58 -137.5 -58c-44 0 -80.833 16.167 -110.5 48.5
s-44.5 69.5 -44.5 111.5z" />
    <glyph glyph-name="Igrave" unicode="&#xcc;" horiz-adv-x="716" 
d="M72 0l303 1434h389l-303 -1434h-389zM618 1927l99 -330h-287l-174 330h362z" />
    <glyph glyph-name="Iacute" unicode="&#xcd;" horiz-adv-x="716" 
d="M72 0l303 1434h389l-303 -1434h-389zM436 1597l242 330h377l-318 -330h-301z" />
    <glyph glyph-name="Icircumflex" unicode="&#xce;" horiz-adv-x="716" 
d="M72 0l303 1434h389l-303 -1434h-389zM631 1741l-131 -144h-334l332 328h311l197 -328h-299z" />
    <glyph glyph-name="Idieresis" unicode="&#xcf;" horiz-adv-x="716" 
d="M72 0l303 1434h389l-303 -1434h-389zM213 1737c0 48 20.5 91.333 61.5 130s86.833 58 137.5 58c44 0 80.833 -15.667 110.5 -47s44.5 -68.333 44.5 -111c0 -49.333 -20.5 -93.333 -61.5 -132s-86.5 -58 -136.5 -58c-44 0 -81 16.167 -111 48.5s-45 69.5 -45 111.5z
M684 1737c0 48 20.5 91.333 61.5 130s86.833 58 137.5 58c44 0 80.833 -15.667 110.5 -47s44.5 -68.333 44.5 -111c0 -49.333 -20.5 -93.333 -61.5 -132s-86.5 -58 -136.5 -58c-44 0 -81 16.167 -111 48.5s-45 69.5 -45 111.5z" />
    <glyph glyph-name="Eth" unicode="&#xd0;" horiz-adv-x="1597" 
d="M416 1434l521.999 0.000976562c187.333 0 343 -61.5 467 -184.5s186 -268.5 186 -436.5c0 -230.667 -85.667 -423.834 -257 -579.501s-379.666 -233.5 -624.999 -233.5h-596l120 573h-153l61 287h152zM886.999 1085l-156.001 -0.000976562l-49 -225h238l-62 -287h-235
l-48 -225h160c114.667 0 219.834 42.667 315.501 128s143.5 190.333 143.5 315c0 84.667 -28.333 154.834 -85 210.501s-130.667 83.5 -222 83.5z" />
    <glyph glyph-name="Ntilde" unicode="&#xd1;" horiz-adv-x="1669" 
d="M1327 1434h389l-303 -1434h-330l-454 799l-168 -799h-389l303 1434h332l450 -799zM977 1679c-48 0 -79.335 -33.999 -94.002 -101.999h-215c26 117.333 63.833 204.666 113.5 261.999s106.5 86 170.5 86c49.333 0 96.833 -17 142.5 -51s78.167 -51 97.5 -51
c48 0 79.333 34 94 102h215c-50.667 -232 -144.667 -348 -282 -348c-49.333 0 -97.166 17 -143.499 51s-79.166 51 -98.499 51z" />
    <glyph glyph-name="Ograve" unicode="&#xd2;" horiz-adv-x="1761" 
d="M985 1126c-121.333 0 -227.5 -45.667 -318.5 -137s-136.5 -199 -136.5 -323c0 -102.667 34.167 -188.167 102.5 -256.5s155.833 -102.5 262.5 -102.5c120 0 225.833 44.333 317.5 133s137.5 198 137.5 328c0 101.333 -34.167 186.333 -102.5 255s-155.833 103 -262.5 103
zM1755 793c0 -143.333 -40.334 -279.166 -121.001 -407.499s-188.167 -231.5 -322.5 -309.5s-276.5 -117 -426.5 -117c-217.333 0 -398.333 66.833 -543 200.5s-217 294.167 -217 481.5c0 221.333 87.333 415.666 262 582.999s377.334 251 608.001 251
c217.333 0 398.333 -66.833 543 -200.5s217 -294.167 217 -481.5zM1098 1927l98 -330h-287l-174 330h363z" />
    <glyph glyph-name="Oacute" unicode="&#xd3;" horiz-adv-x="1761" 
d="M985 1126c-121.333 0 -227.5 -45.667 -318.5 -137s-136.5 -199 -136.5 -323c0 -102.667 34.167 -188.167 102.5 -256.5s155.833 -102.5 262.5 -102.5c120 0 225.833 44.333 317.5 133s137.5 198 137.5 328c0 101.333 -34.167 186.333 -102.5 255s-155.833 103 -262.5 103
zM1755 793c0 -143.333 -40.334 -279.166 -121.001 -407.499s-188.167 -231.5 -322.5 -309.5s-276.5 -117 -426.5 -117c-217.333 0 -398.333 66.833 -543 200.5s-217 294.167 -217 481.5c0 221.333 87.333 415.666 262 582.999s377.334 251 608.001 251
c217.333 0 398.333 -66.833 543 -200.5s217 -294.167 217 -481.5zM882.999 1597l241 330h377l-317 -330h-301z" />
    <glyph glyph-name="Ocircumflex" unicode="&#xd4;" horiz-adv-x="1761" 
d="M985 1126c-121.333 0 -227.5 -45.667 -318.5 -137s-136.5 -199 -136.5 -323c0 -102.667 34.167 -188.167 102.5 -256.5s155.833 -102.5 262.5 -102.5c120 0 225.833 44.333 317.5 133s137.5 198 137.5 328c0 101.333 -34.167 186.333 -102.5 255s-155.833 103 -262.5 103
zM1755 793c0 -143.333 -40.334 -279.166 -121.001 -407.499s-188.167 -231.5 -322.5 -309.5s-276.5 -117 -426.5 -117c-217.333 0 -398.333 66.833 -543 200.5s-217 294.167 -217 481.5c0 221.333 87.333 415.666 262 582.999s377.334 251 608.001 251
c217.333 0 398.333 -66.833 543 -200.5s217 -294.167 217 -481.5zM1112 1741l-131 -144h-334l332 328h311l197 -328h-299z" />
    <glyph glyph-name="Otilde" unicode="&#xd5;" horiz-adv-x="1761" 
d="M985 1126c-121.333 0 -227.5 -45.667 -318.5 -137s-136.5 -199 -136.5 -323c0 -102.667 34.167 -188.167 102.5 -256.5s155.833 -102.5 262.5 -102.5c120 0 225.833 44.333 317.5 133s137.5 198 137.5 328c0 101.333 -34.167 186.333 -102.5 255s-155.833 103 -262.5 103
zM1755 793c0 -143.333 -40.334 -279.166 -121.001 -407.499s-188.167 -231.5 -322.5 -309.5s-276.5 -117 -426.5 -117c-217.333 0 -398.333 66.833 -543 200.5s-217 294.167 -217 481.5c0 221.333 87.333 415.666 262 582.999s377.334 251 608.001 251
c217.333 0 398.333 -66.833 543 -200.5s217 -294.167 217 -481.5zM994.999 1690c-48 0 -79.3369 -34.332 -94.0039 -102.999h-215c26 117.333 63.833 204.666 113.5 261.999s106.834 86 171.501 86c49.333 0 96.833 -17 142.5 -51s77.834 -51 96.501 -51
c48 0 79.667 34 95 102h215c-50.667 -232 -145 -348 -283 -348c-49.333 0 -97.166 17.167 -143.499 51.5s-79.166 51.5 -98.499 51.5z" />
    <glyph glyph-name="Odieresis" unicode="&#xd6;" horiz-adv-x="1761" 
d="M985 1126c-121.333 0 -227.5 -45.667 -318.5 -137s-136.5 -199 -136.5 -323c0 -102.667 34.167 -188.167 102.5 -256.5s155.833 -102.5 262.5 -102.5c120 0 225.833 44.333 317.5 133s137.5 198 137.5 328c0 101.333 -34.167 186.333 -102.5 255s-155.833 103 -262.5 103
zM1755 793c0 -143.333 -40.334 -279.166 -121.001 -407.499s-188.167 -231.5 -322.5 -309.5s-276.5 -117 -426.5 -117c-217.333 0 -398.333 66.833 -543 200.5s-217 294.167 -217 481.5c0 221.333 87.333 415.666 262 582.999s377.334 251 608.001 251
c217.333 0 398.333 -66.833 543 -200.5s217 -294.167 217 -481.5zM679.999 1737c0 48 20.5 91.333 61.5 130s86.833 58 137.5 58c44 0 80.833 -15.667 110.5 -47s44.5 -68.333 44.5 -111c0 -49.333 -20.5 -93.333 -61.5 -132s-86.5 -58 -136.5 -58
c-44 0 -81 16.167 -111 48.5s-45 69.5 -45 111.5zM1151 1737c0 48 20.5 91.333 61.5 130s86.833 58 137.5 58c44 0 80.833 -15.667 110.5 -47s44.5 -68.333 44.5 -111c0 -49.333 -20.5 -93.333 -61.5 -132s-86.5 -58 -136.5 -58c-44 0 -81 16.167 -111 48.5
s-45 69.5 -45 111.5z" />
    <glyph glyph-name="multiply" unicode="&#xd7;" horiz-adv-x="1044" 
d="M76 401l282 234l-200 256l231 192l195 -245l299 247l174 -213l-289 -237l205 -258l-232 -193l-194 246l-297 -246z" />
    <glyph glyph-name="Oslash" unicode="&#xd8;" horiz-adv-x="1761" 
d="M1755 793c0 -143.333 -40.334 -279.166 -121.001 -407.499s-188.167 -231.5 -322.5 -309.5s-276.5 -117 -426.5 -117c-190 0 -354 52.667 -492 158l-241 -193l-160 203l227 180c-62.667 102.667 -94 214 -94 334c0 221.333 87.333 415.666 262 582.999
s377.334 251 608.001 251c190 0 354 -52.667 492 -158l244 192l159 -202l-229 -183c62.667 -106 94 -216.333 94 -331zM1350 768c0 30 -5 62.667 -15 98l-637 -508c57.333 -34 123 -51 197 -51c120 0 225.833 44.333 317.5 133s137.5 198 137.5 328zM984.999 1126
c-121.333 0 -227.499 -45.667 -318.499 -137s-136.5 -199 -136.5 -323c0 -34 4.33301 -67.667 13 -101l639 508c-60.667 35.333 -126.334 53 -197.001 53z" />
    <glyph glyph-name="Ugrave" unicode="&#xd9;" horiz-adv-x="1617" 
d="M797 307c70.667 0 135.667 27.333 195 82s98 123 116 205l178 840h389l-178 -840c-39.333 -184 -124.666 -335.833 -255.999 -455.5s-289 -179.5 -473 -179.5c-192.667 0 -347 61.833 -463 185.5s-155.667 273.5 -119 449.5l179 840h389l-179 -840
c-16.667 -80.667 -2.33398 -148.667 42.999 -204s105 -83 179 -83zM1071 1927l98 -330h-286l-174 330h362z" />
    <glyph glyph-name="Uacute" unicode="&#xda;" horiz-adv-x="1617" 
d="M797 307c70.667 0 135.667 27.333 195 82s98 123 116 205l178 840h389l-178 -840c-39.333 -184 -124.666 -335.833 -255.999 -455.5s-289 -179.5 -473 -179.5c-192.667 0 -347 61.833 -463 185.5s-155.667 273.5 -119 449.5l179 840h389l-179 -840
c-16.667 -80.667 -2.33398 -148.667 42.999 -204s105 -83 179 -83zM887 1597l241 330h377l-317 -330h-301z" />
    <glyph glyph-name="Ucircumflex" unicode="&#xdb;" horiz-adv-x="1617" 
d="M797 307c70.667 0 135.667 27.333 195 82s98 123 116 205l178 840h389l-178 -840c-39.333 -184 -124.666 -335.833 -255.999 -455.5s-289 -179.5 -473 -179.5c-192.667 0 -347 61.833 -463 185.5s-155.667 273.5 -119 449.5l179 840h389l-179 -840
c-16.667 -80.667 -2.33398 -148.667 42.999 -204s105 -83 179 -83zM1071 1741l-131 -144h-334l332 328h311l197 -328h-299z" />
    <glyph glyph-name="Udieresis" unicode="&#xdc;" horiz-adv-x="1617" 
d="M797 307c70.667 0 135.667 27.333 195 82s98 123 116 205l178 840h389l-178 -840c-39.333 -184 -124.666 -335.833 -255.999 -455.5s-289 -179.5 -473 -179.5c-192.667 0 -347 61.833 -463 185.5s-155.667 273.5 -119 449.5l179 840h389l-179 -840
c-16.667 -80.667 -2.33398 -148.667 42.999 -204s105 -83 179 -83zM659 1737c0 48 20.5 91.333 61.5 130s86.833 58 137.5 58c44 0 81 -15.667 111 -47s45 -68.333 45 -111c0 -49.333 -20.5 -93.333 -61.5 -132s-86.833 -58 -137.5 -58c-44 0 -81 16.167 -111 48.5
s-45 69.5 -45 111.5zM1130 1737c0 48 20.5 91.333 61.5 130s86.833 58 137.5 58c44 0 81 -15.667 111 -47s45 -68.333 45 -111c0 -49.333 -20.5 -93.333 -61.5 -132s-86.833 -58 -137.5 -58c-44 0 -81 16.167 -111 48.5s-45 69.5 -45 111.5z" />
    <glyph glyph-name="Yacute" unicode="&#xdd;" horiz-adv-x="1402" 
d="M1174 1434h440l-707 -922l-108 -512h-389l108 512l-317 922h399l172 -553zM743 1597l242 330h377l-318 -330h-301z" />
    <glyph glyph-name="Thorn" unicode="&#xde;" horiz-adv-x="1402" 
d="M741 1321h97c161.333 0 294.833 -50.5 400.5 -151.5s158.5 -219.167 158.5 -354.5c0 -184 -72.667 -340.167 -218 -468.5s-323.333 -192.5 -534 -192.5h-153l-41 -195h-390l324 1516h389zM674 1004l-115 -533.001h59c122.667 0 217.667 28.667 285 86
s101 137.333 101 240c0 62.667 -24.333 112.834 -73 150.501s-120 56.5 -214 56.5h-43z" />
    <glyph glyph-name="germandbls" unicode="&#xdf;" horiz-adv-x="1280" 
d="M1016 778c5.33301 -2.66699 12.1699 -5.99902 20.5029 -9.99902s23.333 -14.5 45 -31.5s40.667 -35.833 57 -56.5s31.333 -48 45 -82s20.5 -70.333 20.5 -109c0 -138 -55.667 -254 -167 -348s-253 -141 -425 -141h-110l65 317h97c48 0 88.667 15.833 122 47.5
s50 68.5 50 110.5c0 32.667 -12 60.667 -36 84s-53 35 -87 35h-86l63 297h27c45.333 0 84.333 14.667 117 44s49 61.666 49 96.999c0 31.333 -11.667 58.333 -35 81s-52.666 34 -87.999 34c-42 0 -78.5 -14 -109.5 -42s-51.167 -65.333 -60.5 -112l-211 -993h-348l211 993
c30 140.667 95.167 252.667 195.5 336s227.5 125 381.5 125c122.667 0 223 -33.833 301 -101.5s117 -147.167 117 -238.5c0 -32.667 -4.16699 -64.334 -12.5 -95.001s-19.333 -57 -33 -79s-28.334 -42.167 -44.001 -60.5s-31.334 -33.666 -47.001 -45.999
s-30.334 -23 -44.001 -32s-23.834 -15.5 -30.501 -19.5z" />
    <glyph glyph-name="agrave" unicode="&#xe0;" horiz-adv-x="1302" 
d="M596 287c64 0 119.167 25.168 165.5 75.501s69.5 109.166 69.5 176.499c0 49.333 -16.667 91.333 -50 126s-72.333 52 -117 52c-60 0 -113.667 -24.667 -161 -74s-71 -110 -71 -182c0 -48 16.333 -89 49 -123s71 -51 115 -51zM905 868.001l28.999 136h348l-213 -1004
h-348l22 111c-2.66699 -4 -6.66699 -8.83301 -12 -14.5s-16.833 -16 -34.5 -31s-37.167 -28.333 -58.5 -40s-48.666 -22.167 -81.999 -31.5s-68.333 -14 -105 -14c-105.333 0 -195.833 40.833 -271.5 122.5s-113.5 181.167 -113.5 298.5c0 178.667 56.667 327.167 170 445.5
s242.333 177.5 387 177.5c36.667 0 71.667 -5.5 105 -16.5s60.333 -24 81 -39s38.5 -30 53.5 -45s25.833 -27.833 32.5 -38.5zM783.999 1466l99 -329h-287l-174 329h362z" />
    <glyph glyph-name="aacute" unicode="&#xe1;" horiz-adv-x="1302" 
d="M596 287c64 0 119.167 25.168 165.5 75.501s69.5 109.166 69.5 176.499c0 49.333 -16.667 91.333 -50 126s-72.333 52 -117 52c-60 0 -113.667 -24.667 -161 -74s-71 -110 -71 -182c0 -48 16.333 -89 49 -123s71 -51 115 -51zM905 868.001l28.999 136h348l-213 -1004
h-348l22 111c-2.66699 -4 -6.66699 -8.83301 -12 -14.5s-16.833 -16 -34.5 -31s-37.167 -28.333 -58.5 -40s-48.666 -22.167 -81.999 -31.5s-68.333 -14 -105 -14c-105.333 0 -195.833 40.833 -271.5 122.5s-113.5 181.167 -113.5 298.5c0 178.667 56.667 327.167 170 445.5
s242.333 177.5 387 177.5c36.667 0 71.667 -5.5 105 -16.5s60.333 -24 81 -39s38.5 -30 53.5 -45s25.833 -27.833 32.5 -38.5zM574.999 1137l242 329h377l-317 -329h-302z" />
    <glyph glyph-name="acircumflex" unicode="&#xe2;" horiz-adv-x="1302" 
d="M596 287c64 0 119.167 25.168 165.5 75.501s69.5 109.166 69.5 176.499c0 49.333 -16.667 91.333 -50 126s-72.333 52 -117 52c-60 0 -113.667 -24.667 -161 -74s-71 -110 -71 -182c0 -48 16.333 -89 49 -123s71 -51 115 -51zM905 868.001l28.999 136h348l-213 -1004
h-348l22 111c-2.66699 -4 -6.66699 -8.83301 -12 -14.5s-16.833 -16 -34.5 -31s-37.167 -28.333 -58.5 -40s-48.666 -22.167 -81.999 -31.5s-68.333 -14 -105 -14c-105.333 0 -195.833 40.833 -271.5 122.5s-113.5 181.167 -113.5 298.5c0 178.667 56.667 327.167 170 445.5
s242.333 177.5 387 177.5c36.667 0 71.667 -5.5 105 -16.5s60.333 -24 81 -39s38.5 -30 53.5 -45s25.833 -27.833 32.5 -38.5zM808.999 1280l-131 -143h-334l332 327h311l197 -327h-299z" />
    <glyph glyph-name="atilde" unicode="&#xe3;" horiz-adv-x="1302" 
d="M596 287c64 0 119.167 25.168 165.5 75.501s69.5 109.166 69.5 176.499c0 49.333 -16.667 91.333 -50 126s-72.333 52 -117 52c-60 0 -113.667 -24.667 -161 -74s-71 -110 -71 -182c0 -48 16.333 -89 49 -123s71 -51 115 -51zM905 868.001l28.999 136h348l-213 -1004
h-348l22 111c-2.66699 -4 -6.66699 -8.83301 -12 -14.5s-16.833 -16 -34.5 -31s-37.167 -28.333 -58.5 -40s-48.666 -22.167 -81.999 -31.5s-68.333 -14 -105 -14c-105.333 0 -195.833 40.833 -271.5 122.5s-113.5 181.167 -113.5 298.5c0 178.667 56.667 327.167 170 445.5
s242.333 177.5 387 177.5c36.667 0 71.667 -5.5 105 -16.5s60.333 -24 81 -39s38.5 -30 53.5 -45s25.833 -27.833 32.5 -38.5zM681.999 1219c-48 0 -79.335 -34.332 -94.002 -102.999h-215c26 117.333 63.833 204.666 113.5 261.999s106.5 86 170.5 86
c49.333 0 96.833 -17 142.5 -51s78.167 -51 97.5 -51c48 0 79.333 34 94 102h215c-50.667 -232 -144.667 -348 -282 -348c-49.333 0 -97.166 17.167 -143.499 51.5s-79.166 51.5 -98.499 51.5z" />
    <glyph glyph-name="adieresis" unicode="&#xe4;" horiz-adv-x="1302" 
d="M596 287c64 0 119.167 25.168 165.5 75.501s69.5 109.166 69.5 176.499c0 49.333 -16.667 91.333 -50 126s-72.333 52 -117 52c-60 0 -113.667 -24.667 -161 -74s-71 -110 -71 -182c0 -48 16.333 -89 49 -123s71 -51 115 -51zM905 868.001l28.999 136h348l-213 -1004
h-348l22 111c-2.66699 -4 -6.66699 -8.83301 -12 -14.5s-16.833 -16 -34.5 -31s-37.167 -28.333 -58.5 -40s-48.666 -22.167 -81.999 -31.5s-68.333 -14 -105 -14c-105.333 0 -195.833 40.833 -271.5 122.5s-113.5 181.167 -113.5 298.5c0 178.667 56.667 327.167 170 445.5
s242.333 177.5 387 177.5c36.667 0 71.667 -5.5 105 -16.5s60.333 -24 81 -39s38.5 -30 53.5 -45s25.833 -27.833 32.5 -38.5zM378.999 1276c0 48 20.5 91.333 61.5 130s86.833 58 137.5 58c44 0 80.833 -15.667 110.5 -47s44.5 -68 44.5 -110
c0 -49.333 -20.5 -93.5 -61.5 -132.5s-86.5 -58.5 -136.5 -58.5c-44 0 -81 16.167 -111 48.5s-45 69.5 -45 111.5zM849.999 1276c0 48 20.5 91.333 61.5 130s86.833 58 137.5 58c44 0 80.833 -15.667 110.5 -47s44.5 -68 44.5 -110c0 -49.333 -20.5 -93.5 -61.5 -132.5
s-86.5 -58.5 -136.5 -58.5c-44 0 -81 16.167 -111 48.5s-45 69.5 -45 111.5z" />
    <glyph glyph-name="aring" unicode="&#xe5;" horiz-adv-x="1302" 
d="M596 287c64 0 119.167 25.168 165.5 75.501s69.5 109.166 69.5 176.499c0 49.333 -16.667 91.333 -50 126s-72.333 52 -117 52c-60 0 -113.667 -24.667 -161 -74s-71 -110 -71 -182c0 -48 16.333 -89 49 -123s71 -51 115 -51zM905 868.001l28.999 136h348l-213 -1004
h-348l22 111c-2.66699 -4 -6.66699 -8.83301 -12 -14.5s-16.833 -16 -34.5 -31s-37.167 -28.333 -58.5 -40s-48.666 -22.167 -81.999 -31.5s-68.333 -14 -105 -14c-105.333 0 -195.833 40.833 -271.5 122.5s-113.5 181.167 -113.5 298.5c0 178.667 56.667 327.167 170 445.5
s242.333 177.5 387 177.5c36.667 0 71.667 -5.5 105 -16.5s60.333 -24 81 -39s38.5 -30 53.5 -45s25.833 -27.833 32.5 -38.5zM781.999 1423c-24.667 0 -45.499 -8.83301 -62.499 -26.5s-25.5 -40.834 -25.5 -69.501c0 -45.333 26.667 -67.666 80 -66.999
c23.333 0 44.166 8.83301 62.499 26.5s27.5 40.167 27.5 67.5c0 46 -27.333 69 -82 69zM1051 1360c0 -70.667 -29.833 -132.333 -89.5 -185s-127.5 -79 -203.5 -79c-75.333 0 -136.166 21.5 -182.499 64.5s-69.5 95.833 -69.5 158.5c0 72.667 29 135.5 87 188.5
s126.667 79.5 206 79.5c75.333 0 136.166 -22.167 182.499 -66.5s69.5 -97.833 69.5 -160.5z" />
    <glyph glyph-name="ae" unicode="&#xe6;" horiz-adv-x="1761" 
d="M606 1024c61.333 0 116.327 -12.998 164.994 -38.998s81 -51.333 97 -76l27 -39c10.667 10.667 26.334 24.667 47.001 42s63.667 40.333 129 69s132.333 43 201 43c125.333 0 231 -38.167 317 -114.5s129 -171.166 129 -284.499c0 -20.667 -1.66699 -42.667 -5 -66
s-7.66602 -43.833 -12.999 -61.5s-10.833 -33.667 -16.5 -48s-10.167 -24.833 -13.5 -31.5s-5.66602 -9.33398 -6.99902 -8.00098h-676c0 -35.333 18.5 -69.833 55.5 -103.5s86.167 -50.5 147.5 -50.5c39.333 0 79.5 8.5 120.5 25.5s72.5 33.833 94.5 50.5l33 26l106 -231
c-13.333 -10.667 -32 -24.334 -56 -41.001s-73.5 -38.5 -148.5 -65.5s-150.167 -40.5 -225.5 -40.5c-46.667 0 -90.334 6 -131.001 18s-73.667 26.333 -99 43s-47.666 33.5 -66.999 50.5s-33 31.5 -41 43.5l-12 19l-18.5 -18.5
c-8.33301 -8.33301 -26.166 -22.5 -53.499 -42.5s-56.333 -37.833 -87 -53.5s-70.167 -29.5 -118.5 -41.5s-98.5 -18 -150.5 -18c-108 0 -192.667 26.167 -254 78.5s-92 114.833 -92 187.5c0 100 42.333 180.667 127 242s207.334 100 368.001 116l199 21
c2.66699 13.333 4 22.666 4 27.999c0 28.667 -12 51.667 -36 69s-57 26 -99 26c-39.333 0 -78.166 -9 -116.499 -27s-67.166 -35.667 -86.499 -53l-28 -27l-142 195c4 5.33301 10.167 12 18.5 20s26.5 23 54.5 45s57.333 41.167 88 57.5s70.167 31.333 118.5 45
s97.166 20.5 146.499 20.5zM1230.99 758.002c-45.333 0 -88.167 -14.667 -128.5 -44s-70.5 -66 -90.5 -110h364v14c0 38 -13.667 70.833 -41 98.5s-62 41.5 -104 41.5zM419.993 246.002c52 0 97.668 17.001 137.001 51.001s64.666 78.333 75.999 133l-146 -10
c-48 -2.66699 -85.833 -15 -113.5 -37s-41.5 -46.667 -41.5 -74c0 -16.667 8.16699 -31.334 24.5 -44.001s37.5 -19 63.5 -19z" />
    <glyph glyph-name="ccedilla" unicode="&#xe7;" horiz-adv-x="1105" 
d="M66 428c0 161.333 63.001 300.997 189.001 418.997s274.333 177 445 177c53.333 0 104.666 -7.16699 153.999 -21.5s89.666 -31.333 120.999 -51s59 -39.5 83 -59.5s41.333 -37.333 52 -52l16 -21l-241 -207c-5.33301 8 -12.833 17.833 -22.5 29.5s-32 27.167 -67 46.5
s-72.167 29 -111.5 29c-70.667 0 -131 -24.333 -181 -73s-75 -109 -75 -181c0 -49.333 16.667 -91 50 -125s76.666 -51 129.999 -51c39.333 0 77.5 9.5 114.5 28.5s64.5 38.167 82.5 57.5l26 26l164 -221c-4 -5.33301 -10 -12.166 -18 -20.499s-26 -23.666 -54 -45.999
s-57.5 -42 -88.5 -59s-71 -33 -120 -48s-99.5 -23.167 -151.5 -24.5l-51 -72c4 0 10.167 -1 18.5 -3s22 -6.83301 41 -14.5s36 -16.667 51 -27s28.667 -26 41 -47s18.5 -45.167 18.5 -72.5c0 -72.667 -26.333 -131.834 -79 -177.501s-122.667 -68.5 -210 -68.5
c-45.333 0 -88.666 8.5 -129.999 25.5s-71.666 33.833 -90.999 50.5l-29 27l107 131c32.667 -39.333 73 -59.333 121 -60c57.333 0 86 21.333 86 64c0 26 -18.667 39 -56 39l-51 -11l-47 72l109 162c-101.333 28.667 -184.333 83.334 -249 164.001s-97 169.334 -97 266.001z
" />
    <glyph glyph-name="egrave" unicode="&#xe8;" horiz-adv-x="1187" 
d="M1100 410h-690c9.33301 -46.667 32.833 -84 70.5 -112s85.167 -42 142.5 -42c42 0 83.5 8.16699 124.5 24.5s71.167 32.833 90.5 49.5l28 24l107 -229c-4 -4 -10.167 -9.16699 -18.5 -15.5s-26.5 -18 -54.5 -35s-57 -32 -87 -45s-69.167 -24.5 -117.5 -34.5
s-97.166 -15 -146.499 -15c-136.667 0 -251.834 43.667 -345.501 131s-140.5 191 -140.5 311c0 165.333 62.5 307 187.5 425s271.5 177 439.5 177c130 0 238.333 -38.167 325 -114.5s130 -171.166 130 -284.499c0 -70.667 -15 -142.334 -45 -215.001zM649 758
c-90 0 -158.333 -48.001 -205 -144.001h361c-1.33301 40.667 -16.333 74.834 -45 102.501s-65.667 41.5 -111 41.5zM770 1466l98 -329h-286l-174 329h362z" />
    <glyph glyph-name="eacute" unicode="&#xe9;" horiz-adv-x="1187" 
d="M1100 410h-690c9.33301 -46.667 32.833 -84 70.5 -112s85.167 -42 142.5 -42c42 0 83.5 8.16699 124.5 24.5s71.167 32.833 90.5 49.5l28 24l107 -229c-4 -4 -10.167 -9.16699 -18.5 -15.5s-26.5 -18 -54.5 -35s-57 -32 -87 -45s-69.167 -24.5 -117.5 -34.5
s-97.166 -15 -146.499 -15c-136.667 0 -251.834 43.667 -345.501 131s-140.5 191 -140.5 311c0 165.333 62.5 307 187.5 425s271.5 177 439.5 177c130 0 238.333 -38.167 325 -114.5s130 -171.166 130 -284.499c0 -70.667 -15 -142.334 -45 -215.001zM649 758
c-90 0 -158.333 -48.001 -205 -144.001h361c-1.33301 40.667 -16.333 74.834 -45 102.501s-65.667 41.5 -111 41.5zM565 1137l242 329h377l-318 -329h-301z" />
    <glyph glyph-name="ecircumflex" unicode="&#xea;" horiz-adv-x="1187" 
d="M1100 410h-690c9.33301 -46.667 32.833 -84 70.5 -112s85.167 -42 142.5 -42c42 0 83.5 8.16699 124.5 24.5s71.167 32.833 90.5 49.5l28 24l107 -229c-4 -4 -10.167 -9.16699 -18.5 -15.5s-26.5 -18 -54.5 -35s-57 -32 -87 -45s-69.167 -24.5 -117.5 -34.5
s-97.166 -15 -146.499 -15c-136.667 0 -251.834 43.667 -345.501 131s-140.5 191 -140.5 311c0 165.333 62.5 307 187.5 425s271.5 177 439.5 177c130 0 238.333 -38.167 325 -114.5s130 -171.166 130 -284.499c0 -70.667 -15 -142.334 -45 -215.001zM649 758
c-90 0 -158.333 -48.001 -205 -144.001h361c-1.33301 40.667 -16.333 74.834 -45 102.501s-65.667 41.5 -111 41.5zM764 1280l-131 -143h-334l332 327h311l197 -327h-299z" />
    <glyph glyph-name="edieresis" unicode="&#xeb;" horiz-adv-x="1187" 
d="M1100 410h-690c9.33301 -46.667 32.833 -84 70.5 -112s85.167 -42 142.5 -42c42 0 83.5 8.16699 124.5 24.5s71.167 32.833 90.5 49.5l28 24l107 -229c-4 -4 -10.167 -9.16699 -18.5 -15.5s-26.5 -18 -54.5 -35s-57 -32 -87 -45s-69.167 -24.5 -117.5 -34.5
s-97.166 -15 -146.499 -15c-136.667 0 -251.834 43.667 -345.501 131s-140.5 191 -140.5 311c0 165.333 62.5 307 187.5 425s271.5 177 439.5 177c130 0 238.333 -38.167 325 -114.5s130 -171.166 130 -284.499c0 -70.667 -15 -142.334 -45 -215.001zM649 758
c-90 0 -158.333 -48.001 -205 -144.001h361c-1.33301 40.667 -16.333 74.834 -45 102.501s-65.667 41.5 -111 41.5zM340 1276c0 48 20.5 91.333 61.5 130s86.833 58 137.5 58c44 0 80.833 -15.667 110.5 -47s44.5 -68 44.5 -110c0 -49.333 -20.5 -93.5 -61.5 -132.5
s-86.5 -58.5 -136.5 -58.5c-44 0 -81 16.167 -111 48.5s-45 69.5 -45 111.5zM811 1276c0 48 20.5 91.333 61.5 130s86.833 58 137.5 58c44 0 80.833 -15.667 110.5 -47s44.5 -68 44.5 -110c0 -49.333 -20.5 -93.5 -61.5 -132.5s-86.5 -58.5 -136.5 -58.5
c-44 0 -81 16.167 -111 48.5s-45 69.5 -45 111.5z" />
    <glyph glyph-name="igrave" unicode="&#xec;" horiz-adv-x="614" 
d="M481 1466l99 -329h-287l-174 329h362zM592 1004l-213 -1004h-348l213 1004h348z" />
    <glyph glyph-name="iacute" unicode="&#xed;" horiz-adv-x="614" 
d="M289 1137l241 329h377l-317 -329h-301zM592 1004l-213 -1004h-348l213 1004h348z" />
    <glyph glyph-name="icircumflex" unicode="&#xee;" horiz-adv-x="614" 
d="M592 1004l-213 -1004h-348l213 1004h348zM469 1280l-131 -143h-334l332 327h311l197 -327h-299z" />
    <glyph glyph-name="idieresis" unicode="&#xef;" horiz-adv-x="614" 
d="M61 1276c0 48 20.5 91.333 61.5 130s86.833 58 137.5 58c44 0 81 -15.667 111 -47s45 -68 45 -110c0 -49.333 -20.5 -93.5 -61.5 -132.5s-86.833 -58.5 -137.5 -58.5c-44 0 -81 16.167 -111 48.5s-45 69.5 -45 111.5zM532 1276c0 48 20.5 91.333 61.5 130
s86.833 58 137.5 58c44 0 81 -15.667 111 -47s45 -68 45 -110c0 -49.333 -20.5 -93.5 -61.5 -132.5s-86.833 -58.5 -137.5 -58.5c-44 0 -81 16.167 -111 48.5s-45 69.5 -45 111.5zM592 1004l-213 -1004h-348l213 1004h348z" />
    <glyph glyph-name="eth" unicode="&#xf0;" 
d="M889 846c-4 56 -17.334 108.832 -40.001 158.499s-43.667 86.167 -63 109.5l-30 33l-244 -133l-94 184l117 72c-50.667 20.667 -101.334 37.667 -152.001 51l135 256c69.333 -18 131.666 -37.167 186.999 -57.5s93.333 -36.833 114 -49.5l31 -16l258 154l104 -185
l-186 -112c4 -5.33301 9.83301 -12.833 17.5 -22.5s21.334 -31.167 41.001 -64.5s36.667 -68.5 51 -105.5s27.666 -84.5 39.999 -142.5s18.5 -117 18.5 -177c0 -255.333 -64.167 -455.666 -192.5 -600.999s-289.5 -218 -483.5 -218c-131.333 0 -242.666 44.333 -333.999 133
s-137 189.667 -137 303c0 150 56.333 278.667 169 386s241.334 161 386.001 161c36.667 0 71.834 -4.16699 105.501 -12.5s61 -18 82 -29s39.333 -22.333 55 -34s27.167 -21.5 34.5 -29.5zM554.999 286.999c56 0 105.499 22.167 148.499 66.5s64.5 95.833 64.5 154.5
c0 40.667 -13.667 75.334 -41 104.001s-60.666 43 -99.999 43c-53.333 0 -102.5 -21.833 -147.5 -65.5s-67.5 -94.834 -67.5 -153.501c0 -42 14 -77.333 42 -106s61.667 -43 101 -43z" />
    <glyph glyph-name="ntilde" unicode="&#xf1;" 
d="M582 1004l-24.999 -113.001c8 9.33301 19.833 21.5 35.5 36.5s49.167 34.833 100.5 59.5s104.333 37 159 37c91.333 0 165.666 -29 222.999 -87s86 -135.333 86 -232c0 -35.333 -4 -72.333 -12 -111l-125 -594h-348l112 532c2.66699 19.333 4.33398 32.333 5.00098 39
c0 38 -12 68.333 -36 91s-53.667 34 -89 34c-46.667 0 -87.334 -18.667 -122.001 -56s-59 -86.666 -73 -147.999l-104 -492h-349l213 1004h349zM684.001 1219c-48 0 -79.335 -34.332 -94.002 -102.999h-215c26 117.333 63.833 204.666 113.5 261.999s106.5 86 170.5 86
c49.333 0 96.833 -17 142.5 -51s78.167 -51 97.5 -51c48 0 79.333 34 94 102h215c-50.667 -232 -144.667 -348 -282 -348c-49.333 0 -97.166 17.167 -143.499 51.5s-79.166 51.5 -98.499 51.5z" />
    <glyph glyph-name="ograve" unicode="&#xf2;" 
d="M657 717c-60 0 -113.167 -25.666 -159.5 -76.999s-69.5 -108.333 -69.5 -171c0 -52 16 -95.333 48 -130s72.667 -52 122 -52c57.333 0 109.833 24.833 157.5 74.5s71.5 108.167 71.5 175.5c0 53.333 -16 96.666 -48 129.999s-72.667 50 -122 50zM1192 547.001
c0 -150 -61.167 -282 -183.5 -396s-263.166 -171 -422.499 -171c-151.333 0 -275.833 47.333 -373.5 142s-146.5 207 -146.5 337c0 148.667 60.667 280 182 394s262.666 171 423.999 171c151.333 0 275.833 -47 373.5 -141s146.5 -206 146.5 -336zM778 1466l99 -329h-287
l-174 329h362z" />
    <glyph glyph-name="oacute" unicode="&#xf3;" 
d="M657 717c-60 0 -113.167 -25.666 -159.5 -76.999s-69.5 -108.333 -69.5 -171c0 -52 16 -95.333 48 -130s72.667 -52 122 -52c57.333 0 109.833 24.833 157.5 74.5s71.5 108.167 71.5 175.5c0 53.333 -16 96.666 -48 129.999s-72.667 50 -122 50zM1192 547.001
c0 -150 -61.167 -282 -183.5 -396s-263.166 -171 -422.499 -171c-151.333 0 -275.833 47.333 -373.5 142s-146.5 207 -146.5 337c0 148.667 60.667 280 182 394s262.666 171 423.999 171c151.333 0 275.833 -47 373.5 -141s146.5 -206 146.5 -336zM580 1137l241 329h377
l-317 -329h-301z" />
    <glyph glyph-name="ocircumflex" unicode="&#xf4;" 
d="M657 717c-60 0 -113.167 -25.666 -159.5 -76.999s-69.5 -108.333 -69.5 -171c0 -52 16 -95.333 48 -130s72.667 -52 122 -52c57.333 0 109.833 24.833 157.5 74.5s71.5 108.167 71.5 175.5c0 53.333 -16 96.666 -48 129.999s-72.667 50 -122 50zM1192 547.001
c0 -150 -61.167 -282 -183.5 -396s-263.166 -171 -422.499 -171c-151.333 0 -275.833 47.333 -373.5 142s-146.5 207 -146.5 337c0 148.667 60.667 280 182 394s262.666 171 423.999 171c151.333 0 275.833 -47 373.5 -141s146.5 -206 146.5 -336zM760 1280l-131 -143h-334
l332 327h311l197 -327h-299z" />
    <glyph glyph-name="otilde" unicode="&#xf5;" 
d="M657 717c-60 0 -113.167 -25.666 -159.5 -76.999s-69.5 -108.333 -69.5 -171c0 -52 16 -95.333 48 -130s72.667 -52 122 -52c57.333 0 109.833 24.833 157.5 74.5s71.5 108.167 71.5 175.5c0 53.333 -16 96.666 -48 129.999s-72.667 50 -122 50zM1192 547.001
c0 -150 -61.167 -282 -183.5 -396s-263.166 -171 -422.499 -171c-151.333 0 -275.833 47.333 -373.5 142s-146.5 207 -146.5 337c0 148.667 60.667 280 182 394s262.666 171 423.999 171c151.333 0 275.833 -47 373.5 -141s146.5 -206 146.5 -336zM633 1219
c-48 0 -79.333 -34.332 -94 -102.999h-215c26 117.333 63.833 204.666 113.5 261.999s106.5 86 170.5 86c49.333 0 96.833 -17 142.5 -51s78.167 -51 97.5 -51c48 0 79.333 34 94 102h215c-50.667 -232 -145 -348 -283 -348c-49.333 0 -97 17.167 -143 51.5
s-78.667 51.5 -98 51.5z" />
    <glyph glyph-name="odieresis" unicode="&#xf6;" 
d="M657 717c-60 0 -113.167 -25.666 -159.5 -76.999s-69.5 -108.333 -69.5 -171c0 -52 16 -95.333 48 -130s72.667 -52 122 -52c57.333 0 109.833 24.833 157.5 74.5s71.5 108.167 71.5 175.5c0 53.333 -16 96.666 -48 129.999s-72.667 50 -122 50zM1192 547.001
c0 -150 -61.167 -282 -183.5 -396s-263.166 -171 -422.499 -171c-151.333 0 -275.833 47.333 -373.5 142s-146.5 207 -146.5 337c0 148.667 60.667 280 182 394s262.666 171 423.999 171c151.333 0 275.833 -47 373.5 -141s146.5 -206 146.5 -336zM352 1276
c0 48 20.5 91.333 61.5 130s86.833 58 137.5 58c44 0 81 -15.667 111 -47s45 -68 45 -110c0 -49.333 -20.5 -93.5 -61.5 -132.5s-86.833 -58.5 -137.5 -58.5c-44 0 -81 16.167 -111 48.5s-45 69.5 -45 111.5zM823 1276c0 48 20.5 91.333 61.5 130s86.833 58 137.5 58
c44 0 81 -15.667 111 -47s45 -68 45 -110c0 -49.333 -20.5 -93.5 -61.5 -132.5s-86.833 -58.5 -137.5 -58.5c-44 0 -81 16.167 -111 48.5s-45 69.5 -45 111.5z" />
    <glyph glyph-name="divide" unicode="&#xf7;" horiz-adv-x="1085" 
d="M463 983c0 49.333 21.5 92 64.5 128s92.5 54 148.5 54c53.333 0 97 -16 131 -48s51 -69 51 -111c0 -50.667 -20.5 -94.5 -61.5 -131.5s-91.5 -55.5 -151.5 -55.5c-54.667 0 -98.667 16.333 -132 49s-50 71 -50 115zM1075 727l-53 -246h-942l53 246h942zM297 205
c0 49.333 21.5 92.001 64.5 128.001s92.5 54 148.5 54c53.333 0 97 -16 131 -48s51 -69.333 51 -112c0 -50.667 -20.5 -94.334 -61.5 -131.001s-91.5 -55 -151.5 -55c-54.667 0 -98.667 16.333 -132 49s-50 71 -50 115z" />
    <glyph glyph-name="oslash" unicode="&#xf8;" 
d="M1192 547c0 -150 -61.833 -282.001 -185.5 -396.001s-263.834 -171 -420.501 -171c-110.667 0 -211 28.667 -301 86l-179 -152l-133 172l160 137c-45.333 72.667 -67.666 151.334 -66.999 236.001c0 148.667 61 280 183 394s263 171 423 171
c109.333 0 209 -28.667 299 -86l178 152l133 -172l-158 -136c45.333 -74.667 68 -153 68 -235zM598 286.999c56 0 107.832 23.833 155.499 71.5s72.167 104.167 73.5 169.5l-276 -235c14.667 -4 30.334 -6 47.001 -6zM656.999 716.999c-58.667 0 -111.168 -25 -157.501 -75
s-70.166 -105.667 -71.499 -167l277 236c-16.667 4 -32.667 6 -48 6z" />
    <glyph glyph-name="ugrave" unicode="&#xf9;" horiz-adv-x="1259" 
d="M676 0l19.999 102.001c-8 -9.33301 -19.167 -20.833 -33.5 -34.5s-46 -31.667 -95 -54s-100.833 -33.5 -155.5 -33.5c-94 0 -170.833 28.667 -230.5 86s-89.5 133.666 -89.5 228.999c0 32.667 4 67.334 12 104.001l129 605h349l-117 -543
c-2.66699 -16.667 -4 -28.334 -4 -35.001c0 -36.667 10.833 -65.667 32.5 -87s51.167 -32 88.5 -32c46.667 0 88.334 16.833 125.001 50.5s61 78.5 73 134.5l109 512h348l-213 -1004h-348zM790.999 1466l98 -329h-287l-174 329h363z" />
    <glyph glyph-name="uacute" unicode="&#xfa;" horiz-adv-x="1259" 
d="M676 0l19.999 102.001c-8 -9.33301 -19.167 -20.833 -33.5 -34.5s-46 -31.667 -95 -54s-100.833 -33.5 -155.5 -33.5c-94 0 -170.833 28.667 -230.5 86s-89.5 133.666 -89.5 228.999c0 32.667 4 67.334 12 104.001l129 605h349l-117 -543
c-2.66699 -16.667 -4 -28.334 -4 -35.001c0 -36.667 10.833 -65.667 32.5 -87s51.167 -32 88.5 -32c46.667 0 88.334 16.833 125.001 50.5s61 78.5 73 134.5l109 512h348l-213 -1004h-348zM585.999 1137l241 329h377l-317 -329h-301z" />
    <glyph glyph-name="ucircumflex" unicode="&#xfb;" horiz-adv-x="1259" 
d="M676 0l19.999 102.001c-8 -9.33301 -19.167 -20.833 -33.5 -34.5s-46 -31.667 -95 -54s-100.833 -33.5 -155.5 -33.5c-94 0 -170.833 28.667 -230.5 86s-89.5 133.666 -89.5 228.999c0 32.667 4 67.334 12 104.001l129 605h349l-117 -543
c-2.66699 -16.667 -4 -28.334 -4 -35.001c0 -36.667 10.833 -65.667 32.5 -87s51.167 -32 88.5 -32c46.667 0 88.334 16.833 125.001 50.5s61 78.5 73 134.5l109 512h348l-213 -1004h-348zM777.999 1280l-131 -143h-334l332 327h311l197 -327h-299z" />
    <glyph glyph-name="udieresis" unicode="&#xfc;" horiz-adv-x="1259" 
d="M676 0l19.999 102.001c-8 -9.33301 -19.167 -20.833 -33.5 -34.5s-46 -31.667 -95 -54s-100.833 -33.5 -155.5 -33.5c-94 0 -170.833 28.667 -230.5 86s-89.5 133.666 -89.5 228.999c0 32.667 4 67.334 12 104.001l129 605h349l-117 -543
c-2.66699 -16.667 -4 -28.334 -4 -35.001c0 -36.667 10.833 -65.667 32.5 -87s51.167 -32 88.5 -32c46.667 0 88.334 16.833 125.001 50.5s61 78.5 73 134.5l109 512h348l-213 -1004h-348zM355.999 1276c0 48 20.5 91.333 61.5 130s86.833 58 137.5 58
c44 0 81 -15.667 111 -47s45 -68 45 -110c0 -49.333 -20.5 -93.5 -61.5 -132.5s-86.833 -58.5 -137.5 -58.5c-44 0 -81 16.167 -111 48.5s-45 69.5 -45 111.5zM826.999 1276c0 48 20.5 91.333 61.5 130s86.833 58 137.5 58c44 0 81 -15.667 111 -47s45 -68 45 -110
c0 -49.333 -20.5 -93.5 -61.5 -132.5s-86.833 -58.5 -137.5 -58.5c-44 0 -81 16.167 -111 48.5s-45 69.5 -45 111.5z" />
    <glyph glyph-name="yacute" unicode="&#xfd;" horiz-adv-x="1105" 
d="M231 -20l37.002 49.001l-157 975h352l63 -584l310 584h381l-592 -1004c-88.667 -150 -174 -259.167 -256 -327.5s-171 -102.5 -267 -102.5c-32.667 0 -65.334 2.66699 -98.001 8s-57.334 10.666 -74.001 15.999l-24 7l63 307c26 -13.333 59.667 -20.333 101 -21
c65.333 0.666992 119 31.667 161 93zM500.002 1137l241 329h377l-317 -329h-301z" />
    <glyph glyph-name="thorn" unicode="&#xfe;" horiz-adv-x="1310" 
d="M725 717c-64 0 -119.334 -25.332 -166.001 -75.999s-70 -109.334 -70 -176.001c0 -49.333 16.833 -91.333 50.5 -126s72.834 -52 117.501 -52c60 0 113.667 24.5 161 73.5s71 109.833 71 182.5c0 48 -16.333 89 -49 123s-71 51 -115 51zM415.999 135.001
l-118.999 -564.998h-348l395 1864h348l-114 -541c2.66699 4 6.66699 8.66699 12 14s16.833 15.666 34.5 30.999s37.167 28.666 58.5 39.999s48.666 21.833 81.999 31.5s68.333 14.5 105 14.5c105.333 0 195.833 -41 271.5 -123s113.5 -181.667 113.5 -299
c0 -178.667 -56.667 -327 -170 -445s-242.333 -177 -387 -177c-36.667 0 -71.667 5.33301 -105 16s-60.333 23.5 -81 38.5s-38.5 30 -53.5 45s-25.833 28.167 -32.5 39.5z" />
    <glyph glyph-name="ydieresis" unicode="&#xff;" horiz-adv-x="1105" 
d="M231 -20l37.002 49.001l-157 975h352l63 -584l310 584h381l-592 -1004c-88.667 -150 -174 -259.167 -256 -327.5s-171 -102.5 -267 -102.5c-32.667 0 -65.334 2.66699 -98.001 8s-57.334 10.666 -74.001 15.999l-24 7l63 307c26 -13.333 59.667 -20.333 101 -21
c65.333 0.666992 119 31.667 161 93zM285.002 1276c0 48 20.5 91.333 61.5 130s86.5 58 136.5 58c44 0 81 -15.667 111 -47s45 -68 45 -110c0 -49.333 -20.5 -93.5 -61.5 -132.5s-86.833 -58.5 -137.5 -58.5c-44 0 -80.833 16.167 -110.5 48.5s-44.5 69.5 -44.5 111.5z
M756.002 1276c0 48 20.5 91.333 61.5 130s86.5 58 136.5 58c44 0 81 -15.667 111 -47s45 -68 45 -110c0 -49.333 -20.5 -93.5 -61.5 -132.5s-86.833 -58.5 -137.5 -58.5c-44 0 -80.833 16.167 -110.5 48.5s-44.5 69.5 -44.5 111.5z" />
    <glyph glyph-name="Amacron" unicode="&#x100;" horiz-adv-x="1515" 
d="M944 614l-45 420l-221 -420h266zM981 307h-471l-166 -307h-436l846 1434h430l239 -1434h-403zM1384 1915l-57 -266h-676l58 266h675z" />
    <glyph glyph-name="amacron" unicode="&#x101;" horiz-adv-x="1302" 
d="M596 287c64 0 119.167 25.168 165.5 75.501s69.5 109.166 69.5 176.499c0 49.333 -16.667 91.333 -50 126s-72.333 52 -117 52c-60 0 -113.667 -24.667 -161 -74s-71 -110 -71 -182c0 -48 16.333 -89 49 -123s71 -51 115 -51zM905 868.001l28.999 136h348l-213 -1004
h-348l22 111c-2.66699 -4 -6.66699 -8.83301 -12 -14.5s-16.833 -16 -34.5 -31s-37.167 -28.333 -58.5 -40s-48.666 -22.167 -81.999 -31.5s-68.333 -14 -105 -14c-105.333 0 -195.833 40.833 -271.5 122.5s-113.5 181.167 -113.5 298.5c0 178.667 56.667 327.167 170 445.5
s242.333 177.5 387 177.5c36.667 0 71.667 -5.5 105 -16.5s60.333 -24 81 -39s38.5 -30 53.5 -45s25.833 -27.833 32.5 -38.5zM1159 1464l-57 -266h-676l57 266h676z" />
    <glyph glyph-name="Abreve" unicode="&#x102;" horiz-adv-x="1515" 
d="M944 614l-45 420l-221 -420h266zM981 307h-471l-166 -307h-436l846 1434h430l239 -1434h-403zM1008 1597c-102.667 0 -184.001 31.834 -244.001 95.501s-80.667 141.167 -62 232.5h246c-5.33301 -30 -0.166016 -54.5 15.501 -73.5s39.167 -28.5 70.5 -28.5
c30 0 55.667 9.16699 77 27.5s35.333 43.166 42 74.499h246c-20.667 -95.333 -66 -173.833 -136 -235.5s-155 -92.5 -255 -92.5z" />
    <glyph glyph-name="abreve" unicode="&#x103;" horiz-adv-x="1302" 
d="M596 287c64 0 119.167 25.168 165.5 75.501s69.5 109.166 69.5 176.499c0 49.333 -16.667 91.333 -50 126s-72.333 52 -117 52c-60 0 -113.667 -24.667 -161 -74s-71 -110 -71 -182c0 -48 16.333 -89 49 -123s71 -51 115 -51zM905 868.001l28.999 136h348l-213 -1004
h-348l22 111c-2.66699 -4 -6.66699 -8.83301 -12 -14.5s-16.833 -16 -34.5 -31s-37.167 -28.333 -58.5 -40s-48.666 -22.167 -81.999 -31.5s-68.333 -14 -105 -14c-105.333 0 -195.833 40.833 -271.5 122.5s-113.5 181.167 -113.5 298.5c0 178.667 56.667 327.167 170 445.5
s242.333 177.5 387 177.5c36.667 0 71.667 -5.5 105 -16.5s60.333 -24 81 -39s38.5 -30 53.5 -45s25.833 -27.833 32.5 -38.5zM765.999 1137c-102.667 0 -184 31.668 -244 95.001s-80.333 140.666 -61 231.999h246c-5.33301 -30 -0.333008 -54.5 15 -73.5s39 -28.5 71 -28.5
c30 0 55.5 9.16699 76.5 27.5s34.833 43.166 41.5 74.499h246c-20.667 -95.333 -66 -173.666 -136 -234.999s-155 -92 -255 -92z" />
    <glyph glyph-name="Aogonek" unicode="&#x104;" horiz-adv-x="1515" 
d="M1020 0l-39 307.001h-471l-166 -307h-436l846 1434h430l239 -1434h-249c-72.667 -78 -109 -153 -109 -225c0 -40.667 22.667 -61.334 68 -62.001c18 0 36 2.83301 54 8.5s32 11.167 42 16.5l12 6l-39 -184c-53.333 -27.333 -117.333 -41 -192 -41
c-62.667 0 -112.167 17 -148.5 51s-54.5 77.667 -54.5 131c0 24.667 4 49 12 73s18.167 45.5 30.5 64.5s26 37 41 54s30 32 45 45s29 24.333 42 34s23.167 16.5 30.5 20.5zM944 614.001l-45 420l-221 -420h266z" />
    <glyph glyph-name="aogonek" unicode="&#x105;" horiz-adv-x="1302" 
d="M596 287c64 0 119.167 25.168 165.5 75.501s69.5 109.166 69.5 176.499c0 49.333 -16.667 91.333 -50 126s-72.333 52 -117 52c-60 0 -113.667 -24.667 -161 -74s-71 -110 -71 -182c0 -48 16.333 -89 49 -123s71 -51 115 -51zM721 0.000976562l21.999 111.001
c-2.66699 -4 -6.66699 -8.83301 -12 -14.5s-16.833 -16 -34.5 -31s-37.167 -28.333 -58.5 -40s-48.666 -22.167 -81.999 -31.5s-68.333 -14 -105 -14c-105.333 0 -195.833 40.833 -271.5 122.5s-113.5 181.167 -113.5 298.5c0 178.667 56.667 327.167 170 445.5
s242.333 177.5 387 177.5c36.667 0 71.667 -5.5 105 -16.5s60.333 -24 81 -39s38.5 -30 53.5 -45s25.833 -27.833 32.5 -38.5l10 -17l29 136h348l-213 -1004h-195c-72.667 -78 -108.667 -153 -108 -225c0 -40.667 22.667 -61.334 68 -62.001c18 0 36 2.83301 54 8.5
s32 11.167 42 16.5l12 6l-39 -184c-53.333 -27.333 -117.333 -41 -192 -41c-62.667 0 -112.167 17 -148.5 51s-54.5 77.667 -54.5 131c0 24.667 4 49 12 73s18.167 45.5 30.5 64.5s26 37 41 54s30 32 45 45s29 24.333 42 34s23.167 16.5 30.5 20.5z" />
    <glyph glyph-name="Cacute" unicode="&#x106;" horiz-adv-x="1536" 
d="M1014 1126c-134 0 -249.836 -47.6689 -347.503 -143.002s-146.5 -211.333 -146.5 -348c0 -94 31.5 -172.167 94.5 -234.5s144.167 -93.5 243.5 -93.5c46.667 0 92.5 6.83301 137.5 20.5s83.5 30.167 115.5 49.5s60.667 38.833 86 58.5s44 36.167 56 49.5l21 21l180 -260
c-6.66699 -8 -15.834 -18.5 -27.501 -31.5s-38.334 -36 -80.001 -69s-85.667 -62.167 -132 -87.5s-106.666 -48.166 -180.999 -68.499s-150.5 -30.5 -228.5 -30.5c-194 0 -355.833 65.5 -485.5 196.5s-194.5 283.833 -194.5 458.5c0 234.667 90.5 436.834 271.5 606.501
s397.833 254.5 650.5 254.5c76.667 0 149.334 -10 218.001 -30s125.167 -44 169.5 -72s83.333 -56 117 -84s57.167 -52 70.5 -72l23 -29l-277 -234c-2.66699 4 -7 10.167 -13 18.5s-19.667 22.333 -41 42s-44.666 37.167 -69.999 52.5s-58.666 29 -99.999 41
s-84.666 18 -129.999 18zM902.997 1597l242 330h377l-318 -330h-301z" />
    <glyph glyph-name="cacute" unicode="&#x107;" horiz-adv-x="1105" 
d="M66 428c0 161.333 63.0039 301 189.004 419s274.333 177 445 177c53.333 0 104.666 -7.16699 153.999 -21.5s89.666 -31.333 120.999 -51s59 -39.5 83 -59.5s41.333 -37.333 52 -52l16 -21l-241 -207c-5.33301 8 -12.833 17.833 -22.5 29.5s-32 27.167 -67 46.5
s-72.167 29 -111.5 29c-70.667 0 -131 -24.333 -181 -73s-75 -109 -75 -181c0 -49.333 16.667 -91 50 -125s76.666 -51 129.999 -51c39.333 0 77.5 9.5 114.5 28.5s64.5 38.167 82.5 57.5l26 26l164 -221c-4 -5.33301 -10.333 -12.5 -19 -21.5s-27.334 -24.667 -56.001 -47
s-59.167 -42.333 -91.5 -60s-74 -33.667 -125 -48s-103.167 -21.5 -156.5 -21.5c-132.667 0 -246 45 -340 135s-141 194.333 -141 313zM555.004 1137l242 329h377l-318 -329h-301z" />
    <glyph glyph-name="Ccircumflex" unicode="&#x108;" horiz-adv-x="1536" 
d="M1014 1126c-134 0 -249.836 -47.6689 -347.503 -143.002s-146.5 -211.333 -146.5 -348c0 -94 31.5 -172.167 94.5 -234.5s144.167 -93.5 243.5 -93.5c46.667 0 92.5 6.83301 137.5 20.5s83.5 30.167 115.5 49.5s60.667 38.833 86 58.5s44 36.167 56 49.5l21 21l180 -260
c-6.66699 -8 -15.834 -18.5 -27.501 -31.5s-38.334 -36 -80.001 -69s-85.667 -62.167 -132 -87.5s-106.666 -48.166 -180.999 -68.499s-150.5 -30.5 -228.5 -30.5c-194 0 -355.833 65.5 -485.5 196.5s-194.5 283.833 -194.5 458.5c0 234.667 90.5 436.834 271.5 606.501
s397.833 254.5 650.5 254.5c76.667 0 149.334 -10 218.001 -30s125.167 -44 169.5 -72s83.333 -56 117 -84s57.167 -52 70.5 -72l23 -29l-277 -234c-2.66699 4 -7 10.167 -13 18.5s-19.667 22.333 -41 42s-44.666 37.167 -69.999 52.5s-58.666 29 -99.999 41
s-84.666 18 -129.999 18zM1106 1741l-131 -144h-334l332 328h311l197 -328h-299z" />
    <glyph glyph-name="ccircumflex" unicode="&#x109;" horiz-adv-x="1105" 
d="M66 428c0 161.333 63.0039 301 189.004 419s274.333 177 445 177c53.333 0 104.666 -7.16699 153.999 -21.5s89.666 -31.333 120.999 -51s59 -39.5 83 -59.5s41.333 -37.333 52 -52l16 -21l-241 -207c-5.33301 8 -12.833 17.833 -22.5 29.5s-32 27.167 -67 46.5
s-72.167 29 -111.5 29c-70.667 0 -131 -24.333 -181 -73s-75 -109 -75 -181c0 -49.333 16.667 -91 50 -125s76.666 -51 129.999 -51c39.333 0 77.5 9.5 114.5 28.5s64.5 38.167 82.5 57.5l26 26l164 -221c-4 -5.33301 -10.333 -12.5 -19 -21.5s-27.334 -24.667 -56.001 -47
s-59.167 -42.333 -91.5 -60s-74 -33.667 -125 -48s-103.167 -21.5 -156.5 -21.5c-132.667 0 -246 45 -340 135s-141 194.333 -141 313zM764.004 1280l-131 -143h-334l332 327h311l197 -327h-299z" />
    <glyph glyph-name="Ccaron" unicode="&#x10c;" horiz-adv-x="1536" 
d="M1014 1126c-134 0 -249.836 -47.6689 -347.503 -143.002s-146.5 -211.333 -146.5 -348c0 -94 31.5 -172.167 94.5 -234.5s144.167 -93.5 243.5 -93.5c46.667 0 92.5 6.83301 137.5 20.5s83.5 30.167 115.5 49.5s60.667 38.833 86 58.5s44 36.167 56 49.5l21 21l180 -260
c-6.66699 -8 -15.834 -18.5 -27.501 -31.5s-38.334 -36 -80.001 -69s-85.667 -62.167 -132 -87.5s-106.666 -48.166 -180.999 -68.499s-150.5 -30.5 -228.5 -30.5c-194 0 -355.833 65.5 -485.5 196.5s-194.5 283.833 -194.5 458.5c0 234.667 90.5 436.834 271.5 606.501
s397.833 254.5 650.5 254.5c76.667 0 149.334 -10 218.001 -30s125.167 -44 169.5 -72s83.333 -56 117 -84s57.167 -52 70.5 -72l23 -29l-277 -234c-2.66699 4 -7 10.167 -13 18.5s-19.667 22.333 -41 42s-44.666 37.167 -69.999 52.5s-58.666 29 -99.999 41
s-84.666 18 -129.999 18zM1100 1782l131 143h334l-332 -328h-311l-197 328h299z" />
    <glyph glyph-name="ccaron" unicode="&#x10d;" horiz-adv-x="1105" 
d="M66 428c0 161.333 63.0039 301 189.004 419s274.333 177 445 177c53.333 0 104.666 -7.16699 153.999 -21.5s89.666 -31.333 120.999 -51s59 -39.5 83 -59.5s41.333 -37.333 52 -52l16 -21l-241 -207c-5.33301 8 -12.833 17.833 -22.5 29.5s-32 27.167 -67 46.5
s-72.167 29 -111.5 29c-70.667 0 -131 -24.333 -181 -73s-75 -109 -75 -181c0 -49.333 16.667 -91 50 -125s76.666 -51 129.999 -51c39.333 0 77.5 9.5 114.5 28.5s64.5 38.167 82.5 57.5l26 26l164 -221c-4 -5.33301 -10.333 -12.5 -19 -21.5s-27.334 -24.667 -56.001 -47
s-59.167 -42.333 -91.5 -60s-74 -33.667 -125 -48s-103.167 -21.5 -156.5 -21.5c-132.667 0 -246 45 -340 135s-141 194.333 -141 313zM739.004 1321l131 143h334l-332 -327h-311l-196 327h299z" />
    <glyph glyph-name="Dcaron" unicode="&#x10e;" horiz-adv-x="1556" 
d="M375 1434l521.999 0.000976562c187.333 0 343 -61.5 467 -184.5s186 -268.5 186 -436.5c0 -230.667 -85.667 -423.834 -257 -579.501s-379.666 -233.5 -624.999 -233.5h-596zM845.999 1085l-156.001 -0.000976562l-155 -737h159c114.667 0 219.834 42.667 315.501 128
s143.5 190.333 143.5 315c0 84.667 -28.333 154.834 -85 210.501s-130.667 83.5 -222 83.5zM937.998 1782l131 143h334l-332 -328h-311l-197 328h299z" />
    <glyph glyph-name="dcaron" unicode="&#x10f;" horiz-adv-x="1474" 
d="M592 287c64 0 119.166 25.168 165.499 75.501s69.5 109.166 69.5 176.499c0 49.333 -16.667 91.333 -50 126s-72.666 52 -117.999 52c-60 0 -113.5 -24.667 -160.5 -74s-70.5 -110 -70.5 -182c0 -48 16.333 -89 49 -123s71 -51 115 -51zM900.999 868.001l118.996 566h348
l-303 -1434h-348l22 111c-2.66699 -4 -6.66699 -8.83301 -12 -14.5s-16.833 -16 -34.5 -31s-37.167 -28.333 -58.5 -40s-48.666 -22.167 -81.999 -31.5s-68.666 -14 -105.999 -14c-105.333 0 -195.833 40.833 -271.5 122.5s-113.5 181.167 -113.5 298.5
c0 178.667 56.667 327.167 170 445.5s242.333 177.5 387 177.5c36.667 0 71.834 -5.5 105.501 -16.5s60.834 -24 81.501 -39s38.5 -30 53.5 -45s25.833 -27.833 32.5 -38.5zM1348 1106l165 328h336l-223 -328h-278z" />
    <glyph glyph-name="Dcroat" unicode="&#x110;" horiz-adv-x="1597" 
d="M416 1434l521.999 0.000976562c187.333 0 343 -61.5 467 -184.5s186 -268.5 186 -436.5c0 -230.667 -85.667 -423.834 -257 -579.501s-379.666 -233.5 -624.999 -233.5h-596l120 573h-153l61 287h152zM886.999 1085l-156.001 -0.000976562l-49 -225h238l-62 -287h-235
l-48 -225h160c114.667 0 219.834 42.667 315.501 128s143.5 190.333 143.5 315c0 84.667 -28.333 154.834 -85 210.501s-130.667 83.5 -222 83.5z" />
    <glyph glyph-name="dcroat" unicode="&#x111;" horiz-adv-x="1290" 
d="M684 1004l61.0029 295.999h216l28 134h348l-28 -134h153l-61 -296h-154l-213 -1004h-348l21 102c-8 -9.33301 -19.333 -20.833 -34 -34.5s-47.5 -31.667 -98.5 -54s-105.167 -33.5 -162.5 -33.5c-101.333 0 -188.166 39.167 -260.499 117.5
s-108.5 172.166 -108.5 281.499c0 160 53.167 293.833 159.5 401.5s227.833 161.5 364.5 161.5c39.333 0 76.166 -4.83301 110.499 -14.5s62.166 -21.667 83.499 -36s39.166 -28.666 53.499 -42.999s24.166 -26.166 29.499 -35.499l10 -14l45 205h-215zM561.003 265.999
c58.667 0 110.833 23.333 156.5 70s68.5 102.667 68.5 168c0 44 -14 80.167 -42 108.5s-63.667 42.5 -107 42.5c-58.667 0 -111.167 -22.833 -157.5 -68.5s-69.5 -101.167 -69.5 -166.5c0 -44 14.167 -80.667 42.5 -110s64.5 -44 108.5 -44z" />
    <glyph glyph-name="Emacron" unicode="&#x112;" horiz-adv-x="1372" 
d="M530 328h738l-70 -328h-1126l303 1434h1106l-70 -328h-717l-47 -225h553l-65 -308h-553zM1350 1915l-58 -266h-676l58 266h676z" />
    <glyph glyph-name="emacron" unicode="&#x113;" horiz-adv-x="1187" 
d="M1100 410h-690c9.33301 -46.667 32.833 -84 70.5 -112s85.167 -42 142.5 -42c42 0 83.5 8.16699 124.5 24.5s71.167 32.833 90.5 49.5l28 24l107 -229c-4 -4 -10.167 -9.16699 -18.5 -15.5s-26.5 -18 -54.5 -35s-57 -32 -87 -45s-69.167 -24.5 -117.5 -34.5
s-97.166 -15 -146.499 -15c-136.667 0 -251.834 43.667 -345.501 131s-140.5 191 -140.5 311c0 165.333 62.5 307 187.5 425s271.5 177 439.5 177c130 0 238.333 -38.167 325 -114.5s130 -171.166 130 -284.499c0 -70.667 -15 -142.334 -45 -215.001zM649 758
c-90 0 -158.333 -48.001 -205 -144.001h361c-1.33301 40.667 -16.333 74.834 -45 102.501s-65.667 41.5 -111 41.5zM1114 1444l-57 -266h-676l57 266h676z" />
    <glyph glyph-name="Edotaccent" unicode="&#x116;" horiz-adv-x="1372" 
d="M530 328h738l-70 -328h-1126l303 1434h1106l-70 -328h-717l-47 -225h553l-65 -308h-553zM1184 1782c0 -53.333 -21.498 -100.834 -64.498 -142.501s-93.167 -62.5 -150.5 -62.5c-54.667 0 -98.834 15.333 -132.501 46s-50.5 69.334 -50.5 116.001
c0 56 21.5 104.5 64.5 145.5s94.167 61.5 153.5 61.5c53.333 0 96.666 -16 129.999 -48s50 -70.667 50 -116z" />
    <glyph glyph-name="edotaccent" unicode="&#x117;" horiz-adv-x="1187" 
d="M1100 410h-690c9.33301 -46.667 32.833 -84 70.5 -112s85.167 -42 142.5 -42c42 0 83.5 8.16699 124.5 24.5s71.167 32.833 90.5 49.5l28 24l107 -229c-4 -4 -10.167 -9.16699 -18.5 -15.5s-26.5 -18 -54.5 -35s-57 -32 -87 -45s-69.167 -24.5 -117.5 -34.5
s-97.166 -15 -146.499 -15c-136.667 0 -251.834 43.667 -345.501 131s-140.5 191 -140.5 311c0 165.333 62.5 307 187.5 425s271.5 177 439.5 177c130 0 238.333 -38.167 325 -114.5s130 -171.166 130 -284.499c0 -70.667 -15 -142.334 -45 -215.001zM649 758
c-90 0 -158.333 -48.001 -205 -144.001h361c-1.33301 40.667 -16.333 74.834 -45 102.501s-65.667 41.5 -111 41.5zM958 1333c0 -53.333 -21.499 -100.833 -64.499 -142.5s-93.167 -62.5 -150.5 -62.5c-54.667 0 -98.667 15.5 -132 46.5s-50 69.5 -50 115.5
c0 56 21.5 104.5 64.5 145.5s93.833 61.5 152.5 61.5c53.333 0 96.666 -16 129.999 -48s50 -70.667 50 -116z" />
    <glyph glyph-name="Eogonek" unicode="&#x118;" horiz-adv-x="1372" 
d="M1044 0l-971.999 0.000976562l303 1434h1106l-70 -328h-717l-47 -225h553l-65 -308h-553l-52 -245h738l-70 -328c-72.667 -78 -108.667 -153 -108 -225c0 -40.667 22.333 -61.334 67 -62.001c18 0 36.167 2.83301 54.5 8.5s32.166 11.167 41.499 16.5l13 6l-39 -184
c-53.333 -27.333 -117.666 -41 -192.999 -41c-62.667 0 -112.167 17 -148.5 51s-54.5 77.667 -54.5 131c0 24.667 4.16699 49 12.5 73s18.666 45.5 30.999 64.5s26 37 41 54s30 32 45 45s29 24.333 42 34s22.833 16.5 29.5 20.5z" />
    <glyph glyph-name="eogonek" unicode="&#x119;" horiz-adv-x="1187" 
d="M1100 410l-689.998 -0.00195312c9.33301 -46.667 32.833 -84 70.5 -112s85.167 -42 142.5 -42c42 0 83.5 8.5 124.5 25.5s71.167 33.833 90.5 50.5l28 24l107 -231c-9.33301 -9.33301 -24 -21.166 -44 -35.499s-61.333 -34.5 -124 -60.5s-128.334 -41.667 -197.001 -47
c-61.333 -75.333 -92 -144.333 -92 -207c0 -40.667 22.667 -61.334 68 -62.001c18 0 36.167 2.83301 54.5 8.5s32.166 11.167 41.499 16.5l12 6l-39 -184c-53.333 -27.333 -117.333 -41 -192 -41c-62.667 0 -112.167 17 -148.5 51s-54.5 77.667 -54.5 131
c0 44 13.667 87.833 41 131.5s53.666 76.334 78.999 98.001s50.333 40.834 75 57.501c-113.333 20.667 -206.666 72.167 -279.999 154.5s-110 175.5 -110 279.5c0 165.333 62.5 307 187.5 425s271.5 177 439.5 177c130 0 238.333 -38.167 325 -114.5
s130 -171.166 130 -284.499c0 -70.667 -15 -142.334 -45 -215.001zM649.002 757.998c-90 0 -158.333 -48.001 -205 -144.001h361c-1.33301 40.667 -16.333 74.834 -45 102.501s-65.667 41.5 -111 41.5z" />
    <glyph glyph-name="Ecaron" unicode="&#x11a;" horiz-adv-x="1372" 
d="M530 328h738l-70 -328h-1126l303 1434h1106l-70 -328h-717l-47 -225h553l-65 -308h-553zM973 1782l131 143h334l-332 -328h-311l-197 328h299z" />
    <glyph glyph-name="ecaron" unicode="&#x11b;" horiz-adv-x="1187" 
d="M1100 410h-690c9.33301 -46.667 32.833 -84 70.5 -112s85.167 -42 142.5 -42c42 0 83.5 8.16699 124.5 24.5s71.167 32.833 90.5 49.5l28 24l107 -229c-4 -4 -10.167 -9.16699 -18.5 -15.5s-26.5 -18 -54.5 -35s-57 -32 -87 -45s-69.167 -24.5 -117.5 -34.5
s-97.166 -15 -146.499 -15c-136.667 0 -251.834 43.667 -345.501 131s-140.5 191 -140.5 311c0 165.333 62.5 307 187.5 425s271.5 177 439.5 177c130 0 238.333 -38.167 325 -114.5s130 -171.166 130 -284.499c0 -70.667 -15 -142.334 -45 -215.001zM649 758
c-90 0 -158.333 -48.001 -205 -144.001h361c-1.33301 40.667 -16.333 74.834 -45 102.501s-65.667 41.5 -111 41.5zM748 1321l131 143h333l-331 -327h-312l-196 327h299z" />
    <glyph glyph-name="Gbreve" unicode="&#x11e;" horiz-adv-x="1658" 
d="M815 -41c-194 0 -357.501 65.498 -490.501 196.498s-199.5 283.833 -199.5 458.5c0 234.667 91.5 436.834 274.5 606.501s400.833 254.5 653.5 254.5c76.667 0 149.334 -10 218.001 -30s124.5 -44 167.5 -72s81 -56 114 -84s56.167 -52 69.5 -72l23 -29l-277 -234
c-2.66699 4 -7 10.167 -13 18.5s-20 22.333 -42 42s-45.333 37.167 -70 52.5s-57.5 29 -98.5 41s-83.167 18 -126.5 18c-134 0 -250.5 -48 -349.5 -144s-148.5 -213.667 -148.5 -353c0 -92.667 31.5 -169.5 94.5 -230.5s144.167 -91.5 243.5 -91.5
c49.333 0 95.5 7.5 138.5 22.5s74.167 30.833 93.5 47.5l28 22l33 154h-225l51 246h614l-116 -553c-6.66699 -8 -16.667 -18.5 -30 -31.5s-41.5 -36 -84.5 -69s-88.333 -62.167 -136 -87.5s-108.667 -48.166 -183 -68.499s-149.833 -30.5 -226.5 -30.5zM1083 1597
c-102.667 0 -183.834 31.834 -243.501 95.501s-80.167 141.167 -61.5 232.5h246c-5.33301 -30 -0.166016 -54.5 15.501 -73.5s39.167 -28.5 70.5 -28.5c30 0 55.667 9.16699 77 27.5s35.333 43.166 42 74.499h246c-20.667 -95.333 -66.167 -173.833 -136.5 -235.5
s-155.5 -92.5 -255.5 -92.5z" />
    <glyph glyph-name="gbreve" unicode="&#x11f;" horiz-adv-x="1269" 
d="M719 113l13.999 58.999c-2.66699 -4 -7 -8.66699 -13 -14s-19 -15.666 -39 -30.999s-40.833 -28.666 -62.5 -39.999s-50 -21.833 -85 -31.5s-70.167 -14.5 -105.5 -14.5c-94 0 -177.167 40.333 -249.5 121s-108.5 175.334 -108.5 284.001c0 157.333 54.5 293 163.5 407
s227.167 171 354.5 171c58.667 0 112.167 -13 160.5 -39s82.833 -52 103.5 -78l29 -39l28 136h348l-190 -891c-32.667 -152.667 -108.834 -281.334 -228.501 -386.001s-259.167 -157 -418.5 -157c-60 0 -117 7.5 -171 22.5s-98 32.667 -132 53s-64 41.166 -90 62.499
s-44.667 39.333 -56 54l-18 23l231 201c5.33301 -8 13.5 -19 24.5 -33s36.333 -31.833 76 -53.5s84.167 -32.5 133.5 -32.5c76.667 0 141.834 22.5 195.501 67.5s88.834 104.5 105.501 178.5zM650.999 716.999c-56 0 -105.833 -20.832 -149.5 -62.499
s-65.5 -92.5 -65.5 -152.5c0 -42 15.333 -78.167 46 -108.5s68 -45.5 112 -45.5c58.667 0 109.5 21.167 152.5 63.5s64.5 92.166 64.5 149.499c0 42 -15.667 78.5 -47 109.5s-69 46.5 -113 46.5zM767.999 1137c-102.667 0 -184.001 31.668 -244.001 95.001
s-80.333 140.666 -61 231.999h246c-5.33301 -30 -0.166016 -54.5 15.501 -73.5s39.167 -28.5 70.5 -28.5c30 0 55.5 9.16699 76.5 27.5s34.833 43.166 41.5 74.499h246c-20.667 -95.333 -66 -173.666 -136 -234.999s-155 -92 -255 -92z" />
    <glyph glyph-name="uni0122" unicode="&#x122;" horiz-adv-x="1658" 
d="M815 -41c-194 0 -357.501 65.498 -490.501 196.498s-199.5 283.833 -199.5 458.5c0 234.667 91.5 436.834 274.5 606.501s400.833 254.5 653.5 254.5c76.667 0 149.334 -10 218.001 -30s124.5 -44 167.5 -72s81 -56 114 -84s56.167 -52 69.5 -72l23 -29l-277 -234
c-2.66699 4 -7 10.167 -13 18.5s-20 22.333 -42 42s-45.333 37.167 -70 52.5s-57.5 29 -98.5 41s-83.167 18 -126.5 18c-134 0 -250.5 -48 -349.5 -144s-148.5 -213.667 -148.5 -353c0 -92.667 31.5 -169.5 94.5 -230.5s144.167 -91.5 243.5 -91.5
c49.333 0 95.5 7.5 138.5 22.5s74.167 30.833 93.5 47.5l28 22l33 154h-225l51 246h614l-116 -553c-6.66699 -8 -16.667 -18.5 -30 -31.5s-41.5 -36 -84.5 -69s-88.333 -62.167 -136 -87.5s-108.667 -48.166 -183 -68.499s-149.833 -30.5 -226.5 -30.5zM464.999 -492.002
l166 328h336l-224 -328h-278z" />
    <glyph glyph-name="uni0123" unicode="&#x123;" horiz-adv-x="1269" 
d="M719 113l13.999 58.999c-2.66699 -4 -7 -8.66699 -13 -14s-19 -15.666 -39 -30.999s-40.833 -28.666 -62.5 -39.999s-50 -21.833 -85 -31.5s-70.167 -14.5 -105.5 -14.5c-94 0 -177.167 40.333 -249.5 121s-108.5 175.334 -108.5 284.001c0 157.333 54.5 293 163.5 407
s227.167 171 354.5 171c58.667 0 112.167 -13 160.5 -39s82.833 -52 103.5 -78l29 -39l28 136h348l-190 -891c-32.667 -152.667 -108.834 -281.334 -228.501 -386.001s-259.167 -157 -418.5 -157c-60 0 -117 7.5 -171 22.5s-98 32.667 -132 53s-64 41.166 -90 62.499
s-44.667 39.333 -56 54l-18 23l231 201c5.33301 -8 13.5 -19 24.5 -33s36.333 -31.833 76 -53.5s84.167 -32.5 133.5 -32.5c76.667 0 141.834 22.5 195.501 67.5s88.834 104.5 105.501 178.5zM650.999 716.999c-56 0 -105.833 -20.832 -149.5 -62.499
s-65.5 -92.5 -65.5 -152.5c0 -42 15.333 -78.167 46 -108.5s68 -45.5 112 -45.5c58.667 0 109.5 21.167 152.5 63.5s64.5 92.166 64.5 149.499c0 42 -15.667 78.5 -47 109.5s-69 46.5 -113 46.5zM1047 1464l-168 -327h-336l219 327h285z" />
    <glyph glyph-name="Imacron" unicode="&#x12a;" horiz-adv-x="716" 
d="M72 0l303 1434h389l-303 -1434h-389zM997 1915l-57 -266h-676l58 266h675z" />
    <glyph glyph-name="imacron" unicode="&#x12b;" horiz-adv-x="614" 
d="M836 1444l-58 -266h-676l58 266h676zM592 1004l-213 -1004h-348l213 1004h348z" />
    <glyph glyph-name="Iogonek" unicode="&#x12e;" horiz-adv-x="716" 
d="M72 0l302.999 1434h389l-303 -1434h-236c-72.667 -78 -108.667 -153 -108 -225c0 -40.667 22.333 -61.334 67 -62.001c18 0 36.167 2.83301 54.5 8.5s31.833 11.167 40.5 16.5l14 6l-39 -184c-53.333 -27.333 -117.666 -41 -192.999 -41c-62.667 0 -112 17 -148 51
s-54 77.667 -54 131c0 24.667 4 49 12 73s18.167 45.5 30.5 64.5s26 37 41 54s30 32 45 45s29 24.333 42 34s23.5 16.5 31.5 20.5z" />
    <glyph glyph-name="iogonek" unicode="&#x12f;" horiz-adv-x="614" 
d="M31 0l212.999 1004h348l-213 -1004h-195c-72.667 -78 -108.667 -153 -108 -225c0 -40.667 22.333 -61.334 67 -62.001c18 0 36.167 2.83301 54.5 8.5s31.833 11.167 40.5 16.5l14 6l-39 -184c-53.333 -27.333 -117.666 -41 -192.999 -41c-62.667 0 -112 17 -148 51
s-54 77.667 -54 131c0 24.667 4 49 12 73s18.167 45.5 30.5 64.5s26 37 41 54s30 32 45 45s29 24.333 42 34s23.5 16.5 31.5 20.5zM275.999 1278c0 53.333 21.1689 101.166 63.502 143.499s93.833 63.5 154.5 63.5c53.333 0 96.666 -16 129.999 -48s50 -70.667 50 -116
c0 -54.667 -21.5 -102.5 -64.5 -143.5s-93.167 -61.5 -150.5 -61.5c-54.667 0 -98.834 15.333 -132.501 46s-50.5 69.334 -50.5 116.001z" />
    <glyph glyph-name="Idotaccent" unicode="&#x130;" horiz-adv-x="716" 
d="M72 0l303 1434h389l-303 -1434h-389zM825 1782c0 -53.333 -21.499 -100.834 -64.499 -142.501s-93.167 -62.5 -150.5 -62.5c-54.667 0 -98.667 15.333 -132 46s-50 69.334 -50 116.001c0 56 21.5 104.5 64.5 145.5s93.833 61.5 152.5 61.5
c53.333 0 96.666 -16 129.999 -48s50 -70.667 50 -116z" />
    <glyph glyph-name="dotlessi" unicode="&#x131;" horiz-adv-x="614" 
d="M592 1004l-213 -1004h-348l213 1004h348z" />
    <glyph glyph-name="uni0136" unicode="&#x136;" horiz-adv-x="1495" 
d="M745 549l-208 -191l-76 -358h-389l303 1434h389l-113 -531l553 531h482l-637 -607l374 -827h-430zM381 -492l166 328h336l-224 -328h-278z" />
    <glyph glyph-name="uni0137" unicode="&#x137;" horiz-adv-x="1177" 
d="M827 567l258 -567h-370l-162 358l-123 -110l-51 -248h-348l303 1434h348l-162 -766l354 336h414zM211 -492l166 328h336l-224 -328h-278z" />
    <glyph glyph-name="Lacute" unicode="&#x139;" horiz-adv-x="1228" 
d="M1096 0h-1024l303 1434h389l-229 -1086h634zM453 1597l241 330h377l-317 -330h-301z" />
    <glyph glyph-name="lacute" unicode="&#x13a;" horiz-adv-x="614" 
d="M682 1434l-303 -1434h-348l303 1434h348zM389 1597l242 330h377l-318 -330h-301z" />
    <glyph glyph-name="uni013B" unicode="&#x13b;" horiz-adv-x="1228" 
d="M1096 0h-1024l303 1434h389l-229 -1086h634zM250 -492l166 328h336l-224 -328h-278z" />
    <glyph glyph-name="uni013C" unicode="&#x13c;" horiz-adv-x="614" 
d="M682 1434l-303 -1434h-348l303 1434h348zM-158 -492l166 328h336l-223 -328h-279z" />
    <glyph glyph-name="Lcaron" unicode="&#x13d;" horiz-adv-x="1228" 
d="M1096 0h-1024l303 1434h389l-229 -1086h634zM786 1106l168 328h336l-223 -328h-281z" />
    <glyph glyph-name="lcaron" unicode="&#x13e;" horiz-adv-x="798" 
d="M682 1434l-303 -1434h-348l303 1434h348zM674 1106l168 328h336l-224 -328h-280z" />
    <glyph glyph-name="Lslash" unicode="&#x141;" horiz-adv-x="1351" 
d="M1219 0h-1024l90 430l-170 -82l-103 297l357 174l129 615h389l-86 -410l170 82l100 -297l-354 -174l-60 -287h635z" />
    <glyph glyph-name="lslash" unicode="&#x142;" horiz-adv-x="819" 
d="M784 1434l-90 -430l172 92l99 -267l-349 -184l-135 -645h-348l92 440l-159 -82l-99 267l334 174l135 635h348z" />
    <glyph glyph-name="Nacute" unicode="&#x143;" horiz-adv-x="1669" 
d="M1327 1434h389l-303 -1434h-330l-454 799l-168 -799h-389l303 1434h332l450 -799zM885 1597l241 330h377l-317 -330h-301z" />
    <glyph glyph-name="nacute" unicode="&#x144;" 
d="M582 1004l-24.999 -113.001c8 9.33301 19.833 21.5 35.5 36.5s49.167 34.833 100.5 59.5s104.333 37 159 37c91.333 0 165.666 -29 222.999 -87s86 -135.333 86 -232c0 -35.333 -4 -72.333 -12 -111l-125 -594h-348l112 532c2.66699 19.333 4.33398 32.333 5.00098 39
c0 38 -12 68.333 -36 91s-53.667 34 -89 34c-46.667 0 -87.334 -18.667 -122.001 -56s-59 -86.666 -73 -147.999l-104 -492h-349l213 1004h349zM612.001 1137l242 329h377l-318 -329h-301z" />
    <glyph glyph-name="uni0145" unicode="&#x145;" horiz-adv-x="1669" 
d="M1327 1434h389l-303 -1434h-330l-454 799l-168 -799h-389l303 1434h332l450 -799zM440 -492l166 328h336l-223 -328h-279z" />
    <glyph glyph-name="uni0146" unicode="&#x146;" 
d="M582 1004l-24.999 -113.001c8 9.33301 19.833 21.5 35.5 36.5s49.167 34.833 100.5 59.5s104.333 37 159 37c91.333 0 165.666 -29 222.999 -87s86 -135.333 86 -232c0 -35.333 -4 -72.333 -12 -111l-125 -594h-348l112 532c2.66699 19.333 4.33398 32.333 5.00098 39
c0 38 -12 68.333 -36 91s-53.667 34 -89 34c-46.667 0 -87.334 -18.667 -122.001 -56s-59 -86.666 -73 -147.999l-104 -492h-349l213 1004h349zM174.001 -492.001l166 328h336l-223 -328h-279z" />
    <glyph glyph-name="Ncaron" unicode="&#x147;" horiz-adv-x="1669" 
d="M1327 1434h389l-303 -1434h-330l-454 799l-168 -799h-389l303 1434h332l450 -799zM1061 1782l131 143h334l-332 -328h-311l-197 328h299z" />
    <glyph glyph-name="ncaron" unicode="&#x148;" 
d="M582 1004l-24.999 -113.001c8 9.33301 19.833 21.5 35.5 36.5s49.167 34.833 100.5 59.5s104.333 37 159 37c91.333 0 165.666 -29 222.999 -87s86 -135.333 86 -232c0 -35.333 -4 -72.333 -12 -111l-125 -594h-348l112 532c2.66699 19.333 4.33398 32.333 5.00098 39
c0 38 -12 68.333 -36 91s-53.667 34 -89 34c-46.667 0 -87.334 -18.667 -122.001 -56s-59 -86.666 -73 -147.999l-104 -492h-349l213 1004h349zM764.001 1321l131 143h334l-332 -327h-311l-197 327h299z" />
    <glyph glyph-name="Omacron" unicode="&#x14c;" horiz-adv-x="1761" 
d="M985 1126c-121.333 0 -227.5 -45.667 -318.5 -137s-136.5 -199 -136.5 -323c0 -102.667 34.167 -188.167 102.5 -256.5s155.833 -102.5 262.5 -102.5c120 0 225.833 44.333 317.5 133s137.5 198 137.5 328c0 101.333 -34.167 186.333 -102.5 255s-155.833 103 -262.5 103
zM1755 793c0 -143.333 -40.334 -279.166 -121.001 -407.499s-188.167 -231.5 -322.5 -309.5s-276.5 -117 -426.5 -117c-217.333 0 -398.333 66.833 -543 200.5s-217 294.167 -217 481.5c0 221.333 87.333 415.666 262 582.999s377.334 251 608.001 251
c217.333 0 398.333 -66.833 543 -200.5s217 -294.167 217 -481.5zM1473 1915l-58 -266h-676l58 266h676z" />
    <glyph glyph-name="omacron" unicode="&#x14d;" 
d="M657 717c-60 0 -113.167 -25.666 -159.5 -76.999s-69.5 -108.333 -69.5 -171c0 -52 16 -95.333 48 -130s72.667 -52 122 -52c57.333 0 109.833 24.833 157.5 74.5s71.5 108.167 71.5 175.5c0 53.333 -16 96.666 -48 129.999s-72.667 50 -122 50zM1192 547.001
c0 -150 -61.167 -282 -183.5 -396s-263.166 -171 -422.499 -171c-151.333 0 -275.833 47.333 -373.5 142s-146.5 207 -146.5 337c0 148.667 60.667 280 182 394s262.666 171 423.999 171c151.333 0 275.833 -47 373.5 -141s146.5 -206 146.5 -336zM1108 1444l-57 -266h-676
l57 266h676z" />
    <glyph glyph-name="Ohungarumlaut" unicode="&#x150;" horiz-adv-x="1761" 
d="M985 1126c-121.333 0 -227.5 -45.667 -318.5 -137s-136.5 -199 -136.5 -323c0 -102.667 34.167 -188.167 102.5 -256.5s155.833 -102.5 262.5 -102.5c120 0 225.833 44.333 317.5 133s137.5 198 137.5 328c0 101.333 -34.167 186.333 -102.5 255s-155.833 103 -262.5 103
zM1755 793c0 -143.333 -40.334 -279.166 -121.001 -407.499s-188.167 -231.5 -322.5 -309.5s-276.5 -117 -426.5 -117c-217.333 0 -398.333 66.833 -543 200.5s-217 294.167 -217 481.5c0 221.333 87.333 415.666 262 582.999s377.334 251 608.001 251
c217.333 0 398.333 -66.833 543 -200.5s217 -294.167 217 -481.5zM714.999 1597l250 328h335l-325 -328h-260zM1145 1597l250 328h336l-326 -328h-260z" />
    <glyph glyph-name="ohungarumlaut" unicode="&#x151;" 
d="M657 717c-60 0 -113.167 -25.666 -159.5 -76.999s-69.5 -108.333 -69.5 -171c0 -52 16 -95.333 48 -130s72.667 -52 122 -52c57.333 0 109.833 24.833 157.5 74.5s71.5 108.167 71.5 175.5c0 53.333 -16 96.666 -48 129.999s-72.667 50 -122 50zM1192 547.001
c0 -150 -61.167 -282 -183.5 -396s-263.166 -171 -422.499 -171c-151.333 0 -275.833 47.333 -373.5 142s-146.5 207 -146.5 337c0 148.667 60.667 280 182 394s262.666 171 423.999 171c151.333 0 275.833 -47 373.5 -141s146.5 -206 146.5 -336zM373 1137l250 327h335
l-325 -327h-260zM803 1137l250 327h336l-326 -327h-260z" />
    <glyph glyph-name="OE" unicode="&#x152;" horiz-adv-x="2078" 
d="M1319 328h655.001l-69 -328h-1106c-188.667 0 -347.834 61.5 -477.501 184.5s-194.5 266.833 -194.5 431.5c0 146 40 281.833 120 407.5s188.833 225.5 326.5 299.5s286.5 111 446.5 111h1167l-69 -328h-635l-47 -225h471l-66 -308h-471zM1020 1085
c-134 0 -250.833 -40.5 -350.5 -121.5s-149.5 -187.833 -149.5 -320.5c0 -87.333 32.167 -158.333 96.5 -213s152.5 -82 264.5 -82h53l156 737h-70z" />
    <glyph glyph-name="oe" unicode="&#x153;" horiz-adv-x="1925" 
d="M684 1024c66.667 0 130.168 -13.001 190.501 -39.001s103.5 -51.333 129.5 -76l40 -39c4 4 9.83301 9.5 17.5 16.5s24.167 19.333 49.5 37s51.666 33.334 78.999 47.001s62.5 26 105.5 37s86.167 16.5 129.5 16.5c130 0 238.667 -38.167 326 -114.5
s131 -171.166 131 -284.499c0 -39.333 -3.33301 -73.666 -10 -102.999l-35 -112h-686c0 -40.667 16.667 -76.5 50 -107.5s84.333 -46.5 153 -46.5c42 0 83.833 8.5 125.5 25.5s72.834 33.833 93.501 50.5l29 26l106 -231c-12 -10.667 -29.333 -24.334 -52 -41.001
s-70.834 -38.5 -144.501 -65.5s-150.167 -40.5 -229.5 -40.5c-76.667 0 -144 12.833 -202 38.5s-97 50.834 -117 75.501l-31 39c-4 -4 -9.83301 -9.5 -17.5 -16.5s-24.167 -19.333 -49.5 -37s-52.333 -33.334 -81 -47.001s-64.834 -25.834 -108.501 -36.501
s-88.5 -16 -134.5 -16c-132.667 0 -245 43 -337 129s-138 187.667 -138 305c0 169.333 59.333 313.333 178 432s265.334 178 440.001 178zM580.001 286.999c57.333 0 109.5 24.834 156.5 74.501s70.5 109.5 70.5 179.5c0 49.333 -14.667 91 -44 125s-65.333 51 -108 51
c-57.333 0 -109.5 -25.333 -156.5 -76s-70.5 -111.334 -70.5 -182.001c0 -48 14.833 -88.667 44.5 -122s65.5 -50 107.5 -50zM1396.5 758c-45 0 -85.501 -13.332 -121.501 -39.999s-64.333 -61.334 -85 -104.001h352c-1.33301 42 -14.666 76.5 -39.999 103.5
s-60.5 40.5 -105.5 40.5z" />
    <glyph glyph-name="Racute" unicode="&#x154;" horiz-adv-x="1474" 
d="M72 0l303 1434h643c131.333 0 241.333 -42.333 330 -127s133 -184.334 133 -299.001c0 -72.667 -12 -139 -36 -199s-53 -106.833 -87 -140.5s-67.833 -62.334 -101.5 -86.001s-62.167 -39.5 -85.5 -47.5l-36 -13l186 -522h-401l-150 451h-215l-94 -451h-389zM897 799.002
c49.333 0 92.667 15 130 45s56 69.667 56 119c0 34 -12.167 62.833 -36.5 86.5s-56.5 35.5 -96.5 35.5h-260l-61 -286h268zM764.001 1597l242 330h376l-317 -330h-301z" />
    <glyph glyph-name="racute" unicode="&#x155;" horiz-adv-x="829" 
d="M825 655c-24.667 13.333 -57.333 20.333 -98 21c-66.667 0 -124 -22.5 -172 -67.5s-80.667 -107.833 -98 -188.5l-88 -420h-349l213 1004h349l-25 -115c9.33301 9.33301 22.333 20.833 39 34.5s51.167 32.167 103.5 55.5s105.833 35 160.5 35h41zM422.001 1137l242 329
h376l-317 -329h-301z" />
    <glyph glyph-name="uni0156" unicode="&#x156;" horiz-adv-x="1474" 
d="M72 0l303 1434h643c131.333 0 241.333 -42.333 330 -127s133 -184.334 133 -299.001c0 -72.667 -12 -139 -36 -199s-53 -106.833 -87 -140.5s-67.833 -62.334 -101.5 -86.001s-62.167 -39.5 -85.5 -47.5l-36 -13l186 -522h-401l-150 451h-215l-94 -451h-389zM897 799.002
c49.333 0 92.667 15 130 45s56 69.667 56 119c0 34 -12.167 62.833 -36.5 86.5s-56.5 35.5 -96.5 35.5h-260l-61 -286h268zM346.001 -491.998l166 328h336l-223 -328h-279z" />
    <glyph glyph-name="uni0157" unicode="&#x157;" horiz-adv-x="829" 
d="M825 655c-24.667 13.333 -57.333 20.333 -98 21c-66.667 0 -124 -22.5 -172 -67.5s-80.667 -107.833 -98 -188.5l-88 -420h-349l213 1004h349l-25 -115c9.33301 9.33301 22.333 20.833 39 34.5s51.167 32.167 103.5 55.5s105.833 35 160.5 35h41zM-173.999 -492l166 328
h336l-224 -328h-278z" />
    <glyph glyph-name="Rcaron" unicode="&#x158;" horiz-adv-x="1474" 
d="M72 0l303 1434h643c131.333 0 241.333 -42.333 330 -127s133 -184.334 133 -299.001c0 -72.667 -12 -139 -36 -199s-53 -106.833 -87 -140.5s-67.833 -62.334 -101.5 -86.001s-62.167 -39.5 -85.5 -47.5l-36 -13l186 -522h-401l-150 451h-215l-94 -451h-389zM897 799.002
c49.333 0 92.667 15 130 45s56 69.667 56 119c0 34 -12.167 62.833 -36.5 86.5s-56.5 35.5 -96.5 35.5h-260l-61 -286h268zM938.001 1782l131 143h334l-332 -328h-311l-197 328h299z" />
    <glyph glyph-name="rcaron" unicode="&#x159;" horiz-adv-x="829" 
d="M825 655c-24.667 13.333 -57.333 20.333 -98 21c-66.667 0 -124 -22.5 -172 -67.5s-80.667 -107.833 -98 -188.5l-88 -420h-349l213 1004h349l-25 -115c9.33301 9.33301 22.333 20.833 39 34.5s51.167 32.167 103.5 55.5s105.833 35 160.5 35h41zM606.001 1321l131 143
h334l-332 -327h-311l-197 327h299z" />
    <glyph glyph-name="Sacute" unicode="&#x15a;" 
d="M571 287c52 0 96.498 11.501 133.498 34.501s55.5 59.167 55.5 108.5c0 28.667 -19.167 56 -57.5 82s-84.5 51.333 -138.5 76s-107.833 52.667 -161.5 84s-99.667 74 -138 128s-57.5 115.667 -57.5 185c0 135.333 54.167 250.833 162.5 346.5s255.5 143.5 441.5 143.5
c65.333 0 127 -7.16699 185 -21.5s105.5 -31.5 142.5 -51.5s69.5 -39.833 97.5 -59.5s47.333 -37.167 58 -52.5l19 -20l-262 -226c-6.66699 8 -17 17.667 -31 29s-41.333 26.5 -82 45.5s-82.334 28.5 -125.001 28.5c-49.333 0 -89.666 -11.333 -120.999 -34
s-47 -50.334 -47 -83.001c0 -28.667 18.833 -55.667 56.5 -81s83.834 -49.5 138.501 -72.5s108.834 -49.833 162.501 -80.5s99.334 -72.667 137.001 -126s56.5 -115 56.5 -185c0 -154 -55 -280.167 -165 -378.5s-262.667 -147.5 -458 -147.5
c-70.667 0 -138.834 8.5 -204.501 25.5s-120.334 37.5 -164.001 61.5s-82.167 48 -115.5 72s-57.666 44.667 -72.999 62l-24 25l264 227c4 -4 9.16699 -9 15.5 -15s20.333 -17.667 42 -35s44.167 -32.5 67.5 -45.5s52.333 -24.5 87 -34.5s69 -15 103 -15zM681.998 1597
l242 330h376l-317 -330h-301z" />
    <glyph glyph-name="sacute" unicode="&#x15b;" horiz-adv-x="962" 
d="M983 870l-208.999 -182c-40.667 39.333 -88.334 59.333 -143.001 60c-30 0 -53.5 -5.83301 -70.5 -17.5s-25.5 -26.5 -25.5 -44.5c0 -13.333 11.833 -26.833 35.5 -40.5s52.667 -27.667 87 -42s68.166 -31.5 101.499 -51.5s62 -47.667 86 -83s36 -76.333 36 -123
c0 -105.333 -42 -192.666 -126 -261.999s-201.333 -104 -352 -104c-58.667 0 -113.834 6.66699 -165.501 20s-93.667 29.666 -126 48.999s-60 38.166 -83 56.499s-39.167 34.5 -48.5 48.5l-15 20l209 180c4 -6.66699 10.833 -15.5 20.5 -26.5s30.167 -25.667 61.5 -44
s65.333 -27.5 102 -27.5c30 0 53.667 5.83301 71 17.5s26 26.167 26 43.5c0 13.333 -12 27 -36 41s-52.667 28.167 -86 42.5s-67.166 31.333 -101.499 51s-63.333 47.334 -87 83.001s-35.5 76.5 -35.5 122.5c0 105.333 41.833 192.833 125.5 262.5
s200.834 104.5 351.501 104.5c79.333 0 152 -13 218 -39s112 -51.333 138 -76zM444.001 1137l242 329h377l-318 -329h-301z" />
    <glyph glyph-name="Scedilla" unicode="&#x15e;" 
d="M571 287c52 0 96.4961 11.501 133.496 34.501s55.5 59.167 55.5 108.5c0 28.667 -19.167 56 -57.5 82s-84.5 51.333 -138.5 76s-107.833 52.667 -161.5 84s-99.667 74 -138 128s-57.5 115.667 -57.5 185c0 135.333 54.167 250.833 162.5 346.5s255.5 143.5 441.5 143.5
c65.333 0 127 -7.16699 185 -21.5s105.5 -31.5 142.5 -51.5s69.5 -39.833 97.5 -59.5s47.333 -37.167 58 -52.5l19 -20l-262 -226c-6.66699 8 -17 17.667 -31 29s-41.333 26.5 -82 45.5s-82.334 28.5 -125.001 28.5c-49.333 0 -89.666 -11.333 -120.999 -34
s-47 -50.334 -47 -83.001c0 -28.667 18.833 -55.667 56.5 -81s83.834 -49.5 138.501 -72.5s108.834 -49.833 162.501 -80.5s99.334 -72.667 137.001 -126s56.5 -115 56.5 -185c0 -150 -52.5 -273.833 -157.5 -371.5s-251.167 -149.167 -438.5 -154.5l-37 -51
c4 0 10.167 -1 18.5 -3s22 -6.83301 41 -14.5s36 -16.667 51 -27s28.667 -26 41 -47s18.5 -45.167 18.5 -72.5c0 -72.667 -26.333 -131.834 -79 -177.501s-122.667 -68.5 -210 -68.5c-45.333 0 -88.666 8.5 -129.999 25.5s-71.666 33.833 -90.999 50.5l-28 27l106 131
c32.667 -39.333 73 -59.333 121 -60c57.333 0 86 21.333 86 64c0 26 -18.333 39 -55 39l-52 -11l-47 72l88 133c-54.667 8 -107.5 21.667 -158.5 41s-93.667 39.833 -128 61.5s-64.333 42.834 -90 63.501s-44.834 37 -57.501 49l-16 21l264 227c4 -4 9.16699 -9 15.5 -15
s20.333 -17.667 42 -35s44.167 -32.5 67.5 -45.5s52.333 -24.5 87 -34.5s69 -15 103 -15z" />
    <glyph glyph-name="scedilla" unicode="&#x15f;" horiz-adv-x="962" 
d="M983 870l-209.002 -182.001c-40.667 39.333 -88.334 59.333 -143.001 60c-30 0 -53.5 -5.83301 -70.5 -17.5s-25.5 -26.5 -25.5 -44.5c0 -13.333 11.833 -26.833 35.5 -40.5s52.667 -27.667 87 -42s68.166 -31.5 101.499 -51.5s62 -47.667 86 -83s36 -76.333 36 -123
c0 -101.333 -38.333 -186 -115 -254s-184.667 -104.667 -324 -110l-51 -74c4 0 10.167 -1 18.5 -3s22 -6.83301 41 -14.5s36 -16.667 51 -27s28.667 -26 41 -47s18.5 -45.167 18.5 -72.5c0 -72.667 -26.333 -131.834 -79 -177.501s-122.667 -68.5 -210 -68.5
c-45.333 0 -88.666 8.5 -129.999 25.5s-71.666 33.833 -90.999 50.5l-28 27l106 131c32.667 -39.333 73 -59.333 121 -60c57.333 0 86 21.333 86 64c0 26 -18.333 39 -55 39l-52 -11l-47 72l103 154c-42 6.66699 -82.333 17.834 -121 33.501s-69.5 31.667 -92.5 48
s-43 32.333 -60 48s-29.167 29.167 -36.5 40.5l-10 14l209 180c4 -6.66699 10.833 -15.5 20.5 -26.5s30.167 -25.667 61.5 -44s65.333 -27.5 102 -27.5c30 0 53.667 5.83301 71 17.5s26 26.167 26 43.5c0 13.333 -12 27 -36 41s-52.667 28.167 -86 42.5
s-67.166 31.333 -101.499 51s-63.333 47.334 -87 83.001s-35.5 76.5 -35.5 122.5c0 105.333 41.833 192.833 125.5 262.5s200.834 104.5 351.501 104.5c79.333 0 152 -13 218 -39s112 -51.333 138 -76z" />
    <glyph glyph-name="Scaron" unicode="&#x160;" 
d="M571 287c52 0 96.498 11.501 133.498 34.501s55.5 59.167 55.5 108.5c0 28.667 -19.167 56 -57.5 82s-84.5 51.333 -138.5 76s-107.833 52.667 -161.5 84s-99.667 74 -138 128s-57.5 115.667 -57.5 185c0 135.333 54.167 250.833 162.5 346.5s255.5 143.5 441.5 143.5
c65.333 0 127 -7.16699 185 -21.5s105.5 -31.5 142.5 -51.5s69.5 -39.833 97.5 -59.5s47.333 -37.167 58 -52.5l19 -20l-262 -226c-6.66699 8 -17 17.667 -31 29s-41.333 26.5 -82 45.5s-82.334 28.5 -125.001 28.5c-49.333 0 -89.666 -11.333 -120.999 -34
s-47 -50.334 -47 -83.001c0 -28.667 18.833 -55.667 56.5 -81s83.834 -49.5 138.501 -72.5s108.834 -49.833 162.501 -80.5s99.334 -72.667 137.001 -126s56.5 -115 56.5 -185c0 -154 -55 -280.167 -165 -378.5s-262.667 -147.5 -458 -147.5
c-70.667 0 -138.834 8.5 -204.501 25.5s-120.334 37.5 -164.001 61.5s-82.167 48 -115.5 72s-57.666 44.667 -72.999 62l-24 25l264 227c4 -4 9.16699 -9 15.5 -15s20.333 -17.667 42 -35s44.167 -32.5 67.5 -45.5s52.333 -24.5 87 -34.5s69 -15 103 -15zM857.998 1782
l131 143h334l-332 -328h-311l-197 328h299z" />
    <glyph glyph-name="scaron" unicode="&#x161;" horiz-adv-x="962" 
d="M983 870l-208.999 -182c-40.667 39.333 -88.334 59.333 -143.001 60c-30 0 -53.5 -5.83301 -70.5 -17.5s-25.5 -26.5 -25.5 -44.5c0 -13.333 11.833 -26.833 35.5 -40.5s52.667 -27.667 87 -42s68.166 -31.5 101.499 -51.5s62 -47.667 86 -83s36 -76.333 36 -123
c0 -105.333 -42 -192.666 -126 -261.999s-201.333 -104 -352 -104c-58.667 0 -113.834 6.66699 -165.501 20s-93.667 29.666 -126 48.999s-60 38.166 -83 56.499s-39.167 34.5 -48.5 48.5l-15 20l209 180c4 -6.66699 10.833 -15.5 20.5 -26.5s30.167 -25.667 61.5 -44
s65.333 -27.5 102 -27.5c30 0 53.667 5.83301 71 17.5s26 26.167 26 43.5c0 13.333 -12 27 -36 41s-52.667 28.167 -86 42.5s-67.166 31.333 -101.499 51s-63.333 47.334 -87 83.001s-35.5 76.5 -35.5 122.5c0 105.333 41.833 192.833 125.5 262.5
s200.834 104.5 351.501 104.5c79.333 0 152 -13 218 -39s112 -51.333 138 -76zM631.001 1321l131 143h334l-332 -327h-311l-197 327h299z" />
    <glyph glyph-name="uni0162" unicode="&#x162;" horiz-adv-x="1269" 
d="M252 1434h1188l-74 -349h-399l-230 -1085h-389l230 1085h-400zM170 -492l166 328h336l-223 -328h-279z" />
    <glyph glyph-name="uni0163" unicode="&#x163;" horiz-adv-x="870" 
d="M379 1116l36.998 174h307l-64 -307h205l-65 -307h-205l-62 -287c-15.333 -68 11.334 -102 80.001 -102c16.667 0 34.834 1.66699 54.501 5s35.167 7 46.5 11l16 4l-61 -297c-57.333 -20.667 -123.666 -30.667 -198.999 -30c-114.667 0 -198.334 33.333 -251.001 100
s-65.334 163 -38.001 289l66 307h-154l66 307h71c36.667 0 68.834 12 96.501 36s45.5 56.333 53.5 97zM56.998 -492l166 328h336l-223 -328h-279z" />
    <glyph glyph-name="Tcaron" unicode="&#x164;" horiz-adv-x="1269" 
d="M252 1434h1188l-74 -349h-399l-230 -1085h-389l230 1085h-400zM881 1782l131 143h334l-332 -328h-312l-196 328h299z" />
    <glyph glyph-name="tcaron" unicode="&#x165;" horiz-adv-x="931" 
d="M379 1116l36.998 174h307l-64 -307h205l-65 -307h-205l-62 -287c-15.333 -68 11.334 -102 80.001 -102c16.667 0 34.834 1.66699 54.501 5s35.167 7 46.5 11l16 4l-61 -297c-57.333 -20.667 -123.666 -30.667 -198.999 -30c-114.667 0 -198.334 33.333 -251.001 100
s-65.334 163 -38.001 289l66 307h-154l66 307h71c36.667 0 68.834 12 96.501 36s45.5 56.333 53.5 97zM806.998 1106l168 328h336l-224 -328h-280z" />
    <glyph glyph-name="Umacron" unicode="&#x16a;" horiz-adv-x="1617" 
d="M797 307c70.667 0 135.667 27.333 195 82s98 123 116 205l178 840h389l-178 -840c-39.333 -184 -124.666 -335.833 -255.999 -455.5s-289 -179.5 -473 -179.5c-192.667 0 -347 61.833 -463 185.5s-155.667 273.5 -119 449.5l179 840h389l-179 -840
c-16.667 -80.667 -2.33398 -148.667 42.999 -204s105 -83 179 -83zM1442 1915l-58 -266h-675l57 266h676z" />
    <glyph glyph-name="umacron" unicode="&#x16b;" horiz-adv-x="1259" 
d="M676 0l19.999 102.001c-8 -9.33301 -19.167 -20.833 -33.5 -34.5s-46 -31.667 -95 -54s-100.833 -33.5 -155.5 -33.5c-94 0 -170.833 28.667 -230.5 86s-89.5 133.666 -89.5 228.999c0 32.667 4 67.334 12 104.001l129 605h349l-117 -543
c-2.66699 -16.667 -4 -28.334 -4 -35.001c0 -36.667 10.833 -65.667 32.5 -87s51.167 -32 88.5 -32c46.667 0 88.334 16.833 125.001 50.5s61 78.5 73 134.5l109 512h348l-213 -1004h-348zM1143 1444l-58 -266h-675l57 266h676z" />
    <glyph glyph-name="Uring" unicode="&#x16e;" horiz-adv-x="1617" 
d="M797 307c70.667 0 135.667 27.333 195 82s98 123 116 205l178 840h389l-178 -840c-39.333 -184 -124.666 -335.833 -255.999 -455.5s-289 -179.5 -473 -179.5c-192.667 0 -347 61.833 -463 185.5s-155.667 273.5 -119 449.5l179 840h389l-179 -840
c-16.667 -80.667 -2.33398 -148.667 42.999 -204s105 -83 179 -83zM1083 1874c-24.667 0 -45.499 -8.83203 -62.499 -26.499s-25.5 -40.834 -25.5 -69.501c0 -45.333 26.667 -68 80 -68c23.333 0 44.166 8.83301 62.499 26.5s27.5 40.167 27.5 67.5
c0 46.667 -27.333 70 -82 70zM1352 1810c0 -70.667 -29.667 -132.332 -89 -184.999s-127.333 -79 -204 -79c-75.333 0 -136.166 21.5 -182.499 64.5s-69.5 95.833 -69.5 158.5c0 72.667 29 135.667 87 189s126.667 80 206 80c75.333 0 136.166 -22.333 182.499 -67
s69.5 -98.334 69.5 -161.001z" />
    <glyph glyph-name="uring" unicode="&#x16f;" horiz-adv-x="1259" 
d="M676 0l19.999 102.001c-8 -9.33301 -19.167 -20.833 -33.5 -34.5s-46 -31.667 -95 -54s-100.833 -33.5 -155.5 -33.5c-94 0 -170.833 28.667 -230.5 86s-89.5 133.666 -89.5 228.999c0 32.667 4 67.334 12 104.001l129 605h349l-117 -543
c-2.66699 -16.667 -4 -28.334 -4 -35.001c0 -36.667 10.833 -65.667 32.5 -87s51.167 -32 88.5 -32c46.667 0 88.334 16.833 125.001 50.5s61 78.5 73 134.5l109 512h348l-213 -1004h-348zM781.999 1423c-24.667 0 -45.499 -8.83301 -62.499 -26.5
s-25.5 -40.834 -25.5 -69.501c0 -45.333 26.667 -67.666 80 -66.999c23.333 0 44.166 8.83301 62.499 26.5s27.5 40.167 27.5 67.5c0 46 -27.333 69 -82 69zM1051 1360c0 -70.667 -29.833 -132.333 -89.5 -185s-127.5 -79 -203.5 -79c-75.333 0 -136.166 21.5 -182.499 64.5
s-69.5 95.833 -69.5 158.5c0 72.667 29 135.5 87 188.5s126.667 79.5 206 79.5c75.333 0 136.166 -22.167 182.499 -66.5s69.5 -97.833 69.5 -160.5z" />
    <glyph glyph-name="Uhungarumlaut" unicode="&#x170;" horiz-adv-x="1617" 
d="M797 307c70.667 0 135.667 27.333 195 82s98 123 116 205l178 840h389l-178 -840c-39.333 -184 -124.666 -335.833 -255.999 -455.5s-289 -179.5 -473 -179.5c-192.667 0 -347 61.833 -463 185.5s-155.667 273.5 -119 449.5l179 840h389l-179 -840
c-16.667 -80.667 -2.33398 -148.667 42.999 -204s105 -83 179 -83zM678 1597l250 328h336l-326 -328h-260zM1108 1597l250 328h336l-326 -328h-260z" />
    <glyph glyph-name="uhungarumlaut" unicode="&#x171;" horiz-adv-x="1259" 
d="M676 0l19.999 102.001c-8 -9.33301 -19.167 -20.833 -33.5 -34.5s-46 -31.667 -95 -54s-100.833 -33.5 -155.5 -33.5c-94 0 -170.833 28.667 -230.5 86s-89.5 133.666 -89.5 228.999c0 32.667 4 67.334 12 104.001l129 605h349l-117 -543
c-2.66699 -16.667 -4 -28.334 -4 -35.001c0 -36.667 10.833 -65.667 32.5 -87s51.167 -32 88.5 -32c46.667 0 88.334 16.833 125.001 50.5s61 78.5 73 134.5l109 512h348l-213 -1004h-348zM390.999 1137l250 327h336l-326 -327h-260zM820.999 1137l250 327h336l-326 -327
h-260z" />
    <glyph glyph-name="Uogonek" unicode="&#x172;" horiz-adv-x="1617" 
d="M797 307c70.667 0 135.667 27.3359 195 82.0029s98 123 116 205l178 840h389l-178 -840c-38 -176 -117.5 -322.333 -238.5 -439s-267.5 -181.334 -439.5 -194.001c-50.667 -70.667 -76 -132.667 -76 -186c0 -40.667 22.667 -61.334 68 -62.001
c18 0 36.167 2.83301 54.5 8.5s31.5 11.167 39.5 16.5l15 6l-39 -184c-53.333 -27.333 -117.666 -41 -192.999 -41c-62.667 0 -112.167 17 -148.5 51s-54.5 77.667 -54.5 131c0 94 55.333 183.333 166 268c-162.667 24.667 -289 95.667 -379 213
s-118.667 254.666 -86 411.999l179 840h389l-179 -840c-16.667 -80.667 -2.33398 -148.667 42.999 -204s105 -83 179 -83z" />
    <glyph glyph-name="uogonek" unicode="&#x173;" horiz-adv-x="1259" 
d="M676 0l19.999 102.002c-8 -9.33301 -19.167 -20.833 -33.5 -34.5s-46 -31.667 -95 -54s-100.833 -33.5 -155.5 -33.5c-94 0 -170.833 28.667 -230.5 86s-89.5 133.666 -89.5 228.999c0 32.667 4 67.334 12 104.001l129 605h349l-117 -543
c-2.66699 -16.667 -4 -28.334 -4 -35.001c0 -36.667 10.833 -65.667 32.5 -87s51.167 -32 88.5 -32c46.667 0 88.334 16.833 125.001 50.5s61 78.5 73 134.5l109 512h348l-213 -1004h-195c-72.667 -78 -108.667 -153 -108 -225c0 -40.667 22.333 -61.334 67 -62.001
c18 0 36.167 2.83301 54.5 8.5s32.5 11.167 42.5 16.5l12 6l-39 -184c-53.333 -27.333 -117.333 -41 -192 -41c-62.667 0 -112.167 17 -148.5 51s-54.5 77.667 -54.5 131c0 24.667 4 49 12 73s18.167 45.5 30.5 64.5s26 37 41 54s30 32 45 45s29 24.333 42 34
s23.167 16.5 30.5 20.5z" />
    <glyph glyph-name="Ydieresis" unicode="&#x178;" horiz-adv-x="1402" 
d="M1174 1434h440l-707 -922l-108 -512h-389l108 512l-317 922h399l172 -553zM532 1737c0 48 20.5 91.333 61.5 130s86.833 58 137.5 58c44 0 81 -15.667 111 -47s45 -68.333 45 -111c0 -49.333 -20.5 -93.333 -61.5 -132s-86.833 -58 -137.5 -58
c-44 0 -81 16.167 -111 48.5s-45 69.5 -45 111.5zM1004 1737c0 48 20.332 91.333 60.999 130s86.334 58 137.001 58c44 0 81 -15.667 111 -47s45 -68.333 45 -111c0 -49.333 -20.5 -93.333 -61.5 -132s-86.833 -58 -137.5 -58c-44 0 -80.833 16.167 -110.5 48.5
s-44.5 69.5 -44.5 111.5z" />
    <glyph glyph-name="Zacute" unicode="&#x179;" horiz-adv-x="1351" 
d="M852 1085h-592l74 349h1116l-74 -349l-778 -737h643l-74 -348h-1167l74 348zM739 1597l242 330h377l-318 -330h-301z" />
    <glyph glyph-name="zacute" unicode="&#x17a;" horiz-adv-x="1044" 
d="M1063 1004l-66 -308l-493 -389h430l-64 -307h-901l64 307l495 389h-391l66 308h860zM479 1137l242 329h377l-318 -329h-301z" />
    <glyph glyph-name="Zdotaccent" unicode="&#x17b;" horiz-adv-x="1351" 
d="M852 1085h-592l74 349h1116l-74 -349l-778 -737h643l-74 -348h-1167l74 348zM1118 1782c0 -53.333 -21.499 -100.834 -64.499 -142.501s-93.167 -62.5 -150.5 -62.5c-54.667 0 -98.667 15.333 -132 46s-50 69.334 -50 116.001c0 56 21.5 104.5 64.5 145.5
s93.833 61.5 152.5 61.5c53.333 0 96.666 -16 129.999 -48s50 -70.667 50 -116z" />
    <glyph glyph-name="zdotaccent" unicode="&#x17c;" horiz-adv-x="1044" 
d="M1063 1004l-66 -308l-493 -389h430l-64 -307h-901l64 307l495 389h-391l66 308h860zM866 1321c0 -53.333 -21.499 -100.834 -64.499 -142.501s-93.167 -62.5 -150.5 -62.5c-54.667 0 -98.667 15.333 -132 46s-50 69.334 -50 116.001c0 56 21.5 104.5 64.5 145.5
s93.833 61.5 152.5 61.5c53.333 0 96.666 -16 129.999 -48s50 -70.667 50 -116z" />
    <glyph glyph-name="Zcaron" unicode="&#x17d;" horiz-adv-x="1351" 
d="M852 1085h-592l74 349h1116l-74 -349l-778 -737h643l-74 -348h-1167l74 348zM938 1782l131 143h334l-332 -328h-311l-197 328h299z" />
    <glyph glyph-name="zcaron" unicode="&#x17e;" horiz-adv-x="1044" 
d="M1063 1004l-66 -308l-493 -389h430l-64 -307h-901l64 307l495 389h-391l66 308h860zM664 1321l131 143h333l-331 -327h-312l-196 327h299z" />
    <glyph glyph-name="florin" unicode="&#x192;" horiz-adv-x="849" 
d="M786 1055l-67 -173.999h184l-65 -308h-236l-258 -634c-57.333 -142 -117 -239 -179 -291s-152.333 -78 -271 -78c-30 0 -61.167 2.66699 -93.5 8s-57.166 10.666 -74.499 15.999l-25 7l63 297c24.667 -13.333 57.667 -20.333 99 -21c74 0 124.333 34.333 151 103l240 593
h-123l66 308h174l86 215c57.333 142 117 238.833 179 290.5s153 77.5 273 77.5c30 0 61.167 -2.33301 93.5 -7s57.166 -9.66699 74.499 -15l25 -8l-64 -297c-23.333 13.333 -55.333 20 -96 20c-79.333 0 -131.333 -34 -156 -102z" />
    <glyph glyph-name="uni0218" unicode="&#x218;" 
d="M571 287c52 0 96.498 11.501 133.498 34.501s55.5 59.167 55.5 108.5c0 28.667 -19.167 56 -57.5 82s-84.5 51.333 -138.5 76s-107.833 52.667 -161.5 84s-99.667 74 -138 128s-57.5 115.667 -57.5 185c0 135.333 54.167 250.833 162.5 346.5s255.5 143.5 441.5 143.5
c65.333 0 127 -7.16699 185 -21.5s105.5 -31.5 142.5 -51.5s69.5 -39.833 97.5 -59.5s47.333 -37.167 58 -52.5l19 -20l-262 -226c-6.66699 8 -17 17.667 -31 29s-41.333 26.5 -82 45.5s-82.334 28.5 -125.001 28.5c-49.333 0 -89.666 -11.333 -120.999 -34
s-47 -50.334 -47 -83.001c0 -28.667 18.833 -55.667 56.5 -81s83.834 -49.5 138.501 -72.5s108.834 -49.833 162.501 -80.5s99.334 -72.667 137.001 -126s56.5 -115 56.5 -185c0 -154 -55 -280.167 -165 -378.5s-262.667 -147.5 -458 -147.5
c-70.667 0 -138.834 8.5 -204.501 25.5s-120.334 37.5 -164.001 61.5s-82.167 48 -115.5 72s-57.666 44.667 -72.999 62l-24 25l264 227c4 -4 9.16699 -9 15.5 -15s20.333 -17.667 42 -35s44.167 -32.5 67.5 -45.5s52.333 -24.5 87 -34.5s69 -15 103 -15zM220.998 -491.999
l166 328h336l-223 -328h-279z" />
    <glyph glyph-name="uni0219" unicode="&#x219;" horiz-adv-x="962" 
d="M983 870l-208.999 -182c-40.667 39.333 -88.334 59.333 -143.001 60c-30 0 -53.5 -5.83301 -70.5 -17.5s-25.5 -26.5 -25.5 -44.5c0 -13.333 11.833 -26.833 35.5 -40.5s52.667 -27.667 87 -42s68.166 -31.5 101.499 -51.5s62 -47.667 86 -83s36 -76.333 36 -123
c0 -105.333 -42 -192.666 -126 -261.999s-201.333 -104 -352 -104c-58.667 0 -113.834 6.66699 -165.501 20s-93.667 29.666 -126 48.999s-60 38.166 -83 56.499s-39.167 34.5 -48.5 48.5l-15 20l209 180c4 -6.66699 10.833 -15.5 20.5 -26.5s30.167 -25.667 61.5 -44
s65.333 -27.5 102 -27.5c30 0 53.667 5.83301 71 17.5s26 26.167 26 43.5c0 13.333 -12 27 -36 41s-52.667 28.167 -86 42.5s-67.166 31.333 -101.499 51s-63.333 47.334 -87 83.001s-35.5 76.5 -35.5 122.5c0 105.333 41.833 192.833 125.5 262.5
s200.834 104.5 351.501 104.5c79.333 0 152 -13 218 -39s112 -51.333 138 -76zM35.001 -492l166 328h336l-224 -328h-278z" />
    <glyph glyph-name="uni021A" unicode="&#x21a;" horiz-adv-x="1269" 
d="M252 1434h1188l-74 -349h-399l-230 -1085h-389l230 1085h-400zM170 -492l166 328h336l-223 -328h-279z" />
    <glyph glyph-name="uni021B" unicode="&#x21b;" horiz-adv-x="870" 
d="M379 1116l36.998 174h307l-64 -307h205l-65 -307h-205l-62 -287c-15.333 -68 11.334 -102 80.001 -102c16.667 0 34.834 1.66699 54.501 5s35.167 7 46.5 11l16 4l-61 -297c-57.333 -20.667 -123.666 -30.667 -198.999 -30c-114.667 0 -198.334 33.333 -251.001 100
s-65.334 163 -38.001 289l66 307h-154l66 307h71c36.667 0 68.834 12 96.501 36s45.5 56.333 53.5 97zM56.998 -492l166 328h336l-223 -328h-279z" />
    <glyph glyph-name="uni02BC" unicode="&#x2bc;" horiz-adv-x="552" 
d="M203 1126l168 328h336l-224 -328h-280z" />
    <glyph glyph-name="circumflex" unicode="&#x2c6;" horiz-adv-x="962" 
d="M672 1270l-131 -144h-334l332 328h311l197 -328h-299z" />
    <glyph glyph-name="caron" unicode="&#x2c7;" horiz-adv-x="962" 
d="M651 1311l131 143h334l-332 -328h-311l-197 328h299z" />
    <glyph glyph-name="breve" unicode="&#x2d8;" horiz-adv-x="819" 
d="M582 1126c-102.667 0 -184.001 31.834 -244.001 95.501s-80.667 141.167 -62 232.5h246c-5.33301 -30 -0.166016 -54.5 15.501 -73.5s39.167 -28.5 70.5 -28.5c30 0 55.667 9.16699 77 27.5s35.333 43.166 42 74.499h246c-20.667 -95.333 -66 -173.833 -136 -235.5
s-155 -92.5 -255 -92.5z" />
    <glyph glyph-name="dotaccent" unicode="&#x2d9;" horiz-adv-x="512" 
d="M641 1331c0 -53.333 -21.499 -100.833 -64.499 -142.5s-93.167 -62.5 -150.5 -62.5c-54.667 0 -98.667 15.5 -132 46.5s-50 69.5 -50 115.5c0 56 21.5 104.5 64.5 145.5s93.833 61.5 152.5 61.5c53.333 0 96.666 -16 129.999 -48s50 -70.667 50 -116z" />
    <glyph glyph-name="ring" unicode="&#x2da;" horiz-adv-x="655" 
d="M504 1331c-24.667 0 -45.499 -8.83203 -62.499 -26.499s-25.5 -40.834 -25.5 -69.501c0 -45.333 26.667 -68 80 -68c23.333 0 44.166 9 62.499 27s27.5 40.667 27.5 68c0 46 -27.333 69 -82 69zM772.001 1268c0 -70.667 -29.667 -132.333 -89 -185s-127.333 -79 -204 -79
c-75.333 0 -136.166 21.5 -182.499 64.5s-69.5 95.833 -69.5 158.5c0 72.667 29 135.5 87 188.5s126.667 79.5 206 79.5c75.333 0 136.166 -22.167 182.499 -66.5s69.5 -97.833 69.5 -160.5z" />
    <glyph glyph-name="ogonek" unicode="&#x2db;" horiz-adv-x="552" 
d="M123 0l153 0.000976562c-72.667 -78 -108.667 -153 -108 -225c0 -40.667 22.667 -61.334 68 -62.001c18 0 36 2.83301 54 8.5s32 11.167 42 16.5l12 6l-39 -184c-53.333 -27.333 -117.333 -41 -192 -41c-62.667 0 -112.167 17 -148.5 51s-54.5 77.667 -54.5 131
c0 24.667 4 49 12 73s18.167 45.5 30.5 64.5s26 37 41 54s30 32 45 45s29 24.333 42 34s23.167 16.5 30.5 20.5z" />
    <glyph glyph-name="tilde" unicode="&#x2dc;" horiz-adv-x="880" 
d="M516 1229c-48 0 -79.334 -34.333 -94.001 -103h-215c26 117.333 63.833 204.833 113.5 262.5s106.834 86.5 171.501 86.5c49.333 0 96.666 -17.167 141.999 -51.5s77.666 -51.5 96.999 -51.5c48 0 79.333 34.333 94 103h215c-50.667 -232 -144.667 -348.333 -282 -349
c-49.333 0 -97.166 17.167 -143.499 51.5s-79.166 51.5 -98.499 51.5z" />
    <glyph glyph-name="hungarumlaut" unicode="&#x2dd;" horiz-adv-x="1064" 
d="M203 1126l250 328h335l-325 -328h-260zM633 1126l250 328h336l-326 -328h-260z" />
    <glyph glyph-name="uni0401" unicode="&#x401;" horiz-adv-x="1372" 
d="M530 328h738l-70 -328h-1126l303 1434h1106l-70 -328h-717l-47 -225h553l-65 -308h-553zM588 1737c0 48 20.5 91.333 61.5 130s86.5 58 136.5 58c44 0 81 -15.667 111 -47s45 -68.333 45 -111c0 -49.333 -20.5 -93.333 -61.5 -132s-86.833 -58 -137.5 -58
c-44 0 -80.833 16.167 -110.5 48.5s-44.5 69.5 -44.5 111.5zM1059 1737c0 48 20.5 91.333 61.5 130s86.5 58 136.5 58c44 0 81 -15.667 111 -47s45 -68.333 45 -111c0 -49.333 -20.5 -93.333 -61.5 -132s-86.833 -58 -137.5 -58c-44 0 -80.833 16.167 -110.5 48.5
s-44.5 69.5 -44.5 111.5z" />
    <glyph glyph-name="uni0402" unicode="&#x402;" horiz-adv-x="1546" 
d="M1067 932c131.333 0 236.167 -37.5 314.5 -112.5s117.5 -169.167 117.5 -282.5c0 -176 -58.333 -316.333 -175 -421s-263.667 -157 -441 -157h-95l72 338c70.667 0 127 16.333 169 49s63 77 63 133c0 34 -14.667 61.667 -44 83s-70 32 -122 32
c-124 0 -200 -65.667 -228 -197l-84 -397h-389l230 1085h-318l74 349h1008l-74 -349h-301l-49 -235c72 54.667 162.667 82 272 82z" />
    <glyph glyph-name="uni0403" unicode="&#x403;" horiz-adv-x="1208" 
d="M741 1597l242 330h377l-318 -330h-301zM72 0l303 1434h1024l-74 -349h-635l-229 -1085h-389z" />
    <glyph glyph-name="uni0404" unicode="&#x404;" horiz-adv-x="1536" 
d="M1014 1126c-87.333 0 -169.336 -22.1689 -246.003 -66.502s-137.334 -103.833 -182.001 -178.5h573l-69 -328h-562c18 -74 56.333 -133.5 115 -178.5s130.334 -67.5 215.001 -67.5c46.667 0 92.5 6.83301 137.5 20.5s83.5 30.167 115.5 49.5s60.667 38.833 86 58.5
s44 36.167 56 49.5l21 21l180 -260c-6.66699 -8 -15.834 -18.5 -27.501 -31.5s-38.334 -36 -80.001 -69s-85.667 -62.167 -132 -87.5s-106.666 -48.166 -180.999 -68.499s-150.5 -30.5 -228.5 -30.5c-194 0 -355.833 65.5 -485.5 196.5s-194.5 283.833 -194.5 458.5
c0 234.667 90.5 436.834 271.5 606.501s397.833 254.5 650.5 254.5c76.667 0 149.334 -10 218.001 -30s125.167 -44 169.5 -72s83.333 -56 117 -84s57.167 -52 70.5 -72l23 -29l-277 -234c-2.66699 4 -7 10.167 -13 18.5s-19.667 22.333 -41 42s-44.666 37.167 -69.999 52.5
s-58.666 29 -99.999 41s-84.666 18 -129.999 18z" />
    <glyph glyph-name="uni0405" unicode="&#x405;" 
d="M571 287c52 0 96.498 11.501 133.498 34.501s55.5 59.167 55.5 108.5c0 28.667 -19.167 56 -57.5 82s-84.5 51.333 -138.5 76s-107.833 52.667 -161.5 84s-99.667 74 -138 128s-57.5 115.667 -57.5 185c0 135.333 54.167 250.833 162.5 346.5s255.5 143.5 441.5 143.5
c65.333 0 127 -7.16699 185 -21.5s105.5 -31.5 142.5 -51.5s69.5 -39.833 97.5 -59.5s47.333 -37.167 58 -52.5l19 -20l-262 -226c-6.66699 8 -17 17.667 -31 29s-41.333 26.5 -82 45.5s-82.334 28.5 -125.001 28.5c-49.333 0 -89.666 -11.333 -120.999 -34
s-47 -50.334 -47 -83.001c0 -28.667 18.833 -55.667 56.5 -81s83.834 -49.5 138.501 -72.5s108.834 -49.833 162.501 -80.5s99.334 -72.667 137.001 -126s56.5 -115 56.5 -185c0 -154 -55 -280.167 -165 -378.5s-262.667 -147.5 -458 -147.5
c-70.667 0 -138.834 8.5 -204.501 25.5s-120.334 37.5 -164.001 61.5s-82.167 48 -115.5 72s-57.666 44.667 -72.999 62l-24 25l264 227c4 -4 9.16699 -9 15.5 -15s20.333 -17.667 42 -35s44.167 -32.5 67.5 -45.5s52.333 -24.5 87 -34.5s69 -15 103 -15z" />
    <glyph glyph-name="uni0406" unicode="&#x406;" horiz-adv-x="716" 
d="M72 0l303 1434h389l-303 -1434h-389z" />
    <glyph glyph-name="uni0407" unicode="&#x407;" horiz-adv-x="716" 
d="M72 0l303 1434h389l-303 -1434h-389zM213 1737c0 48 20.5 91.333 61.5 130s86.833 58 137.5 58c44 0 80.833 -15.667 110.5 -47s44.5 -68.333 44.5 -111c0 -49.333 -20.5 -93.333 -61.5 -132s-86.5 -58 -136.5 -58c-44 0 -81 16.167 -111 48.5s-45 69.5 -45 111.5z
M684 1737c0 48 20.5 91.333 61.5 130s86.833 58 137.5 58c44 0 80.833 -15.667 110.5 -47s44.5 -68.333 44.5 -111c0 -49.333 -20.5 -93.333 -61.5 -132s-86.5 -58 -136.5 -58c-44 0 -81 16.167 -111 48.5s-45 69.5 -45 111.5z" />
    <glyph glyph-name="uni0408" unicode="&#x408;" horiz-adv-x="1075" 
d="M743 1434l389.995 -0.00292969l-199 -942c-34 -161.333 -103.667 -290.5 -209 -387.5s-233.666 -145.5 -384.999 -145.5c-52 0 -101.833 6.5 -149.5 19.5s-87.5 28.333 -119.5 46s-60.333 35.334 -85 53.001s-42.667 32.834 -54 45.501l-16 20l287 236
c2.66699 -5.33301 7.33398 -12.166 14.001 -20.499s22.334 -19 47.001 -32s52 -19.5 82 -19.5c46.667 0 88.334 16.833 125.001 50.5s61.334 78.5 74.001 134.5z" />
    <glyph glyph-name="uni0409" unicode="&#x409;" horiz-adv-x="2252" 
d="M1374 348h236c50.667 0 94.667 16.833 132 50.5s56 73.5 56 119.5c0 36.667 -13 68.667 -39 96s-58.667 41 -98 41h-221zM1577 0l-666 0.000976562l230 1085h-287l-20 -102c-42 -198 -89.167 -364.833 -141.5 -500.5s-108.833 -241.167 -169.5 -316.5
s-123 -128.666 -187 -159.999s-135 -47 -213 -47c-34 0 -68.833 3.5 -104.5 10.5s-62.834 13.833 -81.501 20.5l-29 10l76 358c28.667 -13.333 56.667 -20 84 -20c36.667 0 70 8.5 100 25.5s61 47.667 93 92s63.333 110.166 94 197.499s59.667 196.666 87 327.999l97 453
h1065l-91 -430h218c134 0 245.333 -42.667 334 -128s133 -187 133 -305c0 -168 -59.167 -305.167 -177.5 -411.5s-266.166 -159.5 -443.499 -159.5z" />
    <glyph glyph-name="uni040A" unicode="&#x40a;" horiz-adv-x="2283" 
d="M1415 348h224.999c50.667 0 94.834 16.833 132.501 50.5s56.5 73.5 56.5 119.5c0 36.667 -13 68.667 -39 96s-58.667 41 -98 41h-211zM1608 0h-656l133 635h-491l-133 -635h-389l303 1434h389l-94 -451h491l94 451h390l-91 -430h207c134 0 245.333 -42.667 334 -128
s133 -187 133 -305c0 -168 -59 -305.167 -177 -411.5s-265.667 -159.5 -443 -159.5z" />
    <glyph glyph-name="uni040B" unicode="&#x40b;" horiz-adv-x="1597" 
d="M1087 399c2.66699 16.667 4.33105 29 4.99805 37c0 42 -15.167 77.167 -45.5 105.5s-69.833 42.5 -118.5 42.5c-53.333 0 -102.166 -16.833 -146.499 -50.5s-69.833 -67.5 -76.5 -101.5l-91 -432h-389l230 1085h-318l74 349h1014l-74 -349h-307l-47 -227
c88.667 49.333 185.334 74 290.001 74c270.667 0 406 -125 406 -375c0 -50.667 -6 -106.667 -18 -168l-82 -389h-389z" />
    <glyph glyph-name="uni040C" unicode="&#x40c;" horiz-adv-x="1495" 
d="M745 549l-208 -191l-76 -358h-389l303 1434h389l-113 -531l553 531h482l-637 -607l374 -827h-430zM836 1597l241 330h377l-317 -330h-301z" />
    <glyph glyph-name="uni040E" unicode="&#x40e;" horiz-adv-x="1331" 
d="M895 1587c-108 0 -193 32.167 -255 96.5s-82.667 144.833 -62 241.5h245c-6.66699 -35.333 -1.5 -63 15.5 -83s44.167 -30 81.5 -30c70.667 0 113.667 37.667 129 113h245c-20.667 -100 -66 -181.333 -136 -244s-157.667 -94 -263 -94zM608 1434l163.998 -579.999
l352 580h439l-727 -1065c-180 -259.333 -381 -389 -603 -389c-32.667 0 -64 2.66699 -94 8s-51.667 10.666 -65 15.999l-21 6l72 338c27.333 -13.333 65 -20 113 -20c54.667 0 102.334 13 143.001 39s71.334 54 92.001 84l39 53l-301 930h397z" />
    <glyph glyph-name="uni040F" unicode="&#x40f;" horiz-adv-x="1617" 
d="M1665 1434l-303 -1434h-451l-61 -287h-389l61 287h-450l303 1434h389l-229 -1086h512l229 1086h389z" />
    <glyph glyph-name="uni0410" unicode="&#x410;" horiz-adv-x="1515" 
d="M944 614l-45 420l-221 -420h266zM981 307h-471l-166 -307h-436l846 1434h430l239 -1434h-403z" />
    <glyph glyph-name="uni0411" unicode="&#x411;" horiz-adv-x="1423" 
d="M530 328l263 0.000976562c44 0 82.5 15 115.5 45s49.5 66.667 49.5 110c0 31.333 -11.5 57.666 -34.5 78.999s-52.167 32 -87.5 32h-250zM778 0.000976562h-706l303 1434h1044l-69 -328h-656l-39 -184h256c131.333 0 238.333 -41 321 -123s124 -176.333 124 -283
c0 -146 -53 -268.5 -159 -367.5s-245.667 -148.5 -419 -148.5z" />
    <glyph glyph-name="uni0412" unicode="&#x412;" horiz-adv-x="1454" 
d="M805 0l-732.998 0.00195312l303 1434h624c130 0 235.667 -34.833 317 -104.5s122 -149.5 122 -239.5c0 -49.333 -9 -94.833 -27 -136.5s-39.167 -75.167 -63.5 -100.5s-48.833 -47.166 -73.5 -65.499s-46 -30.833 -64 -37.5l-26 -11
c5.33301 -2.66699 12.166 -6.33398 20.499 -11.001s23.666 -15.834 45.999 -33.501s42 -36.834 59 -57.501s32.333 -48 46 -82s20.5 -69.333 20.5 -106c0 -124 -52.167 -229.833 -156.5 -317.5s-242.5 -131.5 -414.5 -131.5zM524.002 307.002h274.999c52 0 95 15.333 129 46
s51 70.667 51 120c0 34 -12.667 62.667 -38 86s-57.666 35 -96.999 35h-258zM905.001 1126l-207 -0.000976562l-51 -245h223c45.333 0 82.333 12.833 111 38.5s43 59.834 43 102.501c0 28.667 -11 53.167 -33 73.5s-50.667 30.5 -86 30.5z" />
    <glyph glyph-name="uni0413" unicode="&#x413;" horiz-adv-x="1208" 
d="M72 0l303 1434h1024l-74 -349h-635l-229 -1085h-389z" />
    <glyph glyph-name="uni0414" unicode="&#x414;" horiz-adv-x="1556" 
d="M-18 348l81.001 -0.000976562c6.66699 5.33301 15.5 12.833 26.5 22.5s32.667 33.334 65 71.001s62.166 78.667 89.499 123s56.333 104 87 179s54.667 154.833 72 239.5l95 451h1065l-230 -1086h164l-135 -635h-389l61 287h-737l-61 -287h-388zM793.001 982.999
c-18 -84.667 -41 -164.169 -69 -238.502s-55 -134.666 -81 -180.999s-51 -86.666 -75 -120.999s-43.333 -58.833 -58 -73.5l-23 -21h457l156 737h-287z" />
    <glyph glyph-name="uni0415" unicode="&#x415;" horiz-adv-x="1372" 
d="M530 328h738l-70 -328h-1126l303 1434h1106l-70 -328h-717l-47 -225h553l-65 -308h-553z" />
    <glyph glyph-name="uni0416" unicode="&#x416;" horiz-adv-x="2170" 
d="M799 0l92 434l-74 109l-471 -543h-459l731 848l-380 586h434l323 -502l107 502h389l-102 -476l499 476h473l-643 -609l371 -825h-426l-246 543l-141 -125l-88 -418h-389z" />
    <glyph glyph-name="uni0417" unicode="&#x417;" horiz-adv-x="1280" 
d="M1010 739c5.33301 -2.66699 12.0059 -6.3291 20.0059 -10.9961s23 -15.834 45 -33.501s41.167 -36.834 57.5 -57.501s31.333 -48.334 45 -83.001s20.5 -72 20.5 -112c0 -140.667 -56.667 -256.334 -170 -347.001s-271.666 -136 -474.999 -136
c-70.667 0 -138.834 8.5 -204.501 25.5s-120.334 37.5 -164.001 61.5s-82.334 48 -116.001 72s-57.834 44.667 -72.501 62l-25 25l267 229c9.33301 -9.33301 22.166 -21.166 38.499 -35.499s51.166 -33.166 104.499 -56.499s107.333 -35 162 -35c78 0 137.667 15 179 45
s62 67 62 111c0 30 -16 55.833 -48 77.5s-76.667 32.5 -134 32.5h-174l70 328h164c62.667 0 111.667 12.333 147 37s53 55.334 53 92.001c0 64 -54 96 -162 96c-45.333 0 -91 -8.83301 -137 -26.5s-80.667 -35.167 -104 -52.5l-37 -27l-176 240
c5.33301 5.33301 12.833 12.666 22.5 21.999s31.167 26.666 64.5 51.999s69.5 47.166 108.5 65.499s90.5 35.5 154.5 51.5s130.333 24 199 24c143.333 0 262.666 -40.333 357.999 -121s143 -168.667 143 -264c0 -56 -9.83301 -106.667 -29.5 -152s-43.5 -79.5 -71.5 -102.5
s-56 -42.333 -84 -58s-51.667 -26.5 -71 -32.5z" />
    <glyph glyph-name="uni0418" unicode="&#x418;" horiz-adv-x="1669" 
d="M375 1434h389l-168 -785l760 785h360l-303 -1434h-389l166 784l-760 -784h-358z" />
    <glyph glyph-name="uni0419" unicode="&#x419;" horiz-adv-x="1669" 
d="M1098 1587c-108 0 -193 32.167 -255 96.5s-83 144.833 -63 241.5h246c-6.66699 -35.333 -1.5 -63 15.5 -83s43.833 -30 80.5 -30c70.667 0 113.667 37.667 129 113h246c-20.667 -100 -66 -181.333 -136 -244s-157.667 -94 -263 -94zM375 1434h389l-168 -785l760 785h360
l-303 -1434h-389l166 784l-760 -784h-358z" />
    <glyph glyph-name="uni041A" unicode="&#x41a;" horiz-adv-x="1495" 
d="M745 549l-208 -191l-76 -358h-389l303 1434h389l-113 -531l553 531h482l-637 -607l374 -827h-430z" />
    <glyph glyph-name="uni041B" unicode="&#x41b;" horiz-adv-x="1597" 
d="M1645 1434l-303.999 -1434h-389l230 1085h-328l-20 -102c-42 -198 -88.5 -364.5 -139.5 -499.5s-106.833 -240.5 -167.5 -316.5s-123 -129.667 -187 -161s-136.333 -47 -217 -47c-34 0 -68.833 3.5 -104.5 10.5s-62.834 13.833 -81.501 20.5l-29 10l76 358
c30 -13.333 58.667 -20 86 -20c49.333 0 93 15 131 45s78.5 94.167 121.5 192.5s82.833 233.5 119.5 405.5l97 453h1106z" />
    <glyph glyph-name="uni041C" unicode="&#x41c;" horiz-adv-x="1904" 
d="M934 348l-293 502l-180 -850h-389l303 1434h323l322 -564l559 564h373l-303 -1434h-389l180 850z" />
    <glyph glyph-name="uni041D" unicode="&#x41d;" horiz-adv-x="1628" 
d="M1675 1434l-303 -1434h-389l117 553h-522l-117 -553h-389l303 1434h389l-113 -533h523l112 533h389z" />
    <glyph glyph-name="uni041E" unicode="&#x41e;" horiz-adv-x="1761" 
d="M985 1126c-121.333 0 -227.5 -45.667 -318.5 -137s-136.5 -199 -136.5 -323c0 -102.667 34.167 -188.167 102.5 -256.5s155.833 -102.5 262.5 -102.5c120 0 225.833 44.333 317.5 133s137.5 198 137.5 328c0 101.333 -34.167 186.333 -102.5 255s-155.833 103 -262.5 103
zM1755 793c0 -143.333 -40.334 -279.166 -121.001 -407.499s-188.167 -231.5 -322.5 -309.5s-276.5 -117 -426.5 -117c-217.333 0 -398.333 66.833 -543 200.5s-217 294.167 -217 481.5c0 221.333 87.333 415.666 262 582.999s377.334 251 608.001 251
c217.333 0 398.333 -66.833 543 -200.5s217 -294.167 217 -481.5z" />
    <glyph glyph-name="uni041F" unicode="&#x41f;" horiz-adv-x="1607" 
d="M1655 1434l-303 -1434h-389l229 1085h-502l-229 -1085h-389l303 1434h1280z" />
    <glyph glyph-name="uni0420" unicode="&#x420;" horiz-adv-x="1423" 
d="M375 1434h615.999c134 0 245.333 -42.667 334 -128s133 -186 133 -302c0 -168 -58.667 -305.667 -176 -413s-264.666 -161 -441.999 -161h-289l-90 -430h-389zM923.999 1085h-234l-65 -307h249c52 0 96.167 17.833 132.5 53.5s54.5 77.167 54.5 124.5c0 34 -13 64 -39 90
s-58.667 39 -98 39z" />
    <glyph glyph-name="uni0421" unicode="&#x421;" horiz-adv-x="1536" 
d="M1014 1126c-134 0 -249.836 -47.6689 -347.503 -143.002s-146.5 -211.333 -146.5 -348c0 -94 31.5 -172.167 94.5 -234.5s144.167 -93.5 243.5 -93.5c46.667 0 92.5 6.83301 137.5 20.5s83.5 30.167 115.5 49.5s60.667 38.833 86 58.5s44 36.167 56 49.5l21 21l180 -260
c-6.66699 -8 -15.834 -18.5 -27.501 -31.5s-38.334 -36 -80.001 -69s-85.667 -62.167 -132 -87.5s-106.666 -48.166 -180.999 -68.499s-150.5 -30.5 -228.5 -30.5c-194 0 -355.833 65.5 -485.5 196.5s-194.5 283.833 -194.5 458.5c0 234.667 90.5 436.834 271.5 606.501
s397.833 254.5 650.5 254.5c76.667 0 149.334 -10 218.001 -30s125.167 -44 169.5 -72s83.333 -56 117 -84s57.167 -52 70.5 -72l23 -29l-277 -234c-2.66699 4 -7 10.167 -13 18.5s-19.667 22.333 -41 42s-44.666 37.167 -69.999 52.5s-58.666 29 -99.999 41
s-84.666 18 -129.999 18z" />
    <glyph glyph-name="uni0422" unicode="&#x422;" horiz-adv-x="1269" 
d="M252 1434h1188l-74 -349h-399l-230 -1085h-389l230 1085h-400z" />
    <glyph glyph-name="uni0423" unicode="&#x423;" horiz-adv-x="1331" 
d="M608 1434l163.998 -579.999l352 580h439l-727 -1065c-180 -259.333 -381 -389 -603 -389c-32.667 0 -64 2.66699 -94 8s-51.667 10.666 -65 15.999l-21 6l72 338c27.333 -13.333 65 -20 113 -20c54.667 0 102.334 13 143.001 39s71.334 54 92.001 84l39 53l-301 930h397z
" />
    <glyph glyph-name="uni0424" unicode="&#x424;" horiz-adv-x="1843" 
d="M848 1004c-90 -8 -167.833 -41.167 -233.5 -99.5s-98.5 -132.5 -98.5 -222.5c0 -58.667 19.5 -107.5 58.5 -146.5s91.833 -60.5 158.5 -64.5zM1014 -41l-389.001 0.000976562l39 184c-164 4 -295.167 56.667 -393.5 158s-147.5 221.666 -147.5 360.999
c0 181.333 77.5 336.5 232.5 465.5s342.5 196.833 562.5 203.5l32 154h389l-32 -154c162.667 -5.33301 293.334 -58.5 392.001 -159.5s148 -220.5 148 -358.5c0 -181.333 -77.5 -336.833 -232.5 -466.5s-342.167 -197.5 -561.5 -203.5zM1122 471.001
c91.333 8 169.167 40.667 233.5 98s96.5 132 96.5 224c0 60 -19.167 109 -57.5 147s-90.833 59.333 -157.5 64z" />
    <glyph glyph-name="uni0425" unicode="&#x425;" horiz-adv-x="1443" 
d="M745 481l-387 -481h-450l629 748l-285 686h410l157 -420l334 420h451l-576 -686l313 -748h-409z" />
    <glyph glyph-name="uni0426" unicode="&#x426;" horiz-adv-x="1638" 
d="M72 0l303 1434h389l-229 -1086h481l229 1086h389l-229 -1086h164l-135 -635h-390l62 287h-1034z" />
    <glyph glyph-name="uni0427" unicode="&#x427;" horiz-adv-x="1536" 
d="M743 1434l-92 -441c-4 -20.667 -6 -39 -6 -55c0 -53.333 17.5 -95 52.5 -125s81.833 -45 140.5 -45c40.667 0 80.5 5.83301 119.5 17.5s67.167 23.5 84.5 35.5l27 19l125 594h389l-303 -1434h-389l100 481c-76.667 -40.667 -173 -61 -289 -61
c-142 0 -253.833 36.167 -335.5 108.5s-122.5 174.833 -122.5 307.5c0 48 6 100.333 18 157l92 441h389z" />
    <glyph glyph-name="uni0428" unicode="&#x428;" horiz-adv-x="2211" 
d="M2259 1434l-303 -1434h-1884l303 1434h389l-229 -1086h358l229 1086h389l-229 -1086h358l230 1086h389z" />
    <glyph glyph-name="uni0429" unicode="&#x429;" horiz-adv-x="2263" 
d="M2259 1434l-229 -1086h163l-135 -633h-389l62 285h-1659l303 1434h389l-229 -1086h358l229 1086h389l-229 -1086h358l230 1086h389z" />
    <glyph glyph-name="uni042A" unicode="&#x42a;" horiz-adv-x="1556" 
d="M885 0h-660l230 1085h-318l74 349h707l-91 -430h213c134 0 244.333 -42.333 331 -127s130 -186 130 -304c0 -168 -58.333 -305.5 -175 -412.5s-263.667 -160.5 -441 -160.5zM688 348l222.999 0.000976562c50.667 0 95.167 18.167 133.5 54.5s57.5 77.5 57.5 123.5
c0 35.333 -12.667 65.666 -38 90.999s-57.666 38 -96.999 38h-213z" />
    <glyph glyph-name="uni042B" unicode="&#x42b;" horiz-adv-x="2017" 
d="M2064 1434l-303 -1434h-389l303 1434h389zM731 0h-659l303 1434h389l-90 -430h213c134 0 244.333 -42.333 331 -127s130 -186 130 -304c0 -168 -58.5 -305.5 -175.5 -412.5s-264.167 -160.5 -441.5 -160.5zM813 655l-213.001 0.000976562l-65 -307h223
c50.667 0 95 18.167 133 54.5s57 77.5 57 123.5c0 35.333 -12.667 65.666 -38 90.999s-57.666 38 -96.999 38z" />
    <glyph glyph-name="uni042C" unicode="&#x42c;" horiz-adv-x="1423" 
d="M752 0h-680l303 1434h389l-90 -430h233c134 0 244.333 -42.333 331 -127s130 -186 130 -304c0 -168 -58.333 -305.5 -175 -412.5s-263.667 -160.5 -441 -160.5zM834 655l-234.001 0.000976562l-65 -307h243c50.667 0 95.167 18.167 133.5 54.5s57.5 77.5 57.5 123.5
c0 35.333 -12.667 65.666 -38 90.999s-57.666 38 -96.999 38z" />
    <glyph glyph-name="uni042D" unicode="&#x42d;" horiz-adv-x="1536" 
d="M647 307c80.667 0 159.829 22.499 237.496 67.499s139.834 104.5 186.501 178.5h-575l69 328h563c-19.333 75.333 -59.666 135 -120.999 179s-136.333 66 -225 66c-69.333 0 -136.166 -15.667 -200.499 -47s-110.833 -62.666 -139.5 -93.999l-45 -47l-186 250
c5.33301 8 13.833 18.5 25.5 31.5s37.667 35.833 78 68.5s83 61.667 128 87s103.667 48.333 176 69s146.833 31 223.5 31c194 0 357.167 -64.667 489.5 -194s198.5 -281.333 198.5 -456c0 -154 -41.333 -297.5 -124 -430.5s-194.667 -238.833 -336 -317.5
s-294 -118 -458 -118c-78 0 -152.333 9.83301 -223 29.5s-128.667 43.5 -174 71.5s-85 56 -119 84s-58.333 52.333 -73 73l-23 29l268 233c4 -4 9.5 -10 16.5 -18s22.5 -22 46.5 -42s49.667 -37.5 77 -52.5s62.333 -28.667 105 -41s87.334 -18.5 134.001 -18.5z" />
    <glyph glyph-name="uni042E" unicode="&#x42e;" horiz-adv-x="2263" 
d="M1427 -41c-170.667 0 -321.834 55.332 -453.501 165.999s-205.5 253.334 -221.5 428.001h-174l-117 -553h-389l303 1434h389l-113 -533h148c60 168 163 305.667 309 413s303 161 471 161c196.667 0 358.834 -62.833 486.501 -188.5s191.5 -282.167 191.5 -469.5
c0 -116 -23.5 -227.5 -70.5 -334.5s-108.833 -198.5 -185.5 -274.5s-165.5 -136.5 -266.5 -181.5s-203.5 -67.5 -307.5 -67.5zM1440 306.999c116 0 215.667 50.833 299 152.5s125 213.5 125 335.5c0 96.667 -28.333 176 -85 238s-128 93 -214 93
c-102.667 0 -198.667 -46.667 -288 -140s-134 -208.333 -134 -345c0 -98 28 -178.167 84 -240.5s127 -93.5 213 -93.5z" />
    <glyph glyph-name="uni042F" unicode="&#x42f;" horiz-adv-x="1474" 
d="M1522 1434l-303 -1434h-390l95 451h-195l-346 -451h-414l408 522c-4 4 -10.167 9.16699 -18.5 15.5s-22 20.666 -41 42.999s-36 46.166 -51 71.499s-28.667 58.166 -41 98.499s-18.5 81.5 -18.5 123.5c0 162.667 56.667 296.667 170 402s256 158 428 158h717zM778 1085
c-48 0 -89 -14.667 -123 -44s-51 -68.333 -51 -117c0 -35.333 11.667 -65 35 -89s54 -36 92 -36h266l62 286h-281z" />
    <glyph glyph-name="uni0430" unicode="&#x430;" horiz-adv-x="1302" 
d="M596 287c64 0 119.167 25.168 165.5 75.501s69.5 109.166 69.5 176.499c0 49.333 -16.667 91.333 -50 126s-72.333 52 -117 52c-60 0 -113.667 -24.667 -161 -74s-71 -110 -71 -182c0 -48 16.333 -89 49 -123s71 -51 115 -51zM905 868.001l28.999 136h348l-213 -1004
h-348l22 111c-2.66699 -4 -6.66699 -8.83301 -12 -14.5s-16.833 -16 -34.5 -31s-37.167 -28.333 -58.5 -40s-48.666 -22.167 -81.999 -31.5s-68.333 -14 -105 -14c-105.333 0 -195.833 40.833 -271.5 122.5s-113.5 181.167 -113.5 298.5c0 178.667 56.667 327.167 170 445.5
s242.333 177.5 387 177.5c36.667 0 71.667 -5.5 105 -16.5s60.333 -24 81 -39s38.5 -30 53.5 -45s25.833 -27.833 32.5 -38.5z" />
    <glyph glyph-name="uni0431" unicode="&#x431;" horiz-adv-x="1239" 
d="M1176 549c0 -160 -58.167 -294.835 -174.5 -404.502s-259.166 -164.5 -428.499 -164.5c-140.667 0 -256.334 40.5 -347.001 121.5s-136 193.167 -136 336.5c0 56 7.66699 121.667 23 197c50.667 238.667 131.5 416.834 242.5 534.501s255.167 195.5 432.5 233.5
c74 16.667 143.167 34.834 207.5 54.501s110.833 34.834 139.5 45.501l41 19l102 -265c-75.333 -39.333 -214 -83 -416 -131c-84.667 -20.667 -162.5 -57.5 -233.5 -110.5s-117.5 -108.167 -139.5 -165.5c8 8 20.333 18.167 37 30.5s50.667 29.166 102 50.499
s103.333 32 156 32c109.333 0 202 -41 278 -123s114 -179 114 -291zM666 654.998c-54.667 0 -103.832 -21.501 -147.499 -64.501s-65.5 -93.167 -65.5 -150.5c0 -42 14.667 -78 44 -108s63.666 -45 102.999 -45c53.333 0 101.5 21.833 144.5 65.5s64.5 94.834 64.5 153.501
c0 40.667 -14 75.667 -42 105s-61.667 44 -101 44z" />
    <glyph glyph-name="uni0432" unicode="&#x432;" horiz-adv-x="1136" 
d="M233 1004h529c98 0 175.333 -25 232 -75s85 -108.333 85 -175c0 -26 -3.33301 -50.667 -10 -74s-15.5 -42.833 -26.5 -58.5s-23 -30 -36 -43s-26 -23.5 -39 -31.5s-25 -14.833 -36 -20.5s-19.167 -9.16699 -24.5 -10.5l-8 -4c4 -1.33301 8.83301 -3.33301 14.5 -6
s16 -9.5 31 -20.5s28.167 -23 39.5 -36s21.833 -30.833 31.5 -53.5s14.5 -46 14.5 -70c0 -95.333 -38.5 -173.5 -115.5 -234.5s-183.833 -91.5 -320.5 -91.5h-574zM621 410h-166.001l-35 -164h164c28.667 0 52.834 8.5 72.501 25.5s29.5 40.5 29.5 70.5
c0.666992 45.333 -21 68 -65 68zM644.999 614c22 0 41.833 8 59.5 24s26.5 35.333 26.5 58c0 16.667 -5.83301 31.167 -17.5 43.5s-25.5 18.5 -41.5 18.5h-144l-30 -144h147z" />
    <glyph glyph-name="uni0433" unicode="&#x433;" horiz-adv-x="983" 
d="M301 686l-133.005 183.996c4 4 9.83301 9.5 17.5 16.5s24.667 19.333 51 37s54.333 33.334 84 47.001s68 26 115 37s95.167 16.5 144.5 16.5c117.333 0 211.166 -27.333 281.499 -82s105.5 -121 105.5 -199c0 -57.333 -12.667 -107.5 -38 -150.5
s-56.833 -75.667 -94.5 -98s-78.667 -42.333 -123 -60s-85.333 -31.667 -123 -42s-69 -22.666 -94 -36.999s-37.5 -30.5 -37.5 -48.5c0 -13.333 7.16699 -25.166 21.5 -35.499s34.5 -15.5 60.5 -15.5c36.667 0 73 8.16699 109 24.5s63 32.833 81 49.5l29 24l133 -180
c-4 -5.33301 -10.167 -12.5 -18.5 -21.5s-27.166 -24.333 -56.499 -46s-60.666 -41 -93.999 -58s-77.666 -32.667 -132.999 -47s-112.333 -21.5 -171 -21.5c-117.333 0 -211.166 28.333 -281.499 85s-105.5 124.334 -105.5 203.001c0 66.667 17.333 123.667 52 171
s77.334 81.833 128.001 103.5s100.834 39.667 150.501 54s92 29.166 127 44.499s52.5 33 52.5 53c0 35.333 -27.333 53.333 -82 54c-24.667 0 -50 -5.16699 -76 -15.5s-45.667 -21.166 -59 -32.499z" />
    <glyph glyph-name="uni0434" unicode="&#x434;" horiz-adv-x="1269" 
d="M907 846c-13.333 131.333 -66.502 236.166 -159.502 314.499s-208.5 131.833 -346.5 160.5l136 256c212.667 -49.333 378.334 -137.833 497.001 -265.5s178 -298.5 178 -512.5c0 -255.333 -64.167 -455.666 -192.5 -600.999s-289.166 -218 -482.499 -218
c-131.333 0 -242.666 44.333 -333.999 133s-137 189.667 -137 303c0 150 56.167 278.667 168.5 386s241.166 161 386.499 161c36.667 0 71.667 -4.16699 105 -12.5s60.666 -18 81.999 -29s39.833 -22.333 55.5 -34s26.834 -21.5 33.501 -29.5zM572.998 287
c56 0 105.5 22.167 148.5 66.5s64.5 95.833 64.5 154.5c0 40.667 -13.5 75.334 -40.5 104.001s-60.5 43 -100.5 43c-53.333 0 -102.5 -21.833 -147.5 -65.5s-67.5 -94.834 -67.5 -153.501c0 -42 14 -77.333 42 -106s61.667 -43 101 -43z" />
    <glyph glyph-name="uni0435" unicode="&#x435;" horiz-adv-x="1187" 
d="M1100 410h-690c9.33301 -46.667 32.833 -84 70.5 -112s85.167 -42 142.5 -42c42 0 83.5 8.16699 124.5 24.5s71.167 32.833 90.5 49.5l28 24l107 -229c-4 -4 -10.167 -9.16699 -18.5 -15.5s-26.5 -18 -54.5 -35s-57 -32 -87 -45s-69.167 -24.5 -117.5 -34.5
s-97.166 -15 -146.499 -15c-136.667 0 -251.834 43.667 -345.501 131s-140.5 191 -140.5 311c0 165.333 62.5 307 187.5 425s271.5 177 439.5 177c130 0 238.333 -38.167 325 -114.5s130 -171.166 130 -284.499c0 -70.667 -15 -142.334 -45 -215.001zM649 758
c-90 0 -158.333 -48.001 -205 -144.001h361c-1.33301 40.667 -16.333 74.834 -45 102.501s-65.667 41.5 -111 41.5z" />
    <glyph glyph-name="uni0436" unicode="&#x436;" horiz-adv-x="1679" 
d="M563 0l58 283l-41 65l-301 -348h-392l502 580l-274 424h383l209 -328l69 328h348l-65 -308l319 308h412l-463 -437l260 -567h-366l-164 360l-88 -77l-58 -283h-348z" />
    <glyph glyph-name="uni0437" unicode="&#x437;" horiz-adv-x="972" 
d="M936 752c0 -60 -21.501 -112.334 -64.501 -157.001s-95.833 -75 -158.5 -91c4 -1.33301 9.33301 -3.33301 16 -6s18.667 -9.16699 36 -19.5s32.333 -22.333 45 -36s24.5 -32.5 35.5 -56.5s16.5 -49.667 16.5 -77c0 -86 -41.333 -162.333 -124 -229
s-198.334 -100 -347.001 -100c-58.667 0 -114 6.66699 -166 20s-93.667 29.666 -125 48.999s-58.5 38.166 -81.5 56.499s-39.5 34.5 -49.5 48.5l-14 20l205 180c4 -6.66699 11.167 -15.5 21.5 -26.5s32.833 -25.667 67.5 -44s73.334 -27.5 116.001 -27.5
c84.667 0 127 27.333 127 82c0 39.333 -33.667 59 -101 59h-92l47 228h96c31.333 0 56.333 6.83301 75 20.5s28 29.834 28 48.501c0 35.333 -26.667 53.333 -80 54c-30 0 -61.333 -5.16699 -94 -15.5s-58 -21.166 -76 -32.499l-27 -14l-135 184c4 4 9.83301 9.5 17.5 16.5
s25.167 19.333 52.5 37s56.333 33.334 87 47.001s70.834 26 120.501 37s101.167 16.5 154.5 16.5c109.333 0 198.5 -28 267.5 -84s103.5 -118.667 103.5 -188z" />
    <glyph glyph-name="uni0438" unicode="&#x438;" horiz-adv-x="1259" 
d="M676 0l19.999 102.001c-8 -9.33301 -19.167 -20.833 -33.5 -34.5s-46 -31.667 -95 -54s-100.833 -33.5 -155.5 -33.5c-94 0 -170.833 28.667 -230.5 86s-89.5 133.666 -89.5 228.999c0 32.667 4 67.334 12 104.001l129 605h349l-117 -543
c-2.66699 -16.667 -4 -28.334 -4 -35.001c0 -36.667 10.833 -65.667 32.5 -87s51.167 -32 88.5 -32c46.667 0 88.334 16.833 125.001 50.5s61 78.5 73 134.5l109 512h348l-213 -1004h-348z" />
    <glyph glyph-name="uni0439" unicode="&#x439;" horiz-adv-x="1259" 
d="M676 0l19.999 102.001c-8 -9.33301 -19.167 -20.833 -33.5 -34.5s-46 -31.667 -95 -54s-100.833 -33.5 -155.5 -33.5c-94 0 -170.833 28.667 -230.5 86s-89.5 133.666 -89.5 228.999c0 32.667 4 67.334 12 104.001l129 605h349l-117 -543
c-2.66699 -16.667 -4 -28.334 -4 -35.001c0 -36.667 10.833 -65.667 32.5 -87s51.167 -32 88.5 -32c46.667 0 88.334 16.833 125.001 50.5s61 78.5 73 134.5l109 512h348l-213 -1004h-348zM744.999 1126c-102.667 0 -183.834 31.834 -243.501 95.501
s-80.167 141.167 -61.5 232.5h246c-5.33301 -30 -0.166016 -54.5 15.501 -73.5s39.167 -28.5 70.5 -28.5c30 0 55.667 9.16699 77 27.5s35.333 43.166 42 74.499h246c-20.667 -95.333 -66.167 -173.833 -136.5 -235.5s-155.5 -92.5 -255.5 -92.5z" />
    <glyph glyph-name="uni043A" unicode="&#x43a;" horiz-adv-x="1167" 
d="M817 567l258 -567h-370l-162 358l-123 -110l-51 -248h-349l213 1004h349l-72 -336l354 336h414z" />
    <glyph glyph-name="uni043B" unicode="&#x43b;" horiz-adv-x="1208" 
d="M336 1004h860.002l-213 -1004h-348l147 696h-194c-58.667 -272 -130.334 -461.167 -215.001 -567.5s-188 -159.5 -310 -159.5c-27.333 0 -54.833 2.83301 -82.5 8.5s-48.5 10.5 -62.5 14.5l-20 8l63 307c18 -6.66699 37 -10 57 -10c38 0 70.167 10.167 96.5 30.5
s54.166 66 83.499 137s58.333 172.167 87 303.5z" />
    <glyph glyph-name="uni043C" unicode="&#x43c;" horiz-adv-x="1392" 
d="M641 225l-164 287l-108 -512h-349l213 1004h279l203 -349l350 349h315l-213 -1004h-348l109 512z" />
    <glyph glyph-name="uni043D" unicode="&#x43d;" horiz-adv-x="1239" 
d="M442 348l-73 -348h-349l213 1004h349l-74 -349h297l74 349h348l-213 -1004h-348l73 348h-297z" />
    <glyph glyph-name="uni043E" unicode="&#x43e;" 
d="M657 717c-60 0 -113.167 -25.666 -159.5 -76.999s-69.5 -108.333 -69.5 -171c0 -52 16 -95.333 48 -130s72.667 -52 122 -52c57.333 0 109.833 24.833 157.5 74.5s71.5 108.167 71.5 175.5c0 53.333 -16 96.666 -48 129.999s-72.667 50 -122 50zM1192 547.001
c0 -150 -61.167 -282 -183.5 -396s-263.166 -171 -422.499 -171c-151.333 0 -275.833 47.333 -373.5 142s-146.5 207 -146.5 337c0 148.667 60.667 280 182 394s262.666 171 423.999 171c151.333 0 275.833 -47 373.5 -141s146.5 -206 146.5 -336z" />
    <glyph glyph-name="uni043F" unicode="&#x43f;" 
d="M582 1004l-24.999 -113.001c8 9.33301 19.833 21.5 35.5 36.5s49.167 34.833 100.5 59.5s104.333 37 159 37c91.333 0 165.666 -29 222.999 -87s86 -135.333 86 -232c0 -35.333 -4 -72.333 -12 -111l-125 -594h-348l112 532c2.66699 19.333 4.33398 32.333 5.00098 39
c0 38 -12 68.333 -36 91s-53.667 34 -89 34c-46.667 0 -87.334 -18.667 -122.001 -56s-59 -86.666 -73 -147.999l-104 -492h-349l213 1004h349z" />
    <glyph glyph-name="uni0440" unicode="&#x440;" horiz-adv-x="1290" 
d="M705 717c-64 0 -119.332 -25.332 -165.999 -75.999s-70 -109.334 -70 -176.001c0 -49.333 16.667 -91.333 50 -126s72.666 -52 117.999 -52c60 0 113.5 24.5 160.5 73.5s70.5 109.833 70.5 182.5c0 48 -16.167 89 -48.5 123s-70.5 51 -114.5 51zM395.001 135.001
l-119.002 -564.998h-348l305 1434h349l-25 -111c2.66699 4 6.83398 8.66699 12.501 14s17.334 15.666 35.001 30.999s37 28.666 58 39.999s48.333 21.833 82 31.5s68.834 14.5 105.501 14.5c105.333 0 195.833 -41 271.5 -123s113.5 -181.667 113.5 -299
c0 -178.667 -56.667 -327 -170 -445s-242.333 -177 -387 -177c-36.667 0 -71.834 5.33301 -105.501 16s-60.667 23.5 -81 38.5s-38 30 -53 45s-25.833 28.167 -32.5 39.5z" />
    <glyph glyph-name="uni0441" unicode="&#x441;" horiz-adv-x="1105" 
d="M66 428c0 161.333 63.0039 301 189.004 419s274.333 177 445 177c53.333 0 104.666 -7.16699 153.999 -21.5s89.666 -31.333 120.999 -51s59 -39.5 83 -59.5s41.333 -37.333 52 -52l16 -21l-241 -207c-5.33301 8 -12.833 17.833 -22.5 29.5s-32 27.167 -67 46.5
s-72.167 29 -111.5 29c-70.667 0 -131 -24.333 -181 -73s-75 -109 -75 -181c0 -49.333 16.667 -91 50 -125s76.666 -51 129.999 -51c39.333 0 77.5 9.5 114.5 28.5s64.5 38.167 82.5 57.5l26 26l164 -221c-4 -5.33301 -10.333 -12.5 -19 -21.5s-27.334 -24.667 -56.001 -47
s-59.167 -42.333 -91.5 -60s-74 -33.667 -125 -48s-103.167 -21.5 -156.5 -21.5c-132.667 0 -246 45 -340 135s-141 194.333 -141 313z" />
    <glyph glyph-name="uni0442" unicode="&#x442;" horiz-adv-x="1822" 
d="M1249 0l113 531.999c9.33301 50.667 4.83301 89 -13.5 115s-48.833 39 -91.5 39c-36.667 0 -71 -17.333 -103 -52s-54.333 -82 -67 -142l-104 -492h-348l113 532c9.33301 50.667 4.83301 89 -13.5 115s-48.833 39 -91.5 39c-36.667 0 -71 -17.333 -103 -52
s-54.333 -82 -67 -142l-104 -492h-349l213 1004h349l-25 -113c6.66699 9.33301 16.5 21.5 29.5 36.5s42.333 34.833 88 59.5s94.5 37 146.5 37c38 0 73.167 -5.5 105.5 -16.5s57.666 -24.667 75.999 -41s34 -32.666 47 -48.999s22.167 -29.833 27.5 -40.5l6 -17
c10.667 12 25.667 27.333 45 46s59.333 43 120 73s123.334 45 188.001 45c108 0 189.833 -38.5 245.5 -115.5s69.167 -181.833 40.5 -314.5l-125 -594h-348z" />
    <glyph glyph-name="uni0443" unicode="&#x443;" horiz-adv-x="1105" 
d="M231 -20l37.002 49.001l-157 975h352l63 -584l310 584h381l-592 -1004c-88.667 -150 -174 -259.167 -256 -327.5s-171 -102.5 -267 -102.5c-32.667 0 -65.334 2.66699 -98.001 8s-57.334 10.666 -74.001 15.999l-24 7l63 307c26 -13.333 59.667 -20.333 101 -21
c65.333 0.666992 119 31.667 161 93z" />
    <glyph glyph-name="uni0444" unicode="&#x444;" horiz-adv-x="1597" 
d="M778 -430h-348.001l82 389c-134 9.33301 -242.667 58.5 -326 147.5s-125 192.833 -125 311.5c0 157.333 67.333 295 202 413s293.334 182.333 476.001 193l86 410h349l-87 -410c134 -9.33301 242.667 -58.833 326 -148.5s125 -193.834 125 -312.501
c0 -157.333 -67.5 -294.666 -202.5 -411.999s-293.5 -181.333 -475.5 -192zM1022 717l-96 -450.998c70.667 5.33301 131.667 33.666 183 84.999s77 116.666 77 195.999c0 49.333 -14.333 89 -43 119s-69 47 -121 51zM577.999 266.002l96 451
c-72.667 -6.66699 -133.834 -35 -183.501 -85s-74.5 -115.333 -74.5 -196c0 -49.333 14.333 -89 43 -119s68.334 -47 119.001 -51z" />
    <glyph glyph-name="uni0445" unicode="&#x445;" horiz-adv-x="1085" 
d="M510 287l-234 -287h-378l426 512l-193 492h365l88 -267l200 267h392l-402 -492l209 -512h-358z" />
    <glyph glyph-name="uni0446" unicode="&#x446;" horiz-adv-x="1284" 
d="M1227 1004l-137.003 -645.999c-8 -40.667 6.33301 -61 43 -61h75l-110 -522h-348l57 264c-12 12 -22.167 25.833 -30.5 41.5s-13.166 28.5 -14.499 38.5l-4 14c-4 -4 -9.16699 -9.5 -15.5 -16.5s-20.666 -19.333 -42.999 -37s-46.166 -33.334 -71.499 -47.001
s-58.166 -25.834 -98.499 -36.501s-81.5 -16 -123.5 -16c-92.667 0 -167.834 29 -225.501 87s-86.5 136 -86.5 234c0 34 4 70.333 12 109l127 594h349l-115 -533c-2.66699 -9.33301 -4 -23.666 -4 -42.999c0 -36.667 10.833 -66 32.5 -88s50.5 -33 86.5 -33
c42 0 80.833 17.167 116.5 51.5s59.5 78.833 71.5 133.5l109 512h348z" />
    <glyph glyph-name="uni0447" unicode="&#x447;" horiz-adv-x="1167" 
d="M594 0l63.002 303c-61.333 -38 -132.333 -57 -213 -57c-96.667 0 -174 26.667 -232 80s-87 126.333 -87 219c0 38 3.33301 71.333 10 100l78 359h348l-67 -318c-2.66699 -13.333 -4.33398 -23 -5.00098 -29c0 -28.667 9.66699 -51.5 29 -68.5s44.666 -25.5 75.999 -25.5
c24.667 0 47.5 3.5 68.5 10.5s36.5 13.833 46.5 20.5l12 10l86 400h348l-213 -1004h-348z" />
    <glyph glyph-name="uni0448" unicode="&#x448;" horiz-adv-x="1832" 
d="M582 1004l-113 -533.003c-9.33301 -50.667 -4.83301 -89 13.5 -115s48.5 -39 90.5 -39c36.667 0 71.167 17.5 103.5 52.5s54.5 82.5 66.5 142.5l105 492h348l-113 -533c-9.33301 -50.667 -4.83301 -89 13.5 -115s48.833 -39 91.5 -39c36.667 0 71 17.5 103 52.5
s54.333 82.5 67 142.5l104 492h348l-213 -1004h-348l25 113c-6.66699 -9.33301 -16.5 -21.666 -29.5 -36.999s-42.5 -35.166 -88.5 -59.499s-94.667 -36.5 -146 -36.5c-38 0 -73.167 5.33301 -105.5 16s-57.666 24.167 -75.999 40.5s-34 32.833 -47 49.5
s-22.167 30.334 -27.5 41.001l-6 16c-10.667 -12 -25.667 -27.167 -45 -45.5s-59.333 -42.5 -120 -72.5s-123.334 -45 -188.001 -45c-108 0 -189.833 38.5 -245.5 115.5s-69.167 181.833 -40.5 314.5l124 594h349z" />
    <glyph glyph-name="uni0449" unicode="&#x449;" horiz-adv-x="1867" 
d="M1009.5 -20c-38.333 0 -73.499 5.33398 -105.499 16.001s-57.167 24.167 -75.5 40.5s-34 32.833 -47 49.5s-22.167 30.334 -27.5 41.001l-6 16c-10.667 -12 -25.667 -27.167 -45 -45.5s-59.333 -42.5 -120 -72.5s-123.334 -45 -188.001 -45
c-108 0 -189.833 38.5 -245.5 115.5s-69.167 181.833 -40.5 314.5l124 594h349l-113 -533c-9.33301 -50.667 -4.83301 -89 13.5 -115s48.5 -39 90.5 -39c36.667 0 71.167 17.5 103.5 52.5s54.5 82.5 66.5 142.5l105 492h348l-113 -533
c-9.33301 -50.667 -4.83301 -89 13.5 -115s48.833 -39 91.5 -39c36.667 0 71 17.5 103 52.5s54.333 82.5 67 142.5l104 492h348l-137 -646c-8 -40.667 6.33301 -61 43 -61h76l-111 -522h-348l58 264c-12 12 -22.167 25.833 -30.5 41.5s-14.166 28.5 -17.499 38.5l-2 14
c-4 -4 -9 -9.5 -15 -16.5s-20 -19.333 -42 -37s-44.833 -33.334 -68.5 -47.001s-54.334 -25.834 -92.001 -36.501s-75.667 -16 -114 -16z" />
    <glyph glyph-name="uni044A" unicode="&#x44a;" horiz-adv-x="1187" 
d="M1108 412c0 -121.333 -45.667 -220.333 -137 -297s-203.333 -115 -336 -115h-502l143 676h-215l70 328h563l-61 -287h112c108 0 195.5 -29.333 262.5 -88s100.5 -131 100.5 -217zM537 266h105.999c28.667 0 54.334 11 77.001 33s34 47.333 34 76
c0 22 -7.5 40.167 -22.5 54.5s-34.167 21.5 -57.5 21.5h-99z" />
    <glyph glyph-name="uni044B" unicode="&#x44b;" horiz-adv-x="1597" 
d="M1585 1004l-213 -1004h-348l213 1004h348zM424 266h105.999c28.667 0 54.334 11 77.001 33s34 47.333 34 76c0 22 -7.5 40.167 -22.5 54.5s-34.167 21.5 -57.5 21.5h-98zM521.999 0h-502l213 1004h349l-62 -287h113c108 0 195.333 -29.333 262 -88s100 -131 100 -217
c0 -121.333 -45.667 -220.333 -137 -297s-203.333 -115 -336 -115z" />
    <glyph glyph-name="uni044C" unicode="&#x44c;" horiz-adv-x="1095" 
d="M424 266h126.999c28.667 0 54.334 11 77.001 33s34 47.333 34 76c0 22 -7.66699 40.167 -23 54.5s-34.333 21.5 -57 21.5h-119zM542.999 0h-523l213 1004h349l-62 -287h133c108 0 195.5 -29.333 262.5 -88s100.5 -131 100.5 -217c0 -121.333 -45.667 -220.333 -137 -297
s-203.333 -115 -336 -115z" />
    <glyph glyph-name="uni044D" unicode="&#x44d;" horiz-adv-x="1105" 
d="M420 266c104 0 180.995 40.999 230.995 122.999h-344l47 225h338c-22 82 -82.667 123 -182 123c-39.333 0 -79.5 -9.5 -120.5 -28.5s-72.5 -38.167 -94.5 -57.5l-31 -26l-141 194c4 5.33301 10.5 12.833 19.5 22.5s27.833 26.167 56.5 49.5s59.334 43.833 92.001 61.5
s74.334 34 125.001 49s102.334 22.5 155.001 22.5c132.667 0 245.5 -45.333 338.5 -136s139.5 -196.334 139.5 -317.001c0 -157.333 -63.167 -295.166 -189.5 -413.499s-274.833 -177.5 -445.5 -177.5c-53.333 0 -104.666 7.16699 -153.999 21.5s-89.666 31.333 -120.999 51
s-59 39.334 -83 59.001s-41.333 37.167 -52 52.5l-16 20l219 189c5.33301 -8 13.833 -17.833 25.5 -29.5s36 -27.5 73 -47.5s75.167 -30 114.5 -30z" />
    <glyph glyph-name="uni044E" unicode="&#x44e;" horiz-adv-x="1699" 
d="M1051 -20c-112 0 -214.498 33.667 -307.498 101s-151.833 156.333 -176.5 267h-125l-73 -348h-349l213 1004h349l-74 -349h90c45.333 108 119.166 196.5 221.499 265.5s212.833 103.5 331.5 103.5c142 0 259.833 -45.333 353.5 -136s140.5 -201 140.5 -331
c0 -155.333 -59.333 -290.333 -178 -405s-257.334 -172 -416.001 -172zM1069 287c58.667 0 109.832 26.168 153.499 78.501s65.5 110.166 65.5 173.499c0 52 -15.667 94.667 -47 128s-69 50 -113 50c-53.333 0 -103.166 -24.333 -149.499 -73s-69.5 -107 -69.5 -175
c0 -52 15.333 -95.333 46 -130s68.667 -52 114 -52z" />
    <glyph glyph-name="uni044F" unicode="&#x44f;" horiz-adv-x="1136" 
d="M592 1004l532 -0.000976562l-213 -1004h-348l60 287h-70l-234 -287h-370l287 348c-8 6.66699 -19 16.167 -33 28.5s-31.833 40 -53.5 83s-32.5 88.5 -32.5 136.5c0 114.667 45 211.334 135 290.001s203.333 118 340 118zM719 736.999h-127c-32.667 0 -61 -9.5 -85 -28.5
s-36 -45.5 -36 -79.5c0 -22 8.16699 -40.167 24.5 -54.5s37.5 -21.5 63.5 -21.5h121z" />
    <glyph glyph-name="uni0451" unicode="&#x451;" horiz-adv-x="1187" 
d="M1100 410h-690c9.33301 -46.667 32.833 -84 70.5 -112s85.167 -42 142.5 -42c42 0 83.5 8.16699 124.5 24.5s71.167 32.833 90.5 49.5l28 24l107 -229c-4 -4 -10.167 -9.16699 -18.5 -15.5s-26.5 -18 -54.5 -35s-57 -32 -87 -45s-69.167 -24.5 -117.5 -34.5
s-97.166 -15 -146.499 -15c-136.667 0 -251.834 43.667 -345.501 131s-140.5 191 -140.5 311c0 165.333 62.5 307 187.5 425s271.5 177 439.5 177c130 0 238.333 -38.167 325 -114.5s130 -171.166 130 -284.499c0 -70.667 -15 -142.334 -45 -215.001zM649 758
c-90 0 -158.333 -48.001 -205 -144.001h361c-1.33301 40.667 -16.333 74.834 -45 102.501s-65.667 41.5 -111 41.5zM340 1276c0 48 20.5 91.333 61.5 130s86.833 58 137.5 58c44 0 80.833 -15.667 110.5 -47s44.5 -68 44.5 -110c0 -49.333 -20.5 -93.5 -61.5 -132.5
s-86.5 -58.5 -136.5 -58.5c-44 0 -81 16.167 -111 48.5s-45 69.5 -45 111.5zM811 1276c0 48 20.5 91.333 61.5 130s86.833 58 137.5 58c44 0 80.833 -15.667 110.5 -47s44.5 -68 44.5 -110c0 -49.333 -20.5 -93.5 -61.5 -132.5s-86.5 -58.5 -136.5 -58.5
c-44 0 -81 16.167 -111 48.5s-45 69.5 -45 111.5z" />
    <glyph glyph-name="uni0452" unicode="&#x452;" 
d="M702 1434l-28.001 -133.999h215l-64 -307h-215l-45 -205c8 9.33301 20.333 21.666 37 36.999s51.167 35.333 103.5 60s105.833 37 160.5 37c88.667 0 161.334 -31.5 218.001 -94.5s85 -144.167 85 -243.5c0 -191.333 -56.333 -343.333 -169 -456s-272 -169 -478 -169
l70 328c60 0 110.833 18.667 152.5 56s62.5 89 62.5 155c0 30 -10.333 53.5 -31 70.5s-48.667 25.5 -84 25.5c-50.667 0 -95 -18.833 -133 -56.5s-64 -87.167 -78 -148.5l-82 -389h-348l211 993h-153l63 307h154l28 134h348z" />
    <glyph glyph-name="uni0453" unicode="&#x453;" horiz-adv-x="983" 
d="M463 1126l242 330h376l-317 -330h-301zM301 686l-133.005 183.996c4 4 9.83301 9.5 17.5 16.5s24.667 19.333 51 37s54.333 33.334 84 47.001s68 26 115 37s95.167 16.5 144.5 16.5c117.333 0 211.166 -27.333 281.499 -82s105.5 -121 105.5 -199
c0 -57.333 -12.667 -107.5 -38 -150.5s-56.833 -75.667 -94.5 -98s-78.667 -42.333 -123 -60s-85.333 -31.667 -123 -42s-69 -22.666 -94 -36.999s-37.5 -30.5 -37.5 -48.5c0 -13.333 7.16699 -25.166 21.5 -35.499s34.5 -15.5 60.5 -15.5c36.667 0 73 8.16699 109 24.5
s63 32.833 81 49.5l29 24l133 -180c-4 -5.33301 -10.167 -12.5 -18.5 -21.5s-27.166 -24.333 -56.499 -46s-60.666 -41 -93.999 -58s-77.666 -32.667 -132.999 -47s-112.333 -21.5 -171 -21.5c-117.333 0 -211.166 28.333 -281.499 85s-105.5 124.334 -105.5 203.001
c0 66.667 17.333 123.667 52 171s77.334 81.833 128.001 103.5s100.834 39.667 150.501 54s92 29.166 127 44.499s52.5 33 52.5 53c0 35.333 -27.333 53.333 -82 54c-24.667 0 -50 -5.16699 -76 -15.5s-45.667 -21.166 -59 -32.499z" />
    <glyph glyph-name="uni0454" unicode="&#x454;" horiz-adv-x="1116" 
d="M692 758c-105.333 0 -185.662 -48.001 -240.995 -144.001h354l-47 -225h-344c28.667 -94 89.334 -141 182.001 -141c49.333 0 95.5 10.167 138.5 30.5s73.833 40.833 92.5 61.5l29 31l145 -187c-4 -5.33301 -10.333 -12.833 -19 -22.5s-28.334 -26 -59.001 -49
s-62.5 -43.333 -95.5 -61s-75.333 -34 -127 -49s-104.167 -22.5 -157.5 -22.5c-132.667 0 -245.334 45.667 -338.001 137s-139 197 -139 317c0 160 63.833 298.333 191.5 415s278.167 175 451.5 175c53.333 0 104.166 -7.16699 152.499 -21.5s87.833 -31.333 118.5 -51
s57.667 -39.5 81 -59.5s39.666 -37.333 48.999 -52l16 -21l-206 -176c-1.33301 2.66699 -3.83301 6.83398 -7.5 12.501s-12.334 14.834 -26.001 27.501s-28.334 24.167 -44.001 34.5s-37.167 19.666 -64.5 27.999s-56 12.5 -86 12.5z" />
    <glyph glyph-name="uni0455" unicode="&#x455;" horiz-adv-x="962" 
d="M983 870l-208.999 -182c-40.667 39.333 -88.334 59.333 -143.001 60c-30 0 -53.5 -5.83301 -70.5 -17.5s-25.5 -26.5 -25.5 -44.5c0 -13.333 11.833 -26.833 35.5 -40.5s52.667 -27.667 87 -42s68.166 -31.5 101.499 -51.5s62 -47.667 86 -83s36 -76.333 36 -123
c0 -105.333 -42 -192.666 -126 -261.999s-201.333 -104 -352 -104c-58.667 0 -113.834 6.66699 -165.501 20s-93.667 29.666 -126 48.999s-60 38.166 -83 56.499s-39.167 34.5 -48.5 48.5l-15 20l209 180c4 -6.66699 10.833 -15.5 20.5 -26.5s30.167 -25.667 61.5 -44
s65.333 -27.5 102 -27.5c30 0 53.667 5.83301 71 17.5s26 26.167 26 43.5c0 13.333 -12 27 -36 41s-52.667 28.167 -86 42.5s-67.166 31.333 -101.499 51s-63.333 47.334 -87 83.001s-35.5 76.5 -35.5 122.5c0 105.333 41.833 192.833 125.5 262.5
s200.834 104.5 351.501 104.5c79.333 0 152 -13 218 -39s112 -51.333 138 -76z" />
    <glyph glyph-name="uni0456" unicode="&#x456;" horiz-adv-x="614" 
d="M592 1004l-213 -1004h-348l213 1004h348zM276 1278c0 53.333 21.1689 101.166 63.502 143.499s93.833 63.5 154.5 63.5c53.333 0 96.666 -16 129.999 -48s50 -70.667 50 -116c0 -54.667 -21.5 -102.5 -64.5 -143.5s-93.167 -61.5 -150.5 -61.5
c-54.667 0 -98.834 15.333 -132.501 46s-50.5 69.334 -50.5 116.001z" />
    <glyph glyph-name="uni0457" unicode="&#x457;" horiz-adv-x="614" 
d="M61 1276c0 48 20.5 91.333 61.5 130s86.833 58 137.5 58c44 0 81 -15.667 111 -47s45 -68 45 -110c0 -49.333 -20.5 -93.5 -61.5 -132.5s-86.833 -58.5 -137.5 -58.5c-44 0 -81 16.167 -111 48.5s-45 69.5 -45 111.5zM532 1276c0 48 20.5 91.333 61.5 130
s86.833 58 137.5 58c44 0 81 -15.667 111 -47s45 -68 45 -110c0 -49.333 -20.5 -93.5 -61.5 -132.5s-86.833 -58.5 -137.5 -58.5c-44 0 -81 16.167 -111 48.5s-45 69.5 -45 111.5zM592 1004l-213 -1004h-348l213 1004h348z" />
    </font>
</defs>
</svg>
