<?xml version="1.0" standalone="no"?>
<!DOCTYPE svg PUBLIC "-//W3C//DTD SVG 1.1//EN" "http://www.w3.org/Graphics/SVG/1.1/DTD/svg11.dtd" >
<svg xmlns="http://www.w3.org/2000/svg" xmlns:xlink="http://www.w3.org/1999/xlink" version="1.1">
<metadata>
Created by FontForge 20190801 at Tue May 30 06:26:37 2017
 By Jimmy Wärting
Copyright (c) 2017 by TypeType. Designers Ivan Gladkikh, Pavel Emelyanov. Technical designers Olexa Volochay, Nadyr Rakhimov, Dmitriy Greshnev. All rights reserved.
</metadata>
<defs>
<font id="TTNorms-ExtraLight" horiz-adv-x="1187" >
  <font-face 
    font-family="TT Norms ExtraLight"
    font-weight="200"
    font-stretch="normal"
    units-per-em="2048"
    panose-1="2 0 8 3 2 0 0 2 0 3"
    ascent="1638"
    descent="-410"
    x-height="982.999"
    cap-height="1434"
    bbox="-246 -451.001 2945.01 1976"
    underline-thickness="0"
    underline-position="0"
    unicode-range="U+000D-FB06"
  />
<missing-glyph horiz-adv-x="0" 
 />
    <glyph glyph-name="ij" unicode="ij" horiz-adv-x="931" 
d="M666 -174l0.00195312 205.003c-48 -34 -106 -51 -174 -51c-83.333 0 -155.5 31.667 -216.5 95s-91.5 140.666 -91.5 231.999v676h62v-676c0 -75.333 24.167 -138.5 72.5 -189.5s106.166 -76.5 173.499 -76.5c30 0 59.667 5.16699 89 15.5s50.666 20.166 63.999 29.499
l21 16v881h61v-1157c0 -75.333 -22.5 -136.833 -67.5 -184.5s-100.833 -71.5 -167.5 -71.5c-22 0 -43.333 2.66699 -64 8s-35.667 10.666 -45 15.999l-14 7v61c34 -20.667 75 -31 123 -31c52 0 94 17.5 126 52.5s48 82.5 48 142.5zM266.002 1341.5
c0 -34.333 -17 -51.5 -51 -51.5s-51 17.167 -51 51.5s17 51.5 51 51.5s51 -17.167 51 -51.5zM748.002 1341.5c0 -34.333 -17.167 -51.5 -51.5 -51.5s-51.5 17.167 -51.5 51.5s17.167 51.5 51.5 51.5s51.5 -17.167 51.5 -51.5z" />
    <glyph glyph-name="uniFB00" unicode="ff" horiz-adv-x="1146" 
d="M1075 983l0.000976562 -61.002h-246v-922h-61v922h-471v-922h-61v922h-164v61h164v174c0 80.667 21 143.5 63 188.5s99.333 67.5 172 67.5c22 0 43.167 -2.66699 63.5 -8s35.5 -10.666 45.5 -15.999l14 -7v-61c-34 20.667 -75 31 -123 31c-52 0 -94 -17.5 -126 -52.5
s-48 -82.5 -48 -142.5v-174h471v215c0 80.667 21.167 143.5 63.5 188.5s99.833 67.5 172.5 67.5c22 0 43.167 -2.66699 63.5 -8s35.166 -10.666 44.499 -15.999l14 -7v-61c-34 20.667 -74.667 31 -122 31c-52 0 -94.167 -17.5 -126.5 -52.5s-48.5 -82.5 -48.5 -142.5v-215
h246z" />
    <glyph glyph-name="uniFB01" unicode="fi" horiz-adv-x="1034" 
d="M829 983v-983.001h-61v922h-471v-922h-61v922h-164v61h164v215c0 80.667 21 143.5 63 188.5s99.333 67.5 172 67.5c22 0 43.167 -2.66699 63.5 -8s35.5 -10.666 45.5 -15.999l14 -7v-61c-34 20.667 -75 31 -123 31c-52 0 -94 -17.5 -126 -52.5s-48 -82.5 -48 -142.5v-215
h532zM850 1341.5c0 -34.333 -17 -51.5 -51 -51.5s-51 17.167 -51 51.5s17 51.5 51 51.5s51 -17.167 51 -51.5z" />
    <glyph glyph-name="uniFB02" unicode="fl" horiz-adv-x="1064" 
d="M799 0l0.000976562 1126c0 75.333 -24.333 138.666 -73 189.999s-106.334 77 -173.001 77c-72.667 0 -133.5 -25.333 -182.5 -76s-73.5 -114.334 -73.5 -191.001v-143h246v-61h-246v-922h-61v922h-164v61h164v143c0 91.333 31 168.833 93 232.5s136.667 95.5 224 95.5
c83.333 0 155.333 -31.667 216 -95s91 -141 91 -233v-1126h-61z" />
    <glyph glyph-name="uniFB03" unicode="ffi" horiz-adv-x="1576" 
d="M829 922l0.000976562 -922.002h-61v922h-471v-922h-61v922h-164v61h164v174c0 80.667 21 143.5 63 188.5s99.333 67.5 172 67.5c22 0 43.167 -2.66699 63.5 -8s35.5 -10.666 45.5 -15.999l14 -7v-61c-34 20.667 -75 31 -123 31c-52 0 -94 -17.5 -126 -52.5
s-48 -82.5 -48 -142.5v-174h471v215c0 80.667 21.167 143.5 63.5 188.5s99.833 67.5 172.5 67.5c22 0 43.167 -2.66699 63.5 -8s35.166 -10.666 44.499 -15.999l14 -7v-61c-34 20.667 -74.667 31 -122 31c-52 0 -94.167 -17.5 -126.5 -52.5s-48.5 -82.5 -48.5 -142.5v-215
h543v-983h-61v922h-482zM1393 1341.5c0 -34.333 -17.167 -51.5 -51.5 -51.5s-51.5 17.167 -51.5 51.5s17.167 51.5 51.5 51.5s51.5 -17.167 51.5 -51.5z" />
    <glyph glyph-name="uniFB06" unicode="st" horiz-adv-x="1556" 
d="M737 860l-51.002 -51.001c-6.66699 9.33301 -16.5 21.5 -29.5 36.5s-41.667 34.833 -86 59.5s-91.166 37 -140.499 37c-69.333 0 -127.666 -20.833 -174.999 -62.5s-71 -89.167 -71 -142.5c0 -46.667 19.833 -84.5 59.5 -113.5s87.5 -51 143.5 -66s112 -31.5 168 -49.5
s103.833 -46 143.5 -84s59.5 -87.333 59.5 -148c0 -83.333 -31.5 -153.5 -94.5 -210.5s-144.167 -85.5 -243.5 -85.5c-64 0 -124 13.5 -180 40.5s-96.333 54.167 -121 81.5l-37 41l51 52c2.66699 -4 6.83398 -9.5 12.501 -16.5s17.667 -19.333 36 -37
s37.666 -33.334 57.999 -47.001s47 -26 80 -37s66.5 -16.5 100.5 -16.5c84.667 0 151.834 22.167 201.501 66.5s74.5 100.5 74.5 168.5c0 49.333 -19.667 89 -59 119s-87 52.833 -143 68.5s-112 32.167 -168 49.5s-103.833 44.333 -143.5 81s-59.5 84.334 -59.5 143.001
c0 68 30 129.5 90 184.5s132.333 82.5 217 82.5c22 0 43.167 -1.83301 63.5 -5.5s35.5 -7.5 45.5 -11.5l14 -4c-20.667 35.333 -31 86.666 -31 153.999c0 87.333 32.5 162 97.5 224s145.167 93 240.5 93c92.667 0 170.5 -31.333 233.5 -94s94.5 -140.667 94.5 -234v-143h225
v-61h-225v-686c0 -60 16 -107.5 48 -142.5s74 -52.5 126 -52.5c22 0 43.167 2.66699 63.5 8s35.166 11 44.499 17l15 6v-62c-34 -20.667 -75 -30.667 -123 -30c-72.667 0 -130.167 22.5 -172.5 67.5s-63.5 107.833 -63.5 188.5v686h-204v61h204v143
c0 76.667 -25.167 140.334 -75.5 191.001s-113.833 76 -190.5 76c-80.667 0 -146.834 -24.667 -198.501 -74s-77.5 -110 -77.5 -182c0 -39.333 5.66699 -76.166 17 -110.499s23.333 -58.5 36 -72.5l18 -22c15.333 -9.33301 29.833 -19.833 43.5 -31.5
s23.834 -21.167 30.501 -28.5z" />
    <glyph glyph-name="c_t.liga" unicode="ct" horiz-adv-x="1720" 
d="M1290 983l0.000976562 132.998c0 82 -24.833 148.667 -74.5 200s-113.5 77 -191.5 77c-80.667 0 -146.834 -24.667 -198.501 -74s-77.5 -110 -77.5 -182c0 -39.333 5.66699 -76.166 17 -110.499s23.333 -58.5 36 -72.5l18 -22c27.333 -18 53 -38.167 77 -60.5
s40.667 -39.833 50 -52.5l17 -20l-52 -41c-2.66699 5.33301 -7 12.166 -13 20.499s-19.333 23 -40 44s-42.5 39.667 -65.5 56s-53.667 31 -92 44s-77.166 19.5 -116.499 19.5c-114.667 0 -213.334 -43.333 -296.001 -130s-124 -193.5 -124 -320.5
s41.333 -233.833 124 -320.5s181.334 -130 296.001 -130c39.333 0 77.833 6.5 115.5 19.5s68.667 28.333 93 46s45.833 35.334 64.5 53.001s32 32.834 40 45.501l14 20l52 -41c-4 -5.33301 -9.5 -12.833 -16.5 -22.5s-22.5 -26 -46.5 -49s-49.667 -43.333 -77 -61
s-62.5 -34 -105.5 -49s-87.5 -22.5 -133.5 -22.5c-130 0 -242.833 49.833 -338.5 149.5s-143.5 220.5 -143.5 362.5s47.833 262.833 143.5 362.5s208.5 149.5 338.5 149.5c22 0 43.833 -1.83301 65.5 -5.5s38.5 -7.5 50.5 -11.5l17 -4c-20.667 34 -31 85.333 -31 154
c0 87.333 32.5 162 97.5 224s145.167 93 240.5 93c92.667 0 170.5 -32 233.5 -96s94.5 -144.667 94.5 -242v-133h225v-61h-225v-686c0 -60 16 -107.5 48 -142.5s74 -52.5 126 -52.5c22 0 43.167 2.66699 63.5 8s35.166 11 44.499 17l15 6v-62
c-34 -20.667 -75 -30.667 -123 -30c-72.667 0 -130.167 22.5 -172.5 67.5s-63.5 107.833 -63.5 188.5v686h-205v61h205z" />
    <glyph glyph-name="s_p.liga" unicode="sp" horiz-adv-x="2088" 
d="M1116 246l-0.00292969 -676.002h-61v1556c0 80.667 -22.167 145.334 -66.5 194.001s-100.833 73 -169.5 73c-66.667 0 -122.5 -24 -167.5 -72s-67.5 -109.333 -67.5 -184c0 -39.333 5.66699 -76.166 17 -110.499s23.333 -58.5 36 -72.5l18 -22
c15.333 -9.33301 29.833 -19.833 43.5 -31.5s23.834 -21.167 30.501 -28.5l8 -12l-51 -51c-6.66699 9.33301 -16.5 21.5 -29.5 36.5s-41.667 34.833 -86 59.5s-91.166 37 -140.499 37c-69.333 0 -127.666 -20.833 -174.999 -62.5s-71 -89.167 -71 -142.5
c0 -46.667 19.833 -84.5 59.5 -113.5s87.5 -51 143.5 -66s112 -31.5 168 -49.5s103.833 -46 143.5 -84s59.5 -87.333 59.5 -148c0 -83.333 -31.5 -153.5 -94.5 -210.5s-144.167 -85.5 -243.5 -85.5c-64 0 -124 13.5 -180 40.5s-96.333 54.167 -121 81.5l-37 41l51 52
c2.66699 -4 6.83398 -9.5 12.501 -16.5s17.667 -19.333 36 -37s37.666 -33.334 57.999 -47.001s47 -26 80 -37s66.5 -16.5 100.5 -16.5c84.667 0 151.834 22.167 201.501 66.5s74.5 100.5 74.5 168.5c0 49.333 -19.667 89 -59 119s-87 52.833 -143 68.5
s-112 32.167 -168 49.5s-103.833 44.333 -143.5 81s-59.5 84.334 -59.5 143.001c0 68 30 129.5 90 184.5s132.333 82.5 217 82.5c53.333 0 93.666 -7 120.999 -21c-19.333 38 -29 89.333 -29 154c0 91.333 28.667 167 86 227s127.666 90 210.999 90
s153.666 -30.667 210.999 -92s86 -140 86 -236v-389c2.66699 6.66699 7.5 16.167 14.5 28.5s22.333 34 46 65s49.834 58 78.501 81s66.334 44.167 113.001 63.5s96 29 148 29c116 0 220 -50.667 312 -152s138 -221.5 138 -360.5s-46 -259 -138 -360s-196 -151.5 -312 -151.5
c-52 0 -101.333 9.16699 -148 27.5s-84.667 40.5 -114 66.5s-54.833 51.833 -76.5 77.5s-37.5 47.5 -47.5 65.5zM1516 40.998c101.333 0 191.5 44 270.5 132s118.5 194.167 118.5 318.5s-39.667 230.5 -119 318.5s-169.333 132 -270 132
c-105.333 0 -198.333 -43.667 -279 -131s-121 -193.833 -121 -319.5s40.333 -232.167 121 -319.5s173.667 -131 279 -131z" />
    <glyph glyph-name="f_t.liga" unicode="ft" horiz-adv-x="1218" 
d="M788 1055v255.999h62v-328h225v-61h-225v-686c0 -60 16 -107.5 48 -142.5s74 -52.5 126 -52.5c22 0 43.167 2.66699 63.5 8s35.5 11 45.5 17l14 6v-62c-34 -20.667 -75 -30.667 -123 -30c-72.667 0 -130.167 22.5 -172.5 67.5s-63.5 107.833 -63.5 188.5v686h-491v-922
h-61v922h-164v61h164v215c0 80.667 21 143.5 63 188.5s99.333 67.5 172 67.5c22 0 43.167 -2.66699 63.5 -8s35.5 -10.666 45.5 -15.999l14 -7v-61c-34 20.667 -75 31 -123 31c-52 0 -94 -17.5 -126 -52.5s-48 -82.5 -48 -142.5v-215h430c40.667 0 61 24 61 72z" />
    <glyph glyph-name=".notdef" horiz-adv-x="0" 
 />
    <glyph glyph-name="glyph1" horiz-adv-x="0" 
 />
    <glyph glyph-name="glyph1" horiz-adv-x="0" 
 />
    <glyph glyph-name="uni000D" unicode="&#xd;" horiz-adv-x="0" 
 />
    <glyph glyph-name="space" unicode=" " horiz-adv-x="368" 
 />
    <glyph glyph-name="exclam" unicode="!" horiz-adv-x="593" 
d="M328 307h-62v1127h62v-1127zM348 51c0 -34 -17 -51 -51 -51s-51 17 -51 51s17 51 51 51s51 -17 51 -51z" />
    <glyph glyph-name="quotedbl" unicode="&#x22;" horiz-adv-x="665" 
d="M215 1434v-430h-61v430h61zM512 1434v-430h-61v430h61z" />
    <glyph glyph-name="numbersign" unicode="#" horiz-adv-x="1443" 
d="M51 461l10 61h318l72 389h-308l11 62h307l92 461h61l-92 -461h494l90 461h61l-92 -461h318l-11 -62h-317l-72 -389h307l-10 -61h-307l-92 -461h-62l93 461h-492l-92 -461h-62l93 461h-318zM512 911l-72 -389h492l72 389h-492z" />
    <glyph glyph-name="dollar" unicode="$" horiz-adv-x="1126" 
d="M942 379c0 57.333 -15 106.503 -45 147.503s-68.5 72.667 -115.5 95s-99.167 42.166 -156.5 59.499s-115 35.5 -173 54.5s-110.667 41.167 -158 66.5s-86 60.833 -116 106.5s-45 101.167 -45 166.5c0 100 37.167 185.833 111.5 257.5s173.833 111.5 298.5 119.5v207h61
v-205c72.667 -2.66699 140.334 -18.667 203.001 -48s107.667 -57.666 135 -84.999l41 -41l-51 -51c-2.66699 4 -7.16699 9.66699 -13.5 17s-20.333 20.666 -42 39.999s-44.834 36.166 -69.501 50.499s-57.167 27.333 -97.5 39s-82.166 17.5 -125.499 17.5
c-118.667 0 -213.167 -30.5 -283.5 -91.5s-105.5 -136.5 -105.5 -226.5c0 -56 15 -103.833 45 -143.5s68.5 -70.334 115.5 -92.001s99.5 -41 157.5 -58s115.667 -35.167 173 -54.5s109.5 -41.833 156.5 -67.5s85.667 -62.167 116 -109.5s45.5 -104.333 45.5 -171
c0 -104 -38 -193.833 -114 -269.5s-174.667 -118.167 -296 -127.5v-207h-62v205c-56 1.33301 -108.833 9.16602 -158.5 23.499s-90.167 31.333 -121.5 51s-59 39.334 -83 59.001s-40.667 36.5 -50 50.5l-17 20l52 52c2.66699 -5.33301 7 -12.5 13 -21.5
s20.667 -24.5 44 -46.5s48.666 -41.5 75.999 -58.5s63.833 -32.667 109.5 -47s94.5 -21.5 146.5 -21.5c120 0 216.5 32.5 289.5 97.5s109.5 145.167 109.5 240.5z" />
    <glyph glyph-name="percent" unicode="%" horiz-adv-x="1556" 
d="M297 0l901 1434h62l-902 -1434h-61zM635 1136.5c0 75 -22.5 136.5 -67.5 184.5s-101 72 -168 72s-123 -24 -168 -72s-67.5 -109.5 -67.5 -184.5s22.5 -136.333 67.5 -184s101 -71.5 168 -71.5s123 23.833 168 71.5s67.5 109 67.5 184zM696 1136.5
c0 -91.667 -28.667 -167.5 -86 -227.5s-127.666 -90 -210.999 -90s-153.666 30 -210.999 90s-86 135.833 -86 227.5s28.667 167.5 86 227.5s127.666 90 210.999 90s153.666 -30 210.999 -90s86 -135.833 86 -227.5zM1393 297c0 75.333 -22.667 136.833 -68 184.5
s-101.333 71.5 -168 71.5s-122.5 -23.833 -167.5 -71.5s-67.5 -109.167 -67.5 -184.5s22.5 -136.833 67.5 -184.5s100.833 -71.5 167.5 -71.5s122.667 23.833 168 71.5s68 109.167 68 184.5zM1454 297c0 -91.333 -28.667 -167 -86 -227s-127.666 -90 -210.999 -90
s-153.666 30 -210.999 90s-86 135.667 -86 227s28.667 167 86 227s127.666 90 210.999 90s153.666 -30 210.999 -90s86 -135.667 86 -227z" />
    <glyph glyph-name="ampersand" unicode="&#x26;" horiz-adv-x="1249" 
d="M809 1147c0 -65.333 -24.998 -132.178 -74.998 -200.511s-99.333 -120.166 -148 -155.499l-74 -54l401 -471c9.33301 12 20.666 29.667 33.999 53s31.166 72.333 53.499 147s33.5 151.334 33.5 230.001h62c0 -87.333 -12 -170.166 -36 -248.499
s-47.667 -134.5 -71 -168.5l-35 -54c8 -12 19.333 -27.167 34 -45.5s40.667 -42.666 78 -72.999s71 -45.5 101 -45.5l62 11v-62c-20.667 -6.66699 -41.334 -10 -62.001 -10c-39.333 0 -79.5 14.333 -120.5 43s-71.833 57.334 -92.5 86.001l-32 43
c-4 -5.33301 -9.16699 -12.166 -15.5 -20.499s-21.833 -23.666 -46.5 -45.999s-50.667 -42.166 -78 -59.499s-63.5 -32.666 -108.5 -45.999s-92.167 -20 -141.5 -20c-110.667 0 -203.167 34.333 -277.5 103s-111.5 150.334 -111.5 245.001c0 46.667 10 92.834 30 138.501
s44 84.5 72 116.5s56 61 84 87s52 45.667 72 59l29 19c-16.667 16.667 -37.5 38.5 -62.5 65.5s-58.333 76 -100 147s-62.5 133.167 -62.5 186.5c0 86 30.333 158.667 91 218s132.667 89 216 89c84.667 0 155.334 -29.333 212.001 -88s85 -131.667 85 -219zM881.002 214.988
l-419.998 492.001c-6.66699 -4 -15.834 -10.167 -27.501 -18.5s-32.167 -25.833 -61.5 -52.5s-55.333 -54 -78 -82s-43.167 -62.833 -61.5 -104.5s-27.5 -82.167 -27.5 -121.5c0 -79.333 30.667 -147 92 -203s139.666 -84 234.999 -84c44 0 86.167 6.16699 126.5 18.5
s73.5 26.666 99.5 42.999s48.5 33 67.5 50s33.167 31.833 42.5 44.5zM266.004 1146.99c0 -46.667 17.833 -100.664 53.5 -161.997s71.167 -111 106.5 -149l55 -58c6.66699 5.33301 16.167 12.166 28.5 20.499s34 26.166 65 53.499s58 54.666 81 81.999
s44.167 60.833 63.5 100.5s29 77.167 29 112.5c0 70.667 -22.333 129.334 -67 176.001s-101 70 -169 70s-126 -23.333 -174 -70s-72 -105.334 -72 -176.001z" />
    <glyph glyph-name="quotesingle" unicode="'" horiz-adv-x="368" 
d="M215 1434v-430h-61v430h61z" />
    <glyph glyph-name="parenleft" unicode="(" horiz-adv-x="665" 
d="M225 512c0 -105.333 12.002 -209.164 36.002 -311.497s53 -189.333 87 -261s68.167 -135.834 102.5 -192.501s63.166 -98.667 86.499 -126l36 -41l-51 -31c-9.33301 10.667 -22.166 25.667 -38.499 45s-45 61.166 -86 125.499s-77.167 131.666 -108.5 201.999
s-60 159 -86 266s-39 215.167 -39 324.5s12.333 216.833 37 322.5s54.667 195.334 90 269.001s70.5 139.667 105.5 198s64.5 101.833 88.5 130.5l37 43l51 -31c-9.33301 -9.33301 -21.833 -23.666 -37.5 -42.999s-43.334 -60.333 -83.001 -123
s-74.834 -127.834 -105.501 -195.501s-58.667 -153.334 -84 -257.001s-38 -208.167 -38 -313.5z" />
    <glyph glyph-name="parenright" unicode=")" horiz-adv-x="665" 
d="M440 512c0 105.333 -11.8301 209.164 -35.4971 311.497s-52.667 189.333 -87 261s-68.5 135.834 -102.5 192.501s-63.333 98.667 -88 126l-35 41l51 31c9.33301 -10.667 22.333 -25.667 39 -45s45.5 -61.166 86.5 -125.499s77.167 -131.666 108.5 -201.999
s60 -159 86 -266s39 -215.167 39 -324.5s-12.333 -216.833 -37 -322.5s-54.334 -195.334 -89.001 -269.001s-69.834 -139.667 -105.501 -198s-65.834 -101.833 -90.501 -130.5l-37 -43l-51 31c9.33301 9.33301 22 23.666 38 42.999s43.667 60.333 83 123
s74.5 127.834 105.5 195.501s59 153.334 84 257.001s37.5 208.167 37.5 313.5z" />
    <glyph glyph-name="asterisk" unicode="*" horiz-adv-x="798" 
d="M707 1178l-277 -72l184 -236l-41 -30l-174 235l-174 -235l-41 30l185 236l-277 72l21 51l266 -82l-10 287h61l-10 -287l266 82z" />
    <glyph glyph-name="plus" unicode="+" horiz-adv-x="1024" 
d="M481 1034h62v-399h389v-62h-389v-399h-62v399h-389v62h389v399z" />
    <glyph glyph-name="comma" unicode="," horiz-adv-x="368" 
d="M164 102l72 -41l-195 -307l-41 21z" />
    <glyph glyph-name="hyphen" unicode="-" horiz-adv-x="839" 
d="M748 635v-62h-656v62h656z" />
    <glyph glyph-name="period" unicode="." horiz-adv-x="389" 
d="M246 51c0 -34 -17.167 -51 -51.5 -51s-51.5 17 -51.5 51s17.167 51 51.5 51s51.5 -17 51.5 -51z" />
    <glyph glyph-name="slash" unicode="/" horiz-adv-x="839" 
d="M768 1454l-635 -1884h-61l635 1884h61z" />
    <glyph glyph-name="zero" unicode="0" horiz-adv-x="1351" 
d="M1157 717c0 203.333 -48.5 366.833 -145.5 490.5s-209 185.5 -336 185.5s-238.833 -61.833 -335.5 -185.5s-145 -287.167 -145 -490.5s48.333 -366.833 145 -490.5s208.5 -185.5 335.5 -185.5s239 61.833 336 185.5s145.5 287.167 145.5 490.5zM1219 717
c0 -220 -55 -397.833 -165 -533.5s-236 -203.5 -378 -203.5s-268 67.833 -378 203.5s-165 313.5 -165 533.5s55 397.833 165 533.5s236 203.5 378 203.5s268 -67.833 378 -203.5s165 -313.5 165 -533.5z" />
    <glyph glyph-name="one" unicode="1" horiz-adv-x="675" 
d="M379 1434l50.999 0.000976562v-1434h-61v1311c-1.33301 -4 -4.16602 -9.16699 -8.49902 -15.5s-14.333 -18.333 -30 -36s-33 -33.334 -52 -47.001s-45.167 -27 -78.5 -40s-69.333 -21.5 -108 -25.5v61c60 5.33301 114 26.833 162 64.5s80.667 73.5 98 107.5z" />
    <glyph glyph-name="two" unicode="2" horiz-adv-x="1105" 
d="M983 0l-880.997 -0.00195312c0 72.667 15.167 140 45.5 202s69.666 115.833 117.999 161.5s101.5 89.667 159.5 132s116 83.333 174 123s111.167 80.334 159.5 122.001s87.666 89.5 117.999 143.5s45.5 111 45.5 171c0 94 -35.5 173.833 -106.5 239.5
s-161.833 98.5 -272.5 98.5c-57.333 0 -109 -9.33301 -155 -28s-80.833 -40.834 -104.5 -66.501s-43.667 -51.5 -60 -77.5s-26.5 -48 -30.5 -66l-9 -29l-61 21c1.33301 8 4.33301 18.833 9 32.5s17.667 38.334 39 74.001s46 67.167 74 94.5s68.167 51.833 120.5 73.5
s111.5 32.5 177.5 32.5c125.333 0 230 -39.167 314 -117.5s126 -172.166 126 -281.499c0 -87.333 -26.333 -167.5 -79 -240.5s-117.167 -136.5 -193.5 -190.5s-153.5 -107.333 -231.5 -160s-147.333 -113.5 -208 -182.5s-96.334 -142.5 -107.001 -220.5h819v-61z" />
    <glyph glyph-name="three" unicode="3" horiz-adv-x="1085" 
d="M645 758c8 -1.33301 18.834 -3.83496 32.501 -7.50195s38.334 -14.334 74.001 -32.001s67.167 -39.167 94.5 -64.5s51.833 -62.166 73.5 -110.499s32.5 -103.166 32.5 -164.499c0 -110.667 -42.333 -204.834 -127 -282.501s-192.334 -116.5 -323.001 -116.5
c-53.333 0 -104.666 7.5 -153.999 22.5s-90 32.667 -122 53s-60.333 41.166 -85 62.499s-42.334 39.333 -53.001 54l-16 23l51 41c2.66699 -5.33301 7.33398 -12.5 14.001 -21.5s21.667 -24.5 45 -46.5s48.666 -41.5 75.999 -58.5s62.833 -32.667 106.5 -47
s89.5 -21.5 137.5 -21.5c114.667 0 208.167 32.833 280.5 98.5s108.5 145.5 108.5 239.5c0 100 -35.833 183 -107.5 249s-165.5 99 -281.5 99h-133v61h133c105.333 0 189.666 29.167 252.999 87.5s95 131.833 95 220.5c0 84.667 -31.833 155.334 -95.5 212.001
s-147.834 85 -252.501 85c-42 0 -82.5 -5.5 -121.5 -16.5s-71.833 -24.667 -98.5 -41s-50 -32.666 -70 -48.999s-34.667 -30.166 -44 -41.499l-14 -16l-52 41c4 5.33301 9.83301 12.166 17.5 20.499s24.167 23 49.5 44s52.333 39.667 81 56s65.834 31 111.501 44
s92.5 19.5 140.5 19.5c120 0 218.167 -34.833 294.5 -104.5s114.5 -154.167 114.5 -253.5c0 -52 -9.16699 -99.167 -27.5 -141.5s-40.5 -75.166 -66.5 -98.499s-52 -42.833 -78 -58.5s-48.333 -26.167 -67 -31.5z" />
    <glyph glyph-name="four" unicode="4" horiz-adv-x="1116" 
d="M850 410h184v-62h-184v-348h-62v348h-747v74l747 1012h62v-1024zM788 410v931l-686 -931h686z" />
    <glyph glyph-name="five" unicode="5" 
d="M604 891c122.667 0 226.673 -43.334 312.006 -130.001s128 -193.667 128 -321c0 -134 -43.333 -244.167 -130 -330.5s-196.667 -129.5 -330 -129.5c-53.333 0 -104.333 7.16699 -153 21.5s-88.667 31.333 -120 51s-58.5 39.334 -81.5 59.001s-39.5 37.167 -49.5 52.5
l-16 20l51 52c2.66699 -5.33301 7.16699 -12.5 13.5 -21.5s20.666 -24.5 42.999 -46.5s46.5 -41.5 72.5 -58.5s60.5 -32.667 103.5 -47s88.5 -21.5 136.5 -21.5c117.333 0 213.166 37.167 287.499 111.5s111.5 170.166 111.5 287.499c0 112 -36.167 204.833 -108.5 278.5
s-162.5 110.5 -270.5 110.5c-44 0 -85.667 -6.33301 -125 -19s-71.333 -28 -96 -46s-46.167 -35.833 -64.5 -53.5s-31.5 -33.167 -39.5 -46.5l-13 -19h-51l51 789h686v-62h-624l-52 -635c2.66699 4 7.16699 9.5 13.5 16.5s19.666 19.333 39.999 37
s42.166 33.334 65.499 47.001s54.166 26 92.499 37s77.166 16.5 116.499 16.5z" />
    <glyph glyph-name="six" unicode="6" horiz-adv-x="1157" 
d="M573 881c126.667 0 235.166 -44.5 325.499 -133.5s135.5 -194.833 135.5 -317.5s-45 -228.334 -135 -317.001s-198.5 -133 -325.5 -133s-235.5 44.333 -325.5 133s-135 194.334 -135 317.001c0 49.333 8.5 99.5 25.5 150.5s33.5 89.5 49.5 115.5l27 41l440 697h72
l-399 -625c60.667 48 142.334 72 245.001 72zM972.999 430c0 108 -38.667 199.833 -116 275.5s-171.833 113.5 -283.5 113.5s-206.167 -37.833 -283.5 -113.5s-116 -167.5 -116 -275.5s38.667 -199.833 116 -275.5s171.833 -113.5 283.5 -113.5s206.167 37.833 283.5 113.5
s116 167.5 116 275.5z" />
    <glyph glyph-name="seven" unicode="7" horiz-adv-x="942" 
d="M51 1434h850v-62l-665 -1372h-62l666 1372h-789v62z" />
    <glyph glyph-name="eight" unicode="8" horiz-adv-x="1167" 
d="M583.5 1454c106.333 0 196.166 -35.1641 269.499 -105.497s110 -154.5 110 -252.5c0 -48 -8.66699 -91.833 -26 -131.5s-37.833 -70.334 -61.5 -92.001s-47.5 -40 -71.5 -55s-45 -25.5 -63 -31.5l-24 -8c8 -1.33301 18.833 -4.33301 32.5 -9s38.334 -17 74.001 -37
s67 -42.833 94 -68.5s51.5 -63.167 73.5 -112.5s33 -103.333 33 -162c0 -114.667 -41.667 -211.5 -125 -290.5s-188.5 -118.5 -315.5 -118.5s-232.167 39.5 -315.5 118.5s-125 175.833 -125 290.5c0 58.667 10.667 112.334 32 161.001s47 86.667 77 114s60 50.166 90 68.499
s55.333 30.833 76 37.5l33 8c-6.66699 1.33301 -15.5 4.16602 -26.5 8.49902s-30.5 14.666 -58.5 30.999s-53 35 -75 56s-41.833 51.333 -59.5 91s-26.5 83.5 -26.5 131.5c0 98 36.5 182.167 109.5 252.5s162.667 105.5 269 105.5zM584 41.0029
c110.667 0 201.5 33.5 272.5 100.5s106.5 149.5 106.5 247.5c0 100 -35.5 184.833 -106.5 254.5s-161.833 104.5 -272.5 104.5s-201.5 -34.833 -272.5 -104.5s-106.5 -154.5 -106.5 -254.5c0 -98 35.5 -180.5 106.5 -247.5s161.833 -100.5 272.5 -100.5zM583.5 1393
c-91.667 0 -167.5 -28.667 -227.5 -86s-90 -127.666 -90 -210.999c0 -78 30.5 -145.333 91.5 -202s136.5 -85 226.5 -85s165.333 28.333 226 85s91 124 91 202c0 83.333 -30 153.666 -90 210.999s-135.833 86 -227.5 86z" />
    <glyph glyph-name="nine" unicode="9" horiz-adv-x="1157" 
d="M584 553c-126.667 0 -235.166 44.333 -325.499 133s-135.5 194.5 -135.5 317.5s45 228.833 135 317.5s198.5 133 325.5 133s235.5 -44.333 325.5 -133s135 -194.334 135 -317.001c0 -49.333 -8.5 -99.666 -25.5 -150.999s-34.167 -90 -51.5 -116l-25 -41l-440 -696h-72
l399 625c-60.667 -48 -142.334 -72 -245.001 -72zM184.001 1003.5c0 -107.667 38.667 -199.5 116 -275.5s172 -114 284 -114s206.5 38 283.5 114s115.5 167.833 115.5 275.5s-38.5 199.5 -115.5 275.5s-171.5 114 -283.5 114s-206.667 -38 -284 -114
s-116 -167.833 -116 -275.5z" />
    <glyph glyph-name="colon" unicode=":" horiz-adv-x="389" 
d="M246 51c0 -34 -17.167 -51 -51.5 -51s-51.5 17 -51.5 51s17.167 51 51.5 51s51.5 -17 51.5 -51zM246 932c0 -34 -17.167 -51 -51.5 -51s-51.5 17 -51.5 51s17.167 51 51.5 51s51.5 -17 51.5 -51z" />
    <glyph glyph-name="semicolon" unicode=";" horiz-adv-x="389" 
d="M246 932c0 -34 -17.167 -51 -51.5 -51s-51.5 17 -51.5 51s17.167 51 51.5 51s51.5 -17 51.5 -51zM164 102l72 -41l-195 -307l-41 21z" />
    <glyph glyph-name="less" unicode="&#x3c;" horiz-adv-x="1003" 
d="M113 471v61l778 410v-61l-717 -379l717 -379v-62z" />
    <glyph glyph-name="equal" unicode="=" horiz-adv-x="1024" 
d="M911 461v-62h-798v62h798zM911 809v-61h-798v61h798z" />
    <glyph glyph-name="greater" unicode="&#x3e;" horiz-adv-x="1003" 
d="M891 532v-61l-778 -410v62l716 379l-716 379v61z" />
    <glyph glyph-name="question" unicode="?" horiz-adv-x="1034" 
d="M522 307l-60.998 -0.00585938v82c0 64 14 122 42 174s62.167 95.833 102.5 131.5s80.5 70.834 120.5 105.501s74 75.167 102 121.5s42 97.5 42 153.5c0 86 -33 160.5 -99 223.5s-152.333 94.5 -259 94.5c-57.333 0 -108.833 -9.66699 -154.5 -29
s-80.834 -42.666 -105.501 -69.999s-44.834 -54.166 -60.501 -80.499s-26.167 -49.166 -31.5 -68.499l-6 -29l-62 21c1.33301 8 4.5 19.167 9.5 33.5s18 40 39 77s45.5 69 73.5 96s68.333 52.167 121 75.5s111.667 35 177 35c121.333 0 221.666 -37.5 300.999 -112.5
s119 -163.833 119 -266.5c0 -65.333 -14 -123.666 -42 -174.999s-62.167 -94 -102.5 -128s-80.666 -67.667 -120.999 -101s-74.5 -73.666 -102.5 -120.999s-42 -101 -42 -161v-82zM440.002 50.9941c0 34 17.167 51 51.5 51s51.5 -17 51.5 -51s-17.167 -51 -51.5 -51
s-51.5 17 -51.5 51z" />
    <glyph glyph-name="at" unicode="@" horiz-adv-x="1812" 
d="M891 819c-79.333 0 -145.333 -29 -198 -87s-79 -134.833 -79 -230.5s26.333 -172.5 79 -230.5s118.667 -87 198 -87c74 0 136.833 29.333 188.5 88s77.5 135.167 77.5 229.5s-25.833 170.833 -77.5 229.5s-114.5 88 -188.5 88zM891 881
c36.667 0 70.6709 -6.16895 102.004 -18.502s56.666 -26.666 75.999 -42.999s36.166 -33.166 50.499 -50.499s24.166 -32 29.499 -44l8 -18v163h62v-446c0 -80.667 15.667 -140.834 47 -180.501s73.666 -59.5 126.999 -59.5c61.333 0 112.5 30.5 153.5 91.5
s61.5 153.5 61.5 277.5c0 190 -66.667 350.167 -200 480.5s-299 195.5 -497 195.5c-190 0 -355.167 -71 -495.5 -213s-210.5 -310 -210.5 -504s70 -362 210 -504s303.333 -213 490 -213c78 0 152.5 13 223.5 39s122.167 51.333 153.5 76l49 39l41 -51
c-4 -4 -10.833 -9.83301 -20.5 -17.5s-29.5 -21 -59.5 -40s-62 -35.667 -96 -50s-77.333 -27.333 -130 -39s-106.334 -17.5 -161.001 -17.5c-202 0 -379.5 77.5 -532.5 232.5s-229.5 336.833 -229.5 545.5s76.833 390.5 230.5 545.5s332.834 232.5 537.501 232.5
c214.667 0 394.667 -71.333 540 -214s218 -317 218 -523c0 -140.667 -26.667 -247.5 -80 -320.5s-118.666 -109.5 -195.999 -109.5c-54.667 0 -100.834 16.333 -138.501 49s-61.167 65.334 -70.5 98.001l-17 47c-1.33301 -5.33301 -4 -12.333 -8 -21s-13.833 -24 -29.5 -46
s-33 -41.5 -52 -58.5s-45.333 -32.667 -79 -47s-69.5 -21.5 -107.5 -21.5c-94 0 -173.833 35.5 -239.5 106.5s-98.5 161.833 -98.5 272.5s32.833 201.5 98.5 272.5s145.5 106.5 239.5 106.5z" />
    <glyph glyph-name="A" unicode="A" horiz-adv-x="1372" 
d="M1044 502l-358 860l-358 -860h716zM1065 440h-758l-184 -440h-62l594 1434h62l594 -1434h-62z" />
    <glyph glyph-name="B" unicode="B" horiz-adv-x="1341" 
d="M911 768l0.000976562 -9.99805c8 -1.33301 18.667 -3.33301 32 -6s36.333 -12.334 69 -29.001s61.667 -36.5 87 -59.5s48.166 -58.167 68.499 -105.5s30.5 -100.333 30.5 -159c0 -118.667 -38.167 -214.834 -114.5 -288.501s-178.166 -110.5 -305.499 -110.5h-542v1434
h512c112 0 203 -33.833 273 -101.5s105 -153.5 105 -257.5c0 -48 -7.5 -91.333 -22.5 -130s-33 -68.667 -54 -90s-41.833 -38.833 -62.5 -52.5s-38.334 -23.167 -53.001 -28.5zM297.001 61.002h481c112 0 199.833 30.5 263.5 91.5s95.5 143.167 95.5 246.5
c0 98 -32.167 177.167 -96.5 237.5s-151.833 90.5 -262.5 90.5h-481v-666zM748.001 1372l-451 0.000976562v-584h451c101.333 0 179.5 25.667 234.5 77s82.5 121.333 82.5 210c0 87.333 -28.667 158.666 -86 213.999s-134.333 83 -231 83z" />
    <glyph glyph-name="C" unicode="C" horiz-adv-x="1525" 
d="M123 717c0 203.333 70.665 376.998 211.998 520.998s309.666 216 504.999 216c72.667 0 142.667 -10.5 210 -31.5s123.166 -46.667 167.499 -77s83.5 -60.5 117.5 -90.5s58.667 -55 74 -75l25 -33l-52 -41c-5.33301 8 -12.666 18.5 -21.999 31.5
s-31.166 35.833 -65.499 68.5s-70.666 61.667 -108.999 87s-88.833 48.333 -151.5 69s-127.334 31 -194.001 31c-180 0 -334.333 -65.667 -463 -197s-193 -291.166 -193 -479.499s64.167 -348 192.5 -479s282.833 -196.5 463.5 -196.5c66.667 0 131 9.83301 193 29.5
s113.167 43.5 153.5 71.5s75.833 56 106.5 84s53 52.333 67 73l22 29l52 -41c-5.33301 -8 -13.5 -19 -24.5 -33s-35.333 -38.667 -73 -74s-77.667 -66.666 -120 -93.999s-97.666 -51.833 -165.999 -73.5s-138.5 -32.5 -210.5 -32.5c-195.333 0 -363.666 72 -504.999 216
s-212 317.667 -212 521z" />
    <glyph glyph-name="D" unicode="D" horiz-adv-x="1495" 
d="M236 1434h388.999c218.667 0 397.834 -68 537.501 -204s209.5 -307 209.5 -513s-70 -377 -210 -513s-319 -204 -537 -204h-389v1434zM624.999 1372h-328v-1311h328c203.333 0 368.5 61.5 495.5 184.5s190.5 280.167 190.5 471.5s-63.5 348.333 -190.5 471
s-292.167 184 -495.5 184z" />
    <glyph glyph-name="E" unicode="E" horiz-adv-x="1280" 
d="M297 61h901v-61h-962v1434h942v-62h-881v-594h717v-61h-717v-656z" />
    <glyph glyph-name="F" unicode="F" horiz-adv-x="1228" 
d="M236 1434h931v-62h-870v-614h707v-62h-707v-696h-61v1434z" />
    <glyph glyph-name="G" unicode="G" horiz-adv-x="1607" 
d="M1434 1147l-51.999 -41c-5.33301 8 -12.666 18.5 -21.999 31.5s-31.166 35.833 -65.499 68.5s-70.666 61.667 -108.999 87s-88.833 48.333 -151.5 69s-127.334 31 -194.001 31c-180 0 -334.333 -65.667 -463 -197s-193 -291.166 -193 -479.499s63.833 -348 191.5 -479
s282.5 -196.5 464.5 -196.5c66.667 0 131 9.5 193 28.5s113.167 41.833 153.5 68.5s75.833 53.667 106.5 81s53 50.666 67 69.999l22 28v328h-409v62h471v-410c-5.33301 -8 -13.833 -19.167 -25.5 -33.5s-36.667 -40 -75 -77s-79.333 -69.167 -123 -96.5
s-100 -52.5 -169 -75.5s-139.5 -34.5 -211.5 -34.5c-196.667 0 -365.334 72 -506.001 216s-211 317.667 -211 521s70.667 377 212 521s309.666 216 504.999 216c72.667 0 142.667 -10.5 210 -31.5s123.166 -46.667 167.499 -77s83.5 -60.5 117.5 -90.5s58.667 -55 74 -75z
" />
    <glyph glyph-name="H" unicode="H" horiz-adv-x="1515" 
d="M236 0v1434h61v-676h922v676h61v-1434h-61v696h-922v-696h-61z" />
    <glyph glyph-name="I" unicode="I" horiz-adv-x="532" 
d="M236 0v1434h61v-1434h-61z" />
    <glyph glyph-name="J" unicode="J" horiz-adv-x="983" 
d="M707 1434l60.9951 -0.000976562v-1024c0 -122.667 -39.667 -225 -119 -307s-176.333 -123 -291 -123c-66.667 0 -128 12.833 -184 38.5s-95.667 50.834 -119 75.501l-35 39l52 51c2.66699 -4 6.33398 -9 11.001 -15s15.834 -17.167 33.501 -33.5s36.834 -31 57.501 -44
s47.334 -24.667 80.001 -35s67.334 -15.5 104.001 -15.5c98 0 180.667 34.5 248 103.5s101 157.5 101 265.5v1024z" />
    <glyph glyph-name="K" unicode="K" horiz-adv-x="1320" 
d="M297 492l850 942h82l-533 -594l584 -840h-72l-553 799l-358 -389v-410h-61v1434h61v-942z" />
    <glyph glyph-name="L" unicode="L" horiz-adv-x="1126" 
d="M1085 0h-849v1434h61v-1373h788v-61z" />
    <glyph glyph-name="M" unicode="M" horiz-adv-x="1863" 
d="M287 1434l645 -891l645 891h51v-1434h-61v1321l-635 -883l-635 883v-1321h-61v1434h51z" />
    <glyph glyph-name="N" unicode="N" horiz-adv-x="1587" 
d="M1280 1434h61v-1434h-51l-993 1321v-1321h-61v1434h51l993 -1321v1321z" />
    <glyph glyph-name="O" unicode="O" horiz-adv-x="1679" 
d="M1495 716.5c0 188.333 -64.167 348.166 -192.5 479.499s-282.666 197 -462.999 197s-334.666 -65.667 -462.999 -197s-192.5 -291.166 -192.5 -479.499s64.167 -348 192.5 -479s282.666 -196.5 462.999 -196.5s334.666 65.5 462.999 196.5s192.5 290.667 192.5 479z
M1556 717c0 -203.333 -70.5 -377 -211.5 -521s-309.167 -216 -504.5 -216s-363.666 72 -504.999 216s-212 317.667 -212 521s70.667 377 212 521s309.666 216 504.999 216s363.5 -72 504.5 -216s211.5 -317.667 211.5 -521z" />
    <glyph glyph-name="P" unicode="P" horiz-adv-x="1300" 
d="M236 1434l491 -0.00195312c132.667 0 241 -40.667 325 -122s126 -184.166 126 -308.499s-42 -227.166 -126 -308.499s-192.333 -122 -325 -122h-430v-573h-61v1434zM727 1372h-430v-737h430c117.333 0 211.5 34.5 282.5 103.5s106.5 157.333 106.5 265
s-35.5 196 -106.5 265s-165.167 103.5 -282.5 103.5z" />
    <glyph glyph-name="Q" unicode="Q" horiz-adv-x="1679" 
d="M1556 717c0 -91.333 -14.6699 -177.335 -44.0029 -258.002s-65.166 -145.167 -107.499 -193.5s-84.666 -90.666 -126.999 -126.999s-77.833 -62.166 -106.5 -77.499l-45 -20c2.66699 -6.66699 6.83398 -16.167 12.501 -28.5s19 -33.833 40 -64.5s45.167 -57.667 72.5 -81
s65.666 -44.5 114.999 -63.5s102.666 -28.5 159.999 -28.5l123 10v-61c-34 -6.66699 -75 -10.334 -123 -11.001c-65.333 0 -125.333 10.667 -180 32s-98.167 47 -130.5 77s-59.666 60 -81.999 90s-37.833 55.333 -46.5 76l-12 32
c-75.333 -27.333 -153.666 -40.666 -234.999 -39.999c-195.333 0 -363.666 72 -504.999 216s-212 317.667 -212 521s70.667 377 212 521s309.666 216 504.999 216s363.5 -72 504.5 -216s211.5 -317.667 211.5 -521zM1495 716.498c0 188.333 -64.167 348.166 -192.5 479.499
s-282.666 197 -462.999 197s-334.666 -65.667 -462.999 -197s-192.5 -291.166 -192.5 -479.499s64.167 -348 192.5 -479s282.666 -196.5 462.999 -196.5s334.666 65.5 462.999 196.5s192.5 290.667 192.5 479z" />
    <glyph glyph-name="R" unicode="R" horiz-adv-x="1341" 
d="M236 1434h522c126.667 0 230 -38.667 310 -116s120 -175.333 120 -294c0 -65.333 -11.333 -123.666 -34 -174.999s-50 -90.333 -82 -117s-64 -48.834 -96 -66.501s-59.667 -29.167 -83 -34.5l-33 -6l359 -625h-72l-348 614h-502v-614h-61v1434zM758 1372h-461v-696h461
c112 0 201.333 32 268 96s100 148 100 252s-33.333 188 -100 252s-156 96 -268 96z" />
    <glyph glyph-name="S" unicode="S" horiz-adv-x="1126" 
d="M942 379c0 57.333 -14.999 106.503 -44.999 147.503s-68.5 72.667 -115.5 95s-99.167 42.166 -156.5 59.499s-115 35.5 -173 54.5s-110.667 41.167 -158 66.5s-86 60.833 -116 106.5s-45 101.167 -45 166.5c0 105.333 41.667 194.833 125 268.5s192 110.5 326 110.5
c48 0 94.5 -6.16699 139.5 -18.5s82.5 -26.666 112.5 -42.999s56.5 -33 79.5 -50s40.167 -31.833 51.5 -44.5l16 -18l-51 -51c-2.66699 4 -7.16699 9.66699 -13.5 17s-20.333 20.666 -42 39.999s-44.834 36.166 -69.501 50.499s-57.167 27.333 -97.5 39
s-82.166 17.5 -125.499 17.5c-118.667 0 -213.167 -30.5 -283.5 -91.5s-105.5 -136.5 -105.5 -226.5c0 -56 15 -103.833 45 -143.5s68.5 -70.334 115.5 -92.001s99.5 -41 157.5 -58s115.667 -35.167 173 -54.5s109.5 -41.833 156.5 -67.5s85.667 -62.167 116 -109.5
s45.5 -104.333 45.5 -171c0 -110.667 -43.167 -204.834 -129.5 -282.501s-196.833 -116.5 -331.5 -116.5c-56 0 -109.667 7.16699 -161 21.5s-93.333 31.333 -126 51s-61 39.334 -85 59.001s-41.333 37.167 -52 52.5l-17 20l52 52c2.66699 -5.33301 7 -12.5 13 -21.5
s20.667 -24.5 44 -46.5s48.666 -41.5 75.999 -58.5s63.833 -32.667 109.5 -47s94.5 -21.5 146.5 -21.5c120 0 216.5 32.5 289.5 97.5s109.5 145.167 109.5 240.5z" />
    <glyph glyph-name="T" unicode="T" horiz-adv-x="1105" 
d="M41 1434h1024v-62h-481v-1372h-62v1372h-481v62z" />
    <glyph glyph-name="U" unicode="U" horiz-adv-x="1536" 
d="M768 41c139.333 0 256.168 48.167 350.501 144.5s141.5 216.833 141.5 361.5v887h61v-887c0 -160 -53.667 -294.5 -161 -403.5s-238 -163.5 -392 -163.5s-284.667 54.5 -392 163.5s-161 243.5 -161 403.5v887h61v-887c0 -144.667 47.167 -265.167 141.5 -361.5
s211.166 -144.5 350.499 -144.5z" />
    <glyph glyph-name="V" unicode="V" horiz-adv-x="1310" 
d="M625 0l-564 1434h62l532 -1342l533 1342h61l-563 -1434h-61z" />
    <glyph glyph-name="W" unicode="W" horiz-adv-x="2007" 
d="M1004 1300l-420 -1300h-62l-461 1434h62l430 -1332l430 1332h41l430 -1332l430 1332h62l-461 -1434h-62z" />
    <glyph glyph-name="X" unicode="X" horiz-adv-x="1249" 
d="M1085 1434h72l-502 -697l533 -737h-72l-491 686l-492 -686h-72l533 737l-502 697h72l461 -646z" />
    <glyph glyph-name="Y" unicode="Y" horiz-adv-x="1249" 
d="M133 1434l492 -861l491 861h72l-533 -932v-502h-61v502l-533 932h72z" />
    <glyph glyph-name="Z" unicode="Z" horiz-adv-x="1157" 
d="M983 1372h-870v62h942v-62l-901 -1311h921v-61h-993v61z" />
    <glyph glyph-name="bracketleft" unicode="[" horiz-adv-x="696" 
d="M287 1393v-1762h317v-61h-379v1884h379v-61h-317z" />
    <glyph glyph-name="backslash" unicode="\" horiz-adv-x="839" 
d="M707 -430l-635 1884h61l635 -1884h-61z" />
    <glyph glyph-name="bracketright" unicode="]" horiz-adv-x="696" 
d="M410 -369v1762h-318v61h379v-1884h-379v61h318z" />
    <glyph glyph-name="asciicircum" unicode="^" horiz-adv-x="778" 
d="M358 1434h62l246 -564h-62l-215 492l-215 -492h-61z" />
    <glyph glyph-name="underscore" unicode="_" horiz-adv-x="645" 
d="M666 -246v-61h-686v61h686z" />
    <glyph glyph-name="grave" unicode="`" horiz-adv-x="348" 
d="M133 1413l154 -256h-51l-175 256h72z" />
    <glyph glyph-name="a" unicode="a" horiz-adv-x="1034" 
d="M379 543l398.997 70.999v11c0 96.667 -27.667 173.667 -83 231s-126.666 86 -213.999 86c-57.333 0 -110.833 -13 -160.5 -39s-84.834 -51.333 -105.501 -76l-31 -39l-41 41c2.66699 4 7.16699 10.167 13.5 18.5s20 22.5 41 42.5s43.5 37.833 67.5 53.5
s55.5 29.667 94.5 42s79.5 18.5 121.5 18.5c104 0 189.833 -35.167 257.5 -105.5s101.5 -161.5 101.5 -273.5v-625h-62v205c-2.66699 -5.33301 -6.66699 -13.166 -12 -23.499s-18.666 -28.5 -39.999 -54.5s-44.666 -48.833 -69.999 -68.5s-60.166 -37.667 -104.499 -54
s-91.5 -24.5 -141.5 -24.5c-94 0 -172.167 27.5 -234.5 82.5s-93.5 119.5 -93.5 193.5c0 156 99 251.667 297 287zM409.997 38.999c102.667 0 189.668 36.832 261.001 110.499s107 163.834 107 270.501v133l-399 -72c-76.667 -13.333 -135.167 -39.833 -175.5 -79.5
s-60.5 -88.167 -60.5 -145.5c0 -58.667 24.667 -109.5 74 -152.5s113.666 -64.5 192.999 -64.5z" />
    <glyph glyph-name="b" unicode="b" horiz-adv-x="1218" 
d="M246 1434l-0.00195312 -697c2.66699 6.66699 7.33398 16.167 14.001 28.5s22 34 46 65s50.333 58 79 81s66.167 44.167 112.5 63.5s95.5 29 147.5 29c116 0 220.167 -50.667 312.5 -152s138.5 -221.5 138.5 -360.5s-46.167 -259 -138.5 -360s-196.5 -151.5 -312.5 -151.5
c-52 0 -101.167 9.16699 -147.5 27.5s-84.166 40.5 -113.499 66.5s-55 51.833 -77 77.5s-37.667 47.5 -47 65.5l-14 29v-246h-62v1434h62zM644.998 942c-105.333 0 -198.166 -43.667 -278.499 -131s-120.5 -193.833 -120.5 -319.5s40.167 -232.167 120.5 -319.5
s173.166 -131 278.499 -131c101.333 0 191.5 44 270.5 132s118.5 194.167 118.5 318.5s-39.5 230.5 -118.5 318.5s-169.167 132 -270.5 132z" />
    <glyph glyph-name="c" unicode="c" horiz-adv-x="1064" 
d="M164 491.5c0 -127 41.332 -233.834 123.999 -320.501s181.334 -130 296.001 -130c39.333 0 77.833 6.5 115.5 19.5s68.667 28.333 93 46s45.833 35.334 64.5 53.001s32 32.834 40 45.501l14 20l52 -41c-4 -5.33301 -9.5 -12.833 -16.5 -22.5s-22.5 -26 -46.5 -49
s-49.667 -43.333 -77 -61s-62.5 -34 -105.5 -49s-87.5 -22.5 -133.5 -22.5c-130 0 -242.833 49.833 -338.5 149.5s-143.5 220.5 -143.5 362.5s47.833 262.833 143.5 362.5s208.5 149.5 338.5 149.5c46.667 0 91 -7.16699 133 -21.5s77.333 -31.5 106 -51.5
s54 -39.833 76 -59.5s37.667 -37.167 47 -52.5l17 -20l-52 -41c-2.66699 5.33301 -7 12.166 -13 20.499s-19.333 23 -40 44s-42.5 39.667 -65.5 56s-53.667 31 -92 44s-77.166 19.5 -116.499 19.5c-114.667 0 -213.334 -43.333 -296.001 -130s-124 -193.5 -124 -320.5z" />
    <glyph glyph-name="d" unicode="d" horiz-adv-x="1218" 
d="M952 737l0.00195312 697h62v-1434h-62v246c-2.66699 -6.66699 -7.33398 -16.167 -14.001 -28.5s-22 -34 -46 -65s-50.333 -58 -79 -81s-66.167 -44 -112.5 -63s-95.5 -28.5 -147.5 -28.5c-116 0 -220.167 50.5 -312.5 151.5s-138.5 221 -138.5 360
s46.167 259.167 138.5 360.5s196.5 152 312.5 152c52 0 101.167 -9.33301 147.5 -28s84.166 -41 113.499 -67s55 -51.833 77 -77.5s37.667 -47.5 47 -65.5zM553.002 942c-101.333 0 -191.5 -44 -270.5 -132s-118.5 -194.167 -118.5 -318.5s39.5 -230.5 118.5 -318.5
s169.167 -132 270.5 -132c105.333 0 198.166 43.667 278.499 131s120.5 193.833 120.5 319.5s-40.167 232.167 -120.5 319.5s-173.166 131 -278.499 131z" />
    <glyph glyph-name="e" unicode="e" horiz-adv-x="1126" 
d="M1014 461l-850.002 -0.00292969c5.33301 -117.333 48.333 -216.666 129 -297.999s177.667 -122 291 -122c40.667 0 79.834 6.5 117.501 19.5s68.667 28.333 93 46s45.833 35.334 64.5 53.001s32 32.834 40 45.501l12 20l52 -41c-4 -5.33301 -9.5 -12.833 -16.5 -22.5
s-22.167 -26 -45.5 -49s-48.666 -43.333 -75.999 -61s-62.833 -34 -106.5 -49s-88.5 -22.5 -134.5 -22.5c-130 0 -242.833 49.833 -338.5 149.5s-143.5 220.5 -143.5 362.5c0 140.667 46.833 261.167 140.5 361.5s200.5 150.5 320.5 150.5s225.167 -49.167 315.5 -147.5
s135.5 -219.833 135.5 -364.5v-31zM563.498 941.997c-103.667 0 -196.167 -41.999 -277.5 -125.999s-122 -182 -122 -294h788c-5.33301 121.333 -45.5 221.666 -120.5 300.999s-164.333 119 -268 119z" />
    <glyph glyph-name="f" unicode="f" horiz-adv-x="614" 
d="M543 983v-61.001h-246v-922h-61v922h-164v61h164v215c0 80.667 21 143.5 63 188.5s99.333 67.5 172 67.5c22 0 43.167 -2.66699 63.5 -8s35.5 -10.666 45.5 -15.999l14 -7v-61c-34 20.667 -75 31 -123 31c-52 0 -94 -17.5 -126 -52.5s-48 -82.5 -48 -142.5v-215h246z" />
    <glyph glyph-name="g" unicode="g" 
d="M164 512c0 -120 38.167 -221.667 114.5 -305s164.333 -125 264 -125s189.5 42.667 269.5 128s120 186 120 302s-40 216.667 -120 302s-169.833 128 -269.5 128s-187.667 -41.667 -264 -125s-114.5 -185 -114.5 -305zM932 61l-0.000976562 214.998
c-2.66699 -6.66699 -7.16699 -15.834 -13.5 -27.501s-21 -32.167 -44 -61.5s-48.167 -55.166 -75.5 -77.499s-63.833 -42.833 -109.5 -61.5s-94.5 -28 -146.5 -28c-114.667 0 -216.834 48.167 -306.501 144.5s-134.5 212.166 -134.5 347.499s44.833 251.166 134.5 347.499
s191.834 144.5 306.501 144.5c52 0 100.833 -9 146.5 -27s82.5 -39.167 110.5 -63.5s52.5 -49.166 73.5 -74.499s35.833 -47 44.5 -65l14 -26v235h61v-922c0 -140.667 -43.667 -257.667 -131 -351s-193.666 -140 -318.999 -140c-48 0 -93.5 7.16699 -136.5 21.5
s-78.833 31.333 -107.5 51s-53.5 39.5 -74.5 59.5s-36.5 37.333 -46.5 52l-14 21l41 41c2.66699 -5.33301 7 -12.166 13 -20.499s20 -23.166 42 -44.499s45 -40.166 69 -56.499s55.333 -31 94 -44s78.667 -19.5 120 -19.5c109.333 0 201.5 40.667 276.5 122
s112.5 184 112.5 308z" />
    <glyph glyph-name="h" unicode="h" 
d="M246 1434v-656.001c2.66699 5.33301 6.33398 13.166 11.001 23.499s16.667 28.5 36 54.5s41.166 48.833 65.499 68.5s58.333 37.834 102 54.501s91.5 25 143.5 25c109.333 0 201.5 -39.667 276.5 -119s112.5 -179.666 112.5 -300.999v-584h-61v584
c0 106.667 -31.167 193 -93.5 259s-140.5 99 -234.5 99c-104 0 -189.667 -35.833 -257 -107.5s-101 -165.5 -101 -281.5v-553h-62v1434h62z" />
    <glyph glyph-name="i" unicode="i" horiz-adv-x="450" 
d="M184 0v983h62v-983h-62zM266 1341.5c0 -34.333 -17 -51.5 -51 -51.5s-51 17.167 -51 51.5s17 51.5 51 51.5s51 -17.167 51 -51.5z" />
    <glyph glyph-name="j" unicode="j" horiz-adv-x="450" 
d="M184 -174l-0.000976562 1157h62v-1157c0 -75.333 -22.5 -136.833 -67.5 -184.5s-101.167 -71.5 -168.5 -71.5c-22 0 -43.167 2.66699 -63.5 8s-35.166 10.666 -44.499 15.999l-15 7v61c34 -20.667 75 -31 123 -31c52 0 94 17.5 126 52.5s48 82.5 48 142.5z
M265.999 1341.5c0 -34.333 -17 -51.5 -51 -51.5s-51 17.167 -51 51.5s17 51.5 51 51.5s51 -17.167 51 -51.5z" />
    <glyph glyph-name="k" unicode="k" horiz-adv-x="1013" 
d="M246 256v-256h-62v1434h62v-1096l583 645h82l-368 -399l420 -584h-72l-379 532h-10z" />
    <glyph glyph-name="l" unicode="l" horiz-adv-x="450" 
d="M246 1434v-1434h-62v1434h62z" />
    <glyph glyph-name="m" unicode="m" horiz-adv-x="1781" 
d="M1526 0l0.00195312 584c0 110.667 -29 198 -87 262s-131.333 96 -220 96c-84.667 0 -157.167 -34.833 -217.5 -104.5s-90.5 -161.167 -90.5 -274.5v-563h-61v584c0 110.667 -29 198 -87 262s-131.333 96 -220 96c-84.667 0 -157 -34.833 -217 -104.5
s-90 -161.167 -90 -274.5v-563h-62v983h62v-174c1.33301 5.33301 4.33301 12.5 9 21.5s15.167 24.333 31.5 46s35.166 41.167 56.499 58.5s50.666 33.166 87.999 47.499s78 21.5 122 21.5c49.333 0 94.666 -8.66699 135.999 -26s74 -37.833 98 -61.5
s44.167 -47.5 60.5 -71.5s27.833 -45 34.5 -63l9 -24c1.33301 6.66699 4.33301 15.5 9 26.5s15.834 30.5 33.501 58.5s37.834 52.833 60.501 74.5s55.167 41.5 97.5 59.5s88.166 27 137.499 27c105.333 0 193 -38.667 263 -116s105 -178.666 105 -303.999v-584h-61z" />
    <glyph glyph-name="n" unicode="n" horiz-adv-x="1177" 
d="M236 983l-0.00195312 -205.001c2.66699 5.33301 6.33398 13.166 11.001 23.499s16.5 28.5 35.5 54.5s40.833 48.833 65.5 68.5s58.834 37.834 102.501 54.501s91.5 25 143.5 25c109.333 0 201.5 -39.667 276.5 -119s112.5 -179.666 112.5 -300.999v-584h-61v584
c0 106.667 -31.167 193 -93.5 259s-140.5 99 -234.5 99c-104 0 -189.667 -35.833 -257 -107.5s-101 -165.5 -101 -281.5v-553h-62v983h62z" />
    <glyph glyph-name="o" unicode="o" 
d="M1004 492c0 125.333 -41.6689 231.667 -125.002 319s-181.666 131 -294.999 131c-114.667 0 -213.334 -43.333 -296.001 -130s-124 -193.5 -124 -320.5s41.333 -233.833 124 -320.5s181.334 -130 296.001 -130s213.334 43.5 296.001 130.5s124 193.833 124 320.5z
M1065 492.001c0 -142 -47.833 -262.833 -143.5 -362.5s-208.334 -149.5 -338.001 -149.5s-242.334 49.833 -338.001 149.5s-143.5 220.5 -143.5 362.5s47.833 262.833 143.5 362.5s208.334 149.5 338.001 149.5s242.334 -49.833 338.001 -149.5s143.5 -220.5 143.5 -362.5z
" />
    <glyph glyph-name="p" unicode="p" horiz-adv-x="1208" 
d="M236 246l-0.00195312 -676h-62v1413h62v-246c2.66699 6.66699 7.33398 16.167 14.001 28.5s22 34 46 65s50.333 58 79 81s66.167 44.167 112.5 63.5s95.5 29 147.5 29c116 0 220 -50.667 312 -152s138 -221.5 138 -360.5s-46 -259 -138 -360s-196 -151.5 -312 -151.5
c-52 0 -101.167 9.16699 -147.5 27.5s-84.166 40.5 -113.499 66.5s-55 51.833 -77 77.5s-37.667 47.5 -47 65.5zM634.998 41c101.333 0 191.5 44 270.5 132s118.5 194.167 118.5 318.5s-39.667 230.5 -119 318.5s-169.333 132 -270 132
c-105.333 0 -198.166 -43.667 -278.499 -131s-120.5 -193.833 -120.5 -319.5s40.167 -232.167 120.5 -319.5s173.166 -131 278.499 -131z" />
    <glyph glyph-name="q" unicode="q" horiz-adv-x="1208" 
d="M952 -430l0.00195312 676c-2.66699 -6.66699 -7.33398 -16.167 -14.001 -28.5s-22 -34 -46 -65s-50.333 -58 -79 -81s-66.167 -44 -112.5 -63s-95.5 -28.5 -147.5 -28.5c-116 0 -220.167 50.5 -312.5 151.5s-138.5 221 -138.5 360s46.167 259.167 138.5 360.5
s196.5 152 312.5 152c52 0 101.167 -9.33301 147.5 -28s84.166 -41 113.499 -67s55 -51.833 77 -77.5s37.667 -47.5 47 -65.5l14 -29v246h62v-1413h-62zM553.002 41c105.333 0 198.166 43.667 278.499 131s120.5 193.833 120.5 319.5s-40.167 232.167 -120.5 319.5
s-173.166 131 -278.499 131c-101.333 0 -191.5 -44 -270.5 -132s-118.5 -194.167 -118.5 -318.5s39.5 -230.5 118.5 -318.5s169.167 -132 270.5 -132z" />
    <glyph glyph-name="r" unicode="r" horiz-adv-x="686" 
d="M635 942h-41.002c-104 0 -189.667 -35.833 -257 -107.5s-101 -165.5 -101 -281.5v-553h-62v983h62v-205c2.66699 5.33301 6.33398 13.166 11.001 23.499s16.5 28.5 35.5 54.5s40.833 48.833 65.5 68.5s58.834 37.834 102.501 54.501s91.5 25 143.5 25h41v-62z" />
    <glyph glyph-name="s" unicode="s" horiz-adv-x="880" 
d="M737 860l-51.001 -51c-6.66699 9.33301 -16.5 21.5 -29.5 36.5s-41.667 34.833 -86 59.5s-91.166 37 -140.499 37c-69.333 0 -127.666 -20.833 -174.999 -62.5s-71 -89.167 -71 -142.5c0 -46.667 19.833 -84.5 59.5 -113.5s87.5 -51 143.5 -66s112 -31.5 168 -49.5
s103.833 -46 143.5 -84s59.5 -87.333 59.5 -148c0 -83.333 -31.5 -153.5 -94.5 -210.5s-144.167 -85.5 -243.5 -85.5c-64 0 -124 13.5 -180 40.5s-96.333 54.167 -121 81.5l-37 41l51 52c2.66699 -4 6.83398 -9.5 12.501 -16.5s17.667 -19.333 36 -37
s37.666 -33.334 57.999 -47.001s47 -26 80 -37s66.5 -16.5 100.5 -16.5c84.667 0 151.834 22.167 201.501 66.5s74.5 100.5 74.5 168.5c0 49.333 -19.667 89 -59 119s-87 52.833 -143 68.5s-112 32.167 -168 49.5s-103.833 44.333 -143.5 81s-59.5 84.334 -59.5 143.001
c0 68 30 129.5 90 184.5s132.333 82.5 217 82.5c57.333 0 111.666 -12 162.999 -36s88.666 -47.667 111.999 -71z" />
    <glyph glyph-name="t" unicode="t" horiz-adv-x="686" 
d="M256 1055l0.000976562 256h61v-328h226v-61h-226v-686c0 -60 16.167 -107.5 48.5 -142.5s74.5 -52.5 126.5 -52.5c22 0 43.167 2.66699 63.5 8s35.166 11 44.499 17l14 6v-62c-34 -20.667 -74.667 -30.667 -122 -30c-72.667 0 -130.167 22.5 -172.5 67.5
s-63.5 107.833 -63.5 188.5v686h-205v61h144c40.667 0 61 24 61 72z" />
    <glyph glyph-name="u" unicode="u" 
d="M922 0l0.000976562 204.999c-2.66699 -5.33301 -6.5 -13.166 -11.5 -23.499s-17.667 -28.5 -38 -54.5s-42.833 -48.833 -67.5 -68.5s-58.834 -37.667 -102.501 -54s-90.167 -24.5 -139.5 -24.5c-109.333 0 -201.5 39.5 -276.5 118.5s-112.5 179.167 -112.5 300.5v584h62
v-584c0 -106.667 31 -193 93 -259s140 -99 234 -99c98 0 182.333 36.5 253 109.5s106 162.833 106 269.5v563h61v-983h-61z" />
    <glyph glyph-name="v" unicode="v" horiz-adv-x="962" 
d="M502 0h-62l-399 983h61l369 -901l369 901h61z" />
    <glyph glyph-name="w" unicode="w" horiz-adv-x="1433" 
d="M686 983h41l287 -891l297 891h61l-328 -983h-61l-276 860l-277 -860h-61l-328 983h61l297 -891z" />
    <glyph glyph-name="x" unicode="x" horiz-adv-x="921" 
d="M481 512l379 -512h-72l-337 461l-338 -461h-72l379 512l-348 471h71l308 -420l307 420h71z" />
    <glyph glyph-name="y" unicode="y" horiz-adv-x="962" 
d="M358 -205l82.001 204.999l-399 983h61l369 -901l369 901h61l-481 -1188c-31.333 -79.333 -66.833 -136.666 -106.5 -171.999s-89.5 -53 -149.5 -53c-15.333 0 -29.833 1.66699 -43.5 5s-23.834 7 -30.501 11l-8 4v62c20.667 -13.333 48 -20.333 82 -21
c85.333 0 150 54.667 194 164z" />
    <glyph glyph-name="z" unicode="z" horiz-adv-x="880" 
d="M788 983v-61l-665 -861h686v-61h-758v61l666 861h-645v61h716z" />
    <glyph glyph-name="braceleft" unicode="{" horiz-adv-x="727" 
d="M133 481l0.00195312 62.001c56 0 99 14 129 42s45 65 45 111v502c0 170.667 92.333 256 277 256h51v-61h-51c-76.667 0 -131.667 -15.833 -165 -47.5s-50 -80.834 -50 -147.501v-502c0 -35.333 -5.83301 -66 -17.5 -92s-26 -45.167 -43 -57.5s-31.333 -20.833 -43 -25.5
s-20.834 -7.66699 -27.501 -9c5.33301 -1.33301 11.666 -3 18.999 -5s17.833 -7.5 31.5 -16.5s26 -19.667 37 -32s21 -30 30 -53s13.5 -48.833 13.5 -77.5v-502c0 -66.667 16.667 -115.834 50 -147.501s88.333 -47.5 165 -47.5h51v-61h-51c-184 0 -276.333 85.333 -277 256
v502c0 46.667 -15 83.834 -45 111.501s-73 41.5 -129 41.5z" />
    <glyph glyph-name="bar" unicode="|" horiz-adv-x="655" 
d="M358 1454v-1884h-61v1884h61z" />
    <glyph glyph-name="braceright" unicode="}" horiz-adv-x="727" 
d="M594 543l0.00195312 -62.001c-56 0 -99 -14 -129 -42s-45 -65 -45 -111v-502c0 -170.667 -92.333 -256 -277 -256h-51v61h51c76.667 0 131.667 15.833 165 47.5s50 80.834 50 147.501v502c0 28.667 4.5 54.5 13.5 77.5s19 40.667 30 53s23.333 23 37 32
s24.167 14.5 31.5 16.5s13.666 3.66699 18.999 5c-6.66699 1.33301 -15.834 4.33301 -27.501 9s-26 13.167 -43 25.5s-31.333 31.5 -43 57.5s-17.5 56.667 -17.5 92v502c0 66.667 -16.667 115.834 -50 147.501s-88.333 47.5 -165 47.5h-51v61h51
c184 0 276.333 -85.333 277 -256v-502c0 -46.667 15 -83.834 45 -111.501s73 -41.5 129 -41.5z" />
    <glyph glyph-name="asciitilde" unicode="~" horiz-adv-x="1064" 
d="M338 645c-39.333 0 -74.499 -11.167 -105.499 -33.5s-51.833 -44.5 -62.5 -66.5l-16 -33l-52 31c1.33301 4 4.16602 9.66699 8.49902 17s13.666 20.666 27.999 39.999s29.666 36.166 45.999 50.499s38.5 27.333 66.5 39s57 17.5 87 17.5c44 0 84.333 -8 121 -24
s66.334 -33.833 89.001 -53.5s49.667 -37.334 81 -53.001s64 -23.5 98 -23.5c39.333 0 74.5 10.833 105.5 32.5s51.833 43.5 62.5 65.5l16 35l52 -31c-1.33301 -4 -4.16602 -9.66699 -8.49902 -17s-13.666 -20.666 -27.999 -39.999s-29.666 -36.166 -45.999 -50.499
s-38.5 -27.166 -66.5 -38.499s-57 -17 -87 -17c-54.667 0 -103.834 12.833 -147.501 38.5s-84.334 51.167 -122.001 76.5s-77.5 38 -119.5 38z" />
    <glyph glyph-name="uni00A0" unicode="&#xa0;" horiz-adv-x="368" 
 />
    <glyph glyph-name="exclamdown" unicode="&#xa1;" horiz-adv-x="573" 
d="M256 676h61v-1106h-61v1106zM338 932c0 -34 -17 -51 -51 -51s-51 17 -51 51s17 51 51 51s51 -17 51 -51z" />
    <glyph glyph-name="cent" unicode="&#xa2;" horiz-adv-x="1064" 
d="M164 491.5c0 -127 41.334 -233.833 124.001 -320.5s181.334 -130 296.001 -130c39.333 0 77.833 6.5 115.5 19.5s68.667 28.333 93 46s45.833 35.334 64.5 53.001s32 32.834 40 45.501l14 20l52 -41c-2.66699 -5.33301 -7.5 -12 -14.5 -20s-21.5 -23 -43.5 -45
s-45.5 -41.833 -70.5 -59.5s-57.333 -34.334 -97 -50.001s-80.834 -25.5 -123.501 -29.5v-205h-61v205c-124 10.667 -230.167 64.5 -318.5 161.5s-132.5 213.667 -132.5 350s44.167 253 132.5 350s194.5 151.167 318.5 162.5v204h61v-204c42 -4 82.667 -13.667 122 -29
s72.166 -32.833 98.499 -52.5s49.5 -38.667 69.5 -57s34.667 -33.833 44 -46.5l15 -20l-52 -41c-2.66699 5.33301 -7 12.166 -13 20.499s-19.333 23 -40 44s-42.5 39.667 -65.5 56s-53.667 31 -92 44s-77.166 19.5 -116.499 19.5c-114.667 0 -213.334 -43.333 -296.001 -130
s-124 -193.5 -124 -320.5z" />
    <glyph glyph-name="sterling" unicode="&#xa3;" horiz-adv-x="1116" 
d="M297 1034c0 121.333 37.5 221.667 112.5 301s167.167 119 276.5 119c42 0 82.5 -5.5 121.5 -16.5s71.833 -24.667 98.5 -41s50 -32.666 70 -48.999s34.667 -29.833 44 -40.5l14 -17l-41 -41c-2.66699 4 -7 9.16699 -13 15.5s-19 17.666 -39 33.999s-40.833 31 -62.5 44
s-50 24.667 -85 35s-70.833 15.5 -107.5 15.5c-94 0 -172.167 -33.167 -234.5 -99.5s-93.5 -152.833 -93.5 -259.5v-338h430v-61h-430v-399c0 -39.333 -7.83301 -73.5 -23.5 -102.5s-30.834 -48.167 -45.501 -57.5l-23 -15h768v-61h-911v61
c46.667 0 87.334 17.5 122.001 52.5s52 75.833 52 122.5v399h-143v61h143v338z" />
    <glyph glyph-name="currency" unicode="&#xa4;" horiz-adv-x="1331" 
d="M102 614v62h185v758h491c126.667 0 230 -38.667 310 -116s120 -175.333 120 -294s-39.833 -216.667 -119.5 -294s-183.167 -116 -310.5 -116h-430v-245h553v-62h-553v-307h-61v307h-185v62h185v245h-185zM778 1372h-430v-696h430c112 0 201.5 32 268.5 96
s100.5 148 100.5 252s-33.5 188 -100.5 252s-156.5 96 -268.5 96z" />
    <glyph glyph-name="yen" unicode="&#xa5;" horiz-adv-x="1249" 
d="M133 1434l492 -850l491 850h72l-481 -830h297v-61h-328l-21 -41v-164h349v-62h-349v-276h-61v276h-348v62h348v164l-21 41h-327v61h297l-482 830h72z" />
    <glyph glyph-name="brokenbar" unicode="&#xa6;" horiz-adv-x="655" 
d="M297 348h61v-778h-61v778zM358 676h-61v778h61v-778z" />
    <glyph glyph-name="section" unicode="&#xa7;" horiz-adv-x="1064" 
d="M870 573c0 32.667 -7.49512 63.167 -22.4951 91.5s-32.333 51.333 -52 69s-47.334 35.667 -83.001 54s-66.334 32.333 -92.001 42s-60.334 22 -104.001 37s-75.834 26.5 -96.501 34.5c-5.33301 -1.33301 -13.166 -3.66602 -23.499 -6.99902s-28.5 -11.5 -54.5 -24.5
s-48.833 -27.667 -68.5 -44s-37.667 -39.833 -54 -70.5s-24.5 -64 -24.5 -100c0 -32.667 7.5 -63 22.5 -91s32.667 -51.167 53 -69.5s48.666 -36.666 84.999 -54.999s67.333 -32.333 93 -42s60 -22 103 -37s74.167 -25.833 93.5 -32.5
c5.33301 1.33301 13.166 3.66602 23.499 6.99902s28.5 11.166 54.5 23.499s48.833 27 68.5 44s37.667 40.5 54 70.5s24.5 63.333 24.5 100zM522.005 -164c84.667 0 151.999 21.498 201.999 64.498s75 96.5 75 160.5c0 56 -22.833 103.167 -68.5 141.5
s-101.334 69.5 -167.001 93.5s-131 48.667 -196 74s-120.333 61.833 -166 109.5s-68.5 106.167 -68.5 175.5c0 39.333 7.83301 75.833 23.5 109.5s34.5 60.334 56.5 80.001s43.833 36.334 65.5 50.001s40.834 23.5 57.501 29.5l22 8
c-4 1.33301 -9.33301 3.66602 -16 6.99902s-18.834 11.5 -36.501 24.5s-33.334 27.333 -47.001 43s-26 37.167 -37 64.5s-16.5 56 -16.5 86c0 79.333 32.333 148.666 97 207.999s145 89 241 89c57.333 0 112.5 -12 165.5 -36s91.167 -47.333 114.5 -70l37 -37l-51 -51
c-8 9.33301 -19.167 21.5 -33.5 36.5s-44.5 34.833 -90.5 59.5s-93.333 37 -142 37c-79.333 0 -145.333 -23.667 -198 -71s-79 -102.333 -79 -165c0 -57.333 22.833 -105.166 68.5 -143.499s101 -68 166 -89s130.333 -43.5 196 -67.5s121.334 -59.5 167.001 -106.5
s68.5 -106.167 68.5 -177.5c0 -39.333 -7.83301 -76 -23.5 -110s-34.5 -60.667 -56.5 -80s-43.833 -36.166 -65.5 -50.499s-40.834 -24.166 -57.501 -29.499l-22 -6c4 -1.33301 9.33301 -4 16 -8s18.834 -13.167 36.501 -27.5s33.334 -29.833 47.001 -46.5s26 -39 37 -67
s16.5 -57 16.5 -87c0 -79.333 -31.333 -146.833 -94 -202.5s-144 -83.5 -244 -83.5c-39.333 0 -78.5 6.16699 -117.5 18.5s-71.833 26.666 -98.5 42.999s-50.167 33 -70.5 50s-36.166 31.5 -47.499 43.5l-14 19l51 51c2.66699 -4 7.16699 -9.83301 13.5 -17.5s19 -21 38 -40
s39.5 -35.667 61.5 -50s49.667 -27.333 83 -39s67 -17.5 101 -17.5z" />
    <glyph glyph-name="dieresis" unicode="&#xa8;" horiz-adv-x="552" 
d="M61 1311c0 34 17.167 51 51.5 51s51.5 -17 51.5 -51s-17.167 -51 -51.5 -51s-51.5 17 -51.5 51zM389 1311c0 34 17.167 51 51.5 51s51.5 -17 51.5 -51s-17.167 -51 -51.5 -51s-51.5 17 -51.5 51z" />
    <glyph glyph-name="copyright" unicode="&#xa9;" horiz-adv-x="1740" 
d="M205 716.5c0 -188.333 64.833 -348 194.5 -479s286.667 -196.5 471 -196.5s341.333 65.5 471 196.5s194.5 290.667 194.5 479s-64.833 348.166 -194.5 479.499s-286.667 197 -471 197s-341.333 -65.667 -471 -197s-194.5 -291.166 -194.5 -479.499zM584 716.5
c0 -95.667 29.3369 -174.168 88.0039 -235.501s131.667 -92 219 -92c30 0 59.333 4.5 88 13.5s51.834 20 69.501 33s33.667 26.333 48 40s24.166 24.5 29.499 32.5l11 14l41 -41c-2.66699 -4 -6.5 -9.33301 -11.5 -16s-16.333 -19 -34 -37s-36.834 -33.833 -57.501 -47.5
s-47.334 -25.834 -80.001 -36.501s-67.334 -16 -104.001 -16c-104 0 -191.5 36.833 -262.5 110.5s-106.5 166.5 -106.5 278.5s35.5 204.833 106.5 278.5s158.5 110.5 262.5 110.5c57.333 0 109.833 -13 157.5 -39s81.167 -51.333 100.5 -76l29 -39l-41 -41
c-2.66699 4 -6.16699 8.83301 -10.5 14.5s-14 16.334 -29 32.001s-31.333 29.334 -49 41.001s-40.834 22.167 -69.501 31.5s-58 14 -88 14c-87.333 0 -160.333 -30.667 -219 -92s-88 -139.833 -88 -235.5zM1597 716.999c0 -204.667 -71 -378.667 -213 -522
s-313.333 -215 -514 -215s-372 71.667 -514 215s-213 317.333 -213 522s71 378.667 213 522s313.333 215 514 215s372 -71.667 514 -215s213 -317.333 213 -522z" />
    <glyph glyph-name="ordfeminine" unicode="&#xaa;" horiz-adv-x="665" 
d="M246 829c-50.667 0 -94.168 16.832 -130.501 50.499s-54.5 71.5 -54.5 113.5c0 46.667 17.167 86.334 51.5 119.001s82.166 54.667 143.499 66l215 41v30c0 95.333 -51.333 143.333 -154 144c-30 0 -58.667 -6.83301 -86 -20.5s-47 -27.5 -59 -41.5l-18 -20l-52 41
c5.33301 8 13.833 17.5 25.5 28.5s36.334 26 74.001 45s76.167 28.5 115.5 28.5c65.333 0 117.5 -18.833 156.5 -56.5s58.5 -87.167 58.5 -148.5v-399h-61v102c-1.33301 -2.66699 -3.66602 -7 -6.99902 -13s-11.5 -15.833 -24.5 -29.5s-27.333 -26 -43 -37
s-37.167 -21 -64.5 -30s-56 -13.5 -86 -13.5zM470.999 1157l-215 -41.001c-88.667 -18 -133 -59 -133 -123c0 -27.333 12.333 -51.166 37 -71.499s56.667 -30.5 96 -30.5c65.333 0 117.5 21.5 156.5 64.5s58.5 98.5 58.5 166.5v35z" />
    <glyph glyph-name="guillemotleft" unicode="&#xab;" horiz-adv-x="849" 
d="M410 809l-226 -317l226 -318h-72l-225 318l225 317h72zM737 809l-225 -317l225 -318h-71l-226 318l226 317h71z" />
    <glyph glyph-name="logicalnot" unicode="&#xac;" horiz-adv-x="931" 
d="M829 758v-348h-61v286h-666v62h727z" />
    <glyph glyph-name="uni00AD" unicode="&#xad;" horiz-adv-x="839" 
d="M748 635v-62h-656v62h656z" />
    <glyph glyph-name="registered" unicode="&#xae;" horiz-adv-x="1740" 
d="M993 666l184.999 -328h-72l-174 317h-225v-317h-62v758h256c76.667 0 136.834 -20.833 180.501 -62.5s65.5 -96.167 65.5 -163.5c0 -52 -13 -95 -39 -129s-51.333 -55 -76 -63zM706.999 1034v-316.999h194c60 0 105.667 13.667 137 41s47 64.666 47 111.999
c0 109.333 -61.333 164 -184 164h-194zM204.999 716.501c0 -188.333 64.833 -348 194.5 -479s286.667 -196.5 471 -196.5s341.333 65.5 471 196.5s194.5 290.667 194.5 479s-64.833 348.166 -194.5 479.499s-286.667 197 -471 197s-341.333 -65.667 -471 -197
s-194.5 -291.166 -194.5 -479.499zM1597 717.001c0 -204.667 -71 -378.667 -213 -522s-313.333 -215 -514 -215s-372 71.667 -514 215s-213 317.333 -213 522s71 378.667 213 522s313.333 215 514 215s372 -71.667 514 -215s213 -317.333 213 -522z" />
    <glyph glyph-name="macron" unicode="&#xaf;" horiz-adv-x="655" 
d="M594 1393v-62h-533v62h533z" />
    <glyph glyph-name="degree" unicode="&#xb0;" horiz-adv-x="716" 
d="M614 1198.5c0 -72.333 -24.5 -133.166 -73.5 -182.499s-109.667 -74 -182 -74s-133.166 24.667 -182.499 74s-74 110.166 -74 182.499s24.667 133 74 182s110.166 73.5 182.499 73.5s133 -24.5 182 -73.5s73.5 -109.667 73.5 -182zM553 1198
c0 56 -18.5 102.5 -55.5 139.5s-83.5 55.5 -139.5 55.5s-102.333 -18.5 -139 -55.5s-55 -83.5 -55 -139.5s18.333 -102.333 55 -139s83 -55 139 -55s102.5 18.333 139.5 55s55.5 83 55.5 139z" />
    <glyph glyph-name="plusminus" unicode="&#xb1;" horiz-adv-x="1024" 
d="M102 125v59h820v-59h-820zM481 1208h62v-399h389v-61h-389v-400h-62v400h-389v61h389v399z" />
    <glyph glyph-name="uni00B2" unicode="&#xb2;" horiz-adv-x="563" 
d="M502 922l-461.001 0.00292969c0 56 13.667 105.833 41 149.5s60.833 79.167 100.5 106.5s78.834 52.833 117.501 76.5s71.667 51.167 99 82.5s41 66.333 41 105c0 42 -14.333 76.667 -43 104s-65.334 41 -110.001 41c-39.333 0 -73.5 -10.167 -102.5 -30.5
s-48.167 -40.833 -57.5 -61.5l-14 -31l-62 21c1.33301 4 3.33301 9.66699 6 17s10.5 20.666 23.5 39.999s27.333 36.166 43 50.499s38.334 27.333 68.001 39s61.5 17.5 95.5 17.5c61.333 0 112.5 -19.833 153.5 -59.5s61.5 -88.167 61.5 -145.5
c0 -45.333 -12 -85.666 -36 -120.999s-54 -65 -90 -89s-72.833 -47.333 -110.5 -70s-72.167 -49.334 -103.5 -80.001s-52 -64.334 -62 -101.001h402v-61z" />
    <glyph glyph-name="uni00B3" unicode="&#xb3;" horiz-adv-x="583" 
d="M399 1300c2.66699 -1.33301 7.16211 -2.66699 13.4951 -4s16.333 -6.33301 30 -15s26 -18.834 37 -30.501s20.833 -28.5 29.5 -50.5s13 -46.667 13 -74c0 -61.333 -21.167 -112.5 -63.5 -153.5s-96.166 -61.5 -161.499 -61.5c-49.333 0 -95.166 10.333 -137.499 31
s-72.166 41.334 -89.499 62.001l-29 30l41 41c5.33301 -8 13.833 -17.5 25.5 -28.5s36.334 -26 74.001 -45s76.167 -28.5 115.5 -28.5c50.667 0 90.667 14 120 42s44 65 44 111c0 42 -14.667 76.5 -44 103.5s-69.333 40.5 -120 40.5h-102v61h92c45.333 0 80.5 12 105.5 36
s37.5 56.333 37.5 97c0 36.667 -13.333 66.334 -40 89.001s-64.667 34 -114 34c-32.667 0 -63.667 -6.83301 -93 -20.5s-50 -27.167 -62 -40.5l-19 -21l-41 41c5.33301 8 13.833 17.5 25.5 28.5s36.334 26.167 74.001 45.5s76.167 29 115.5 29
c65.333 0 117.666 -17.5 156.999 -52.5s59 -79.167 59 -132.5c0 -23.333 -3.16699 -44.833 -9.5 -64.5s-14 -35.334 -23 -47.001s-18.167 -21.5 -27.5 -29.5s-16.666 -13.333 -21.999 -16z" />
    <glyph glyph-name="acute" unicode="&#xb4;" horiz-adv-x="348" 
d="M61 1157l154 256h72l-174 -256h-52z" />
    <glyph glyph-name="mu" unicode="&#xb5;" 
d="M1075 -10c-52 0 -93.999 16.6641 -125.999 49.9971s-48 78 -48 134v31c-2.66699 -5.33301 -6 -13.166 -10 -23.499s-15.333 -28.5 -34 -54.5s-39.5 -48.833 -62.5 -68.5s-55 -37.667 -96 -54s-86.167 -24.5 -135.5 -24.5c-42 0 -81.833 6.33301 -119.5 19
s-68.834 28 -93.501 46s-45.834 35.833 -63.501 53.5s-30.5 32.5 -38.5 44.5l-12 21v-594h-62v1413h62v-594c0 -101.333 31.333 -184.666 94 -249.999s140.334 -98 233.001 -98c95.333 0 175.5 36.167 240.5 108.5s97.5 162.5 97.5 270.5v563h62v-809
c0 -35.333 10.833 -64.666 32.5 -87.999s48.167 -35 79.5 -35l62 10v-61c-14 -6.66699 -34.667 -10 -62 -10z" />
    <glyph glyph-name="paragraph" unicode="&#xb6;" horiz-adv-x="1044" 
d="M430 -205v1004c-82 0 -155.333 32.333 -220 97s-97 138 -97 220s32.333 155.5 97 220.5s138 97.5 220 97.5h379v-1639h-61v1577h-256v-1577h-62z" />
    <glyph glyph-name="periodcentered" unicode="&#xb7;" horiz-adv-x="368" 
d="M236 512c0 -34 -17.167 -51 -51.5 -51s-51.5 17 -51.5 51s17.167 51 51.5 51s51.5 -17 51.5 -51z" />
    <glyph glyph-name="cedilla" unicode="&#xb8;" horiz-adv-x="450" 
d="M225 41h51.001l-81 -164c13.333 6.66699 30.333 10 51 10c40.667 0 74.667 -13.667 102 -41s41 -61.333 41 -102c0 -42 -16.333 -78.167 -49 -108.5s-74.334 -45.5 -125.001 -45.5c-24.667 0 -50 4.16699 -76 12.5s-45 16.5 -57 24.5l-21 15l31 41
c34 -27.333 75 -41 123 -41c34 0 63 10.5 87 31.5s36 44.5 36 70.5s-8.83301 47.833 -26.5 65.5s-39.5 26.5 -65.5 26.5c-12 0 -23.833 -1.66699 -35.5 -5s-20.5 -7 -26.5 -11l-10 -4l-41 41z" />
    <glyph glyph-name="uni00B9" unicode="&#xb9;" horiz-adv-x="399" 
d="M225 1638h51v-716h-61v614c-34 -40.667 -85.333 -64.667 -154 -72v62c30 2.66699 58.667 13.5 86 32.5s47.333 37.5 60 55.5z" />
    <glyph glyph-name="ordmasculine" unicode="&#xba;" horiz-adv-x="716" 
d="M123 1136.5c0 -75 22.5 -136.333 67.5 -184s101 -71.5 168 -71.5s123 23.833 168 71.5s67.5 109 67.5 184s-22.5 136.5 -67.5 184.5s-101 72 -168 72s-123 -24 -168 -72s-67.5 -109.5 -67.5 -184.5zM655 1136.5c0 -91.667 -28.667 -167.5 -86 -227.5
s-127.666 -90 -210.999 -90s-153.666 30 -210.999 90s-86 135.833 -86 227.5s28.667 167.5 86 227.5s127.666 90 210.999 90s153.666 -30 210.999 -90s86 -135.833 86 -227.5z" />
    <glyph glyph-name="guillemotright" unicode="&#xbb;" horiz-adv-x="849" 
d="M666 492l-226 317h72l225 -317l-225 -318h-72zM338 492l-225 317h71l226 -317l-226 -318h-71z" />
    <glyph glyph-name="onequarter" unicode="&#xbc;" horiz-adv-x="1361" 
d="M154 0l901 1434h61l-901 -1434h-61zM246 1434l51 0.000976562v-717h-61v614c-34 -40.667 -85.333 -64.334 -154 -71.001v61c30 2.66699 58.667 13.5 86 32.5s47 37.5 59 55.5zM1167 246.001h103v-62h-103v-184h-61v184h-358v62l348 471h71v-471zM1106 246.001v399
l-297 -399h297z" />
    <glyph glyph-name="onehalf" unicode="&#xbd;" horiz-adv-x="1413" 
d="M154 0l901 1434h61l-901 -1434h-61zM246 1434l51 0.000976562v-717h-61v614c-34 -40.667 -85.333 -64.334 -154 -71.001v61c30 2.66699 58.667 13.5 86 32.5s47 37.5 59 55.5zM1311 0.000976562h-461c0 56 13.667 105.833 41 149.5s60.5 79.167 99.5 106.5
s78.167 53 117.5 77s72.666 51.667 99.999 83s41 66 41 104c0 42 -14.333 76.833 -43 104.5s-65.334 41.5 -110.001 41.5c-39.333 0 -73.5 -10.333 -102.5 -31s-48.167 -41.334 -57.5 -62.001l-14 -30l-62 20c1.33301 4 3.33301 9.83301 6 17.5s10.5 21 23.5 40
s27.333 35.667 43 50s38.167 27.333 67.5 39s61.333 17.5 96 17.5c61.333 0 112.5 -19.833 153.5 -59.5s61.5 -88.167 61.5 -145.5c0 -45.333 -12 -85.666 -36 -120.999s-54.167 -65 -90.5 -89s-73.166 -47.167 -110.499 -69.5s-71.666 -48.833 -102.999 -79.5
s-52 -64.667 -62 -102h402v-61z" />
    <glyph glyph-name="threequarters" unicode="&#xbe;" horiz-adv-x="1495" 
d="M276 0l902 1434h61l-901 -1434h-62zM1300 246h103v-62h-103v-184h-61v184h-358v62l348 471h71v-471zM1239 246v399l-297 -399h297zM420 1096c2.66699 -1.33301 6.99902 -2.66602 12.999 -3.99902s15.833 -6.5 29.5 -15.5s26 -19.333 37 -31s21 -28.334 30 -50.001
s13.5 -46.167 13.5 -73.5c0 -61.333 -21.167 -112.5 -63.5 -153.5s-96.5 -61.5 -162.5 -61.5c-49.333 0 -95 10.167 -137 30.5s-72 40.833 -90 61.5l-29 30l41 41c5.33301 -8 13.833 -17.5 25.5 -28.5s36.334 -26 74.001 -45s76.167 -28.5 115.5 -28.5
c50.667 0 90.667 14 120 42s44 65.333 44 112c0 42 -14.667 76.333 -44 103s-69.333 40 -120 40h-102v61h92c45.333 0 80.666 12 105.999 36s38 56.667 38 98c0 36.667 -13.333 66.167 -40 88.5s-64.667 33.5 -114 33.5c-32.667 0 -63.667 -6.83301 -93 -20.5
s-50.333 -27.167 -63 -40.5l-18 -21l-41 41c5.33301 8 13.833 17.5 25.5 28.5s36.334 26.167 74.001 45.5s76.167 29 115.5 29c65.333 0 117.5 -17.5 156.5 -52.5s58.5 -78.833 58.5 -131.5c0 -23.333 -3 -45 -9 -65s-13.5 -35.833 -22.5 -47.5s-18.333 -21.5 -28 -29.5
s-17.167 -13.333 -22.5 -16z" />
    <glyph glyph-name="questiondown" unicode="&#xbf;" horiz-adv-x="911" 
d="M481 676l61.9971 -0.00195312v-82c0 -64 -14 -121.333 -42 -172s-62.167 -92.667 -102.5 -126s-80.666 -66.5 -120.999 -99.5s-74.5 -72 -102.5 -117s-42 -95.5 -42 -151.5c0 -86 33.167 -160.333 99.5 -223s152.833 -94 259.5 -94c57.333 0 108.833 9.5 154.5 28.5
s80.334 42.167 104.001 69.5s43.834 54.333 60.501 81s27.667 49.667 33 69l6 28l61 -20c-1.33301 -8 -4.33301 -19.167 -9 -33.5s-17.667 -40 -39 -77s-45.833 -69.167 -73.5 -96.5s-67.834 -52.666 -120.501 -75.999s-111.667 -35 -177 -35
c-121.333 0 -221.666 37.667 -300.999 113s-119 164 -119 266c0 65.333 14 123 42 173s62 91 102 123s80.167 63.833 120.5 95.5s74.5 70.334 102.5 116.001s42 98.5 42 158.5v82zM562.997 931.998c0 -34 -17 -51 -51 -51s-51 17 -51 51s17 51 51 51s51 -17 51 -51z" />
    <glyph glyph-name="Agrave" unicode="&#xc0;" horiz-adv-x="1372" 
d="M1044 502l-358 860l-358 -860h716zM1065 440h-758l-184 -440h-62l594 1434h62l594 -1434h-62zM553 1884l154 -256h-52l-174 256h72z" />
    <glyph glyph-name="Aacute" unicode="&#xc1;" horiz-adv-x="1372" 
d="M1044 502l-358 860l-358 -860h716zM1065 440h-758l-184 -440h-62l594 1434h62l594 -1434h-62zM666 1628l153 256h72l-174 -256h-51z" />
    <glyph glyph-name="Acircumflex" unicode="&#xc2;" horiz-adv-x="1372" 
d="M1044 502l-358 860l-358 -860h716zM1065 440h-758l-184 -440h-62l594 1434h62l594 -1434h-62zM717 1884l215 -256h-72l-174 205l-174 -205h-72l215 256h62z" />
    <glyph glyph-name="Atilde" unicode="&#xc3;" horiz-adv-x="1372" 
d="M1044 502l-358 860l-358 -860h716zM1065 440h-758l-184 -440h-62l594 1434h62l594 -1434h-62zM563 1792c-27.333 0 -47.834 -11 -61.501 -33s-20.5 -62.333 -20.5 -121h-61c0 143.333 47.667 215 143 215c30 0 57.667 -7.83301 83 -23.5s45.833 -33.334 61.5 -53.001
s34.167 -37.334 55.5 -53.001s43.333 -23.5 66 -23.5c27.333 0 47.833 10.833 61.5 32.5s20.5 61.834 20.5 120.501h62c0 -143.333 -48 -215 -144 -215c-30 0 -57.5 8 -82.5 24s-45.333 33.833 -61 53.5s-34.167 37.334 -55.5 53.001s-43.666 23.5 -66.999 23.5z" />
    <glyph glyph-name="Adieresis" unicode="&#xc4;" horiz-adv-x="1372" 
d="M1044 502l-358 860l-358 -860h716zM1065 440h-758l-184 -440h-62l594 1434h62l594 -1434h-62zM471 1761c0 34 17 51 51 51s51 -17 51 -51s-17 -51 -51 -51s-51 17 -51 51zM799 1761c0 34 17 51 51 51s51 -17 51 -51s-17 -51 -51 -51s-51 17 -51 51z" />
    <glyph glyph-name="Aring" unicode="&#xc5;" horiz-adv-x="1372" 
d="M1044 502l-358 860l-358 -860h716zM1065 440h-758l-184 -440h-62l594 1434h62l594 -1434h-62zM553 1761.5c0 -35.667 13.333 -66.834 40 -93.501s57.667 -40 93 -40s66.333 13.333 93 40s40 57.834 40 93.501s-13.333 66.667 -40 93s-57.667 39.5 -93 39.5
s-66.333 -13.167 -93 -39.5s-40 -57.333 -40 -93zM881 1761c0 -52 -19.833 -97.333 -59.5 -136s-84.834 -58 -135.501 -58s-95.667 19.333 -135 58s-59 84 -59 136s19.667 97.5 59 136.5s84.333 58.5 135 58.5s95.834 -19.5 135.501 -58.5s59.5 -84.5 59.5 -136.5z" />
    <glyph glyph-name="AE" unicode="&#xc6;" horiz-adv-x="1925" 
d="M1055 61h788v-61h-850v461h-706l-256 -461h-72l799 1434h1065v-62h-768v-594h604v-61h-604v-656zM799 1372l-482 -850h676v850h-194z" />
    <glyph glyph-name="Ccedilla" unicode="&#xc7;" horiz-adv-x="1525" 
d="M123 717c0 203.333 70.6689 376.999 212.002 520.999s309.666 216 504.999 216c72.667 0 142.667 -10.5 210 -31.5s123.166 -46.667 167.499 -77s83.5 -60.5 117.5 -90.5s58.667 -55 74 -75l25 -33l-52 -41c-5.33301 8 -12.666 18.5 -21.999 31.5
s-31.166 35.833 -65.499 68.5s-70.666 61.667 -108.999 87s-88.833 48.333 -151.5 69s-127.334 31 -194.001 31c-180 0 -334.333 -65.667 -463 -197s-193 -291.166 -193 -479.499s64.167 -348 192.5 -479s282.833 -196.5 463.5 -196.5c66.667 0 131 9.83301 193 29.5
s113.167 43.5 153.5 71.5s75.833 56 106.5 84s53 52.333 67 73l22 29l52 -41c-5.33301 -8 -13.5 -19 -24.5 -33s-35 -38.333 -72 -73s-76.333 -65.334 -118 -92.001s-96 -51.167 -163 -73.5s-135.833 -34.166 -206.5 -35.499l-51 -103c13.333 6.66699 30.333 10 51 10
c40.667 0 74.667 -13.667 102 -41s41 -61.333 41 -102c0 -42 -16.333 -78.167 -49 -108.5s-74.334 -45.5 -125.001 -45.5c-24.667 0 -49.834 4.16699 -75.501 12.5s-45.5 16.5 -59.5 24.5l-18 15l30 41c34 -27.333 75 -41 123 -41c34 0 63 10.5 87 31.5s36 44.5 36 70.5
s-8.83301 47.833 -26.5 65.5s-39.5 26.5 -65.5 26.5c-12 0 -23.833 -1.66699 -35.5 -5s-21.167 -7 -28.5 -11l-8 -4l-41 41l62 125c-187.333 10.667 -346.833 86.667 -478.5 228s-197.5 310.333 -197.5 507z" />
    <glyph glyph-name="Egrave" unicode="&#xc8;" horiz-adv-x="1280" 
d="M297 61h901v-61h-962v1434h942v-62h-881v-594h717v-61h-717v-656zM604 1884l154 -256h-51l-175 256h72z" />
    <glyph glyph-name="Eacute" unicode="&#xc9;" horiz-adv-x="1280" 
d="M297 61h901v-61h-962v1434h942v-62h-881v-594h717v-61h-717v-656zM666 1628l153 256h72l-174 -256h-51z" />
    <glyph glyph-name="Ecircumflex" unicode="&#xca;" horiz-adv-x="1280" 
d="M297 61h901v-61h-962v1434h942v-62h-881v-594h717v-61h-717v-656zM737 1874l215 -256h-71l-174 205l-175 -205h-71l215 256h61z" />
    <glyph glyph-name="Edieresis" unicode="&#xcb;" horiz-adv-x="1280" 
d="M297 61h901v-61h-962v1434h942v-62h-881v-594h717v-61h-717v-656zM492 1761c0 34 17 51 51 51s51 -17 51 -51s-17 -51 -51 -51s-51 17 -51 51zM819 1761c0 34 17.167 51 51.5 51s51.5 -17 51.5 -51s-17.167 -51 -51.5 -51s-51.5 17 -51.5 51z" />
    <glyph glyph-name="Igrave" unicode="&#xcc;" horiz-adv-x="532" 
d="M236 0v1434h61v-1434h-61zM143 1894l154 -256h-51l-174 256h71z" />
    <glyph glyph-name="Iacute" unicode="&#xcd;" horiz-adv-x="532" 
d="M236 0v1434h61v-1434h-61zM246 1628l153 256h72l-174 -256h-51z" />
    <glyph glyph-name="Icircumflex" unicode="&#xce;" horiz-adv-x="532" 
d="M236 0v1434h61v-1434h-61zM297 1874l215 -256h-72l-174 205l-174 -205h-72l216 256h61z" />
    <glyph glyph-name="Idieresis" unicode="&#xcf;" horiz-adv-x="532" 
d="M236 0v1434h61v-1434h-61zM51 1761c0 34 17.167 51 51.5 51s51.5 -17 51.5 -51s-17.167 -51 -51.5 -51s-51.5 17 -51.5 51zM379 1761c0 34 17 51 51 51s51 -17 51 -51s-17 -51 -51 -51s-51 17 -51 51z" />
    <glyph glyph-name="Eth" unicode="&#xd0;" horiz-adv-x="1525" 
d="M266 1434h389c218.667 0 398 -68 538 -204s210 -307 210 -513s-70 -377 -210 -513s-319.333 -204 -538 -204h-389v686h-215v62h215v686zM655 1372h-327v-624h368v-62h-368v-625h327c203.333 0 368.5 61.5 495.5 184.5s190.5 280.167 190.5 471.5
s-63.5 348.333 -190.5 471s-292.167 184 -495.5 184z" />
    <glyph glyph-name="Ntilde" unicode="&#xd1;" horiz-adv-x="1576" 
d="M1280 1434h61v-1434h-51l-993 1321v-1321h-61v1434h51l993 -1321v1321zM666 1792c-27.333 0 -47.833 -11 -61.5 -33s-20.5 -62.333 -20.5 -121h-62c0 143.333 48 215 144 215c30 0 57.5 -7.83301 82.5 -23.5s45.5 -33.334 61.5 -53.001s34.5 -37.334 55.5 -53.001
s43.167 -23.5 66.5 -23.5c27.333 0 47.833 10.833 61.5 32.5s20.5 61.834 20.5 120.501h61c0 -143.333 -47.667 -215 -143 -215c-30 0 -57.667 8 -83 24s-45.833 33.833 -61.5 53.5s-34 37.334 -55 53.001s-43.167 23.5 -66.5 23.5z" />
    <glyph glyph-name="Ograve" unicode="&#xd2;" horiz-adv-x="1679" 
d="M1495 716.5c0 188.333 -64.167 348.166 -192.5 479.499s-282.666 197 -462.999 197s-334.666 -65.667 -462.999 -197s-192.5 -291.166 -192.5 -479.499s64.167 -348 192.5 -479s282.666 -196.5 462.999 -196.5s334.666 65.5 462.999 196.5s192.5 290.667 192.5 479z
M1556 717c0 -203.333 -70.5 -377 -211.5 -521s-309.167 -216 -504.5 -216s-363.666 72 -504.999 216s-212 317.667 -212 521s70.667 377 212 521s309.666 216 504.999 216s363.5 -72 504.5 -216s211.5 -317.667 211.5 -521zM717 1884l153 -256h-51l-174 256h72z" />
    <glyph glyph-name="Oacute" unicode="&#xd3;" horiz-adv-x="1679" 
d="M1495 716.5c0 188.333 -64.167 348.166 -192.5 479.499s-282.666 197 -462.999 197s-334.666 -65.667 -462.999 -197s-192.5 -291.166 -192.5 -479.499s64.167 -348 192.5 -479s282.666 -196.5 462.999 -196.5s334.666 65.5 462.999 196.5s192.5 290.667 192.5 479z
M1556 717c0 -203.333 -70.5 -377 -211.5 -521s-309.167 -216 -504.5 -216s-363.666 72 -504.999 216s-212 317.667 -212 521s70.667 377 212 521s309.666 216 504.999 216s363.5 -72 504.5 -216s211.5 -317.667 211.5 -521zM809 1628l154 256h71l-174 -256h-51z" />
    <glyph glyph-name="Ocircumflex" unicode="&#xd4;" horiz-adv-x="1679" 
d="M1495 716.5c0 188.333 -64.167 348.166 -192.5 479.499s-282.666 197 -462.999 197s-334.666 -65.667 -462.999 -197s-192.5 -291.166 -192.5 -479.499s64.167 -348 192.5 -479s282.666 -196.5 462.999 -196.5s334.666 65.5 462.999 196.5s192.5 290.667 192.5 479z
M1556 717c0 -203.333 -70.5 -377 -211.5 -521s-309.167 -216 -504.5 -216s-363.666 72 -504.999 216s-212 317.667 -212 521s70.667 377 212 521s309.666 216 504.999 216s363.5 -72 504.5 -216s211.5 -317.667 211.5 -521zM870 1874l215 -256h-71l-174 205l-174 -205h-72
l215 256h61z" />
    <glyph glyph-name="Otilde" unicode="&#xd5;" horiz-adv-x="1679" 
d="M1495 716.5c0 188.333 -64.167 348.166 -192.5 479.499s-282.666 197 -462.999 197s-334.666 -65.667 -462.999 -197s-192.5 -291.166 -192.5 -479.499s64.167 -348 192.5 -479s282.666 -196.5 462.999 -196.5s334.666 65.5 462.999 196.5s192.5 290.667 192.5 479z
M1556 717c0 -203.333 -70.5 -377 -211.5 -521s-309.167 -216 -504.5 -216s-363.666 72 -504.999 216s-212 317.667 -212 521s70.667 377 212 521s309.666 216 504.999 216s363.5 -72 504.5 -216s211.5 -317.667 211.5 -521zM717 1792c-27.333 0 -47.833 -11 -61.5 -33
s-20.5 -62.333 -20.5 -121h-62c0 143.333 48 215 144 215c30 0 57.667 -7.83301 83 -23.5s45.833 -33.334 61.5 -53.001s34 -37.334 55 -53.001s43.167 -23.5 66.5 -23.5c27.333 0 47.833 10.833 61.5 32.5s20.5 61.834 20.5 120.501h61c0 -143.333 -47.667 -215 -143 -215
c-30 0 -57.667 8 -83 24s-45.833 33.833 -61.5 53.5s-34 37.334 -55 53.001s-43.167 23.5 -66.5 23.5z" />
    <glyph glyph-name="Odieresis" unicode="&#xd6;" horiz-adv-x="1679" 
d="M1495 716.5c0 188.333 -64.167 348.166 -192.5 479.499s-282.666 197 -462.999 197s-334.666 -65.667 -462.999 -197s-192.5 -291.166 -192.5 -479.499s64.167 -348 192.5 -479s282.666 -196.5 462.999 -196.5s334.666 65.5 462.999 196.5s192.5 290.667 192.5 479z
M1556 717c0 -203.333 -70.5 -377 -211.5 -521s-309.167 -216 -504.5 -216s-363.666 72 -504.999 216s-212 317.667 -212 521s70.667 377 212 521s309.666 216 504.999 216s363.5 -72 504.5 -216s211.5 -317.667 211.5 -521zM625 1761c0 34 17 51 51 51s51 -17 51 -51
s-17 -51 -51 -51s-51 17 -51 51zM952 1761c0 34 17.167 51 51.5 51s51.5 -17 51.5 -51s-17.167 -51 -51.5 -51s-51.5 17 -51.5 51z" />
    <glyph glyph-name="multiply" unicode="&#xd7;" horiz-adv-x="860" 
d="M430 584l-287 -287l-51 51l287 287l-287 287l51 51l287 -287l287 287l51 -51l-287 -287l287 -287l-51 -51z" />
    <glyph glyph-name="Oslash" unicode="&#xd8;" horiz-adv-x="1679" 
d="M1556 717c0 -203.333 -70.498 -377.001 -211.498 -521.001s-309.167 -216 -504.5 -216c-184 0 -344.667 64 -482 192l-184 -192l-51 40l190 197c-126.667 140.667 -190 307.334 -190 500.001c0 203.333 70.667 377 212 521s309.666 216 504.999 216
c181.333 0 341.666 -64 480.999 -192l184 192l51 -41l-190 -199c126.667 -141.333 190 -307 190 -497zM1495 716.999c0 174.667 -57.333 326 -172 454l-924 -956c124 -116 271 -174 441 -174c180 0 334.167 65.5 462.5 196.5s192.5 290.833 192.5 479.5zM184.002 716.999
c0 -173.333 56.667 -325.667 170 -457l924 959c-124 116 -270 174 -438 174c-180 0 -334.333 -65.5 -463 -196.5s-193 -290.833 -193 -479.5z" />
    <glyph glyph-name="Ugrave" unicode="&#xd9;" horiz-adv-x="1536" 
d="M768 41c139.333 0 256.168 48.167 350.501 144.5s141.5 216.833 141.5 361.5v887h61v-887c0 -160 -53.667 -294.5 -161 -403.5s-238 -163.5 -392 -163.5s-284.667 54.5 -392 163.5s-161 243.5 -161 403.5v887h61v-887c0 -144.667 47.167 -265.167 141.5 -361.5
s211.166 -144.5 350.499 -144.5zM655.002 1894l154 -256h-51l-174 256h71z" />
    <glyph glyph-name="Uacute" unicode="&#xda;" horiz-adv-x="1536" 
d="M768 41c139.333 0 256.168 48.167 350.501 144.5s141.5 216.833 141.5 361.5v887h61v-887c0 -160 -53.667 -294.5 -161 -403.5s-238 -163.5 -392 -163.5s-284.667 54.5 -392 163.5s-161 243.5 -161 403.5v887h61v-887c0 -144.667 47.167 -265.167 141.5 -361.5
s211.166 -144.5 350.499 -144.5zM727.002 1628l154 256h71l-174 -256h-51z" />
    <glyph glyph-name="Ucircumflex" unicode="&#xdb;" horiz-adv-x="1536" 
d="M768 41c139.333 0 256.168 48.167 350.501 144.5s141.5 216.833 141.5 361.5v887h61v-887c0 -160 -53.667 -294.5 -161 -403.5s-238 -163.5 -392 -163.5s-284.667 54.5 -392 163.5s-161 243.5 -161 403.5v887h61v-887c0 -144.667 47.167 -265.167 141.5 -361.5
s211.166 -144.5 350.499 -144.5zM799.002 1874l215 -256h-72l-174 205l-174 -205h-72l215 256h62z" />
    <glyph glyph-name="Udieresis" unicode="&#xdc;" horiz-adv-x="1536" 
d="M768 41c139.333 0 256.168 48.167 350.501 144.5s141.5 216.833 141.5 361.5v887h61v-887c0 -160 -53.667 -294.5 -161 -403.5s-238 -163.5 -392 -163.5s-284.667 54.5 -392 163.5s-161 243.5 -161 403.5v887h61v-887c0 -144.667 47.167 -265.167 141.5 -361.5
s211.166 -144.5 350.499 -144.5zM543.002 1761c0 34 17 51 51 51s51 -17 51 -51s-17 -51 -51 -51s-51 17 -51 51zM870.002 1761c0 34 17.167 51 51.5 51s51.5 -17 51.5 -51s-17.167 -51 -51.5 -51s-51.5 17 -51.5 51z" />
    <glyph glyph-name="Yacute" unicode="&#xdd;" horiz-adv-x="1249" 
d="M133 1434l492 -861l491 861h72l-533 -932v-502h-61v502l-533 932h72zM604 1628l154 256h71l-174 -256h-51z" />
    <glyph glyph-name="Thorn" unicode="&#xde;" horiz-adv-x="1300" 
d="M297 1188v-901h338c142 0 257.667 42.667 347 128s134 192.833 134 322.5s-44.667 237.167 -134 322.5s-205 128 -347 128h-338zM297 1249h338.002c157.333 0 287.166 -49.167 389.499 -147.5s153.5 -219.833 153.5 -364.5s-51.333 -266.167 -154 -364.5
s-232.334 -147.5 -389.001 -147.5h-338v-266h-61v1516h61v-226z" />
    <glyph glyph-name="germandbls" unicode="&#xdf;" horiz-adv-x="1167" 
d="M717 788c8 -1.33301 19.166 -4.00195 33.499 -8.00195s40 -15.167 77 -33.5s69.167 -40.166 96.5 -65.499s52.5 -62.166 75.5 -110.499s34.5 -101.833 34.5 -160.5c0 -113.333 -40.5 -210 -121.5 -290s-180.5 -120 -298.5 -120h-61v61h61
c102.667 0 188.167 33.5 256.5 100.5s102.5 149.833 102.5 248.5c0 92.667 -34.5 172.167 -103.5 238.5s-154.167 99.5 -255.5 99.5h-61v61h10c86 0 158.667 29 218 87s89 128 89 210c0 78 -29.667 145.333 -89 202s-132 85 -218 85c-91.333 0 -167 -28.667 -227 -86
s-90 -127.666 -90 -210.999v-1096h-62v1096c0 98 36.5 182.167 109.5 252.5s162.833 105.5 269.5 105.5c101.333 0 188.166 -34.833 260.499 -104.5s108.5 -150.834 108.5 -243.501c0 -44 -7.5 -85 -22.5 -123s-33.167 -68.333 -54.5 -91s-42.166 -42.167 -62.499 -58.5
s-38.166 -27.833 -53.499 -34.5z" />
    <glyph glyph-name="agrave" unicode="&#xe0;" horiz-adv-x="1034" 
d="M379 543l398.997 70.999v11c0 96.667 -27.667 173.667 -83 231s-126.666 86 -213.999 86c-57.333 0 -110.833 -13 -160.5 -39s-84.834 -51.333 -105.501 -76l-31 -39l-41 41c2.66699 4 7.16699 10.167 13.5 18.5s20 22.5 41 42.5s43.5 37.833 67.5 53.5
s55.5 29.667 94.5 42s79.5 18.5 121.5 18.5c104 0 189.833 -35.167 257.5 -105.5s101.5 -161.5 101.5 -273.5v-625h-62v205c-2.66699 -5.33301 -6.66699 -13.166 -12 -23.499s-18.666 -28.5 -39.999 -54.5s-44.666 -48.833 -69.999 -68.5s-60.166 -37.667 -104.499 -54
s-91.5 -24.5 -141.5 -24.5c-94 0 -172.167 27.5 -234.5 82.5s-93.5 119.5 -93.5 193.5c0 156 99 251.667 297 287zM409.997 38.999c102.667 0 189.668 36.832 261.001 110.499s107 163.834 107 270.501v133l-399 -72c-76.667 -13.333 -135.167 -39.833 -175.5 -79.5
s-60.5 -88.167 -60.5 -145.5c0 -58.667 24.667 -109.5 74 -152.5s113.666 -64.5 192.999 -64.5zM388.998 1423l154 -256h-51l-175 256h72z" />
    <glyph glyph-name="aacute" unicode="&#xe1;" horiz-adv-x="1034" 
d="M379 543l398.997 70.999v11c0 96.667 -27.667 173.667 -83 231s-126.666 86 -213.999 86c-57.333 0 -110.833 -13 -160.5 -39s-84.834 -51.333 -105.501 -76l-31 -39l-41 41c2.66699 4 7.16699 10.167 13.5 18.5s20 22.5 41 42.5s43.5 37.833 67.5 53.5
s55.5 29.667 94.5 42s79.5 18.5 121.5 18.5c104 0 189.833 -35.167 257.5 -105.5s101.5 -161.5 101.5 -273.5v-625h-62v205c-2.66699 -5.33301 -6.66699 -13.166 -12 -23.499s-18.666 -28.5 -39.999 -54.5s-44.666 -48.833 -69.999 -68.5s-60.166 -37.667 -104.499 -54
s-91.5 -24.5 -141.5 -24.5c-94 0 -172.167 27.5 -234.5 82.5s-93.5 119.5 -93.5 193.5c0 156 99 251.667 297 287zM409.997 38.999c102.667 0 189.668 36.832 261.001 110.499s107 163.834 107 270.501v133l-399 -72c-76.667 -13.333 -135.167 -39.833 -175.5 -79.5
s-60.5 -88.167 -60.5 -145.5c0 -58.667 24.667 -109.5 74 -152.5s113.666 -64.5 192.999 -64.5zM470.998 1157l154 256h71l-174 -256h-51z" />
    <glyph glyph-name="acircumflex" unicode="&#xe2;" horiz-adv-x="1034" 
d="M379 543l398.997 70.999v11c0 96.667 -27.667 173.667 -83 231s-126.666 86 -213.999 86c-57.333 0 -110.833 -13 -160.5 -39s-84.834 -51.333 -105.501 -76l-31 -39l-41 41c2.66699 4 7.16699 10.167 13.5 18.5s20 22.5 41 42.5s43.5 37.833 67.5 53.5
s55.5 29.667 94.5 42s79.5 18.5 121.5 18.5c104 0 189.833 -35.167 257.5 -105.5s101.5 -161.5 101.5 -273.5v-625h-62v205c-2.66699 -5.33301 -6.66699 -13.166 -12 -23.499s-18.666 -28.5 -39.999 -54.5s-44.666 -48.833 -69.999 -68.5s-60.166 -37.667 -104.499 -54
s-91.5 -24.5 -141.5 -24.5c-94 0 -172.167 27.5 -234.5 82.5s-93.5 119.5 -93.5 193.5c0 156 99 251.667 297 287zM409.997 38.999c102.667 0 189.668 36.832 261.001 110.499s107 163.834 107 270.501v133l-399 -72c-76.667 -13.333 -135.167 -39.833 -175.5 -79.5
s-60.5 -88.167 -60.5 -145.5c0 -58.667 24.667 -109.5 74 -152.5s113.666 -64.5 192.999 -64.5zM542.998 1413l215 -256h-72l-174 205l-174 -205h-72l215 256h62z" />
    <glyph glyph-name="atilde" unicode="&#xe3;" horiz-adv-x="1034" 
d="M379 543l398.997 70.999v11c0 96.667 -27.667 173.667 -83 231s-126.666 86 -213.999 86c-57.333 0 -110.833 -13 -160.5 -39s-84.834 -51.333 -105.501 -76l-31 -39l-41 41c2.66699 4 7.16699 10.167 13.5 18.5s20 22.5 41 42.5s43.5 37.833 67.5 53.5
s55.5 29.667 94.5 42s79.5 18.5 121.5 18.5c104 0 189.833 -35.167 257.5 -105.5s101.5 -161.5 101.5 -273.5v-625h-62v205c-2.66699 -5.33301 -6.66699 -13.166 -12 -23.499s-18.666 -28.5 -39.999 -54.5s-44.666 -48.833 -69.999 -68.5s-60.166 -37.667 -104.499 -54
s-91.5 -24.5 -141.5 -24.5c-94 0 -172.167 27.5 -234.5 82.5s-93.5 119.5 -93.5 193.5c0 156 99 251.667 297 287zM409.997 38.999c102.667 0 189.668 36.832 261.001 110.499s107 163.834 107 270.501v133l-399 -72c-76.667 -13.333 -135.167 -39.833 -175.5 -79.5
s-60.5 -88.167 -60.5 -145.5c0 -58.667 24.667 -109.5 74 -152.5s113.666 -64.5 192.999 -64.5zM378.998 1321c-27.333 0 -47.833 -10.999 -61.5 -32.999s-20.5 -62.333 -20.5 -121h-61c0 143.333 47.667 215 143 215c30 0 57.667 -7.83301 83 -23.5
s45.833 -33.334 61.5 -53.001s34 -37.334 55 -53.001s43.167 -23.5 66.5 -23.5c27.333 0 47.833 10.833 61.5 32.5s20.5 61.834 20.5 120.501h61c0 -143.333 -47.667 -215 -143 -215c-30 0 -57.667 7.83301 -83 23.5s-45.833 33.5 -61.5 53.5s-34 37.833 -55 53.5
s-43.167 23.5 -66.5 23.5z" />
    <glyph glyph-name="adieresis" unicode="&#xe4;" horiz-adv-x="1034" 
d="M379 543l398.997 70.999v11c0 96.667 -27.667 173.667 -83 231s-126.666 86 -213.999 86c-57.333 0 -110.833 -13 -160.5 -39s-84.834 -51.333 -105.501 -76l-31 -39l-41 41c2.66699 4 7.16699 10.167 13.5 18.5s20 22.5 41 42.5s43.5 37.833 67.5 53.5
s55.5 29.667 94.5 42s79.5 18.5 121.5 18.5c104 0 189.833 -35.167 257.5 -105.5s101.5 -161.5 101.5 -273.5v-625h-62v205c-2.66699 -5.33301 -6.66699 -13.166 -12 -23.499s-18.666 -28.5 -39.999 -54.5s-44.666 -48.833 -69.999 -68.5s-60.166 -37.667 -104.499 -54
s-91.5 -24.5 -141.5 -24.5c-94 0 -172.167 27.5 -234.5 82.5s-93.5 119.5 -93.5 193.5c0 156 99 251.667 297 287zM409.997 38.999c102.667 0 189.668 36.832 261.001 110.499s107 163.834 107 270.501v133l-399 -72c-76.667 -13.333 -135.167 -39.833 -175.5 -79.5
s-60.5 -88.167 -60.5 -145.5c0 -58.667 24.667 -109.5 74 -152.5s113.666 -64.5 192.999 -64.5zM296.998 1300.5c0 34.333 17 51.5 51 51.5s51 -17.167 51 -51.5s-17 -51.5 -51 -51.5s-51 17.167 -51 51.5zM624.998 1300.5c0 34.333 17 51.5 51 51.5s51 -17.167 51 -51.5
s-17 -51.5 -51 -51.5s-51 17.167 -51 51.5z" />
    <glyph glyph-name="aring" unicode="&#xe5;" horiz-adv-x="1034" 
d="M379 543l398.997 70.999v11c0 96.667 -27.667 173.667 -83 231s-126.666 86 -213.999 86c-57.333 0 -110.833 -13 -160.5 -39s-84.834 -51.333 -105.501 -76l-31 -39l-41 41c2.66699 4 7.16699 10.167 13.5 18.5s20 22.5 41 42.5s43.5 37.833 67.5 53.5
s55.5 29.667 94.5 42s79.5 18.5 121.5 18.5c104 0 189.833 -35.167 257.5 -105.5s101.5 -161.5 101.5 -273.5v-625h-62v205c-2.66699 -5.33301 -6.66699 -13.166 -12 -23.499s-18.666 -28.5 -39.999 -54.5s-44.666 -48.833 -69.999 -68.5s-60.166 -37.667 -104.499 -54
s-91.5 -24.5 -141.5 -24.5c-94 0 -172.167 27.5 -234.5 82.5s-93.5 119.5 -93.5 193.5c0 156 99 251.667 297 287zM409.997 38.999c102.667 0 189.668 36.832 261.001 110.499s107 163.834 107 270.501v133l-399 -72c-76.667 -13.333 -135.167 -39.833 -175.5 -79.5
s-60.5 -88.167 -60.5 -145.5c0 -58.667 24.667 -109.5 74 -152.5s113.666 -64.5 192.999 -64.5zM388.998 1310.5c0 -35.667 13.333 -66.667 40 -93s57.667 -39.5 93 -39.5s66.333 13.167 93 39.5s40 57.333 40 93s-13.333 66.834 -40 93.501s-57.667 40 -93 40
s-66.333 -13.333 -93 -40s-40 -57.834 -40 -93.501zM716.998 1311c0 -52 -19.833 -97.5 -59.5 -136.5s-84.834 -58.5 -135.501 -58.5s-95.667 19.5 -135 58.5s-59 84.5 -59 136.5s19.667 97.333 59 136s84.333 58 135 58s95.834 -19.333 135.501 -58s59.5 -84 59.5 -136z
" />
    <glyph glyph-name="ae" unicode="&#xe6;" horiz-adv-x="1751" 
d="M1638 481l-798 -0.000976562c5.33301 -126.667 45.5 -231.667 120.5 -315s164.5 -125 268.5 -125c39.333 0 77.5 6.16699 114.5 18.5s67 27 90 44s43.5 34 61.5 51s31 31.833 39 44.5l12 18l51 -33c-2.66699 -5.33301 -7.33398 -12.833 -14.001 -22.5
s-21.667 -26 -45 -49s-48 -43.333 -74 -61s-60.167 -34 -102.5 -49s-86.5 -22.5 -132.5 -22.5c-57.333 0 -110.666 10.5 -159.999 31.5s-88.666 46.5 -117.999 76.5s-54.5 60 -75.5 90s-35.833 55.333 -44.5 76l-12 33l-11 -33c-4.66699 -14 -17.667 -38.667 -39 -74
s-46 -66.666 -74 -93.999s-67.167 -51.833 -117.5 -73.5s-106.166 -32.5 -167.499 -32.5c-94 0 -172.167 27.5 -234.5 82.5s-93.5 119.5 -93.5 193.5c0 79.333 30.667 147 92 203s140 84 236 84h368v82c0 91.333 -28.667 167 -86 227s-127.666 90 -210.999 90
c-57.333 0 -110.833 -13 -160.5 -39s-84.834 -51.333 -105.501 -76l-31 -39l-41 41c2.66699 4 7.16699 10.167 13.5 18.5s20 22.5 41 42.5s43.5 37.833 67.5 53.5s55.5 29.667 94.5 42s79.5 18.5 121.5 18.5c53.333 0 101.833 -9.66699 145.5 -29
s77.5 -42.666 101.5 -69.999s44.167 -54.333 60.5 -81s27.166 -49.334 32.499 -68.001l8 -29c2.66699 6.66699 7.16699 16.5 13.5 29.5s20.833 35.167 43.5 66.5s47.167 59.333 73.5 84s62.166 47 107.499 67s92.333 30 141 30c110.667 0 210 -48.833 298 -146.5
s132 -216.167 132 -355.5v-21zM1208.5 941.999c-94.333 0 -179.333 -40.333 -255 -121s-113.5 -173.334 -113.5 -278.001h737c-5.33301 110.667 -44.5 204.834 -117.5 282.501s-156.667 116.5 -251 116.5zM410 40.999c102.667 0 189.667 36.501 261 109.501
s107 163.5 107 271.5v59h-368c-79.333 0 -143.666 -21.833 -192.999 -65.5s-74 -96.834 -74 -159.501c0 -58.667 24.667 -109.167 74 -151.5s113.666 -63.5 192.999 -63.5z" />
    <glyph glyph-name="ccedilla" unicode="&#xe7;" horiz-adv-x="1064" 
d="M164 491.5c0 -127 41.333 -233.835 124 -320.502s181.334 -130 296.001 -130c39.333 0 77.833 6.5 115.5 19.5s68.667 28.333 93 46s45.833 35.334 64.5 53.001s32 32.834 40 45.501l14 20l52 -41c-4 -5.33301 -9.5 -12.333 -16.5 -21s-22.167 -24.667 -45.5 -48
s-48.333 -43.833 -75 -61.5s-61.167 -34 -103.5 -49s-85.166 -23.167 -128.499 -24.5l-51 -103c13.333 6.66699 30.333 10 51 10c40.667 0 74.667 -13.667 102 -41s41 -61.333 41 -102c0 -42 -16.333 -78.167 -49 -108.5s-74.334 -45.5 -125.001 -45.5
c-24.667 0 -49.834 4.16699 -75.501 12.5s-44.834 16.5 -57.501 24.5l-20 15l30 41c34 -27.333 75 -41 123 -41c34 0 63 10.5 87 31.5s36 44.5 36 70.5s-8.83301 47.833 -26.5 65.5s-39.5 26.5 -65.5 26.5c-12 0 -23.833 -1.66699 -35.5 -5s-20.5 -7 -26.5 -11l-10 -4
l-41 41l62 125c-121.333 10.667 -225.166 64.834 -311.499 162.501s-129.5 213.5 -129.5 347.5c0 142 47.833 262.833 143.5 362.5s208.5 149.5 338.5 149.5c46.667 0 91 -7.16699 133 -21.5s77.333 -31.5 106 -51.5s54 -39.833 76 -59.5s37.667 -37.167 47 -52.5l17 -20
l-52 -41c-2.66699 5.33301 -7 12.166 -13 20.499s-19.333 23 -40 44s-42.5 39.667 -65.5 56s-53.667 31 -92 44s-77.166 19.5 -116.499 19.5c-114.667 0 -213.334 -43.333 -296.001 -130s-124 -193.5 -124 -320.5z" />
    <glyph glyph-name="egrave" unicode="&#xe8;" horiz-adv-x="1126" 
d="M1014 461l-850.002 -0.00292969c5.33301 -117.333 48.333 -216.666 129 -297.999s177.667 -122 291 -122c40.667 0 79.834 6.5 117.501 19.5s68.667 28.333 93 46s45.833 35.334 64.5 53.001s32 32.834 40 45.501l12 20l52 -41c-4 -5.33301 -9.5 -12.833 -16.5 -22.5
s-22.167 -26 -45.5 -49s-48.666 -43.333 -75.999 -61s-62.833 -34 -106.5 -49s-88.5 -22.5 -134.5 -22.5c-130 0 -242.833 49.833 -338.5 149.5s-143.5 220.5 -143.5 362.5c0 140.667 46.833 261.167 140.5 361.5s200.5 150.5 320.5 150.5s225.167 -49.167 315.5 -147.5
s135.5 -219.833 135.5 -364.5v-31zM563.498 941.997c-103.667 0 -196.167 -41.999 -277.5 -125.999s-122 -182 -122 -294h788c-5.33301 121.333 -45.5 221.666 -120.5 300.999s-164.333 119 -268 119zM450.998 1413l153 -256h-51l-174 256h72z" />
    <glyph glyph-name="eacute" unicode="&#xe9;" horiz-adv-x="1126" 
d="M1014 461l-850.002 -0.00292969c5.33301 -117.333 48.333 -216.666 129 -297.999s177.667 -122 291 -122c40.667 0 79.834 6.5 117.501 19.5s68.667 28.333 93 46s45.833 35.334 64.5 53.001s32 32.834 40 45.501l12 20l52 -41c-4 -5.33301 -9.5 -12.833 -16.5 -22.5
s-22.167 -26 -45.5 -49s-48.666 -43.333 -75.999 -61s-62.833 -34 -106.5 -49s-88.5 -22.5 -134.5 -22.5c-130 0 -242.833 49.833 -338.5 149.5s-143.5 220.5 -143.5 362.5c0 140.667 46.833 261.167 140.5 361.5s200.5 150.5 320.5 150.5s225.167 -49.167 315.5 -147.5
s135.5 -219.833 135.5 -364.5v-31zM563.498 941.997c-103.667 0 -196.167 -41.999 -277.5 -125.999s-122 -182 -122 -294h788c-5.33301 121.333 -45.5 221.666 -120.5 300.999s-164.333 119 -268 119zM531.998 1157l154 256h72l-174 -256h-52z" />
    <glyph glyph-name="ecircumflex" unicode="&#xea;" horiz-adv-x="1126" 
d="M1014 461l-850.002 -0.00292969c5.33301 -117.333 48.333 -216.666 129 -297.999s177.667 -122 291 -122c40.667 0 79.834 6.5 117.501 19.5s68.667 28.333 93 46s45.833 35.334 64.5 53.001s32 32.834 40 45.501l12 20l52 -41c-4 -5.33301 -9.5 -12.833 -16.5 -22.5
s-22.167 -26 -45.5 -49s-48.666 -43.333 -75.999 -61s-62.833 -34 -106.5 -49s-88.5 -22.5 -134.5 -22.5c-130 0 -242.833 49.833 -338.5 149.5s-143.5 220.5 -143.5 362.5c0 140.667 46.833 261.167 140.5 361.5s200.5 150.5 320.5 150.5s225.167 -49.167 315.5 -147.5
s135.5 -219.833 135.5 -364.5v-31zM563.498 941.997c-103.667 0 -196.167 -41.999 -277.5 -125.999s-122 -182 -122 -294h788c-5.33301 121.333 -45.5 221.666 -120.5 300.999s-164.333 119 -268 119zM593.998 1413l215 -256h-72l-174 205l-174 -205h-72l215 256h62z" />
    <glyph glyph-name="edieresis" unicode="&#xeb;" horiz-adv-x="1126" 
d="M1014 461l-850.002 -0.00292969c5.33301 -117.333 48.333 -216.666 129 -297.999s177.667 -122 291 -122c40.667 0 79.834 6.5 117.501 19.5s68.667 28.333 93 46s45.833 35.334 64.5 53.001s32 32.834 40 45.501l12 20l52 -41c-4 -5.33301 -9.5 -12.833 -16.5 -22.5
s-22.167 -26 -45.5 -49s-48.666 -43.333 -75.999 -61s-62.833 -34 -106.5 -49s-88.5 -22.5 -134.5 -22.5c-130 0 -242.833 49.833 -338.5 149.5s-143.5 220.5 -143.5 362.5c0 140.667 46.833 261.167 140.5 361.5s200.5 150.5 320.5 150.5s225.167 -49.167 315.5 -147.5
s135.5 -219.833 135.5 -364.5v-31zM563.498 941.997c-103.667 0 -196.167 -41.999 -277.5 -125.999s-122 -182 -122 -294h788c-5.33301 121.333 -45.5 221.666 -120.5 300.999s-164.333 119 -268 119zM347.998 1300.5c0 34.333 17.167 51.5 51.5 51.5
s51.5 -17.167 51.5 -51.5s-17.167 -51.5 -51.5 -51.5s-51.5 17.167 -51.5 51.5zM675.998 1300.5c0 34.333 17 51.5 51 51.5s51 -17.167 51 -51.5s-17 -51.5 -51 -51.5s-51 17.167 -51 51.5z" />
    <glyph glyph-name="igrave" unicode="&#xec;" horiz-adv-x="450" 
d="M92 1423l154 -256h-51l-175 256h72zM246 983v-983h-62v983h62z" />
    <glyph glyph-name="iacute" unicode="&#xed;" horiz-adv-x="450" 
d="M184 1157l154 256h72l-174 -256h-52zM246 983v-983h-62v983h62z" />
    <glyph glyph-name="icircumflex" unicode="&#xee;" horiz-adv-x="450" 
d="M246 983v-983h-62v983h62zM246 1413l215 -256h-72l-174 205l-174 -205h-72l215 256h62z" />
    <glyph glyph-name="idieresis" unicode="&#xef;" horiz-adv-x="450" 
d="M0 1300.5c0 34.333 17 51.5 51 51.5s51 -17.167 51 -51.5s-17 -51.5 -51 -51.5s-51 17.167 -51 51.5zM328 1300.5c0 34.333 17 51.5 51 51.5s51 -17.167 51 -51.5s-17 -51.5 -51 -51.5s-51 17.167 -51 51.5zM246 983v-983h-62v983h62z" />
    <glyph glyph-name="eth" unicode="&#xf0;" horiz-adv-x="1167" 
d="M829 1546l-224.998 -156.996c10.667 -6.66699 25.667 -16.667 45 -30s53.166 -43.5 101.499 -90.5s91 -98.167 128 -153.5s70.5 -129 100.5 -221s45 -188.667 45 -290c0 -191.333 -46 -343.166 -138 -455.499s-203 -168.5 -333 -168.5
c-118.667 0 -223.5 47.333 -314.5 142s-136.5 207.5 -136.5 338.5s46.5 245.667 139.5 344s196.833 147.5 311.5 147.5c57.333 0 110.5 -10.833 159.5 -32.5s88.167 -47.834 117.5 -78.501s54.666 -61.834 75.999 -93.501s36 -58.167 44 -79.5l13 -33
c-1.33301 91.333 -16.5 178.666 -45.5 261.999s-62.5 151.666 -100.5 204.999s-76.5 99.666 -115.5 138.999s-72.167 68 -99.5 86l-39 27l-235 -176l-31 51l225 160c-39.333 24.667 -81.833 47.5 -127.5 68.5s-81.5 36.167 -107.5 45.5l-41 13l30 51
c95.333 -34 191 -82 287 -144l236 174zM942.002 461.004c0 116 -39.999 216.667 -119.999 302s-169.833 128 -269.5 128s-189.334 -42.667 -269.001 -128s-119.5 -186 -119.5 -302s38.833 -215 116.5 -297s168.5 -123 272.5 -123s194.833 41 272.5 123s116.5 181 116.5 297z
" />
    <glyph glyph-name="ntilde" unicode="&#xf1;" horiz-adv-x="1177" 
d="M236 983l-0.00195312 -205.001c2.66699 5.33301 6.33398 13.166 11.001 23.499s16.5 28.5 35.5 54.5s40.833 48.833 65.5 68.5s58.834 37.834 102.501 54.501s91.5 25 143.5 25c109.333 0 201.5 -39.667 276.5 -119s112.5 -179.666 112.5 -300.999v-584h-61v584
c0 106.667 -31.167 193 -93.5 259s-140.5 99 -234.5 99c-104 0 -189.667 -35.833 -257 -107.5s-101 -165.5 -101 -281.5v-553h-62v983h62zM460.998 1321c-27.333 0 -47.833 -10.999 -61.5 -32.999s-20.5 -62.333 -20.5 -121h-62c0 143.333 48 215 144 215
c30 0 57.667 -7.83301 83 -23.5s45.833 -33.334 61.5 -53.001s34 -37.334 55 -53.001s43.167 -23.5 66.5 -23.5c27.333 0 47.833 10.833 61.5 32.5s20.5 61.834 20.5 120.501h61c0 -143.333 -47.667 -215 -143 -215c-30 0 -57.667 7.83301 -83 23.5s-45.833 33.5 -61.5 53.5
s-34 37.833 -55 53.5s-43.167 23.5 -66.5 23.5z" />
    <glyph glyph-name="ograve" unicode="&#xf2;" 
d="M1004 492c0 125.333 -41.6689 231.667 -125.002 319s-181.666 131 -294.999 131c-114.667 0 -213.334 -43.333 -296.001 -130s-124 -193.5 -124 -320.5s41.333 -233.833 124 -320.5s181.334 -130 296.001 -130s213.334 43.5 296.001 130.5s124 193.833 124 320.5z
M1065 492.001c0 -142 -47.833 -262.833 -143.5 -362.5s-208.334 -149.5 -338.001 -149.5s-242.334 49.833 -338.001 149.5s-143.5 220.5 -143.5 362.5s47.833 262.833 143.5 362.5s208.334 149.5 338.001 149.5s242.334 -49.833 338.001 -149.5s143.5 -220.5 143.5 -362.5z
M460.998 1423l153 -256h-51l-174 256h72z" />
    <glyph glyph-name="oacute" unicode="&#xf3;" 
d="M1004 492c0 125.333 -41.6689 231.667 -125.002 319s-181.666 131 -294.999 131c-114.667 0 -213.334 -43.333 -296.001 -130s-124 -193.5 -124 -320.5s41.333 -233.833 124 -320.5s181.334 -130 296.001 -130s213.334 43.5 296.001 130.5s124 193.833 124 320.5z
M1065 492.001c0 -142 -47.833 -262.833 -143.5 -362.5s-208.334 -149.5 -338.001 -149.5s-242.334 49.833 -338.001 149.5s-143.5 220.5 -143.5 362.5s47.833 262.833 143.5 362.5s208.334 149.5 338.001 149.5s242.334 -49.833 338.001 -149.5s143.5 -220.5 143.5 -362.5z
M552.998 1157l154 256h71l-174 -256h-51z" />
    <glyph glyph-name="ocircumflex" unicode="&#xf4;" 
d="M1004 492c0 125.333 -41.6689 231.667 -125.002 319s-181.666 131 -294.999 131c-114.667 0 -213.334 -43.333 -296.001 -130s-124 -193.5 -124 -320.5s41.333 -233.833 124 -320.5s181.334 -130 296.001 -130s213.334 43.5 296.001 130.5s124 193.833 124 320.5z
M1065 492.001c0 -142 -47.833 -262.833 -143.5 -362.5s-208.334 -149.5 -338.001 -149.5s-242.334 49.833 -338.001 149.5s-143.5 220.5 -143.5 362.5s47.833 262.833 143.5 362.5s208.334 149.5 338.001 149.5s242.334 -49.833 338.001 -149.5s143.5 -220.5 143.5 -362.5z
M613.998 1413l215 -256h-71l-174 205l-174 -205h-72l215 256h61z" />
    <glyph glyph-name="otilde" unicode="&#xf5;" 
d="M1004 492c0 125.333 -41.6689 231.667 -125.002 319s-181.666 131 -294.999 131c-114.667 0 -213.334 -43.333 -296.001 -130s-124 -193.5 -124 -320.5s41.333 -233.833 124 -320.5s181.334 -130 296.001 -130s213.334 43.5 296.001 130.5s124 193.833 124 320.5z
M1065 492.001c0 -142 -47.833 -262.833 -143.5 -362.5s-208.334 -149.5 -338.001 -149.5s-242.334 49.833 -338.001 149.5s-143.5 220.5 -143.5 362.5s47.833 262.833 143.5 362.5s208.334 149.5 338.001 149.5s242.334 -49.833 338.001 -149.5s143.5 -220.5 143.5 -362.5z
M450.998 1321c-27.333 0 -47.832 -10.999 -61.499 -32.999s-20.5 -62.333 -20.5 -121h-62c0 143.333 48 215 144 215c30 0 57.5 -7.83301 82.5 -23.5s45.333 -33.334 61 -53.001s34.167 -37.334 55.5 -53.001s43.666 -23.5 66.999 -23.5c27.333 0 47.833 10.833 61.5 32.5
s20.5 61.834 20.5 120.501h61c0 -143.333 -47.667 -215 -143 -215c-30 0 -57.667 7.83301 -83 23.5s-45.833 33.5 -61.5 53.5s-34 37.833 -55 53.5s-43.167 23.5 -66.5 23.5z" />
    <glyph glyph-name="odieresis" unicode="&#xf6;" 
d="M1004 492c0 125.333 -41.6689 231.667 -125.002 319s-181.666 131 -294.999 131c-114.667 0 -213.334 -43.333 -296.001 -130s-124 -193.5 -124 -320.5s41.333 -233.833 124 -320.5s181.334 -130 296.001 -130s213.334 43.5 296.001 130.5s124 193.833 124 320.5z
M1065 492.001c0 -142 -47.833 -262.833 -143.5 -362.5s-208.334 -149.5 -338.001 -149.5s-242.334 49.833 -338.001 149.5s-143.5 220.5 -143.5 362.5s47.833 262.833 143.5 362.5s208.334 149.5 338.001 149.5s242.334 -49.833 338.001 -149.5s143.5 -220.5 143.5 -362.5z
M357.998 1300.5c0 34.333 17.167 51.5 51.5 51.5s51.5 -17.167 51.5 -51.5s-17.167 -51.5 -51.5 -51.5s-51.5 17.167 -51.5 51.5zM685.998 1300.5c0 34.333 17 51.5 51 51.5s51 -17.167 51 -51.5s-17 -51.5 -51 -51.5s-51 17.167 -51 51.5z" />
    <glyph glyph-name="divide" unicode="&#xf7;" horiz-adv-x="1003" 
d="M911 635v-62h-819v62h819zM451 983c0 34 17 51 51 51s51 -17 51 -51s-17 -51 -51 -51s-51 17 -51 51zM451 225c0 34 17 51 51 51s51 -17 51 -51s-17 -51 -51 -51s-51 17 -51 51z" />
    <glyph glyph-name="oslash" unicode="&#xf8;" 
d="M1065 492c0 -142 -47.833 -262.833 -143.5 -362.5s-208.167 -149.5 -337.5 -149.5c-122.667 0 -230.667 44.333 -324 133l-137 -144l-41 41l139 146c-79.333 94 -119 206 -119 336c0 142 47.833 262.833 143.5 362.5s208.5 149.5 338.5 149.5
c121.333 0 228.333 -45.333 321 -136l139 146l41 -41l-139 -148c79.333 -93.333 119 -204.333 119 -333zM164 492c0 -113.333 33.334 -210.999 100.001 -292.999l600 626c-80.667 78 -174 117 -280 117c-114.667 0 -213.334 -43.333 -296.001 -130
s-124 -193.334 -124 -320.001zM1004 492.001c0 109.333 -33.6689 206 -101.002 290l-600 -626c80.667 -76.667 174.334 -115 281.001 -115c114.667 0 213.334 43.5 296.001 130.5s124 193.833 124 320.5z" />
    <glyph glyph-name="ugrave" unicode="&#xf9;" 
d="M922 0l0.000976562 204.999c-2.66699 -5.33301 -6.5 -13.166 -11.5 -23.499s-17.667 -28.5 -38 -54.5s-42.833 -48.833 -67.5 -68.5s-58.834 -37.667 -102.501 -54s-90.167 -24.5 -139.5 -24.5c-109.333 0 -201.5 39.5 -276.5 118.5s-112.5 179.167 -112.5 300.5v584h62
v-584c0 -106.667 31 -193 93 -259s140 -99 234 -99c98 0 182.333 36.5 253 109.5s106 162.833 106 269.5v563h61v-983h-61zM461.001 1423l153 -256h-51l-174 256h72z" />
    <glyph glyph-name="uacute" unicode="&#xfa;" 
d="M922 0l0.000976562 204.999c-2.66699 -5.33301 -6.5 -13.166 -11.5 -23.499s-17.667 -28.5 -38 -54.5s-42.833 -48.833 -67.5 -68.5s-58.834 -37.667 -102.501 -54s-90.167 -24.5 -139.5 -24.5c-109.333 0 -201.5 39.5 -276.5 118.5s-112.5 179.167 -112.5 300.5v584h62
v-584c0 -106.667 31 -193 93 -259s140 -99 234 -99c98 0 182.333 36.5 253 109.5s106 162.833 106 269.5v563h61v-983h-61zM543.001 1157l153 256h72l-174 -256h-51z" />
    <glyph glyph-name="ucircumflex" unicode="&#xfb;" 
d="M922 0l0.000976562 204.999c-2.66699 -5.33301 -6.5 -13.166 -11.5 -23.499s-17.667 -28.5 -38 -54.5s-42.833 -48.833 -67.5 -68.5s-58.834 -37.667 -102.501 -54s-90.167 -24.5 -139.5 -24.5c-109.333 0 -201.5 39.5 -276.5 118.5s-112.5 179.167 -112.5 300.5v584h62
v-584c0 -106.667 31 -193 93 -259s140 -99 234 -99c98 0 182.333 36.5 253 109.5s106 162.833 106 269.5v563h61v-983h-61zM614.001 1413l215 -256h-71l-174 205l-174 -205h-72l215 256h61z" />
    <glyph glyph-name="udieresis" unicode="&#xfc;" 
d="M922 0l0.000976562 204.999c-2.66699 -5.33301 -6.5 -13.166 -11.5 -23.499s-17.667 -28.5 -38 -54.5s-42.833 -48.833 -67.5 -68.5s-58.834 -37.667 -102.501 -54s-90.167 -24.5 -139.5 -24.5c-109.333 0 -201.5 39.5 -276.5 118.5s-112.5 179.167 -112.5 300.5v584h62
v-584c0 -106.667 31 -193 93 -259s140 -99 234 -99c98 0 182.333 36.5 253 109.5s106 162.833 106 269.5v563h61v-983h-61zM358.001 1290c0 34 17.167 51 51.5 51s51.5 -17 51.5 -51s-17.167 -51 -51.5 -51s-51.5 17 -51.5 51zM686.001 1290c0 34 17 51 51 51s51 -17 51 -51
s-17 -51 -51 -51s-51 17 -51 51z" />
    <glyph glyph-name="yacute" unicode="&#xfd;" horiz-adv-x="962" 
d="M358 -205l82.001 204.999l-399 983h61l369 -901l369 901h61l-481 -1188c-31.333 -79.333 -66.833 -136.666 -106.5 -171.999s-89.5 -53 -149.5 -53c-15.333 0 -29.833 1.66699 -43.5 5s-23.834 7 -30.501 11l-8 4v62c20.667 -13.333 48 -20.333 82 -21
c85.333 0 150 54.667 194 164zM461.001 1157l153 256h72l-174 -256h-51z" />
    <glyph glyph-name="thorn" unicode="&#xfe;" horiz-adv-x="1218" 
d="M246 246l-0.00195312 -676h-62v1864h62v-697c2.66699 6.66699 7.33398 16.167 14.001 28.5s22 34 46 65s50.333 58 79 81s66.167 44.167 112.5 63.5s95.5 29 147.5 29c116 0 220.167 -50.667 312.5 -152s138.5 -221.5 138.5 -360.5s-46.167 -259 -138.5 -360
s-196.5 -151.5 -312.5 -151.5c-52 0 -101.167 9.16699 -147.5 27.5s-84.166 40.5 -113.499 66.5s-55 51.833 -77 77.5s-37.667 47.5 -47 65.5zM644.998 41c101.333 0 191.5 44 270.5 132s118.5 194.167 118.5 318.5s-39.5 230.5 -118.5 318.5s-169.167 132 -270.5 132
c-105.333 0 -198.166 -43.667 -278.499 -131s-120.5 -193.833 -120.5 -319.5s40.167 -232.167 120.5 -319.5s173.166 -131 278.499 -131z" />
    <glyph glyph-name="ydieresis" unicode="&#xff;" horiz-adv-x="962" 
d="M358 -205l82.001 204.999l-399 983h61l369 -901l369 901h61l-481 -1188c-31.333 -79.333 -66.833 -136.666 -106.5 -171.999s-89.5 -53 -149.5 -53c-15.333 0 -29.833 1.66699 -43.5 5s-23.834 7 -30.501 11l-8 4v62c20.667 -13.333 48 -20.333 82 -21
c85.333 0 150 54.667 194 164zM256.001 1300.5c0 34.333 17 51.5 51 51.5s51 -17.167 51 -51.5s-17 -51.5 -51 -51.5s-51 17.167 -51 51.5zM584.001 1300.5c0 34.333 17 51.5 51 51.5s51 -17.167 51 -51.5s-17 -51.5 -51 -51.5s-51 17.167 -51 51.5z" />
    <glyph glyph-name="Amacron" unicode="&#x100;" horiz-adv-x="1372" 
d="M1044 502l-358 860l-358 -860h716zM1065 440h-758l-184 -440h-62l594 1434h62l594 -1434h-62zM952 1792v-61h-532v61h532z" />
    <glyph glyph-name="amacron" unicode="&#x101;" horiz-adv-x="1034" 
d="M379 543l398.997 70.999v11c0 96.667 -27.667 173.667 -83 231s-126.666 86 -213.999 86c-57.333 0 -110.833 -13 -160.5 -39s-84.834 -51.333 -105.501 -76l-31 -39l-41 41c2.66699 4 7.16699 10.167 13.5 18.5s20 22.5 41 42.5s43.5 37.833 67.5 53.5
s55.5 29.667 94.5 42s79.5 18.5 121.5 18.5c104 0 189.833 -35.167 257.5 -105.5s101.5 -161.5 101.5 -273.5v-625h-62v205c-2.66699 -5.33301 -6.66699 -13.166 -12 -23.499s-18.666 -28.5 -39.999 -54.5s-44.666 -48.833 -69.999 -68.5s-60.166 -37.667 -104.499 -54
s-91.5 -24.5 -141.5 -24.5c-94 0 -172.167 27.5 -234.5 82.5s-93.5 119.5 -93.5 193.5c0 156 99 251.667 297 287zM409.997 38.999c102.667 0 189.668 36.832 261.001 110.499s107 163.834 107 270.501v133l-399 -72c-76.667 -13.333 -135.167 -39.833 -175.5 -79.5
s-60.5 -88.167 -60.5 -145.5c0 -58.667 24.667 -109.5 74 -152.5s113.666 -64.5 192.999 -64.5zM787.998 1341v-61h-532v61h532z" />
    <glyph glyph-name="Abreve" unicode="&#x102;" horiz-adv-x="1372" 
d="M1044 502l-358 860l-358 -860h716zM1065 440h-758l-184 -440h-62l594 1434h62l594 -1434h-62zM686 1690c61.333 0 109.167 17 143.5 51s51.5 81.667 51.5 143h61c0 -76.667 -23.5 -138.5 -70.5 -185.5s-108.833 -70.5 -185.5 -70.5s-138.5 23.5 -185.5 70.5
s-70.5 108.833 -70.5 185.5h62c0 -61.333 17 -109 51 -143s81.667 -51 143 -51z" />
    <glyph glyph-name="abreve" unicode="&#x103;" horiz-adv-x="1034" 
d="M379 543l398.997 70.999v11c0 96.667 -27.667 173.667 -83 231s-126.666 86 -213.999 86c-57.333 0 -110.833 -13 -160.5 -39s-84.834 -51.333 -105.501 -76l-31 -39l-41 41c2.66699 4 7.16699 10.167 13.5 18.5s20 22.5 41 42.5s43.5 37.833 67.5 53.5
s55.5 29.667 94.5 42s79.5 18.5 121.5 18.5c104 0 189.833 -35.167 257.5 -105.5s101.5 -161.5 101.5 -273.5v-625h-62v205c-2.66699 -5.33301 -6.66699 -13.166 -12 -23.499s-18.666 -28.5 -39.999 -54.5s-44.666 -48.833 -69.999 -68.5s-60.166 -37.667 -104.499 -54
s-91.5 -24.5 -141.5 -24.5c-94 0 -172.167 27.5 -234.5 82.5s-93.5 119.5 -93.5 193.5c0 156 99 251.667 297 287zM409.997 38.999c102.667 0 189.668 36.832 261.001 110.499s107 163.834 107 270.501v133l-399 -72c-76.667 -13.333 -135.167 -39.833 -175.5 -79.5
s-60.5 -88.167 -60.5 -145.5c0 -58.667 24.667 -109.5 74 -152.5s113.666 -64.5 192.999 -64.5zM511.998 1219c61.333 0 109.168 17 143.501 51s51.5 81.667 51.5 143h61c0 -76.667 -23.5 -138.5 -70.5 -185.5s-108.833 -70.5 -185.5 -70.5s-138.5 23.5 -185.5 70.5
s-70.5 108.833 -70.5 185.5h61c0 -61.333 17.167 -109 51.5 -143s82.166 -51 143.499 -51z" />
    <glyph glyph-name="Aogonek" unicode="&#x104;" horiz-adv-x="1372" 
d="M1260 0h-10.998l-184 440h-758l-184 -440h-62l594 1434h62l594 -1434c-10.667 -9.33301 -24 -22.666 -40 -39.999s-37.333 -47.833 -64 -91.5s-40 -81.834 -40 -114.501c0 -31.333 11.667 -57.833 35 -79.5s52.666 -32.5 87.999 -32.5c22 0 43.167 3.33301 63.5 10
s35.5 13.334 45.5 20.001l14 11v-52c-34 -27.333 -75 -41 -123 -41c-50.667 0 -92.334 15.833 -125.001 47.5s-49 70.5 -49 116.5c0 39.333 12 79.666 36 120.999s48.333 72 73 92zM1044 502l-358 860l-358 -860h716z" />
    <glyph glyph-name="aogonek" unicode="&#x105;" horiz-adv-x="1034" 
d="M840 0l-10.999 -0.000976562c-10.667 -9.33301 -23.834 -22.666 -39.501 -39.999s-36.834 -47.833 -63.501 -91.5s-40 -81.834 -40 -114.501c0 -31.333 11.667 -57.833 35 -79.5s52.666 -32.5 87.999 -32.5c22 0 43.167 3.33301 63.5 10s35.5 13.334 45.5 20.001l14 11
v-52c-34 -27.333 -75 -41 -123 -41c-50.667 0 -92.334 15.833 -125.001 47.5s-49 70.5 -49 116.5c0 39.333 12 79.666 36 120.999s47.333 72 70 92l37 33v205c-2.66699 -5.33301 -6.66699 -13.166 -12 -23.499s-18.666 -28.5 -39.999 -54.5s-44.666 -48.833 -69.999 -68.5
s-60.166 -37.667 -104.499 -54s-91.5 -24.5 -141.5 -24.5c-94 0 -172.167 27.5 -234.5 82.5s-93.5 119.5 -93.5 193.5c0 155.333 99 251 297 287l399 71v11c0 96.667 -27.667 173.667 -83 231s-126.666 86 -213.999 86c-57.333 0 -110.833 -13 -160.5 -39
s-84.834 -51.333 -105.501 -76l-31 -39l-41 41c2.66699 4 7.16699 10.167 13.5 18.5s20 22.5 41 42.5s43.5 37.833 67.5 53.5s55.5 29.667 94.5 42s79.5 18.5 121.5 18.5c104 0 189.833 -35.167 257.5 -105.5s101.5 -161.5 101.5 -273.5v-625zM410.001 38.999
c102.667 0 189.668 36.832 261.001 110.499s107 163.834 107 270.501v133l-399 -72c-76.667 -13.333 -135.167 -39.833 -175.5 -79.5s-60.5 -88.167 -60.5 -145.5c0 -58.667 24.667 -109.5 74 -152.5s113.666 -64.5 192.999 -64.5z" />
    <glyph glyph-name="Cacute" unicode="&#x106;" horiz-adv-x="1525" 
d="M123 717c0 203.333 70.665 376.998 211.998 520.998s309.666 216 504.999 216c72.667 0 142.667 -10.5 210 -31.5s123.166 -46.667 167.499 -77s83.5 -60.5 117.5 -90.5s58.667 -55 74 -75l25 -33l-52 -41c-5.33301 8 -12.666 18.5 -21.999 31.5
s-31.166 35.833 -65.499 68.5s-70.666 61.667 -108.999 87s-88.833 48.333 -151.5 69s-127.334 31 -194.001 31c-180 0 -334.333 -65.667 -463 -197s-193 -291.166 -193 -479.499s64.167 -348 192.5 -479s282.833 -196.5 463.5 -196.5c66.667 0 131 9.83301 193 29.5
s113.167 43.5 153.5 71.5s75.833 56 106.5 84s53 52.333 67 73l22 29l52 -41c-5.33301 -8 -13.5 -19 -24.5 -33s-35.333 -38.667 -73 -74s-77.667 -66.666 -120 -93.999s-97.666 -51.833 -165.999 -73.5s-138.5 -32.5 -210.5 -32.5c-195.333 0 -363.666 72 -504.999 216
s-212 317.667 -212 521zM808.998 1628l154 256h71l-174 -256h-51z" />
    <glyph glyph-name="cacute" unicode="&#x107;" horiz-adv-x="1064" 
d="M164 491.5c0 -127 41.332 -233.834 123.999 -320.501s181.334 -130 296.001 -130c39.333 0 77.833 6.5 115.5 19.5s68.667 28.333 93 46s45.833 35.334 64.5 53.001s32 32.834 40 45.501l14 20l52 -41c-4 -5.33301 -9.5 -12.833 -16.5 -22.5s-22.5 -26 -46.5 -49
s-49.667 -43.333 -77 -61s-62.5 -34 -105.5 -49s-87.5 -22.5 -133.5 -22.5c-130 0 -242.833 49.833 -338.5 149.5s-143.5 220.5 -143.5 362.5s47.833 262.833 143.5 362.5s208.5 149.5 338.5 149.5c46.667 0 91 -7.16699 133 -21.5s77.333 -31.5 106 -51.5
s54 -39.833 76 -59.5s37.667 -37.167 47 -52.5l17 -20l-52 -41c-2.66699 5.33301 -7 12.166 -13 20.499s-19.333 23 -40 44s-42.5 39.667 -65.5 56s-53.667 31 -92 44s-77.166 19.5 -116.499 19.5c-114.667 0 -213.334 -43.333 -296.001 -130s-124 -193.5 -124 -320.5z
M552.999 1157l154 256h71l-174 -256h-51z" />
    <glyph glyph-name="Ccircumflex" unicode="&#x108;" horiz-adv-x="1525" 
d="M123 717c0 203.333 70.665 376.998 211.998 520.998s309.666 216 504.999 216c72.667 0 142.667 -10.5 210 -31.5s123.166 -46.667 167.499 -77s83.5 -60.5 117.5 -90.5s58.667 -55 74 -75l25 -33l-52 -41c-5.33301 8 -12.666 18.5 -21.999 31.5
s-31.166 35.833 -65.499 68.5s-70.666 61.667 -108.999 87s-88.833 48.333 -151.5 69s-127.334 31 -194.001 31c-180 0 -334.333 -65.667 -463 -197s-193 -291.166 -193 -479.499s64.167 -348 192.5 -479s282.833 -196.5 463.5 -196.5c66.667 0 131 9.83301 193 29.5
s113.167 43.5 153.5 71.5s75.833 56 106.5 84s53 52.333 67 73l22 29l52 -41c-5.33301 -8 -13.5 -19 -24.5 -33s-35.333 -38.667 -73 -74s-77.667 -66.666 -120 -93.999s-97.666 -51.833 -165.999 -73.5s-138.5 -32.5 -210.5 -32.5c-195.333 0 -363.666 72 -504.999 216
s-212 317.667 -212 521zM869.998 1884l215 -256h-71l-174 205l-174 -205h-72l215 256h61z" />
    <glyph glyph-name="ccircumflex" unicode="&#x109;" horiz-adv-x="1064" 
d="M164 491.5c0 -127 41.332 -233.834 123.999 -320.501s181.334 -130 296.001 -130c39.333 0 77.833 6.5 115.5 19.5s68.667 28.333 93 46s45.833 35.334 64.5 53.001s32 32.834 40 45.501l14 20l52 -41c-4 -5.33301 -9.5 -12.833 -16.5 -22.5s-22.5 -26 -46.5 -49
s-49.667 -43.333 -77 -61s-62.5 -34 -105.5 -49s-87.5 -22.5 -133.5 -22.5c-130 0 -242.833 49.833 -338.5 149.5s-143.5 220.5 -143.5 362.5s47.833 262.833 143.5 362.5s208.5 149.5 338.5 149.5c46.667 0 91 -7.16699 133 -21.5s77.333 -31.5 106 -51.5
s54 -39.833 76 -59.5s37.667 -37.167 47 -52.5l17 -20l-52 -41c-2.66699 5.33301 -7 12.166 -13 20.499s-19.333 23 -40 44s-42.5 39.667 -65.5 56s-53.667 31 -92 44s-77.166 19.5 -116.499 19.5c-114.667 0 -213.334 -43.333 -296.001 -130s-124 -193.5 -124 -320.5z
M603.999 1413l215 -256h-71l-175 205l-174 -205h-71l215 256h61z" />
    <glyph glyph-name="Ccaron" unicode="&#x10c;" horiz-adv-x="1525" 
d="M123 717c0 203.333 70.665 376.998 211.998 520.998s309.666 216 504.999 216c72.667 0 142.667 -10.5 210 -31.5s123.166 -46.667 167.499 -77s83.5 -60.5 117.5 -90.5s58.667 -55 74 -75l25 -33l-52 -41c-5.33301 8 -12.666 18.5 -21.999 31.5
s-31.166 35.833 -65.499 68.5s-70.666 61.667 -108.999 87s-88.833 48.333 -151.5 69s-127.334 31 -194.001 31c-180 0 -334.333 -65.667 -463 -197s-193 -291.166 -193 -479.499s64.167 -348 192.5 -479s282.833 -196.5 463.5 -196.5c66.667 0 131 9.83301 193 29.5
s113.167 43.5 153.5 71.5s75.833 56 106.5 84s53 52.333 67 73l22 29l52 -41c-5.33301 -8 -13.5 -19 -24.5 -33s-35.333 -38.667 -73 -74s-77.667 -66.666 -120 -93.999s-97.666 -51.833 -165.999 -73.5s-138.5 -32.5 -210.5 -32.5c-195.333 0 -363.666 72 -504.999 216
s-212 317.667 -212 521zM1085 1884l-215 -256h-61l-215 256h72l174 -205l174 205h71z" />
    <glyph glyph-name="ccaron" unicode="&#x10d;" horiz-adv-x="1064" 
d="M164 491.5c0 -127 41.332 -233.834 123.999 -320.501s181.334 -130 296.001 -130c39.333 0 77.833 6.5 115.5 19.5s68.667 28.333 93 46s45.833 35.334 64.5 53.001s32 32.834 40 45.501l14 20l52 -41c-4 -5.33301 -9.5 -12.833 -16.5 -22.5s-22.5 -26 -46.5 -49
s-49.667 -43.333 -77 -61s-62.5 -34 -105.5 -49s-87.5 -22.5 -133.5 -22.5c-130 0 -242.833 49.833 -338.5 149.5s-143.5 220.5 -143.5 362.5s47.833 262.833 143.5 362.5s208.5 149.5 338.5 149.5c46.667 0 91 -7.16699 133 -21.5s77.333 -31.5 106 -51.5
s54 -39.833 76 -59.5s37.667 -37.167 47 -52.5l17 -20l-52 -41c-2.66699 5.33301 -7 12.166 -13 20.499s-19.333 23 -40 44s-42.5 39.667 -65.5 56s-53.667 31 -92 44s-77.166 19.5 -116.499 19.5c-114.667 0 -213.334 -43.333 -296.001 -130s-124 -193.5 -124 -320.5z
M818.999 1413l-215 -256h-61l-215 256h71l174 -205l175 205h71z" />
    <glyph glyph-name="Dcaron" unicode="&#x10e;" horiz-adv-x="1495" 
d="M236 1434h388.999c218.667 0 397.834 -68 537.501 -204s209.5 -307 209.5 -513s-70 -377 -210 -513s-319 -204 -537 -204h-389v1434zM624.999 1372h-328v-1311h328c203.333 0 368.5 61.5 495.5 184.5s190.5 280.167 190.5 471.5s-63.5 348.333 -190.5 471
s-292.167 184 -495.5 184zM968.999 1884l-215 -256h-62l-215 256h72l174 -205l174 205h72z" />
    <glyph glyph-name="dcaron" unicode="&#x10f;" horiz-adv-x="1280" 
d="M952 737l0.00195312 697h62v-1434h-62v246c-2.66699 -6.66699 -7.33398 -16.167 -14.001 -28.5s-22 -34 -46 -65s-50.333 -58 -79 -81s-66.167 -44 -112.5 -63s-95.5 -28.5 -147.5 -28.5c-116 0 -220.167 50.5 -312.5 151.5s-138.5 221 -138.5 360
s46.167 259.167 138.5 360.5s196.5 152 312.5 152c52 0 101.167 -9.33301 147.5 -28s84.166 -41 113.499 -67s55 -51.833 77 -77.5s37.667 -47.5 47 -65.5zM553.002 942c-101.333 0 -191.5 -44 -270.5 -132s-118.5 -194.167 -118.5 -318.5s39.5 -230.5 118.5 -318.5
s169.167 -132 270.5 -132c105.333 0 198.166 43.667 278.499 131s120.5 193.833 120.5 319.5s-40.167 232.167 -120.5 319.5s-173.166 131 -278.499 131zM1178 1167l92 267h71l-112 -267h-51z" />
    <glyph glyph-name="Dcroat" unicode="&#x110;" horiz-adv-x="1525" 
d="M266 1434h389c218.667 0 398 -68 538 -204s210 -307 210 -513s-70 -377 -210 -513s-319.333 -204 -538 -204h-389v686h-215v62h215v686zM655 1372h-327v-624h368v-62h-368v-625h327c203.333 0 368.5 61.5 495.5 184.5s190.5 280.167 190.5 471.5
s-63.5 348.333 -190.5 471s-292.167 184 -495.5 184z" />
    <glyph glyph-name="dcroat" unicode="&#x111;" horiz-adv-x="1239" 
d="M645 1219l307.002 -0.00195312v215h62v-215h164v-62h-164v-1157h-62v236c-2.66699 -6.66699 -7.33398 -16 -14.001 -28s-22 -32.667 -46 -62s-50.333 -55.166 -79 -77.499s-66.167 -42.666 -112.5 -60.999s-95.5 -27.5 -147.5 -27.5c-114.667 0 -218.5 49 -311.5 147
s-139.5 212.667 -139.5 344s46.5 246.166 139.5 344.499s196.833 147.5 311.5 147.5c52 0 101.167 -9 147.5 -27s84.166 -39.167 113.499 -63.5s55 -49.166 77 -74.499s37.667 -47 47 -65l14 -26v450h-307v62zM553.002 900.998c-100 0 -189.833 -42.667 -269.5 -128
s-119.5 -186 -119.5 -302s39.833 -216.667 119.5 -302s169.5 -128 269.5 -128c104 0 196.5 42.667 277.5 128s121.5 186 121.5 302s-40.5 216.667 -121.5 302s-173.5 128 -277.5 128z" />
    <glyph glyph-name="Emacron" unicode="&#x112;" horiz-adv-x="1280" 
d="M297 61h901v-61h-962v1434h942v-62h-881v-594h717v-61h-717v-656zM983 1792v-61h-532v61h532z" />
    <glyph glyph-name="emacron" unicode="&#x113;" horiz-adv-x="1126" 
d="M1014 461l-850.002 -0.00292969c5.33301 -117.333 48.333 -216.666 129 -297.999s177.667 -122 291 -122c40.667 0 79.834 6.5 117.501 19.5s68.667 28.333 93 46s45.833 35.334 64.5 53.001s32 32.834 40 45.501l12 20l52 -41c-4 -5.33301 -9.5 -12.833 -16.5 -22.5
s-22.167 -26 -45.5 -49s-48.666 -43.333 -75.999 -61s-62.833 -34 -106.5 -49s-88.5 -22.5 -134.5 -22.5c-130 0 -242.833 49.833 -338.5 149.5s-143.5 220.5 -143.5 362.5c0 140.667 46.833 261.167 140.5 361.5s200.5 150.5 320.5 150.5s225.167 -49.167 315.5 -147.5
s135.5 -219.833 135.5 -364.5v-31zM563.498 941.997c-103.667 0 -196.167 -41.999 -277.5 -125.999s-122 -182 -122 -294h788c-5.33301 121.333 -45.5 221.666 -120.5 300.999s-164.333 119 -268 119zM839.998 1321v-61h-533v61h533z" />
    <glyph glyph-name="Edotaccent" unicode="&#x116;" horiz-adv-x="1280" 
d="M297 61h901v-61h-962v1434h942v-62h-881v-594h717v-61h-717v-656zM655 1761c0 34 17.167 51.001 51.5 51.001s51.5 -17 51.5 -51s-17 -51 -51 -51c-15.333 0 -27.833 5.16699 -37.5 15.5s-14.5 22.166 -14.5 35.499z" />
    <glyph glyph-name="edotaccent" unicode="&#x117;" horiz-adv-x="1126" 
d="M1014 461l-850.002 -0.00292969c5.33301 -117.333 48.333 -216.666 129 -297.999s177.667 -122 291 -122c40.667 0 79.834 6.5 117.501 19.5s68.667 28.333 93 46s45.833 35.334 64.5 53.001s32 32.834 40 45.501l12 20l52 -41c-4 -5.33301 -9.5 -12.833 -16.5 -22.5
s-22.167 -26 -45.5 -49s-48.666 -43.333 -75.999 -61s-62.833 -34 -106.5 -49s-88.5 -22.5 -134.5 -22.5c-130 0 -242.833 49.833 -338.5 149.5s-143.5 220.5 -143.5 362.5c0 140.667 46.833 261.167 140.5 361.5s200.5 150.5 320.5 150.5s225.167 -49.167 315.5 -147.5
s135.5 -219.833 135.5 -364.5v-31zM563.498 941.997c-103.667 0 -196.167 -41.999 -277.5 -125.999s-122 -182 -122 -294h788c-5.33301 121.333 -45.5 221.666 -120.5 300.999s-164.333 119 -268 119zM521.998 1290c0 34 17.166 51.001 51.499 51.001s51.5 -17 51.5 -51
s-17.333 -51 -52 -51c-15.333 0 -27.666 5.16699 -36.999 15.5s-14 22.166 -14 35.499z" />
    <glyph glyph-name="Eogonek" unicode="&#x118;" horiz-adv-x="1280" 
d="M1147 0h-910.996v1434h942v-62h-881v-594h717v-61h-717v-656h901v-61c-10.667 -9.33301 -23.834 -22.666 -39.501 -39.999s-36.834 -47.833 -63.501 -91.5s-40 -81.834 -40 -114.501c0 -31.333 11.5 -57.833 34.5 -79.5s52.5 -32.5 88.5 -32.5
c22 0 43.167 3.33301 63.5 10s35.166 13.334 44.499 20.001l14 11v-52c-34 -27.333 -74.667 -41 -122 -41c-50.667 0 -92.334 15.833 -125.001 47.5s-49 70.5 -49 116.5c0 39.333 11.833 79.666 35.5 120.999s47.167 72 70.5 92z" />
    <glyph glyph-name="eogonek" unicode="&#x119;" horiz-adv-x="1126" 
d="M1014 461l-850.001 -0.000976562c5.33301 -117.333 48.333 -216.666 129 -297.999s177.667 -122 291 -122c40.667 0 79.834 6.5 117.501 19.5s68.667 28.333 93 46s45.833 35.334 64.5 53.001s32 32.834 40 45.501l12 20l52 -41c-2.66699 -5.33301 -7.5 -12 -14.5 -20
s-21.5 -23 -43.5 -45s-45.167 -41.833 -69.5 -59.5s-56.666 -34.334 -96.999 -50.001s-81.833 -24.834 -124.5 -27.501c-82 -82 -122.667 -158 -122 -228c0 -31.333 11.5 -57.833 34.5 -79.5s52.167 -32.5 87.5 -32.5c22 0 43.333 3.33301 64 10s35.667 13.334 45 20.001
l14 11v-52c-34 -27.333 -75 -41 -123 -41c-50.667 0 -92.334 15.833 -125.001 47.5s-49 70.5 -49 116.5c0 75.333 39.667 150.666 119 225.999c-124 6.66699 -231.167 59.167 -321.5 157.5s-135.5 216.5 -135.5 354.5c0 140.667 46.833 261.167 140.5 361.5
s200.5 150.5 320.5 150.5s225.167 -49.167 315.5 -147.5s135.5 -219.833 135.5 -364.5v-31zM563.499 941.999c-103.667 0 -196.167 -41.999 -277.5 -125.999s-122 -182 -122 -294h788c-5.33301 121.333 -45.5 221.666 -120.5 300.999s-164.333 119 -268 119z" />
    <glyph glyph-name="Ecaron" unicode="&#x11a;" horiz-adv-x="1280" 
d="M297 61h901v-61h-962v1434h942v-62h-881v-594h717v-61h-717v-656zM952 1874l-215 -256h-61l-215 256h71l175 -205l174 205h71z" />
    <glyph glyph-name="ecaron" unicode="&#x11b;" horiz-adv-x="1126" 
d="M1014 461l-850.002 -0.00292969c5.33301 -117.333 48.333 -216.666 129 -297.999s177.667 -122 291 -122c40.667 0 79.834 6.5 117.501 19.5s68.667 28.333 93 46s45.833 35.334 64.5 53.001s32 32.834 40 45.501l12 20l52 -41c-4 -5.33301 -9.5 -12.833 -16.5 -22.5
s-22.167 -26 -45.5 -49s-48.666 -43.333 -75.999 -61s-62.833 -34 -106.5 -49s-88.5 -22.5 -134.5 -22.5c-130 0 -242.833 49.833 -338.5 149.5s-143.5 220.5 -143.5 362.5c0 140.667 46.833 261.167 140.5 361.5s200.5 150.5 320.5 150.5s225.167 -49.167 315.5 -147.5
s135.5 -219.833 135.5 -364.5v-31zM563.498 941.997c-103.667 0 -196.167 -41.999 -277.5 -125.999s-122 -182 -122 -294h788c-5.33301 121.333 -45.5 221.666 -120.5 300.999s-164.333 119 -268 119zM808.998 1413l-215 -256h-62l-215 256h72l174 -205l174 205h72z" />
    <glyph glyph-name="Gbreve" unicode="&#x11e;" horiz-adv-x="1607" 
d="M1434 1147l-51.999 -41c-5.33301 8 -12.666 18.5 -21.999 31.5s-31.166 35.833 -65.499 68.5s-70.666 61.667 -108.999 87s-88.833 48.333 -151.5 69s-127.334 31 -194.001 31c-180 0 -334.333 -65.667 -463 -197s-193 -291.166 -193 -479.499s63.833 -348 191.5 -479
s282.5 -196.5 464.5 -196.5c66.667 0 131 9.5 193 28.5s113.167 41.833 153.5 68.5s75.833 53.667 106.5 81s53 50.666 67 69.999l22 28v328h-409v62h471v-410c-5.33301 -8 -13.833 -19.167 -25.5 -33.5s-36.667 -40 -75 -77s-79.333 -69.167 -123 -96.5
s-100 -52.5 -169 -75.5s-139.5 -34.5 -211.5 -34.5c-196.667 0 -365.334 72 -506.001 216s-211 317.667 -211 521s70.667 377 212 521s309.666 216 504.999 216c72.667 0 142.667 -10.5 210 -31.5s123.166 -46.667 167.499 -77s83.5 -60.5 117.5 -90.5s58.667 -55 74 -75z
M829.501 1690c61.667 0 109.499 17 143.499 51s51 81.667 51 143h61c0 -76.667 -23.5 -138.5 -70.5 -185.5s-108.667 -70.5 -185 -70.5s-138.166 23.5 -185.499 70.5s-71 108.833 -71 185.5h62c0 -61.333 17 -109 51 -143s81.833 -51 143.5 -51z" />
    <glyph glyph-name="gbreve" unicode="&#x11f;" 
d="M164 512c0 -120 38.167 -221.667 114.5 -305s164.333 -125 264 -125s189.5 42.667 269.5 128s120 186 120 302s-40 216.667 -120 302s-169.833 128 -269.5 128s-187.667 -41.667 -264 -125s-114.5 -185 -114.5 -305zM932 61l-0.000976562 214.998
c-2.66699 -6.66699 -7.16699 -15.834 -13.5 -27.501s-21 -32.167 -44 -61.5s-48.167 -55.166 -75.5 -77.499s-63.833 -42.833 -109.5 -61.5s-94.5 -28 -146.5 -28c-114.667 0 -216.834 48.167 -306.501 144.5s-134.5 212.166 -134.5 347.499s44.833 251.166 134.5 347.499
s191.834 144.5 306.501 144.5c52 0 100.833 -9 146.5 -27s82.5 -39.167 110.5 -63.5s52.5 -49.166 73.5 -74.499s35.833 -47 44.5 -65l14 -26v235h61v-922c0 -140.667 -43.667 -257.667 -131 -351s-193.666 -140 -318.999 -140c-48 0 -93.5 7.16699 -136.5 21.5
s-78.833 31.333 -107.5 51s-53.5 39.5 -74.5 59.5s-36.5 37.333 -46.5 52l-14 21l41 41c2.66699 -5.33301 7 -12.166 13 -20.499s20 -23.166 42 -44.499s45 -40.166 69 -56.499s55.333 -31 94 -44s78.667 -19.5 120 -19.5c109.333 0 201.5 40.667 276.5 122
s112.5 184 112.5 308zM593.999 1219c61.333 0 109.001 17 143.001 51s51 81.667 51 143h62c0 -76.667 -23.5 -138.5 -70.5 -185.5s-108.833 -70.5 -185.5 -70.5s-138.5 23.5 -185.5 70.5s-70.5 108.833 -70.5 185.5h61c0 -61.333 17.167 -109 51.5 -143
s82.166 -51 143.499 -51z" />
    <glyph glyph-name="uni0122" unicode="&#x122;" horiz-adv-x="1607" 
d="M1434 1147l-51.999 -41c-5.33301 8 -12.666 18.5 -21.999 31.5s-31.166 35.833 -65.499 68.5s-70.666 61.667 -108.999 87s-88.833 48.333 -151.5 69s-127.334 31 -194.001 31c-180 0 -334.333 -65.667 -463 -197s-193 -291.166 -193 -479.499s63.833 -348 191.5 -479
s282.5 -196.5 464.5 -196.5c66.667 0 131 9.5 193 28.5s113.167 41.833 153.5 68.5s75.833 53.667 106.5 81s53 50.666 67 69.999l22 28v328h-409v62h471v-410c-5.33301 -8 -13.833 -19.167 -25.5 -33.5s-36.667 -40 -75 -77s-79.333 -69.167 -123 -96.5
s-100 -52.5 -169 -75.5s-139.5 -34.5 -211.5 -34.5c-196.667 0 -365.334 72 -506.001 216s-211 317.667 -211 521s70.667 377 212 521s309.666 216 504.999 216c72.667 0 142.667 -10.5 210 -31.5s123.166 -46.667 167.499 -77s83.5 -60.5 117.5 -90.5s58.667 -55 74 -75z
M717.001 -430l92 266h72l-113 -266h-51z" />
    <glyph glyph-name="uni0123" unicode="&#x123;" 
d="M164 512c0 -120 38.167 -221.667 114.5 -305s164.333 -125 264 -125s189.5 42.667 269.5 128s120 186 120 302s-40 216.667 -120 302s-169.833 128 -269.5 128s-187.667 -41.667 -264 -125s-114.5 -185 -114.5 -305zM932 61l-0.000976562 214.998
c-2.66699 -6.66699 -7.16699 -15.834 -13.5 -27.501s-21 -32.167 -44 -61.5s-48.167 -55.166 -75.5 -77.499s-63.833 -42.833 -109.5 -61.5s-94.5 -28 -146.5 -28c-114.667 0 -216.834 48.167 -306.501 144.5s-134.5 212.166 -134.5 347.499s44.833 251.166 134.5 347.499
s191.834 144.5 306.501 144.5c52 0 100.833 -9 146.5 -27s82.5 -39.167 110.5 -63.5s52.5 -49.166 73.5 -74.499s35.833 -47 44.5 -65l14 -26v235h61v-922c0 -140.667 -43.667 -257.667 -131 -351s-193.666 -140 -318.999 -140c-48 0 -93.5 7.16699 -136.5 21.5
s-78.833 31.333 -107.5 51s-53.5 39.5 -74.5 59.5s-36.5 37.333 -46.5 52l-14 21l41 41c2.66699 -5.33301 7 -12.166 13 -20.499s20 -23.166 42 -44.499s45 -40.166 69 -56.499s55.333 -31 94 -44s78.667 -19.5 120 -19.5c109.333 0 201.5 40.667 276.5 122
s112.5 184 112.5 308zM695.999 1413l-92 -266h-72l113 266h51z" />
    <glyph glyph-name="Imacron" unicode="&#x12a;" horiz-adv-x="532" 
d="M236 0v1434h61v-1434h-61zM532 1792v-61h-532v61h532z" />
    <glyph glyph-name="imacron" unicode="&#x12b;" horiz-adv-x="450" 
d="M481 1321v-61h-532v61h532zM246 983v-983h-62v983h62z" />
    <glyph glyph-name="Iogonek" unicode="&#x12e;" horiz-adv-x="532" 
d="M236 0l0.000976562 1434h61v-1434c-10.667 -9.33301 -24 -22.666 -40 -39.999s-37.167 -47.833 -63.5 -91.5s-39.5 -81.834 -39.5 -114.501c0 -31.333 11.5 -57.833 34.5 -79.5s52.167 -32.5 87.5 -32.5c22 0 43.333 3.33301 64 10s35.667 13.334 45 20.001l14 11v-52
c-34 -27.333 -75 -41 -123 -41c-50.667 0 -92.334 15.833 -125.001 47.5s-49 70.5 -49 116.5c0 39.333 12 79.666 36 120.999s47.667 72 71 92l37 33h-10z" />
    <glyph glyph-name="iogonek" unicode="&#x12f;" horiz-adv-x="450" 
d="M184 0l0.00195312 983h62v-983c-10.667 -9.33301 -24 -22.666 -40 -39.999s-37.333 -47.833 -64 -91.5s-40 -81.834 -40 -114.501c0 -31.333 11.667 -57.833 35 -79.5s52.666 -32.5 87.999 -32.5c22 0 43.167 3.33301 63.5 10s35.5 13.334 45.5 20.001l14 11v-52
c-34 -27.333 -75 -41 -123 -41c-50.667 0 -92.334 15.833 -125.001 47.5s-49 70.5 -49 116.5c0 39.333 12 79.666 36 120.999s48.333 72 73 92l35 33h-11zM266.002 1341.5c0 -34.333 -17 -51.5 -51 -51.5s-51 17.167 -51 51.5s17 51.5 51 51.5s51 -17.167 51 -51.5z" />
    <glyph glyph-name="Idotaccent" unicode="&#x130;" horiz-adv-x="532" 
d="M236 0v1434h61v-1434h-61zM215 1761c0 34 16.999 51.001 50.999 51.001s51 -17 51 -51s-17 -51 -51 -51c-15.333 0 -27.666 5.16699 -36.999 15.5s-14 22.166 -14 35.499z" />
    <glyph glyph-name="dotlessi" unicode="&#x131;" horiz-adv-x="450" 
d="M246 983v-983h-62v983h62z" />
    <glyph glyph-name="uni0136" unicode="&#x136;" horiz-adv-x="1320" 
d="M297 492l850 942h82l-533 -594l584 -840h-72l-553 799l-358 -389v-410h-61v1434h61v-942zM594 -430l92 266h72l-113 -266h-51z" />
    <glyph glyph-name="uni0137" unicode="&#x137;" horiz-adv-x="1013" 
d="M246 256v-256h-62v1434h62v-1096l583 645h82l-368 -399l420 -584h-72l-379 532h-10zM430 -430l92 266h72l-113 -266h-51z" />
    <glyph glyph-name="Lacute" unicode="&#x139;" horiz-adv-x="1126" 
d="M1085 0h-849v1434h61v-1373h788v-61zM246 1628l153 256h72l-174 -256h-51z" />
    <glyph glyph-name="lacute" unicode="&#x13a;" horiz-adv-x="460" 
d="M246 1434v-1434h-62v1434h62zM195 1628l153 256h72l-174 -256h-51z" />
    <glyph glyph-name="uni013B" unicode="&#x13b;" horiz-adv-x="1126" 
d="M1085 0h-849v1434h61v-1373h788v-61zM563 -430l92 266h72l-113 -266h-51z" />
    <glyph glyph-name="uni013C" unicode="&#x13c;" horiz-adv-x="460" 
d="M246 1434v-1434h-62v1434h62zM92 -430l92 266h72l-113 -266h-51z" />
    <glyph glyph-name="Lcaron" unicode="&#x13d;" horiz-adv-x="1126" 
d="M1085 0h-849v1434h61v-1373h788v-61zM563 1167l92 267h72l-113 -267h-51z" />
    <glyph glyph-name="lcaron" unicode="&#x13e;" horiz-adv-x="501" 
d="M246 1434v-1434h-62v1434h62zM399 1167l93 267h71l-112 -267h-52z" />
    <glyph glyph-name="Lslash" unicode="&#x141;" horiz-adv-x="1198" 
d="M1157 0h-850v645l-235 -143l-31 51l266 164v717h62v-686l338 204l30 -51l-368 -225v-615h788v-61z" />
    <glyph glyph-name="lslash" unicode="&#x142;" horiz-adv-x="665" 
d="M348 1434v-615l266 164l31 -51l-297 -174v-758h-61v717l-256 -164l-31 51l287 184v646h61z" />
    <glyph glyph-name="Nacute" unicode="&#x143;" horiz-adv-x="1576" 
d="M1280 1434h61v-1434h-51l-993 1321v-1321h-61v1434h51l993 -1321v1321zM768 1628l154 256h71l-174 -256h-51z" />
    <glyph glyph-name="nacute" unicode="&#x144;" horiz-adv-x="1177" 
d="M236 983l-0.00195312 -205.001c2.66699 5.33301 6.33398 13.166 11.001 23.499s16.5 28.5 35.5 54.5s40.833 48.833 65.5 68.5s58.834 37.834 102.501 54.501s91.5 25 143.5 25c109.333 0 201.5 -39.667 276.5 -119s112.5 -179.666 112.5 -300.999v-584h-61v584
c0 106.667 -31.167 193 -93.5 259s-140.5 99 -234.5 99c-104 0 -189.667 -35.833 -257 -107.5s-101 -165.5 -101 -281.5v-553h-62v983h62zM562.998 1157l154 256h71l-174 -256h-51z" />
    <glyph glyph-name="uni0145" unicode="&#x145;" horiz-adv-x="1576" 
d="M1280 1434h61v-1434h-51l-993 1321v-1321h-61v1434h51l993 -1321v1321zM676 -430l92 266h72l-113 -266h-51z" />
    <glyph glyph-name="uni0146" unicode="&#x146;" horiz-adv-x="1177" 
d="M236 983l-0.00195312 -205.001c2.66699 5.33301 6.33398 13.166 11.001 23.499s16.5 28.5 35.5 54.5s40.833 48.833 65.5 68.5s58.834 37.834 102.501 54.501s91.5 25 143.5 25c109.333 0 201.5 -39.667 276.5 -119s112.5 -179.666 112.5 -300.999v-584h-61v584
c0 106.667 -31.167 193 -93.5 259s-140.5 99 -234.5 99c-104 0 -189.667 -35.833 -257 -107.5s-101 -165.5 -101 -281.5v-553h-62v983h62zM470.998 -430.001l92 266h72l-113 -266h-51z" />
    <glyph glyph-name="Ncaron" unicode="&#x147;" horiz-adv-x="1576" 
d="M1280 1434h61v-1434h-51l-993 1321v-1321h-61v1434h51l993 -1321v1321zM1034 1874l-215 -256h-61l-215 256h71l174 -205l175 205h71z" />
    <glyph glyph-name="ncaron" unicode="&#x148;" horiz-adv-x="1177" 
d="M236 983l-0.00195312 -205.001c2.66699 5.33301 6.33398 13.166 11.001 23.499s16.5 28.5 35.5 54.5s40.833 48.833 65.5 68.5s58.834 37.834 102.501 54.501s91.5 25 143.5 25c109.333 0 201.5 -39.667 276.5 -119s112.5 -179.666 112.5 -300.999v-584h-61v584
c0 106.667 -31.167 193 -93.5 259s-140.5 99 -234.5 99c-104 0 -189.667 -35.833 -257 -107.5s-101 -165.5 -101 -281.5v-553h-62v983h62zM828.998 1413l-215 -256h-61l-215 256h72l174 -205l174 205h71z" />
    <glyph glyph-name="Omacron" unicode="&#x14c;" horiz-adv-x="1679" 
d="M1495 716.5c0 188.333 -64.167 348.166 -192.5 479.499s-282.666 197 -462.999 197s-334.666 -65.667 -462.999 -197s-192.5 -291.166 -192.5 -479.499s64.167 -348 192.5 -479s282.666 -196.5 462.999 -196.5s334.666 65.5 462.999 196.5s192.5 290.667 192.5 479z
M1556 717c0 -203.333 -70.5 -377 -211.5 -521s-309.167 -216 -504.5 -216s-363.666 72 -504.999 216s-212 317.667 -212 521s70.667 377 212 521s309.666 216 504.999 216s363.5 -72 504.5 -216s211.5 -317.667 211.5 -521zM1116 1792v-61h-532v61h532z" />
    <glyph glyph-name="omacron" unicode="&#x14d;" 
d="M1004 492c0 125.333 -41.6689 231.667 -125.002 319s-181.666 131 -294.999 131c-114.667 0 -213.334 -43.333 -296.001 -130s-124 -193.5 -124 -320.5s41.333 -233.833 124 -320.5s181.334 -130 296.001 -130s213.334 43.5 296.001 130.5s124 193.833 124 320.5z
M1065 492.001c0 -142 -47.833 -262.833 -143.5 -362.5s-208.334 -149.5 -338.001 -149.5s-242.334 49.833 -338.001 149.5s-143.5 220.5 -143.5 362.5s47.833 262.833 143.5 362.5s208.334 149.5 338.001 149.5s242.334 -49.833 338.001 -149.5s143.5 -220.5 143.5 -362.5z
M849.998 1321v-61h-533v61h533z" />
    <glyph glyph-name="Ohungarumlaut" unicode="&#x150;" horiz-adv-x="1679" 
d="M1495 716.5c0 188.333 -64.167 348.166 -192.5 479.499s-282.666 197 -462.999 197s-334.666 -65.667 -462.999 -197s-192.5 -291.166 -192.5 -479.499s64.167 -348 192.5 -479s282.666 -196.5 462.999 -196.5s334.666 65.5 462.999 196.5s192.5 290.667 192.5 479z
M1556 717c0 -203.333 -70.5 -377 -211.5 -521s-309.167 -216 -504.5 -216s-363.666 72 -504.999 216s-212 317.667 -212 521s70.667 377 212 521s309.666 216 504.999 216s363.5 -72 504.5 -216s211.5 -317.667 211.5 -521zM676 1618l153 256h72l-174 -256h-51zM952 1618
l154 256h72l-174 -256h-52z" />
    <glyph glyph-name="ohungarumlaut" unicode="&#x151;" 
d="M1004 492c0 125.333 -41.6689 231.667 -125.002 319s-181.666 131 -294.999 131c-114.667 0 -213.334 -43.333 -296.001 -130s-124 -193.5 -124 -320.5s41.333 -233.833 124 -320.5s181.334 -130 296.001 -130s213.334 43.5 296.001 130.5s124 193.833 124 320.5z
M1065 492.001c0 -142 -47.833 -262.833 -143.5 -362.5s-208.334 -149.5 -338.001 -149.5s-242.334 49.833 -338.001 149.5s-143.5 220.5 -143.5 362.5s47.833 262.833 143.5 362.5s208.334 149.5 338.001 149.5s242.334 -49.833 338.001 -149.5s143.5 -220.5 143.5 -362.5z
M429.998 1157l154 256h71l-174 -256h-51zM706.998 1157l153 256h72l-174 -256h-51z" />
    <glyph glyph-name="OE" unicode="&#x152;" horiz-adv-x="2007" 
d="M1137 61h788.001v-61h-1055c-218.667 0 -397.834 68 -537.501 204s-209.5 307 -209.5 513s70 377 210 513s319 204 537 204h1035v-62h-768v-594h604v-61h-604v-656zM870.001 61h205v1311h-205c-203.333 0 -368.5 -61.333 -495.5 -184s-190.5 -279.667 -190.5 -471
s63.5 -348.5 190.5 -471.5s292.167 -184.5 495.5 -184.5z" />
    <glyph glyph-name="oe" unicode="&#x153;" horiz-adv-x="1914" 
d="M1802 461l-798 -0.000976562c5.33301 -116 46.833 -215 124.5 -297s165.834 -123 264.501 -123c40.667 0 79.167 6.5 115.5 19.5s65.666 28.333 87.999 46s41.666 35.334 57.999 53.001s28.166 32.834 35.499 45.501l10 20l51 -41
c-2.66699 -5.33301 -7 -12.833 -13 -22.5s-19.667 -26 -41 -49s-44.666 -43.333 -69.999 -61s-59.166 -34 -101.499 -49s-86.5 -22.5 -132.5 -22.5c-56 0 -108.667 11.167 -158 33.5s-89.333 49.5 -120 81.5s-57.334 64.167 -80.001 96.5s-38.667 59.833 -48 82.5l-14 33
c-2.66699 -9.33301 -7.5 -21.166 -14.5 -35.499s-23.167 -40.333 -48.5 -78s-52.666 -70.834 -81.999 -99.501s-68.5 -54.834 -117.5 -78.501s-101.5 -35.5 -157.5 -35.5c-116 0 -220.167 50.5 -312.5 151.5s-138.5 221 -138.5 360s46.167 259.167 138.5 360.5
s196.5 152 312.5 152c56 0 108.5 -11.333 157.5 -34s89 -50 120 -82s57.667 -64.167 80 -96.5s38.166 -59.833 47.499 -82.5l15 -33c2.66699 9.33301 7.33398 21.166 14.001 35.499s22 40.333 46 78s50.333 70.834 79 99.501s66.167 55 112.5 79s95.5 36 147.5 36
c112 0 211.667 -49.5 299 -148.5s131 -220.167 131 -363.5v-31zM553 40.999c98 0 187.333 44 268 132s121 194.167 121 318.5s-39.5 230.5 -118.5 318.5s-169.167 132 -270.5 132s-191.5 -44 -270.5 -132s-118.5 -194.167 -118.5 -318.5s39.5 -230.5 118.5 -318.5
s169.167 -132 270.5 -132zM1372 941.999c-90 0 -173.834 -42.668 -251.501 -128.001s-116.5 -182.666 -116.5 -291.999h737c-5.33301 120 -44.666 220 -117.999 300s-157 120 -251 120z" />
    <glyph glyph-name="Racute" unicode="&#x154;" horiz-adv-x="1341" 
d="M236 1434h522c126.667 0 230 -38.667 310 -116s120 -175.333 120 -294c0 -65.333 -11.333 -123.666 -34 -174.999s-50 -90.333 -82 -117s-64 -48.834 -96 -66.501s-59.667 -29.167 -83 -34.5l-33 -6l359 -625h-72l-348 614h-502v-614h-61v1434zM758 1372h-461v-696h461
c112 0 201.333 32 268 96s100 148 100 252s-33.333 188 -100 252s-156 96 -268 96zM666 1628l153 256h72l-174 -256h-51z" />
    <glyph glyph-name="racute" unicode="&#x155;" horiz-adv-x="686" 
d="M635 942h-41.002c-104 0 -189.667 -35.833 -257 -107.5s-101 -165.5 -101 -281.5v-553h-62v983h62v-205c2.66699 5.33301 6.33398 13.166 11.001 23.499s16.5 28.5 35.5 54.5s40.833 48.833 65.5 68.5s58.834 37.834 102.501 54.501s91.5 25 143.5 25h41v-62z
M378.998 1157l153 256h72l-174 -256h-51z" />
    <glyph glyph-name="uni0156" unicode="&#x156;" horiz-adv-x="1341" 
d="M236 1434h522c126.667 0 230 -38.667 310 -116s120 -175.333 120 -294c0 -65.333 -11.333 -123.666 -34 -174.999s-50 -90.333 -82 -117s-64 -48.834 -96 -66.501s-59.667 -29.167 -83 -34.5l-33 -6l359 -625h-72l-348 614h-502v-614h-61v1434zM758 1372h-461v-696h461
c112 0 201.333 32 268 96s100 148 100 252s-33.333 188 -100 252s-156 96 -268 96zM573 -430l93 266h71l-112 -266h-52z" />
    <glyph glyph-name="uni0157" unicode="&#x157;" horiz-adv-x="686" 
d="M635 942h-41.002c-104 0 -189.667 -35.833 -257 -107.5s-101 -165.5 -101 -281.5v-553h-62v983h62v-205c2.66699 5.33301 6.33398 13.166 11.001 23.499s16.5 28.5 35.5 54.5s40.833 48.833 65.5 68.5s58.834 37.834 102.501 54.501s91.5 25 143.5 25h41v-62z
M81.998 -430l92 266h72l-113 -266h-51z" />
    <glyph glyph-name="Rcaron" unicode="&#x158;" horiz-adv-x="1341" 
d="M236 1434h522c126.667 0 230 -38.667 310 -116s120 -175.333 120 -294c0 -65.333 -11.333 -123.666 -34 -174.999s-50 -90.333 -82 -117s-64 -48.834 -96 -66.501s-59.667 -29.167 -83 -34.5l-33 -6l359 -625h-72l-348 614h-502v-614h-61v1434zM758 1372h-461v-696h461
c112 0 201.333 32 268 96s100 148 100 252s-33.333 188 -100 252s-156 96 -268 96zM932 1874l-215 -256h-62l-215 256h72l174 -205l174 205h72z" />
    <glyph glyph-name="rcaron" unicode="&#x159;" horiz-adv-x="686" 
d="M635 942h-41.002c-104 0 -189.667 -35.833 -257 -107.5s-101 -165.5 -101 -281.5v-553h-62v983h62v-205c2.66699 5.33301 6.33398 13.166 11.001 23.499s16.5 28.5 35.5 54.5s40.833 48.833 65.5 68.5s58.834 37.834 102.501 54.501s91.5 25 143.5 25h41v-62z
M634.998 1413l-215 -256h-62l-215 256h72l174 -205l174 205h72z" />
    <glyph glyph-name="Sacute" unicode="&#x15a;" horiz-adv-x="1126" 
d="M942 379c0 57.333 -14.999 106.503 -44.999 147.503s-68.5 72.667 -115.5 95s-99.167 42.166 -156.5 59.499s-115 35.5 -173 54.5s-110.667 41.167 -158 66.5s-86 60.833 -116 106.5s-45 101.167 -45 166.5c0 105.333 41.667 194.833 125 268.5s192 110.5 326 110.5
c48 0 94.5 -6.16699 139.5 -18.5s82.5 -26.666 112.5 -42.999s56.5 -33 79.5 -50s40.167 -31.833 51.5 -44.5l16 -18l-51 -51c-2.66699 4 -7.16699 9.66699 -13.5 17s-20.333 20.666 -42 39.999s-44.834 36.166 -69.501 50.499s-57.167 27.333 -97.5 39
s-82.166 17.5 -125.499 17.5c-118.667 0 -213.167 -30.5 -283.5 -91.5s-105.5 -136.5 -105.5 -226.5c0 -56 15 -103.833 45 -143.5s68.5 -70.334 115.5 -92.001s99.5 -41 157.5 -58s115.667 -35.167 173 -54.5s109.5 -41.833 156.5 -67.5s85.667 -62.167 116 -109.5
s45.5 -104.333 45.5 -171c0 -110.667 -43.167 -204.834 -129.5 -282.501s-196.833 -116.5 -331.5 -116.5c-56 0 -109.667 7.16699 -161 21.5s-93.333 31.333 -126 51s-61 39.334 -85 59.001s-41.333 37.167 -52 52.5l-17 20l52 52c2.66699 -5.33301 7 -12.5 13 -21.5
s20.667 -24.5 44 -46.5s48.666 -41.5 75.999 -58.5s63.833 -32.667 109.5 -47s94.5 -21.5 146.5 -21.5c120 0 216.5 32.5 289.5 97.5s109.5 145.167 109.5 240.5zM543.001 1628l153 256h72l-174 -256h-51z" />
    <glyph glyph-name="sacute" unicode="&#x15b;" horiz-adv-x="880" 
d="M737 860l-51.001 -51c-6.66699 9.33301 -16.5 21.5 -29.5 36.5s-41.667 34.833 -86 59.5s-91.166 37 -140.499 37c-69.333 0 -127.666 -20.833 -174.999 -62.5s-71 -89.167 -71 -142.5c0 -46.667 19.833 -84.5 59.5 -113.5s87.5 -51 143.5 -66s112 -31.5 168 -49.5
s103.833 -46 143.5 -84s59.5 -87.333 59.5 -148c0 -83.333 -31.5 -153.5 -94.5 -210.5s-144.167 -85.5 -243.5 -85.5c-64 0 -124 13.5 -180 40.5s-96.333 54.167 -121 81.5l-37 41l51 52c2.66699 -4 6.83398 -9.5 12.501 -16.5s17.667 -19.333 36 -37
s37.666 -33.334 57.999 -47.001s47 -26 80 -37s66.5 -16.5 100.5 -16.5c84.667 0 151.834 22.167 201.501 66.5s74.5 100.5 74.5 168.5c0 49.333 -19.667 89 -59 119s-87 52.833 -143 68.5s-112 32.167 -168 49.5s-103.833 44.333 -143.5 81s-59.5 84.334 -59.5 143.001
c0 68 30 129.5 90 184.5s132.333 82.5 217 82.5c57.333 0 111.666 -12 162.999 -36s88.666 -47.667 111.999 -71zM409.999 1157l153 256h72l-174 -256h-51z" />
    <glyph glyph-name="Scedilla" unicode="&#x15e;" horiz-adv-x="1126" 
d="M942 379c0 57.333 -14.9971 106.503 -44.9971 147.503s-68.5 72.667 -115.5 95s-99.167 42.166 -156.5 59.499s-115 35.5 -173 54.5s-110.667 41.167 -158 66.5s-86 60.833 -116 106.5s-45 101.167 -45 166.5c0 105.333 41.667 194.833 125 268.5s192 110.5 326 110.5
c48 0 94.5 -6.16699 139.5 -18.5s82.5 -26.666 112.5 -42.999s56.5 -33 79.5 -50s40.167 -31.833 51.5 -44.5l16 -18l-51 -51c-2.66699 4 -7.16699 9.66699 -13.5 17s-20.333 20.666 -42 39.999s-44.834 36.166 -69.501 50.499s-57.167 27.333 -97.5 39
s-82.166 17.5 -125.499 17.5c-118.667 0 -213.167 -30.5 -283.5 -91.5s-105.5 -136.5 -105.5 -226.5c0 -56 15 -103.833 45 -143.5s68.5 -70.334 115.5 -92.001s99.5 -41 157.5 -58s115.667 -35.167 173 -54.5s109.5 -41.833 156.5 -67.5s85.667 -62.167 116 -109.5
s45.5 -104.333 45.5 -171c0 -105.333 -39 -195.833 -117 -271.5s-179 -117.5 -303 -125.5l-52 -105c13.333 6.66699 30.666 10 51.999 10c40.667 0 74.667 -13.667 102 -41s41 -61.333 41 -102c0 -42 -16.333 -78.167 -49 -108.5s-74.334 -45.5 -125.001 -45.5
c-24.667 0 -50 4.16699 -76 12.5s-45.667 16.5 -59 24.5l-19 15l31 41c34 -27.333 75 -41 123 -41c34 0 63 10.5 87 31.5s36 44.5 36 70.5s-8.83301 47.833 -26.5 65.5s-39.5 26.5 -65.5 26.5c-12 0 -24 -1.66699 -36 -5s-21.333 -7 -28 -11l-8 -4l-41 41l61 123
c-56 1.33301 -108.833 9.16602 -158.5 23.499s-90.167 31.333 -121.5 51s-59 39.334 -83 59.001s-40.667 36.5 -50 50.5l-17 20l52 52c2.66699 -5.33301 7 -12.5 13 -21.5s20.667 -24.5 44 -46.5s48.666 -41.5 75.999 -58.5s63.833 -32.667 109.5 -47
s94.5 -21.5 146.5 -21.5c120 0 216.5 32.5 289.5 97.5s109.5 145.167 109.5 240.5z" />
    <glyph glyph-name="scedilla" unicode="&#x15f;" horiz-adv-x="880" 
d="M737 860l-51 -50.999c-6.66699 9.33301 -16.5 21.5 -29.5 36.5s-41.667 34.833 -86 59.5s-91.166 37 -140.499 37c-69.333 0 -127.666 -20.833 -174.999 -62.5s-71 -89.167 -71 -142.5c0 -46.667 19.833 -84.5 59.5 -113.5s87.5 -51 143.5 -66s112 -31.5 168 -49.5
s103.833 -46 143.5 -84s59.5 -87.333 59.5 -148c0 -79.333 -28.333 -146.833 -85 -202.5s-130.667 -86.167 -222 -91.5l-52 -105c13.333 6.66699 30.666 10 51.999 10c40.667 0 74.667 -13.667 102 -41s41 -61.333 41 -102c0 -42 -16.333 -78.167 -49 -108.5
s-74.334 -45.5 -125.001 -45.5c-24.667 0 -50 4.16699 -76 12.5s-45 16.5 -57 24.5l-21 15l31 41c34 -27.333 75 -41 123 -41c34 0 63 10.5 87 31.5s36 44.5 36 70.5s-9 47.833 -27 65.5s-39.667 26.5 -65 26.5c-12 0 -24 -1.66699 -36 -5s-20.667 -7 -26 -11l-10 -4l-41 41
l61 123c-60 2.66699 -116.167 17.667 -168.5 45s-90.166 53.666 -113.499 78.999l-35 39l51 52c2.66699 -4 6.83398 -9.5 12.501 -16.5s17.667 -19.333 36 -37s37.666 -33.334 57.999 -47.001s47 -26 80 -37s66.5 -16.5 100.5 -16.5c84.667 0 151.834 22.167 201.501 66.5
s74.5 100.5 74.5 168.5c0 49.333 -19.667 89 -59 119s-87 52.833 -143 68.5s-112 32.167 -168 49.5s-103.833 44.333 -143.5 81s-59.5 84.334 -59.5 143.001c0 68 30 129.5 90 184.5s132.333 82.5 217 82.5c57.333 0 111.666 -12 162.999 -36s88.666 -47.667 111.999 -71z
" />
    <glyph glyph-name="Scaron" unicode="&#x160;" horiz-adv-x="1126" 
d="M942 379c0 57.333 -14.999 106.503 -44.999 147.503s-68.5 72.667 -115.5 95s-99.167 42.166 -156.5 59.499s-115 35.5 -173 54.5s-110.667 41.167 -158 66.5s-86 60.833 -116 106.5s-45 101.167 -45 166.5c0 105.333 41.667 194.833 125 268.5s192 110.5 326 110.5
c48 0 94.5 -6.16699 139.5 -18.5s82.5 -26.666 112.5 -42.999s56.5 -33 79.5 -50s40.167 -31.833 51.5 -44.5l16 -18l-51 -51c-2.66699 4 -7.16699 9.66699 -13.5 17s-20.333 20.666 -42 39.999s-44.834 36.166 -69.501 50.499s-57.167 27.333 -97.5 39
s-82.166 17.5 -125.499 17.5c-118.667 0 -213.167 -30.5 -283.5 -91.5s-105.5 -136.5 -105.5 -226.5c0 -56 15 -103.833 45 -143.5s68.5 -70.334 115.5 -92.001s99.5 -41 157.5 -58s115.667 -35.167 173 -54.5s109.5 -41.833 156.5 -67.5s85.667 -62.167 116 -109.5
s45.5 -104.333 45.5 -171c0 -110.667 -43.167 -204.834 -129.5 -282.501s-196.833 -116.5 -331.5 -116.5c-56 0 -109.667 7.16699 -161 21.5s-93.333 31.333 -126 51s-61 39.334 -85 59.001s-41.333 37.167 -52 52.5l-17 20l52 52c2.66699 -5.33301 7 -12.5 13 -21.5
s20.667 -24.5 44 -46.5s48.666 -41.5 75.999 -58.5s63.833 -32.667 109.5 -47s94.5 -21.5 146.5 -21.5c120 0 216.5 32.5 289.5 97.5s109.5 145.167 109.5 240.5zM819.001 1874l-215 -256h-61l-215 256h71l174 -205l175 205h71z" />
    <glyph glyph-name="scaron" unicode="&#x161;" horiz-adv-x="880" 
d="M737 860l-51.001 -51c-6.66699 9.33301 -16.5 21.5 -29.5 36.5s-41.667 34.833 -86 59.5s-91.166 37 -140.499 37c-69.333 0 -127.666 -20.833 -174.999 -62.5s-71 -89.167 -71 -142.5c0 -46.667 19.833 -84.5 59.5 -113.5s87.5 -51 143.5 -66s112 -31.5 168 -49.5
s103.833 -46 143.5 -84s59.5 -87.333 59.5 -148c0 -83.333 -31.5 -153.5 -94.5 -210.5s-144.167 -85.5 -243.5 -85.5c-64 0 -124 13.5 -180 40.5s-96.333 54.167 -121 81.5l-37 41l51 52c2.66699 -4 6.83398 -9.5 12.501 -16.5s17.667 -19.333 36 -37
s37.666 -33.334 57.999 -47.001s47 -26 80 -37s66.5 -16.5 100.5 -16.5c84.667 0 151.834 22.167 201.501 66.5s74.5 100.5 74.5 168.5c0 49.333 -19.667 89 -59 119s-87 52.833 -143 68.5s-112 32.167 -168 49.5s-103.833 44.333 -143.5 81s-59.5 84.334 -59.5 143.001
c0 68 30 129.5 90 184.5s132.333 82.5 217 82.5c57.333 0 111.666 -12 162.999 -36s88.666 -47.667 111.999 -71zM675.999 1413l-215 -256h-62l-215 256h72l174 -205l174 205h72z" />
    <glyph glyph-name="uni0162" unicode="&#x162;" horiz-adv-x="1105" 
d="M41 1434h1024v-62h-481v-1372h-62v1372h-481v62zM430 -430l92 266h72l-113 -266h-51z" />
    <glyph glyph-name="uni0163" unicode="&#x163;" horiz-adv-x="686" 
d="M256 1055l0.000976562 256h61v-328h226v-61h-226v-686c0 -60 16.167 -107.5 48.5 -142.5s74.5 -52.5 126.5 -52.5c22 0 43.167 2.66699 63.5 8s35.166 11 44.499 17l14 6v-62c-34 -20.667 -74.667 -30.667 -122 -30c-72.667 0 -130.167 22.5 -172.5 67.5
s-63.5 107.833 -63.5 188.5v686h-205v61h144c40.667 0 61 24 61 72zM307.001 -430l92 266h72l-113 -266h-51z" />
    <glyph glyph-name="Tcaron" unicode="&#x164;" horiz-adv-x="1105" 
d="M41 1434h1024v-62h-481v-1372h-62v1372h-481v62zM799 1884l-215 -256h-62l-215 256h72l174 -205l174 205h72z" />
    <glyph glyph-name="tcaron" unicode="&#x165;" horiz-adv-x="706" 
d="M256 1055l0.000976562 256h61v-328h226v-61h-226v-686c0 -60 16.167 -107.5 48.5 -142.5s74.5 -52.5 126.5 -52.5c22 0 43.167 2.66699 63.5 8s35.166 11 44.499 17l14 6v-62c-34 -20.667 -74.667 -30.667 -122 -30c-72.667 0 -130.167 22.5 -172.5 67.5
s-63.5 107.833 -63.5 188.5v686h-205v61h144c40.667 0 61 24 61 72zM604.001 1167l92 267h72l-113 -267h-51z" />
    <glyph glyph-name="Umacron" unicode="&#x16a;" horiz-adv-x="1536" 
d="M768 41c139.333 0 256.168 48.167 350.501 144.5s141.5 216.833 141.5 361.5v887h61v-887c0 -160 -53.667 -294.5 -161 -403.5s-238 -163.5 -392 -163.5s-284.667 54.5 -392 163.5s-161 243.5 -161 403.5v887h61v-887c0 -144.667 47.167 -265.167 141.5 -361.5
s211.166 -144.5 350.499 -144.5zM1034 1792v-61h-532v61h532z" />
    <glyph glyph-name="umacron" unicode="&#x16b;" 
d="M922 0l0.000976562 204.999c-2.66699 -5.33301 -6.5 -13.166 -11.5 -23.499s-17.667 -28.5 -38 -54.5s-42.833 -48.833 -67.5 -68.5s-58.834 -37.667 -102.501 -54s-90.167 -24.5 -139.5 -24.5c-109.333 0 -201.5 39.5 -276.5 118.5s-112.5 179.167 -112.5 300.5v584h62
v-584c0 -106.667 31 -193 93 -259s140 -99 234 -99c98 0 182.333 36.5 253 109.5s106 162.833 106 269.5v563h61v-983h-61zM850.001 1321v-61h-533v61h533z" />
    <glyph glyph-name="Uring" unicode="&#x16e;" horiz-adv-x="1536" 
d="M768 41c139.333 0 256.168 48.167 350.501 144.5s141.5 216.833 141.5 361.5v887h61v-887c0 -160 -53.667 -294.5 -161 -403.5s-238 -163.5 -392 -163.5s-284.667 54.5 -392 163.5s-161 243.5 -161 403.5v887h61v-887c0 -144.667 47.167 -265.167 141.5 -361.5
s211.166 -144.5 350.499 -144.5zM645.002 1782c0 -35.333 13.333 -66.333 40 -93s57.667 -40 93 -40s66.333 13.333 93 40s40 57.667 40 93s-13.333 66.333 -40 93s-57.667 40 -93 40s-66.333 -13.333 -93 -40s-40 -57.667 -40 -93zM973.002 1782
c0 -52 -19.5 -97.5 -58.5 -136.5s-84.5 -58.5 -136.5 -58.5s-97.333 19.5 -136 58.5s-58 84.5 -58 136.5s19.333 97.333 58 136s84 58 136 58s97.5 -19.333 136.5 -58s58.5 -84 58.5 -136z" />
    <glyph glyph-name="uring" unicode="&#x16f;" 
d="M922 0l0.000976562 204.999c-2.66699 -5.33301 -6.5 -13.166 -11.5 -23.499s-17.667 -28.5 -38 -54.5s-42.833 -48.833 -67.5 -68.5s-58.834 -37.667 -102.501 -54s-90.167 -24.5 -139.5 -24.5c-109.333 0 -201.5 39.5 -276.5 118.5s-112.5 179.167 -112.5 300.5v584h62
v-584c0 -106.667 31 -193 93 -259s140 -99 234 -99c98 0 182.333 36.5 253 109.5s106 162.833 106 269.5v563h61v-983h-61zM451.001 1310.5c0 -35.667 13.167 -66.667 39.5 -93s57.333 -39.5 93 -39.5s66.834 13.167 93.501 39.5s40 57.333 40 93s-13.333 66.834 -40 93.501
s-57.834 40 -93.501 40s-66.667 -13.333 -93 -40s-39.5 -57.834 -39.5 -93.501zM778.001 1311c0 -52 -19.833 -97.5 -59.5 -136.5s-84.667 -58.5 -135 -58.5s-95.333 19.5 -135 58.5s-59.5 84.5 -59.5 136.5s19.833 97.333 59.5 136s84.667 58 135 58
s95.333 -19.333 135 -58s59.5 -84 59.5 -136z" />
    <glyph glyph-name="Uhungarumlaut" unicode="&#x170;" horiz-adv-x="1536" 
d="M768 41c139.333 0 256.168 48.167 350.501 144.5s141.5 216.833 141.5 361.5v887h61v-887c0 -160 -53.667 -294.5 -161 -403.5s-238 -163.5 -392 -163.5s-284.667 54.5 -392 163.5s-161 243.5 -161 403.5v887h61v-887c0 -144.667 47.167 -265.167 141.5 -361.5
s211.166 -144.5 350.499 -144.5zM584.002 1628l153 256h72l-174 -256h-51zM860.002 1628l154 256h71l-174 -256h-51z" />
    <glyph glyph-name="uhungarumlaut" unicode="&#x171;" 
d="M922 0l0.000976562 204.999c-2.66699 -5.33301 -6.5 -13.166 -11.5 -23.499s-17.667 -28.5 -38 -54.5s-42.833 -48.833 -67.5 -68.5s-58.834 -37.667 -102.501 -54s-90.167 -24.5 -139.5 -24.5c-109.333 0 -201.5 39.5 -276.5 118.5s-112.5 179.167 -112.5 300.5v584h62
v-584c0 -106.667 31 -193 93 -259s140 -99 234 -99c98 0 182.333 36.5 253 109.5s106 162.833 106 269.5v563h61v-983h-61zM399.001 1157l154 256h72l-174 -256h-52zM676.001 1157l153 256h72l-174 -256h-51z" />
    <glyph glyph-name="Uogonek" unicode="&#x172;" horiz-adv-x="1536" 
d="M768 41c139.333 0 256.171 48.168 350.504 144.501s141.5 216.833 141.5 361.5v887h61v-887c0 -150 -47.833 -278.333 -143.5 -385s-214.5 -166 -356.5 -178c-83.333 -87.333 -125 -164 -125 -230c0 -31.333 11.667 -57.833 35 -79.5s52.666 -32.5 87.999 -32.5
c22 0 43.167 3.33301 63.5 10s35.5 13.334 45.5 20.001l14 11v-52c-34 -27.333 -75 -41 -123 -41c-50.667 0 -92.334 15.833 -125.001 47.5s-49 70.5 -49 116.5c0 75.333 39.667 150.666 119 225.999c-152.667 1.33301 -282.334 56.166 -389.001 164.499
s-160 242.5 -160 402.5v887h61v-887c0 -144.667 47.167 -265.167 141.5 -361.5s211.166 -144.5 350.499 -144.5z" />
    <glyph glyph-name="uogonek" unicode="&#x173;" 
d="M922 0l0.00292969 204.999c-2.66699 -5.33301 -6.5 -13.166 -11.5 -23.499s-17.667 -28.5 -38 -54.5s-42.833 -48.833 -67.5 -68.5s-58.834 -37.667 -102.501 -54s-90.167 -24.5 -139.5 -24.5c-109.333 0 -201.5 39.5 -276.5 118.5s-112.5 179.167 -112.5 300.5v584h62
v-584c0 -106.667 31 -193 93 -259s140 -99 234 -99c98 0 182.333 36.5 253 109.5s106 162.833 106 269.5v563h61v-983h-10c-10.667 -9.33301 -24 -22.666 -40 -39.999s-37.333 -47.833 -64 -91.5s-40 -81.834 -40 -114.501c0 -31.333 11.667 -57.833 35 -79.5
s52.666 -32.5 87.999 -32.5c22 0 43.333 3.33301 64 10s35.667 13.334 45 20.001l14 11v-52c-34 -27.333 -75 -41 -123 -41c-50.667 0 -92.334 15.833 -125.001 47.5s-49 70.5 -49 116.5c0 39.333 12 79.666 36 120.999s47.667 72 71 92z" />
    <glyph glyph-name="Ydieresis" unicode="&#x178;" horiz-adv-x="1249" 
d="M133 1434l492 -861l491 861h72l-533 -932v-502h-61v502l-533 932h72zM410 1761c0 34 17 51 51 51s51 -17 51 -51s-17 -51 -51 -51s-51 17 -51 51zM737 1761c0 34 17.167 51 51.5 51s51.5 -17 51.5 -51s-17.167 -51 -51.5 -51s-51.5 17 -51.5 51z" />
    <glyph glyph-name="Zacute" unicode="&#x179;" horiz-adv-x="1157" 
d="M983 1372h-870v62h942v-62l-901 -1311h921v-61h-993v61zM553 1628l154 256h71l-174 -256h-51z" />
    <glyph glyph-name="zacute" unicode="&#x17a;" horiz-adv-x="880" 
d="M788 983v-61l-665 -861h686v-61h-758v61l666 861h-645v61h716zM399 1157l154 256h72l-174 -256h-52z" />
    <glyph glyph-name="Zdotaccent" unicode="&#x17b;" horiz-adv-x="1157" 
d="M983 1372h-870v62h942v-62l-901 -1311h921v-61h-993v61zM532 1761c0 34 17.167 51.001 51.5 51.001s51.5 -17 51.5 -51s-17 -51 -51 -51c-15.333 0 -27.833 5.16699 -37.5 15.5s-14.5 22.166 -14.5 35.499z" />
    <glyph glyph-name="zdotaccent" unicode="&#x17c;" horiz-adv-x="880" 
d="M788 983v-61l-665 -861h686v-61h-758v61l666 861h-645v61h716zM379 1280c0 34 16.999 51.001 50.999 51.001s51 -17 51 -51s-17 -51 -51 -51c-15.333 0 -27.666 5.16699 -36.999 15.5s-14 22.166 -14 35.499z" />
    <glyph glyph-name="Zcaron" unicode="&#x17d;" horiz-adv-x="1157" 
d="M983 1372h-870v62h942v-62l-901 -1311h921v-61h-993v61zM840 1884l-215 -256h-62l-215 256h72l174 -205l174 205h72z" />
    <glyph glyph-name="zcaron" unicode="&#x17e;" horiz-adv-x="880" 
d="M788 983v-61l-665 -861h686v-61h-758v61l666 861h-645v61h716zM676 1413l-215 -256h-62l-215 256h72l174 -205l174 205h72z" />
    <glyph glyph-name="florin" unicode="&#x192;" horiz-adv-x="706" 
d="M389 717l-174 -901c-31.333 -164 -113.333 -246 -246 -246c-22 0 -43.833 2.66699 -65.5 8s-38.5 10.666 -50.5 15.999l-17 7v61c40.667 -20.667 85 -31 133 -31c98 0 159.667 61.667 185 185l174 901h-185v61h195l82 430c31.333 164 113.333 246 246 246
c22 0 43.833 -2.66699 65.5 -8s38.5 -10.666 50.5 -15.999l17 -7v-61c-40.667 20.667 -85 31 -133 31c-100 0 -161.667 -61.667 -185 -185l-82 -430h256v-61h-266z" />
    <glyph glyph-name="uni0218" unicode="&#x218;" horiz-adv-x="1126" 
d="M942 379c0 57.333 -14.999 106.503 -44.999 147.503s-68.5 72.667 -115.5 95s-99.167 42.166 -156.5 59.499s-115 35.5 -173 54.5s-110.667 41.167 -158 66.5s-86 60.833 -116 106.5s-45 101.167 -45 166.5c0 105.333 41.667 194.833 125 268.5s192 110.5 326 110.5
c48 0 94.5 -6.16699 139.5 -18.5s82.5 -26.666 112.5 -42.999s56.5 -33 79.5 -50s40.167 -31.833 51.5 -44.5l16 -18l-51 -51c-2.66699 4 -7.16699 9.66699 -13.5 17s-20.333 20.666 -42 39.999s-44.834 36.166 -69.501 50.499s-57.167 27.333 -97.5 39
s-82.166 17.5 -125.499 17.5c-118.667 0 -213.167 -30.5 -283.5 -91.5s-105.5 -136.5 -105.5 -226.5c0 -56 15 -103.833 45 -143.5s68.5 -70.334 115.5 -92.001s99.5 -41 157.5 -58s115.667 -35.167 173 -54.5s109.5 -41.833 156.5 -67.5s85.667 -62.167 116 -109.5
s45.5 -104.333 45.5 -171c0 -110.667 -43.167 -204.834 -129.5 -282.501s-196.833 -116.5 -331.5 -116.5c-56 0 -109.667 7.16699 -161 21.5s-93.333 31.333 -126 51s-61 39.334 -85 59.001s-41.333 37.167 -52 52.5l-17 20l52 52c2.66699 -5.33301 7 -12.5 13 -21.5
s20.667 -24.5 44 -46.5s48.666 -41.5 75.999 -58.5s63.833 -32.667 109.5 -47s94.5 -21.5 146.5 -21.5c120 0 216.5 32.5 289.5 97.5s109.5 145.167 109.5 240.5zM440.001 -429.997l92 266h72l-112 -266h-52z" />
    <glyph glyph-name="uni0219" unicode="&#x219;" horiz-adv-x="880" 
d="M737 860l-51.001 -51c-6.66699 9.33301 -16.5 21.5 -29.5 36.5s-41.667 34.833 -86 59.5s-91.166 37 -140.499 37c-69.333 0 -127.666 -20.833 -174.999 -62.5s-71 -89.167 -71 -142.5c0 -46.667 19.833 -84.5 59.5 -113.5s87.5 -51 143.5 -66s112 -31.5 168 -49.5
s103.833 -46 143.5 -84s59.5 -87.333 59.5 -148c0 -83.333 -31.5 -153.5 -94.5 -210.5s-144.167 -85.5 -243.5 -85.5c-64 0 -124 13.5 -180 40.5s-96.333 54.167 -121 81.5l-37 41l51 52c2.66699 -4 6.83398 -9.5 12.501 -16.5s17.667 -19.333 36 -37
s37.666 -33.334 57.999 -47.001s47 -26 80 -37s66.5 -16.5 100.5 -16.5c84.667 0 151.834 22.167 201.501 66.5s74.5 100.5 74.5 168.5c0 49.333 -19.667 89 -59 119s-87 52.833 -143 68.5s-112 32.167 -168 49.5s-103.833 44.333 -143.5 81s-59.5 84.334 -59.5 143.001
c0 68 30 129.5 90 184.5s132.333 82.5 217 82.5c57.333 0 111.666 -12 162.999 -36s88.666 -47.667 111.999 -71zM306.999 -430l92 266h72l-113 -266h-51z" />
    <glyph glyph-name="uni021A" unicode="&#x21a;" horiz-adv-x="1105" 
d="M41 1434h1024v-62h-481v-1372h-62v1372h-481v62zM430 -430l92 266h72l-113 -266h-51z" />
    <glyph glyph-name="uni021B" unicode="&#x21b;" horiz-adv-x="686" 
d="M256 1055l0.000976562 256h61v-328h226v-61h-226v-686c0 -60 16.167 -107.5 48.5 -142.5s74.5 -52.5 126.5 -52.5c22 0 43.167 2.66699 63.5 8s35.166 11 44.499 17l14 6v-62c-34 -20.667 -74.667 -30.667 -122 -30c-72.667 0 -130.167 22.5 -172.5 67.5
s-63.5 107.833 -63.5 188.5v686h-205v61h144c40.667 0 61 24 61 72zM307.001 -430l92 266h72l-113 -266h-51z" />
    <glyph glyph-name="uni02BC" unicode="&#x2bc;" horiz-adv-x="286" 
d="M61 1167l93 267h71l-112 -267h-52z" />
    <glyph glyph-name="circumflex" unicode="&#x2c6;" horiz-adv-x="614" 
d="M338 1413l215 -256h-72l-174 205l-174 -205h-72l215 256h62z" />
    <glyph glyph-name="caron" unicode="&#x2c7;" horiz-adv-x="614" 
d="M553 1413l-215 -256h-62l-215 256h72l174 -205l174 205h72z" />
    <glyph glyph-name="breve" unicode="&#x2d8;" horiz-adv-x="634" 
d="M317.5 1219c61.667 0 109.499 17 143.499 51s51 81.667 51 143h61c0 -76.667 -23.5 -138.5 -70.5 -185.5s-108.667 -70.5 -185 -70.5s-138.166 23.5 -185.499 70.5s-71 108.833 -71 185.5h62c0 -61.333 17 -109 51 -143s81.833 -51 143.5 -51z" />
    <glyph glyph-name="dotaccent" unicode="&#x2d9;" horiz-adv-x="225" 
d="M61 1311c0 34 17.167 51.001 51.5 51.001s51.5 -17 51.5 -51s-17 -51 -51 -51c-15.333 0 -27.833 5.16699 -37.5 15.5s-14.5 22.166 -14.5 35.499z" />
    <glyph glyph-name="ring" unicode="&#x2da;" horiz-adv-x="512" 
d="M123 1229c0 -35.333 13.333 -66.333 40 -93s57.667 -40 93 -40s66.333 13.333 93 40s40 57.667 40 93s-13.333 66.333 -40 93s-57.667 40 -93 40s-66.333 -13.333 -93 -40s-40 -57.667 -40 -93zM451 1229c0 -52 -19.833 -97.5 -59.5 -136.5s-84.834 -58.5 -135.501 -58.5
s-95.834 19.5 -135.501 58.5s-59.5 84.5 -59.5 136.5s19.833 97.333 59.5 136s84.834 58 135.501 58s95.834 -19.333 135.501 -58s59.5 -84 59.5 -136z" />
    <glyph glyph-name="ogonek" unicode="&#x2db;" horiz-adv-x="419" 
d="M205 0h51.0029c-10.667 -9.33301 -23.834 -22.666 -39.501 -39.999s-36.834 -47.833 -63.501 -91.5s-40 -81.834 -40 -114.501c0 -31.333 11.5 -57.833 34.5 -79.5s52.5 -32.5 88.5 -32.5c22 0 43.167 3.33301 63.5 10s35.166 13.334 44.499 20.001l14 11v-52
c-34 -27.333 -74.667 -41 -122 -41c-50.667 0 -92.5 15.833 -125.5 47.5s-49.5 70.5 -49.5 116.5c0 39.333 12 79.666 36 120.999s47.667 72 71 92z" />
    <glyph glyph-name="tilde" unicode="&#x2dc;" horiz-adv-x="675" 
d="M205 1341c-27.333 0 -47.833 -10.834 -61.5 -32.501s-20.5 -61.834 -20.5 -120.501h-62c0 143.333 48 215 144 215c30 0 57.667 -7.83301 83 -23.5s45.833 -33.5 61.5 -53.5s34 -37.833 55 -53.5s43.167 -23.5 66.5 -23.5c27.333 0 47.833 11 61.5 33
s20.5 62.333 20.5 121h61c0 -143.333 -47.667 -215 -143 -215c-30 0 -57.667 7.83301 -83 23.5s-45.833 33.334 -61.5 53.001s-34 37.334 -55 53.001s-43.167 23.5 -66.5 23.5z" />
    <glyph glyph-name="hungarumlaut" unicode="&#x2dd;" horiz-adv-x="624" 
d="M61 1157l154 256h72l-174 -256h-52zM338 1157l154 256h71l-174 -256h-51z" />
    <glyph glyph-name="uni0401" unicode="&#x401;" horiz-adv-x="1280" 
d="M297 61h901v-61h-962v1434h942v-62h-881v-594h717v-61h-717v-656zM492 1761c0 34 17 51 51 51s51 -17 51 -51s-17 -51 -51 -51s-51 17 -51 51zM819 1761c0 34 17.167 51 51.5 51s51.5 -17 51.5 -51s-17.167 -51 -51.5 -51s-51.5 17 -51.5 51z" />
    <glyph glyph-name="uni0402" unicode="&#x402;" horiz-adv-x="1443" 
d="M1290 440c0 -142 -39.834 -254.17 -119.501 -336.503s-186.5 -123.5 -320.5 -123.5v61c118.667 0 211.5 34.833 278.5 104.5s100.5 167.834 100.5 294.501c0 121.333 -33.167 216.5 -99.5 285.5s-156.166 103.5 -269.499 103.5c-69.333 0 -138.166 -13.5 -206.499 -40.5
s-119.5 -54.167 -153.5 -81.5l-49 -41v-666h-62v1372h-389v62h840v-62h-389v-624c13.333 10.667 31.666 23.834 54.999 39.501s70.833 36.834 142.5 63.501s142.167 40 211.5 40c128.667 0 232.5 -40.667 311.5 -122s118.5 -191 118.5 -329z" />
    <glyph glyph-name="uni0403" unicode="&#x403;" horiz-adv-x="1116" 
d="M635 1628l153 256h72l-174 -256h-51zM236 0v1434h849v-62h-788v-1372h-61z" />
    <glyph glyph-name="uni0404" unicode="&#x404;" horiz-adv-x="1525" 
d="M1382 328l52 -41.001c-5.33301 -8 -13.5 -19 -24.5 -33s-35.333 -38.667 -73 -74s-77.667 -66.666 -120 -93.999s-97.666 -51.833 -165.999 -73.5s-138.5 -32.5 -210.5 -32.5c-195.333 0 -363.666 72 -504.999 216s-212 317.667 -212 521s70.667 377 212 521
s309.666 216 504.999 216c72.667 0 142.667 -10.5 210 -31.5s123.166 -46.667 167.499 -77s83.5 -60.5 117.5 -90.5s58.667 -55 74 -75l25 -33l-52 -41c-5.33301 8 -12.666 18.5 -21.999 31.5s-31.166 35.833 -65.499 68.5s-70.666 61.667 -108.999 87
s-88.833 48.333 -151.5 69s-127.334 31 -194.001 31c-177.333 0 -329.5 -62.167 -456.5 -186.5s-193.5 -273.833 -199.5 -448.5h809v-62h-809c5.33301 -184 71.166 -339.167 197.499 -465.5s279.166 -189.5 458.499 -189.5c66.667 0 131 9.83301 193 29.5
s113.167 43.5 153.5 71.5s75.833 56 106.5 84s53 52.333 67 73z" />
    <glyph glyph-name="uni0405" unicode="&#x405;" horiz-adv-x="1126" 
d="M942 379c0 57.333 -14.999 106.503 -44.999 147.503s-68.5 72.667 -115.5 95s-99.167 42.166 -156.5 59.499s-115 35.5 -173 54.5s-110.667 41.167 -158 66.5s-86 60.833 -116 106.5s-45 101.167 -45 166.5c0 105.333 41.667 194.833 125 268.5s192 110.5 326 110.5
c48 0 94.5 -6.16699 139.5 -18.5s82.5 -26.666 112.5 -42.999s56.5 -33 79.5 -50s40.167 -31.833 51.5 -44.5l16 -18l-51 -51c-2.66699 4 -7.16699 9.66699 -13.5 17s-20.333 20.666 -42 39.999s-44.834 36.166 -69.501 50.499s-57.167 27.333 -97.5 39
s-82.166 17.5 -125.499 17.5c-118.667 0 -213.167 -30.5 -283.5 -91.5s-105.5 -136.5 -105.5 -226.5c0 -56 15 -103.833 45 -143.5s68.5 -70.334 115.5 -92.001s99.5 -41 157.5 -58s115.667 -35.167 173 -54.5s109.5 -41.833 156.5 -67.5s85.667 -62.167 116 -109.5
s45.5 -104.333 45.5 -171c0 -110.667 -43.167 -204.834 -129.5 -282.501s-196.833 -116.5 -331.5 -116.5c-56 0 -109.667 7.16699 -161 21.5s-93.333 31.333 -126 51s-61 39.334 -85 59.001s-41.333 37.167 -52 52.5l-17 20l52 52c2.66699 -5.33301 7 -12.5 13 -21.5
s20.667 -24.5 44 -46.5s48.666 -41.5 75.999 -58.5s63.833 -32.667 109.5 -47s94.5 -21.5 146.5 -21.5c120 0 216.5 32.5 289.5 97.5s109.5 145.167 109.5 240.5z" />
    <glyph glyph-name="uni0406" unicode="&#x406;" horiz-adv-x="532" 
d="M236 0v1434h61v-1434h-61z" />
    <glyph glyph-name="uni0407" unicode="&#x407;" horiz-adv-x="532" 
d="M236 0v1434h61v-1434h-61zM51 1761c0 34 17.167 51 51.5 51s51.5 -17 51.5 -51s-17.167 -51 -51.5 -51s-51.5 17 -51.5 51zM379 1761c0 34 17 51 51 51s51 -17 51 -51s-17 -51 -51 -51s-51 17 -51 51z" />
    <glyph glyph-name="uni0408" unicode="&#x408;" horiz-adv-x="983" 
d="M707 1434l60.9951 -0.000976562v-1024c0 -122.667 -39.667 -225 -119 -307s-176.333 -123 -291 -123c-66.667 0 -128 12.833 -184 38.5s-95.667 50.834 -119 75.501l-35 39l52 51c2.66699 -4 6.33398 -9 11.001 -15s15.834 -17.167 33.501 -33.5s36.834 -31 57.501 -44
s47.334 -24.667 80.001 -35s67.334 -15.5 104.001 -15.5c98 0 180.667 34.5 248 103.5s101 157.5 101 265.5v1024z" />
    <glyph glyph-name="uni0409" unicode="&#x409;" horiz-adv-x="2170" 
d="M1597 0l-460 -0.000976562v1372h-686v-368c0 -206 -9.33301 -379.5 -28 -520.5s-45 -246.667 -79 -317s-70.167 -119 -108.5 -146s-82.833 -40.5 -133.5 -40.5c-18 0 -36.5 1.66699 -55.5 5s-33.167 7 -42.5 11l-14 4v61c34 -13.333 68 -20 102 -20
c42 0 79.167 12.333 111.5 37s63.5 69.667 93.5 135s52.833 164.333 68.5 297s23.5 297.334 23.5 494.001v430h809v-574h399c132.667 0 241 -40.667 325 -122s126 -184 126 -308s-42 -226.667 -126 -308s-192.333 -122 -325 -122zM1198 60.999h399.001
c117.333 0 211.666 34.5 282.999 103.5s107 157.5 107 265.5s-35.5 196.5 -106.5 265.5s-165.5 103.5 -283.5 103.5h-399v-738z" />
    <glyph glyph-name="uni040A" unicode="&#x40a;" horiz-adv-x="2160" 
d="M1587 0h-461v799h-829v-799h-61v1434h61v-574h829v574h62v-574h399c132.667 0 241 -40.667 325 -122s126 -184 126 -308s-42 -226.667 -126 -308s-192.333 -122 -325 -122zM1188 61h399c117.333 0 211.5 34.5 282.5 103.5s106.5 157.5 106.5 265.5
s-35.5 196.5 -106.5 265.5s-165.167 103.5 -282.5 103.5h-399v-738z" />
    <glyph glyph-name="uni040B" unicode="&#x40b;" horiz-adv-x="1484" 
d="M1229 0v460.998c0 113.333 -33.5 203 -100.5 269s-156.5 99 -268.5 99c-69.333 0 -138.166 -13.5 -206.499 -40.5s-119.5 -54.167 -153.5 -81.5l-49 -41v-666h-62v1372h-389v62h840v-62h-389v-624c13.333 10.667 31.666 23.834 54.999 39.501s70.833 36.834 142.5 63.501
s142.167 40 211.5 40c128.667 0 232.5 -39.667 311.5 -119s118.5 -183 118.5 -311v-461h-61z" />
    <glyph glyph-name="uni040C" unicode="&#x40c;" horiz-adv-x="1320" 
d="M297 492l850 942h82l-533 -594l584 -840h-72l-553 799l-358 -389v-410h-61v1434h61v-942zM666 1628l153 256h72l-174 -256h-51z" />
    <glyph glyph-name="uni040E" unicode="&#x40e;" horiz-adv-x="1208" 
d="M614 1690c56 0 102.5 18.333 139.5 55s55.5 83 55.5 139h61c0 -70.667 -24.833 -131 -74.5 -181s-110 -75 -181 -75s-131.5 25 -181.5 75s-75 110.333 -75 181h62c0 -56 18.333 -102.333 55 -139s83 -55 139 -55zM635 471l460.999 963h61l-553 -1158
c-49.333 -101.333 -101.166 -176 -155.499 -224s-118.5 -72 -192.5 -72c-18 0 -36.5 1.66699 -55.5 5s-33.167 7 -42.5 11l-15 4v61c34 -13.333 71.667 -20 113 -20c122.667 0 219 78.333 289 235l59 134l-553 1024h62z" />
    <glyph glyph-name="uni040F" unicode="&#x40f;" horiz-adv-x="1515" 
d="M1280 1434v-1434h-492v-307h-61v307h-491v1434h61v-1373h922v1373h61z" />
    <glyph glyph-name="uni0410" unicode="&#x410;" horiz-adv-x="1372" 
d="M1044 502l-358 860l-358 -860h716zM1065 440h-758l-184 -440h-62l594 1434h62l594 -1434h-62z" />
    <glyph glyph-name="uni0411" unicode="&#x411;" horiz-adv-x="1300" 
d="M297 1372l0.000976562 -532.002h440c121.333 0 225.166 -41.667 311.499 -125s129.5 -181.666 129.5 -294.999s-43 -211.666 -129 -294.999s-190 -125 -312 -125h-501v1434h829v-62h-768zM297.001 60.998l440 0.00195312c106.667 0 196.5 35.167 269.5 105.5
s109.5 154.666 109.5 252.999s-36.5 182.666 -109.5 252.999s-162.833 105.5 -269.5 105.5h-440v-717z" />
    <glyph glyph-name="uni0412" unicode="&#x412;" horiz-adv-x="1341" 
d="M911 768l0.000976562 -9.99805c8 -1.33301 18.667 -3.33301 32 -6s36.333 -12.334 69 -29.001s61.667 -36.5 87 -59.5s48.166 -58.167 68.499 -105.5s30.5 -100.333 30.5 -159c0 -118.667 -38.167 -214.834 -114.5 -288.501s-178.166 -110.5 -305.499 -110.5h-542v1434
h512c112 0 203 -33.833 273 -101.5s105 -153.5 105 -257.5c0 -48 -7.5 -91.333 -22.5 -130s-33 -68.667 -54 -90s-41.833 -38.833 -62.5 -52.5s-38.334 -23.167 -53.001 -28.5zM297.001 61.002h481c112 0 199.833 30.5 263.5 91.5s95.5 143.167 95.5 246.5
c0 98 -32.167 177.167 -96.5 237.5s-151.833 90.5 -262.5 90.5h-481v-666zM748.001 1372l-451 0.000976562v-584h451c101.333 0 179.5 25.667 234.5 77s82.5 121.333 82.5 210c0 87.333 -28.667 158.666 -86 213.999s-134.333 83 -231 83z" />
    <glyph glyph-name="uni0413" unicode="&#x413;" horiz-adv-x="1116" 
d="M236 0v1434h849v-62h-788v-1372h-61z" />
    <glyph glyph-name="uni0414" unicode="&#x414;" horiz-adv-x="1423" 
d="M0 61l82 0.000976562c6.66699 5.33301 16.167 14.666 28.5 27.999s33.833 45.833 64.5 97.5s57.667 110 81 175s44.5 154.833 63.5 269.5s28.5 239 28.5 373v430h819v-1373h185v-368h-62v307h-1229v-307h-61v368zM410 1004c0 -130 -9.00098 -251.332 -27.001 -363.999
s-39.167 -202.834 -63.5 -270.501s-49.166 -126 -74.499 -175s-47 -83.833 -65 -104.5l-26 -29h952v1311h-696v-368z" />
    <glyph glyph-name="uni0415" unicode="&#x415;" horiz-adv-x="1280" 
d="M297 61h901v-61h-962v1434h942v-62h-881v-594h717v-61h-717v-656z" />
    <glyph glyph-name="uni0416" unicode="&#x416;" horiz-adv-x="1904" 
d="M1239 799l-256 -277v-522h-61v522l-256 277l-553 -799h-72l584 840l-533 594h82l748 -830v830h61v-830l748 830h81l-532 -594l584 -840h-72z" />
    <glyph glyph-name="uni0417" unicode="&#x417;" horiz-adv-x="1126" 
d="M676 758c8 -1.33301 19.165 -3.83398 33.498 -7.50098s40 -14.334 77 -32.001s69.167 -38.334 96.5 -62.001s52.5 -59.5 75.5 -107.5s34.5 -101.333 34.5 -160c0 -110.667 -44.667 -206.5 -134 -287.5s-201.666 -121.5 -336.999 -121.5
c-57.333 0 -111.833 7.16699 -163.5 21.5s-94.334 31.333 -128.001 51s-63.167 39.334 -88.5 59.001s-43.333 37.167 -54 52.5l-16 20l51 52c2.66699 -5.33301 7.33398 -12.5 14.001 -21.5s22 -24.5 46 -46.5s50.333 -41.5 79 -58.5s66.167 -32.667 112.5 -47
s95.5 -21.5 147.5 -21.5c120 0 218.333 34.167 295 102.5s115 150.166 115 245.499s-37.167 175.5 -111.5 240.5s-173.833 97.5 -298.5 97.5h-164v61h164c114.667 0 204.834 28.333 270.501 85s98.5 127.334 98.5 212.001c0 86 -33.5 158.833 -100.5 218.5
s-156.5 89.5 -268.5 89.5c-44 0 -86.333 -6.16699 -127 -18.5s-74.334 -26.666 -101.001 -42.999s-50.167 -33.166 -70.5 -50.499s-35.5 -32 -45.5 -44l-14 -18l-51 51c4 5.33301 9.66699 12.166 17 20.499s24.333 23 51 44s54.667 39.667 84 56s67.333 31 114 44
s94.334 19.5 143.001 19.5c126.667 0 230 -36.167 310 -108.5s120 -159.166 120 -260.499c0 -52 -9.5 -98.667 -28.5 -140s-41.833 -73 -68.5 -95s-53.667 -40.5 -81 -55.5s-50.333 -24.5 -69 -28.5z" />
    <glyph glyph-name="uni0418" unicode="&#x418;" horiz-adv-x="1576" 
d="M236 1434h61v-1321l993 1321h51v-1434h-61v1321l-993 -1321h-51v1434z" />
    <glyph glyph-name="uni0419" unicode="&#x419;" horiz-adv-x="1576" 
d="M788.5 1690c55.667 0 101.999 18.333 138.999 55s55.5 83 55.5 139h61c0 -70.667 -24.5 -131 -73.5 -181s-109.667 -75 -182 -75s-133.166 25 -182.499 75s-74 110.333 -74 181h62c0 -56 18.5 -102.333 55.5 -139s83.333 -55 139 -55zM235.999 1434h61v-1321l993 1321h51
v-1434h-61v1321l-993 -1321h-51v1434z" />
    <glyph glyph-name="uni041A" unicode="&#x41a;" horiz-adv-x="1320" 
d="M297 492l850 942h82l-533 -594l584 -840h-72l-553 799l-358 -389v-410h-61v1434h61v-942z" />
    <glyph glyph-name="uni041B" unicode="&#x41b;" horiz-adv-x="1484" 
d="M1249 1434v-1434h-61v1372h-737v-368c0 -206 -9.33301 -379.5 -28 -520.5s-45 -246.667 -79 -317s-70.167 -119 -108.5 -146s-82.833 -40.5 -133.5 -40.5c-18 0 -36.5 1.66699 -55.5 5s-33.167 7 -42.5 11l-14 4v61c34 -13.333 68 -20 102 -20
c42 0 79.167 12.333 111.5 37s63.5 69.667 93.5 135s52.833 164.333 68.5 297s23.5 297.334 23.5 494.001v430h860z" />
    <glyph glyph-name="uni041C" unicode="&#x41c;" horiz-adv-x="1863" 
d="M287 1434l645 -891l645 891h51v-1434h-61v1321l-635 -883l-635 883v-1321h-61v1434h51z" />
    <glyph glyph-name="uni041D" unicode="&#x41d;" horiz-adv-x="1515" 
d="M236 0v1434h61v-676h922v676h61v-1434h-61v696h-922v-696h-61z" />
    <glyph glyph-name="uni041E" unicode="&#x41e;" horiz-adv-x="1679" 
d="M1495 716.5c0 188.333 -64.167 348.166 -192.5 479.499s-282.666 197 -462.999 197s-334.666 -65.667 -462.999 -197s-192.5 -291.166 -192.5 -479.499s64.167 -348 192.5 -479s282.666 -196.5 462.999 -196.5s334.666 65.5 462.999 196.5s192.5 290.667 192.5 479z
M1556 717c0 -203.333 -70.5 -377 -211.5 -521s-309.167 -216 -504.5 -216s-363.666 72 -504.999 216s-212 317.667 -212 521s70.667 377 212 521s309.666 216 504.999 216s363.5 -72 504.5 -216s211.5 -317.667 211.5 -521z" />
    <glyph glyph-name="uni041F" unicode="&#x41f;" horiz-adv-x="1515" 
d="M1280 1434v-1434h-61v1372h-922v-1372h-61v1434h1044z" />
    <glyph glyph-name="uni0420" unicode="&#x420;" horiz-adv-x="1300" 
d="M236 1434l491 -0.00195312c132.667 0 241 -40.667 325 -122s126 -184.166 126 -308.499s-42 -227.166 -126 -308.499s-192.333 -122 -325 -122h-430v-573h-61v1434zM727 1372h-430v-737h430c117.333 0 211.5 34.5 282.5 103.5s106.5 157.333 106.5 265
s-35.5 196 -106.5 265s-165.167 103.5 -282.5 103.5z" />
    <glyph glyph-name="uni0421" unicode="&#x421;" horiz-adv-x="1525" 
d="M123 717c0 203.333 70.665 376.998 211.998 520.998s309.666 216 504.999 216c72.667 0 142.667 -10.5 210 -31.5s123.166 -46.667 167.499 -77s83.5 -60.5 117.5 -90.5s58.667 -55 74 -75l25 -33l-52 -41c-5.33301 8 -12.666 18.5 -21.999 31.5
s-31.166 35.833 -65.499 68.5s-70.666 61.667 -108.999 87s-88.833 48.333 -151.5 69s-127.334 31 -194.001 31c-180 0 -334.333 -65.667 -463 -197s-193 -291.166 -193 -479.499s64.167 -348 192.5 -479s282.833 -196.5 463.5 -196.5c66.667 0 131 9.83301 193 29.5
s113.167 43.5 153.5 71.5s75.833 56 106.5 84s53 52.333 67 73l22 29l52 -41c-5.33301 -8 -13.5 -19 -24.5 -33s-35.333 -38.667 -73 -74s-77.667 -66.666 -120 -93.999s-97.666 -51.833 -165.999 -73.5s-138.5 -32.5 -210.5 -32.5c-195.333 0 -363.666 72 -504.999 216
s-212 317.667 -212 521z" />
    <glyph glyph-name="uni0422" unicode="&#x422;" horiz-adv-x="1105" 
d="M41 1434h1024v-62h-481v-1372h-62v1372h-481v62z" />
    <glyph glyph-name="uni0423" unicode="&#x423;" horiz-adv-x="1208" 
d="M635 471l460.999 963h61l-553 -1158c-49.333 -101.333 -101.166 -176 -155.499 -224s-118.5 -72 -192.5 -72c-18 0 -36.5 1.66699 -55.5 5s-33.167 7 -42.5 11l-15 4v61c34 -13.333 71.667 -20 113 -20c122.667 0 219 78.333 289 235l59 134l-553 1024h62z" />
    <glyph glyph-name="uni0424" unicode="&#x424;" horiz-adv-x="1720" 
d="M829 213v1047c-198 -5.33301 -355 -58 -471 -158s-174 -221.667 -174 -365s58 -265.166 174 -365.499s273 -153.166 471 -158.499zM891 153.998v-195h-62v195c-212.667 5.33301 -383.5 64 -512.5 176s-193.5 247.833 -193.5 407.5s64.5 295.5 193.5 407.5
s299.833 170.667 512.5 176v154h62v-154c212.667 -5.33301 383.5 -64 512.5 -176s193.5 -247.833 193.5 -407.5s-64.5 -295.5 -193.5 -407.5s-299.833 -170.667 -512.5 -176zM891 1260v-1047c198 5.33301 355 58.166 471 158.499s174 222.166 174 365.499s-58 265 -174 365
s-273 152.667 -471 158z" />
    <glyph glyph-name="uni0425" unicode="&#x425;" horiz-adv-x="1249" 
d="M1085 1434h72l-502 -697l533 -737h-72l-491 686l-492 -686h-72l533 737l-502 697h72l461 -646z" />
    <glyph glyph-name="uni0426" unicode="&#x426;" horiz-adv-x="1525" 
d="M236 0v1434h61v-1373h901v1373h62v-1373h184v-368h-62v307h-1146z" />
    <glyph glyph-name="uni0427" unicode="&#x427;" horiz-adv-x="1423" 
d="M276 1434v-429.998c0 -128.667 38 -230.834 114 -306.501s178 -113.5 306 -113.5c76.667 0 150.834 14.667 222.501 44s124.5 58.333 158.5 87l49 43v676h62v-1434h-62v676c-4 -4 -10.333 -9.5 -19 -16.5s-27.667 -19.333 -57 -37s-59.833 -33.334 -91.5 -47.001
s-71.334 -26 -119.001 -37s-95.5 -16.5 -143.5 -16.5c-143.333 0 -259.333 44.333 -348 133s-133 205 -133 349v430h61z" />
    <glyph glyph-name="uni0428" unicode="&#x428;" horiz-adv-x="2048" 
d="M236 0v1434h61v-1373h696v1373h62v-1373h696v1373h61v-1434h-1576z" />
    <glyph glyph-name="uni0429" unicode="&#x429;" horiz-adv-x="2078" 
d="M236 0v1434h61v-1373h696v1373h62v-1373h696v1373h61v-1373h185v-368h-62v307h-1699z" />
    <glyph glyph-name="uni042A" unicode="&#x42a;" horiz-adv-x="1402" 
d="M829 0h-471v1372h-358v62h420v-574h409c132.667 0 241 -40.667 325 -122s126 -184 126 -308s-42 -226.667 -126 -308s-192.333 -122 -325 -122zM420 61h409.001c117.333 0 211.666 34.5 282.999 103.5s107 157.5 107 265.5s-35.5 196.5 -106.5 265.5
s-165.5 103.5 -283.5 103.5h-409v-738z" />
    <glyph glyph-name="uni042B" unicode="&#x42b;" horiz-adv-x="1761" 
d="M1526 0h-62v1434h62v-1434zM707 0h-471v1434h61v-574h410c132.667 0 240.834 -40.667 324.501 -122s125.5 -184 125.5 -308s-41.833 -226.667 -125.5 -308s-191.834 -122 -324.501 -122zM297 61h410c117.333 0 211.5 34.5 282.5 103.5s106.5 157.5 106.5 265.5
s-35.5 196.5 -106.5 265.5s-165.167 103.5 -282.5 103.5h-410v-738z" />
    <glyph glyph-name="uni042C" unicode="&#x42c;" horiz-adv-x="1300" 
d="M727 0h-491v1434h61v-574h430c132.667 0 241 -40.667 325 -122s126 -184 126 -308s-42 -226.667 -126 -308s-192.333 -122 -325 -122zM297 61h430c117.333 0 211.5 34.5 282.5 103.5s106.5 157.5 106.5 265.5s-35.5 196.5 -106.5 265.5s-165.167 103.5 -282.5 103.5h-430
v-738z" />
    <glyph glyph-name="uni042D" unicode="&#x42d;" horiz-adv-x="1505" 
d="M72 287l51.0029 40.998c5.33301 -8 12.833 -18.667 22.5 -32s31.5 -36.333 65.5 -69s70.167 -61.667 108.5 -87s88.833 -48.166 151.5 -68.499s127.667 -30.5 195 -30.5c178.667 0 331.167 63.167 457.5 189.5s192.166 281.5 197.499 465.5h-809v62h809
c-5.33301 174.667 -71.5 324.167 -198.5 448.5s-279.167 186.5 -456.5 186.5c-66.667 0 -131.167 -10 -193.5 -30s-113.666 -44 -153.999 -72s-75.833 -56 -106.5 -84s-53.667 -52 -69 -72l-20 -29l-51 41c5.33301 8 13.5 18.833 24.5 32.5s35.167 38.334 72.5 74.001
s77.166 67.167 119.499 94.5s97.666 51.833 165.999 73.5s138.833 32.5 211.5 32.5c195.333 0 363.5 -72 504.5 -216s211.5 -317.667 211.5 -521s-70.667 -377 -212 -521s-309.333 -216 -504 -216c-72.667 0 -142.834 10.5 -210.501 31.5s-123.667 46.5 -168 76.5
s-83.5 60 -117.5 90s-59.333 55.333 -76 76z" />
    <glyph glyph-name="uni042E" unicode="&#x42e;" horiz-adv-x="2109" 
d="M297 1434l0.000976562 -676.001h338c5.33301 188.667 75.666 351.834 210.999 489.501s290.333 206.5 465 206.5c182.667 0 341 -71.333 475 -214s201 -317 201 -523s-67 -380.333 -201 -523s-292.333 -214 -475 -214c-180 0 -336.333 69.5 -469 208.5
s-201.667 308.167 -207 507.5h-338v-696h-61v1434h61zM696.001 716.999c0 -191.333 60.833 -351.833 182.5 -481.5s265.834 -194.5 432.501 -194.5s310.667 64.833 432 194.5s182 290.167 182 481.5s-60.667 351.833 -182 481.5s-265.333 194.5 -432 194.5
s-310.834 -64.833 -432.501 -194.5s-182.5 -290.167 -182.5 -481.5z" />
    <glyph glyph-name="uni042F" unicode="&#x42f;" horiz-adv-x="1341" 
d="M584 1434l522.001 0.00292969v-1434h-62v614h-501l-348 -614h-72l358 625c-9.33301 1.33301 -21.166 3.66602 -35.499 6.99902s-40.333 14.166 -78 32.499s-70.834 40.833 -99.501 67.5s-54.834 65.667 -78.501 117s-35.5 109.666 -35.5 174.999
c0 118.667 40 216.667 120 294s183.333 116 310 116zM1044 1372h-460c-112 0 -201.5 -32 -268.5 -96s-100.5 -148 -100.5 -252s33.5 -188 100.5 -252s156.5 -96 268.5 -96h460v696z" />
    <glyph glyph-name="uni0430" unicode="&#x430;" horiz-adv-x="1034" 
d="M379 543l398.997 70.999v11c0 96.667 -27.667 173.667 -83 231s-126.666 86 -213.999 86c-57.333 0 -110.833 -13 -160.5 -39s-84.834 -51.333 -105.501 -76l-31 -39l-41 41c2.66699 4 7.16699 10.167 13.5 18.5s20 22.5 41 42.5s43.5 37.833 67.5 53.5
s55.5 29.667 94.5 42s79.5 18.5 121.5 18.5c104 0 189.833 -35.167 257.5 -105.5s101.5 -161.5 101.5 -273.5v-625h-62v205c-2.66699 -5.33301 -6.66699 -13.166 -12 -23.499s-18.666 -28.5 -39.999 -54.5s-44.666 -48.833 -69.999 -68.5s-60.166 -37.667 -104.499 -54
s-91.5 -24.5 -141.5 -24.5c-94 0 -172.167 27.5 -234.5 82.5s-93.5 119.5 -93.5 193.5c0 156 99 251.667 297 287zM409.997 38.999c102.667 0 189.668 36.832 261.001 110.499s107 163.834 107 270.501v133l-399 -72c-76.667 -13.333 -135.167 -39.833 -175.5 -79.5
s-60.5 -88.167 -60.5 -145.5c0 -58.667 24.667 -109.5 74 -152.5s113.666 -64.5 192.999 -64.5z" />
    <glyph glyph-name="uni0431" unicode="&#x431;" horiz-adv-x="1157" 
d="M1034 471c0 -136.667 -45 -252.669 -135 -348.002s-195 -143 -315 -143c-130 0 -241 56.167 -333 168.5s-138 264.166 -138 455.499c0 243.333 45 427.333 135 552s208.667 200 356 226c69.333 12 131.333 27.333 186 46s91.667 34.334 111 47.001l31 20l31 -51
c-75.333 -54.667 -191.666 -95.667 -348.999 -123c-132.667 -23.333 -238.834 -90.666 -318.501 -201.999s-120.167 -272.666 -121.5 -483.999c2.66699 8 7.16699 19.167 13.5 33.5s21 40 44 77s48.833 69.167 77.5 96.5s68.667 52.5 120 75.5s106.333 34.5 165 34.5
c114.667 0 216.667 -47.333 306 -142s134 -207.667 134 -339zM195 470.998c0 -113.333 39.166 -213.332 117.499 -299.999s168.833 -130 271.5 -130c105.333 0 196.5 41.667 273.5 125s115.5 185 115.5 305c0 116 -38.333 215 -115 297s-164.667 123 -264 123
c-101.333 0 -193.166 -41.333 -275.499 -124s-123.5 -181.334 -123.5 -296.001z" />
    <glyph glyph-name="uni0432" unicode="&#x432;" horiz-adv-x="1044" 
d="M174 983l420.002 -0.000976562c86 0 153.5 -23.167 202.5 -69.5s73.5 -108.5 73.5 -186.5c0 -52 -11.833 -95.667 -35.5 -131s-47.834 -58 -72.501 -68l-35 -16c5.33301 -1.33301 12.166 -3 20.499 -5s23 -8.5 44 -19.5s39.667 -24.333 56 -40s31 -38.5 44 -68.5
s19.5 -64.333 19.5 -103c0 -83.333 -26.5 -150.166 -79.5 -200.499s-125.5 -75.5 -217.5 -75.5h-440v983zM614.002 480.999h-378v-420h378c76.667 0 135.167 19.167 175.5 57.5s60.5 90.833 60.5 157.5c0 62.667 -20.167 112.5 -60.5 149.5s-98.833 55.5 -175.5 55.5z
M809.002 726.999c0 130 -71.667 195 -215 195h-358v-379h358c69.333 0 122.5 16.333 159.5 49s55.5 77.667 55.5 135z" />
    <glyph glyph-name="uni0433" unicode="&#x433;" horiz-adv-x="819" 
d="M778 983v-61h-542v-922h-62v983h604z" />
    <glyph glyph-name="uni0434" unicode="&#x434;" horiz-adv-x="1116" 
d="M1044 61l0.000976562 -306.998h-59v246h-934v-246h-61v307h82c5.33301 5.33301 12 13.166 20 23.499s22.667 34.666 44 72.999s40.166 80 56.499 125s31 104.667 44 179s19.5 152.5 19.5 234.5v287h625v-922h163zM317.001 922.002l-0.000976562 -226
c0 -78 -6 -153.167 -18 -225.5s-26.667 -132.333 -44 -180s-34.166 -89.5 -50.499 -125.5s-30.5 -62.333 -42.5 -79l-19 -25h676v861h-502z" />
    <glyph glyph-name="uni0435" unicode="&#x435;" horiz-adv-x="1126" 
d="M1014 461l-850.002 -0.00292969c5.33301 -117.333 48.333 -216.666 129 -297.999s177.667 -122 291 -122c40.667 0 79.834 6.5 117.501 19.5s68.667 28.333 93 46s45.833 35.334 64.5 53.001s32 32.834 40 45.501l12 20l52 -41c-4 -5.33301 -9.5 -12.833 -16.5 -22.5
s-22.167 -26 -45.5 -49s-48.666 -43.333 -75.999 -61s-62.833 -34 -106.5 -49s-88.5 -22.5 -134.5 -22.5c-130 0 -242.833 49.833 -338.5 149.5s-143.5 220.5 -143.5 362.5c0 140.667 46.833 261.167 140.5 361.5s200.5 150.5 320.5 150.5s225.167 -49.167 315.5 -147.5
s135.5 -219.833 135.5 -364.5v-31zM563.498 941.997c-103.667 0 -196.167 -41.999 -277.5 -125.999s-122 -182 -122 -294h788c-5.33301 121.333 -45.5 221.666 -120.5 300.999s-164.333 119 -268 119z" />
    <glyph glyph-name="uni0436" unicode="&#x436;" horiz-adv-x="1454" 
d="M748 328v-328h-62v328l-194 204h-11l-379 -532h-71l420 584l-369 399h82l522 -573v573h62v-573l522 573h82l-369 -399l420 -584h-72l-379 532h-10z" />
    <glyph glyph-name="uni0437" unicode="&#x437;" horiz-adv-x="880" 
d="M707 748c0 -54.667 -15.5029 -101.499 -46.5029 -140.499s-61.5 -64.833 -91.5 -77.5l-47 -18c5.33301 -1.33301 13.166 -3.33301 23.499 -6s28.5 -10.167 54.5 -22.5s48.833 -26.666 68.5 -42.999s37.834 -40.666 54.501 -72.999s25 -68.166 25 -107.499
c0 -76.667 -32.167 -142.5 -96.5 -197.5s-148.5 -82.5 -252.5 -82.5c-42 0 -82.167 6 -120.5 18s-70.166 26.333 -95.499 43s-47.5 33.5 -66.5 50.5s-33.167 31.5 -42.5 43.5l-13 19l52 51c2.66699 -4 6.33398 -9.83301 11.001 -17.5s15.834 -21 33.501 -40
s36.834 -35.667 57.501 -50s47.334 -27.333 80.001 -39s67.334 -17.5 104.001 -17.5c88.667 0 158.667 21.167 210 63.5s77 94.166 77 155.499c0 62.667 -25.667 115.167 -77 157.5s-121.333 63.5 -210 63.5h-102v62h102c75.333 0 135.166 19.333 179.499 58
s66.5 87.667 66.5 147c0 53.333 -22.5 99 -67.5 137s-104.5 57 -178.5 57c-32.667 0 -64 -4.5 -94 -13.5s-54.833 -19.833 -74.5 -32.5s-37.334 -25.834 -53.001 -39.501s-27.167 -24.834 -34.5 -33.501l-10 -14l-51 51c2.66699 4 7 9.16699 13 15.5
s19.333 17.666 40 33.999s42.167 31 64.5 44s51.666 24.667 87.999 35s73.5 15.5 111.5 15.5c88.667 0 162.167 -25.333 220.5 -76s87.5 -110.667 87.5 -180z" />
    <glyph glyph-name="uni0438" unicode="&#x438;" 
d="M942 983h51v-983h-61v881l-707 -881h-51v983h62v-881z" />
    <glyph glyph-name="uni0439" unicode="&#x439;" 
d="M584 1219c61.333 0 109 17 143 51s51 81.667 51 143h62c0 -76.667 -23.667 -138.5 -71 -185.5s-109.166 -70.5 -185.499 -70.5s-138 23.5 -185 70.5s-70.5 108.833 -70.5 185.5h61c0 -61.333 17.167 -109 51.5 -143s82.166 -51 143.499 -51zM942 983h51v-983h-61v881
l-707 -881h-51v983h62v-881z" />
    <glyph glyph-name="uni043A" unicode="&#x43a;" horiz-adv-x="1003" 
d="M236 256v-256h-62v983h62v-645l583 645h82l-369 -399l420 -584h-71l-379 532h-10z" />
    <glyph glyph-name="uni043B" unicode="&#x43b;" horiz-adv-x="1136" 
d="M276 983h666.001v-983h-61v922h-543v-226c0 -146 -6.5 -267.833 -19.5 -365.5s-31.833 -171 -56.5 -220s-51 -83 -79 -102s-61.667 -28.5 -101 -28.5c-15.333 0 -30.833 1.66699 -46.5 5s-27.5 7 -35.5 11l-10 4v59c27.333 -12 54.666 -18 81.999 -18
c42 0 76.667 14.333 104 43s50.833 93.167 70.5 193.5s29.5 239.833 29.5 418.5v287z" />
    <glyph glyph-name="uni043C" unicode="&#x43c;" horiz-adv-x="1331" 
d="M655 297l-419 573v-870h-62v983h51l430 -584l430 584h52v-983h-62v870z" />
    <glyph glyph-name="uni043D" unicode="&#x43d;" horiz-adv-x="1167" 
d="M911 0v471h-675v-471h-62v983h62v-451h675v451h62v-983h-62z" />
    <glyph glyph-name="uni043E" unicode="&#x43e;" 
d="M1004 492c0 125.333 -41.6689 231.667 -125.002 319s-181.666 131 -294.999 131c-114.667 0 -213.334 -43.333 -296.001 -130s-124 -193.5 -124 -320.5s41.333 -233.833 124 -320.5s181.334 -130 296.001 -130s213.334 43.5 296.001 130.5s124 193.833 124 320.5z
M1065 492.001c0 -142 -47.833 -262.833 -143.5 -362.5s-208.334 -149.5 -338.001 -149.5s-242.334 49.833 -338.001 149.5s-143.5 220.5 -143.5 362.5s47.833 262.833 143.5 362.5s208.334 149.5 338.001 149.5s242.334 -49.833 338.001 -149.5s143.5 -220.5 143.5 -362.5z
" />
    <glyph glyph-name="uni043F" unicode="&#x43f;" horiz-adv-x="1167" 
d="M913 0v922h-677v-922h-62v983h799v-983h-60z" />
    <glyph glyph-name="uni0440" unicode="&#x440;" horiz-adv-x="1208" 
d="M236 246l-0.00195312 -676h-62v1413h62v-246c2.66699 6.66699 7.33398 16.167 14.001 28.5s22 34 46 65s50.333 58 79 81s66.167 44.167 112.5 63.5s95.5 29 147.5 29c116 0 220 -50.667 312 -152s138 -221.5 138 -360.5s-46 -259 -138 -360s-196 -151.5 -312 -151.5
c-52 0 -101.167 9.16699 -147.5 27.5s-84.166 40.5 -113.499 66.5s-55 51.833 -77 77.5s-37.667 47.5 -47 65.5zM634.998 41c101.333 0 191.5 44 270.5 132s118.5 194.167 118.5 318.5s-39.667 230.5 -119 318.5s-169.333 132 -270 132
c-105.333 0 -198.166 -43.667 -278.499 -131s-120.5 -193.833 -120.5 -319.5s40.167 -232.167 120.5 -319.5s173.166 -131 278.499 -131z" />
    <glyph glyph-name="uni0441" unicode="&#x441;" horiz-adv-x="1064" 
d="M164 491.5c0 -127 41.332 -233.834 123.999 -320.501s181.334 -130 296.001 -130c39.333 0 77.833 6.5 115.5 19.5s68.667 28.333 93 46s45.833 35.334 64.5 53.001s32 32.834 40 45.501l14 20l52 -41c-4 -5.33301 -9.5 -12.833 -16.5 -22.5s-22.5 -26 -46.5 -49
s-49.667 -43.333 -77 -61s-62.5 -34 -105.5 -49s-87.5 -22.5 -133.5 -22.5c-130 0 -242.833 49.833 -338.5 149.5s-143.5 220.5 -143.5 362.5s47.833 262.833 143.5 362.5s208.5 149.5 338.5 149.5c46.667 0 91 -7.16699 133 -21.5s77.333 -31.5 106 -51.5
s54 -39.833 76 -59.5s37.667 -37.167 47 -52.5l17 -20l-52 -41c-2.66699 5.33301 -7 12.166 -13 20.499s-19.333 23 -40 44s-42.5 39.667 -65.5 56s-53.667 31 -92 44s-77.166 19.5 -116.499 19.5c-114.667 0 -213.334 -43.333 -296.001 -130s-124 -193.5 -124 -320.5z" />
    <glyph glyph-name="uni0442" unicode="&#x442;" horiz-adv-x="901" 
d="M31 922v61h819v-61h-379v-922h-61v922h-379z" />
    <glyph glyph-name="uni0443" unicode="&#x443;" horiz-adv-x="962" 
d="M358 -205l82.001 204.999l-399 983h61l369 -901l369 901h61l-481 -1188c-31.333 -79.333 -66.833 -136.666 -106.5 -171.999s-89.5 -53 -149.5 -53c-15.333 0 -29.833 1.66699 -43.5 5s-23.834 7 -30.501 11l-8 4v62c20.667 -13.333 48 -20.333 82 -21
c85.333 0 150 54.667 194 164z" />
    <glyph glyph-name="uni0444" unicode="&#x444;" horiz-adv-x="1413" 
d="M666 -430v410c-161.333 0 -293.833 49 -397.5 147s-155.5 219.5 -155.5 364.5s51.833 266.667 155.5 365s236.167 147.5 397.5 147.5v430h61v-430c161.333 0 293.833 -49.167 397.5 -147.5s155.5 -220 155.5 -365s-51.833 -266.5 -155.5 -364.5
s-236.167 -147 -397.5 -147v-410h-61zM1219 491.5c0 129.667 -45.5 237.167 -136.5 322.5s-209.5 128 -355.5 128v-901c146 0 264.5 42.667 355.5 128s136.5 192.833 136.5 322.5zM174 491.5c0 -129.667 45.332 -237.167 135.999 -322.5s209.334 -128 356.001 -128v901
c-146 0 -264.5 -42.667 -355.5 -128s-136.5 -192.833 -136.5 -322.5z" />
    <glyph glyph-name="uni0445" unicode="&#x445;" horiz-adv-x="921" 
d="M481 512l379 -512h-72l-337 461l-338 -461h-72l379 512l-348 471h71l308 -420l307 420h71z" />
    <glyph glyph-name="uni0446" unicode="&#x446;" 
d="M174 0v983h62v-922h657v922h59v-922h164v-307h-59v246h-883z" />
    <glyph glyph-name="uni0447" unicode="&#x447;" horiz-adv-x="1095" 
d="M840 0l-0.00390625 440.001c-9.33301 -6.66699 -22.666 -15.167 -39.999 -25.5s-54.666 -24 -111.999 -41s-116 -25.5 -176 -25.5c-112 0 -199.667 31.167 -263 93.5s-95 147.166 -95 254.499v287h61v-287c0 -92.667 25.333 -163.5 76 -212.5
s124.334 -73.5 221.001 -73.5c60 0 117.333 8.5 172 25.5s94.334 34.167 119.001 51.5l37 25v471h61v-983h-61z" />
    <glyph glyph-name="uni0448" unicode="&#x448;" horiz-adv-x="1597" 
d="M174 0v983h62v-922h522v922h61v-922h524v922h60v-983h-1229z" />
    <glyph glyph-name="uni0449" unicode="&#x449;" horiz-adv-x="1638" 
d="M174 0v983h62v-922h522v922h61v-922h522v922h62v-922h164v-307h-62v246h-1331z" />
    <glyph glyph-name="uni044A" unicode="&#x44a;" horiz-adv-x="1064" 
d="M963 307c0 -88.667 -31.167 -161.999 -93.5 -219.999s-143.833 -87 -244.5 -87h-349v922h-286v61h348v-358h287c101.333 0 183 -29.833 245 -89.5s93 -135.834 93 -228.501zM338 61.001l287 0.000976562c86 0 153.5 22.667 202.5 68s73.5 104.666 73.5 177.999
c0 78 -24.5 140.167 -73.5 186.5s-116.5 69.5 -202.5 69.5h-287v-502z" />
    <glyph glyph-name="uni044B" unicode="&#x44b;" horiz-adv-x="1372" 
d="M1178 983v-983h-62v983h62zM236 61l286 0.000976562c86 0 153.667 22.667 203 68s74 104.666 74 177.999c0 78 -24.667 140.167 -74 186.5s-117 69.5 -203 69.5h-286v-502zM860 307.001c0 -88.667 -31 -161.999 -93 -219.999s-143.667 -87 -245 -87h-348v983h62v-358h286
c101.333 0 183 -29.833 245 -89.5s93 -135.834 93 -228.501z" />
    <glyph glyph-name="uni044C" unicode="&#x44c;" horiz-adv-x="983" 
d="M236 61l307 0.000976562c86 0 153.5 22.667 202.5 68s73.5 104.666 73.5 177.999c0 78 -24.5 140.167 -73.5 186.5s-116.5 69.5 -202.5 69.5h-307v-502zM881 307.001c0 -88.667 -31.167 -161.999 -93.5 -219.999s-143.833 -87 -244.5 -87h-369v983h62v-358h307
c101.333 0 183 -29.833 245 -89.5s93 -135.834 93 -228.501z" />
    <glyph glyph-name="uni044D" unicode="&#x44d;" horiz-adv-x="1044" 
d="M61 184l52.001 41.001c2.66699 -5.33301 7 -12 13 -20s19.333 -22.667 40 -44s42.5 -40.166 65.5 -56.499s53.667 -31 92 -44s77.166 -19.5 116.499 -19.5c113.333 0 210.333 41.667 291 125s123.667 188.333 129 315h-532v62h532
c-10.667 109.333 -56.667 203.166 -138 281.499s-175.333 117.5 -282 117.5c-39.333 0 -77.833 -6.5 -115.5 -19.5s-68.667 -28.333 -93 -46s-45.833 -35.334 -64.5 -53.001s-32 -32.834 -40 -45.501l-14 -20l-52 41c4 5.33301 9.5 12.833 16.5 22.5s22.5 26 46.5 49
s49.667 43.333 77 61s62.5 34.167 105.5 49.5s87.5 23 133.5 23c130 0 242.833 -49.833 338.5 -149.5s143.5 -220.5 143.5 -362.5s-47.833 -262.833 -143.5 -362.5s-208.5 -149.5 -338.5 -149.5c-46.667 0 -91 7.16699 -133 21.5s-77.333 31.333 -106 51
s-54 39.334 -76 59.001s-37.667 37.167 -47 52.5z" />
    <glyph glyph-name="uni044E" unicode="&#x44e;" horiz-adv-x="1536" 
d="M1413 491.5c0 -146.333 -45.332 -268.167 -135.999 -365.5s-199 -146 -325 -146c-124 0 -230.333 46.333 -319 139s-135.667 210 -141 352h-256v-471h-62v983h62v-451h256c9.33301 132.667 58.666 244.5 147.999 335.5s193.333 136.5 312 136.5
c125.333 0 233.5 -48.833 324.5 -146.5s136.5 -219.667 136.5 -366zM553.001 491.499c0 -131 38.833 -238.833 116.5 -323.5s171.834 -127 282.501 -127s205 42.333 283 127s117 192.5 117 323.5s-39 238.833 -117 323.5s-172.333 127 -283 127
s-204.834 -42.333 -282.501 -127s-116.5 -192.5 -116.5 -323.5z" />
    <glyph glyph-name="uni044F" unicode="&#x44f;" horiz-adv-x="1024" 
d="M102 676c0 88.667 31.1641 162 93.4971 220s143.833 87 244.5 87h389v-983h-61v379h-369l-225 -379h-72l236 389c-6.66699 1.33301 -15.167 4 -25.5 8s-29.166 13.667 -56.499 29s-51.166 32.5 -71.499 51.5s-39.166 46.333 -56.499 82s-26 74.5 -26 116.5zM767.997 922
l-328.001 -0.000976562c-86 0 -153.5 -22.667 -202.5 -68s-73.5 -104.666 -73.5 -177.999c0 -68 24.833 -124.333 74.5 -169s116.834 -67 201.501 -67h328v482z" />
    <glyph glyph-name="uni0451" unicode="&#x451;" horiz-adv-x="1126" 
d="M1014 461l-850.002 -0.00292969c5.33301 -117.333 48.333 -216.666 129 -297.999s177.667 -122 291 -122c40.667 0 79.834 6.5 117.501 19.5s68.667 28.333 93 46s45.833 35.334 64.5 53.001s32 32.834 40 45.501l12 20l52 -41c-4 -5.33301 -9.5 -12.833 -16.5 -22.5
s-22.167 -26 -45.5 -49s-48.666 -43.333 -75.999 -61s-62.833 -34 -106.5 -49s-88.5 -22.5 -134.5 -22.5c-130 0 -242.833 49.833 -338.5 149.5s-143.5 220.5 -143.5 362.5c0 140.667 46.833 261.167 140.5 361.5s200.5 150.5 320.5 150.5s225.167 -49.167 315.5 -147.5
s135.5 -219.833 135.5 -364.5v-31zM563.498 941.997c-103.667 0 -196.167 -41.999 -277.5 -125.999s-122 -182 -122 -294h788c-5.33301 121.333 -45.5 221.666 -120.5 300.999s-164.333 119 -268 119zM339.998 1292c0 34 17 51 51 51s51 -17 51 -51s-17 -51 -51 -51
s-51 17 -51 51zM667.998 1292c0 34 17 51 51 51s51 -17 51 -51s-17 -51 -51 -51s-51 17 -51 51z" />
    <glyph glyph-name="uni0452" unicode="&#x452;" horiz-adv-x="1177" 
d="M276 1434l-0.000976562 -214.999h318v-62h-318v-471c2.66699 5.33301 6.5 13.166 11.5 23.499s17 28.5 36 54.5s40.833 48.833 65.5 68.5s58.834 37.667 102.501 54s91.5 24.5 143.5 24.5c110.667 0 206.5 -44.333 287.5 -133s121.5 -197.667 121.5 -327
c0 -140.667 -39.167 -254.334 -117.5 -341.001s-175.5 -130 -291.5 -130v61c100 0 183 37.167 249 111.5s99 173.833 99 298.5c0 114.667 -34.5 209.834 -103.5 285.501s-150.5 113.5 -244.5 113.5c-104 0 -189.833 -35.833 -257.5 -107.5s-101.5 -165.5 -101.5 -281.5v-461
h-61v1157h-184v62h184v215h61z" />
    <glyph glyph-name="uni0453" unicode="&#x453;" horiz-adv-x="819" 
d="M440 1157l154 256h72l-174 -256h-52zM778 983v-61h-542v-922h-62v983h604z" />
    <glyph glyph-name="uni0454" unicode="&#x454;" horiz-adv-x="1064" 
d="M911 225l51.999 -41.002c-4 -5.33301 -9.5 -12.833 -16.5 -22.5s-22.5 -26 -46.5 -49s-49.667 -43.333 -77 -61s-62.5 -34 -105.5 -49s-87.5 -22.5 -133.5 -22.5c-130 0 -242.833 49.833 -338.5 149.5s-143.5 220.5 -143.5 362.5s47.833 262.833 143.5 362.5
s208.5 149.5 338.5 149.5c46.667 0 91 -7.16699 133 -21.5s77.333 -31.5 106 -51.5s54 -39.833 76 -59.5s37.667 -37.167 47 -52.5l17 -20l-52 -41c-2.66699 5.33301 -7 12.166 -13 20.499s-19.333 23 -40 44s-42.5 39.667 -65.5 56s-53.667 31 -92 44
s-77.166 19.5 -116.499 19.5c-106.667 0 -200.667 -39.167 -282 -117.5s-127.333 -172.166 -138 -281.499h532v-62h-532c5.33301 -126.667 48.333 -231.667 129 -315s177.667 -125 291 -125c39.333 0 77.833 6.5 115.5 19.5s68.667 28.333 93 46s45.833 35.334 64.5 53.001
s32 32.834 40 45.501z" />
    <glyph glyph-name="uni0455" unicode="&#x455;" horiz-adv-x="880" 
d="M737 860l-51.001 -51c-6.66699 9.33301 -16.5 21.5 -29.5 36.5s-41.667 34.833 -86 59.5s-91.166 37 -140.499 37c-69.333 0 -127.666 -20.833 -174.999 -62.5s-71 -89.167 -71 -142.5c0 -46.667 19.833 -84.5 59.5 -113.5s87.5 -51 143.5 -66s112 -31.5 168 -49.5
s103.833 -46 143.5 -84s59.5 -87.333 59.5 -148c0 -83.333 -31.5 -153.5 -94.5 -210.5s-144.167 -85.5 -243.5 -85.5c-64 0 -124 13.5 -180 40.5s-96.333 54.167 -121 81.5l-37 41l51 52c2.66699 -4 6.83398 -9.5 12.501 -16.5s17.667 -19.333 36 -37
s37.666 -33.334 57.999 -47.001s47 -26 80 -37s66.5 -16.5 100.5 -16.5c84.667 0 151.834 22.167 201.501 66.5s74.5 100.5 74.5 168.5c0 49.333 -19.667 89 -59 119s-87 52.833 -143 68.5s-112 32.167 -168 49.5s-103.833 44.333 -143.5 81s-59.5 84.334 -59.5 143.001
c0 68 30 129.5 90 184.5s132.333 82.5 217 82.5c57.333 0 111.666 -12 162.999 -36s88.666 -47.667 111.999 -71z" />
    <glyph glyph-name="uni0456" unicode="&#x456;" horiz-adv-x="450" 
d="M184 0v983h62v-983h-62zM266 1341.5c0 -34.333 -17 -51.5 -51 -51.5s-51 17.167 -51 51.5s17 51.5 51 51.5s51 -17.167 51 -51.5z" />
    <glyph glyph-name="uni0457" unicode="&#x457;" horiz-adv-x="450" 
d="M0 1294.5c0 34.333 17 51.5 51 51.5s51 -17.167 51 -51.5s-17 -51.5 -51 -51.5s-51 17.167 -51 51.5zM328 1294.5c0 34.333 17 51.5 51 51.5s51 -17.167 51 -51.5s-17 -51.5 -51 -51.5s-51 17.167 -51 51.5zM246 983v-983h-62v983h62z" />
    <glyph glyph-name="uni0458" unicode="&#x458;" horiz-adv-x="450" 
d="M184 -174l-0.000976562 1157h62v-1157c0 -75.333 -22.5 -136.833 -67.5 -184.5s-101.167 -71.5 -168.5 -71.5c-22 0 -43.167 2.66699 -63.5 8s-35.166 10.666 -44.499 15.999l-15 7v61c34 -20.667 75 -31 123 -31c52 0 94 17.5 126 52.5s48 82.5 48 142.5z
M265.999 1341.5c0 -34.333 -17 -51.5 -51 -51.5s-51 17.167 -51 51.5s17 51.5 51 51.5s51 -17.167 51 -51.5z" />
    <glyph glyph-name="uni0459" unicode="&#x459;" horiz-adv-x="1607" 
d="M1505 287c0 -84.667 -29.999 -153.666 -89.999 -206.999s-142.667 -80 -248 -80h-338v922h-491v-226c0 -146 -6.5 -267.833 -19.5 -365.5s-31.833 -171 -56.5 -220s-51 -83 -79 -102s-61.667 -28.5 -101 -28.5c-15.333 0 -30.833 1.66699 -46.5 5s-27.5 7 -35.5 11l-10 4
v59c27.333 -12 54.666 -18 81.999 -18c42 0 76.667 14.333 104 43s50.833 93.167 70.5 193.5s29.5 239.833 29.5 418.5v287h615v-399h276c106.667 0 189.667 -27.333 249 -82s89 -126.334 89 -215.001zM891.001 61.001h276c90 0 158.667 20.5 206 61.5s71 95.833 71 164.5
c0 74 -23.5 131.667 -70.5 173s-115.833 62 -206.5 62h-276v-461z" />
    <glyph glyph-name="uni045A" unicode="&#x45a;" horiz-adv-x="1617" 
d="M1516 287c0 -84.667 -30.167 -153.666 -90.5 -206.999s-142.833 -80 -247.5 -80h-338v522h-604v-522h-62v983h62v-399h604v399h61v-399h277c106.667 0 189.667 -27.333 249 -82s89 -126.334 89 -215.001zM901 61.001h277c90 0 158.5 20.5 205.5 61.5
s70.5 95.833 70.5 164.5c0 74 -23.5 131.667 -70.5 173s-115.5 62 -205.5 62h-277v-461z" />
    <glyph glyph-name="uni045B" unicode="&#x45b;" horiz-adv-x="1218" 
d="M276 1434l-0.000976562 -214.999h318v-62h-318v-471c2.66699 5.33301 6.5 13.166 11.5 23.499s17 28.5 36 54.5s40.833 48.833 65.5 68.5s58.834 37.667 102.501 54s91.5 24.5 143.5 24.5c109.333 0 201.5 -39.5 276.5 -118.5s112.5 -179.167 112.5 -300.5v-492h-61v492
c0 106.667 -31.167 193 -93.5 259s-140.5 99 -234.5 99c-104 0 -189.833 -35.833 -257.5 -107.5s-101.5 -165.5 -101.5 -281.5v-461h-61v1157h-184v62h184v215h61z" />
    <glyph glyph-name="uni045C" unicode="&#x45c;" horiz-adv-x="1003" 
d="M481 1157l154 256h72l-175 -256h-51zM236 256v-256h-62v983h62v-645l583 645h82l-369 -399l420 -584h-71l-379 532h-10z" />
    <glyph glyph-name="uni045E" unicode="&#x45e;" horiz-adv-x="962" 
d="M358 -205l82.001 204.999l-399 983h61l369 -901l369 901h61l-481 -1188c-31.333 -79.333 -66.833 -136.666 -106.5 -171.999s-89.5 -53 -149.5 -53c-15.333 0 -29.833 1.66699 -43.5 5s-23.834 7 -30.501 11l-8 4v62c20.667 -13.333 48 -20.333 82 -21
c85.333 0 150 54.667 194 164zM471.001 1219c61.333 0 109.168 17 143.501 51s51.5 81.667 51.5 143h61c0 -76.667 -23.5 -138.5 -70.5 -185.5s-108.833 -70.5 -185.5 -70.5s-138.5 23.5 -185.5 70.5s-70.5 108.833 -70.5 185.5h61c0 -61.333 17.167 -109 51.5 -143
s82.166 -51 143.499 -51z" />
    <glyph glyph-name="uni045F" unicode="&#x45f;" horiz-adv-x="1167" 
d="M174 0v983h62v-922h677v922h60v-983h-369v-246h-61v246h-369z" />
    <glyph glyph-name="uni0490" unicode="&#x490;" horiz-adv-x="1116" 
d="M1024 1434v286h61v-348h-788v-1372h-61v1434h788z" />
    <glyph glyph-name="uni0491" unicode="&#x491;" horiz-adv-x="819" 
d="M174 0v983h543v246h61v-307h-542v-922h-62z" />
    <glyph glyph-name="uni1E9E" unicode="&#x1e9e;" horiz-adv-x="1331" 
d="M1116 1372l-399 -531.999h20c131.333 0 239.333 -40.333 324 -121s127 -180.334 127 -299.001s-42.333 -218.334 -127 -299.001s-192.667 -121 -324 -121h-92v61h92c116 0 209.833 33.833 281.5 101.5s107.5 153.334 107.5 257.001s-35.833 189.334 -107.5 257.001
s-165.5 101.5 -281.5 101.5h-92v62l399 532h-419c-98 0 -177.167 -31.667 -237.5 -95s-90.5 -151 -90.5 -263v-1014h-61v1014c0 125.333 36.833 226.666 110.5 303.999s166.5 116 278.5 116h491v-62z" />
    <glyph glyph-name="endash" unicode="&#x2013;" horiz-adv-x="952" 
d="M860 635v-62h-768v62h768z" />
    <glyph glyph-name="emdash" unicode="&#x2014;" horiz-adv-x="1443" 
d="M1352 635v-62h-1260v62h1260z" />
    <glyph glyph-name="quoteleft" unicode="&#x2018;" horiz-adv-x="389" 
d="M143 1116l-71 41l204 318l41 -21z" />
    <glyph glyph-name="quoteright" unicode="&#x2019;" horiz-adv-x="389" 
d="M246 1475l71 -41l-204 -318l-41 21z" />
    <glyph glyph-name="quotesinglbase" unicode="&#x201a;" horiz-adv-x="368" 
d="M164 113l72 -41l-195 -318l-41 21z" />
    <glyph glyph-name="quotedblleft" unicode="&#x201c;" horiz-adv-x="655" 
d="M143 1116l-71 41l204 318l41 -21zM410 1116l-72 41l205 318l41 -21z" />
    <glyph glyph-name="quotedblright" unicode="&#x201d;" horiz-adv-x="655" 
d="M512 1475l72 -41l-205 -318l-41 21zM246 1475l71 -41l-204 -318l-41 21z" />
    <glyph glyph-name="quotedblbase" unicode="&#x201e;" horiz-adv-x="624" 
d="M164 113l72 -41l-195 -318l-41 21zM420 113l72 -41l-195 -318l-41 21z" />
    <glyph glyph-name="dagger" unicode="&#x2020;" horiz-adv-x="839" 
d="M389 1137v297h62v-297h266v-62h-266v-665h-62v665h-266v62h266z" />
    <glyph glyph-name="daggerdbl" unicode="&#x2021;" horiz-adv-x="839" 
d="M389 1137v297h62v-297h266v-62h-266v-307h266v-61h-266v-297h-62v297h-266v61h266v307h-266v62h266z" />
    <glyph glyph-name="bullet" unicode="&#x2022;" horiz-adv-x="757" 
d="M236 491.5c0 41 13.5 75.167 40.5 102.5s61 41 102 41s75.167 -13.667 102.5 -41s41 -61.5 41 -102.5s-13.667 -75.167 -41 -102.5s-61.5 -41 -102.5 -41s-75 13.667 -102 41s-40.5 61.5 -40.5 102.5z" />
    <glyph glyph-name="ellipsis" unicode="&#x2026;" 
d="M246 51c0 -34 -17.167 -51 -51.5 -51s-51.5 17 -51.5 51s17.167 51 51.5 51s51.5 -17 51.5 -51zM645 51c0 -34 -17 -51 -51 -51s-51 17 -51 51s17 51 51 51s51 -17 51 -51zM1044 51c0 -34 -17 -51 -51 -51s-51 17 -51 51s17 51 51 51s51 -17 51 -51z" />
    <glyph glyph-name="perthousand" unicode="&#x2030;" horiz-adv-x="2263" 
d="M297 0l901 1434h62l-902 -1434h-61zM635 1136.5c0 75 -22.5 136.5 -67.5 184.5s-101 72 -168 72s-123 -24 -168 -72s-67.5 -109.5 -67.5 -184.5s22.5 -136.333 67.5 -184s101 -71.5 168 -71.5s123 23.833 168 71.5s67.5 109 67.5 184zM696 1136.5
c0 -91.667 -28.667 -167.5 -86 -227.5s-127.666 -90 -210.999 -90s-153.666 30 -210.999 90s-86 135.833 -86 227.5s28.667 167.5 86 227.5s127.666 90 210.999 90s153.666 -30 210.999 -90s86 -135.833 86 -227.5zM1393 297c0 75.333 -22.667 136.833 -68 184.5
s-101.333 71.5 -168 71.5s-122.5 -23.833 -167.5 -71.5s-67.5 -109.167 -67.5 -184.5s22.5 -136.833 67.5 -184.5s100.833 -71.5 167.5 -71.5s122.667 23.833 168 71.5s68 109.167 68 184.5zM1454 297c0 -91.333 -28.667 -167 -86 -227s-127.666 -90 -210.999 -90
s-153.666 30 -210.999 90s-86 135.667 -86 227s28.667 167 86 227s127.666 90 210.999 90s153.666 -30 210.999 -90s86 -135.667 86 -227zM2099 297c0 75.333 -22.5 136.833 -67.5 184.5s-101 71.5 -168 71.5s-123 -23.833 -168 -71.5s-67.5 -109.167 -67.5 -184.5
s22.5 -136.833 67.5 -184.5s101 -71.5 168 -71.5s123 23.833 168 71.5s67.5 109.167 67.5 184.5zM2161 297c0 -91.333 -28.667 -167 -86 -227s-127.666 -90 -210.999 -90s-153.666 30 -210.999 90s-86 135.667 -86 227s28.667 167 86 227s127.666 90 210.999 90
s153.666 -30 210.999 -90s86 -135.667 86 -227z" />
    <glyph glyph-name="guilsinglleft" unicode="&#x2039;" horiz-adv-x="532" 
d="M184 492l236 -318h-72l-235 318l235 317h72z" />
    <glyph glyph-name="guilsinglright" unicode="&#x203a;" horiz-adv-x="532" 
d="M348 492l-235 317h71l236 -317l-236 -318h-71z" />
    <glyph glyph-name="fraction" unicode="&#x2044;" horiz-adv-x="471" 
d="M-246 0l901 1434h62l-901 -1434h-62z" />
    <glyph glyph-name="uni2070" unicode="&#x2070;" horiz-adv-x="716" 
d="M143 1280c0 -96.667 20.833 -172 62.5 -226s92.667 -81 153 -81s111.166 27 152.499 81s62 129.333 62 226s-20.667 172 -62 226s-92.166 81 -152.499 81s-111.333 -27 -153 -81s-62.5 -129.333 -62.5 -226zM635 1280c0 -113.333 -27.333 -203.166 -82 -269.499
s-119.5 -99.5 -194.5 -99.5s-139.833 33.167 -194.5 99.5s-82 156.166 -82 269.499s27.333 203.166 82 269.499s119.5 99.5 194.5 99.5s139.833 -33.167 194.5 -99.5s82 -156.166 82 -269.499z" />
    <glyph glyph-name="uni2074" unicode="&#x2074;" horiz-adv-x="604" 
d="M461 1167h102v-61h-102v-184h-62v184h-358v61l348 471h72v-471zM399 1167v400l-297 -400h297z" />
    <glyph glyph-name="uni2075" unicode="&#x2075;" horiz-adv-x="552" 
d="M276 1372c66.667 0 122.666 -22.5029 167.999 -67.5029s68 -100.833 68 -167.5c0 -61.333 -22.833 -114.333 -68.5 -159s-101.5 -67 -167.5 -67c-49.333 0 -95 9.33301 -137 28s-72 37.334 -90 56.001l-29 29l41 41c5.33301 -6.66699 13.833 -15.167 25.5 -25.5
s36.334 -24 74.001 -41s76.167 -25.5 115.5 -25.5c50.667 0 92.5 15.667 125.5 47s49.5 70.333 49.5 117c0 50.667 -16.5 92.334 -49.5 125.001s-74.833 49 -125.5 49c-27.333 0 -52.833 -6.16699 -76.5 -18.5s-41.167 -24.166 -52.5 -35.499l-14 -18h-61l30 399h369v-61
h-307l-21 -256c34 34 78.333 51 133 51z" />
    <glyph glyph-name="uni2076" unicode="&#x2076;" horiz-adv-x="573" 
d="M287 1403c66.667 0 124.168 -24.3301 172.501 -72.9971s72.5 -106.334 72.5 -173.001s-24.167 -124.334 -72.5 -173.001s-106 -73 -173 -73s-124.667 24.333 -173 73s-72.5 106.334 -72.5 173.001c0 27.333 5.16699 55.666 15.5 84.999s20.166 51.666 29.499 66.999
l16 22l195 307h61l-153 -256c20.667 14 48 21 82 21zM471.001 1157c0 52 -17.667 95.667 -53 131s-79 53 -131 53s-95.833 -18 -131.5 -54s-53.5 -79.333 -53.5 -130s17.833 -94 53.5 -130s79.5 -54 131.5 -54s95.667 18 131 54s53 79.333 53 130z" />
    </font>
</defs>
</svg>
