<?xml version="1.0" standalone="no"?>
<!DOCTYPE svg PUBLIC "-//W3C//DTD SVG 1.1//EN" "http://www.w3.org/Graphics/SVG/1.1/DTD/svg11.dtd" >
<svg xmlns="http://www.w3.org/2000/svg" xmlns:xlink="http://www.w3.org/1999/xlink" version="1.1">
<metadata>
Created by FontForge 20190801 at Tue May 30 06:25:21 2017
 By Jimmy Wärting
Copyright (c) 2017 by TypeType. Designers Ivan Gladkikh, Pavel Emelyanov. Technical designers Olexa Volochay, Nadyr Rakhimov, Dmitriy Greshnev. All rights reserved.
</metadata>
<defs>
<font id="TTNorms-ExtraLightItalic" horiz-adv-x="1177" >
  <font-face 
    font-family="TT Norms ExtraLight Italic"
    font-weight="200"
    font-style="italic"
    font-stretch="normal"
    units-per-em="2048"
    panose-1="2 0 8 3 3 0 0 9 0 3"
    ascent="1638"
    descent="-410"
    x-height="983"
    cap-height="1434"
    bbox="-340 -451.001 2945.01 1976"
    underline-thickness="0"
    underline-position="0"
    unicode-range="U+000D-FB06"
  />
<missing-glyph horiz-adv-x="0" 
 />
    <glyph glyph-name="ij" unicode="ij" horiz-adv-x="931" 
d="M535 -174l44.9971 205.003c-56 -34 -118.333 -51 -187 -51c-83.333 0 -148.5 31.667 -195.5 95s-60.833 140.666 -41.5 231.999l145 676h61l-145 -676c-16.667 -76.667 -7.16699 -140.167 28.5 -190.5s86.834 -75.5 153.501 -75.5c30 0 61.5 5.16699 94.5 15.5
s58.167 20.166 75.5 29.499l25 16l188 881h62l-248 -1157c-16.667 -76.667 -51.167 -138.5 -103.5 -185.5s-112.166 -70.5 -179.499 -70.5c-22 0 -43.167 2.66699 -63.5 8s-35.166 10.666 -44.499 15.999l-15 7l13 61c28.667 -20.667 66.667 -31 114 -31
c52 0 98.333 17.5 139 52.5s67 82.5 79 142.5zM458.997 1348c0 -15.333 -6.16699 -28.833 -18.5 -40.5s-26.833 -17.5 -43.5 -17.5c-30 0 -45 15.667 -45 47c0 16.667 6.16699 30.167 18.5 40.5s26.833 15.5 43.5 15.5c30 0 45 -15 45 -45zM941.997 1348
c0 -15.333 -6.16699 -28.833 -18.5 -40.5s-26.5 -17.5 -42.5 -17.5c-30 0 -45 15.667 -45 47c0 16.667 6 30.167 18 40.5s26.333 15.5 43 15.5c30 0 45 -15 45 -45z" />
    <glyph glyph-name="uniFB00" unicode="ff" horiz-adv-x="1146" 
d="M1192 983l-14 -61.002h-246l-195 -922h-61l194 922h-471l-194 -922h-62l195 922h-164l14 61h164l37 174c18 80.667 52.167 143.5 102.5 188.5s111.833 67.5 184.5 67.5c22 0 42.833 -2.66699 62.5 -8s34.167 -10.666 43.5 -15.999l13 -7l-13 -61
c-30 20.667 -68.667 31 -116 31c-52 0 -97.833 -17.5 -137.5 -52.5s-65.5 -82.5 -77.5 -142.5l-37 -174h471l45 215c18 80.667 52.167 143.5 102.5 188.5s111.833 67.5 184.5 67.5c22 0 42.833 -2.66699 62.5 -8s34.167 -10.666 43.5 -15.999l12 -7l-12 -61
c-30 20.667 -69 31 -117 31c-52 0 -97.333 -17.5 -136 -52.5s-65 -82.5 -79 -142.5l-45 -215h246z" />
    <glyph glyph-name="uniFB01" unicode="fi" horiz-adv-x="1034" 
d="M946 983l-208.999 -983.001h-61l194 922h-471l-194 -922h-62l195 922h-164l14 61h164l45 215c18 82 51.5 145.167 100.5 189.5s109.833 66.5 182.5 66.5c22 0 43.167 -2.66699 63.5 -8s35.166 -10.666 44.499 -15.999l15 -7l-12 -61c-30 20.667 -69 31 -117 31
c-52 0 -97.5 -17.5 -136.5 -52.5s-65.167 -82.5 -78.5 -142.5l-45 -215h532zM1040 1348c0 -15.333 -6 -28.833 -18 -40.5s-26.333 -17.5 -43 -17.5c-30 0 -45 15.667 -45 47c0 16.667 6.16699 30.167 18.5 40.5s26.5 15.5 42.5 15.5c30 0 45 -15 45 -45z" />
    <glyph glyph-name="uniFB02" unicode="fl" horiz-adv-x="1064" 
d="M707 0l237 1126c4 20.667 6 40 6 58c0 60 -19.833 109.833 -59.5 149.5s-88.834 59.5 -147.501 59.5c-70.667 0 -134.667 -25.333 -192 -76s-93.666 -114.334 -108.999 -191.001l-28 -143h245l-14 -61h-246l-194 -922h-62l195 922h-164l14 61h164l29 143
c19.333 92.667 63.666 170.5 132.999 233.5s147.333 94.5 234 94.5c72.667 0 134.834 -24.833 186.501 -74.5s77.5 -112.167 77.5 -187.5c0 -22 -2 -44 -6 -66l-238 -1126h-61z" />
    <glyph glyph-name="uniFB03" unicode="ffi" horiz-adv-x="1576" 
d="M932 922l-194.999 -922.002h-61l194 922h-471l-194 -922h-62l195 922h-164l14 61h164l37 174c18 82 51.5 145.167 100.5 189.5s109.833 66.5 182.5 66.5c22 0 43.167 -2.66699 63.5 -8s35.166 -10.666 44.499 -15.999l15 -7l-13 -61c-30 20.667 -68.667 31 -116 31
c-52 0 -97.833 -17.5 -137.5 -52.5s-65.5 -82.5 -77.5 -142.5l-37 -174h471l45 215c18 82 51.5 145.167 100.5 189.5s109.5 66.5 181.5 66.5c22 0 43.333 -2.66699 64 -8s35.667 -10.666 45 -15.999l14 -7l-12 -61c-30 20.667 -69 31 -117 31
c-52 0 -97.333 -17.5 -136 -52.5s-65 -82.5 -79 -142.5l-45 -215h543l-209 -983h-61l194 922h-481zM1583 1348c0 -15.333 -6.16699 -28.833 -18.5 -40.5s-26.5 -17.5 -42.5 -17.5c-30 0 -45 15.667 -45 47c0 16.667 6 30.167 18 40.5s26.333 15.5 43 15.5
c30 0 45 -15 45 -45z" />
    <glyph glyph-name="uniFB06" unicode="st" horiz-adv-x="1556" 
d="M827 860l-52.999 -42.999c-6.66699 9.33301 -16.834 20.833 -30.501 34.5s-42.667 32.167 -87 55.5s-91.166 35 -140.499 35c-76.667 0 -141.167 -22.5 -193.5 -67.5s-78.5 -96.833 -78.5 -155.5c0 -36.667 16.667 -68.334 50 -95.001s73.833 -49.334 121.5 -68.001
s95.167 -37.834 142.5 -57.501s87.666 -46.5 120.999 -80.5s50 -74.333 50 -121c0 -91.333 -35.833 -167 -107.5 -227s-162.167 -90 -271.5 -90c-39.333 0 -77.833 5.33301 -115.5 16s-69.167 24.167 -94.5 40.5s-47.5 32.833 -66.5 49.5s-32.5 30.334 -40.5 41.001l-15 16
l54 43c2.66699 -4 6.33398 -9 11.001 -15s15.834 -17.5 33.501 -34.5s36.834 -32 57.501 -45s47 -24.667 79 -35s65 -15.5 99 -15.5c90 0 164.833 23.5 224.5 70.5s89.5 107.5 89.5 181.5c0 38 -16.833 71 -50.5 99s-74.334 51.167 -122.001 69.5s-95 37.166 -142 56.499
s-87.333 45.333 -121 78s-50.5 71.667 -50.5 117c0 76.667 33.167 144.334 99.5 203.001s147.833 88 244.5 88c53.333 0 102.666 -10.333 147.999 -31c-8 24.667 -12.333 51.334 -13 80.001c0 106.667 37.333 200.167 112 280.5s166.667 120.5 276 120.5
c82 0 151.167 -25.167 207.5 -75.5s84.5 -113.833 84.5 -190.5c0 -20.667 -2 -41.334 -6 -62.001l-28 -143h225l-14 -61h-226l-145 -686c-4 -20.667 -6 -40 -6 -58c0 -91.333 44.333 -137 133 -137c22 0 44.167 2.66699 66.5 8s39.166 11 50.499 17l18 6l-12 -62
c-36.667 -20.667 -79 -30.667 -127 -30c-60 0 -107.167 15.667 -141.5 47s-51.5 75.666 -51.5 132.999c0 24.667 2.66699 50 8 76l146 686h-205l14 61h205l29 143c4 19.333 6 37.333 6 54c0 62.667 -22.167 113.834 -66.5 153.501s-100.833 59.5 -169.5 59.5
c-92.667 0 -169 -32.167 -229 -96.5s-90 -141.5 -90 -231.5c0 -49.333 13 -97 39 -143c12 -9.33301 23.5 -19.166 34.5 -29.499s18.5 -18.5 22.5 -24.5z" />
    <glyph glyph-name="c_t.liga" unicode="ct" horiz-adv-x="1720" 
d="M676 942c-136.667 0 -256.167 -54.9971 -358.5 -164.997s-153.5 -235.333 -153.5 -376c0 -102.667 33.833 -188.334 101.5 -257.001s150.5 -103 248.5 -103c64 0 125.333 15.667 184 47s101.667 62 129 92l39 47l43 -43c-4 -5.33301 -10 -12.833 -18 -22.5
s-25.333 -26 -52 -49s-54.667 -43.333 -84 -61s-66.666 -34 -111.999 -49s-91 -22.5 -137 -22.5c-110.667 0 -205.667 40.833 -285 122.5s-119 180.5 -119 296.5c0 165.333 59.833 307.5 179.5 426.5s253.834 178.5 402.501 178.5c54.667 0 106 -10.333 154 -31
c-2.66699 5.33301 -4 8.66602 -4 9.99902c-6.66699 15.333 -10.334 38 -11.001 68c0 108 38.333 202.167 115 282.5s171 120.5 283 120.5c79.333 0 146.166 -24.167 200.499 -72.5s81.5 -110.166 81.5 -185.499c1.33301 -22 -1.33398 -48.667 -8.00098 -80l-27 -133h226
l-15 -61h-225l-145 -686c-4 -20.667 -6 -40 -6 -58c0 -91.333 44.333 -137 133 -137c22 0 44.167 2.66699 66.5 8s38.833 11 49.5 17l19 6l-12 -62c-35.333 -20.667 -77 -30.667 -125 -30c-60 0 -107.5 15.667 -142.5 47s-52.5 75.666 -52.5 132.999
c0 24.667 2.66699 50 8 76l146 686h-205l14 61h205l27 133c5.33301 32.667 8 55.334 8 68.001c0 62.667 -21.167 113.167 -63.5 151.5s-97.166 57.5 -164.499 57.5c-95.333 0 -173.666 -32.167 -234.999 -96.5s-92 -141.5 -92 -231.5c0 -26 3 -49.833 9 -71.5
s11.667 -37.5 17 -47.5l11 -14l12 -17c20.667 -16.667 39.5 -34.834 56.5 -54.501s28.833 -34.834 35.5 -45.501l10 -16l-53 -37c-2.66699 5.33301 -6.33398 11.833 -11.001 19.5s-16.667 22 -36 43s-39.5 39.333 -60.5 55s-50 30 -87 43s-75.167 19.5 -114.5 19.5z" />
    <glyph glyph-name="s_p.liga" unicode="sp" horiz-adv-x="2088" 
d="M827 860l-53.002 -42.998c-6.66699 9.33301 -16.834 20.833 -30.501 34.5s-42.667 32.167 -87 55.5s-91.166 35 -140.499 35c-76.667 0 -141.167 -22.5 -193.5 -67.5s-78.5 -96.833 -78.5 -155.5c0 -36.667 16.667 -68.334 50 -95.001s73.833 -49.334 121.5 -68.001
s95.167 -37.834 142.5 -57.501s87.666 -46.5 120.999 -80.5s50 -74.333 50 -121c0 -91.333 -35.833 -167 -107.5 -227s-162.167 -90 -271.5 -90c-39.333 0 -77.833 5.33301 -115.5 16s-69.167 24.167 -94.5 40.5s-47.5 32.833 -66.5 49.5s-32.5 30.334 -40.5 41.001l-15 16
l54 43c2.66699 -4 6.33398 -9 11.001 -15s15.834 -17.5 33.501 -34.5s36.834 -32 57.501 -45s47 -24.667 79 -35s65 -15.5 99 -15.5c90 0 164.833 23.5 224.5 70.5s89.5 107.5 89.5 181.5c0 38 -16.833 71 -50.5 99s-74.334 51.167 -122.001 69.5s-95 37.166 -142 56.499
s-87.333 45.333 -121 78s-50.5 71.667 -50.5 117c0 76.667 33.167 144.334 99.5 203.001s147.833 88 244.5 88c49.333 0 98 -9.66699 146 -29l-2 4v4c-5.33301 5.33301 -8.33301 26.666 -9 63.999c0 113.333 34.5 209.5 103.5 288.5s151.5 118.5 247.5 118.5
c72.667 0 134.5 -22.5 185.5 -67.5s76.5 -103.833 76.5 -176.5c0 -24.667 -3.33301 -52.667 -10 -84l-82 -389c5.33301 6.66699 12.333 16.167 21 28.5s28.5 34 59.5 65s63.167 58 96.5 81s75.333 44.167 126 63.5s101.667 29 153 29c98 0 181.667 -38.333 251 -115
s104 -172.334 104 -287.001c0 -80.667 -18.167 -160.167 -54.5 -238.5s-82.5 -145.166 -138.5 -200.499s-118.167 -99.666 -186.5 -132.999s-133.166 -50 -194.499 -50c-52 0 -99.167 9.16699 -141.5 27.5s-75.333 40.5 -99 66.5s-43.667 51.833 -60 77.5
s-27.5 47.5 -33.5 65.5l-8 29l-143 -676h-62l330 1556c5.33301 23.333 8 48 8 74c0 58.667 -19 105.5 -57 140.5s-86.333 52.5 -145 52.5c-78 0 -144.667 -31.167 -200 -93.5s-83 -140.5 -83 -234.5c0 -26 3 -49.833 9 -71.5s12 -37.5 18 -47.5l10 -14l10 -17zM1432 41.002
c114.667 0 225.833 55.666 333.5 166.999s161.5 239.333 161.5 384c0 101.333 -29.667 185 -89 251s-131.333 99 -216 99c-120 0 -234.333 -55.667 -343 -167s-163 -240.666 -163 -387.999c0 -100 30.5 -182.667 91.5 -248s135.833 -98 224.5 -98z" />
    <glyph glyph-name="f_t.liga" unicode="ft" horiz-adv-x="1218" 
d="M920 1055l55 255.998h61l-69 -328h225l-14 -61h-226l-145 -686c-13.333 -61.333 -8.5 -109.166 14.5 -143.499s60.5 -51.5 112.5 -51.5c22 0 44.167 2.66699 66.5 8s39.833 11 52.5 17l16 6l-12 -62c-36.667 -20.667 -79 -30.667 -127 -30c-72.667 0 -126 22.5 -160 67.5
s-42.333 107.833 -25 188.5l146 686h-492l-194 -922h-62l195 922h-164l14 61h164l45 215c18 82 51.833 145.167 101.5 189.5s110.834 66.5 183.501 66.5c22 0 42.833 -2.66699 62.5 -8s34.167 -10.666 43.5 -15.999l15 -7l-12 -61c-30 20.667 -69 31 -117 31
c-52 0 -97.5 -17.5 -136.5 -52.5s-65.167 -82.5 -78.5 -142.5l-45 -215h430c41.333 0 66.666 24 75.999 72z" />
    <glyph glyph-name=".notdef" horiz-adv-x="0" 
 />
    <glyph glyph-name="glyph1" horiz-adv-x="0" 
 />
    <glyph glyph-name="glyph1" horiz-adv-x="0" 
 />
    <glyph glyph-name="uni000D" unicode="&#xd;" horiz-adv-x="0" 
 />
    <glyph glyph-name="space" unicode=" " horiz-adv-x="368" 
 />
    <glyph glyph-name="exclam" unicode="!" horiz-adv-x="593" 
d="M299 307h-61l239 1127h62zM268 57c0 -15.333 -6.16699 -28.667 -18.5 -40s-26.5 -17 -42.5 -17c-30 0 -45 15.667 -45 47c0 16.667 6.16699 30 18.5 40s26.5 15 42.5 15c30 0 45 -15 45 -45z" />
    <glyph glyph-name="quotedbl" unicode="&#x22;" horiz-adv-x="665" 
d="M426 1434l-90 -430h-62l91 430h61zM723 1434l-90 -430h-62l91 430h61z" />
    <glyph glyph-name="numbersign" unicode="#" horiz-adv-x="1443" 
d="M55 461l25 61h317l154 389h-307l22 62h307l191 461h61l-190 -461h493l189 461h61l-190 -461h317l-22 -62h-318l-153 -389h307l-25 -61h-307l-188 -461h-62l189 461h-492l-188 -461h-62l189 461h-318zM612 911l-153 -389h491l154 389h-492z" />
    <glyph glyph-name="dollar" unicode="$" horiz-adv-x="1126" 
d="M494 41c117.333 0 220.332 31 308.999 93s133 151 133 267c0 60 -23.167 112.333 -69.5 157s-102.666 81.334 -168.999 110.001s-132.666 58 -198.999 88s-122.666 69.167 -168.999 117.5s-69.5 106.166 -69.5 173.499c0 120 44.333 217.833 133 293.5
s209 113.5 361 113.5h4l45 205h61l-47 -209c40.667 -5.33301 80.5 -14.5 119.5 -27.5s71.5 -27.333 97.5 -43s49 -31 69 -46s34.667 -28.167 44 -39.5l14 -14l-51 -43c-4 4 -9.16699 9.5 -15.5 16.5s-21 19.667 -44 38s-47.5 34.333 -73.5 48s-59.5 26 -100.5 37
s-83.167 16.5 -126.5 16.5c-132.667 0 -236.834 -31.167 -312.501 -93.5s-113.5 -143.833 -113.5 -244.5c0 -58.667 23.167 -109.834 69.5 -153.501s102.666 -79.5 168.999 -107.5s132.5 -57 198.5 -87s122.167 -70 168.5 -120s69.5 -109 69.5 -177
c0 -122.667 -46 -224.667 -138 -306s-213 -122.666 -363 -123.999l-45 -205h-62l43 207c-49.333 4 -96.166 13.833 -140.499 29.5s-80.833 33 -109.5 52s-53.5 37.667 -74.5 56s-36.5 33.833 -46.5 46.5l-14 18l53 45c2.66699 -5.33301 7.16699 -12 13.5 -20
s21.166 -23 44.499 -45s48.5 -41.167 75.5 -57.5s63.833 -31.333 110.5 -45s96 -20.5 148 -20.5z" />
    <glyph glyph-name="percent" unicode="%" horiz-adv-x="1556" 
d="M518 881c75.333 0 139.168 30.333 191.501 91s78.5 130.667 78.5 210c0 62.667 -19.667 113.834 -59 153.501s-91.333 59.5 -156 59.5c-70.667 0 -133.334 -28.667 -188.001 -86s-82 -129 -82 -215c0 -62.667 20.167 -113.834 60.5 -153.501s91.833 -59.5 154.5 -59.5z
M852.002 1184c0 -91.333 -33.5 -175 -100.5 -251s-147.5 -114 -241.5 -114c-78 0 -142.167 25.667 -192.5 77s-75.5 116 -75.5 194c0 101.333 34.5 187.333 103.5 258s147.167 106 234.5 106c79.333 0 144.5 -25.5 195.5 -76.5s76.5 -115.5 76.5 -193.5zM205.002 0
l1196 1434h69l-1196 -1434h-69zM1098 41c75.333 0 139.168 30.333 191.501 91s78.5 130.667 78.5 210c0 62.667 -19.833 113.834 -59.5 153.501s-91.5 59.5 -155.5 59.5c-70.667 0 -133.334 -28.667 -188.001 -86s-82 -129 -82 -215
c0 -62.667 20.167 -113.834 60.5 -153.501s91.833 -59.5 154.5 -59.5zM1432 344c0 -91.333 -33.499 -174.833 -100.499 -250.5s-147.5 -113.5 -241.5 -113.5c-78 0 -142.333 25.5 -193 76.5s-76 115.5 -76 193.5c0 101.333 34.5 187.333 103.5 258s147.167 106 234.5 106
c79.333 0 144.666 -25.5 195.999 -76.5s77 -115.5 77 -193.5z" />
    <glyph glyph-name="ampersand" unicode="&#x26;" horiz-adv-x="1249" 
d="M969 1200c0 -50.667 -11.6699 -99.832 -35.0029 -147.499s-56.833 -91.334 -100.5 -131.001s-85 -73.5 -124 -101.5s-84.5 -57 -136.5 -87l299 -469c12 12 27.333 29.667 46 53s47.834 72.666 87.501 147.999s67.834 152.333 84.501 231h61
c-19.333 -87.333 -49.5 -170.833 -90.5 -250.5s-77.167 -138.167 -108.5 -175.5l-47 -53c5.33301 -12 13.5 -26.667 24.5 -44s32.5 -40.333 64.5 -69s63 -43 93 -43l64 11l-12 -62c-18 -6.66699 -37.333 -10 -58 -10c-39.333 0 -77.166 14 -113.499 42
s-62.5 56.333 -78.5 85l-27 41c-4 -5.33301 -9.66699 -12.166 -17 -20.499s-24 -23.333 -50 -45s-53.667 -40.834 -83 -57.501s-67.333 -31.667 -114 -45s-94.334 -20 -143.001 -20c-96.667 0 -177.834 30 -243.501 90s-98.5 130.333 -98.5 211
c0 52 12.833 103.833 38.5 155.5s57.334 96 95.001 133s75.334 69.833 113.001 98.5s69.5 50.334 95.5 65.001l39 21c-10.667 15.333 -24 34.833 -40 58.5s-37.333 67.167 -64 130.5s-40 119.666 -40 168.999c0 96.667 36.5 177.834 109.5 243.501s155.5 98.5 247.5 98.5
c72.667 0 134.5 -25 185.5 -75s76.5 -109.667 76.5 -179zM833.997 215.002l-311.999 487.004c-9.33301 -4 -21.833 -10.333 -37.5 -19s-43.334 -27.334 -83.001 -56.001s-74.5 -58.334 -104.5 -89.001s-57.667 -69 -83 -115s-38 -91.333 -38 -136
c0 -66.667 27 -124.334 81 -173.001s122.667 -73 206 -73c44 0 86.667 6.16699 128 18.5s76 26.666 104 42.999s53 33 75 50s38.333 31.833 49 44.5zM699.998 1393.01c-75.333 0 -141.834 -27.001 -199.501 -81.001s-86.5 -120.667 -86.5 -200
c0 -44 10.833 -93.5 32.5 -148.5s43.5 -99.167 65.5 -132.5l35 -49c48 27.333 87 51.333 117 72s66.833 49.334 110.5 86.001s76.334 76.167 98.001 118.5s32.5 87.5 32.5 135.5c0 56 -19.5 103.167 -58.5 141.5s-87.833 57.5 -146.5 57.5z" />
    <glyph glyph-name="quotesingle" unicode="'" horiz-adv-x="368" 
d="M426 1434l-90 -430h-62l91 430h61z" />
    <glyph glyph-name="parenleft" unicode="(" horiz-adv-x="665" 
d="M242 512c-22 -113.333 -32.333 -217.833 -31 -313.5s11.5 -181.667 30.5 -258s39.5 -141.166 61.5 -194.499s42.667 -94.333 62 -123l26 -43l-57 -31c-4 5.33301 -9.16699 12.833 -15.5 22.5s-18.333 31.667 -36 66s-34 70.166 -49 107.499s-30 85 -45 143
s-26 117.167 -33 177.5s-8.66699 130 -5 209s13.5 158.167 29.5 237.5c23.333 109.333 58.5 216.833 105.5 322.5s95.833 195.334 146.5 269.001s99.834 139.667 147.501 198s86.5 101.833 116.5 130.5l47 43l43 -31c-10.667 -9.33301 -25.834 -23.666 -45.501 -42.999
s-56.167 -60.333 -109.5 -123s-102.5 -127.834 -147.5 -195.501s-91 -153.334 -138 -257.001s-81.5 -208.167 -103.5 -313.5z" />
    <glyph glyph-name="parenright" unicode=")" horiz-adv-x="665" 
d="M457 512c22 113.333 31.832 217.833 29.499 313.5s-13 181.667 -32 258s-39.5 141.166 -61.5 194.499s-42.333 94.333 -61 123l-27 43l60 31c4 -5.33301 9 -12.833 15 -22.5s17.833 -31.667 35.5 -66s33.667 -70.166 48 -107.499s29 -85 44 -143
s26.333 -117.167 34 -177.5s9.83398 -130 6.50098 -209s-13.333 -158.167 -30 -237.5c-23.333 -109.333 -58.5 -216.833 -105.5 -322.5s-96.167 -195.334 -147.5 -269.001s-100.5 -139.667 -147.5 -198s-86.167 -101.833 -117.5 -130.5l-45 -43l-45 31
c10.667 9.33301 26 23.666 46 42.999s56.5 60.333 109.5 123s102.167 127.834 147.5 195.501s91.5 153.334 138.5 257.001s82.167 208.167 105.5 313.5z" />
    <glyph glyph-name="asterisk" unicode="*" horiz-adv-x="798" 
d="M864 1178l-293 -72l136 -236l-43 -30l-127 237l-220 -237l-41 30l234 238l-258 72l29 49l249 -84l50 289h61l-70 -287l283 82z" />
    <glyph glyph-name="plus" unicode="+" horiz-adv-x="1024" 
d="M608 1034h62l-86 -399h389l-12 -62h-390l-84 -399h-61l84 399h-389l12 62h389z" />
    <glyph glyph-name="comma" unicode="," horiz-adv-x="368" 
d="M90 104l66 -43l-258 -307l-39 23z" />
    <glyph glyph-name="hyphen" unicode="-" horiz-adv-x="839" 
d="M788 635l-12 -62h-655l12 62h655z" />
    <glyph glyph-name="period" unicode="." horiz-adv-x="389" 
d="M166 57c0 -15.333 -6.16699 -28.667 -18.5 -40s-26.833 -17 -43.5 -17c-30 0 -45 15.667 -45 47c0 16.667 6.16699 30 18.5 40s26.833 15 43.5 15c30 0 45 -15 45 -45z" />
    <glyph glyph-name="slash" unicode="/" horiz-adv-x="839" 
d="M983 1454l-1032 -1884h-62l1031 1884h63z" />
    <glyph glyph-name="zero" unicode="0" horiz-adv-x="1351" 
d="M627 39c64 0 130.832 19.499 200.499 58.499s135.5 92.833 197.5 161.5s113.167 157.667 153.5 267s60.5 227 60.5 353c0 157.333 -38.833 282.666 -116.5 375.999s-171.167 140 -280.5 140c-64 0 -130.833 -19.5 -200.5 -58.5s-135.667 -93 -198 -162
s-113.666 -158.167 -153.999 -267.5s-60.5 -226.666 -60.5 -351.999c0 -157.333 38.667 -282.666 116 -375.999s171.333 -140 282 -140zM620.999 -20.001c-125.333 0 -232.163 52.5 -320.496 157.5s-132.5 243.5 -132.5 415.5c0 132.667 22.167 257.334 66.5 374.001
s100.666 212.167 168.999 286.5s141.666 133 219.999 176s153.166 64.5 224.499 64.5c125.333 0 232 -52.5 320 -157.5s132 -243.5 132 -415.5c0 -132.667 -22.167 -257.334 -66.5 -374.001s-100.5 -212.167 -168.5 -286.5s-141.333 -133 -220 -176
s-153.334 -64.5 -224.001 -64.5z" />
    <glyph glyph-name="one" unicode="1" horiz-adv-x="675" 
d="M590 1434h51l-303 -1434h-62l279 1311c-8 -10.667 -19.5 -24.334 -34.5 -41.001s-49.5 -40 -103.5 -70s-111.667 -47.667 -173 -53l12 61c39.333 4 77.5 14.667 114.5 32s68.167 36.5 93.5 57.5s47.833 41.833 67.5 62.5s34.167 38.334 43.5 53.001z" />
    <glyph glyph-name="two" unicode="2" horiz-adv-x="1105" 
d="M891 0l-880.998 0.00390625c12 75.333 41.333 145.333 88 210s101 120.167 163 166.5s129.167 91 201.5 134s143.666 85 213.999 126s134.166 83.667 191.499 128s103.5 96 138.5 155s52.5 123.167 52.5 192.5c0 78 -30 144.333 -90 199s-138 82 -234 82
c-57.333 0 -110.5 -9.33301 -159.5 -28s-87.833 -40.834 -116.5 -66.501s-53.334 -51.5 -74.001 -77.5s-35 -48 -43 -66l-12 -29l-56 21c2.66699 8 7.5 18.833 14.5 32.5s23.5 38.334 49.5 74.001s54.667 67.167 86 94.5s75 51.833 131 73.5s116.667 32.5 182 32.5
c110.667 0 202.5 -33.167 275.5 -99.5s109.5 -145.833 109.5 -238.5c0 -72.667 -16.333 -140.334 -49 -203.001s-76.334 -116.834 -131.001 -162.501s-115.5 -89.334 -182.5 -131.001s-135.5 -82.667 -205.5 -123s-136.167 -81 -198.5 -122s-117.666 -88.333 -165.999 -142
s-82.166 -110.834 -101.499 -171.501h815z" />
    <glyph glyph-name="three" unicode="3" horiz-adv-x="1085" 
d="M713 756c6.66699 -1.33301 15.167 -4.16699 25.5 -8.5s29.166 -14.666 56.499 -30.999s51.5 -35 72.5 -56s40 -50.667 57 -89s25.5 -80.166 25.5 -125.499c0 -130 -47.667 -240.167 -143 -330.5s-218.333 -135.5 -369 -135.5c-53.333 0 -104.166 7.5 -152.499 22.5
s-87.833 32.667 -118.5 53s-57.667 41.166 -81 62.499s-39.666 39.333 -48.999 54l-17 23l54 36c2.66699 -5.33301 7 -12 13 -20s20 -23 42 -45s46 -41.5 72 -58.5s60.5 -32.333 103.5 -46s88.167 -20.5 135.5 -20.5c130 0 237 39.167 321 117.5s126 172.833 126 283.5
c0 82 -29 150 -87 204s-137 81 -237 81h-133l12 61h140c116 0 213.833 34.167 293.5 102.5s119.5 153.166 119.5 254.499c0 69.333 -27.333 128 -82 176s-127.667 72 -219 72c-66.667 0 -131 -13.667 -193 -41s-107.333 -54.666 -136 -81.999l-43 -41l-43 41
c4 5.33301 10.333 12.166 19 20.499s27 23 55 44s57 39.667 87 56s68.667 31 116 44s94.666 19.5 141.999 19.5c105.333 0 191.833 -30 259.5 -90s101.5 -131.667 101.5 -215c0 -165.333 -82 -284.666 -246 -357.999c-14.667 -6.66699 -48 -18.334 -100 -35.001z" />
    <glyph glyph-name="four" unicode="4" horiz-adv-x="1116" 
d="M844 410h184l-12 -62h-185l-73 -348h-62l74 348h-747l14 74l958 1012h66zM782 410l199 931l-879 -931h680z" />
    <glyph glyph-name="five" unicode="5" horiz-adv-x="1187" 
d="M680 891c105.333 0 194.17 -36.502 266.503 -109.502s108.5 -160.833 108.5 -263.5c0 -157.333 -51.167 -286.333 -153.5 -387s-227.5 -151 -375.5 -151c-53.333 0 -104.166 7.16699 -152.499 21.5s-87.833 31.333 -118.5 51s-57.334 39.334 -80.001 59.001
s-38.667 37.167 -48 52.5l-16 20l53 43c2.66699 -5.33301 7 -12 13 -20s20 -22.667 42 -44s45.667 -40.166 71 -56.499s59.5 -31.333 102.5 -45s88.167 -20.5 135.5 -20.5c131.333 0 241.666 43.667 330.999 131s134 200.666 134 339.999c0 88.667 -29.333 163.667 -88 225
s-133.667 92 -225 92c-44 0 -86.833 -6.33301 -128.5 -19s-76.334 -28 -104.001 -46s-52.5 -35.833 -74.5 -53.5s-38.333 -33.167 -49 -46.5l-15 -19h-51l219 789h686l-12 -62h-625l-184 -631c9.33301 10.667 22.666 24.334 39.999 41.001s55.333 39 114 67s120 42 184 42z
" />
    <glyph glyph-name="six" unicode="6" horiz-adv-x="1157" 
d="M657 881c109.333 0 200.835 -37.999 274.502 -113.999s110.5 -165.667 110.5 -269c0 -140.667 -53.833 -262.167 -161.5 -364.5s-233.834 -153.5 -378.501 -153.5c-110.667 0 -205.334 37.833 -284.001 113.5s-118 165.167 -118 268.5c0 20.667 2.16699 42 6.5 64
s9.5 42.833 15.5 62.5s13.167 38.667 21.5 57s17.166 35.5 26.499 51.5s18.5 31.167 27.5 45.5s18 27.166 27 38.499s16.833 20.833 23.5 28.5s12.667 14.167 18 19.5l6 8l590 697h76l-532 -625c64.667 48 148.334 72 251.001 72zM508.002 41.001
c122.667 0 231.834 44 327.501 132s143.5 194.333 143.5 319c0 90 -30.333 167 -91 231s-139 96 -235 96c-128.667 0 -242.334 -45 -341.001 -135s-148 -196.333 -148 -319c0 -90 33.167 -166.5 99.5 -229.5s147.833 -94.5 244.5 -94.5z" />
    <glyph glyph-name="seven" unicode="7" horiz-adv-x="942" 
d="M262 1434h850l-12 -62l-957 -1372h-69l956 1372h-780z" />
    <glyph glyph-name="eight" unicode="8" horiz-adv-x="1167" 
d="M774 1454c92.667 0 171.835 -29.6631 237.502 -88.9961s98.5 -130 98.5 -212c0 -56 -11 -107.5 -33 -154.5s-48.667 -83.5 -80 -109.5s-63 -48.167 -95 -66.5s-59 -30.5 -81 -36.5l-33 -10c6.66699 -2.66699 15.167 -6 25.5 -10s29.166 -14.833 56.499 -32.5
s51.333 -37.834 72 -60.501s39.5 -53.5 56.5 -92.5s25.5 -81.5 25.5 -127.5c0 -132.667 -48.833 -244.667 -146.5 -336s-218.834 -137 -363.501 -137c-109.333 0 -201.5 34 -276.5 102s-112.5 149.333 -112.5 244c0 69.333 13.667 132.666 41 189.999s60.5 102.333 99.5 135
s77.833 60 116.5 82s71.667 37 99 45l41 10c-5.33301 1.33301 -12.166 4.16602 -20.499 8.49902s-23 14 -44 29s-39.667 31.333 -56 49s-31.333 42.167 -45 73.5s-20.5 65.666 -20.5 102.999c0 112 42.667 207.167 128 285.5s188.666 117.5 309.999 117.5zM518.001 41.0039
c125.333 0 230.499 39.668 315.499 119.001s127.5 176.333 127.5 291c0 83.333 -29.167 153.666 -87.5 210.999s-134.5 86 -228.5 86c-125.333 0 -233.166 -40.333 -323.499 -121s-135.5 -177.667 -135.5 -291c0 -80.667 31.5 -150 94.5 -208s142.167 -87 237.5 -87z
M772 1393c-101.333 0 -188.831 -33.167 -262.498 -99.5s-110.5 -146.5 -110.5 -240.5c0 -66.667 24.667 -124 74 -172s113.666 -72 192.999 -72c105.333 0 195.166 33.167 269.499 99.5s111.5 144.5 111.5 234.5c0 68 -26 126.667 -78 176s-117.667 74 -197 74z" />
    <glyph glyph-name="nine" unicode="9" horiz-adv-x="1157" 
d="M618 553c-109.333 0 -200.835 37.833 -274.502 113.5s-110.5 165.5 -110.5 269.5c0 140.667 54 262.167 162 364.5s234.333 153.5 379 153.5c110.667 0 205.334 -37.833 284.001 -113.5s118 -165.5 118 -269.5c0 -20.667 -2.16699 -41.834 -6.5 -63.501
s-9.5 -42.5 -15.5 -62.5s-13.167 -39.167 -21.5 -57.5s-17.166 -35.333 -26.499 -51s-18.5 -30.667 -27.5 -45s-18 -27.333 -27 -39s-16.833 -21.167 -23.5 -28.5s-12 -13.666 -16 -18.999l-8 -9l-590 -696h-76l532 625c-65.333 -48 -149.333 -72 -252 -72zM767.998 1393
c-122.667 0 -231.834 -44.167 -327.501 -132.5s-143.5 -194.5 -143.5 -318.5c0 -90 30.333 -167.167 91 -231.5s139 -96.5 235 -96.5c128.667 0 242.334 45.167 341.001 135.5s148 196.833 148 319.5c0 90 -33.167 166.5 -99.5 229.5s-147.833 94.5 -244.5 94.5z" />
    <glyph glyph-name="colon" unicode=":" horiz-adv-x="389" 
d="M352 938c0 -15.333 -6.16699 -28.667 -18.5 -40s-26.5 -17 -42.5 -17c-30 0 -45 15.667 -45 47c0 16.667 6.16699 30 18.5 40s26.5 15 42.5 15c30 0 45 -15 45 -45zM166 56.999c0 -15.333 -6.16699 -28.667 -18.5 -40s-26.833 -17 -43.5 -17c-30 0 -45 15.667 -45 47
c0 16.667 6.16699 30 18.5 40s26.833 15 43.5 15c30 0 45 -15 45 -45z" />
    <glyph glyph-name="semicolon" unicode=";" horiz-adv-x="389" 
d="M352 938c0 -15.333 -6.16699 -28.667 -18.5 -40s-26.5 -17 -42.5 -17c-30 0 -45 15.667 -45 47c0 16.667 6.16699 30 18.5 40s26.5 15 42.5 15c30 0 45 -15 45 -45zM90 103.999l66 -43l-258 -307l-39 23z" />
    <glyph glyph-name="less" unicode="&#x3c;" horiz-adv-x="1003" 
d="M119 471l14 61l864 410l-12 -65l-797 -379l635 -379l-12 -58z" />
    <glyph glyph-name="equal" unicode="=" horiz-adv-x="1024" 
d="M915 461l-12 -62h-799l13 62h798zM989 809l-12 -61h-799l12 61h799z" />
    <glyph glyph-name="greater" unicode="&#x3e;" horiz-adv-x="1003" 
d="M911 532l-14 -61l-864 -410l12 66l797 379l-635 379l12 57z" />
    <glyph glyph-name="question" unicode="?" horiz-adv-x="1034" 
d="M494 307l-61.9971 -0.00195312l19 82c15.333 65.333 45 125 89 179s91.667 99.833 143 137.5s101.833 75.167 151.5 112.5s91.334 82.666 125.001 135.999s51.167 113 52.5 179c0 72.667 -29.667 134.167 -89 184.5s-136.333 75.5 -231 75.5
c-57.333 0 -110.166 -9.66699 -158.499 -29s-86.5 -42.666 -114.5 -69.999s-52 -54.166 -72 -80.499s-33.333 -49.166 -40 -68.499l-12 -29l-55 21c2.66699 8 7 19.167 13 33.5s21.667 40 47 77s53.666 69 84.999 96s74.666 52.167 129.999 75.5s115.666 35 180.999 35
c108 0 198.167 -31.667 270.5 -95s108.5 -137.333 108.5 -222c0 -61.333 -12.333 -117.333 -37 -168s-55.334 -92.667 -92.001 -126s-77.834 -67.833 -123.501 -103.5s-89 -68.167 -130 -97.5s-78.333 -66.5 -112 -111.5s-56.5 -93.5 -68.5 -145.5zM479.003 56.998
c0 -15.333 -6.16699 -28.667 -18.5 -40s-26.5 -17 -42.5 -17c-30 0 -45 15.667 -45 47c0 16.667 6.16699 30 18.5 40s26.5 15 42.5 15c30 0 45 -15 45 -45z" />
    <glyph glyph-name="at" unicode="@" horiz-adv-x="1812" 
d="M961 819c-90 0 -169.665 -36.499 -238.998 -109.499s-104 -167.5 -104 -283.5c0 -70.667 21.667 -128.667 65 -174s97.666 -68 162.999 -68c83.333 0 160.166 38.333 230.499 115s105.5 173 105.5 289c0 69.333 -21.167 125.166 -63.5 167.499s-94.833 63.5 -157.5 63.5z
M965.002 881.001c36.667 0 70.0039 -6.1709 100.004 -18.5039s53.833 -26.666 71.5 -42.999s32.667 -33.166 45 -50.499s21.166 -32 26.499 -44l6 -18l35 163h62l-97 -446c-6.66699 -27.333 -10 -57.333 -10 -90c0 -100 45 -150 135 -150c66.667 0 124.667 29.333 174 88
s84 124.334 104 197.001s30 142.334 30 209.001c0 155.333 -56.667 286 -170 392s-256 159 -428 159c-140.667 0 -275.834 -38 -405.501 -114s-235.167 -178.5 -316.5 -307.5s-122 -266.5 -122 -412.5c0 -162.667 56.333 -303.334 169 -422.001s249.334 -178 410.001 -178
c78 0 153.833 13 227.5 39s128.5 51.333 164.5 76l51 39l30 -51c-5.33301 -4 -12.666 -9.83301 -21.999 -17.5s-30.166 -21 -62.499 -40s-65.833 -35.667 -100.5 -50s-79 -27.333 -133 -39s-108.333 -17.5 -163 -17.5c-174.667 0 -323.834 65.5 -447.501 196.5
s-185.5 285.167 -185.5 462.5c0 157.333 43.333 305.666 130 444.999s200 249.5 340 330.5s286 121.5 438 121.5c186 0 342.333 -59 469 -177s190 -261.667 190 -431c0 -54.667 -7.5 -112.667 -22.5 -174s-36.833 -121.666 -65.5 -180.999
s-68.334 -108.166 -119.001 -146.499s-107.334 -57.5 -170.001 -57.5c-34 0 -63.667 6.83301 -89 20.5s-43.833 30 -55.5 49s-20.5 37.667 -26.5 56s-9.66699 34.5 -11 48.5v20c-2.66699 -5.33301 -6.83398 -12.333 -12.501 -21s-18.334 -24 -38.001 -46
s-40.667 -41.5 -63 -58.5s-51.333 -32.667 -87 -47s-72.5 -21.5 -110.5 -21.5c-78 0 -144.667 29 -200 87s-83 129.333 -83 214c0 132.667 41 242 123 328s177 129 285 129z" />
    <glyph glyph-name="A" unicode="A" horiz-adv-x="1372" 
d="M1061 502l-176 860l-541 -860h717zM1067 440h-758l-276 -440h-64l897 1434h62l291 -1434h-60z" />
    <glyph glyph-name="B" unicode="B" horiz-adv-x="1341" 
d="M981 766l-1.99902 -10.0029c5.33301 -1.33301 13.166 -4.16602 23.499 -8.49902s28.166 -14.666 53.499 -30.999s47.833 -34.666 67.5 -54.999s37.334 -49 53.001 -86s23.5 -77.167 23.5 -120.5c0 -140.667 -44.333 -251.667 -133 -333s-204 -122 -346 -122h-578
l303 1434h484c95.333 0 175.833 -29.833 241.5 -89.5s98.5 -131.167 98.5 -214.5c0 -162.667 -69.667 -275 -209 -337c-40 -18 -66.667 -27 -80 -27zM217.001 60.9971l506.001 0.000976562c124 0 224 34.167 300 102.5s114 164.166 114 287.499
c0 78 -26.333 143.5 -79 196.5s-125.334 79.5 -218.001 79.5h-482zM928.002 1372l-432.001 0.000976562l-125 -584h450c114.667 0 207.834 30.5 279.501 91.5s107.5 143.167 107.5 246.5c0 69.333 -26.167 127.666 -78.5 174.999s-119.5 71 -201.5 71z" />
    <glyph glyph-name="C" unicode="C" horiz-adv-x="1525" 
d="M164 606c0 143.333 37.5 279.829 112.5 409.496s178 235.167 309 316.5s273.167 122 426.5 122c72.667 0 142 -10.5 208 -31.5s120.167 -46.667 162.5 -77s79.5 -60.5 111.5 -90.5s55.667 -55 71 -75l20 -33l-55 -37c-4 8 -10.5 18.167 -19.5 30.5
s-29.5 34.833 -61.5 67.5s-66.5 61.334 -103.5 86.001s-85.833 47.334 -146.5 68.001s-124.334 31 -191.001 31c-204.667 0 -386 -76.167 -544 -228.5s-237 -337.166 -237 -554.499c0 -154 55.333 -287.333 166 -400s243.334 -169 398.001 -169
c66.667 0 131.667 9.83301 195 29.5s116.5 43.5 159.5 71.5s81.333 56.333 115 85s58.5 52.667 74.5 72l23 31l43 -43l-27.5 -33c-11.667 -14 -37.667 -38.667 -78 -74s-82.666 -66.666 -126.999 -93.999s-101.333 -51.833 -171 -73.5s-140.834 -32.5 -213.501 -32.5
c-168 0 -313.333 62.333 -436 187s-184 271 -184 439z" />
    <glyph glyph-name="D" unicode="D" horiz-adv-x="1495" 
d="M446 1434h349c188.667 0 344.667 -58.167 468 -174.5s185 -257.5 185 -423.5c0 -240 -84.333 -439.333 -253 -598s-376 -238 -622 -238h-430zM793 1372h-297l-279 -1311h358c229.333 0 421.833 73.167 577.5 219.5s233.5 331.5 233.5 555.5
c0 152.667 -55.5 280.167 -166.5 382.5s-253.167 153.5 -426.5 153.5z" />
    <glyph glyph-name="E" unicode="E" horiz-adv-x="1280" 
d="M217 61h901l-12 -61h-963l303 1434h943l-13 -62h-880l-127 -594h716l-12 -61h-717z" />
    <glyph glyph-name="F" unicode="F" horiz-adv-x="1228" 
d="M446 1434h932l-12 -62h-870l-131 -614h706l-12 -62h-707l-147 -696h-62z" />
    <glyph glyph-name="G" unicode="G" horiz-adv-x="1607" 
d="M1585 1147l-55.002 -37c-4 8 -10.5 18.167 -19.5 30.5s-29.5 34.833 -61.5 67.5s-66.5 61.334 -103.5 86.001s-86.167 47.334 -147.5 68.001s-125.333 31 -192 31c-204.667 0 -385.667 -77.5 -543 -232.5s-236 -341.833 -236 -560.5c0 -152.667 55 -284 165 -394
s243 -165 399 -165c66.667 0 131.667 9.5 195 28.5s116.166 41.833 158.499 68.5s80.333 53.667 114 81s57.834 50.666 72.501 69.999l25 28l69 328h-409l14 62h471l-88 -410c-6.66699 -8 -16.167 -19.167 -28.5 -33.5s-39.333 -40 -81 -77s-85 -69.167 -130 -96.5
s-103 -52.5 -174 -75.5s-142.833 -34.5 -215.5 -34.5c-169.333 0 -315 61 -437 183s-183 266.333 -183 433c0 155.333 40.333 299.666 121 432.999s185.834 237.5 315.501 312.5s266.834 112.5 411.501 112.5c72.667 0 142 -10.5 208 -31.5s120.167 -46.667 162.5 -77
s79.5 -60.5 111.5 -90.5s55.667 -55 71 -75z" />
    <glyph glyph-name="H" unicode="H" horiz-adv-x="1515" 
d="M143 0l303 1434h62l-143 -676h921l144 676h61l-303 -1434h-62l148 696h-922l-147 -696h-62z" />
    <glyph glyph-name="I" unicode="I" horiz-adv-x="532" 
d="M143 0l303 1434h62l-303 -1434h-62z" />
    <glyph glyph-name="J" unicode="J" horiz-adv-x="983" 
d="M918 1434h60.998l-217 -1024c-27.333 -125.333 -83.666 -228.333 -168.999 -309s-184 -121 -296 -121c-66.667 0 -128.334 12.833 -185.001 38.5s-96.667 50.834 -120 75.501l-37 39l55 45c2.66699 -4 6.5 -9 11.5 -15s16.333 -17 34 -33s36.667 -30 57 -42
s47 -22.833 80 -32.5s67.833 -14.5 104.5 -14.5c96.667 0 182.334 34.167 257.001 102.5s123.334 157.166 146.001 266.499z" />
    <glyph glyph-name="K" unicode="K" horiz-adv-x="1320" 
d="M309 496l1049 938h82l-658 -594l406 -840h-70l-385 799l-442 -389l-86 -410h-62l303 1434h62z" />
    <glyph glyph-name="L" unicode="L" horiz-adv-x="1126" 
d="M993 0h-850l303 1434h62l-291 -1373h789z" />
    <glyph glyph-name="M" unicode="M" horiz-adv-x="1863" 
d="M494 1434l456 -891l834 891h55l-303 -1434h-61l280 1321l-823 -883l-447 883l-280 -1321h-62l303 1434h48z" />
    <glyph glyph-name="N" unicode="N" horiz-adv-x="1587" 
d="M1491 1434h61l-303 -1434h-49l-715 1321l-280 -1321h-62l303 1434h50l714 -1321z" />
    <glyph glyph-name="O" unicode="O" horiz-adv-x="1679" 
d="M821 39c122.667 0 241.832 33.833 357.499 101.5s209.667 160.5 282 278.5s108.5 245.333 108.5 382c0 166.667 -56 307.334 -168 422.001s-253.333 172 -424 172c-124 0 -243.5 -33.833 -358.5 -101.5s-209 -160.5 -282 -278.5s-109.5 -245.333 -109.5 -382
c0 -166.667 56.333 -307.334 169 -422.001s254.334 -172 425.001 -172zM812.998 -20c-186 0 -340.667 62.667 -464 188s-185 279 -185 461c0 146 39.833 283.167 119.5 411.5s182.334 229.333 308.001 303s256.167 110.5 391.5 110.5c186 0 340.667 -62.833 464 -188.5
s185 -279.167 185 -460.5c0 -146 -39.833 -283.167 -119.5 -411.5s-182.334 -229.333 -308.001 -303s-256.167 -110.5 -391.5 -110.5z" />
    <glyph glyph-name="P" unicode="P" horiz-adv-x="1300" 
d="M446 1434h461.001c113.333 0 208.666 -36.167 285.999 -108.5s116 -158.5 116 -258.5c0 -143.333 -49.833 -261.5 -149.5 -354.5s-224.167 -139.5 -373.5 -139.5h-460l-121 -573h-62zM903.001 1372l-407 -0.000976562l-158 -737h453c131.333 0 239.833 40.333 325.5 121
s128.5 184.334 128.5 311.001c0 86 -32 158.333 -96 217s-146 88 -246 88z" />
    <glyph glyph-name="Q" unicode="Q" horiz-adv-x="1679" 
d="M813 -20c-186 0 -340.667 62.6689 -464 188.002s-185 279 -185 461c0 146 39.833 283.167 119.5 411.5s182.334 229.333 308.001 303s256.167 110.5 391.5 110.5c186 0 340.667 -62.833 464 -188.5s185 -279.167 185 -460.5c0 -177.333 -56.333 -338.833 -169 -484.5
s-251.334 -246.5 -416.001 -302.5c4 -20.667 11.333 -41.834 22 -63.501s28 -47.5 52 -77.5s58.833 -54.5 104.5 -73.5s98.5 -28.5 158.5 -28.5l125 10l-12 -61c-35.333 -6.66699 -77 -10.334 -125 -11.001c-56 0 -106.833 8.16699 -152.5 24.5s-81.5 35.5 -107.5 57.5
s-48.5 48 -67.5 78s-32 54.5 -39 73.5s-12.5 37.5 -16.5 55.5c-60 -14.667 -118.667 -22 -176 -22zM821 39.002c122.667 0 241.832 33.833 357.499 101.5s209.667 160.5 282 278.5s108.5 245.333 108.5 382c0 166.667 -56 307.334 -168 422.001s-253.333 172 -424 172
c-124 0 -243.5 -33.833 -358.5 -101.5s-209 -160.5 -282 -278.5s-109.5 -245.333 -109.5 -382c0 -166.667 56.333 -307.334 169 -422.001s254.334 -172 425.001 -172z" />
    <glyph glyph-name="R" unicode="R" horiz-adv-x="1341" 
d="M446 1434l492 -0.000976562c108 0 199.167 -35.167 273.5 -105.5s111.5 -153.5 111.5 -249.5c0 -117.333 -40 -216.166 -120 -296.499s-181.333 -132.833 -304 -157.5l227 -625h-67l-221 614h-504l-129 -614h-62zM934 1372l-438 -0.000976562l-148 -696h443
c128.667 0 239 36.833 331 110.5s138 169.834 138 288.501c0 82 -30.833 152 -92.5 210s-139.5 87 -233.5 87z" />
    <glyph glyph-name="S" unicode="S" horiz-adv-x="1126" 
d="M494 41c117.333 0 220.33 30.999 308.997 92.999s133 151 133 267c0 60 -23.167 112.333 -69.5 157s-102.666 81.334 -168.999 110.001s-132.666 58 -198.999 88s-122.666 69.167 -168.999 117.5s-69.5 106.166 -69.5 173.499c0 120 44.333 217.833 133 293.5
s209 113.5 361 113.5c48 0 94.833 -6.16699 140.5 -18.5s83.834 -26.666 114.501 -42.999s57.834 -33 81.501 -50s41.167 -31.833 52.5 -44.5l18 -18l-51 -43c-4 4 -9.16699 9.5 -15.5 16.5s-21 19.667 -44 38s-47.5 34.333 -73.5 48s-59.5 26 -100.5 37
s-83.167 16.5 -126.5 16.5c-132.667 0 -236.834 -31.167 -312.501 -93.5s-113.5 -143.833 -113.5 -244.5c0 -58.667 23.167 -109.834 69.5 -153.501s102.666 -79.5 168.999 -107.5s132.5 -57 198.5 -87s122.167 -70 168.5 -120s69.5 -109 69.5 -177
c0 -124 -46.667 -226.667 -140 -308s-216.666 -122 -369.999 -122c-56 0 -109.5 7.16699 -160.5 21.5s-92.833 31.333 -125.5 51s-61 39.334 -85 59.001s-41.333 37.167 -52 52.5l-17 20l53 45c2.66699 -5.33301 7.16699 -12 13.5 -20s21.166 -23 44.499 -45
s48.5 -41.167 75.5 -57.5s63.833 -31.333 110.5 -45s96 -20.5 148 -20.5z" />
    <glyph glyph-name="T" unicode="T" horiz-adv-x="1105" 
d="M252 1434h1024l-12 -62h-482l-290 -1372h-62l291 1372h-481z" />
    <glyph glyph-name="U" unicode="U" horiz-adv-x="1536" 
d="M711 41c136.667 0 258.168 47.834 364.501 143.501s175.166 216.5 206.499 362.5l188 887h62l-189 -887c-34 -162.667 -110.333 -297.834 -229 -405.501s-253.667 -161.5 -405 -161.5c-136.667 0 -251.5 43 -344.5 129s-139.5 195 -139.5 327c0 34 4.33301 71 13 111
l188 887h61l-188 -887c-8 -36.667 -12 -71.667 -12 -105c0 -117.333 40.333 -213.5 121 -288.5s181.667 -112.5 303 -112.5z" />
    <glyph glyph-name="V" unicode="V" horiz-adv-x="1290" 
d="M512 0l-260 1434h59l248 -1342l817 1342h64l-867 -1434h-61z" />
    <glyph glyph-name="W" unicode="W" horiz-adv-x="1986" 
d="M1165 1300l-692 -1300h-63l-158 1434h59l148 -1332l712 1332h41l148 -1332l713 1332h63l-764 -1434h-59z" />
    <glyph glyph-name="X" unicode="X" horiz-adv-x="1228" 
d="M1272 1434h76l-650 -697l377 -737h-67l-346 686l-637 -686h-76l688 737l-354 697h67l324 -646z" />
    <glyph glyph-name="Y" unicode="Y" horiz-adv-x="1228" 
d="M319 1434l310 -861l674 861h75l-729 -932l-106 -502h-62l107 502l-336 932h67z" />
    <glyph glyph-name="Z" unicode="Z" horiz-adv-x="1157" 
d="M1174 1372h-863l13 62h942l-13 -62l-1171 -1311h913l-12 -61h-993l12 61z" />
    <glyph glyph-name="bracketleft" unicode="[" horiz-adv-x="696" 
d="M489 1393l-374 -1762h317l-12 -61h-379l399 1884h379l-12 -61h-318z" />
    <glyph glyph-name="backslash" unicode="\" horiz-adv-x="839" 
d="M524 -430l-237 1884h59l238 -1884h-60z" />
    <glyph glyph-name="bracketright" unicode="]" horiz-adv-x="696" 
d="M238 -369l374 1762h-317l12 61h379l-399 -1884h-379l12 61h318z" />
    <glyph glyph-name="asciicircum" unicode="^" horiz-adv-x="778" 
d="M569 1434h62l127 -564h-58l-110 492l-320 -492h-65z" />
    <glyph glyph-name="underscore" unicode="_" horiz-adv-x="645" 
d="M520 -246l-12 -61h-684l12 61h684z" />
    <glyph glyph-name="grave" unicode="`" horiz-adv-x="348" 
d="M336 1413l100 -256h-47l-121 256h68z" />
    <glyph glyph-name="a" unicode="a" horiz-adv-x="1208" 
d="M1014 729l55 254.002h61l-208 -983h-62l49 238c-4 -6.66699 -10 -15.834 -18 -27.501s-26 -32.667 -54 -63s-57.5 -56.666 -88.5 -78.999s-71.333 -42.666 -121 -60.999s-100.5 -27.5 -152.5 -27.5c-100 0 -187.167 41.167 -261.5 123.5s-111.5 180.166 -111.5 293.499
c0 162.667 58.833 304.5 176.5 425.5s242.5 181.5 374.5 181.5c52 0 99.833 -9.66699 143.5 -29s78.5 -42.333 104.5 -69s47.833 -53.334 65.5 -80.001s30.167 -49.334 37.5 -68.001zM651 942.002c-116 0 -226.167 -54 -330.5 -162s-156.5 -235 -156.5 -381
c0 -100 31.667 -184.667 95 -254s137.333 -104 222 -104c118.667 0 230.667 55.333 336 166s158 239 158 385c0 101.333 -31.5 185 -94.5 251s-139.5 99 -229.5 99z" />
    <glyph glyph-name="b" unicode="b" horiz-adv-x="1218" 
d="M207 254l-52.999 -254.001h-62l303 1434h62l-146 -689c4 6.66699 10.167 16 18.5 28s26.5 33 54.5 63s57.667 56.167 89 78.5s72 42.833 122 61.5s101 28 153 28c100 0 187 -41.333 261 -124s111 -180.667 111 -294c0 -162.667 -58.667 -304.334 -176 -425.001
s-242.333 -181 -375 -181c-52 0 -100.167 9.5 -144.5 28.5s-79 41.833 -104 68.5s-46.833 53.334 -65.5 80.001s-31.334 49.334 -38.001 68.001zM571.001 40.999c116 0 226.334 54 331.001 162s157 235 157 381c0 100 -31.833 184.667 -95.5 254s-137.834 104 -222.501 104
c-118.667 0 -230.5 -55.333 -335.5 -166s-157.5 -239 -157.5 -385c0 -101.333 31.333 -185 94 -251s139 -99 229 -99z" />
    <glyph glyph-name="c" unicode="c" horiz-adv-x="1064" 
d="M676 942c-136.667 0 -256.168 -54.999 -358.501 -164.999s-153.5 -235.333 -153.5 -376c0 -102.667 33.833 -188.334 101.5 -257.001s150.5 -103 248.5 -103c64 0 125.333 15.667 184 47s101.667 62 129 92l39 47l43 -43c-4 -5.33301 -10 -12.833 -18 -22.5
s-25.333 -26 -52 -49s-54.667 -43.333 -84 -61s-66.666 -34 -111.999 -49s-91 -22.5 -137 -22.5c-110.667 0 -205.667 40.833 -285 122.5s-119 180.5 -119 296.5c0 165.333 59.833 307.5 179.5 426.5s253.834 178.5 402.501 178.5c46.667 0 90.5 -7.16699 131.5 -21.5
s74.333 -31.5 100 -51.5s48.5 -39.833 68.5 -59.5s34 -37.167 42 -52.5l12 -20l-53 -37c-2.66699 5.33301 -6.33398 11.833 -11.001 19.5s-16.667 22 -36 43s-39.5 39.333 -60.5 55s-50 30 -87 43s-75.167 19.5 -114.5 19.5z" />
    <glyph glyph-name="d" unicode="d" horiz-adv-x="1218" 
d="M1014 729l149 705.002h62l-303 -1434h-62l49 238c-4 -6.66699 -10 -15.834 -18 -27.501s-26 -32.667 -54 -63s-57.5 -56.666 -88.5 -78.999s-71.333 -42.666 -121 -60.999s-100.5 -27.5 -152.5 -27.5c-100 0 -187.167 41.167 -261.5 123.5s-111.5 180.166 -111.5 293.499
c0 162.667 58.833 304.5 176.5 425.5s242.5 181.5 374.5 181.5c52 0 99.833 -9.66699 143.5 -29s78.5 -42.333 104.5 -69s47.833 -53.334 65.5 -80.001s30.167 -49.334 37.5 -68.001zM651 942.002c-116 0 -226.167 -54 -330.5 -162s-156.5 -235 -156.5 -381
c0 -100 31.667 -184.667 95 -254s137.333 -104 222 -104c118.667 0 230.667 55.333 336 166s158 239 158 385c0 101.333 -31.5 185 -94.5 251s-139.5 99 -229.5 99z" />
    <glyph glyph-name="e" unicode="e" horiz-adv-x="1126" 
d="M1018 461h-854c-1.33301 -10.667 -2 -27 -2 -49c0 -98 32 -184.333 96 -259s148 -112 252 -112c40.667 0 80.834 6.5 120.501 19.5s73.167 28.667 100.5 47s51.333 36.333 72 54s35.667 33.5 45 47.5l16 18l45 -43c-4 -5.33301 -10 -12.833 -18 -22.5
s-25.333 -26 -52 -49s-54.334 -43.333 -83.001 -61s-66 -34 -112 -49s-92 -22.5 -138 -22.5c-110.667 0 -205.667 40.833 -285 122.5s-119 180.5 -119 296.5c0 164 58.833 305.833 176.5 425.5s246.167 179.5 385.5 179.5c104 0 192.333 -37 265 -111s109 -167.667 109 -281
c0 -48 -4 -88 -12 -120zM657 942c-105.333 0 -205 -41.668 -299 -125.001s-154.667 -181.666 -182 -294.999h795c4 28.667 6 56.667 6 84c0 100 -30.5 181 -91.5 243s-137.167 93 -228.5 93z" />
    <glyph glyph-name="f" unicode="f" horiz-adv-x="614" 
d="M659 983l-14.002 -61.001h-246l-194 -922h-62l195 922h-164l14 61h164l45 215c18 82 51.833 145.167 101.5 189.5s110.834 66.5 183.501 66.5c22 0 42.833 -2.66699 62.5 -8s34.167 -10.666 43.5 -15.999l15 -7l-12 -61c-27.333 20.667 -65 31 -113 31
c-52 0 -98.167 -17.5 -138.5 -52.5s-67.166 -82.5 -80.499 -142.5l-45 -215h245z" />
    <glyph glyph-name="g" unicode="g" horiz-adv-x="1187" 
d="M637 942c-125.333 0 -234.834 -53.5 -328.501 -160.5s-140.5 -226.167 -140.5 -357.5c0 -95.333 31.333 -176.166 94 -242.499s136.334 -99.5 221.001 -99.5c112 0 218.833 53.167 320.5 159.5s152.5 225.833 152.5 358.5c0 95.333 -31.667 176.166 -95 242.499
s-138 99.5 -224 99.5zM851.999 61l42.9951 206.998c-4 -6.66699 -9.83301 -15.5 -17.5 -26.5s-25.167 -30.833 -52.5 -59.5s-56 -53.834 -86 -75.501s-69.167 -41.5 -117.5 -59.5s-98.5 -27 -150.5 -27c-98 0 -183.333 39.667 -256 119s-109 173.666 -109 282.999
c0 158.667 56.333 295.334 169 410.001s235.334 172 368.001 172c52 0 99.5 -9.33301 142.5 -28s76.833 -40.667 101.5 -66s45.834 -50.833 63.501 -76.5s29.834 -48.167 36.501 -67.5l8 -27l54 244h61l-197 -922c-31.333 -142 -95.833 -259.333 -193.5 -352
s-208.5 -139 -332.5 -139c-48 0 -93.167 7.16699 -135.5 21.5s-76.666 31.333 -102.999 51s-49.5 39.5 -69.5 59.5s-34 37.333 -42 52l-14 21l49 41c2.66699 -5.33301 6.33398 -12.166 11.001 -20.499s16.167 -23.166 34.5 -44.499s38.5 -40.166 60.5 -56.499
s51.5 -31 88.5 -44s75.833 -19.5 116.5 -19.5c109.333 0 208.333 40.667 297 122s146 184 172 308z" />
    <glyph glyph-name="h" unicode="h" horiz-adv-x="1187" 
d="M457 1434l-140 -656.001c2.66699 5.33301 7.16699 13.166 13.5 23.499s20.833 28.5 43.5 54.5s47.5 48.833 74.5 68.5s63.5 37.834 109.5 54.501s95 25 147 25c94 0 172.333 -30.5 235 -91.5s94 -139.167 94 -234.5c0 -26 -3.33301 -57.333 -10 -94l-123 -584h-61
l123 584c5.33301 27.333 8 56 8 86c0 82 -25.333 147.833 -76 197.5s-115.667 74.5 -195 74.5c-102.667 0 -194.167 -37.167 -274.5 -111.5s-132.833 -170.166 -157.5 -287.499l-114 -543h-62l303 1434h62z" />
    <glyph glyph-name="i" unicode="i" horiz-adv-x="450" 
d="M92 0l209 983h61l-208 -983h-62zM461 1348c0 -15.333 -6.16699 -28.833 -18.5 -40.5s-26.833 -17.5 -43.5 -17.5c-30 0 -45 15.667 -45 47c0 16.667 6.16699 30.167 18.5 40.5s26.833 15.5 43.5 15.5c30 0 45 -15 45 -45z" />
    <glyph glyph-name="j" unicode="j" horiz-adv-x="450" 
d="M53 -174l248 1157h61l-247 -1157c-16.667 -76.667 -51.334 -138.5 -104.001 -185.5s-111.667 -70.5 -177 -70.5c-22 0 -43.167 2.66699 -63.5 8s-35.166 10.666 -44.499 15.999l-15 7l13 61c28.667 -20.667 66.667 -31 114 -31c52 0 97.833 17.5 137.5 52.5
s65.5 82.5 77.5 142.5zM461 1348c0 -15.333 -6.16699 -28.833 -18.5 -40.5s-26.833 -17.5 -43.5 -17.5c-30 0 -45 15.667 -45 47c0 16.667 6.16699 30.167 18.5 40.5s26.833 15.5 43.5 15.5c30 0 45 -15 45 -45z" />
    <glyph glyph-name="k" unicode="k" horiz-adv-x="1013" 
d="M207 256l-53 -256h-62l303 1434h62l-232 -1092l719 641h84l-455 -399l297 -584h-65l-270 532h-13z" />
    <glyph glyph-name="l" unicode="l" horiz-adv-x="450" 
d="M457 1434l-303 -1434h-62l303 1434h62z" />
    <glyph glyph-name="m" unicode="m" horiz-adv-x="1781" 
d="M1434 0l122.002 584.003c6.66699 38 10.334 70.667 11.001 98c0 80.667 -22.833 144.167 -68.5 190.5s-106.167 69.5 -181.5 69.5c-84.667 0 -162.834 -34.5 -234.501 -103.5s-119.834 -160.833 -144.501 -275.5l-119 -563h-61l123 584c6.66699 38 10 70.667 10 98
c0 80.667 -22.833 144.167 -68.5 190.5s-106.167 69.5 -181.5 69.5c-86 0 -164.833 -35.5 -236.5 -106.5s-119.834 -164.5 -144.501 -280.5l-117 -555h-61l209 983h61l-39 -176c2.66699 5.33301 6.83398 12.5 12.501 21.5s18.667 24.667 39 47s42.5 42.166 66.5 59.499
s55.5 33.166 94.5 47.499s80.167 21.5 123.5 21.5c49.333 0 93.5 -8.66699 132.5 -26s68.333 -37.833 88 -61.5s35.667 -47.5 48 -71.5s20.5 -45 24.5 -63l4 -24c2.66699 6.66699 7.16699 15.5 13.5 26.5s20.666 30.5 42.999 58.5s46.5 52.833 72.5 74.5
s61.5 41.5 106.5 59.5s92.167 27 141.5 27c88.667 0 162 -28.833 220 -86.5s87 -134.167 87 -229.5c0 -32.667 -4 -67.334 -12 -104.001l-123 -584h-61z" />
    <glyph glyph-name="n" unicode="n" 
d="M352 983l-44.998 -205.001c2.66699 5.33301 7.16699 13.166 13.5 23.499s20.666 28.5 42.999 54.5s47.166 48.833 74.499 68.5s63.833 37.834 109.5 54.501s94.5 25 146.5 25c94 0 172.5 -30.5 235.5 -91.5s94.5 -139.167 94.5 -234.5c0 -26 -3.33301 -57.333 -10 -94
l-123 -584h-62l123 584c5.33301 27.333 8.33301 56 9 86c0 82 -25.333 147.833 -76 197.5s-115.667 74.5 -195 74.5c-102.667 0 -194.167 -37.167 -274.5 -111.5s-132.833 -170.166 -157.5 -287.499l-115 -543h-61l209 983h61z" />
    <glyph glyph-name="o" unicode="o" horiz-adv-x="1187" 
d="M543 41c126.667 0 238.834 52.501 336.501 157.501s146.5 223.167 146.5 354.5c0 110.667 -35.833 203.167 -107.5 277.5s-161.5 111.5 -269.5 111.5c-122.667 0 -233.834 -50.833 -333.501 -152.5s-149.5 -222.167 -149.5 -361.5
c0 -110.667 35.833 -202.834 107.5 -276.501s161.5 -110.5 269.5 -110.5zM1087 553.001c0 -143.333 -55.168 -274.667 -165.501 -394s-240.833 -179 -391.5 -179c-121.333 0 -223 43 -305 129s-123 191.667 -123 317c0 155.333 57.833 290.5 173.5 405.5
s242.834 172.5 381.501 172.5c122.667 0 225 -43.5 307 -130.5s123 -193.833 123 -320.5z" />
    <glyph glyph-name="p" unicode="p" horiz-adv-x="1208" 
d="M197 254l-146.002 -684.001h-61l301 1413h61l-51 -238c4 6.66699 10.167 16 18.5 28s26.5 33 54.5 63s57.667 56.167 89 78.5s71.833 42.833 121.5 61.5s100.5 28 152.5 28c100 0 187.167 -41.333 261.5 -124s111.5 -180.667 111.5 -294
c0 -162.667 -58.667 -304.334 -176 -425.001s-242.333 -181 -375 -181c-52 0 -100.167 9.5 -144.5 28.5s-79.166 41.833 -104.499 68.5s-47.166 53.334 -65.499 80.001s-30.833 49.334 -37.5 68.001zM560.998 40.999c116 0 226.334 54 331.001 162s157 235 157 381
c0 100 -31.833 184.667 -95.5 254s-137.834 104 -222.501 104c-118.667 0 -230.5 -55.333 -335.5 -166s-157.5 -239 -157.5 -385c0 -101.333 31.333 -185 94 -251s139 -99 229 -99z" />
    <glyph glyph-name="q" unicode="q" horiz-adv-x="1208" 
d="M1014 729l55 254.002h61l-301 -1413h-61l141 668c-4 -6.66699 -10 -15.834 -18 -27.501s-26 -32.667 -54 -63s-57.5 -56.666 -88.5 -78.999s-71.333 -42.666 -121 -60.999s-100.5 -27.5 -152.5 -27.5c-100 0 -187.167 41.167 -261.5 123.5s-111.5 180.166 -111.5 293.499
c0 162.667 58.833 304.5 176.5 425.5s242.5 181.5 374.5 181.5c52 0 99.833 -9.66699 143.5 -29s78.5 -42.333 104.5 -69s47.833 -53.334 65.5 -80.001s30.167 -49.334 37.5 -68.001zM651 942.002c-116 0 -226.167 -54 -330.5 -162s-156.5 -235 -156.5 -381
c0 -100 31.667 -184.667 95 -254s137.333 -104 222 -104c118.667 0 230.667 55.333 336 166s158 239 158 385c0 101.333 -31.5 185 -94.5 251s-139.5 99 -229.5 99z" />
    <glyph glyph-name="r" unicode="r" horiz-adv-x="686" 
d="M741 942l-41 -0.000976562c-104 0 -197.5 -37.167 -280.5 -111.5s-136.833 -170.166 -161.5 -287.499l-115 -543h-61l209 983h61l-45 -205c4 5.33301 9.5 13.166 16.5 23.499s23.167 28.5 48.5 54.5s52.333 48.833 81 68.5s66.5 37.834 113.5 54.501s96.5 25 148.5 25h41
z" />
    <glyph glyph-name="s" unicode="s" horiz-adv-x="880" 
d="M827 860l-53.001 -43.0029c-6.66699 9.33301 -16.834 20.833 -30.501 34.5s-42.667 32.167 -87 55.5s-91.166 35 -140.499 35c-76.667 0 -141.167 -22.167 -193.5 -66.5s-78.5 -95.166 -78.5 -152.499c0 -36.667 16.667 -68.667 50 -96s73.833 -50.666 121.5 -69.999
s95.167 -39.166 142.5 -59.499s87.666 -48 120.999 -83s50 -75.5 50 -121.5c0 -91.333 -35.5 -166.333 -106.5 -225s-161.833 -88 -272.5 -88c-39.333 0 -77.833 5.33301 -115.5 16s-69.167 24.167 -94.5 40.5s-47.5 32.833 -66.5 49.5s-32.5 30.334 -40.5 41.001l-15 16
l54 43c2.66699 -4 6.33398 -9 11.001 -15s15.834 -17.5 33.501 -34.5s36.834 -32 57.501 -45s47 -24.667 79 -35s65 -15.5 99 -15.5c91.333 0 166.5 22.833 225.5 68.5s88.5 105.5 88.5 179.5c0 38 -16.833 71.333 -50.5 100s-74.334 52.5 -122.001 71.5s-95 38.5 -142 58.5
s-87.333 46.667 -121 80s-50.5 72.666 -50.5 117.999c0 76.667 33.167 143.667 99.5 201s147.833 86 244.5 86c57.333 0 111.333 -12 162 -36s87 -47.667 109 -71z" />
    <glyph glyph-name="t" unicode="t" horiz-adv-x="686" 
d="M387 1055l55 255.999h62l-70 -328h225l-14 -61h-225l-146 -686c-13.333 -61.333 -9.16602 -109.166 12.501 -143.499s58.5 -51.5 110.5 -51.5c22 0 44.667 2.66699 68 8s41 11 53 17l19 6l-13 -62c-36.667 -20.667 -79 -30.667 -127 -30c-72.667 0 -126 22.5 -160 67.5
s-42 107.833 -24 188.5l145 686h-204l14 61h143c41.333 0 66.666 24 75.999 72z" />
    <glyph glyph-name="u" unicode="u" 
d="M829 0l40.998 197c-2.66699 -5.33301 -7.33398 -13.166 -14.001 -23.499s-22 -27.833 -46 -52.5s-49.667 -46.5 -77 -65.5s-63.166 -36.333 -107.499 -52s-91.166 -23.5 -140.499 -23.5c-94 0 -172.333 30.333 -235 91s-94 138.667 -94 234
c0 35.333 3.33301 66.666 10 93.999l125 584h61l-125 -584c-6.66699 -34 -10 -62.667 -10 -86c0 -82 25.667 -147.833 77 -197.5s117.333 -74.5 198 -74.5c96.667 0 186.334 37.5 269.001 112.5s135.667 166.5 159 274.5l118 555h62l-209 -983h-62z" />
    <glyph glyph-name="v" unicode="v" horiz-adv-x="962" 
d="M410 0h-62l-190 983h59l176 -901l561 901h64z" />
    <glyph glyph-name="w" unicode="w" horiz-adv-x="1433" 
d="M801 983h41l96 -891l487 891h64l-537 -983h-61l-94 860l-459 -860h-62l-118 983h59l107 -891z" />
    <glyph glyph-name="x" unicode="x" horiz-adv-x="921" 
d="M498 512l270 -512h-68l-241 461l-434 -461h-76l487 512l-248 471h68l217 -420l397 420h76z" />
    <glyph glyph-name="y" unicode="y" horiz-adv-x="962" 
d="M219 -205l128.999 209.001l-190 979h59l176 -901l561 901h64l-735 -1188c-49.333 -80.667 -95.833 -138.334 -139.5 -173.001s-95.5 -52 -155.5 -52c-15.333 0 -30.166 1.66699 -44.499 5s-24.166 7 -29.499 11l-10 4l10 62c16.667 -13.333 42 -20.333 76 -21
c87.333 0 163.666 54.667 228.999 164z" />
    <glyph glyph-name="z" unicode="z" horiz-adv-x="880" 
d="M905 983l-14 -61l-842 -861h680l-12 -61h-758l12 61l842 861h-639l14 61h717z" />
    <glyph glyph-name="braceleft" unicode="{" horiz-adv-x="727" 
d="M141 481l15.001 61.998c54.667 0 100 14 136 42s59.333 65 70 111l107 502c36.667 170.667 146.667 256 330 256h51l-12 -61h-45c-147.333 0 -235 -65 -263 -195l-106 -502c-9.33301 -45.333 -28 -83.166 -56 -113.499s-51 -49.333 -69 -57s-33 -12.167 -45 -13.5
c5.33301 -1.33301 11.166 -3 17.499 -5s16.333 -7.16699 30 -15.5s23.5 -19 29.5 -32s12 -30.667 18 -53s5 -48.5 -3 -78.5l-108 -502c-13.333 -68 -7.5 -117.5 17.5 -148.5s75.167 -46.5 150.5 -46.5h57l-12 -61h-52c-91.333 0 -155.666 21.833 -192.999 65.5
s-47.333 107.167 -30 190.5l109 502c9.33301 46.667 1.66602 83.834 -23.001 111.501s-65 41.5 -121 41.5z" />
    <glyph glyph-name="bar" unicode="|" horiz-adv-x="655" 
d="M573 1454l-399 -1884h-61l399 1884h61z" />
    <glyph glyph-name="braceright" unicode="}" horiz-adv-x="727" 
d="M616 543l-14.002 -61.998c-56 0 -101.667 -14 -137 -42s-58 -65 -68 -111l-108 -502c-36.667 -170.667 -146.667 -256 -330 -256h-51l12 61h45c148.667 0 236 65 262 195l109 502c9.33301 46.667 28 85.167 56 115.5s50.833 49 68.5 56s32.834 11.167 45.501 12.5
c-5.33301 0 -11.833 1.66699 -19.5 5s-17.667 9.16602 -30 17.499s-22.166 19 -29.499 32s-13.5 30.333 -18.5 52s-3.16699 47.5 5.5 77.5l106 502c15.333 68 10 117.5 -16 148.5s-76.667 46.5 -152 46.5h-57l12 61h51c91.333 0 155.833 -21.833 193.5 -65.5
s47.834 -107.167 30.501 -190.5l-107 -502c-10.667 -46.667 -3.83398 -83.834 20.499 -111.501s64.5 -41.5 120.5 -41.5z" />
    <glyph glyph-name="asciitilde" unicode="~" horiz-adv-x="1064" 
d="M371 645c-39.333 0 -75.502 -11.1689 -108.502 -33.502s-56.167 -44.5 -69.5 -66.5l-21 -33l-47 31c2.66699 4 6 9.66699 10 17s13.833 20.666 29.5 39.999s32.834 36.166 51.501 50.499s42.334 27.333 71.001 39s58 17.5 88 17.5c44 0 84.333 -8 121 -24
s65.834 -33.833 87.501 -53.5s48.334 -37.334 80.001 -53.001s64.5 -23.5 98.5 -23.5c24.667 0 48.5 4.5 71.5 13.5s42 19.833 57 32.5s28 25.834 39 39.501s19.167 24.834 24.5 33.501l9 14l47 -31c-2.66699 -4 -6.16699 -9.66699 -10.5 -17s-14.333 -20.666 -30 -39.999
s-32.667 -36.166 -51 -50.499s-41.833 -27.166 -70.5 -38.499s-58 -17 -88 -17c-54.667 0 -103.834 12.833 -147.501 38.5s-84.334 51.167 -122.001 76.5s-77.5 38 -119.5 38z" />
    <glyph glyph-name="uni00A0" unicode="&#xa0;" horiz-adv-x="368" 
 />
    <glyph glyph-name="exclamdown" unicode="&#xa1;" horiz-adv-x="573" 
d="M307 676h62l-236 -1106h-61zM338 926c0 15.333 6.16699 28.667 18.5 40s26.5 17 42.5 17c30 0 45 -15.667 45 -47c0 -16.667 -6 -30 -18 -40s-26.333 -15 -43 -15c-30 0 -45 15 -45 45z" />
    <glyph glyph-name="cent" unicode="&#xa2;" horiz-adv-x="1064" 
d="M676 942c-136.667 0 -256.166 -54.999 -358.499 -164.999s-153.5 -235.333 -153.5 -376c0 -102.667 33.833 -188.334 101.5 -257.001s150.5 -103 248.5 -103c64 0 125.333 15.667 184 47s101.667 62 129 92l39 47l43 -43c-4 -5.33301 -10 -12.333 -18 -21
s-25 -24.667 -51 -48s-53.333 -43.833 -82 -61.5s-64.834 -34 -108.501 -49s-88.167 -23.167 -133.5 -24.5l-43 -205h-61l43 209c-100 12 -183.833 57.667 -251.5 137s-101.5 172 -101.5 278c0 162.667 58.5 303.334 175.5 422.001s249.167 179.667 396.5 183l43 204h61
l-45 -209c39.333 -4 76.833 -13.833 112.5 -29.5s64.834 -33 87.501 -52s42.167 -37.333 58.5 -55s28.5 -32.834 36.5 -45.501l10 -18l-53 -37c-2.66699 5.33301 -6.33398 11.833 -11.001 19.5s-16.667 22 -36 43s-39.5 39.333 -60.5 55s-50 30 -87 43
s-75.167 19.5 -114.5 19.5z" />
    <glyph glyph-name="sterling" unicode="&#xa3;" horiz-adv-x="1116" 
d="M424 1034c26 122.667 81.6699 223.333 167.003 302s182 118 290 118c66.667 0 127.667 -13.667 183 -41s94 -54.666 116 -81.999l34 -41l-49 -41c-2.66699 4 -6.33398 9.16699 -11.001 15.5s-15.834 17.666 -33.501 33.999s-36.834 31 -57.501 44s-47.667 24.667 -81 35
s-68.333 15.5 -105 15.5c-92.667 0 -175.667 -33.167 -249 -99.5s-121 -152.833 -143 -259.5l-71 -338h430l-15 -61h-430l-84 -399c-8 -39.333 -22.5 -73.5 -43.5 -102.5s-39.833 -48.167 -56.5 -57.5l-25 -15h764l-12 -61h-911l12 61c45.333 0 89.5 17.5 132.5 52.5
s69.167 75.833 78.5 122.5l84 399h-143l14 61h143z" />
    <glyph glyph-name="currency" unicode="&#xa4;" horiz-adv-x="1331" 
d="M139 614l15 62h184l160 758h460c108 0 199.167 -35.5 273.5 -106.5s111.5 -154.5 111.5 -250.5c0 -138 -47 -249.667 -141 -335s-212.667 -128 -356 -128h-461l-51 -245h553l-15 -62h-553l-63 -307h-61l63 307h-184l14 62h184l52 245h-185zM956 1372h-409l-148 -696h451
c125.333 0 228.333 36.5 309 109.5s121 170.167 121 291.5c0 82 -30.5 151.667 -91.5 209s-138.5 86 -232.5 86z" />
    <glyph glyph-name="yen" unicode="&#xa5;" horiz-adv-x="1228" 
d="M319 1434l312 -850l672 850h75l-657 -830h297l-12 -61h-328l-29 -41l-35 -164h349l-15 -62h-348l-57 -276h-62l58 276h-349l15 62h348l35 164l-13 41h-327l12 61h297l-305 830h67z" />
    <glyph glyph-name="brokenbar" unicode="&#xa6;" horiz-adv-x="655" 
d="M279 348h61l-166 -778h-61zM410 676h-62l164 778h61z" />
    <glyph glyph-name="section" unicode="&#xa7;" horiz-adv-x="1064" 
d="M406 -164c91.333 0 166.998 26.001 226.998 78.001s90 114 90 186c0 42 -18.833 79.5 -56.5 112.5s-83.334 60.833 -137.001 83.5s-107.5 46.167 -161.5 70.5s-99.833 57.666 -137.5 99.999s-56.5 91.5 -56.5 147.5c0 125.333 73 223.666 219 294.999
c38 19.333 60.667 29 68 29c-2.66699 1.33301 -6.5 3.66602 -11.5 6.99902s-14 10.833 -27 22.5s-24.167 24.334 -33.5 38.001s-17.833 31.5 -25.5 53.5s-11.5 44.333 -11.5 67c0 87.333 36.833 163.833 110.5 229.5s163.834 98.5 270.501 98.5
c57.333 0 112.333 -12 165 -36s90.667 -47.333 114 -70l35 -37l-56 -45c-8 9.33301 -18.833 21.166 -32.5 35.499s-43.334 33.166 -89.001 56.499s-93.167 35 -142.5 35c-90 0 -164.333 -27 -223 -81s-88 -117.333 -88 -190c0 -44 18.667 -82.333 56 -115
s83.333 -59.5 138 -80.5s109 -43.5 163 -67.5s99.833 -56.5 137.5 -97.5s56.5 -89.5 56.5 -145.5c0 -26 -3.5 -51.167 -10.5 -75.5s-16 -46.166 -27 -65.499s-24 -37.166 -39 -53.499s-30.333 -30.666 -46 -42.999s-31.667 -23.5 -48 -33.5s-31.666 -18.5 -45.999 -25.5
s-27.333 -12.5 -39 -16.5s-20.167 -6.66699 -25.5 -8l-8 -4c2.66699 -1.33301 6.33398 -3.66602 11.001 -6.99902s13.5 -11.166 26.5 -23.499s24.333 -25 34 -38s18.167 -30.833 25.5 -53.5s11 -45.667 11 -69c0 -88.667 -36.5 -165 -109.5 -229s-164.833 -96 -275.5 -96
c-39.333 0 -77.833 6.16699 -115.5 18.5s-69 26.666 -94 42.999s-47.167 33 -66.5 50s-33.666 31.5 -42.999 43.5l-12 19l51 41c2.66699 -4 6.66699 -9.5 12 -16.5s17 -19.333 35 -37s37.167 -33.334 57.5 -47.001s47 -26 80 -37s66.5 -16.5 100.5 -16.5zM617.998 324.001
c32.667 10.667 58.998 20.499 78.998 29.499s49.167 25 87.5 48s67.666 52.667 87.999 89s30.5 76.833 30.5 121.5c0 22 -3.66699 43 -11 63s-20 38.5 -38 55.5s-34.833 31.667 -50.5 44s-38.167 25.666 -67.5 39.999s-52.5 25.166 -69.5 32.499s-42.5 17.5 -76.5 30.5
s-57.333 22.167 -70 27.5c-31.333 -10.667 -57.166 -20.5 -77.499 -29.5s-49.333 -25 -87 -48s-66.667 -52.667 -87 -89s-30.5 -77.166 -30.5 -122.499c0 -22 3.66699 -42.833 11 -62.5s19.833 -38 37.5 -55s34.334 -31.667 50.001 -44s37.834 -25.666 66.501 -39.999
s51.667 -25.166 69 -32.499s43 -17.5 77 -30.5s57 -22.167 69 -27.5z" />
    <glyph glyph-name="dieresis" unicode="&#xa8;" horiz-adv-x="552" 
d="M352 1317c0 -15.333 -6.16699 -28.667 -18.5 -40s-26.5 -17 -42.5 -17c-30 0 -45 15.667 -45 47c0 16.667 6.16699 30 18.5 40s26.5 15 42.5 15c30 0 45 -15 45 -45zM680 1317c0 -15.333 -6.16699 -28.667 -18.5 -40s-26.833 -17 -43.5 -17c-30 0 -45 15.667 -45 47
c0 16.667 6.16699 30 18.5 40s26.833 15 43.5 15c30 0 45 -15 45 -45z" />
    <glyph glyph-name="copyright" unicode="&#xa9;" horiz-adv-x="1740" 
d="M1008 1044c-104 0 -192.168 -39.166 -264.501 -117.499s-108.5 -171.5 -108.5 -279.5c0 -75.333 23.833 -137.166 71.5 -185.499s109.167 -72.5 184.5 -72.5c49.333 0 95.833 11.333 139.5 34s74.834 45.667 93.501 69l29 32l33 -43
c-2.66699 -4 -6.83398 -9.33301 -12.501 -16s-17.667 -19 -36 -37s-38 -33.833 -59 -47.5s-48.667 -25.834 -83 -36.501s-69.833 -16 -106.5 -16c-88.667 0 -163.834 31 -225.501 93s-92.5 137.333 -92.5 226c0 131.333 44.167 240.666 132.5 327.999
s191.166 131 308.499 131c57.333 0 108.833 -13 154.5 -39s77.5 -51.333 95.5 -76l24 -39l-47 -39c-5.33301 9.33301 -13.166 21.333 -23.499 36s-35.166 34.167 -74.499 58.5s-83.666 36.5 -132.999 36.5zM1006 1395c-196.667 0 -372.166 -76.501 -526.499 -229.501
s-231.5 -329.833 -231.5 -530.5c0 -168 57 -309.333 171 -424s259 -172 435 -172c195.333 0 370.5 75.5 525.5 226.5s232.5 329.5 232.5 535.5c0 166.667 -57.333 307.334 -172 422.001s-259.334 172 -434.001 172zM1673 803c0 -136.667 -37.167 -268.498 -111.5 -395.498
s-176 -230 -305 -309s-265.833 -118.5 -410.5 -118.5c-190 0 -347.833 62.667 -473.5 188s-188.5 279 -188.5 461c0 147.333 40 285.166 120 413.499s183.5 229 310.5 302s259.5 109.5 397.5 109.5c190 0 347.667 -62.833 473 -188.5s188 -279.834 188 -462.501z" />
    <glyph glyph-name="ordfeminine" unicode="&#xaa;" horiz-adv-x="665" 
d="M625 1157l-225.999 -40.999c-106.667 -19.333 -159.667 -64.333 -159 -135c0 -24.667 10.167 -45.834 30.5 -63.501s47.5 -26.5 81.5 -26.5c65.333 0 121.666 21.5 168.999 64.5s79 98.5 95 166.5zM340.001 829.001c-44 0 -82.333 13.668 -115 41.001s-49 63 -49 107
c0 52 21.5 95 64.5 129s100.833 58 173.5 72l223 41l6 30c2.66699 9.33301 4 23.666 4 42.999c0 66.667 -42.333 100.334 -127 101.001c-30 0 -60 -6.83301 -90 -20.5s-52.667 -27.5 -68 -41.5l-22 -20l-43 41c6.66699 8 16.5 17.5 29.5 28.5s39 26 78 45
s78.167 28.5 117.5 28.5c57.333 0 103.166 -14 137.499 -42s51.5 -65.333 51.5 -112c0 -15.333 -2 -32.333 -6 -51l-84 -399h-62l21 102c-5.33301 -9.33301 -14.166 -20.833 -26.499 -34.5s-39 -31.834 -80 -54.501s-85.5 -34 -133.5 -34z" />
    <glyph glyph-name="guillemotleft" unicode="&#xab;" horiz-adv-x="849" 
d="M522 485l156 -311h-66l-159 318l292 317h76zM195 485l155 -311h-65l-160 318l293 317h76z" />
    <glyph glyph-name="logicalnot" unicode="&#xac;" horiz-adv-x="931" 
d="M897 758l-74 -348h-61l61 286h-665l12 62h727z" />
    <glyph glyph-name="uni00AD" unicode="&#xad;" horiz-adv-x="839" 
d="M788 635l-12 -62h-655l12 62h655z" />
    <glyph glyph-name="registered" unicode="&#xae;" horiz-adv-x="1740" 
d="M1042 666l115 -328.001h-70l-106 317h-227l-68 -317h-61l159 758h246c64 0 115.833 -18.167 155.5 -54.5s59.5 -81.166 59.5 -134.499c0 -116 -53.333 -192.333 -160 -229c-22 -8 -36.333 -12 -43 -12zM834 1034l-68 -317.001h207c68 0 119.833 16.333 155.5 49
s53.5 78.334 53.5 137.001c0 39.333 -13 71 -39 95s-64.333 36 -115 36h-194zM1006 1395c-196.667 0 -372.166 -76.501 -526.499 -229.501s-231.5 -329.833 -231.5 -530.5c0 -168 57 -309.333 171 -424s259 -172 435 -172c195.333 0 370.5 75.5 525.5 226.5
s232.5 329.5 232.5 535.5c0 166.667 -57.333 307.334 -172 422.001s-259.334 172 -434.001 172zM1673 802.997c0 -136.667 -37.167 -268.498 -111.5 -395.498s-176 -230 -305 -309s-265.833 -118.5 -410.5 -118.5c-190 0 -347.833 62.667 -473.5 188s-188.5 279 -188.5 461
c0 147.333 40 285.166 120 413.499s183.5 229 310.5 302s259.5 109.5 397.5 109.5c190 0 347.667 -62.833 473 -188.5s188 -279.834 188 -462.501z" />
    <glyph glyph-name="macron" unicode="&#xaf;" horiz-adv-x="655" 
d="M797 1393l-13 -62h-532l12 62h533z" />
    <glyph glyph-name="degree" unicode="&#xb0;" horiz-adv-x="716" 
d="M782 1229c0 -75.333 -28.332 -142 -84.999 -200s-124.334 -87 -203.001 -87c-68 0 -124 21.833 -168 65.5s-66 96.834 -66 159.501c0 79.333 28.667 147 86 203s124.333 84 201 84c68 0 124.167 -21.833 168.5 -65.5s66.5 -96.834 66.5 -159.501zM504.001 1004
c57.333 0 107.501 21.832 150.501 65.499s64.5 96.167 64.5 157.5c0 49.333 -16.333 89.333 -49 120s-76.334 46 -131.001 46c-58.667 0 -109.5 -21.5 -152.5 -64.5s-64.5 -96.167 -64.5 -159.5c0 -49.333 16.667 -89.166 50 -119.499s77.333 -45.5 132 -45.5z" />
    <glyph glyph-name="plusminus" unicode="&#xb1;" horiz-adv-x="1024" 
d="M35 125l14 59h819l-14 -59h-819zM645 1208h62l-86 -399h389l-13 -61h-389l-84 -400h-61l84 400h-389l12 61h389z" />
    <glyph glyph-name="uni00B2" unicode="&#xb2;" horiz-adv-x="563" 
d="M604 922l-461.002 0.00488281c12 58.667 38.333 110.5 79 155.5s84.834 80.833 132.501 107.5s94.667 53 141 79s84.833 56 115.5 90s46 73.667 46 119c0 34 -12.5 61.5 -37.5 82.5s-57.333 31.5 -97 31.5s-75.5 -10.167 -107.5 -30.5s-54.333 -40.833 -67 -61.5l-18 -31
l-56 21c1.33301 4 4.16602 9.66699 8.49902 17s14 20.666 29 39.999s31.333 36.166 49 50.499s41.834 27.333 72.501 39s63 17.5 97 17.5c53.333 0 98.166 -17.167 134.499 -51.5s54.5 -74.5 54.5 -120.5c0 -50.667 -13.667 -95.834 -41 -135.501
s-62.166 -72.5 -104.499 -98.5s-85.666 -50.833 -129.999 -74.5s-87 -51.334 -128 -83.001s-70.5 -65.834 -88.5 -102.501h391z" />
    <glyph glyph-name="uni00B3" unicode="&#xb3;" horiz-adv-x="583" 
d="M582 1300l10 -5.00098c4 -2 11.167 -7 21.5 -15s19.166 -17.167 26.499 -27.5s14.5 -24 21.5 -41s10.5 -35.167 10.5 -54.5c0 -70.667 -24.667 -129.334 -74 -176.001s-110.666 -70 -183.999 -70c-49.333 0 -94.5 10.333 -135.5 31s-69.5 41.334 -85.5 62.001l-25 30
l49 41c5.33301 -8 12.833 -17.5 22.5 -28.5s31.5 -26 65.5 -45s71 -28.5 111 -28.5c56 0 102.333 16.667 139 50s55 77.333 55 132c0 34 -11.833 61.667 -35.5 83s-56.834 32 -99.501 32h-104l14 61h88c50.667 0 93 14.667 127 44s51 68 51 116
c0 28.667 -11.5 51.834 -34.5 69.501s-55.833 26.5 -98.5 26.5c-32.667 0 -64.667 -6.83301 -96 -20.5s-54.666 -27.167 -69.999 -40.5l-22 -21l-33 41c6.66699 8 16.5 17.5 29.5 28.5s39.333 26.167 79 45.5s79.167 29 118.5 29c56 0 101.5 -14.667 136.5 -44
s52.5 -66 52.5 -110c0 -89.333 -43.667 -154.333 -131 -195z" />
    <glyph glyph-name="acute" unicode="&#xb4;" horiz-adv-x="348" 
d="M213 1157l203 256h78l-228 -256h-53z" />
    <glyph glyph-name="mu" unicode="&#xb5;" horiz-adv-x="1187" 
d="M979 -10c-52 0 -89.668 16.665 -113.001 49.998s-28.666 78 -15.999 134l6 31c-2.66699 -5.33301 -7.5 -13.166 -14.5 -23.499s-22 -28.5 -45 -54.5s-47.833 -48.833 -74.5 -68.5s-62.167 -37.667 -106.5 -54s-91.166 -24.5 -140.499 -24.5
c-42 0 -81.167 6.33301 -117.5 19s-65 28 -86 46s-39 36.167 -54 54.5s-25.5 34.166 -31.5 47.499l-8 19l-127 -596h-61l301 1413h61l-127 -594c-22 -101.333 -8.33301 -184.666 41 -249.999s120.333 -98 213 -98c95.333 0 183.333 36.167 264 108.5s132 162.5 154 270.5
l121 563h61l-172 -809c-8 -35.333 -4.83301 -64.666 9.5 -87.999s37.166 -35 68.499 -35l72 10l-13 -61c-16 -6.66699 -37.667 -10 -65 -10z" />
    <glyph glyph-name="paragraph" unicode="&#xb6;" horiz-adv-x="1044" 
d="M293 -205l213 1004c-70.667 0 -131 29 -181 87s-75 123 -75 195c0 90 41.667 171.333 125 244s172 109 266 109h379l-348 -1639h-62l336 1577h-256l-336 -1577h-61z" />
    <glyph glyph-name="periodcentered" unicode="&#xb7;" horiz-adv-x="368" 
d="M254 518c0 -15.333 -6.16699 -28.667 -18.5 -40s-26.5 -17 -42.5 -17c-30 0 -45.333 15.667 -46 47c0 16.667 6.16699 30 18.5 40s26.833 15 43.5 15c30 0 45 -15 45 -45z" />
    <glyph glyph-name="cedilla" unicode="&#xb8;" horiz-adv-x="450" 
d="M139 41h56.002l-117 -164c15.333 6.66699 33 10 53 10c34 0 61.333 -11.167 82 -33.5s31 -50.5 31 -84.5c0 -48 -18.833 -89.833 -56.5 -125.5s-84.5 -53.5 -140.5 -53.5c-24.667 0 -50 4.16699 -76 12.5s-45 16.5 -57 24.5l-20 15l38 41c30 -27.333 69 -41 117 -41
c39.333 0 73.166 12.167 101.499 36.5s42.5 51.5 42.5 81.5c0 22 -7.16699 40.167 -21.5 54.5s-32.5 21.5 -54.5 21.5c-12 0 -24.333 -1.66699 -37 -5s-22.334 -7 -29.001 -11l-10 -4l-31 41z" />
    <glyph glyph-name="uni00B9" unicode="&#xb9;" horiz-adv-x="399" 
d="M481 1638h51.001l-153 -716h-62l132 614c-42 -40.667 -98.667 -64.667 -170 -72l14 62c31.333 2.66699 62.666 13.5 93.999 32.5s55.333 37.5 72 55.5z" />
    <glyph glyph-name="ordmasculine" unicode="&#xba;" horiz-adv-x="716" 
d="M532 1395c-74 0 -137.5 -30.833 -190.5 -92.5s-79.5 -131.167 -79.5 -208.5c0 -62.667 20.167 -113.834 60.5 -153.501s91.833 -59.5 154.5 -59.5c72.667 0 136 28.667 190 86s81 129 81 215c0 62.667 -20 113.834 -60 153.501s-92 59.5 -156 59.5zM811 1184
c0 -91.333 -33.5 -175 -100.5 -251s-147.5 -114 -241.5 -114c-78 0 -142.167 25.667 -192.5 77s-75.5 116 -75.5 194c0 101.333 34.5 187.333 103.5 258s147.167 106 234.5 106c79.333 0 144.5 -25.5 195.5 -76.5s76.5 -115.5 76.5 -193.5z" />
    <glyph glyph-name="guillemotright" unicode="&#xbb;" horiz-adv-x="849" 
d="M352 498l-155 311h65l160 -317l-293 -318h-76zM680 498l-156 311h66l160 -317l-293 -318h-76z" />
    <glyph glyph-name="onequarter" unicode="&#xbc;" horiz-adv-x="1361" 
d="M61 0l1196 1434h70l-1196 -1434h-70zM459 1434l50.999 0.000976562l-154 -717h-61l131 614c-42 -40.667 -98.667 -64.334 -170 -71.001l14 61c31.333 2.66699 62.833 13.5 94.5 32.5s54.834 37.5 69.501 55.5zM1128 246.001h103l-14 -62h-103l-39 -184h-61l39 184h-359
l15 62l438 471h82zM1067 246.001l84 399l-373 -399h289z" />
    <glyph glyph-name="onehalf" unicode="&#xbd;" horiz-adv-x="1413" 
d="M61 0l1196 1434h70l-1196 -1434h-70zM459 1434l50.999 0.000976562l-154 -717h-61l131 614c-42 -40.667 -98.667 -64.334 -170 -71.001l14 61c31.333 2.66699 62.833 13.5 94.5 32.5s54.834 37.5 69.501 55.5zM1217 0.000976562l-461.004 0.00195312
c12 58.667 38.167 110.5 78.5 155.5s84.333 80.833 132 107.5s94.834 53 141.501 79s85.334 56 116.001 90s46 73.667 46 119c0 34 -12.667 61.667 -38 83s-57.833 32 -97.5 32s-75.5 -10.333 -107.5 -31s-54 -41.334 -66 -62.001l-19 -30l-55 20
c1.33301 4 4 9.83301 8 17.5s13.5 21 28.5 40s31.333 35.667 49 50s42 27.333 73 39s63.5 17.5 97.5 17.5c53.333 0 98 -17 134 -51s54 -74.333 54 -121c0 -50.667 -13.667 -95.834 -41 -135.501s-62.166 -72.334 -104.499 -98.001s-85.666 -50.5 -129.999 -74.5
s-87 -51.667 -128 -83s-70.167 -65.666 -87.5 -102.999h391z" />
    <glyph glyph-name="threequarters" unicode="&#xbe;" horiz-adv-x="1495" 
d="M184 0l1196 1434h70l-1196 -1434h-70zM1260 246h102l-14 -62h-103l-39 -184h-61l39 184h-359l15 62l438 471h82zM1198 246l84 399l-373 -399h289zM561 1096c2.66699 -1.33301 6.17285 -3.16699 10.5059 -5.5s11.5 -7.5 21.5 -15.5s18.833 -17.167 26.5 -27.5
s14.834 -24 21.501 -41s10 -35.167 10 -54.5c0 -70.667 -24.5 -129.167 -73.5 -175.5s-110.5 -69.5 -184.5 -69.5c-49.333 0 -94.333 10.167 -135 30.5s-69.334 40.833 -86.001 61.5l-25 30l50 41c5.33301 -8 12.666 -17.5 21.999 -28.5s31.166 -26 65.499 -45
s71.166 -28.5 110.499 -28.5c56 0 102.5 16.667 139.5 50s55.5 77.333 55.5 132c0 34 -12 61.667 -36 83s-57 32 -99 32h-105l15 61h88c50.667 0 93 14.667 127 44s51 68 51 116c0 28.667 -11.667 51.834 -35 69.501s-56 26.5 -98 26.5
c-32.667 0 -64.834 -6.83301 -96.501 -20.5s-54.834 -27.167 -69.501 -40.5l-23 -21l-33 41c6.66699 8 16.667 17.5 30 28.5s39.666 26.167 78.999 45.5s79 29 119 29c56 0 101.333 -14.667 136 -44s52 -66 52 -110c0 -88.667 -43.667 -153.334 -131 -194.001z" />
    <glyph glyph-name="questiondown" unicode="&#xbf;" horiz-adv-x="890" 
d="M532 676l61.9961 -0.00195312l-19 -82c-12 -56 -35 -107.167 -69 -153.5s-71.167 -84.5 -111.5 -114.5s-83 -61.5 -128 -94.5s-85.667 -64.5 -122 -94.5s-66.833 -67.833 -91.5 -113.5s-37 -96.5 -37 -152.5c0 -72.667 29.833 -134.167 89.5 -184.5
s136.5 -75.5 230.5 -75.5c57.333 0 110.166 9.5 158.499 28.5s86.5 42.167 114.5 69.5s52 54.333 72 81s33.333 49.667 40 69l12 28l55 -20c-2.66699 -8 -7 -19.167 -13 -33.5s-21.667 -40 -47 -77s-53.666 -69.167 -84.999 -96.5s-74.666 -52.666 -129.999 -75.999
s-115.666 -35 -180.999 -35c-108 0 -198.167 31.833 -270.5 95.5s-108.5 137.834 -108.5 222.501c0 72.667 16.667 136.834 50 192.501s75.333 102 126 139s101.834 72.833 153.501 107.5s99.834 76.667 144.501 126s73.667 104.666 87 165.999zM546.996 925.998
c0 15.333 6.16699 28.667 18.5 40s26.5 17 42.5 17c30 0 45 -15.667 45 -47c0 -16.667 -6.16699 -30 -18.5 -40s-26.5 -15 -42.5 -15c-30 0 -45 15 -45 45z" />
    <glyph glyph-name="Agrave" unicode="&#xc0;" horiz-adv-x="1372" 
d="M1061 502l-176 860l-541 -860h717zM1067 440h-758l-276 -440h-64l897 1434h62l291 -1434h-60zM831 1884l101 -256h-47l-121 256h67z" />
    <glyph glyph-name="Aacute" unicode="&#xc1;" horiz-adv-x="1372" 
d="M1061 502l-176 860l-541 -860h717zM1067 440h-758l-276 -440h-64l897 1434h62l291 -1434h-60zM918 1628l202 256h78l-227 -256h-53z" />
    <glyph glyph-name="Acircumflex" unicode="&#xc2;" horiz-adv-x="1372" 
d="M1061 502l-176 860l-541 -860h717zM1067 440h-758l-276 -440h-64l897 1434h62l291 -1434h-60zM668 1628l268 256h61l162 -256h-65l-133 209l-222 -209h-71z" />
    <glyph glyph-name="Atilde" unicode="&#xc3;" horiz-adv-x="1372" 
d="M1061 502l-176 860l-541 -860h717zM1067 440h-758l-276 -440h-64l897 1434h62l291 -1434h-60zM813 1792c-27.333 0 -49.5 -11 -66.5 -33s-31.833 -62.333 -44.5 -121h-61c30 143.333 88.667 215 176 215c30 0 57 -7.83301 81 -23.5s42.5 -33.334 55.5 -53.001
s29.333 -37.334 49 -53.001s41.167 -23.5 64.5 -23.5c27.333 0 49.5 10.833 66.5 32.5s31.833 61.834 44.5 120.501h61c-30 -143.333 -88.667 -215 -176 -215c-30 0 -57 8 -81 24s-42.5 33.833 -55.5 53.5s-29.333 37.334 -49 53.001s-41.167 23.5 -64.5 23.5z" />
    <glyph glyph-name="Adieresis" unicode="&#xc4;" horiz-adv-x="1372" 
d="M1061 502l-176 860l-541 -860h717zM1067 440h-758l-276 -440h-64l897 1434h62l291 -1434h-60zM838 1767c0 -15.333 -6.16699 -28.667 -18.5 -40s-26.833 -17 -43.5 -17c-30 0 -45 15.667 -45 47c0 16.667 6.16699 30 18.5 40s26.833 15 43.5 15c30 0 45 -15 45 -45z
M1165 1767c0 -15.333 -6.16699 -28.667 -18.5 -40s-26.5 -17 -42.5 -17c-30 0 -45 15.667 -45 47c0 16.667 6.16699 30 18.5 40s26.5 15 42.5 15c30 0 45 -15 45 -45z" />
    <glyph glyph-name="Aring" unicode="&#xc5;" horiz-adv-x="1372" 
d="M1061 502l-176 860l-541 -860h717zM1067 440h-758l-276 -440h-64l897 1434h62l291 -1434h-60zM967 1896c-36.667 0 -71.168 -14.667 -103.501 -44s-48.5 -64.333 -48.5 -105c0 -32.667 11.333 -61 34 -85s51.667 -36 87 -36c36.667 0 71.5 15.333 104.5 46
s49.5 64.667 49.5 102c0 34 -11.667 62.833 -35 86.5s-52.666 35.5 -87.999 35.5zM1151 1782c0 -53.333 -22.833 -102.5 -68.5 -147.5s-96.5 -67.5 -152.5 -67.5c-49.333 0 -91 17 -125 51s-51 75 -51 123c0 54.667 22.833 104.167 68.5 148.5s96.5 66.5 152.5 66.5
c49.333 0 91 -17 125 -51s51 -75 51 -123z" />
    <glyph glyph-name="AE" unicode="&#xc6;" horiz-adv-x="1925" 
d="M975 61h788l-12 -61h-850l96 461h-704l-352 -461h-74l1102 1434h1065l-13 -62h-768l-127 -594h605l-13 -61h-604zM999 1372l-661 -850h674l180 850h-193z" />
    <glyph glyph-name="Ccedilla" unicode="&#xc7;" horiz-adv-x="1525" 
d="M164 606c0 143.333 37.501 279.83 112.501 409.497s178 235.167 309 316.5s273.167 122 426.5 122c72.667 0 142 -10.5 208 -31.5s120.167 -46.667 162.5 -77s79.5 -60.5 111.5 -90.5s55.667 -55 71 -75l20 -33l-55 -37c-4 8 -10.5 18.167 -19.5 30.5
s-29.5 34.833 -61.5 67.5s-66.5 61.334 -103.5 86.001s-85.833 47.334 -146.5 68.001s-124.334 31 -191.001 31c-204.667 0 -386 -76.167 -544 -228.5s-237 -337.166 -237 -554.499c0 -154 55.333 -287.333 166 -400s243.334 -169 398.001 -169
c66.667 0 131.667 9.83301 195 29.5s116.5 43.5 159.5 71.5s81.333 56.333 115 85s58.5 52.667 74.5 72l23 31l43 -43l-27.5 -33c-11.667 -14 -37.667 -38.667 -78 -74s-82.666 -66.666 -126.999 -93.999s-101.333 -51.833 -171 -73.5s-140.834 -32.5 -213.501 -32.5h-32
l-70 -101c1.33301 0 4.33301 0.666992 9 2s11.167 2.66602 19.5 3.99902s16.5 2 24.5 2c34 0 61.333 -11.167 82 -33.5s31 -50.5 31 -84.5c0 -48 -18.833 -89.833 -56.5 -125.5s-84.5 -53.5 -140.5 -53.5c-24.667 0 -49.834 4.16699 -75.501 12.5s-45.5 16.5 -59.5 24.5
l-18 15l39 41c30 -27.333 68.667 -41 116 -41c39.333 0 73.166 12.167 101.499 36.5s42.5 51.5 42.5 81.5c0 22 -7.16699 40.167 -21.5 54.5s-32.5 21.5 -54.5 21.5c-12 0 -24.167 -1.66699 -36.5 -5s-22.166 -7 -29.499 -11l-10 -4l-31 41l91 129
c-150 20.667 -277.667 91 -383 211s-158 256.333 -158 409z" />
    <glyph glyph-name="Egrave" unicode="&#xc8;" horiz-adv-x="1280" 
d="M217 61h901l-12 -61h-963l303 1434h943l-13 -62h-880l-127 -594h716l-12 -61h-717zM852 1884l100 -256h-47l-121 256h68z" />
    <glyph glyph-name="Eacute" unicode="&#xc9;" horiz-adv-x="1280" 
d="M217 61h901l-12 -61h-963l303 1434h943l-13 -62h-880l-127 -594h716l-12 -61h-717zM905 1628l203 256h78l-228 -256h-53z" />
    <glyph glyph-name="Ecircumflex" unicode="&#xca;" horiz-adv-x="1280" 
d="M217 61h901l-12 -61h-963l303 1434h943l-13 -62h-880l-127 -594h716l-12 -61h-717zM694 1618l269 256h61l162 -256h-66l-133 209l-221 -209h-72z" />
    <glyph glyph-name="Edieresis" unicode="&#xcb;" horiz-adv-x="1280" 
d="M217 61h901l-12 -61h-963l303 1434h943l-13 -62h-880l-127 -594h716l-12 -61h-717zM858 1767c0 -15.333 -6.16699 -28.667 -18.5 -40s-26.5 -17 -42.5 -17c-30 0 -45 15.667 -45 47c0 16.667 6 30 18 40s26.333 15 43 15c30 0 45 -15 45 -45zM1186 1767
c0 -15.333 -6.16699 -28.667 -18.5 -40s-26.833 -17 -43.5 -17c-30 0 -45 15.667 -45 47c0 16.667 6.16699 30 18.5 40s26.833 15 43.5 15c30 0 45 -15 45 -45z" />
    <glyph glyph-name="Igrave" unicode="&#xcc;" horiz-adv-x="532" 
d="M143 0l303 1434h62l-303 -1434h-62zM428 1894l100 -256h-47l-121 256h68z" />
    <glyph glyph-name="Iacute" unicode="&#xcd;" horiz-adv-x="532" 
d="M143 0l303 1434h62l-303 -1434h-62zM500 1628l202 256h78l-227 -256h-53z" />
    <glyph glyph-name="Icircumflex" unicode="&#xce;" horiz-adv-x="532" 
d="M143 0l303 1434h62l-303 -1434h-62zM264 1618l268 256h62l162 -256h-66l-133 209l-221 -209h-72z" />
    <glyph glyph-name="Idieresis" unicode="&#xcf;" horiz-adv-x="532" 
d="M143 0l303 1434h62l-303 -1434h-62zM426 1767c0 -15.333 -6.16699 -28.667 -18.5 -40s-26.5 -17 -42.5 -17c-30 0 -45.333 15.667 -46 47c0 16.667 6.16699 30 18.5 40s26.833 15 43.5 15c30 0 45 -15 45 -45zM754 1767c0 -15.333 -6.16699 -28.667 -18.5 -40
s-26.833 -17 -43.5 -17c-30 0 -45 15.667 -45 47c0 16.667 6.16699 30 18.5 40s26.833 15 43.5 15c30 0 45 -15 45 -45z" />
    <glyph glyph-name="Eth" unicode="&#xd0;" horiz-adv-x="1525" 
d="M477 1434h347.999c188.667 0 344.834 -58.167 468.501 -174.5s185.5 -257.5 185.5 -423.5c0 -240 -84.333 -439.333 -253 -598s-376 -238 -622 -238h-430l145 686h-215l13 62h215zM822.999 1372h-297.001l-133 -624h369l-12 -62h-371l-131 -625h358
c229.333 0 421.833 73.167 577.5 219.5s233.5 331.5 233.5 555.5c0 152.667 -55.667 280.167 -167 382.5s-253.666 153.5 -426.999 153.5z" />
    <glyph glyph-name="Ntilde" unicode="&#xd1;" horiz-adv-x="1576" 
d="M1491 1434h61l-303 -1434h-49l-715 1321l-280 -1321h-62l303 1434h50l714 -1321zM905 1792c-27.333 0 -49.5 -11 -66.5 -33s-31.5 -62.333 -43.5 -121h-62c30 143.333 88.667 215 176 215c30 0 57 -7.83301 81 -23.5s42.5 -33.334 55.5 -53.001
s29.333 -37.334 49 -53.001s41.167 -23.5 64.5 -23.5c27.333 0 49.5 10.833 66.5 32.5s31.833 61.834 44.5 120.501h61c-30 -143.333 -88.667 -215 -176 -215c-30 0 -57 8 -81 24s-42.5 33.833 -55.5 53.5s-29.333 37.334 -49 53.001s-41.167 23.5 -64.5 23.5z" />
    <glyph glyph-name="Ograve" unicode="&#xd2;" horiz-adv-x="1679" 
d="M821 39c122.667 0 241.832 33.833 357.499 101.5s209.667 160.5 282 278.5s108.5 245.333 108.5 382c0 166.667 -56 307.334 -168 422.001s-253.333 172 -424 172c-124 0 -243.5 -33.833 -358.5 -101.5s-209 -160.5 -282 -278.5s-109.5 -245.333 -109.5 -382
c0 -166.667 56.333 -307.334 169 -422.001s254.334 -172 425.001 -172zM812.998 -20c-186 0 -340.667 62.667 -464 188s-185 279 -185 461c0 146 39.833 283.167 119.5 411.5s182.334 229.333 308.001 303s256.167 110.5 391.5 110.5c186 0 340.667 -62.833 464 -188.5
s185 -279.167 185 -460.5c0 -146 -39.833 -283.167 -119.5 -411.5s-182.334 -229.333 -308.001 -303s-256.167 -110.5 -391.5 -110.5zM986.998 1884l100 -256h-47l-120 256h67z" />
    <glyph glyph-name="Oacute" unicode="&#xd3;" horiz-adv-x="1679" 
d="M821 39c122.667 0 241.832 33.833 357.499 101.5s209.667 160.5 282 278.5s108.5 245.333 108.5 382c0 166.667 -56 307.334 -168 422.001s-253.333 172 -424 172c-124 0 -243.5 -33.833 -358.5 -101.5s-209 -160.5 -282 -278.5s-109.5 -245.333 -109.5 -382
c0 -166.667 56.333 -307.334 169 -422.001s254.334 -172 425.001 -172zM812.998 -20c-186 0 -340.667 62.667 -464 188s-185 279 -185 461c0 146 39.833 283.167 119.5 411.5s182.334 229.333 308.001 303s256.167 110.5 391.5 110.5c186 0 340.667 -62.833 464 -188.5
s185 -279.167 185 -460.5c0 -146 -39.833 -283.167 -119.5 -411.5s-182.334 -229.333 -308.001 -303s-256.167 -110.5 -391.5 -110.5zM1026 1628l203 256h78l-228 -256h-53z" />
    <glyph glyph-name="Ocircumflex" unicode="&#xd4;" horiz-adv-x="1679" 
d="M821 39c122.667 0 241.832 33.833 357.499 101.5s209.667 160.5 282 278.5s108.5 245.333 108.5 382c0 166.667 -56 307.334 -168 422.001s-253.333 172 -424 172c-124 0 -243.5 -33.833 -358.5 -101.5s-209 -160.5 -282 -278.5s-109.5 -245.333 -109.5 -382
c0 -166.667 56.333 -307.334 169 -422.001s254.334 -172 425.001 -172zM812.998 -20c-186 0 -340.667 62.667 -464 188s-185 279 -185 461c0 146 39.833 283.167 119.5 411.5s182.334 229.333 308.001 303s256.167 110.5 391.5 110.5c186 0 340.667 -62.833 464 -188.5
s185 -279.167 185 -460.5c0 -146 -39.833 -283.167 -119.5 -411.5s-182.334 -229.333 -308.001 -303s-256.167 -110.5 -391.5 -110.5zM794.998 1618l268 256h61l162 -256h-65l-134 209l-221 -209h-71z" />
    <glyph glyph-name="Otilde" unicode="&#xd5;" horiz-adv-x="1679" 
d="M821 39c122.667 0 241.832 33.833 357.499 101.5s209.667 160.5 282 278.5s108.5 245.333 108.5 382c0 166.667 -56 307.334 -168 422.001s-253.333 172 -424 172c-124 0 -243.5 -33.833 -358.5 -101.5s-209 -160.5 -282 -278.5s-109.5 -245.333 -109.5 -382
c0 -166.667 56.333 -307.334 169 -422.001s254.334 -172 425.001 -172zM812.998 -20c-186 0 -340.667 62.667 -464 188s-185 279 -185 461c0 146 39.833 283.167 119.5 411.5s182.334 229.333 308.001 303s256.167 110.5 391.5 110.5c186 0 340.667 -62.833 464 -188.5
s185 -279.167 185 -460.5c0 -146 -39.833 -283.167 -119.5 -411.5s-182.334 -229.333 -308.001 -303s-256.167 -110.5 -391.5 -110.5zM951.998 1792c-27.333 0 -49.5 -11 -66.5 -33s-31.5 -62.333 -43.5 -121h-62c30 143.333 88.667 215 176 215c30 0 57 -7.83301 81 -23.5
s42.5 -33.334 55.5 -53.001s29.333 -37.334 49 -53.001s41.167 -23.5 64.5 -23.5c27.333 0 49.5 10.833 66.5 32.5s31.833 61.834 44.5 120.501h61c-30 -143.333 -88.667 -215 -176 -215c-30 0 -57 8 -81 24s-42.333 33.833 -55 53.5s-29 37.334 -49 53.001
s-41.667 23.5 -65 23.5z" />
    <glyph glyph-name="Odieresis" unicode="&#xd6;" horiz-adv-x="1679" 
d="M821 39c122.667 0 241.832 33.833 357.499 101.5s209.667 160.5 282 278.5s108.5 245.333 108.5 382c0 166.667 -56 307.334 -168 422.001s-253.333 172 -424 172c-124 0 -243.5 -33.833 -358.5 -101.5s-209 -160.5 -282 -278.5s-109.5 -245.333 -109.5 -382
c0 -166.667 56.333 -307.334 169 -422.001s254.334 -172 425.001 -172zM812.998 -20c-186 0 -340.667 62.667 -464 188s-185 279 -185 461c0 146 39.833 283.167 119.5 411.5s182.334 229.333 308.001 303s256.167 110.5 391.5 110.5c186 0 340.667 -62.833 464 -188.5
s185 -279.167 185 -460.5c0 -146 -39.833 -283.167 -119.5 -411.5s-182.334 -229.333 -308.001 -303s-256.167 -110.5 -391.5 -110.5zM962.998 1767c0 -15.333 -6.16699 -28.667 -18.5 -40s-26.833 -17 -43.5 -17c-30 0 -45 15.667 -45 47c0 16.667 6.16699 30 18.5 40
s26.833 15 43.5 15c30 0 45 -15 45 -45zM1290 1767c0 -15.333 -6.16699 -28.667 -18.5 -40s-26.5 -17 -42.5 -17c-30 0 -45 15.667 -45 47c0 16.667 6.16699 30 18.5 40s26.5 15 42.5 15c30 0 45 -15 45 -45z" />
    <glyph glyph-name="multiply" unicode="&#xd7;" horiz-adv-x="860" 
d="M467 590l-354 -293l-39 51l350 291l-225 287l51 43l227 -289l352 293l41 -51l-352 -291l227 -287l-53 -43z" />
    <glyph glyph-name="Oslash" unicode="&#xd8;" horiz-adv-x="1679" 
d="M813 -20c-198 0 -360.333 71.002 -487 213.002l-250 -213l-41 40l254 218c-83.333 113.333 -125 243.666 -125 390.999c0 146 39.833 283.167 119.5 411.5s182.334 229.333 308.001 303s256.167 110.5 391.5 110.5c198 0 360.333 -71 487 -213l250 213l43 -41l-258 -219
c84.667 -114.667 127 -244.334 127 -389.001c0 -146 -39.833 -283.167 -119.5 -411.5s-182.334 -229.333 -308.001 -303s-256.167 -110.5 -391.5 -110.5zM227 633.002c0 -130 37 -248 111 -354l1083 919c-116 131.333 -264 197 -444 197
c-124 0 -243.5 -33.833 -358.5 -101.5s-209 -160.5 -282 -278.5s-109.5 -245.333 -109.5 -382zM821 39.002c122.667 0 241.833 33.833 357.5 101.5s209.667 160.5 282 278.5s108.5 245.333 108.5 382c0 132.667 -37.667 250 -113 352l-1081 -920
c111.333 -129.333 260 -194 446 -194z" />
    <glyph glyph-name="Ugrave" unicode="&#xd9;" horiz-adv-x="1536" 
d="M711 41c136.667 0 258.168 47.834 364.501 143.501s175.166 216.5 206.499 362.5l188 887h62l-189 -887c-34 -162.667 -110.333 -297.834 -229 -405.501s-253.667 -161.5 -405 -161.5c-136.667 0 -251.5 43 -344.5 129s-139.5 195 -139.5 327c0 34 4.33301 71 13 111
l188 887h61l-188 -887c-8 -36.667 -12 -71.667 -12 -105c0 -117.333 40.333 -213.5 121 -288.5s181.667 -112.5 303 -112.5zM918.001 1894l100 -256h-47l-121 256h68z" />
    <glyph glyph-name="Uacute" unicode="&#xda;" horiz-adv-x="1536" 
d="M711 41c136.667 0 258.168 47.834 364.501 143.501s175.166 216.5 206.499 362.5l188 887h62l-189 -887c-34 -162.667 -110.333 -297.834 -229 -405.501s-253.667 -161.5 -405 -161.5c-136.667 0 -251.5 43 -344.5 129s-139.5 195 -139.5 327c0 34 4.33301 71 13 111
l188 887h61l-188 -887c-8 -36.667 -12 -71.667 -12 -105c0 -117.333 40.333 -213.5 121 -288.5s181.667 -112.5 303 -112.5zM967.001 1628l202 256h78l-227 -256h-53z" />
    <glyph glyph-name="Ucircumflex" unicode="&#xdb;" horiz-adv-x="1536" 
d="M711 41c136.667 0 258.168 47.834 364.501 143.501s175.166 216.5 206.499 362.5l188 887h62l-189 -887c-34 -162.667 -110.333 -297.834 -229 -405.501s-253.667 -161.5 -405 -161.5c-136.667 0 -251.5 43 -344.5 129s-139.5 195 -139.5 327c0 34 4.33301 71 13 111
l188 887h61l-188 -887c-8 -36.667 -12 -71.667 -12 -105c0 -117.333 40.333 -213.5 121 -288.5s181.667 -112.5 303 -112.5zM758.001 1618l268 256h61l162 -256h-65l-133 209l-222 -209h-71z" />
    <glyph glyph-name="Udieresis" unicode="&#xdc;" horiz-adv-x="1536" 
d="M711 41c136.667 0 258.168 47.834 364.501 143.501s175.166 216.5 206.499 362.5l188 887h62l-189 -887c-34 -162.667 -110.333 -297.834 -229 -405.501s-253.667 -161.5 -405 -161.5c-136.667 0 -251.5 43 -344.5 129s-139.5 195 -139.5 327c0 34 4.33301 71 13 111
l188 887h61l-188 -887c-8 -36.667 -12 -71.667 -12 -105c0 -117.333 40.333 -213.5 121 -288.5s181.667 -112.5 303 -112.5zM913.001 1767c0 -15.333 -6 -28.667 -18 -40s-26.333 -17 -43 -17c-30 0 -45 15.667 -45 47c0 16.667 6.16699 30 18.5 40s26.5 15 42.5 15
c30 0 45 -15 45 -45zM1241 1767c0 -15.333 -6.16699 -28.667 -18.5 -40s-26.5 -17 -42.5 -17c-30 0 -45 15.667 -45 47c0 16.667 6 30 18 40s26.333 15 43 15c30 0 45 -15 45 -45z" />
    <glyph glyph-name="Yacute" unicode="&#xdd;" horiz-adv-x="1228" 
d="M319 1434l310 -861l674 861h75l-729 -932l-106 -502h-62l107 502l-336 932h67zM786 1628l203 256h78l-227 -256h-54z" />
    <glyph glyph-name="Thorn" unicode="&#xde;" horiz-adv-x="1300" 
d="M457 1188l-193 -901h365c160 0 293.5 48.5 400.5 145.5s160.5 220.5 160.5 370.5c0 105.333 -40 195.833 -120 271.5s-180.667 113.5 -302 113.5h-311zM469 1249h301.001c135.333 0 249.666 -44.333 342.999 -133s140 -191.667 140 -309c0 -168 -60 -307 -180 -417
s-268.667 -165 -446 -165h-375l-57 -266h-62l324 1516h61z" />
    <glyph glyph-name="germandbls" unicode="&#xdf;" horiz-adv-x="1167" 
d="M791 784c6.66699 -1.33301 15.4941 -4.00195 26.4941 -8.00195s30.833 -13.833 59.5 -29.5s53.834 -33.667 75.501 -54s41.334 -49.666 59.001 -87.999s26.5 -80.833 26.5 -127.5c0 -131.333 -49.167 -243.666 -147.5 -336.999s-214.166 -140 -347.499 -140h-82l12 61h74
c113.333 0 212.666 39.667 297.999 119s128 174.333 128 285c0 78 -27.667 144.667 -83 200s-126.666 83 -213.999 83h-58l13 61h10c96.667 0 183.667 33.167 261 99.5s116 145.833 116 238.5c0 65.333 -25.667 122.666 -77 171.999s-113.666 74 -186.999 74
c-90 0 -169.5 -28.667 -238.5 -86s-112.5 -127.666 -130.5 -210.999l-231 -1096h-62l232 1096c20.667 100 71.834 184.667 153.501 254s175.167 104 280.5 104c88.667 0 164.334 -30.333 227.001 -91s94 -130.667 94 -210c-0.666992 -169.333 -96.667 -292.333 -288 -369z
" />
    <glyph glyph-name="agrave" unicode="&#xe0;" horiz-adv-x="1208" 
d="M1014 729l55 254.002h61l-208 -983h-62l49 238c-4 -6.66699 -10 -15.834 -18 -27.501s-26 -32.667 -54 -63s-57.5 -56.666 -88.5 -78.999s-71.333 -42.666 -121 -60.999s-100.5 -27.5 -152.5 -27.5c-100 0 -187.167 41.167 -261.5 123.5s-111.5 180.166 -111.5 293.499
c0 162.667 58.833 304.5 176.5 425.5s242.5 181.5 374.5 181.5c52 0 99.833 -9.66699 143.5 -29s78.5 -42.333 104.5 -69s47.833 -53.334 65.5 -80.001s30.167 -49.334 37.5 -68.001zM651 942.002c-116 0 -226.167 -54 -330.5 -162s-156.5 -235 -156.5 -381
c0 -100 31.667 -184.667 95 -254s137.333 -104 222 -104c118.667 0 230.667 55.333 336 166s158 239 158 385c0 101.333 -31.5 185 -94.5 251s-139.5 99 -229.5 99zM627 1423l100 -256h-47l-121 256h68z" />
    <glyph glyph-name="aacute" unicode="&#xe1;" horiz-adv-x="1208" 
d="M1014 729l55 254.002h61l-208 -983h-62l49 238c-4 -6.66699 -10 -15.834 -18 -27.501s-26 -32.667 -54 -63s-57.5 -56.666 -88.5 -78.999s-71.333 -42.666 -121 -60.999s-100.5 -27.5 -152.5 -27.5c-100 0 -187.167 41.167 -261.5 123.5s-111.5 180.166 -111.5 293.499
c0 162.667 58.833 304.5 176.5 425.5s242.5 181.5 374.5 181.5c52 0 99.833 -9.66699 143.5 -29s78.5 -42.333 104.5 -69s47.833 -53.334 65.5 -80.001s30.167 -49.334 37.5 -68.001zM651 942.002c-116 0 -226.167 -54 -330.5 -162s-156.5 -235 -156.5 -381
c0 -100 31.667 -184.667 95 -254s137.333 -104 222 -104c118.667 0 230.667 55.333 336 166s158 239 158 385c0 101.333 -31.5 185 -94.5 251s-139.5 99 -229.5 99zM670 1157l202 256h78l-227 -256h-53z" />
    <glyph glyph-name="acircumflex" unicode="&#xe2;" horiz-adv-x="1208" 
d="M1014 729l55 254.002h61l-208 -983h-62l49 238c-4 -6.66699 -10 -15.834 -18 -27.501s-26 -32.667 -54 -63s-57.5 -56.666 -88.5 -78.999s-71.333 -42.666 -121 -60.999s-100.5 -27.5 -152.5 -27.5c-100 0 -187.167 41.167 -261.5 123.5s-111.5 180.166 -111.5 293.499
c0 162.667 58.833 304.5 176.5 425.5s242.5 181.5 374.5 181.5c52 0 99.833 -9.66699 143.5 -29s78.5 -42.333 104.5 -69s47.833 -53.334 65.5 -80.001s30.167 -49.334 37.5 -68.001zM651 942.002c-116 0 -226.167 -54 -330.5 -162s-156.5 -235 -156.5 -381
c0 -100 31.667 -184.667 95 -254s137.333 -104 222 -104c118.667 0 230.667 55.333 336 166s158 239 158 385c0 101.333 -31.5 185 -94.5 251s-139.5 99 -229.5 99zM440 1157l269 256h61l162 -256h-66l-133 209l-221 -209h-72z" />
    <glyph glyph-name="atilde" unicode="&#xe3;" horiz-adv-x="1208" 
d="M1014 729l55 254.002h61l-208 -983h-62l49 238c-4 -6.66699 -10 -15.834 -18 -27.501s-26 -32.667 -54 -63s-57.5 -56.666 -88.5 -78.999s-71.333 -42.666 -121 -60.999s-100.5 -27.5 -152.5 -27.5c-100 0 -187.167 41.167 -261.5 123.5s-111.5 180.166 -111.5 293.499
c0 162.667 58.833 304.5 176.5 425.5s242.5 181.5 374.5 181.5c52 0 99.833 -9.66699 143.5 -29s78.5 -42.333 104.5 -69s47.833 -53.334 65.5 -80.001s30.167 -49.334 37.5 -68.001zM651 942.002c-116 0 -226.167 -54 -330.5 -162s-156.5 -235 -156.5 -381
c0 -100 31.667 -184.667 95 -254s137.333 -104 222 -104c118.667 0 230.667 55.333 336 166s158 239 158 385c0 101.333 -31.5 185 -94.5 251s-139.5 99 -229.5 99zM596 1321c-27.333 0 -49.5 -10.999 -66.5 -32.999s-31.833 -62.333 -44.5 -121h-61
c30 143.333 88.667 215 176 215c30 0 57 -7.83301 81 -23.5s42.5 -33.334 55.5 -53.001s29.333 -37.334 49 -53.001s41.167 -23.5 64.5 -23.5c27.333 0 49.5 10.833 66.5 32.5s31.833 61.834 44.5 120.501h61c-30 -143.333 -88.667 -215 -176 -215
c-30 0 -57 7.83301 -81 23.5s-42.5 33.5 -55.5 53.5s-29.333 37.833 -49 53.5s-41.167 23.5 -64.5 23.5z" />
    <glyph glyph-name="adieresis" unicode="&#xe4;" horiz-adv-x="1208" 
d="M1014 729l55 254.002h61l-208 -983h-62l49 238c-4 -6.66699 -10 -15.834 -18 -27.501s-26 -32.667 -54 -63s-57.5 -56.666 -88.5 -78.999s-71.333 -42.666 -121 -60.999s-100.5 -27.5 -152.5 -27.5c-100 0 -187.167 41.167 -261.5 123.5s-111.5 180.166 -111.5 293.499
c0 162.667 58.833 304.5 176.5 425.5s242.5 181.5 374.5 181.5c52 0 99.833 -9.66699 143.5 -29s78.5 -42.333 104.5 -69s47.833 -53.334 65.5 -80.001s30.167 -49.334 37.5 -68.001zM651 942.002c-116 0 -226.167 -54 -330.5 -162s-156.5 -235 -156.5 -381
c0 -100 31.667 -184.667 95 -254s137.333 -104 222 -104c118.667 0 230.667 55.333 336 166s158 239 158 385c0 101.333 -31.5 185 -94.5 251s-139.5 99 -229.5 99zM625 1307c0 -15.333 -6.16699 -28.833 -18.5 -40.5s-26.833 -17.5 -43.5 -17.5c-30 0 -45 15.667 -45 47
c0 16.667 6.16699 30.167 18.5 40.5s26.833 15.5 43.5 15.5c30 0 45 -15 45 -45zM952 1307c0 -15.333 -6.16699 -28.833 -18.5 -40.5s-26.5 -17.5 -42.5 -17.5c-30 0 -45 15.667 -45 47c0 16.667 6.16699 30.167 18.5 40.5s26.5 15.5 42.5 15.5c30 0 45 -15 45 -45z" />
    <glyph glyph-name="aring" unicode="&#xe5;" horiz-adv-x="1208" 
d="M1014 729l55 254.002h61l-208 -983h-62l49 238c-4 -6.66699 -10 -15.834 -18 -27.501s-26 -32.667 -54 -63s-57.5 -56.666 -88.5 -78.999s-71.333 -42.666 -121 -60.999s-100.5 -27.5 -152.5 -27.5c-100 0 -187.167 41.167 -261.5 123.5s-111.5 180.166 -111.5 293.499
c0 162.667 58.833 304.5 176.5 425.5s242.5 181.5 374.5 181.5c52 0 99.833 -9.66699 143.5 -29s78.5 -42.333 104.5 -69s47.833 -53.334 65.5 -80.001s30.167 -49.334 37.5 -68.001zM651 942.002c-116 0 -226.167 -54 -330.5 -162s-156.5 -235 -156.5 -381
c0 -100 31.667 -184.667 95 -254s137.333 -104 222 -104c118.667 0 230.667 55.333 336 166s158 239 158 385c0 101.333 -31.5 185 -94.5 251s-139.5 99 -229.5 99zM735 1446c-36.667 0 -71.002 -14.668 -103.002 -44.001s-48 -64.666 -48 -105.999
c0 -32.667 11.167 -60.834 33.5 -84.501s51.5 -35.5 87.5 -35.5c36.667 0 71.334 15.333 104.001 46s49 64.334 49 101.001c0 34 -11.667 63 -35 87s-52.666 36 -87.999 36zM919.998 1331c0 -53.333 -22.999 -102.499 -68.999 -147.499s-97 -67.5 -153 -67.5
c-49.333 0 -91 17.167 -125 51.5s-51 75.166 -51 122.499c0 54.667 22.833 104.167 68.5 148.5s96.5 66.5 152.5 66.5c49.333 0 91.166 -17 125.499 -51s51.5 -75 51.5 -123z" />
    <glyph glyph-name="ae" unicode="&#xe6;" horiz-adv-x="1740" 
d="M1636 481l-797.997 -0.00195312c-5.33301 -27.333 -8.33301 -57.333 -9 -90c0 -104 29.5 -188.333 88.5 -253s133.5 -97 223.5 -97c64 0 124.667 15 182 45s98.333 60 123 90l39 43l49 -35c-4 -5.33301 -9.83301 -12.833 -17.5 -22.5s-24 -26 -49 -49
s-52 -43.333 -81 -61s-65.333 -34 -109 -49s-88.5 -22.5 -134.5 -22.5c-57.333 0 -108.833 10.5 -154.5 31.5s-81.167 46.5 -106.5 76.5s-46.166 60 -62.499 90s-27.5 55.333 -33.5 76l-6 33c-4 -8 -9.33301 -19 -16 -33s-23.667 -38.667 -51 -74
s-57.166 -66.666 -89.499 -93.999s-75.666 -51.833 -129.999 -73.5s-112.5 -32.5 -174.5 -32.5c-84.667 0 -154.167 25.5 -208.5 76.5s-81.5 109.167 -81.5 174.5c0 84.667 36.5 157.834 109.5 219.501s160.5 92.5 262.5 92.5h390l16 82c5.33301 32.667 8 57 8 73
c0 72.667 -22.5 131.5 -67.5 176.5s-103.167 67.5 -174.5 67.5c-57.333 0 -112.833 -13 -166.5 -39s-92.834 -51.333 -117.501 -76l-37 -39l-37 41c4 4 9.5 10.167 16.5 18.5s22.333 22.5 46 42.5s48.5 37.833 74.5 53.5s59.5 29.667 100.5 42s82.833 18.5 125.5 18.5
c53.333 0 99.666 -9.66699 138.999 -29s68.666 -42.666 87.999 -69.999s34.333 -54.333 45 -81s16.667 -49.334 18 -68.001l2 -29c4 6.66699 10.5 16.5 19.5 29.5s27.833 35.167 56.5 66.5s58.667 59.333 90 84s71.666 47 120.999 67s98.666 30 147.999 30
c95.333 0 177.166 -37.667 245.499 -113s102.5 -169 102.5 -281c0 -40.667 -3.66699 -76.667 -11 -108zM1300 941.998c-94 0 -186.667 -40.001 -278 -120.001s-148 -173 -170 -279h737c4 24.667 6 48.334 6 71.001c0 92.667 -28.667 170.5 -86 233.5s-127 94.5 -209 94.5z
M322.003 40.9971c102.667 0 196.5 36.5 281.5 109.5s138.5 163.5 160.5 271.5l12 59h-379c-87.333 0 -160.333 -23.833 -219 -71.5s-88 -106.5 -88 -176.5c0 -52 21.333 -97 64 -135s98.667 -57 168 -57z" />
    <glyph glyph-name="ccedilla" unicode="&#xe7;" horiz-adv-x="1064" 
d="M676 942c-136.667 0 -256.165 -54.9971 -358.498 -164.997s-153.5 -235.333 -153.5 -376c0 -102.667 33.833 -188.334 101.5 -257.001s150.5 -103 248.5 -103c64 0 125.333 15.667 184 47s101.667 62 129 92l39 47l43 -43c-4 -5.33301 -10 -12.833 -18 -22.5
s-25.333 -26 -52 -49s-54.667 -43.333 -84 -61s-66.666 -34 -111.999 -49s-91 -22.5 -137 -22.5h-6l-74 -101l8 2c5.33301 1.33301 12.166 2.66602 20.499 3.99902s16.5 2 24.5 2c34 0 61.333 -11.167 82 -33.5s31 -50.5 31 -84.5c0 -48 -18.833 -89.833 -56.5 -125.5
s-84.5 -53.5 -140.5 -53.5c-24.667 0 -49.834 4.16699 -75.501 12.5s-44.834 16.5 -57.501 24.5l-20 15l39 41c30 -27.333 68.667 -41 116 -41c39.333 0 73.166 12.167 101.499 36.5s42.5 51.5 42.5 81.5c0 22 -7.16699 40.167 -21.5 54.5s-32.5 21.5 -54.5 21.5
c-12 0 -24.167 -1.66699 -36.5 -5s-22.166 -7 -29.499 -11l-10 -4l-31 41l88 127c-98 15.333 -179.833 62.166 -245.5 140.499s-98.5 169.833 -98.5 274.5c0 165.333 59.833 307.5 179.5 426.5s253.834 178.5 402.501 178.5c46.667 0 90.5 -7.16699 131.5 -21.5
s74.333 -31.5 100 -51.5s48.5 -39.833 68.5 -59.5s34 -37.167 42 -52.5l12 -20l-53 -37c-2.66699 5.33301 -6.33398 11.833 -11.001 19.5s-16.667 22 -36 43s-39.5 39.333 -60.5 55s-50 30 -87 43s-75.167 19.5 -114.5 19.5z" />
    <glyph glyph-name="egrave" unicode="&#xe8;" horiz-adv-x="1126" 
d="M1018 461h-854c-1.33301 -10.667 -2 -27 -2 -49c0 -98 32 -184.333 96 -259s148 -112 252 -112c40.667 0 80.834 6.5 120.501 19.5s73.167 28.667 100.5 47s51.333 36.333 72 54s35.667 33.5 45 47.5l16 18l45 -43c-4 -5.33301 -10 -12.833 -18 -22.5
s-25.333 -26 -52 -49s-54.334 -43.333 -83.001 -61s-66 -34 -112 -49s-92 -22.5 -138 -22.5c-110.667 0 -205.667 40.833 -285 122.5s-119 180.5 -119 296.5c0 164 58.833 305.833 176.5 425.5s246.167 179.5 385.5 179.5c104 0 192.333 -37 265 -111s109 -167.667 109 -281
c0 -48 -4 -88 -12 -120zM657 942c-105.333 0 -205 -41.668 -299 -125.001s-154.667 -181.666 -182 -294.999h795c4 28.667 6 56.667 6 84c0 100 -30.5 181 -91.5 243s-137.167 93 -228.5 93zM618 1413l101 -256h-47l-121 256h67z" />
    <glyph glyph-name="eacute" unicode="&#xe9;" horiz-adv-x="1126" 
d="M1018 461h-854c-1.33301 -10.667 -2 -27 -2 -49c0 -98 32 -184.333 96 -259s148 -112 252 -112c40.667 0 80.834 6.5 120.501 19.5s73.167 28.667 100.5 47s51.333 36.333 72 54s35.667 33.5 45 47.5l16 18l45 -43c-4 -5.33301 -10 -12.833 -18 -22.5
s-25.333 -26 -52 -49s-54.334 -43.333 -83.001 -61s-66 -34 -112 -49s-92 -22.5 -138 -22.5c-110.667 0 -205.667 40.833 -285 122.5s-119 180.5 -119 296.5c0 164 58.833 305.833 176.5 425.5s246.167 179.5 385.5 179.5c104 0 192.333 -37 265 -111s109 -167.667 109 -281
c0 -48 -4 -88 -12 -120zM657 942c-105.333 0 -205 -41.668 -299 -125.001s-154.667 -181.666 -182 -294.999h795c4 28.667 6 56.667 6 84c0 100 -30.5 181 -91.5 243s-137.167 93 -228.5 93zM672 1157l202 256h78l-227 -256h-53z" />
    <glyph glyph-name="ecircumflex" unicode="&#xea;" horiz-adv-x="1126" 
d="M1018 461h-854c-1.33301 -10.667 -2 -27 -2 -49c0 -98 32 -184.333 96 -259s148 -112 252 -112c40.667 0 80.834 6.5 120.501 19.5s73.167 28.667 100.5 47s51.333 36.333 72 54s35.667 33.5 45 47.5l16 18l45 -43c-4 -5.33301 -10 -12.833 -18 -22.5
s-25.333 -26 -52 -49s-54.334 -43.333 -83.001 -61s-66 -34 -112 -49s-92 -22.5 -138 -22.5c-110.667 0 -205.667 40.833 -285 122.5s-119 180.5 -119 296.5c0 164 58.833 305.833 176.5 425.5s246.167 179.5 385.5 179.5c104 0 192.333 -37 265 -111s109 -167.667 109 -281
c0 -48 -4 -88 -12 -120zM657 942c-105.333 0 -205 -41.668 -299 -125.001s-154.667 -181.666 -182 -294.999h795c4 28.667 6 56.667 6 84c0 100 -30.5 181 -91.5 243s-137.167 93 -228.5 93zM436 1157l269 256h61l162 -256h-66l-133 209l-221 -209h-72z" />
    <glyph glyph-name="edieresis" unicode="&#xeb;" horiz-adv-x="1126" 
d="M1018 461h-854c-1.33301 -10.667 -2 -27 -2 -49c0 -98 32 -184.333 96 -259s148 -112 252 -112c40.667 0 80.834 6.5 120.501 19.5s73.167 28.667 100.5 47s51.333 36.333 72 54s35.667 33.5 45 47.5l16 18l45 -43c-4 -5.33301 -10 -12.833 -18 -22.5
s-25.333 -26 -52 -49s-54.334 -43.333 -83.001 -61s-66 -34 -112 -49s-92 -22.5 -138 -22.5c-110.667 0 -205.667 40.833 -285 122.5s-119 180.5 -119 296.5c0 164 58.833 305.833 176.5 425.5s246.167 179.5 385.5 179.5c104 0 192.333 -37 265 -111s109 -167.667 109 -281
c0 -48 -4 -88 -12 -120zM657 942c-105.333 0 -205 -41.668 -299 -125.001s-154.667 -181.666 -182 -294.999h795c4 28.667 6 56.667 6 84c0 100 -30.5 181 -91.5 243s-137.167 93 -228.5 93zM606 1307c0 -15.333 -6.16699 -28.833 -18.5 -40.5s-26.5 -17.5 -42.5 -17.5
c-30 0 -45 15.667 -45 47c0 16.667 6.16699 30.167 18.5 40.5s26.5 15.5 42.5 15.5c30 0 45 -15 45 -45zM934 1307c0 -15.333 -6.16699 -28.833 -18.5 -40.5s-26.833 -17.5 -43.5 -17.5c-30 0 -45 15.667 -45 47c0 16.667 6.16699 30.167 18.5 40.5s26.833 15.5 43.5 15.5
c30 0 45 -15 45 -45z" />
    <glyph glyph-name="igrave" unicode="&#xec;" horiz-adv-x="450" 
d="M270 1423l101 -256h-47l-121 256h67zM362 983l-208 -983h-62l209 983h61z" />
    <glyph glyph-name="iacute" unicode="&#xed;" horiz-adv-x="450" 
d="M340 1157l203 256h78l-228 -256h-53zM362 983l-208 -983h-62l209 983h61z" />
    <glyph glyph-name="icircumflex" unicode="&#xee;" horiz-adv-x="450" 
d="M362 983l-208 -983h-62l209 983h61zM106 1157l269 256h61l162 -256h-66l-133 209l-221 -209h-72z" />
    <glyph glyph-name="idieresis" unicode="&#xef;" horiz-adv-x="450" 
d="M287 1307c0 -15.333 -6.16699 -28.833 -18.5 -40.5s-26.833 -17.5 -43.5 -17.5c-30 0 -45 15.667 -45 47c0 16.667 6.16699 30.167 18.5 40.5s26.833 15.5 43.5 15.5c30 0 45 -15 45 -45zM614 1307c0 -15.333 -6 -28.833 -18 -40.5s-26.333 -17.5 -43 -17.5
c-30 0 -45 15.667 -45 47c0 16.667 6.16699 30.167 18.5 40.5s26.5 15.5 42.5 15.5c30 0 45 -15 45 -45zM362 983l-208 -983h-62l209 983h61z" />
    <glyph glyph-name="eth" unicode="&#xf0;" horiz-adv-x="1167" 
d="M1065 1546l-257.997 -157.003c6.66699 -5.33301 16.5 -12.833 29.5 -22.5s35.167 -32 66.5 -67s59 -73 83 -114s45.833 -95.167 65.5 -162.5s29.5 -138.666 29.5 -213.999c0 -125.333 -18.333 -241.666 -55 -348.999s-84.334 -195.166 -143.001 -263.499
s-123.5 -121.5 -194.5 -159.5s-142.167 -57 -213.5 -57c-104 0 -193.167 39.5 -267.5 118.5s-111.5 173.167 -111.5 282.5c0 148.667 58 281 174 397s239.667 174 371 174c58.667 0 111.167 -10.833 157.5 -32.5s81.833 -48.5 106.5 -80.5s45.167 -63.833 61.5 -95.5
s27.166 -58.167 32.499 -79.5l7 -33c9.33301 56 14 113.333 14 172c0 69.333 -8.83301 135.833 -26.5 199.5s-39.5 116 -65.5 157s-51.667 76.833 -77 107.5s-47 52.667 -65 66l-26 21l-275 -176l-20 51l260 160c-34 24.667 -71.833 47.5 -113.5 68.5
s-74.834 36.167 -99.501 45.5l-37 13l41 51c88.667 -34 174 -82 256 -144l272 174zM946.003 458.997c6.66699 34 9.99902 64.667 9.99902 92c0 94 -32 174.167 -96 240.5s-139 99.5 -225 99.5c-113.333 0 -221.166 -51.5 -323.499 -154.5s-153.5 -220.833 -153.5 -353.5
c0 -94 31.667 -174.5 95 -241.5s140 -100.5 230 -100.5c104 0 201 40.333 291 121s147.333 179.667 172 297z" />
    <glyph glyph-name="ntilde" unicode="&#xf1;" 
d="M352 983l-44.998 -205.001c2.66699 5.33301 7.16699 13.166 13.5 23.499s20.666 28.5 42.999 54.5s47.166 48.833 74.499 68.5s63.833 37.834 109.5 54.501s94.5 25 146.5 25c94 0 172.5 -30.5 235.5 -91.5s94.5 -139.167 94.5 -234.5c0 -26 -3.33301 -57.333 -10 -94
l-123 -584h-62l123 584c5.33301 27.333 8.33301 56 9 86c0 82 -25.333 147.833 -76 197.5s-115.667 74.5 -195 74.5c-102.667 0 -194.167 -37.167 -274.5 -111.5s-132.833 -170.166 -157.5 -287.499l-115 -543h-61l209 983h61zM610.002 1321
c-27.333 0 -49.5 -10.999 -66.5 -32.999s-31.5 -62.333 -43.5 -121h-62c30 143.333 88.667 215 176 215c30 0 57 -7.83301 81 -23.5s42.5 -33.334 55.5 -53.001s29.333 -37.334 49 -53.001s41.167 -23.5 64.5 -23.5c27.333 0 49.5 10.833 66.5 32.5
s31.833 61.834 44.5 120.501h61c-30 -143.333 -88.667 -215 -176 -215c-30 0 -57 7.83301 -81 23.5s-42.333 33.5 -55 53.5s-29 37.833 -49 53.5s-41.667 23.5 -65 23.5z" />
    <glyph glyph-name="ograve" unicode="&#xf2;" horiz-adv-x="1187" 
d="M543 41c126.667 0 238.834 52.501 336.501 157.501s146.5 223.167 146.5 354.5c0 110.667 -35.833 203.167 -107.5 277.5s-161.5 111.5 -269.5 111.5c-122.667 0 -233.834 -50.833 -333.501 -152.5s-149.5 -222.167 -149.5 -361.5
c0 -110.667 35.833 -202.834 107.5 -276.501s161.5 -110.5 269.5 -110.5zM1087 553.001c0 -143.333 -55.168 -274.667 -165.501 -394s-240.833 -179 -391.5 -179c-121.333 0 -223 43 -305 129s-123 191.667 -123 317c0 155.333 57.833 290.5 173.5 405.5
s242.834 172.5 381.501 172.5c122.667 0 225 -43.5 307 -130.5s123 -193.833 123 -320.5zM622.999 1423l100 -256h-47l-121 256h68z" />
    <glyph glyph-name="oacute" unicode="&#xf3;" horiz-adv-x="1187" 
d="M543 41c126.667 0 238.834 52.501 336.501 157.501s146.5 223.167 146.5 354.5c0 110.667 -35.833 203.167 -107.5 277.5s-161.5 111.5 -269.5 111.5c-122.667 0 -233.834 -50.833 -333.501 -152.5s-149.5 -222.167 -149.5 -361.5
c0 -110.667 35.833 -202.834 107.5 -276.501s161.5 -110.5 269.5 -110.5zM1087 553.001c0 -143.333 -55.168 -274.667 -165.501 -394s-240.833 -179 -391.5 -179c-121.333 0 -223 43 -305 129s-123 191.667 -123 317c0 155.333 57.833 290.5 173.5 405.5
s242.834 172.5 381.501 172.5c122.667 0 225 -43.5 307 -130.5s123 -193.833 123 -320.5zM665.999 1157l202 256h78l-227 -256h-53z" />
    <glyph glyph-name="ocircumflex" unicode="&#xf4;" horiz-adv-x="1187" 
d="M543 41c126.667 0 238.834 52.501 336.501 157.501s146.5 223.167 146.5 354.5c0 110.667 -35.833 203.167 -107.5 277.5s-161.5 111.5 -269.5 111.5c-122.667 0 -233.834 -50.833 -333.501 -152.5s-149.5 -222.167 -149.5 -361.5
c0 -110.667 35.833 -202.834 107.5 -276.501s161.5 -110.5 269.5 -110.5zM1087 553.001c0 -143.333 -55.168 -274.667 -165.501 -394s-240.833 -179 -391.5 -179c-121.333 0 -223 43 -305 129s-123 191.667 -123 317c0 155.333 57.833 290.5 173.5 405.5
s242.834 172.5 381.501 172.5c122.667 0 225 -43.5 307 -130.5s123 -193.833 123 -320.5zM456.999 1157l268 256h61l162 -256h-65l-133 209l-222 -209h-71z" />
    <glyph glyph-name="otilde" unicode="&#xf5;" horiz-adv-x="1187" 
d="M543 41c126.667 0 238.834 52.501 336.501 157.501s146.5 223.167 146.5 354.5c0 110.667 -35.833 203.167 -107.5 277.5s-161.5 111.5 -269.5 111.5c-122.667 0 -233.834 -50.833 -333.501 -152.5s-149.5 -222.167 -149.5 -361.5
c0 -110.667 35.833 -202.834 107.5 -276.501s161.5 -110.5 269.5 -110.5zM1087 553.001c0 -143.333 -55.168 -274.667 -165.501 -394s-240.833 -179 -391.5 -179c-121.333 0 -223 43 -305 129s-123 191.667 -123 317c0 155.333 57.833 290.5 173.5 405.5
s242.834 172.5 381.501 172.5c122.667 0 225 -43.5 307 -130.5s123 -193.833 123 -320.5zM595.999 1321c-27.333 0 -49.5 -10.999 -66.5 -32.999s-31.833 -62.333 -44.5 -121h-61c30 143.333 88.667 215 176 215c30 0 57 -7.83301 81 -23.5s42.5 -33.334 55.5 -53.001
s29.333 -37.334 49 -53.001s41.167 -23.5 64.5 -23.5c27.333 0 49.5 10.833 66.5 32.5s31.833 61.834 44.5 120.501h61c-30 -143.333 -88.667 -215 -176 -215c-30 0 -57 7.83301 -81 23.5s-42.5 33.5 -55.5 53.5s-29.333 37.833 -49 53.5s-41.167 23.5 -64.5 23.5z" />
    <glyph glyph-name="odieresis" unicode="&#xf6;" horiz-adv-x="1187" 
d="M543 41c126.667 0 238.834 52.501 336.501 157.501s146.5 223.167 146.5 354.5c0 110.667 -35.833 203.167 -107.5 277.5s-161.5 111.5 -269.5 111.5c-122.667 0 -233.834 -50.833 -333.501 -152.5s-149.5 -222.167 -149.5 -361.5
c0 -110.667 35.833 -202.834 107.5 -276.501s161.5 -110.5 269.5 -110.5zM1087 553.001c0 -143.333 -55.168 -274.667 -165.501 -394s-240.833 -179 -391.5 -179c-121.333 0 -223 43 -305 129s-123 191.667 -123 317c0 155.333 57.833 290.5 173.5 405.5
s242.834 172.5 381.501 172.5c122.667 0 225 -43.5 307 -130.5s123 -193.833 123 -320.5zM609.999 1307c0 -15.333 -6.16699 -28.833 -18.5 -40.5s-26.5 -17.5 -42.5 -17.5c-30 0 -45 15.667 -45 47c0 16.667 6.16699 30.167 18.5 40.5s26.5 15.5 42.5 15.5
c30 0 45 -15 45 -45zM937.999 1307c0 -15.333 -6.16699 -28.833 -18.5 -40.5s-26.5 -17.5 -42.5 -17.5c-30 0 -45.333 15.667 -46 47c0 16.667 6.16699 30.167 18.5 40.5s26.833 15.5 43.5 15.5c30 0 45 -15 45 -45z" />
    <glyph glyph-name="divide" unicode="&#xf7;" horiz-adv-x="1003" 
d="M952 635l-12 -62h-819l12 62h819zM510 231c0 -15.333 -6.16699 -28.667 -18.5 -40s-26.5 -17 -42.5 -17c-30 0 -45.333 15.667 -46 47c0 16.667 6.16699 30 18.5 40s26.833 15 43.5 15c30 0 45 -15 45 -45zM672 988.999c0 -15.333 -6.16699 -28.667 -18.5 -40
s-26.833 -17 -43.5 -17c-30 0 -45 15.667 -45 47c0 16.667 6.16699 30 18.5 40s26.833 15 43.5 15c30 0 45 -15 45 -45z" />
    <glyph glyph-name="oslash" unicode="&#xf8;" horiz-adv-x="1187" 
d="M1087 553c0 -143.333 -55.168 -274.667 -165.501 -394s-240.833 -179 -391.5 -179c-134 0 -241 49 -321 147l-184 -158l-33 41l186 158c-50.667 76.667 -76 162.667 -76 258c0 155.333 57.833 290.5 173.5 405.5s242.834 172.5 381.501 172.5c130 0 237.333 -50 322 -150
l186 160l33 -41l-186 -160c50 -79.333 75 -166 75 -260zM542.999 40.999c126.667 0 238.833 52.5 336.5 157.5s146.5 223.167 146.5 354.5c0 82 -21 155 -63 219l-705 -604c74 -84.667 169 -127 285 -127zM165.998 427.999c0 -82 19.668 -154.333 59.001 -217l707 604
c-74 84.667 -168.333 127 -283 127c-122.667 0 -233.834 -50.833 -333.501 -152.5s-149.5 -222.167 -149.5 -361.5z" />
    <glyph glyph-name="ugrave" unicode="&#xf9;" 
d="M829 0l40.998 197c-2.66699 -5.33301 -7.33398 -13.166 -14.001 -23.499s-22 -27.833 -46 -52.5s-49.667 -46.5 -77 -65.5s-63.166 -36.333 -107.499 -52s-91.166 -23.5 -140.499 -23.5c-94 0 -172.333 30.333 -235 91s-94 138.667 -94 234
c0 35.333 3.33301 66.666 10 93.999l125 584h61l-125 -584c-6.66699 -34 -10 -62.667 -10 -86c0 -82 25.667 -147.833 77 -197.5s117.333 -74.5 198 -74.5c96.667 0 186.334 37.5 269.001 112.5s135.667 166.5 159 274.5l118 555h62l-209 -983h-62zM642.998 1423l100 -256
h-47l-121 256h68z" />
    <glyph glyph-name="uacute" unicode="&#xfa;" 
d="M829 0l40.998 197c-2.66699 -5.33301 -7.33398 -13.166 -14.001 -23.499s-22 -27.833 -46 -52.5s-49.667 -46.5 -77 -65.5s-63.166 -36.333 -107.499 -52s-91.166 -23.5 -140.499 -23.5c-94 0 -172.333 30.333 -235 91s-94 138.667 -94 234
c0 35.333 3.33301 66.666 10 93.999l125 584h61l-125 -584c-6.66699 -34 -10 -62.667 -10 -86c0 -82 25.667 -147.833 77 -197.5s117.333 -74.5 198 -74.5c96.667 0 186.334 37.5 269.001 112.5s135.667 166.5 159 274.5l118 555h62l-209 -983h-62zM658.998 1157l203 256h78
l-227 -256h-54z" />
    <glyph glyph-name="ucircumflex" unicode="&#xfb;" 
d="M829 0l40.998 197c-2.66699 -5.33301 -7.33398 -13.166 -14.001 -23.499s-22 -27.833 -46 -52.5s-49.667 -46.5 -77 -65.5s-63.166 -36.333 -107.499 -52s-91.166 -23.5 -140.499 -23.5c-94 0 -172.333 30.333 -235 91s-94 138.667 -94 234
c0 35.333 3.33301 66.666 10 93.999l125 584h61l-125 -584c-6.66699 -34 -10 -62.667 -10 -86c0 -82 25.667 -147.833 77 -197.5s117.333 -74.5 198 -74.5c96.667 0 186.334 37.5 269.001 112.5s135.667 166.5 159 274.5l118 555h62l-209 -983h-62zM456.998 1157l268 256h61
l162 -256h-65l-133 209l-222 -209h-71z" />
    <glyph glyph-name="udieresis" unicode="&#xfc;" 
d="M829 0l40.998 197c-2.66699 -5.33301 -7.33398 -13.166 -14.001 -23.499s-22 -27.833 -46 -52.5s-49.667 -46.5 -77 -65.5s-63.166 -36.333 -107.499 -52s-91.166 -23.5 -140.499 -23.5c-94 0 -172.333 30.333 -235 91s-94 138.667 -94 234
c0 35.333 3.33301 66.666 10 93.999l125 584h61l-125 -584c-6.66699 -34 -10 -62.667 -10 -86c0 -82 25.667 -147.833 77 -197.5s117.333 -74.5 198 -74.5c96.667 0 186.334 37.5 269.001 112.5s135.667 166.5 159 274.5l118 555h62l-209 -983h-62zM620.998 1296
c0 -15.333 -6.16699 -28.667 -18.5 -40s-26.833 -17 -43.5 -17c-30 0 -45 15.667 -45 47c0 16.667 6.16699 30 18.5 40s26.5 15 42.5 15c30.667 0 46 -15 46 -45zM947.998 1296c0 -15.333 -6.16699 -28.667 -18.5 -40s-26.5 -17 -42.5 -17c-30 0 -45 15.667 -45 47
c0 16.667 6.16699 30 18.5 40s26.5 15 42.5 15c30 0 45 -15 45 -45z" />
    <glyph glyph-name="yacute" unicode="&#xfd;" horiz-adv-x="962" 
d="M219 -205l128.999 209.001l-190 979h59l176 -901l561 901h64l-735 -1188c-49.333 -80.667 -95.833 -138.334 -139.5 -173.001s-95.5 -52 -155.5 -52c-15.333 0 -30.166 1.66699 -44.499 5s-24.166 7 -29.499 11l-10 4l10 62c16.667 -13.333 42 -20.333 76 -21
c87.333 0 163.666 54.667 228.999 164zM560.999 1157l203 256h78l-228 -256h-53z" />
    <glyph glyph-name="thorn" unicode="&#xfe;" horiz-adv-x="1218" 
d="M207 254l-145.999 -684.001h-61l395 1864h62l-146 -689c4 6.66699 10.167 16 18.5 28s26.5 33 54.5 63s57.667 56.167 89 78.5s72 42.833 122 61.5s101 28 153 28c100 0 187 -41.333 261 -124s111 -180.667 111 -294c0 -162.667 -58.667 -304.334 -176 -425.001
s-242.333 -181 -375 -181c-52 0 -100.167 9.5 -144.5 28.5s-79 41.833 -104 68.5s-46.833 53.334 -65.5 80.001s-31.334 49.334 -38.001 68.001zM571.001 40.999c116 0 226.334 54 331.001 162s157 235 157 381c0 100 -31.833 184.667 -95.5 254s-137.834 104 -222.501 104
c-118.667 0 -230.5 -55.333 -335.5 -166s-157.5 -239 -157.5 -385c0 -101.333 31.333 -185 94 -251s139 -99 229 -99z" />
    <glyph glyph-name="ydieresis" unicode="&#xff;" horiz-adv-x="962" 
d="M219 -205l128.999 209.001l-190 979h59l176 -901l561 901h64l-735 -1188c-49.333 -80.667 -95.833 -138.334 -139.5 -173.001s-95.5 -52 -155.5 -52c-15.333 0 -30.166 1.66699 -44.499 5s-24.166 7 -29.499 11l-10 4l10 62c16.667 -13.333 42 -20.333 76 -21
c87.333 0 163.666 54.667 228.999 164zM525.999 1307c0 -15.333 -6.16699 -28.833 -18.5 -40.5s-26.5 -17.5 -42.5 -17.5c-30 0 -45 15.667 -45 47c0 16.667 6.16699 30.167 18.5 40.5s26.5 15.5 42.5 15.5c30 0 45 -15 45 -45zM853.999 1307
c0 -15.333 -6.16699 -28.833 -18.5 -40.5s-26.5 -17.5 -42.5 -17.5c-30 0 -45 15.667 -45 47c0 16.667 6 30.167 18 40.5s26.333 15.5 43 15.5c30 0 45 -15 45 -45z" />
    <glyph glyph-name="Amacron" unicode="&#x100;" horiz-adv-x="1372" 
d="M1061 502l-176 860l-541 -860h717zM1067 440h-758l-276 -440h-64l897 1434h62l291 -1434h-60zM1202 1792l-12 -61h-533l13 61h532z" />
    <glyph glyph-name="amacron" unicode="&#x101;" horiz-adv-x="1208" 
d="M1014 729l55 254.002h61l-208 -983h-62l49 238c-4 -6.66699 -10 -15.834 -18 -27.501s-26 -32.667 -54 -63s-57.5 -56.666 -88.5 -78.999s-71.333 -42.666 -121 -60.999s-100.5 -27.5 -152.5 -27.5c-100 0 -187.167 41.167 -261.5 123.5s-111.5 180.166 -111.5 293.499
c0 162.667 58.833 304.5 176.5 425.5s242.5 181.5 374.5 181.5c52 0 99.833 -9.66699 143.5 -29s78.5 -42.333 104.5 -69s47.833 -53.334 65.5 -80.001s30.167 -49.334 37.5 -68.001zM651 942.002c-116 0 -226.167 -54 -330.5 -162s-156.5 -235 -156.5 -381
c0 -100 31.667 -184.667 95 -254s137.333 -104 222 -104c118.667 0 230.667 55.333 336 166s158 239 158 385c0 101.333 -31.5 185 -94.5 251s-139.5 99 -229.5 99zM1014 1341l-13 -61h-532l12 61h533z" />
    <glyph glyph-name="Abreve" unicode="&#x102;" horiz-adv-x="1372" 
d="M1061 502l-176 860l-541 -860h717zM1067 440h-758l-276 -440h-64l897 1434h62l291 -1434h-60zM934 1690c124 0 200.334 64.667 229.001 194h62c-16.667 -78 -50.5 -140.167 -101.5 -186.5s-114.167 -69.5 -189.5 -69.5c-78 0 -138.5 24 -181.5 72
s-56.167 109.333 -39.5 184h61c-13.333 -61.333 -5.33301 -109 24 -143s74.666 -51 135.999 -51z" />
    <glyph glyph-name="abreve" unicode="&#x103;" horiz-adv-x="1208" 
d="M1014 729l55 254.002h61l-208 -983h-62l49 238c-4 -6.66699 -10 -15.834 -18 -27.501s-26 -32.667 -54 -63s-57.5 -56.666 -88.5 -78.999s-71.333 -42.666 -121 -60.999s-100.5 -27.5 -152.5 -27.5c-100 0 -187.167 41.167 -261.5 123.5s-111.5 180.166 -111.5 293.499
c0 162.667 58.833 304.5 176.5 425.5s242.5 181.5 374.5 181.5c52 0 99.833 -9.66699 143.5 -29s78.5 -42.333 104.5 -69s47.833 -53.334 65.5 -80.001s30.167 -49.334 37.5 -68.001zM651 942.002c-116 0 -226.167 -54 -330.5 -162s-156.5 -235 -156.5 -381
c0 -100 31.667 -184.667 95 -254s137.333 -104 222 -104c118.667 0 230.667 55.333 336 166s158 239 158 385c0 101.333 -31.5 185 -94.5 251s-139.5 99 -229.5 99zM723 1219c124 0 200.334 64.667 229.001 194h62c-16.667 -78 -50.5 -140.167 -101.5 -186.5
s-114.167 -69.5 -189.5 -69.5c-78 0 -138.5 23.833 -181.5 71.5s-56.167 109.167 -39.5 184.5h61c-13.333 -61.333 -5.33301 -109 24 -143s74.666 -51 135.999 -51z" />
    <glyph glyph-name="Aogonek" unicode="&#x104;" horiz-adv-x="1372" 
d="M1167 0l-8 -0.000976562l-92 440h-758l-276 -440h-64l897 1434h62l291 -1434c-15.333 -10.667 -34 -25.667 -56 -45s-51.333 -52.833 -88 -100.5s-55 -88.5 -55 -122.5c0 -26 8.83301 -47.5 26.5 -64.5s42.167 -25.5 73.5 -25.5c22 0 44 3.33301 66 10
s39 13.334 51 20.001l16 11l-12 -52c-36.667 -27.333 -79 -41 -127 -41c-44 0 -79.5 12.667 -106.5 38s-40.5 57.333 -40.5 96c0 44 16.667 88.667 50 134s67 80.333 101 105zM1061 501.999l-176 860l-541 -860h717z" />
    <glyph glyph-name="aogonek" unicode="&#x105;" horiz-adv-x="1208" 
d="M860 0l49 238.001c-4 -6.66699 -10 -15.834 -18 -27.501s-26 -32.667 -54 -63s-57.5 -56.666 -88.5 -78.999s-71.333 -42.666 -121 -60.999s-100.5 -27.5 -152.5 -27.5c-100 0 -187.167 41.167 -261.5 123.5s-111.5 180.166 -111.5 293.499
c0 162.667 58.833 304.5 176.5 425.5s242.5 181.5 374.5 181.5c52 0 99.833 -9.66699 143.5 -29s78.5 -42.333 104.5 -69s47.833 -53.334 65.5 -80.001s30.167 -49.334 37.5 -68.001l10 -29l55 254h61l-208 -983h-11c-15.333 -10.667 -33.833 -25.667 -55.5 -45
s-50.834 -52.833 -87.501 -100.5s-55 -88.5 -55 -122.5c0 -26 8.83301 -47.5 26.5 -64.5s42.167 -25.5 73.5 -25.5c22 0 43.833 3.33301 65.5 10s38.834 13.334 51.501 20.001l16 11l-12 -52c-36.667 -27.333 -79 -41 -127 -41c-44 0 -79.667 12.667 -107 38
s-41 57.333 -41 96c0 44 16.833 88.667 50.5 134s67.5 80.333 101.5 105zM651 942.001c-116 0 -226.167 -54 -330.5 -162s-156.5 -235 -156.5 -381c0 -100 31.667 -184.667 95 -254s137.333 -104 222 -104c118.667 0 230.667 55.333 336 166s158 239 158 385
c0 101.333 -31.5 185 -94.5 251s-139.5 99 -229.5 99z" />
    <glyph glyph-name="Cacute" unicode="&#x106;" horiz-adv-x="1525" 
d="M164 606c0 143.333 37.5 279.829 112.5 409.496s178 235.167 309 316.5s273.167 122 426.5 122c72.667 0 142 -10.5 208 -31.5s120.167 -46.667 162.5 -77s79.5 -60.5 111.5 -90.5s55.667 -55 71 -75l20 -33l-55 -37c-4 8 -10.5 18.167 -19.5 30.5
s-29.5 34.833 -61.5 67.5s-66.5 61.334 -103.5 86.001s-85.833 47.334 -146.5 68.001s-124.334 31 -191.001 31c-204.667 0 -386 -76.167 -544 -228.5s-237 -337.166 -237 -554.499c0 -154 55.333 -287.333 166 -400s243.334 -169 398.001 -169
c66.667 0 131.667 9.83301 195 29.5s116.5 43.5 159.5 71.5s81.333 56.333 115 85s58.5 52.667 74.5 72l23 31l43 -43l-27.5 -33c-11.667 -14 -37.667 -38.667 -78 -74s-82.666 -66.666 -126.999 -93.999s-101.333 -51.833 -171 -73.5s-140.834 -32.5 -213.501 -32.5
c-168 0 -313.333 62.333 -436 187s-184 271 -184 439zM1026 1628l203 256h78l-228 -256h-53z" />
    <glyph glyph-name="cacute" unicode="&#x107;" horiz-adv-x="1064" 
d="M676 942c-136.667 0 -256.168 -54.999 -358.501 -164.999s-153.5 -235.333 -153.5 -376c0 -102.667 33.833 -188.334 101.5 -257.001s150.5 -103 248.5 -103c64 0 125.333 15.667 184 47s101.667 62 129 92l39 47l43 -43c-4 -5.33301 -10 -12.833 -18 -22.5
s-25.333 -26 -52 -49s-54.667 -43.333 -84 -61s-66.666 -34 -111.999 -49s-91 -22.5 -137 -22.5c-110.667 0 -205.667 40.833 -285 122.5s-119 180.5 -119 296.5c0 165.333 59.833 307.5 179.5 426.5s253.834 178.5 402.501 178.5c46.667 0 90.5 -7.16699 131.5 -21.5
s74.333 -31.5 100 -51.5s48.5 -39.833 68.5 -59.5s34 -37.167 42 -52.5l12 -20l-53 -37c-2.66699 5.33301 -6.33398 11.833 -11.001 19.5s-16.667 22 -36 43s-39.5 39.333 -60.5 55s-50 30 -87 43s-75.167 19.5 -114.5 19.5zM661.999 1157l202 256h78l-227 -256h-53z" />
    <glyph glyph-name="Ccircumflex" unicode="&#x108;" horiz-adv-x="1525" 
d="M164 606c0 143.333 37.5 279.829 112.5 409.496s178 235.167 309 316.5s273.167 122 426.5 122c72.667 0 142 -10.5 208 -31.5s120.167 -46.667 162.5 -77s79.5 -60.5 111.5 -90.5s55.667 -55 71 -75l20 -33l-55 -37c-4 8 -10.5 18.167 -19.5 30.5
s-29.5 34.833 -61.5 67.5s-66.5 61.334 -103.5 86.001s-85.833 47.334 -146.5 68.001s-124.334 31 -191.001 31c-204.667 0 -386 -76.167 -544 -228.5s-237 -337.166 -237 -554.499c0 -154 55.333 -287.333 166 -400s243.334 -169 398.001 -169
c66.667 0 131.667 9.83301 195 29.5s116.5 43.5 159.5 71.5s81.333 56.333 115 85s58.5 52.667 74.5 72l23 31l43 -43l-27.5 -33c-11.667 -14 -37.667 -38.667 -78 -74s-82.666 -66.666 -126.999 -93.999s-101.333 -51.833 -171 -73.5s-140.834 -32.5 -213.501 -32.5
c-168 0 -313.333 62.333 -436 187s-184 271 -184 439zM813 1628l268 256h62l162 -256h-66l-133 209l-221 -209h-72z" />
    <glyph glyph-name="ccircumflex" unicode="&#x109;" horiz-adv-x="1064" 
d="M676 942c-136.667 0 -256.168 -54.999 -358.501 -164.999s-153.5 -235.333 -153.5 -376c0 -102.667 33.833 -188.334 101.5 -257.001s150.5 -103 248.5 -103c64 0 125.333 15.667 184 47s101.667 62 129 92l39 47l43 -43c-4 -5.33301 -10 -12.833 -18 -22.5
s-25.333 -26 -52 -49s-54.667 -43.333 -84 -61s-66.666 -34 -111.999 -49s-91 -22.5 -137 -22.5c-110.667 0 -205.667 40.833 -285 122.5s-119 180.5 -119 296.5c0 165.333 59.833 307.5 179.5 426.5s253.834 178.5 402.501 178.5c46.667 0 90.5 -7.16699 131.5 -21.5
s74.333 -31.5 100 -51.5s48.5 -39.833 68.5 -59.5s34 -37.167 42 -52.5l12 -20l-53 -37c-2.66699 5.33301 -6.33398 11.833 -11.001 19.5s-16.667 22 -36 43s-39.5 39.333 -60.5 55s-50 30 -87 43s-75.167 19.5 -114.5 19.5zM470.999 1157l268 256h62l162 -256h-66l-133 209
l-221 -209h-72z" />
    <glyph glyph-name="Ccaron" unicode="&#x10c;" horiz-adv-x="1525" 
d="M164 606c0 143.333 37.5 279.829 112.5 409.496s178 235.167 309 316.5s273.167 122 426.5 122c72.667 0 142 -10.5 208 -31.5s120.167 -46.667 162.5 -77s79.5 -60.5 111.5 -90.5s55.667 -55 71 -75l20 -33l-55 -37c-4 8 -10.5 18.167 -19.5 30.5
s-29.5 34.833 -61.5 67.5s-66.5 61.334 -103.5 86.001s-85.833 47.334 -146.5 68.001s-124.334 31 -191.001 31c-204.667 0 -386 -76.167 -544 -228.5s-237 -337.166 -237 -554.499c0 -154 55.333 -287.333 166 -400s243.334 -169 398.001 -169
c66.667 0 131.667 9.83301 195 29.5s116.5 43.5 159.5 71.5s81.333 56.333 115 85s58.5 52.667 74.5 72l23 31l43 -43l-27.5 -33c-11.667 -14 -37.667 -38.667 -78 -74s-82.666 -66.666 -126.999 -93.999s-101.333 -51.833 -171 -73.5s-140.834 -32.5 -213.501 -32.5
c-168 0 -313.333 62.333 -436 187s-184 271 -184 439zM1350 1884l-269 -256h-61l-162 256h66l133 -209l221 209h72z" />
    <glyph glyph-name="ccaron" unicode="&#x10d;" horiz-adv-x="1064" 
d="M676 942c-136.667 0 -256.168 -54.999 -358.501 -164.999s-153.5 -235.333 -153.5 -376c0 -102.667 33.833 -188.334 101.5 -257.001s150.5 -103 248.5 -103c64 0 125.333 15.667 184 47s101.667 62 129 92l39 47l43 -43c-4 -5.33301 -10 -12.833 -18 -22.5
s-25.333 -26 -52 -49s-54.667 -43.333 -84 -61s-66.666 -34 -111.999 -49s-91 -22.5 -137 -22.5c-110.667 0 -205.667 40.833 -285 122.5s-119 180.5 -119 296.5c0 165.333 59.833 307.5 179.5 426.5s253.834 178.5 402.501 178.5c46.667 0 90.5 -7.16699 131.5 -21.5
s74.333 -31.5 100 -51.5s48.5 -39.833 68.5 -59.5s34 -37.167 42 -52.5l12 -20l-53 -37c-2.66699 5.33301 -6.33398 11.833 -11.001 19.5s-16.667 22 -36 43s-39.5 39.333 -60.5 55s-50 30 -87 43s-75.167 19.5 -114.5 19.5zM1001 1413l-268 -256h-61l-162 256h65l134 -209
l221 209h71z" />
    <glyph glyph-name="Dcaron" unicode="&#x10e;" horiz-adv-x="1495" 
d="M446 1434h349c188.667 0 344.667 -58.167 468 -174.5s185 -257.5 185 -423.5c0 -240 -84.333 -439.333 -253 -598s-376 -238 -622 -238h-430zM793 1372h-297l-279 -1311h358c229.333 0 421.833 73.167 577.5 219.5s233.5 331.5 233.5 555.5
c0 152.667 -55.5 280.167 -166.5 382.5s-253.167 153.5 -426.5 153.5zM1214 1884l-268 -256h-61l-162 256h65l134 -209l221 209h71z" />
    <glyph glyph-name="dcaron" unicode="&#x10f;" horiz-adv-x="1280" 
d="M1014 729l149 705.002h62l-303 -1434h-62l49 238c-4 -6.66699 -10 -15.834 -18 -27.501s-26 -32.667 -54 -63s-57.5 -56.666 -88.5 -78.999s-71.333 -42.666 -121 -60.999s-100.5 -27.5 -152.5 -27.5c-100 0 -187.167 41.167 -261.5 123.5s-111.5 180.166 -111.5 293.499
c0 162.667 58.833 304.5 176.5 425.5s242.5 181.5 374.5 181.5c52 0 99.833 -9.66699 143.5 -29s78.5 -42.333 104.5 -69s47.833 -53.334 65.5 -80.001s30.167 -49.334 37.5 -68.001zM651 942.002c-116 0 -226.167 -54 -330.5 -162s-156.5 -235 -156.5 -381
c0 -100 31.667 -184.667 95 -254s137.333 -104 222 -104c118.667 0 230.667 55.333 336 166s158 239 158 385c0 101.333 -31.5 185 -94.5 251s-139.5 99 -229.5 99zM1331 1167l146 267h75l-168 -267h-53z" />
    <glyph glyph-name="Dcroat" unicode="&#x110;" horiz-adv-x="1525" 
d="M477 1434h347.999c188.667 0 344.834 -58.167 468.501 -174.5s185.5 -257.5 185.5 -423.5c0 -240 -84.333 -439.333 -253 -598s-376 -238 -622 -238h-430l145 686h-215l13 62h215zM822.999 1372h-297.001l-133 -624h369l-12 -62h-371l-131 -625h358
c229.333 0 421.833 73.167 577.5 219.5s233.5 331.5 233.5 555.5c0 152.667 -55.667 280.167 -167 382.5s-253.666 153.5 -426.999 153.5z" />
    <glyph glyph-name="dcroat" unicode="&#x111;" horiz-adv-x="1239" 
d="M811 1219l307 0.000976562l45 215h62l-45 -215h163l-12 -62h-164l-245 -1157h-62l47 227c-4 -6.66699 -10 -15.5 -18 -26.5s-26 -30.833 -54 -59.5s-57.5 -53.834 -88.5 -75.501s-71 -41.334 -120 -59.001s-99.5 -26.5 -151.5 -26.5c-98 0 -185.333 41.167 -262 123.5
s-115 178.833 -115 289.5c0 148.667 58 280.834 174 396.501s239.667 173.5 371 173.5c52 0 99.833 -9.33301 143.5 -28s78.5 -41 104.5 -67s48.5 -51.833 67.5 -77.5s31.833 -47.5 38.5 -65.5l11 -29l98 461h-307zM637 901.001
c-113.333 0 -221.167 -51.499 -323.5 -154.499s-153.5 -220.167 -153.5 -351.5c0 -96.667 32 -179.834 96 -249.501s139 -104.5 225 -104.5c118.667 0 229.667 53.167 333 159.5s155 226.5 155 360.5c0 95.333 -32.833 175.833 -98.5 241.5s-143.5 98.5 -233.5 98.5z" />
    <glyph glyph-name="Emacron" unicode="&#x112;" horiz-adv-x="1280" 
d="M217 61h901l-12 -61h-963l303 1434h943l-13 -62h-880l-127 -594h716l-12 -61h-717zM1227 1792l-13 -61h-532l12 61h533z" />
    <glyph glyph-name="emacron" unicode="&#x113;" horiz-adv-x="1126" 
d="M1018 461h-854c-1.33301 -10.667 -2 -27 -2 -49c0 -98 32 -184.333 96 -259s148 -112 252 -112c40.667 0 80.834 6.5 120.501 19.5s73.167 28.667 100.5 47s51.333 36.333 72 54s35.667 33.5 45 47.5l16 18l45 -43c-4 -5.33301 -10 -12.833 -18 -22.5
s-25.333 -26 -52 -49s-54.334 -43.333 -83.001 -61s-66 -34 -112 -49s-92 -22.5 -138 -22.5c-110.667 0 -205.667 40.833 -285 122.5s-119 180.5 -119 296.5c0 164 58.833 305.833 176.5 425.5s246.167 179.5 385.5 179.5c104 0 192.333 -37 265 -111s109 -167.667 109 -281
c0 -48 -4 -88 -12 -120zM657 942c-105.333 0 -205 -41.668 -299 -125.001s-154.667 -181.666 -182 -294.999h795c4 28.667 6 56.667 6 84c0 100 -30.5 181 -91.5 243s-137.167 93 -228.5 93zM995 1321l-12 -61h-532l12 61h532z" />
    <glyph glyph-name="Edotaccent" unicode="&#x116;" horiz-adv-x="1280" 
d="M217 61h901l-12 -61h-963l303 1434h943l-13 -62h-880l-127 -594h716l-12 -61h-717zM1006 1767c0 -15.333 -6.16699 -28.667 -18.5 -40s-26.833 -17 -43.5 -17c-30 0 -45 15.667 -45 47c0 16.667 6.16699 30 18.5 40s26.833 15 43.5 15c30 0 45 -15 45 -45z" />
    <glyph glyph-name="edotaccent" unicode="&#x117;" horiz-adv-x="1126" 
d="M1018 461h-854c-1.33301 -10.667 -2 -27 -2 -49c0 -98 32 -184.333 96 -259s148 -112 252 -112c40.667 0 80.834 6.5 120.501 19.5s73.167 28.667 100.5 47s51.333 36.333 72 54s35.667 33.5 45 47.5l16 18l45 -43c-4 -5.33301 -10 -12.833 -18 -22.5
s-25.333 -26 -52 -49s-54.334 -43.333 -83.001 -61s-66 -34 -112 -49s-92 -22.5 -138 -22.5c-110.667 0 -205.667 40.833 -285 122.5s-119 180.5 -119 296.5c0 164 58.833 305.833 176.5 425.5s246.167 179.5 385.5 179.5c104 0 192.333 -37 265 -111s109 -167.667 109 -281
c0 -48 -4 -88 -12 -120zM657 942c-105.333 0 -205 -41.668 -299 -125.001s-154.667 -181.666 -182 -294.999h795c4 28.667 6 56.667 6 84c0 100 -30.5 181 -91.5 243s-137.167 93 -228.5 93zM784 1296c0 -15.333 -6 -28.667 -18 -40s-26.333 -17 -43 -17
c-30 0 -45 15.667 -45 47c0 16.667 6.16699 30 18.5 40s26.5 15 42.5 15c30 0 45 -15 45 -45z" />
    <glyph glyph-name="Eogonek" unicode="&#x118;" horiz-adv-x="1280" 
d="M1055 0l-912 -0.000976562l303 1434h943l-13 -62h-880l-127 -594h716l-12 -61h-717l-139 -656h901l-12 -61c-15.333 -10.667 -33.833 -25.667 -55.5 -45s-51 -52.833 -88 -100.5s-55.5 -88.5 -55.5 -122.5c0 -26 9 -47.5 27 -64.5s42.667 -25.5 74 -25.5
c22 0 43.833 3.33301 65.5 10s37.834 13.334 48.501 20.001l19 11l-13 -52c-36.667 -27.333 -79 -41 -127 -41c-44 0 -79.5 12.667 -106.5 38s-40.5 57.333 -40.5 96c0 44 16.667 88.667 50 134s66.666 80.333 99.999 105z" />
    <glyph glyph-name="eogonek" unicode="&#x119;" horiz-adv-x="1126" 
d="M1018 461h-854.001c-1.33301 -10.667 -2 -27 -2 -49c0 -98 32 -184.333 96 -259s148 -112 252 -112c40.667 0 80.834 6.5 120.501 19.5s73.167 28.667 100.5 47s51.333 36.333 72 54s35.667 33.5 45 47.5l16 18l45 -43c-4 -5.33301 -9.66699 -12.333 -17 -21
s-24 -24.667 -50 -48s-53.333 -43.833 -82 -61.5s-65.167 -34 -109.5 -49s-89.166 -23.167 -134.499 -24.5c-114.667 -96.667 -172 -179.334 -172 -248.001c0 -26 8.83301 -47.5 26.5 -64.5s42.167 -25.5 73.5 -25.5c22 0 44 3.33301 66 10s39 13.334 51 20.001l17 11
l-13 -52c-36.667 -27.333 -79 -41 -127 -41c-44 0 -79.5 12.667 -106.5 38s-40.5 57.333 -40.5 96c0 86 58 172 174 258c-102.667 10.667 -188.834 56 -258.501 136s-104.5 173.667 -104.5 281c0 164 58.833 305.833 176.5 425.5s246.167 179.5 385.5 179.5
c104 0 192.333 -37 265 -111s109 -167.667 109 -281c0 -48 -4 -88 -12 -120zM656.999 942c-105.333 0 -205 -41.668 -299 -125.001s-154.667 -181.666 -182 -294.999h795c4 28.667 6 56.667 6 84c0 100 -30.5 181 -91.5 243s-137.167 93 -228.5 93z" />
    <glyph glyph-name="Ecaron" unicode="&#x11a;" horiz-adv-x="1280" 
d="M217 61h901l-12 -61h-963l303 1434h943l-13 -62h-880l-127 -594h716l-12 -61h-717zM1233 1874l-268 -256h-62l-162 256h66l133 -209l221 209h72z" />
    <glyph glyph-name="ecaron" unicode="&#x11b;" horiz-adv-x="1126" 
d="M1018 461h-854c-1.33301 -10.667 -2 -27 -2 -49c0 -98 32 -184.333 96 -259s148 -112 252 -112c40.667 0 80.834 6.5 120.501 19.5s73.167 28.667 100.5 47s51.333 36.333 72 54s35.667 33.5 45 47.5l16 18l45 -43c-4 -5.33301 -10 -12.833 -18 -22.5
s-25.333 -26 -52 -49s-54.334 -43.333 -83.001 -61s-66 -34 -112 -49s-92 -22.5 -138 -22.5c-110.667 0 -205.667 40.833 -285 122.5s-119 180.5 -119 296.5c0 164 58.833 305.833 176.5 425.5s246.167 179.5 385.5 179.5c104 0 192.333 -37 265 -111s109 -167.667 109 -281
c0 -48 -4 -88 -12 -120zM657 942c-105.333 0 -205 -41.668 -299 -125.001s-154.667 -181.666 -182 -294.999h795c4 28.667 6 56.667 6 84c0 100 -30.5 181 -91.5 243s-137.167 93 -228.5 93zM995 1413l-268 -256h-61l-162 256h65l133 -209l222 209h71z" />
    <glyph glyph-name="Gbreve" unicode="&#x11e;" horiz-adv-x="1607" 
d="M1585 1147l-55.002 -37c-4 8 -10.5 18.167 -19.5 30.5s-29.5 34.833 -61.5 67.5s-66.5 61.334 -103.5 86.001s-86.167 47.334 -147.5 68.001s-125.333 31 -192 31c-204.667 0 -385.667 -77.5 -543 -232.5s-236 -341.833 -236 -560.5c0 -152.667 55 -284 165 -394
s243 -165 399 -165c66.667 0 131.667 9.5 195 28.5s116.166 41.833 158.499 68.5s80.333 53.667 114 81s57.834 50.666 72.501 69.999l25 28l69 328h-409l14 62h471l-88 -410c-6.66699 -8 -16.167 -19.167 -28.5 -33.5s-39.333 -40 -81 -77s-85 -69.167 -130 -96.5
s-103 -52.5 -174 -75.5s-142.833 -34.5 -215.5 -34.5c-169.333 0 -315 61 -437 183s-183 266.333 -183 433c0 155.333 40.333 299.666 121 432.999s185.834 237.5 315.501 312.5s266.834 112.5 411.501 112.5c72.667 0 142 -10.5 208 -31.5s120.167 -46.667 162.5 -77
s79.5 -60.5 111.5 -90.5s55.667 -55 71 -75zM1049 1690c124 0 200.334 64.667 229.001 194h61c-16.667 -78 -50.5 -140.167 -101.5 -186.5s-113.833 -69.5 -188.5 -69.5c-78 0 -138.5 24 -181.5 72s-56.5 109.333 -40.5 184h62c-13.333 -61.333 -5.33301 -109 24 -143
s74.666 -51 135.999 -51z" />
    <glyph glyph-name="gbreve" unicode="&#x11f;" horiz-adv-x="1187" 
d="M637 942c-125.333 0 -234.834 -53.5 -328.501 -160.5s-140.5 -226.167 -140.5 -357.5c0 -95.333 31.333 -176.166 94 -242.499s136.334 -99.5 221.001 -99.5c112 0 218.833 53.167 320.5 159.5s152.5 225.833 152.5 358.5c0 95.333 -31.667 176.166 -95 242.499
s-138 99.5 -224 99.5zM851.999 61l42.9951 206.998c-4 -6.66699 -9.83301 -15.5 -17.5 -26.5s-25.167 -30.833 -52.5 -59.5s-56 -53.834 -86 -75.501s-69.167 -41.5 -117.5 -59.5s-98.5 -27 -150.5 -27c-98 0 -183.333 39.667 -256 119s-109 173.666 -109 282.999
c0 158.667 56.333 295.334 169 410.001s235.334 172 368.001 172c52 0 99.5 -9.33301 142.5 -28s76.833 -40.667 101.5 -66s45.834 -50.833 63.501 -76.5s29.834 -48.167 36.501 -67.5l8 -27l54 244h61l-197 -922c-31.333 -142 -95.833 -259.333 -193.5 -352
s-208.5 -139 -332.5 -139c-48 0 -93.167 7.16699 -135.5 21.5s-76.666 31.333 -102.999 51s-49.5 39.5 -69.5 59.5s-34 37.333 -42 52l-14 21l49 41c2.66699 -5.33301 6.33398 -12.166 11.001 -20.499s16.167 -23.166 34.5 -44.499s38.5 -40.166 60.5 -56.499
s51.5 -31 88.5 -44s75.833 -19.5 116.5 -19.5c109.333 0 208.333 40.667 297 122s146 184 172 308zM710.994 1219c124 0 200.334 64.667 229.001 194h61c-16.667 -78 -50.5 -140.167 -101.5 -186.5s-113.833 -69.5 -188.5 -69.5c-78 0 -138.5 23.833 -181.5 71.5
s-56.5 109.167 -40.5 184.5h62c-13.333 -61.333 -5.33301 -109 24 -143s74.666 -51 135.999 -51z" />
    <glyph glyph-name="uni0122" unicode="&#x122;" horiz-adv-x="1607" 
d="M1585 1147l-55.002 -37c-4 8 -10.5 18.167 -19.5 30.5s-29.5 34.833 -61.5 67.5s-66.5 61.334 -103.5 86.001s-86.167 47.334 -147.5 68.001s-125.333 31 -192 31c-204.667 0 -385.667 -77.5 -543 -232.5s-236 -341.833 -236 -560.5c0 -152.667 55 -284 165 -394
s243 -165 399 -165c66.667 0 131.667 9.5 195 28.5s116.166 41.833 158.499 68.5s80.333 53.667 114 81s57.834 50.666 72.501 69.999l25 28l69 328h-409l14 62h471l-88 -410c-6.66699 -8 -16.167 -19.167 -28.5 -33.5s-39.333 -40 -81 -77s-85 -69.167 -130 -96.5
s-103 -52.5 -174 -75.5s-142.833 -34.5 -215.5 -34.5c-169.333 0 -315 61 -437 183s-183 266.333 -183 433c0 155.333 40.333 299.666 121 432.999s185.834 237.5 315.501 312.5s266.834 112.5 411.501 112.5c72.667 0 142 -10.5 208 -31.5s120.167 -46.667 162.5 -77
s79.5 -60.5 111.5 -90.5s55.667 -55 71 -75zM593.998 -430l143 266h76l-168 -266h-51z" />
    <glyph glyph-name="uni0123" unicode="&#x123;" horiz-adv-x="1187" 
d="M637 942c-125.333 0 -234.834 -53.5 -328.501 -160.5s-140.5 -226.167 -140.5 -357.5c0 -95.333 31.333 -176.166 94 -242.499s136.334 -99.5 221.001 -99.5c112 0 218.833 53.167 320.5 159.5s152.5 225.833 152.5 358.5c0 95.333 -31.667 176.166 -95 242.499
s-138 99.5 -224 99.5zM851.999 61l42.9951 206.998c-4 -6.66699 -9.83301 -15.5 -17.5 -26.5s-25.167 -30.833 -52.5 -59.5s-56 -53.834 -86 -75.501s-69.167 -41.5 -117.5 -59.5s-98.5 -27 -150.5 -27c-98 0 -183.333 39.667 -256 119s-109 173.666 -109 282.999
c0 158.667 56.333 295.334 169 410.001s235.334 172 368.001 172c52 0 99.5 -9.33301 142.5 -28s76.833 -40.667 101.5 -66s45.834 -50.833 63.501 -76.5s29.834 -48.167 36.501 -67.5l8 -27l54 244h61l-197 -922c-31.333 -142 -95.833 -259.333 -193.5 -352
s-208.5 -139 -332.5 -139c-48 0 -93.167 7.16699 -135.5 21.5s-76.666 31.333 -102.999 51s-49.5 39.5 -69.5 59.5s-34 37.333 -42 52l-14 21l49 41c2.66699 -5.33301 6.33398 -12.166 11.001 -20.499s16.167 -23.166 34.5 -44.499s38.5 -40.166 60.5 -56.499
s51.5 -31 88.5 -44s75.833 -19.5 116.5 -19.5c109.333 0 208.333 40.667 297 122s146 184 172 308zM904.994 1413l-145 -266h-76l168 266h53z" />
    <glyph glyph-name="Imacron" unicode="&#x12a;" horiz-adv-x="532" 
d="M143 0l303 1434h62l-303 -1434h-62zM807 1792l-12 -61h-533l12 61h533z" />
    <glyph glyph-name="imacron" unicode="&#x12b;" horiz-adv-x="450" 
d="M653 1321l-12 -61h-532l12 61h532zM362 983l-208 -983h-62l209 983h61z" />
    <glyph glyph-name="Iogonek" unicode="&#x12e;" horiz-adv-x="532" 
d="M143 0l303.001 1434h62l-303 -1434l-21 -16c-12 -10.667 -28 -25.667 -48 -45s-39.833 -40 -59.5 -62s-36.334 -46.333 -50.001 -73s-20.5 -50.667 -20.5 -72c0 -26 8.83301 -47.5 26.5 -64.5s42.167 -25.5 73.5 -25.5c22 0 44 3.33301 66 10s38.333 13.334 49 20.001
l19 11l-13 -52c-39.333 -27.333 -83 -41 -131 -41c-44 0 -78.833 12 -104.5 36s-38.5 54.333 -38.5 91c0 44 16.667 89.5 50 136.5s66.333 83.5 99 109.5l52 37h-11z" />
    <glyph glyph-name="iogonek" unicode="&#x12f;" horiz-adv-x="450" 
d="M92 0l209 982.999h61l-208 -983c-15.333 -10.667 -33.833 -25.667 -55.5 -45s-51 -52.833 -88 -100.5s-55.5 -88.5 -55.5 -122.5c0 -26 8.83301 -47.5 26.5 -64.5s42.167 -25.5 73.5 -25.5c22 0 44 3.33301 66 10s39 13.334 51 20.001l16 11l-12 -52
c-36.667 -27.333 -79 -41 -127 -41c-44 0 -79.5 12.667 -106.5 38s-40.5 57.333 -40.5 96c0 44 16.667 88.667 50 134s67 80.333 101 105l49 37h-10zM461 1348c0 -15.333 -6.16699 -28.833 -18.5 -40.5s-26.833 -17.5 -43.5 -17.5c-30 0 -45 15.667 -45 47
c0 16.667 6.16699 30.167 18.5 40.5s26.833 15.5 43.5 15.5c30 0 45 -15 45 -45z" />
    <glyph glyph-name="Idotaccent" unicode="&#x130;" horiz-adv-x="532" 
d="M143 0l303 1434h62l-303 -1434h-62zM596 1767c0 -15.333 -6.16699 -28.667 -18.5 -40s-26.5 -17 -42.5 -17c-30 0 -45.333 15.667 -46 47c0 16.667 6.16699 30 18.5 40s26.833 15 43.5 15c30 0 45 -15 45 -45z" />
    <glyph glyph-name="dotlessi" unicode="&#x131;" horiz-adv-x="450" 
d="M362 983l-208 -983h-62l209 983h61z" />
    <glyph glyph-name="uni0136" unicode="&#x136;" horiz-adv-x="1320" 
d="M309 496l1049 938h82l-658 -594l406 -840h-70l-385 799l-442 -389l-86 -410h-62l303 1434h62zM451 -430l143 266h76l-168 -266h-51z" />
    <glyph glyph-name="uni0137" unicode="&#x137;" horiz-adv-x="1013" 
d="M207 256l-53 -256h-62l303 1434h62l-232 -1092l719 641h84l-455 -399l297 -584h-65l-270 532h-13zM287 -430l143 266h76l-168 -266h-51z" />
    <glyph glyph-name="Lacute" unicode="&#x139;" horiz-adv-x="1126" 
d="M993 0h-850l303 1434h62l-291 -1373h789zM500 1628l202 256h78l-227 -256h-53z" />
    <glyph glyph-name="lacute" unicode="&#x13a;" horiz-adv-x="460" 
d="M457 1434l-303 -1434h-62l303 1434h62zM442 1628l203 256h78l-227 -256h-54z" />
    <glyph glyph-name="uni013B" unicode="&#x13b;" horiz-adv-x="1126" 
d="M993 0h-850l303 1434h62l-291 -1373h789zM397 -430l144 266h75l-167 -266h-52z" />
    <glyph glyph-name="uni013C" unicode="&#x13c;" horiz-adv-x="460" 
d="M457 1434l-303 -1434h-62l303 1434h62zM-82 -430l143 266h76l-168 -266h-51z" />
    <glyph glyph-name="Lcaron" unicode="&#x13d;" horiz-adv-x="1126" 
d="M993 0h-850l303 1434h62l-291 -1373h789zM717 1167l145 267h76l-168 -267h-53z" />
    <glyph glyph-name="lcaron" unicode="&#x13e;" horiz-adv-x="501" 
d="M457 1434l-303 -1434h-62l303 1434h62zM553 1167l145 267h76l-168 -267h-53z" />
    <glyph glyph-name="Lslash" unicode="&#x141;" horiz-adv-x="1198" 
d="M1065 0h-850l135 645l-264 -143l-20 51l301 164l151 717h62l-146 -686l381 204l21 -51l-416 -225l-131 -615h788z" />
    <glyph glyph-name="lslash" unicode="&#x142;" horiz-adv-x="665" 
d="M559 1434l-129 -615l301 164l19 -51l-334 -174l-160 -758h-61l151 717l-291 -164l-20 51l325 184l138 646h61z" />
    <glyph glyph-name="Nacute" unicode="&#x143;" horiz-adv-x="1576" 
d="M1491 1434h61l-303 -1434h-49l-715 1321l-280 -1321h-62l303 1434h50l714 -1321zM1001 1628l203 256h78l-227 -256h-54z" />
    <glyph glyph-name="nacute" unicode="&#x144;" 
d="M352 983l-44.998 -205.001c2.66699 5.33301 7.16699 13.166 13.5 23.499s20.666 28.5 42.999 54.5s47.166 48.833 74.499 68.5s63.833 37.834 109.5 54.501s94.5 25 146.5 25c94 0 172.5 -30.5 235.5 -91.5s94.5 -139.167 94.5 -234.5c0 -26 -3.33301 -57.333 -10 -94
l-123 -584h-62l123 584c5.33301 27.333 8.33301 56 9 86c0 82 -25.333 147.833 -76 197.5s-115.667 74.5 -195 74.5c-102.667 0 -194.167 -37.167 -274.5 -111.5s-132.833 -170.166 -157.5 -287.499l-115 -543h-61l209 983h61zM694.002 1157l203 256h78l-227 -256h-54z" />
    <glyph glyph-name="uni0145" unicode="&#x145;" horiz-adv-x="1576" 
d="M1491 1434h61l-303 -1434h-49l-715 1321l-280 -1321h-62l303 1434h50l714 -1321zM512 -430l143 266h76l-168 -266h-51z" />
    <glyph glyph-name="uni0146" unicode="&#x146;" 
d="M352 983l-44.998 -205.001c2.66699 5.33301 7.16699 13.166 13.5 23.499s20.666 28.5 42.999 54.5s47.166 48.833 74.499 68.5s63.833 37.834 109.5 54.501s94.5 25 146.5 25c94 0 172.5 -30.5 235.5 -91.5s94.5 -139.167 94.5 -234.5c0 -26 -3.33301 -57.333 -10 -94
l-123 -584h-62l123 584c5.33301 27.333 8.33301 56 9 86c0 82 -25.333 147.833 -76 197.5s-115.667 74.5 -195 74.5c-102.667 0 -194.167 -37.167 -274.5 -111.5s-132.833 -170.166 -157.5 -287.499l-115 -543h-61l209 983h61zM303.002 -430.001l143 266h76l-168 -266h-51z
" />
    <glyph glyph-name="Ncaron" unicode="&#x147;" horiz-adv-x="1576" 
d="M1491 1434h61l-303 -1434h-49l-715 1321l-280 -1321h-62l303 1434h50l714 -1321zM1337 1874l-268 -256h-61l-162 256h65l133 -209l222 209h71z" />
    <glyph glyph-name="ncaron" unicode="&#x148;" 
d="M352 983l-44.998 -205.001c2.66699 5.33301 7.16699 13.166 13.5 23.499s20.666 28.5 42.999 54.5s47.166 48.833 74.499 68.5s63.833 37.834 109.5 54.501s94.5 25 146.5 25c94 0 172.5 -30.5 235.5 -91.5s94.5 -139.167 94.5 -234.5c0 -26 -3.33301 -57.333 -10 -94
l-123 -584h-62l123 584c5.33301 27.333 8.33301 56 9 86c0 82 -25.333 147.833 -76 197.5s-115.667 74.5 -195 74.5c-102.667 0 -194.167 -37.167 -274.5 -111.5s-132.833 -170.166 -157.5 -287.499l-115 -543h-61l209 983h61zM1012 1413l-269 -256h-61l-162 256h66
l133 -209l221 209h72z" />
    <glyph glyph-name="Omacron" unicode="&#x14c;" horiz-adv-x="1679" 
d="M821 39c122.667 0 241.832 33.833 357.499 101.5s209.667 160.5 282 278.5s108.5 245.333 108.5 382c0 166.667 -56 307.334 -168 422.001s-253.333 172 -424 172c-124 0 -243.5 -33.833 -358.5 -101.5s-209 -160.5 -282 -278.5s-109.5 -245.333 -109.5 -382
c0 -166.667 56.333 -307.334 169 -422.001s254.334 -172 425.001 -172zM812.998 -20c-186 0 -340.667 62.667 -464 188s-185 279 -185 461c0 146 39.833 283.167 119.5 411.5s182.334 229.333 308.001 303s256.167 110.5 391.5 110.5c186 0 340.667 -62.833 464 -188.5
s185 -279.167 185 -460.5c0 -146 -39.833 -283.167 -119.5 -411.5s-182.334 -229.333 -308.001 -303s-256.167 -110.5 -391.5 -110.5zM1354 1792l-13 -61h-532l12 61h533z" />
    <glyph glyph-name="omacron" unicode="&#x14d;" horiz-adv-x="1187" 
d="M543 41c126.667 0 238.834 52.501 336.501 157.501s146.5 223.167 146.5 354.5c0 110.667 -35.833 203.167 -107.5 277.5s-161.5 111.5 -269.5 111.5c-122.667 0 -233.834 -50.833 -333.501 -152.5s-149.5 -222.167 -149.5 -361.5
c0 -110.667 35.833 -202.834 107.5 -276.501s161.5 -110.5 269.5 -110.5zM1087 553.001c0 -143.333 -55.168 -274.667 -165.501 -394s-240.833 -179 -391.5 -179c-121.333 0 -223 43 -305 129s-123 191.667 -123 317c0 155.333 57.833 290.5 173.5 405.5
s242.834 172.5 381.501 172.5c122.667 0 225 -43.5 307 -130.5s123 -193.833 123 -320.5zM1008 1321l-13 -61h-532l12 61h533z" />
    <glyph glyph-name="Ohungarumlaut" unicode="&#x150;" horiz-adv-x="1679" 
d="M821 39c122.667 0 241.832 33.833 357.499 101.5s209.667 160.5 282 278.5s108.5 245.333 108.5 382c0 166.667 -56 307.334 -168 422.001s-253.333 172 -424 172c-124 0 -243.5 -33.833 -358.5 -101.5s-209 -160.5 -282 -278.5s-109.5 -245.333 -109.5 -382
c0 -166.667 56.333 -307.334 169 -422.001s254.334 -172 425.001 -172zM812.998 -20c-186 0 -340.667 62.667 -464 188s-185 279 -185 461c0 146 39.833 283.167 119.5 411.5s182.334 229.333 308.001 303s256.167 110.5 391.5 110.5c186 0 340.667 -62.833 464 -188.5
s185 -279.167 185 -460.5c0 -146 -39.833 -283.167 -119.5 -411.5s-182.334 -229.333 -308.001 -303s-256.167 -110.5 -391.5 -110.5zM867.998 1618l203 256h78l-227 -256h-54zM1145 1618l203 256h77l-227 -256h-53z" />
    <glyph glyph-name="ohungarumlaut" unicode="&#x151;" horiz-adv-x="1187" 
d="M543 41c126.667 0 238.834 52.501 336.501 157.501s146.5 223.167 146.5 354.5c0 110.667 -35.833 203.167 -107.5 277.5s-161.5 111.5 -269.5 111.5c-122.667 0 -233.834 -50.833 -333.501 -152.5s-149.5 -222.167 -149.5 -361.5
c0 -110.667 35.833 -202.834 107.5 -276.501s161.5 -110.5 269.5 -110.5zM1087 553.001c0 -143.333 -55.168 -274.667 -165.501 -394s-240.833 -179 -391.5 -179c-121.333 0 -223 43 -305 129s-123 191.667 -123 317c0 155.333 57.833 290.5 173.5 405.5
s242.834 172.5 381.501 172.5c122.667 0 225 -43.5 307 -130.5s123 -193.833 123 -320.5zM521.999 1157l203 256h78l-228 -256h-53zM798.999 1157l202 256h78l-227 -256h-53z" />
    <glyph glyph-name="OE" unicode="&#x152;" horiz-adv-x="2007" 
d="M1057 61h787.999l-12 -61h-1014c-188.667 0 -345 58 -469 174s-186 256.667 -186 422c0 241.333 84.333 441.333 253 600s376.334 238 623.001 238h1076l-13 -62h-768l-127 -594h604l-12 -61h-604zM824.999 61h170l279 1311h-236c-230.667 0 -423.5 -72.333 -578.5 -217
s-232.5 -329.667 -232.5 -555c0 -151.333 56.333 -279 169 -383s255.667 -156 429 -156z" />
    <glyph glyph-name="oe" unicode="&#x153;" horiz-adv-x="1914" 
d="M1806 461l-798.001 0.00195312c-4 -26 -6.33301 -51.333 -7 -76c0 -98 30.833 -179.833 92.5 -245.5s136.834 -98.5 225.501 -98.5c40.667 0 80.167 6.5 118.5 19.5s70.166 28.333 95.499 46s47.5 35.334 66.5 53.001s33.167 32.834 42.5 45.501l13 20l45 -41
c-4 -5.33301 -9.5 -12.833 -16.5 -22.5s-22.833 -26 -47.5 -49s-50.5 -43.333 -77.5 -61s-62.833 -34 -107.5 -49s-90 -22.5 -136 -22.5c-56 0 -107.167 11.167 -153.5 33.5s-82.166 49.166 -107.499 80.499s-46.5 63.166 -63.5 95.499s-28.5 59.166 -34.5 80.499l-8 35
c-4 -8 -10.5 -19.5 -19.5 -34.5s-28.833 -41.333 -59.5 -79s-62.667 -70.834 -96 -99.501s-76.666 -54.5 -129.999 -77.5s-108 -34.5 -164 -34.5c-98 0 -185.333 42.167 -262 126.5s-115 183.166 -115 296.499c0 162.667 57.833 303.5 173.5 422.5
s240.167 178.5 373.5 178.5c56 0 107.167 -11.333 153.5 -34s82.166 -50 107.499 -82s46.5 -63.833 63.5 -95.5s28.5 -58.167 34.5 -79.5l10 -35c5.33301 8 12.5 19.5 21.5 34.5s29.167 41.333 60.5 79s63.333 70.834 96 99.501s74.667 54.667 126 78s103 35 155 35
c95.333 0 177.5 -37 246.5 -111s103.5 -167.667 103.5 -281c0 -48 -4 -88 -12 -120zM482.999 41.002c110.667 0 218.667 55.667 324 167s158 239.333 158 384c0 100 -31.833 183.333 -95.5 250s-138.5 100 -224.5 100c-116 0 -225.167 -53.167 -327.5 -159.5
s-153.5 -232.833 -153.5 -379.5c0 -100 32 -185.333 96 -256s138.333 -106 223 -106zM1473 942.002c-88.667 0 -180.168 -42.333 -274.501 -127s-153.166 -182.334 -176.499 -293.001h737c4 28.667 6 57.334 6 86.001c0 98 -28.167 178.167 -84.5 240.5
s-125.5 93.5 -207.5 93.5z" />
    <glyph glyph-name="Racute" unicode="&#x154;" horiz-adv-x="1341" 
d="M446 1434l492 -0.000976562c108 0 199.167 -35.167 273.5 -105.5s111.5 -153.5 111.5 -249.5c0 -117.333 -40 -216.166 -120 -296.499s-181.333 -132.833 -304 -157.5l227 -625h-67l-221 614h-504l-129 -614h-62zM934 1372l-438 -0.000976562l-148 -696h443
c128.667 0 239 36.833 331 110.5s138 169.834 138 288.501c0 82 -30.833 152 -92.5 210s-139.5 87 -233.5 87zM829 1628l203 256h78l-227 -256h-54z" />
    <glyph glyph-name="racute" unicode="&#x155;" horiz-adv-x="686" 
d="M741 942l-41 -0.000976562c-104 0 -197.5 -37.167 -280.5 -111.5s-136.833 -170.166 -161.5 -287.499l-115 -543h-61l209 983h61l-45 -205c4 5.33301 9.5 13.166 16.5 23.499s23.167 28.5 48.5 54.5s52.333 48.833 81 68.5s66.5 37.834 113.5 54.501s96.5 25 148.5 25h41
zM530 1157l203 256h78l-227 -256h-54z" />
    <glyph glyph-name="uni0156" unicode="&#x156;" horiz-adv-x="1341" 
d="M446 1434l492 -0.000976562c108 0 199.167 -35.167 273.5 -105.5s111.5 -153.5 111.5 -249.5c0 -117.333 -40 -216.166 -120 -296.499s-181.333 -132.833 -304 -157.5l227 -625h-67l-221 614h-504l-129 -614h-62zM934 1372l-438 -0.000976562l-148 -696h443
c128.667 0 239 36.833 331 110.5s138 169.834 138 288.501c0 82 -30.833 152 -92.5 210s-139.5 87 -233.5 87zM426 -430.002l143 266h76l-168 -266h-51z" />
    <glyph glyph-name="uni0157" unicode="&#x157;" horiz-adv-x="686" 
d="M741 942l-41 -0.000976562c-104 0 -197.5 -37.167 -280.5 -111.5s-136.833 -170.166 -161.5 -287.499l-115 -543h-61l209 983h61l-45 -205c4 5.33301 9.5 13.166 16.5 23.499s23.167 28.5 48.5 54.5s52.333 48.833 81 68.5s66.5 37.834 113.5 54.501s96.5 25 148.5 25h41
zM-98 -430.001l143 266h76l-168 -266h-51z" />
    <glyph glyph-name="Rcaron" unicode="&#x158;" horiz-adv-x="1341" 
d="M446 1434l492 -0.000976562c108 0 199.167 -35.167 273.5 -105.5s111.5 -153.5 111.5 -249.5c0 -117.333 -40 -216.166 -120 -296.499s-181.333 -132.833 -304 -157.5l227 -625h-67l-221 614h-504l-129 -614h-62zM934 1372l-438 -0.000976562l-148 -696h443
c128.667 0 239 36.833 331 110.5s138 169.834 138 288.501c0 82 -30.833 152 -92.5 210s-139.5 87 -233.5 87zM1171 1874l-268 -256h-61l-162 256h65l134 -209l221 209h71z" />
    <glyph glyph-name="rcaron" unicode="&#x159;" horiz-adv-x="686" 
d="M741 942l-41 -0.000976562c-104 0 -197.5 -37.167 -280.5 -111.5s-136.833 -170.166 -161.5 -287.499l-115 -543h-61l209 983h61l-45 -205c4 5.33301 9.5 13.166 16.5 23.499s23.167 28.5 48.5 54.5s52.333 48.833 81 68.5s66.5 37.834 113.5 54.501s96.5 25 148.5 25h41
zM838 1413l-269 -256h-61l-162 256h66l133 -209l221 209h72z" />
    <glyph glyph-name="Sacute" unicode="&#x15a;" horiz-adv-x="1126" 
d="M494 41c117.333 0 220.33 30.999 308.997 92.999s133 151 133 267c0 60 -23.167 112.333 -69.5 157s-102.666 81.334 -168.999 110.001s-132.666 58 -198.999 88s-122.666 69.167 -168.999 117.5s-69.5 106.166 -69.5 173.499c0 120 44.333 217.833 133 293.5
s209 113.5 361 113.5c48 0 94.833 -6.16699 140.5 -18.5s83.834 -26.666 114.501 -42.999s57.834 -33 81.501 -50s41.167 -31.833 52.5 -44.5l18 -18l-51 -43c-4 4 -9.16699 9.5 -15.5 16.5s-21 19.667 -44 38s-47.5 34.333 -73.5 48s-59.5 26 -100.5 37
s-83.167 16.5 -126.5 16.5c-132.667 0 -236.834 -31.167 -312.501 -93.5s-113.5 -143.833 -113.5 -244.5c0 -58.667 23.167 -109.834 69.5 -153.501s102.666 -79.5 168.999 -107.5s132.5 -57 198.5 -87s122.167 -70 168.5 -120s69.5 -109 69.5 -177
c0 -124 -46.667 -226.667 -140 -308s-216.666 -122 -369.999 -122c-56 0 -109.5 7.16699 -160.5 21.5s-92.833 31.333 -125.5 51s-61 39.334 -85 59.001s-41.333 37.167 -52 52.5l-17 20l53 45c2.66699 -5.33301 7.16699 -12 13.5 -20s21.166 -23 44.499 -45
s48.5 -41.167 75.5 -57.5s63.833 -31.333 110.5 -45s96 -20.5 148 -20.5zM738.997 1628l203 256h78l-227 -256h-54z" />
    <glyph glyph-name="sacute" unicode="&#x15b;" horiz-adv-x="880" 
d="M827 860l-53.001 -43.0029c-6.66699 9.33301 -16.834 20.833 -30.501 34.5s-42.667 32.167 -87 55.5s-91.166 35 -140.499 35c-76.667 0 -141.167 -22.167 -193.5 -66.5s-78.5 -95.166 -78.5 -152.499c0 -36.667 16.667 -68.667 50 -96s73.833 -50.666 121.5 -69.999
s95.167 -39.166 142.5 -59.499s87.666 -48 120.999 -83s50 -75.5 50 -121.5c0 -91.333 -35.5 -166.333 -106.5 -225s-161.833 -88 -272.5 -88c-39.333 0 -77.833 5.33301 -115.5 16s-69.167 24.167 -94.5 40.5s-47.5 32.833 -66.5 49.5s-32.5 30.334 -40.5 41.001l-15 16
l54 43c2.66699 -4 6.33398 -9 11.001 -15s15.834 -17.5 33.501 -34.5s36.834 -32 57.501 -45s47 -24.667 79 -35s65 -15.5 99 -15.5c91.333 0 166.5 22.833 225.5 68.5s88.5 105.5 88.5 179.5c0 38 -16.833 71.333 -50.5 100s-74.334 52.5 -122.001 71.5s-95 38.5 -142 58.5
s-87.333 46.667 -121 80s-50.5 72.666 -50.5 117.999c0 76.667 33.167 143.667 99.5 201s147.833 86 244.5 86c57.333 0 111.333 -12 162 -36s87 -47.667 109 -71zM523.999 1157l203 256h78l-227 -256h-54z" />
    <glyph glyph-name="Scedilla" unicode="&#x15e;" horiz-adv-x="1126" 
d="M494 41c117.333 0 220.329 31.001 308.996 93.001s133 151 133 267c0 60 -23.167 112.333 -69.5 157s-102.666 81.334 -168.999 110.001s-132.666 58 -198.999 88s-122.666 69.167 -168.999 117.5s-69.5 106.166 -69.5 173.499c0 120 44.333 217.833 133 293.5
s209 113.5 361 113.5c48 0 94.833 -6.16699 140.5 -18.5s83.834 -26.666 114.501 -42.999s57.834 -33 81.501 -50s41.167 -31.833 52.5 -44.5l18 -18l-51 -43c-4 4 -9.16699 9.5 -15.5 16.5s-21 19.667 -44 38s-47.5 34.333 -73.5 48s-59.5 26 -100.5 37
s-83.167 16.5 -126.5 16.5c-132.667 0 -236.834 -31.167 -312.501 -93.5s-113.5 -143.833 -113.5 -244.5c0 -58.667 23.167 -109.834 69.5 -153.501s102.666 -79.5 168.999 -107.5s132.5 -57 198.5 -87s122.167 -70 168.5 -120s69.5 -109 69.5 -177
c0 -124 -46.667 -226.667 -140 -308s-216.666 -122 -369.999 -122l-73 -101c1.33301 0 4.33301 0.666992 9 2s11.167 2.66602 19.5 3.99902s16.5 2 24.5 2c34 0 61.333 -11.167 82 -33.5s31 -50.5 31 -84.5c0 -48 -18.833 -89.833 -56.5 -125.5s-84.5 -53.5 -140.5 -53.5
c-24.667 0 -50 4.16699 -76 12.5s-45.667 16.5 -59 24.5l-19 15l39 41c30 -27.333 69 -41 117 -41c39.333 0 73 12.167 101 36.5s42 51.5 42 81.5c0 22 -7.16699 40.167 -21.5 54.5s-32.166 21.5 -53.499 21.5c-12 0 -24.333 -1.66699 -37 -5s-22.334 -7 -29.001 -11l-10 -4
l-31 41l86 125c-49.333 4 -96.166 13.833 -140.499 29.5s-80.833 33 -109.5 52s-53.5 37.667 -74.5 56s-36.5 33.833 -46.5 46.5l-14 18l53 45c2.66699 -5.33301 7.16699 -12 13.5 -20s21.166 -23 44.499 -45s48.5 -41.167 75.5 -57.5s63.833 -31.333 110.5 -45
s96 -20.5 148 -20.5z" />
    <glyph glyph-name="scedilla" unicode="&#x15f;" horiz-adv-x="880" 
d="M827 860l-53.001 -42.999c-6.66699 9.33301 -16.834 20.833 -30.501 34.5s-42.667 32.167 -87 55.5s-91.166 35 -140.499 35c-76.667 0 -141.167 -22.5 -193.5 -67.5s-78.5 -96.833 -78.5 -155.5c0 -36.667 16.667 -68.334 50 -95.001s73.833 -49.334 121.5 -68.001
s95.167 -37.834 142.5 -57.501s87.666 -46.5 120.999 -80.5s50 -74.333 50 -121c0 -91.333 -35.167 -166.666 -105.5 -225.999s-160.166 -89.666 -269.499 -90.999l-71 -101l8 2c5.33301 1.33301 12.166 2.66602 20.499 3.99902s16.5 2 24.5 2c34 0 61.333 -11.167 82 -33.5
s31 -50.5 31 -84.5c0 -48 -18.833 -89.833 -56.5 -125.5s-84.5 -53.5 -140.5 -53.5c-24.667 0 -50 4.16699 -76 12.5s-45 16.5 -57 24.5l-21 15l39 41c30 -27.333 69 -41 117 -41c39.333 0 73 12.167 101 36.5s42 51.5 42 81.5c0 22 -7.16699 40.167 -21.5 54.5
s-32.166 21.5 -53.499 21.5c-12 0 -24.333 -1.66699 -37 -5s-22.334 -7 -29.001 -11l-10 -4l-31 41l88 127c-54.667 5.33301 -105.5 21.333 -152.5 48s-80.833 51.334 -101.5 74.001l-31 37l54 43c2.66699 -4 6.33398 -9 11.001 -15s15.834 -17.5 33.501 -34.5
s36.834 -32 57.501 -45s47 -24.667 79 -35s65 -15.5 99 -15.5c90 0 164.833 23.5 224.5 70.5s89.5 107.5 89.5 181.5c0 38 -16.833 71 -50.5 99s-74.334 51.167 -122.001 69.5s-95 37.166 -142 56.499s-87.333 45.333 -121 78s-50.5 71.667 -50.5 117
c0 76.667 33.167 144.334 99.5 203.001s147.833 88 244.5 88c57.333 0 111.333 -12 162 -36s87 -47.667 109 -71z" />
    <glyph glyph-name="Scaron" unicode="&#x160;" horiz-adv-x="1126" 
d="M494 41c117.333 0 220.33 30.999 308.997 92.999s133 151 133 267c0 60 -23.167 112.333 -69.5 157s-102.666 81.334 -168.999 110.001s-132.666 58 -198.999 88s-122.666 69.167 -168.999 117.5s-69.5 106.166 -69.5 173.499c0 120 44.333 217.833 133 293.5
s209 113.5 361 113.5c48 0 94.833 -6.16699 140.5 -18.5s83.834 -26.666 114.501 -42.999s57.834 -33 81.501 -50s41.167 -31.833 52.5 -44.5l18 -18l-51 -43c-4 4 -9.16699 9.5 -15.5 16.5s-21 19.667 -44 38s-47.5 34.333 -73.5 48s-59.5 26 -100.5 37
s-83.167 16.5 -126.5 16.5c-132.667 0 -236.834 -31.167 -312.501 -93.5s-113.5 -143.833 -113.5 -244.5c0 -58.667 23.167 -109.834 69.5 -153.501s102.666 -79.5 168.999 -107.5s132.5 -57 198.5 -87s122.167 -70 168.5 -120s69.5 -109 69.5 -177
c0 -124 -46.667 -226.667 -140 -308s-216.666 -122 -369.999 -122c-56 0 -109.5 7.16699 -160.5 21.5s-92.833 31.333 -125.5 51s-61 39.334 -85 59.001s-41.333 37.167 -52 52.5l-17 20l53 45c2.66699 -5.33301 7.16699 -12 13.5 -20s21.166 -23 44.499 -45
s48.5 -41.167 75.5 -57.5s63.833 -31.333 110.5 -45s96 -20.5 148 -20.5zM1077 1874l-268 -256h-61l-162 256h65l133 -209l222 209h71z" />
    <glyph glyph-name="scaron" unicode="&#x161;" horiz-adv-x="880" 
d="M827 860l-53.001 -43.0029c-6.66699 9.33301 -16.834 20.833 -30.501 34.5s-42.667 32.167 -87 55.5s-91.166 35 -140.499 35c-76.667 0 -141.167 -22.167 -193.5 -66.5s-78.5 -95.166 -78.5 -152.499c0 -36.667 16.667 -68.667 50 -96s73.833 -50.666 121.5 -69.999
s95.167 -39.166 142.5 -59.499s87.666 -48 120.999 -83s50 -75.5 50 -121.5c0 -91.333 -35.5 -166.333 -106.5 -225s-161.833 -88 -272.5 -88c-39.333 0 -77.833 5.33301 -115.5 16s-69.167 24.167 -94.5 40.5s-47.5 32.833 -66.5 49.5s-32.5 30.334 -40.5 41.001l-15 16
l54 43c2.66699 -4 6.33398 -9 11.001 -15s15.834 -17.5 33.501 -34.5s36.834 -32 57.501 -45s47 -24.667 79 -35s65 -15.5 99 -15.5c91.333 0 166.5 22.833 225.5 68.5s88.5 105.5 88.5 179.5c0 38 -16.833 71.333 -50.5 100s-74.334 52.5 -122.001 71.5s-95 38.5 -142 58.5
s-87.333 46.667 -121 80s-50.5 72.666 -50.5 117.999c0 76.667 33.167 143.667 99.5 201s147.833 86 244.5 86c57.333 0 111.333 -12 162 -36s87 -47.667 109 -71zM853.999 1413l-268 -256h-62l-162 256h66l133 -209l221 209h72z" />
    <glyph glyph-name="uni0162" unicode="&#x162;" horiz-adv-x="1105" 
d="M252 1434h1024l-12 -62h-482l-290 -1372h-62l291 1372h-481zM248 -430l143 266h76l-168 -266h-51z" />
    <glyph glyph-name="uni0163" unicode="&#x163;" horiz-adv-x="686" 
d="M387 1055l55 255.999h62l-70 -328h225l-14 -61h-225l-146 -686c-13.333 -61.333 -9.16602 -109.166 12.501 -143.499s58.5 -51.5 110.5 -51.5c22 0 44.667 2.66699 68 8s41 11 53 17l19 6l-13 -62c-36.667 -20.667 -79 -30.667 -127 -30c-72.667 0 -126 22.5 -160 67.5
s-42 107.833 -24 188.5l145 686h-204l14 61h143c41.333 0 66.666 24 75.999 72zM137 -430.001l144 266h75l-168 -266h-51z" />
    <glyph glyph-name="Tcaron" unicode="&#x164;" horiz-adv-x="1105" 
d="M252 1434h1024l-12 -62h-482l-290 -1372h-62l291 1372h-481zM1090 1884l-269 -256h-61l-162 256h66l133 -209l221 209h72z" />
    <glyph glyph-name="tcaron" unicode="&#x165;" horiz-adv-x="706" 
d="M387 1055l55 255.999h62l-70 -328h225l-14 -61h-225l-146 -686c-13.333 -61.333 -9.16602 -109.166 12.501 -143.499s58.5 -51.5 110.5 -51.5c22 0 44.667 2.66699 68 8s41 11 53 17l19 6l-13 -62c-36.667 -20.667 -79 -30.667 -127 -30c-72.667 0 -126 22.5 -160 67.5
s-42 107.833 -24 188.5l145 686h-204l14 61h143c41.333 0 66.666 24 75.999 72zM758 1167l145 267h76l-168 -267h-53z" />
    <glyph glyph-name="Umacron" unicode="&#x16a;" horiz-adv-x="1536" 
d="M711 41c136.667 0 258.168 47.834 364.501 143.501s175.166 216.5 206.499 362.5l188 887h62l-189 -887c-34 -162.667 -110.333 -297.834 -229 -405.501s-253.667 -161.5 -405 -161.5c-136.667 0 -251.5 43 -344.5 129s-139.5 195 -139.5 327c0 34 4.33301 71 13 111
l188 887h61l-188 -887c-8 -36.667 -12 -71.667 -12 -105c0 -117.333 40.333 -213.5 121 -288.5s181.667 -112.5 303 -112.5zM1294 1792l-12 -61h-532l12 61h532z" />
    <glyph glyph-name="umacron" unicode="&#x16b;" 
d="M829 0l40.998 197c-2.66699 -5.33301 -7.33398 -13.166 -14.001 -23.499s-22 -27.833 -46 -52.5s-49.667 -46.5 -77 -65.5s-63.166 -36.333 -107.499 -52s-91.166 -23.5 -140.499 -23.5c-94 0 -172.333 30.333 -235 91s-94 138.667 -94 234
c0 35.333 3.33301 66.666 10 93.999l125 584h61l-125 -584c-6.66699 -34 -10 -62.667 -10 -86c0 -82 25.667 -147.833 77 -197.5s117.333 -74.5 198 -74.5c96.667 0 186.334 37.5 269.001 112.5s135.667 166.5 159 274.5l118 555h62l-209 -983h-62zM1010 1321l-13 -61h-532
l12 61h533z" />
    <glyph glyph-name="Uring" unicode="&#x16e;" horiz-adv-x="1536" 
d="M711 41c136.667 0 258.168 47.834 364.501 143.501s175.166 216.5 206.499 362.5l188 887h62l-189 -887c-34 -162.667 -110.333 -297.834 -229 -405.501s-253.667 -161.5 -405 -161.5c-136.667 0 -251.5 43 -344.5 129s-139.5 195 -139.5 327c0 34 4.33301 71 13 111
l188 887h61l-188 -887c-8 -36.667 -12 -71.667 -12 -105c0 -117.333 40.333 -213.5 121 -288.5s181.667 -112.5 303 -112.5zM1042 1917c-36.667 0 -71.002 -14.668 -103.002 -44.001s-48 -64.666 -48 -105.999c0 -32.667 11.167 -60.834 33.5 -84.501s51.5 -35.5 87.5 -35.5
c36.667 0 71.334 15.333 104.001 46s49 64.334 49 101.001c0 34 -11.667 63 -35 87s-52.666 36 -87.999 36zM1227 1802c0 -53.333 -22.834 -102.499 -68.501 -147.499s-96.5 -67.5 -152.5 -67.5c-49.333 0 -91.166 17.167 -125.499 51.5s-51.5 75.166 -51.5 122.499
c0 54.667 23 104.167 69 148.5s97 66.5 153 66.5c49.333 0 91 -17 125 -51s51 -75 51 -123z" />
    <glyph glyph-name="uring" unicode="&#x16f;" 
d="M829 0l40.998 197c-2.66699 -5.33301 -7.33398 -13.166 -14.001 -23.499s-22 -27.833 -46 -52.5s-49.667 -46.5 -77 -65.5s-63.166 -36.333 -107.499 -52s-91.166 -23.5 -140.499 -23.5c-94 0 -172.333 30.333 -235 91s-94 138.667 -94 234
c0 35.333 3.33301 66.666 10 93.999l125 584h61l-125 -584c-6.66699 -34 -10 -62.667 -10 -86c0 -82 25.667 -147.833 77 -197.5s117.333 -74.5 198 -74.5c96.667 0 186.334 37.5 269.001 112.5s135.667 166.5 159 274.5l118 555h62l-209 -983h-62zM749.998 1446
c-36.667 0 -71.168 -14.668 -103.501 -44.001s-48.5 -64.666 -48.5 -105.999c0 -32.667 11.333 -60.834 34 -84.501s51.667 -35.5 87 -35.5c36.667 0 71.334 15.333 104.001 46s49 64.334 49 101.001c0 34 -11.5 63 -34.5 87s-52.167 36 -87.5 36zM933.997 1331
c0 -53.333 -22.833 -102.499 -68.5 -147.499s-96.5 -67.5 -152.5 -67.5c-49.333 0 -91 17.167 -125 51.5s-51 75.166 -51 122.499c0 54.667 22.833 104.167 68.5 148.5s96.5 66.5 152.5 66.5c49.333 0 91 -17 125 -51s51 -75 51 -123z" />
    <glyph glyph-name="Uhungarumlaut" unicode="&#x170;" horiz-adv-x="1536" 
d="M711 41c136.667 0 258.168 47.834 364.501 143.501s175.166 216.5 206.499 362.5l188 887h62l-189 -887c-34 -162.667 -110.333 -297.834 -229 -405.501s-253.667 -161.5 -405 -161.5c-136.667 0 -251.5 43 -344.5 129s-139.5 195 -139.5 327c0 34 4.33301 71 13 111
l188 887h61l-188 -887c-8 -36.667 -12 -71.667 -12 -105c0 -117.333 40.333 -213.5 121 -288.5s181.667 -112.5 303 -112.5zM803.001 1628l203 256h77l-227 -256h-53zM1079 1628l203 256h78l-227 -256h-54z" />
    <glyph glyph-name="uhungarumlaut" unicode="&#x171;" 
d="M829 0l40.998 197c-2.66699 -5.33301 -7.33398 -13.166 -14.001 -23.499s-22 -27.833 -46 -52.5s-49.667 -46.5 -77 -65.5s-63.166 -36.333 -107.499 -52s-91.166 -23.5 -140.499 -23.5c-94 0 -172.333 30.333 -235 91s-94 138.667 -94 234
c0 35.333 3.33301 66.666 10 93.999l125 584h61l-125 -584c-6.66699 -34 -10 -62.667 -10 -86c0 -82 25.667 -147.833 77 -197.5s117.333 -74.5 198 -74.5c96.667 0 186.334 37.5 269.001 112.5s135.667 166.5 159 274.5l118 555h62l-209 -983h-62zM513.998 1157l203 256h78
l-228 -256h-53zM790.998 1157l202 256h78l-227 -256h-53z" />
    <glyph glyph-name="Uogonek" unicode="&#x172;" horiz-adv-x="1536" 
d="M711 41c136.667 0 258.168 47.833 364.501 143.5s175.166 216.5 206.499 362.5l188 887h62l-189 -887c-34 -160 -109 -293.5 -225 -400.5s-248.333 -162.5 -397 -166.5c-114.667 -96.667 -172 -179.334 -172 -248.001c0 -26 8.83301 -47.5 26.5 -64.5
s42.167 -25.5 73.5 -25.5c22 0 44 3.33301 66 10s39 13.334 51 20.001l16 11l-12 -52c-36.667 -27.333 -79 -41 -127 -41c-44 0 -79.5 12.667 -106.5 38s-40.5 57.333 -40.5 96c0 87.333 57.333 173.333 172 258c-126.667 8 -232.167 54.333 -316.5 139
s-126.5 189.667 -126.5 315c0 34 4.33301 71 13 111l188 887h61l-188 -887c-8 -36.667 -12 -71.667 -12 -105c0 -117.333 40.333 -213.5 121 -288.5s181.667 -112.5 303 -112.5z" />
    <glyph glyph-name="uogonek" unicode="&#x173;" 
d="M829 0l40.998 196.999c-2.66699 -5.33301 -7.33398 -13.166 -14.001 -23.499s-22 -27.833 -46 -52.5s-49.667 -46.5 -77 -65.5s-63.166 -36.333 -107.499 -52s-91.166 -23.5 -140.499 -23.5c-94 0 -172.333 30.333 -235 91s-94 138.667 -94 234
c0 35.333 3.33301 66.666 10 93.999l125 584h61l-125 -584c-6.66699 -34 -10 -62.667 -10 -86c0 -82 25.667 -147.833 77 -197.5s117.333 -74.5 198 -74.5c96.667 0 186.334 37.5 269.001 112.5s135.667 166.5 159 274.5l118 555h62l-209 -983h-10
c-15.333 -10.667 -33.833 -25.667 -55.5 -45s-51 -52.833 -88 -100.5s-55.5 -88.5 -55.5 -122.5c0 -26 8.83301 -47.5 26.5 -64.5s42.167 -25.5 73.5 -25.5c22 0 44 3.33301 66 10s38.333 13.334 49 20.001l18 11l-12 -52c-36.667 -27.333 -79 -41 -127 -41
c-44 0 -79.5 12.667 -106.5 38s-40.5 57.333 -40.5 96c0 44 16.667 88.667 50 134s66.333 80.333 99 105z" />
    <glyph glyph-name="Ydieresis" unicode="&#x178;" horiz-adv-x="1228" 
d="M319 1434l310 -861l674 861h75l-729 -932l-106 -502h-62l107 502l-336 932h67zM758 1767c0 -15.333 -6.16699 -28.667 -18.5 -40s-26.833 -17 -43.5 -17c-30 0 -45 15.667 -45 47c0 16.667 6.16699 30 18.5 40s26.833 15 43.5 15c30 0 45 -15 45 -45zM1085 1767
c0 -15.333 -6 -28.667 -18 -40s-26.333 -17 -43 -17c-30 0 -45 15.667 -45 47c0 16.667 6.16699 30 18.5 40s26.5 15 42.5 15c30 0 45 -15 45 -45z" />
    <glyph glyph-name="Zacute" unicode="&#x179;" horiz-adv-x="1157" 
d="M1174 1372h-863l13 62h942l-13 -62l-1171 -1311h913l-12 -61h-993l12 61zM766 1628l203 256h78l-228 -256h-53z" />
    <glyph glyph-name="zacute" unicode="&#x17a;" horiz-adv-x="880" 
d="M905 983l-14 -61l-842 -861h680l-12 -61h-758l12 61l842 861h-639l14 61h717zM518 1157l203 256h78l-228 -256h-53z" />
    <glyph glyph-name="Zdotaccent" unicode="&#x17b;" horiz-adv-x="1157" 
d="M1174 1372h-863l13 62h942l-13 -62l-1171 -1311h913l-12 -61h-993l12 61zM879 1767c0 -15.333 -6.16699 -28.667 -18.5 -40s-26.833 -17 -43.5 -17c-30 0 -45 15.667 -45 47c0 16.667 6.16699 30 18.5 40s26.833 15 43.5 15c30 0 45 -15 45 -45z" />
    <glyph glyph-name="zdotaccent" unicode="&#x17c;" horiz-adv-x="880" 
d="M905 983l-14 -61l-842 -861h680l-12 -61h-758l12 61l842 861h-639l14 61h717zM631 1286c0 -15.333 -6.16699 -28.667 -18.5 -40s-26.833 -17 -43.5 -17c-30 0 -45 15.667 -45 47c0 16.667 6.16699 30 18.5 40s26.833 15 43.5 15c30 0 45 -15 45 -45z" />
    <glyph glyph-name="Zcaron" unicode="&#x17d;" horiz-adv-x="1157" 
d="M1174 1372h-863l13 62h942l-13 -62l-1171 -1311h913l-12 -61h-993l12 61zM1108 1884l-268 -256h-62l-162 256h66l133 -209l221 209h72z" />
    <glyph glyph-name="zcaron" unicode="&#x17e;" horiz-adv-x="880" 
d="M905 983l-14 -61l-842 -861h680l-12 -61h-758l12 61l842 861h-639l14 61h717zM864 1413l-268 -256h-61l-162 256h65l133 -209l222 209h71z" />
    <glyph glyph-name="florin" unicode="&#x192;" horiz-adv-x="706" 
d="M449 717l-367.001 -901c-65.333 -164 -163.666 -246 -294.999 -246c-22 0 -43.5 2.66699 -64.5 8s-36.5 10.666 -46.5 15.999l-16 7l12 61c36.667 -20.667 79 -31 127 -31c98 0 171.667 61.667 221 185l367 901h-184l12 61h195l174 430c65.333 164 164.333 246 297 246
c22 0 43.5 -2.66699 64.5 -8s36.167 -10.666 45.5 -15.999l17 -7l-13 -61c-36.667 20.667 -79 31 -127 31c-100 0 -174.333 -61.667 -223 -185l-174 -430h256l-12 -61h-266z" />
    <glyph glyph-name="uni0218" unicode="&#x218;" horiz-adv-x="1126" 
d="M494 41c117.333 0 220.33 30.999 308.997 92.999s133 151 133 267c0 60 -23.167 112.333 -69.5 157s-102.666 81.334 -168.999 110.001s-132.666 58 -198.999 88s-122.666 69.167 -168.999 117.5s-69.5 106.166 -69.5 173.499c0 120 44.333 217.833 133 293.5
s209 113.5 361 113.5c48 0 94.833 -6.16699 140.5 -18.5s83.834 -26.666 114.501 -42.999s57.834 -33 81.501 -50s41.167 -31.833 52.5 -44.5l18 -18l-51 -43c-4 4 -9.16699 9.5 -15.5 16.5s-21 19.667 -44 38s-47.5 34.333 -73.5 48s-59.5 26 -100.5 37
s-83.167 16.5 -126.5 16.5c-132.667 0 -236.834 -31.167 -312.501 -93.5s-113.5 -143.833 -113.5 -244.5c0 -58.667 23.167 -109.834 69.5 -153.501s102.666 -79.5 168.999 -107.5s132.5 -57 198.5 -87s122.167 -70 168.5 -120s69.5 -109 69.5 -177
c0 -124 -46.667 -226.667 -140 -308s-216.666 -122 -369.999 -122c-56 0 -109.5 7.16699 -160.5 21.5s-92.833 31.333 -125.5 51s-61 39.334 -85 59.001s-41.333 37.167 -52 52.5l-17 20l53 45c2.66699 -5.33301 7.16699 -12 13.5 -20s21.166 -23 44.499 -45
s48.5 -41.167 75.5 -57.5s63.833 -31.333 110.5 -45s96 -20.5 148 -20.5zM318.997 -430.001l144 266h76l-168 -266h-52z" />
    <glyph glyph-name="uni0219" unicode="&#x219;" horiz-adv-x="880" 
d="M827 860l-53.001 -43.0029c-6.66699 9.33301 -16.834 20.833 -30.501 34.5s-42.667 32.167 -87 55.5s-91.166 35 -140.499 35c-76.667 0 -141.167 -22.167 -193.5 -66.5s-78.5 -95.166 -78.5 -152.499c0 -36.667 16.667 -68.667 50 -96s73.833 -50.666 121.5 -69.999
s95.167 -39.166 142.5 -59.499s87.666 -48 120.999 -83s50 -75.5 50 -121.5c0 -91.333 -35.5 -166.333 -106.5 -225s-161.833 -88 -272.5 -88c-39.333 0 -77.833 5.33301 -115.5 16s-69.167 24.167 -94.5 40.5s-47.5 32.833 -66.5 49.5s-32.5 30.334 -40.5 41.001l-15 16
l54 43c2.66699 -4 6.33398 -9 11.001 -15s15.834 -17.5 33.501 -34.5s36.834 -32 57.501 -45s47 -24.667 79 -35s65 -15.5 99 -15.5c91.333 0 166.5 22.833 225.5 68.5s88.5 105.5 88.5 179.5c0 38 -16.833 71.333 -50.5 100s-74.334 52.5 -122.001 71.5s-95 38.5 -142 58.5
s-87.333 46.667 -121 80s-50.5 72.666 -50.5 117.999c0 76.667 33.167 143.667 99.5 201s147.833 86 244.5 86c57.333 0 111.333 -12 162 -36s87 -47.667 109 -71zM146.999 -430.003l144 266h76l-168 -266h-52z" />
    <glyph glyph-name="uni021A" unicode="&#x21a;" horiz-adv-x="1105" 
d="M252 1434h1024l-12 -62h-482l-290 -1372h-62l291 1372h-481zM248 -430l143 266h76l-168 -266h-51z" />
    <glyph glyph-name="uni021B" unicode="&#x21b;" horiz-adv-x="686" 
d="M387 1055l55 255.999h62l-70 -328h225l-14 -61h-225l-146 -686c-13.333 -61.333 -9.16602 -109.166 12.501 -143.499s58.5 -51.5 110.5 -51.5c22 0 44.667 2.66699 68 8s41 11 53 17l19 6l-13 -62c-36.667 -20.667 -79 -30.667 -127 -30c-72.667 0 -126 22.5 -160 67.5
s-42 107.833 -24 188.5l145 686h-204l14 61h143c41.333 0 66.666 24 75.999 72zM137 -430.001l144 266h75l-168 -266h-51z" />
    <glyph glyph-name="uni02BC" unicode="&#x2bc;" horiz-adv-x="286" 
d="M215 1167l145 267h76l-168 -267h-53z" />
    <glyph glyph-name="circumflex" unicode="&#x2c6;" horiz-adv-x="614" 
d="M215 1157l268 256h62l162 -256h-66l-133 209l-221 -209h-72z" />
    <glyph glyph-name="caron" unicode="&#x2c7;" horiz-adv-x="614" 
d="M760 1413l-268 -256h-62l-162 256h66l133 -209l221 209h72z" />
    <glyph glyph-name="breve" unicode="&#x2d8;" horiz-adv-x="634" 
d="M489 1219c124 0 200.667 64.667 230 194h61c-16.667 -78 -50.5 -140.167 -101.5 -186.5s-114.167 -69.5 -189.5 -69.5c-78 0 -138.333 23.833 -181 71.5s-56 109.167 -40 184.5h62c-13.333 -61.333 -5.5 -109 23.5 -143s74.167 -51 135.5 -51z" />
    <glyph glyph-name="dotaccent" unicode="&#x2d9;" horiz-adv-x="225" 
d="M352 1317c0 -15.333 -6.16699 -28.667 -18.5 -40s-26.5 -17 -42.5 -17c-30 0 -45 15.667 -45 47c0 16.667 6.16699 30 18.5 40s26.5 15 42.5 15c30 0 45 -15 45 -45z" />
    <glyph glyph-name="ring" unicode="&#x2da;" horiz-adv-x="512" 
d="M438 1364c-36.667 0 -71.002 -14.668 -103.002 -44.001s-48 -64.666 -48 -105.999c0 -32.667 11.167 -60.834 33.5 -84.501s51.5 -35.5 87.5 -35.5c36.667 0 71.334 15.333 104.001 46s49 64.334 49 101.001c0 34 -11.667 63 -35 87s-52.666 36 -87.999 36zM622.998 1249
c0 -53.333 -22.999 -102.499 -68.999 -147.499s-97 -67.5 -153 -67.5c-49.333 0 -91 17.167 -125 51.5s-51 75.166 -51 122.499c0 54.667 22.833 104.167 68.5 148.5s96.5 66.5 152.5 66.5c49.333 0 91.166 -17 125.499 -51s51.5 -75 51.5 -123z" />
    <glyph glyph-name="ogonek" unicode="&#x2db;" horiz-adv-x="419" 
d="M113 0l50.999 -0.000976562c-15.333 -10.667 -33.833 -25.667 -55.5 -45s-51 -52.833 -88 -100.5s-55.5 -88.5 -55.5 -122.5c0 -26 8.83301 -47.5 26.5 -64.5s42.5 -25.5 74.5 -25.5c22 0 43.833 3.33301 65.5 10s37.834 13.334 48.501 20.001l19 11l-13 -52
c-36.667 -27.333 -79 -41 -127 -41c-44 0 -79.5 12.667 -106.5 38s-40.5 57.333 -40.5 96c0 44 16.667 88.667 50 134s66.333 80.333 99 105z" />
    <glyph glyph-name="tilde" unicode="&#x2dc;" horiz-adv-x="675" 
d="M393 1341c-27.333 0 -49.5 -10.834 -66.5 -32.501s-31.5 -61.834 -43.5 -120.501h-62c30 143.333 88.667 215 176 215c30 0 57 -7.83301 81 -23.5s42.5 -33.5 55.5 -53.5s29.333 -37.833 49 -53.5s41.167 -23.5 64.5 -23.5c27.333 0 49.5 11 66.5 33
s31.833 62.333 44.5 121h61c-30 -143.333 -88.667 -215 -176 -215c-30 0 -57 7.83301 -81 23.5s-42.5 33.334 -55.5 53.001s-29.333 37.334 -49 53.001s-41.167 23.5 -64.5 23.5z" />
    <glyph glyph-name="hungarumlaut" unicode="&#x2dd;" horiz-adv-x="624" 
d="M213 1157l203 256h78l-228 -256h-53zM489 1157l203 256h78l-227 -256h-54z" />
    <glyph glyph-name="uni0401" unicode="&#x401;" horiz-adv-x="1280" 
d="M217 61h901l-12 -61h-963l303 1434h943l-13 -62h-880l-127 -594h716l-12 -61h-717zM858 1767c0 -15.333 -6.16699 -28.667 -18.5 -40s-26.5 -17 -42.5 -17c-30 0 -45 15.667 -45 47c0 16.667 6 30 18 40s26.333 15 43 15c30 0 45 -15 45 -45zM1186 1767
c0 -15.333 -6.16699 -28.667 -18.5 -40s-26.833 -17 -43.5 -17c-30 0 -45 15.667 -45 47c0 16.667 6.16699 30 18.5 40s26.833 15 43.5 15c30 0 45 -15 45 -45z" />
    <glyph glyph-name="uni0402" unicode="&#x402;" horiz-adv-x="1443" 
d="M1305 543c0 -168 -51.665 -303.833 -154.998 -407.5s-236 -155.5 -398 -155.5l14 61c134 0 246.667 44.333 338 133s137 211 137 367c0 87.333 -28 157.166 -84 209.499s-131 78.5 -225 78.5c-69.333 0 -140.333 -13.5 -213 -40.5s-127.334 -54.167 -164.001 -81.5
l-55 -41l-142 -666h-61l291 1372h-389l12 62h840l-13 -62h-389l-133 -624c13.333 10.667 32.666 23.834 57.999 39.501s75 36.834 149 63.501s145.667 40 215 40c108 0 196.167 -32.333 264.5 -97s102.5 -148.334 102.5 -251.001z" />
    <glyph glyph-name="uni0403" unicode="&#x403;" horiz-adv-x="1116" 
d="M852 1628l203 256h78l-228 -256h-53zM143 0l303 1434h850l-12 -62h-788l-291 -1372h-62z" />
    <glyph glyph-name="uni0404" unicode="&#x404;" horiz-adv-x="1525" 
d="M164 606c0 143.333 37.499 279.83 112.499 409.497s178 235.167 309 316.5s273.167 122 426.5 122c72.667 0 142 -10.5 208 -31.5s120.167 -46.667 162.5 -77s79.5 -60.5 111.5 -90.5s55.667 -55 71 -75l20 -33l-55 -37c-4 8 -10.5 18.167 -19.5 30.5
s-29.5 34.833 -61.5 67.5s-66.5 61.334 -103.5 86.001s-85.833 47.334 -146.5 68.001s-124.334 31 -191.001 31c-178.667 0 -342.167 -60.5 -490.5 -181.5s-240.166 -272.167 -275.499 -453.5h819l-12 -62h-818c-2.66699 -38 -4 -66.667 -4 -86
c0 -154 55.333 -287.333 166 -400s243.334 -169 398.001 -169c66.667 0 131.667 9.83301 195 29.5s116.5 43.5 159.5 71.5s81.333 56.333 115 85s58.5 52.667 74.5 72l23 31l43 -43l-27.5 -33c-11.667 -14 -37.667 -38.667 -78 -74s-82.666 -66.666 -126.999 -93.999
s-101.333 -51.833 -171 -73.5s-140.834 -32.5 -213.501 -32.5c-168 0 -313.333 62.333 -436 187s-184 271 -184 439z" />
    <glyph glyph-name="uni0405" unicode="&#x405;" horiz-adv-x="1126" 
d="M494 41c117.333 0 220.33 30.999 308.997 92.999s133 151 133 267c0 60 -23.167 112.333 -69.5 157s-102.666 81.334 -168.999 110.001s-132.666 58 -198.999 88s-122.666 69.167 -168.999 117.5s-69.5 106.166 -69.5 173.499c0 120 44.333 217.833 133 293.5
s209 113.5 361 113.5c48 0 94.833 -6.16699 140.5 -18.5s83.834 -26.666 114.501 -42.999s57.834 -33 81.501 -50s41.167 -31.833 52.5 -44.5l18 -18l-51 -43c-4 4 -9.16699 9.5 -15.5 16.5s-21 19.667 -44 38s-47.5 34.333 -73.5 48s-59.5 26 -100.5 37
s-83.167 16.5 -126.5 16.5c-132.667 0 -236.834 -31.167 -312.501 -93.5s-113.5 -143.833 -113.5 -244.5c0 -58.667 23.167 -109.834 69.5 -153.501s102.666 -79.5 168.999 -107.5s132.5 -57 198.5 -87s122.167 -70 168.5 -120s69.5 -109 69.5 -177
c0 -124 -46.667 -226.667 -140 -308s-216.666 -122 -369.999 -122c-56 0 -109.5 7.16699 -160.5 21.5s-92.833 31.333 -125.5 51s-61 39.334 -85 59.001s-41.333 37.167 -52 52.5l-17 20l53 45c2.66699 -5.33301 7.16699 -12 13.5 -20s21.166 -23 44.499 -45
s48.5 -41.167 75.5 -57.5s63.833 -31.333 110.5 -45s96 -20.5 148 -20.5z" />
    <glyph glyph-name="uni0406" unicode="&#x406;" horiz-adv-x="532" 
d="M143 0l303 1434h62l-303 -1434h-62z" />
    <glyph glyph-name="uni0407" unicode="&#x407;" horiz-adv-x="532" 
d="M143 0l303 1434h62l-303 -1434h-62zM426 1767c0 -15.333 -6.16699 -28.667 -18.5 -40s-26.5 -17 -42.5 -17c-30 0 -45.333 15.667 -46 47c0 16.667 6.16699 30 18.5 40s26.833 15 43.5 15c30 0 45 -15 45 -45zM754 1767c0 -15.333 -6.16699 -28.667 -18.5 -40
s-26.833 -17 -43.5 -17c-30 0 -45 15.667 -45 47c0 16.667 6.16699 30 18.5 40s26.833 15 43.5 15c30 0 45 -15 45 -45z" />
    <glyph glyph-name="uni0408" unicode="&#x408;" horiz-adv-x="983" 
d="M918 1434h60.998l-217 -1024c-27.333 -125.333 -83.666 -228.333 -168.999 -309s-184 -121 -296 -121c-66.667 0 -128.334 12.833 -185.001 38.5s-96.667 50.834 -120 75.501l-37 39l55 45c2.66699 -4 6.5 -9 11.5 -15s16.333 -17 34 -33s36.667 -30 57 -42
s47 -22.833 80 -32.5s67.833 -14.5 104.5 -14.5c96.667 0 182.334 34.167 257.001 102.5s123.334 157.166 146.001 266.499z" />
    <glyph glyph-name="uni0409" unicode="&#x409;" horiz-adv-x="2181" 
d="M1552 0l-497 -0.00195312l291 1372h-687l-77 -368c-44 -207.333 -89.5 -381.166 -136.5 -521.499s-95.167 -245.666 -144.5 -315.999s-96.166 -119 -140.499 -146s-93.166 -40.5 -146.499 -40.5c-18 0 -35.833 1.66699 -53.5 5s-30.5 7 -38.5 11l-14 4l12 61
c31.333 -13.333 64 -20 98 -20c32.667 0 64.167 6.83301 94.5 20.5s63.166 41.334 98.499 83.001s69.333 97 102 166s67.167 162.167 103.5 279.5s70.833 255.333 103.5 414l90 430h809l-121 -574h363c113.333 0 209.166 -36.833 287.499 -110.5s117.5 -159.5 117.5 -257.5
c0 -144.667 -48.167 -262.834 -144.5 -354.501s-219.5 -137.5 -369.5 -137.5zM1128 60.998h426c131.333 0 239 39 323 117s126 180.333 126 307c0 86 -32.833 159.833 -98.5 221.5s-148.167 92.5 -247.5 92.5h-373z" />
    <glyph glyph-name="uni040A" unicode="&#x40a;" horiz-adv-x="2160" 
d="M1108 61h426c131.333 0 238.833 39 322.5 117s125.5 180.333 125.5 307c0 86 -32.667 159.833 -98 221.5s-148 92.5 -248 92.5h-372zM1532 0l-498 0.000976562l168 799h-829l-168 -799h-62l303 1434h62l-121 -574h830l120 574h62l-121 -574h362
c113.333 0 209.333 -36.833 288 -110.5s118 -159.5 118 -257.5c0 -144.667 -48.167 -262.834 -144.5 -354.501s-219.5 -137.5 -369.5 -137.5z" />
    <glyph glyph-name="uni040B" unicode="&#x40b;" horiz-adv-x="1484" 
d="M1137 0l95.999 460.998c6.66699 36.667 10 66.667 10 90c0 86 -28.333 153.833 -85 203.5s-133.334 74.5 -230.001 74.5c-69.333 0 -140 -13.5 -212 -40.5s-126.333 -54.167 -163 -81.5l-53 -41l-142 -666h-61l291 1372h-389l12 62h840l-13 -62h-389l-133 -624
c13.333 10.667 32.333 23.834 57 39.501s73.834 36.834 147.501 63.501s145.5 40 215.5 40c110.667 0 199.834 -30.333 267.501 -91s101.5 -141 101.5 -241c0 -27.333 -3.66699 -60 -11 -98l-96 -461h-61z" />
    <glyph glyph-name="uni040C" unicode="&#x40c;" horiz-adv-x="1320" 
d="M309 496l1049 938h82l-658 -594l406 -840h-70l-385 799l-442 -389l-86 -410h-62l303 1434h62zM862 1628l203 256h78l-228 -256h-53z" />
    <glyph glyph-name="uni040E" unicode="&#x40e;" horiz-adv-x="1208" 
d="M825 1690c124 0 200.667 64.667 230 194h61c-16.667 -78 -50.5 -140.167 -101.5 -186.5s-114.167 -69.5 -189.5 -69.5c-78 0 -138.333 24 -181 72s-56 109.333 -40 184h62c-13.333 -61.333 -5.5 -109 23.5 -143s74.167 -51 135.5 -51zM639 473l664 961h65l-799 -1158
c-70.667 -101.333 -137.834 -176 -201.501 -224s-132.167 -72 -205.5 -72c-18 0 -36.167 1.66699 -54.5 5s-32.166 7 -41.499 11l-15 4l12 61c23.333 -13.333 55.666 -20 96.999 -20c122.667 0 237.334 78.333 344.001 235l94 140l-336 1018h57z" />
    <glyph glyph-name="uni040F" unicode="&#x40f;" horiz-adv-x="1515" 
d="M1491 1434l-303 -1434h-492l-65 -307h-62l66 307h-492l303 1434h62l-291 -1373h922l291 1373h61z" />
    <glyph glyph-name="uni0410" unicode="&#x410;" horiz-adv-x="1372" 
d="M1061 502l-176 860l-541 -860h717zM1067 440h-758l-276 -440h-64l897 1434h62l291 -1434h-60z" />
    <glyph glyph-name="uni0411" unicode="&#x411;" horiz-adv-x="1300" 
d="M496 1372l-113 -531.998h414c105.333 0 195.833 -37.333 271.5 -112s113.5 -160.334 113.5 -257.001c0 -128.667 -49.833 -239.334 -149.5 -332.001s-218.5 -139 -356.5 -139h-533l303 1434h830l-12 -62h-768zM217 61.002h461.001c120 0 223.667 40 311 120
s131 175.333 131 286c0 83.333 -31.333 156 -94 218s-140.334 93 -233.001 93h-424z" />
    <glyph glyph-name="uni0412" unicode="&#x412;" horiz-adv-x="1341" 
d="M981 766l-1.99902 -10.0029c5.33301 -1.33301 13.166 -4.16602 23.499 -8.49902s28.166 -14.666 53.499 -30.999s47.833 -34.666 67.5 -54.999s37.334 -49 53.001 -86s23.5 -77.167 23.5 -120.5c0 -140.667 -44.333 -251.667 -133 -333s-204 -122 -346 -122h-578
l303 1434h484c95.333 0 175.833 -29.833 241.5 -89.5s98.5 -131.167 98.5 -214.5c0 -162.667 -69.667 -275 -209 -337c-40 -18 -66.667 -27 -80 -27zM217.001 60.9971l506.001 0.000976562c124 0 224 34.167 300 102.5s114 164.166 114 287.499
c0 78 -26.333 143.5 -79 196.5s-125.334 79.5 -218.001 79.5h-482zM928.002 1372l-432.001 0.000976562l-125 -584h450c114.667 0 207.834 30.5 279.501 91.5s107.5 143.167 107.5 246.5c0 69.333 -26.167 127.666 -78.5 174.999s-119.5 71 -201.5 71z" />
    <glyph glyph-name="uni0413" unicode="&#x413;" horiz-adv-x="1116" 
d="M143 0l303 1434h850l-12 -62h-788l-291 -1372h-62z" />
    <glyph glyph-name="uni0414" unicode="&#x414;" horiz-adv-x="1423" 
d="M-80 61l81.999 0.000976562c8 5.33301 19.5 14.666 34.5 27.999s43.333 45.833 85 97.5s81 110 118 175s77.333 154.833 121 269.5s79.834 239 108.501 373l90 430h819l-291 -1373h185l-78 -368h-61l65 307h-1229l-63 -307h-62zM529.999 1004
c-27.333 -130 -61.668 -251.332 -103.001 -363.999s-81.166 -202.834 -119.499 -270.501s-75 -126 -110 -175s-62.5 -83.833 -82.5 -104.5l-33 -29h944l279 1311h-697z" />
    <glyph glyph-name="uni0415" unicode="&#x415;" horiz-adv-x="1280" 
d="M217 61h901l-12 -61h-963l303 1434h943l-13 -62h-880l-127 -594h716l-12 -61h-717z" />
    <glyph glyph-name="uni0416" unicode="&#x416;" horiz-adv-x="1904" 
d="M1319 801l-318 -279l-110 -522h-62l111 522l-195 271l-716 -793h-80l762 840l-408 594h70l581 -840l179 840h61l-174 -826l919 826h84l-657 -594l406 -840h-68z" />
    <glyph glyph-name="uni0417" unicode="&#x417;" horiz-adv-x="1126" 
d="M743 754c6.66699 -2.66699 15.499 -6.16992 26.499 -10.5029s30.833 -15 59.5 -32s54.334 -36.333 77.001 -58s42.834 -51.667 60.501 -90s26.5 -80.166 26.5 -125.499c0 -126.667 -49.5 -234.667 -148.5 -324s-225.5 -134 -379.5 -134c-57.333 0 -112 7.16699 -164 21.5
s-94.333 31.333 -127 51s-61.334 39.334 -86.001 59.001s-42.334 37.167 -53.001 52.5l-17 20l54 43c2.66699 -5.33301 7.33398 -12 14.001 -20s21.667 -22.667 45 -44s49 -40.166 77 -56.499s65.167 -31.333 111.5 -45s95.5 -20.5 147.5 -20.5
c134 0 244.333 37.833 331 113.5s130 166.834 130 273.501c0 82 -31.5 152.333 -94.5 211s-148.167 88 -255.5 88h-158l12 61h172c128.667 0 232.5 31.833 311.5 95.5s118.5 143.167 118.5 238.5c0 72.667 -31 136 -93 190s-142.333 81 -241 81
c-44 0 -86.667 -5.83301 -128 -17.5s-76 -26 -104 -43s-53 -34.167 -75 -51.5s-38.333 -32 -49 -44l-14 -16l-41 49c4 5.33301 10 12.166 18 20.499s25.333 23 52 44s55 39.667 85 56s68.667 31 116 44s95.666 19.5 144.999 19.5c110.667 0 203.834 -33.167 279.501 -99.5
s113.5 -141.833 113.5 -226.5c0 -164 -80.667 -278 -242 -342c-53.333 -21.333 -91 -32 -113 -32z" />
    <glyph glyph-name="uni0418" unicode="&#x418;" horiz-adv-x="1576" 
d="M446 1434h62l-281 -1321l1272 1321h53l-303 -1434h-61l280 1321l-1271 -1321h-54z" />
    <glyph glyph-name="uni0419" unicode="&#x419;" horiz-adv-x="1576" 
d="M1036 1690c124 0 200.667 64.667 230 194h61c-16.667 -78 -50.5 -140.167 -101.5 -186.5s-114.167 -69.5 -189.5 -69.5c-78 0 -138.333 24 -181 72s-56 109.333 -40 184h62c-13.333 -61.333 -5.5 -109 23.5 -143s74.167 -51 135.5 -51zM446 1434h62l-281 -1321l1272 1321
h53l-303 -1434h-61l280 1321l-1271 -1321h-54z" />
    <glyph glyph-name="uni041A" unicode="&#x41a;" horiz-adv-x="1320" 
d="M309 496l1049 938h82l-658 -594l406 -840h-70l-385 799l-442 -389l-86 -410h-62l303 1434h62z" />
    <glyph glyph-name="uni041B" unicode="&#x41b;" horiz-adv-x="1495" 
d="M1470 1434l-303.001 -1434h-61l291 1372h-738l-77 -368c-35.333 -168 -72.5 -313.5 -111.5 -436.5s-76.333 -221.667 -112 -296s-73.334 -133.666 -113.001 -177.999s-77.167 -74.333 -112.5 -90s-73.666 -23.5 -114.999 -23.5c-18 0 -36 1.66699 -54 5s-32 7 -42 11
l-14 4l12 61c28.667 -13.333 60 -20 94 -20c42 0 82.333 12.333 121 37s79.834 69.334 123.501 134.001s87.667 163.667 132 297s87.5 298.333 129.5 495l90 430h860z" />
    <glyph glyph-name="uni041C" unicode="&#x41c;" horiz-adv-x="1863" 
d="M494 1434l456 -891l834 891h55l-303 -1434h-61l280 1321l-823 -883l-447 883l-280 -1321h-62l303 1434h48z" />
    <glyph glyph-name="uni041D" unicode="&#x41d;" horiz-adv-x="1515" 
d="M143 0l303 1434h62l-143 -676h921l144 676h61l-303 -1434h-62l148 696h-922l-147 -696h-62z" />
    <glyph glyph-name="uni041E" unicode="&#x41e;" horiz-adv-x="1679" 
d="M821 39c122.667 0 241.832 33.833 357.499 101.5s209.667 160.5 282 278.5s108.5 245.333 108.5 382c0 166.667 -56 307.334 -168 422.001s-253.333 172 -424 172c-124 0 -243.5 -33.833 -358.5 -101.5s-209 -160.5 -282 -278.5s-109.5 -245.333 -109.5 -382
c0 -166.667 56.333 -307.334 169 -422.001s254.334 -172 425.001 -172zM812.998 -20c-186 0 -340.667 62.667 -464 188s-185 279 -185 461c0 146 39.833 283.167 119.5 411.5s182.334 229.333 308.001 303s256.167 110.5 391.5 110.5c186 0 340.667 -62.833 464 -188.5
s185 -279.167 185 -460.5c0 -146 -39.833 -283.167 -119.5 -411.5s-182.334 -229.333 -308.001 -303s-256.167 -110.5 -391.5 -110.5z" />
    <glyph glyph-name="uni041F" unicode="&#x41f;" horiz-adv-x="1515" 
d="M1491 1434l-303 -1434h-62l291 1372h-921l-291 -1372h-62l303 1434h1045z" />
    <glyph glyph-name="uni0420" unicode="&#x420;" horiz-adv-x="1300" 
d="M446 1434h461.001c113.333 0 208.666 -36.167 285.999 -108.5s116 -158.5 116 -258.5c0 -143.333 -49.833 -261.5 -149.5 -354.5s-224.167 -139.5 -373.5 -139.5h-460l-121 -573h-62zM903.001 1372l-407 -0.000976562l-158 -737h453c131.333 0 239.833 40.333 325.5 121
s128.5 184.334 128.5 311.001c0 86 -32 158.333 -96 217s-146 88 -246 88z" />
    <glyph glyph-name="uni0421" unicode="&#x421;" horiz-adv-x="1525" 
d="M164 606c0 143.333 37.5 279.829 112.5 409.496s178 235.167 309 316.5s273.167 122 426.5 122c72.667 0 142 -10.5 208 -31.5s120.167 -46.667 162.5 -77s79.5 -60.5 111.5 -90.5s55.667 -55 71 -75l20 -33l-55 -37c-4 8 -10.5 18.167 -19.5 30.5
s-29.5 34.833 -61.5 67.5s-66.5 61.334 -103.5 86.001s-85.833 47.334 -146.5 68.001s-124.334 31 -191.001 31c-204.667 0 -386 -76.167 -544 -228.5s-237 -337.166 -237 -554.499c0 -154 55.333 -287.333 166 -400s243.334 -169 398.001 -169
c66.667 0 131.667 9.83301 195 29.5s116.5 43.5 159.5 71.5s81.333 56.333 115 85s58.5 52.667 74.5 72l23 31l43 -43l-27.5 -33c-11.667 -14 -37.667 -38.667 -78 -74s-82.666 -66.666 -126.999 -93.999s-101.333 -51.833 -171 -73.5s-140.834 -32.5 -213.501 -32.5
c-168 0 -313.333 62.333 -436 187s-184 271 -184 439z" />
    <glyph glyph-name="uni0422" unicode="&#x422;" horiz-adv-x="1105" 
d="M252 1434h1024l-12 -62h-482l-290 -1372h-62l291 1372h-481z" />
    <glyph glyph-name="uni0423" unicode="&#x423;" horiz-adv-x="1208" 
d="M639 473l664 961h65l-799 -1158c-70.667 -101.333 -137.834 -176 -201.501 -224s-132.167 -72 -205.5 -72c-18 0 -36.167 1.66699 -54.5 5s-32.166 7 -41.499 11l-15 4l12 61c23.333 -13.333 55.666 -20 96.999 -20c122.667 0 237.334 78.333 344.001 235l94 140
l-336 1018h57z" />
    <glyph glyph-name="uni0424" unicode="&#x424;" horiz-adv-x="1720" 
d="M782 213l222 1047c-224 -5.33301 -407.667 -66.5 -551 -183.5s-215 -256.167 -215 -417.5c0 -122.667 47.667 -226.334 143 -311.001s229 -129.667 401 -135zM829 154.001l-41 -195h-61l41 195c-184 4 -329 54.5 -435 151.5s-159 214.167 -159 351.5
c0 177.333 80.167 331 240.5 461s361.5 197.667 603.5 203l33 154h61l-33 -154c184 -5.33301 329 -56.833 435 -154.5s159 -214.834 159 -351.501c0 -178.667 -79.833 -332.167 -239.5 -460.5s-361.167 -195.166 -604.5 -200.499zM1065 1260l-221 -1047
c224 6.66699 407.667 68 551 184s215 254.667 215 416c0 121.333 -47.833 224.833 -143.5 310.5s-229.5 131.167 -401.5 136.5z" />
    <glyph glyph-name="uni0425" unicode="&#x425;" horiz-adv-x="1228" 
d="M1272 1434h76l-650 -697l377 -737h-67l-346 686l-637 -686h-76l688 737l-354 697h67l324 -646z" />
    <glyph glyph-name="uni0426" unicode="&#x426;" horiz-adv-x="1525" 
d="M143 0l303 1434h62l-291 -1373h901l291 1373h61l-290 -1373h184l-78 -368h-61l65 307h-1147z" />
    <glyph glyph-name="uni0427" unicode="&#x427;" horiz-adv-x="1423" 
d="M487 1434l-90.001 -430c-8 -36.667 -12 -71 -12 -103c0 -98 32.833 -175.333 98.5 -232s153.834 -85 264.501 -85c76.667 0 152 14.667 226 44s129 58.333 165 87l55 43l143 676h62l-303 -1434h-62l144 676c-13.333 -10.667 -32.5 -24.667 -57.5 -42
s-75.667 -40.333 -152 -69s-152.833 -43 -229.5 -43c-124 0 -224.167 33.833 -300.5 101.5s-114.5 158.167 -114.5 271.5c0 34 4 70.333 12 109l90 430h61z" />
    <glyph glyph-name="uni0428" unicode="&#x428;" horiz-adv-x="2048" 
d="M143 0l303 1434h62l-291 -1373h696l291 1373h62l-291 -1373h696l291 1373h61l-303 -1434h-1577z" />
    <glyph glyph-name="uni0429" unicode="&#x429;" horiz-adv-x="2078" 
d="M143 0l303 1434h62l-291 -1373h696l291 1373h62l-291 -1373h696l291 1373h61l-290 -1373h184l-78 -368h-61l65 307h-1700z" />
    <glyph glyph-name="uni042A" unicode="&#x42a;" horiz-adv-x="1402" 
d="M770 0h-504l291 1372h-358l12 62h420l-121 -574h377c112 0 206.833 -37.167 284.5 -111.5s116.5 -161.5 116.5 -261.5c0 -144.667 -48.833 -262 -146.5 -352s-221.5 -135 -371.5 -135zM340 61h431.998c132.667 0 241.334 39 326.001 117s127 180.333 127 307
c0 86 -32.167 159.833 -96.5 221.5s-146.166 92.5 -245.499 92.5h-387z" />
    <glyph glyph-name="uni042B" unicode="&#x42b;" horiz-adv-x="1761" 
d="M647 0h-504l303 1434h62l-121 -574h377c112 0 206.833 -37.167 284.5 -111.5s116.5 -161.5 116.5 -261.5c0 -144.667 -48.833 -262 -146.5 -352s-221.5 -135 -371.5 -135zM1434 0h-62l303 1434h62zM217 61h431.998c132.667 0 241.334 39 326.001 117s127 180.333 127 307
c0 86 -32.167 159.833 -96.5 221.5s-146.166 92.5 -245.499 92.5h-387z" />
    <glyph glyph-name="uni042C" unicode="&#x42c;" horiz-adv-x="1300" 
d="M668 0h-525l303 1434h62l-121 -574h397c112 0 207 -37.167 285 -111.5s117 -161.5 117 -261.5c0 -144.667 -48.833 -262 -146.5 -352s-221.5 -135 -371.5 -135zM217 61h453c132.667 0 241.167 39 325.5 117s126.5 180.333 126.5 307c0 86 -32 159.833 -96 221.5
s-146 92.5 -246 92.5h-407z" />
    <glyph glyph-name="uni042D" unicode="&#x42d;" horiz-adv-x="1505" 
d="M612 41c188.667 0 356.33 62.833 502.997 188.5s237 281.167 271 466.5h-819l13 62h815c2.66699 32.667 4 57 4 73c0 154 -54.667 286.167 -164 396.5s-241 165.5 -395 165.5c-66.667 0 -132.167 -10 -196.5 -30s-118 -44 -161 -72s-81.667 -56 -116 -84
s-59.5 -52 -75.5 -72l-25 -29l-43 41c6.66699 8 15.834 18.833 27.501 32.5s37.667 38.334 78 74.001s82.666 67.167 126.999 94.5s101.333 51.833 171 73.5s140.834 32.5 213.501 32.5c168 0 313 -61.833 435 -185.5s183 -269.5 183 -437.5
c0 -154 -40.667 -297.167 -122 -429.5s-187.166 -235.666 -317.499 -309.999s-267.166 -111.5 -410.499 -111.5c-72.667 0 -142 10.5 -208 31.5s-119.833 46.5 -161.5 76.5s-78.5 60 -110.5 90s-55 55.333 -69 76l-20 33l55 37c4 -8 10.5 -18.333 19.5 -31
s29.167 -35.334 60.5 -68.001s65.166 -61.334 101.499 -86.001s84.833 -47.167 145.5 -67.5s124.334 -30.5 191.001 -30.5z" />
    <glyph glyph-name="uni042E" unicode="&#x42e;" horiz-adv-x="2109" 
d="M1253 -20l-4 0.000976562c-155.333 0 -289.666 60 -402.999 180s-170 263.333 -170 430c0 35.333 2 70.666 6 105.999h-330l-147 -696h-62l303 1434h62l-143 -676h327c38 200.667 133.833 366.834 287.5 498.501s322.167 197.5 505.5 197.5
c155.333 0 290.666 -60.333 405.999 -181s173 -264.334 173 -431.001c0 -120 -23.5 -234.333 -70.5 -343s-108.667 -200.5 -185 -275.5s-163.5 -134.333 -261.5 -178s-196 -65.5 -294 -65.5zM1481 1393c-135.333 0 -260.333 -37.667 -375 -113s-204.5 -174 -269.5 -296
s-97.5 -252 -97.5 -390c0 -152.667 51.333 -283 154 -391s225 -162 367 -162c190 0 361 77.5 513 232.5s228 344.5 228 568.5c0 152.667 -51.167 282.667 -153.5 390s-224.5 161 -366.5 161z" />
    <glyph glyph-name="uni042F" unicode="&#x42f;" horiz-adv-x="1341" 
d="M764 1434h553.002l-303 -1434h-62l129 614h-495l-480 -614h-75l489 625c-6.66699 2.66699 -15.834 6 -27.501 10s-32.167 14.833 -61.5 32.5s-54.833 38.167 -76.5 61.5s-41.834 55.5 -60.501 96.5s-28 85.167 -28 132.5c0 140.667 46.5 255.167 139.5 343.5
s212.5 132.5 358.5 132.5zM1243 1372h-481.001c-125.333 0 -228.666 -37.5 -309.999 -112.5s-122 -173.167 -122 -294.5c0 -83.333 26.167 -152.333 78.5 -207s125.833 -82 220.5 -82h467z" />
    <glyph glyph-name="uni0430" unicode="&#x430;" horiz-adv-x="1208" 
d="M1014 729l55 254.002h61l-208 -983h-62l49 238c-4 -6.66699 -10 -15.834 -18 -27.501s-26 -32.667 -54 -63s-57.5 -56.666 -88.5 -78.999s-71.333 -42.666 -121 -60.999s-100.5 -27.5 -152.5 -27.5c-100 0 -187.167 41.167 -261.5 123.5s-111.5 180.166 -111.5 293.499
c0 162.667 58.833 304.5 176.5 425.5s242.5 181.5 374.5 181.5c52 0 99.833 -9.66699 143.5 -29s78.5 -42.333 104.5 -69s47.833 -53.334 65.5 -80.001s30.167 -49.334 37.5 -68.001zM651 942.002c-116 0 -226.167 -54 -330.5 -162s-156.5 -235 -156.5 -381
c0 -100 31.667 -184.667 95 -254s137.333 -104 222 -104c118.667 0 230.667 55.333 336 166s158 239 158 385c0 101.333 -31.5 185 -94.5 251s-139.5 99 -229.5 99z" />
    <glyph glyph-name="uni0431" unicode="&#x431;" horiz-adv-x="1157" 
d="M1051 553c0 -142 -54 -273.003 -162 -393.003s-235.667 -180 -383 -180c-106.667 0 -196.5 38.5 -269.5 115.5s-109.5 183.167 -109.5 318.5c0 60 6.66699 123.333 20 190c52 243.333 136.333 427.333 253 552s251.667 200 405 226c72.667 12 138.334 27.333 197.001 46
s98.667 34.334 120 47.001l35 20l19 -51c-84.667 -54.667 -208.334 -95.667 -371.001 -123c-139.333 -23.333 -261.166 -90.666 -365.499 -201.999s-180.5 -272.666 -228.5 -483.999c4 8 10.167 19.167 18.5 33.5s27.166 40 56.499 77s60.666 69.167 93.999 96.5
s77.333 52.5 132 75.5s111.334 34.5 170.001 34.5c98 0 184 -39.5 258 -118.5s111 -172.5 111 -280.5zM201 470.997c-6.66699 -31.333 -10.3311 -60.667 -10.998 -88c0 -94 31.5 -174.5 94.5 -241.5s138.833 -100.5 227.5 -100.5c117.333 0 226.166 50.167 326.499 150.5
s150.5 220.833 150.5 361.5c0 92.667 -30.667 172.167 -92 238.5s-134.333 99.5 -219 99.5c-100 0 -198.333 -41 -295 -123s-157.334 -181 -182.001 -297z" />
    <glyph glyph-name="uni0432" unicode="&#x432;" horiz-adv-x="1044" 
d="M291 983l399.001 0.000976562c72.667 0 132.167 -20.5 178.5 -61.5s69.5 -91.5 69.5 -151.5c0 -118.667 -52 -200 -156 -244c-20.667 -8 -33.667 -12 -39 -12c4 -1.33301 9.16699 -3 15.5 -5s17.333 -8.5 33 -19.5s29.667 -23 42 -36s23.666 -31.833 33.999 -56.5
s15.5 -51.334 15.5 -80.001c0 -96.667 -31.5 -173.667 -94.5 -231s-144.833 -86 -245.5 -86h-461zM629.001 481.001h-385l-88 -420h391c83.333 0 149.833 22.667 199.5 68s74.5 107.333 74.5 186c0 49.333 -16 89.333 -48 120s-80 46 -144 46zM612.001 543.001
c74 0 136.667 19.332 188 57.999s77 93.667 77 165c0 46.667 -17.5 84.334 -52.5 113.001s-81.833 43 -140.5 43h-346l-80 -379h354z" />
    <glyph glyph-name="uni0433" unicode="&#x433;" horiz-adv-x="901" 
d="M258 813l-35.001 46.998c9.33301 10.667 23 24 41 40s55.333 37.333 112 64s113.667 40 171 40c75.333 0 138.833 -21.667 190.5 -65s77.5 -94.333 77.5 -153c0 -70.667 -23.5 -127.5 -70.5 -170.5s-104 -74 -171 -93s-133.667 -37.5 -200 -55.5s-123 -45.667 -170 -83
s-70.5 -87.666 -70.5 -150.999c0 -54.667 21.167 -100.334 63.5 -137.001s100.5 -55 174.5 -55c54.667 0 108.5 12.333 161.5 37s92.5 49.334 118.5 74.001l39 38l35 -47c-4 -4 -9.83301 -9.66699 -17.5 -17s-23.667 -20.666 -48 -39.999s-49.833 -36.166 -76.5 -50.499
s-60.167 -27.166 -100.5 -38.499s-80.5 -17 -120.5 -17c-87.333 0 -157.5 23.167 -210.5 69.5s-79.5 104.166 -79.5 173.499c0 76.667 23.5 138.5 70.5 185.5s103.667 80.5 170 100.5s132.833 38.5 199.5 55.5s123.667 42.167 171 75.5s71 78.666 71 135.999
c0 46.667 -19.167 86 -57.5 118s-88.166 48 -149.499 48c-49.333 0 -97.833 -10.833 -145.5 -32.5s-83.167 -43.5 -106.5 -65.5z" />
    <glyph glyph-name="uni0434" unicode="&#x434;" horiz-adv-x="1189" 
d="M522 1567c376.667 -162.667 565.001 -415.336 565.001 -758.003c0 -125.333 -18.333 -241.666 -55 -348.999s-84.334 -195.166 -143.001 -263.499s-123.5 -121.5 -194.5 -159.5s-142.167 -57 -213.5 -57c-104 0 -193.167 39.5 -267.5 118.5s-111.5 173.167 -111.5 282.5
c0 148.667 58.167 281 174.5 397s239.833 174 370.5 174c58.667 0 111.167 -10.833 157.5 -32.5s81.833 -48.5 106.5 -80.5s45.167 -63.833 61.5 -95.5s26.833 -58.167 31.5 -79.5l8 -33c9.33301 56 14 113.333 14 172c0 174.667 -48.833 321.334 -146.5 440.001
s-230.5 209.667 -398.5 273zM952.001 458.998c6.66699 34 10.332 64.667 10.999 92c0 94 -32.167 174.167 -96.5 240.5s-139.5 99.5 -225.5 99.5c-113.333 0 -221.166 -51.5 -323.499 -154.5s-153.5 -220.833 -153.5 -353.5c0 -94 31.667 -174.5 95 -241.5
s140 -100.5 230 -100.5c104 0 201 40.333 291 121s147.333 179.667 172 297z" />
    <glyph glyph-name="uni0435" unicode="&#x435;" horiz-adv-x="1126" 
d="M1018 461h-854c-1.33301 -10.667 -2 -27 -2 -49c0 -98 32 -184.333 96 -259s148 -112 252 -112c40.667 0 80.834 6.5 120.501 19.5s73.167 28.667 100.5 47s51.333 36.333 72 54s35.667 33.5 45 47.5l16 18l45 -43c-4 -5.33301 -10 -12.833 -18 -22.5
s-25.333 -26 -52 -49s-54.334 -43.333 -83.001 -61s-66 -34 -112 -49s-92 -22.5 -138 -22.5c-110.667 0 -205.667 40.833 -285 122.5s-119 180.5 -119 296.5c0 164 58.833 305.833 176.5 425.5s246.167 179.5 385.5 179.5c104 0 192.333 -37 265 -111s109 -167.667 109 -281
c0 -48 -4 -88 -12 -120zM657 942c-105.333 0 -205 -41.668 -299 -125.001s-154.667 -181.666 -182 -294.999h795c4 28.667 6 56.667 6 84c0 100 -30.5 181 -91.5 243s-137.167 93 -228.5 93z" />
    <glyph glyph-name="uni0436" unicode="&#x436;" horiz-adv-x="1454" 
d="M725 328l-70 -328h-61l70 328l-152 204h-4l-494 -532h-75l542 584l-282 399h67l412 -582l125 582h61l-123 -569l643 569h84l-454 -399l297 -584h-68l-268 532h-12z" />
    <glyph glyph-name="uni0437" unicode="&#x437;" horiz-adv-x="880" 
d="M776 774c0 -64 -22.832 -118.829 -68.499 -164.496s-101.834 -78.834 -168.501 -99.501l18 -6c8 -2.66699 22.333 -9.83398 43 -21.501s38.5 -25 53.5 -40s29 -35.5 42 -61.5s19.5 -54.667 19.5 -86c0 -88.667 -34.167 -163.334 -102.5 -224.001
s-161.166 -91 -278.499 -91c-42 0 -82.167 6 -120.5 18s-69.833 26.333 -94.5 43s-46.5 33.5 -65.5 50.5s-32.833 31.5 -41.5 43.5l-12 19l55 43c2.66699 -4 6.5 -9.5 11.5 -16.5s16.333 -19.667 34 -38s36.667 -34.333 57 -48s47 -26 80 -37s67.833 -16.5 104.5 -16.5
c98 0 174 24.167 228 72.5s81 108.166 81 179.499c0 52 -21.5 96.333 -64.5 133s-102.5 55 -178.5 55h-103l14 62h99c82 0 152 22.833 210 68.5s87 100.5 87 164.5c0 46.667 -20.167 86 -60.5 118s-93.166 48 -158.499 48c-52 0 -102 -10.833 -150 -32.5
s-82.667 -43.5 -104 -65.5l-33 -31l-37 47c9.33301 10.667 22.666 24 39.999 40s54.666 37.333 111.999 64s116 40 176 40c78 0 143.5 -23.333 196.5 -70s79.5 -100 79.5 -160z" />
    <glyph glyph-name="uni0438" unicode="&#x438;" 
d="M829 0l40.998 197c-2.66699 -5.33301 -7.33398 -13.166 -14.001 -23.499s-22 -27.833 -46 -52.5s-49.667 -46.5 -77 -65.5s-63.166 -36.333 -107.499 -52s-91.166 -23.5 -140.499 -23.5c-94 0 -172.333 30.333 -235 91s-94 138.667 -94 234
c0 35.333 3.33301 66.666 10 93.999l125 584h61l-125 -584c-6.66699 -34 -10 -62.667 -10 -86c0 -82 25.667 -147.833 77 -197.5s117.333 -74.5 198 -74.5c96.667 0 186.334 37.5 269.001 112.5s135.667 166.5 159 274.5l118 555h62l-209 -983h-62z" />
    <glyph glyph-name="uni0439" unicode="&#x439;" 
d="M727 1219c124 0 200.334 64.667 229.001 194h62c-16.667 -78 -50.5 -140.167 -101.5 -186.5s-114.167 -69.5 -189.5 -69.5c-78 0 -138.5 23.833 -181.5 71.5s-56.167 109.167 -39.5 184.5h61c-13.333 -61.333 -5.33301 -109 24 -143s74.666 -51 135.999 -51zM829.001 0
l40.998 197c-2.66699 -5.33301 -7.33398 -13.166 -14.001 -23.499s-22 -27.833 -46 -52.5s-49.667 -46.5 -77 -65.5s-63.166 -36.333 -107.499 -52s-91.166 -23.5 -140.499 -23.5c-94 0 -172.333 30.333 -235 91s-94 138.667 -94 234c0 35.333 3.33301 66.666 10 93.999
l125 584h61l-125 -584c-6.66699 -34 -10 -62.667 -10 -86c0 -82 25.667 -147.833 77 -197.5s117.333 -74.5 198 -74.5c96.667 0 186.334 37.5 269.001 112.5s135.667 166.5 159 274.5l118 555h62l-209 -983h-62z" />
    <glyph glyph-name="uni043A" unicode="&#x43a;" horiz-adv-x="1003" 
d="M197 256l-54 -256h-61l209 983h61l-137 -641l719 641h84l-455 -399l297 -584h-65l-271 532h-12z" />
    <glyph glyph-name="uni043B" unicode="&#x43b;" horiz-adv-x="1136" 
d="M393 983l666.001 0.00195312l-209 -983h-62l195 922h-543l-47 -226c-31.333 -146 -63.333 -267.833 -96 -365.5s-66.5 -171 -101.5 -220s-68.167 -83 -99.5 -102s-66.666 -28.5 -105.999 -28.5c-15.333 0 -30.833 1.66699 -46.5 5s-26.834 7 -33.501 11l-12 4l12 59
c24.667 -12 50.667 -18 78 -18c31.333 0 59.666 8.16699 84.999 24.5s53 46.666 83 90.999s59.667 111.666 89 201.999s58.333 202.833 87 337.5z" />
    <glyph glyph-name="uni043C" unicode="&#x43c;" horiz-adv-x="1331" 
d="M625 297l-297 573l-185 -870h-61l209 983h45l305 -584l555 584h57l-209 -983h-61l184 870z" />
    <glyph glyph-name="uni043D" unicode="&#x43d;" horiz-adv-x="1167" 
d="M819 0l99 471h-676l-99 -471h-61l209 983h61l-96 -451h676l96 451h62l-209 -983h-62z" />
    <glyph glyph-name="uni043E" unicode="&#x43e;" horiz-adv-x="1187" 
d="M543 41c126.667 0 238.834 52.501 336.501 157.501s146.5 223.167 146.5 354.5c0 110.667 -35.833 203.167 -107.5 277.5s-161.5 111.5 -269.5 111.5c-122.667 0 -233.834 -50.833 -333.501 -152.5s-149.5 -222.167 -149.5 -361.5
c0 -110.667 35.833 -202.834 107.5 -276.501s161.5 -110.5 269.5 -110.5zM1087 553.001c0 -143.333 -55.168 -274.667 -165.501 -394s-240.833 -179 -391.5 -179c-121.333 0 -223 43 -305 129s-123 191.667 -123 317c0 155.333 57.833 290.5 173.5 405.5
s242.834 172.5 381.501 172.5c122.667 0 225 -43.5 307 -130.5s123 -193.833 123 -320.5z" />
    <glyph glyph-name="uni043F" unicode="&#x43f;" 
d="M352 983l-44.998 -205.001c2.66699 5.33301 7.16699 13.166 13.5 23.499s20.666 28.5 42.999 54.5s47.166 48.833 74.499 68.5s63.833 37.834 109.5 54.501s94.5 25 146.5 25c94 0 172.5 -30.5 235.5 -91.5s94.5 -139.167 94.5 -234.5c0 -26 -3.33301 -57.333 -10 -94
l-123 -584h-62l123 584c5.33301 27.333 8.33301 56 9 86c0 82 -25.333 147.833 -76 197.5s-115.667 74.5 -195 74.5c-102.667 0 -194.167 -37.167 -274.5 -111.5s-132.833 -170.166 -157.5 -287.499l-115 -543h-61l209 983h61z" />
    <glyph glyph-name="uni0440" unicode="&#x440;" horiz-adv-x="1208" 
d="M197 254l-146.002 -684.001h-61l301 1413h61l-51 -238c4 6.66699 10.167 16 18.5 28s26.5 33 54.5 63s57.667 56.167 89 78.5s71.833 42.833 121.5 61.5s100.5 28 152.5 28c100 0 187.167 -41.333 261.5 -124s111.5 -180.667 111.5 -294
c0 -162.667 -58.667 -304.334 -176 -425.001s-242.333 -181 -375 -181c-52 0 -100.167 9.5 -144.5 28.5s-79.166 41.833 -104.499 68.5s-47.166 53.334 -65.499 80.001s-30.833 49.334 -37.5 68.001zM560.998 40.999c116 0 226.334 54 331.001 162s157 235 157 381
c0 100 -31.833 184.667 -95.5 254s-137.834 104 -222.501 104c-118.667 0 -230.5 -55.333 -335.5 -166s-157.5 -239 -157.5 -385c0 -101.333 31.333 -185 94 -251s139 -99 229 -99z" />
    <glyph glyph-name="uni0441" unicode="&#x441;" horiz-adv-x="1064" 
d="M676 942c-136.667 0 -256.168 -54.999 -358.501 -164.999s-153.5 -235.333 -153.5 -376c0 -102.667 33.833 -188.334 101.5 -257.001s150.5 -103 248.5 -103c64 0 125.333 15.667 184 47s101.667 62 129 92l39 47l43 -43c-4 -5.33301 -10 -12.833 -18 -22.5
s-25.333 -26 -52 -49s-54.667 -43.333 -84 -61s-66.666 -34 -111.999 -49s-91 -22.5 -137 -22.5c-110.667 0 -205.667 40.833 -285 122.5s-119 180.5 -119 296.5c0 165.333 59.833 307.5 179.5 426.5s253.834 178.5 402.501 178.5c46.667 0 90.5 -7.16699 131.5 -21.5
s74.333 -31.5 100 -51.5s48.5 -39.833 68.5 -59.5s34 -37.167 42 -52.5l12 -20l-53 -37c-2.66699 5.33301 -6.33398 11.833 -11.001 19.5s-16.667 22 -36 43s-39.5 39.333 -60.5 55s-50 30 -87 43s-75.167 19.5 -114.5 19.5z" />
    <glyph glyph-name="uni0442" unicode="&#x442;" horiz-adv-x="1781" 
d="M1434 0l122.002 584.003c6.66699 38 10.334 70.667 11.001 98c0 80.667 -22.833 144.167 -68.5 190.5s-106.167 69.5 -181.5 69.5c-84.667 0 -162.834 -34.5 -234.501 -103.5s-119.834 -160.833 -144.501 -275.5l-119 -563h-61l123 584c6.66699 38 10 70.667 10 98
c0 80.667 -22.833 144.167 -68.5 190.5s-106.167 69.5 -181.5 69.5c-86 0 -164.833 -35.5 -236.5 -106.5s-119.834 -164.5 -144.501 -280.5l-117 -555h-61l209 983h61l-39 -176c2.66699 5.33301 6.83398 12.5 12.501 21.5s18.667 24.667 39 47s42.5 42.166 66.5 59.499
s55.5 33.166 94.5 47.499s80.167 21.5 123.5 21.5c49.333 0 93.5 -8.66699 132.5 -26s68.333 -37.833 88 -61.5s35.667 -47.5 48 -71.5s20.5 -45 24.5 -63l4 -24c2.66699 6.66699 7.16699 15.5 13.5 26.5s20.666 30.5 42.999 58.5s46.5 52.833 72.5 74.5
s61.5 41.5 106.5 59.5s92.167 27 141.5 27c88.667 0 162 -28.833 220 -86.5s87 -134.167 87 -229.5c0 -32.667 -4 -67.334 -12 -104.001l-123 -584h-61z" />
    <glyph glyph-name="uni0443" unicode="&#x443;" horiz-adv-x="962" 
d="M219 -205l128.999 209.001l-190 979h59l176 -901l561 901h64l-735 -1188c-49.333 -80.667 -95.833 -138.334 -139.5 -173.001s-95.5 -52 -155.5 -52c-15.333 0 -30.166 1.66699 -44.499 5s-24.166 7 -29.499 11l-10 4l10 62c16.667 -13.333 42 -20.333 76 -21
c87.333 0 163.666 54.667 228.999 164z" />
    <glyph glyph-name="uni0444" unicode="&#x444;" horiz-adv-x="1413" 
d="M481 -430l86 409.999c-138 0 -248.167 40.833 -330.5 122.5s-123.5 182.834 -123.5 303.501c0 166.667 66.167 308 198.5 424s290.5 174 474.5 174l91 430h61l-90 -430c138 0 248.333 -41.333 331 -124s124 -185 124 -307c0 -166.667 -66.667 -307.167 -200 -421.5
s-291.333 -171.5 -474 -171.5l-86 -410h-62zM643 40.999c157.333 2.66699 296.333 53.499 417 152.499s181 225.5 181 379.5c0 106.667 -36.5 194.834 -109.5 264.501s-172.167 104.5 -297.5 104.5zM772 941.998c-157.333 -2.66699 -296.333 -53.5 -417 -152.5
s-181 -226.167 -181 -381.5c0 -105.333 36.5 -192.833 109.5 -262.5s172.5 -104.5 298.5 -104.5z" />
    <glyph glyph-name="uni0445" unicode="&#x445;" horiz-adv-x="921" 
d="M498 512l270 -512h-68l-241 461l-434 -461h-76l487 512l-248 471h68l217 -420l397 420h76z" />
    <glyph glyph-name="uni0446" unicode="&#x446;" horiz-adv-x="1187" 
d="M981 -10c-50.667 0 -88.332 17.999 -112.999 53.999s-31.334 79.333 -20.001 130l6 27c-2.66699 -5.33301 -7.16699 -13.166 -13.5 -23.499s-20.333 -28.166 -42 -53.499s-45.5 -47.833 -71.5 -67.5s-60.5 -37.334 -103.5 -53.001s-89.167 -23.5 -138.5 -23.5
c-95.333 0 -174.333 30 -237 90s-94 137 -94 231c0 24.667 3.33301 54 10 88l127 594h61l-127 -594c-5.33301 -26 -8 -52.667 -8 -80c0 -80.667 25 -145.5 75 -194.5s115 -73.5 195 -73.5c94 0 180.333 37.5 259 112.5s129.667 167.167 153 276.5l119 553h61l-172 -809
c-12 -82 13.333 -123 76 -123l74 10l-66 -307h-59z" />
    <glyph glyph-name="uni0447" unicode="&#x447;" horiz-adv-x="1095" 
d="M748 0l92.0029 440c-9.33301 -6.66699 -22.333 -15.167 -39 -25.5s-53.334 -24 -110.001 -41s-115 -25.5 -175 -25.5c-114.667 0 -200.334 31.5 -257.001 94.5s-73.334 147.5 -50.001 253.5l61 287h62l-62 -287c-19.333 -91.333 -7.33301 -161.833 36 -211.5
s114 -74.5 212 -74.5c60 0 118.333 8.5 175 25.5s98 34.167 124 51.5l39 25l100 471h62l-209 -983h-61z" />
    </font>
</defs>
</svg>
