<?xml version="1.0" standalone="no"?>
<!DOCTYPE svg PUBLIC "-//W3C//DTD SVG 1.1//EN" "http://www.w3.org/Graphics/SVG/1.1/DTD/svg11.dtd" >
<svg xmlns="http://www.w3.org/2000/svg" xmlns:xlink="http://www.w3.org/1999/xlink" version="1.1">
<metadata>
Created by FontForge 20190801 at Tue May 30 06:21:21 2017
 By Jimmy Wärting
Copyright (c) 2017 by TypeType. Designers Ivan Gladkikh, Pavel Emelyanov. Technical designers Olexa Volochay, Nadyr Rakhimov, Dmitriy Greshnev. All rights reserved.
</metadata>
<defs>
<font id="TTNorms-Heavy" horiz-adv-x="1290" >
  <font-face 
    font-family="TT Norms Heavy"
    font-weight="900"
    font-stretch="normal"
    units-per-em="2048"
    panose-1="2 0 5 3 3 0 0 2 0 4"
    ascent="1638"
    descent="-410"
    x-height="1004"
    cap-height="1434"
    bbox="-389 -573 2945.01 2089"
    underline-thickness="0"
    underline-position="0"
    unicode-range="U+000D-FB06"
  />
<missing-glyph horiz-adv-x="0" 
 />
    <glyph glyph-name="ij" unicode="ij" horiz-adv-x="1392" 
d="M584 1004l0.00195312 -533c0 -30 9.16699 -54.5 27.5 -73.5s43.166 -28.5 74.499 -28.5c18 0 35.5 1.66699 52.5 5s29.5 7 37.5 11l12 4v615h472v-984c0 -142 -38.333 -252.5 -115 -331.5s-182 -118.5 -316 -118.5c-42 0 -83.5 3.33301 -124.5 10
s-71.167 13.667 -90.5 21l-30 10v348c27.333 -13.333 61.333 -20 102 -20c31.333 0 56.166 9.5 74.499 28.5s27.5 43.5 27.5 73.5c-68 -27.333 -149.667 -41 -245 -41c-134 0 -239.167 39.667 -315.5 119s-114.5 190 -114.5 332v553h471zM604.002 1311
c0 -62.667 -23.833 -116 -71.5 -160s-109 -66 -184 -66s-136.5 22 -184.5 66s-72 97.333 -72 160s24 115.834 72 159.501s109.5 65.5 184.5 65.5s136.333 -21.833 184 -65.5s71.5 -96.834 71.5 -159.501zM768.002 1311c0 62.667 23.833 115.834 71.5 159.501
s109.167 65.5 184.5 65.5s136.833 -21.833 184.5 -65.5s71.5 -96.834 71.5 -159.501s-23.833 -116 -71.5 -160s-109.167 -66 -184.5 -66s-136.833 22 -184.5 66s-71.5 97.333 -71.5 160z" />
    <glyph glyph-name="uniFB00" unicode="ff" horiz-adv-x="1638" 
d="M1382 983v-41h205v-410h-205v-532h-471v532h-286v-532h-471v532h-123v410h123v41c0 142 38.167 252.667 114.5 332s181.5 119 315.5 119c42 0 83.5 -3.5 124.5 -10.5s71.167 -13.833 90.5 -20.5l30 -10v-389c-27.333 13.333 -61.333 20 -102 20
c-57.333 0 -91.333 -27.333 -102 -82h286v82c0 142 38.333 252.667 115 332s181.667 119 315 119c42 0 83.667 -3.5 125 -10.5s71.333 -13.833 90 -20.5l31 -10v-390c-27.333 13.333 -61.333 20.333 -102 21c-30 0 -54.667 -8.16699 -74 -24.5s-29 -35.5 -29 -57.5z" />
    <glyph glyph-name="uniFB01" unicode="fi" horiz-adv-x="1525" 
d="M625 942h756.997v-942h-471v532h-286v-532h-471v532h-123v410h123v82c0 142 38.167 252.667 114.5 332s181.5 119 315.5 119c36.667 0 73.834 -3.5 111.501 -10.5s65.834 -13.833 84.501 -20.5l29 -10v-390c-27.333 13.333 -54.666 20.333 -81.999 21
c-30 0 -54.5 -8.16699 -73.5 -24.5s-28.5 -35.5 -28.5 -57.5v-41zM890.997 1270c0 62.667 23.833 115.834 71.5 159.501s109.167 65.5 184.5 65.5s136.833 -21.833 184.5 -65.5s71.5 -96.834 71.5 -159.501s-23.833 -116 -71.5 -160s-109.167 -66 -184.5 -66
s-136.833 22 -184.5 66s-71.5 97.333 -71.5 160z" />
    <glyph glyph-name="uniFB02" unicode="fl" horiz-adv-x="1505" 
d="M1382 942v-942h-471v942c0 31.333 -14 59.666 -42 84.999s-61.667 38 -101 38s-73 -12.667 -101 -38s-42 -53.666 -42 -84.999h204v-410h-204v-532h-471v532h-123v410h123c0 147.333 57.333 273 172 377s262 156 442 156s327.333 -52 442 -156s172 -229.667 172 -377z
" />
    <glyph glyph-name="uniFB03" unicode="ffi" horiz-adv-x="2273" 
d="M1382 942h757.998v-942h-471v532h-287v-532h-471v532h-286v-532h-471v532h-123v410h123v41c0 142 38.167 252.667 114.5 332s181.5 119 315.5 119c42 0 83.5 -3.5 124.5 -10.5s71.167 -13.833 90.5 -20.5l30 -10v-389c-27.333 13.333 -61.333 20 -102 20
c-57.333 0 -91.333 -27.333 -102 -82h286v82c0 142 38.333 252.667 115 332s181.667 119 315 119c36.667 0 73.834 -3.5 111.501 -10.5s66.167 -13.833 85.5 -20.5l29 -10v-390c-27.333 13.333 -54.666 20.333 -81.999 21c-30 0 -54.667 -8.16699 -74 -24.5
s-29 -35.5 -29 -57.5v-41zM1649 1270c0 62.667 23.833 115.834 71.5 159.501s109 65.5 184 65.5s136.5 -21.833 184.5 -65.5s72 -96.834 72 -159.501s-24 -116 -72 -160s-109.5 -66 -184.5 -66s-136.333 22 -184 66s-71.5 97.333 -71.5 160z" />
    <glyph glyph-name="uniFB06" unicode="st" horiz-adv-x="1966" 
d="M430 1024c10.667 120 70.6689 225.167 180.002 315.5s247.333 135.5 414 135.5c172 0 313 -46.167 423 -138.5s170.333 -203.166 181 -332.499h205v-390h-205v-102c0 -30 9.16699 -54.5 27.5 -73.5s43.5 -28.5 75.5 -28.5c18 0 35.333 1.66699 52 5s29.334 7 38.001 11
l12 4v-410c-68 -27.333 -150 -40.666 -246 -39.999c-134 0 -239.167 39.5 -315.5 118.5s-114.5 189.5 -114.5 331.5v184h-82v390h82c0 22 -10.833 41 -32.5 57s-51.834 24 -90.501 24c-40.667 0 -73 -11.167 -97 -33.5s-36 -51.833 -36 -88.5c0 -50.667 24 -91.667 72 -123
l-185 -195c-27.333 27.333 -58 41 -92 41c-40.667 0 -61 -13.667 -61 -41c0 -9.33301 19.167 -20.833 57.5 -34.5s80.666 -28.667 126.999 -45s88.666 -47 126.999 -92s57.5 -100.5 57.5 -166.5c0 -92.667 -42.333 -172.167 -127 -238.5s-203 -99.5 -355 -99.5
c-66.667 0 -130 7.5 -190 22.5s-108.833 33.167 -146.5 54.5s-70.167 42.166 -97.5 62.499s-47 38.166 -59 53.499l-19 22l205 215c40.667 -54.667 92 -82 154 -82c40.667 0 61 13.667 61 41c0 8 -12.667 16.833 -38 26.5s-56 21 -92 34s-72.167 29.833 -108.5 50.5
s-67.166 51.834 -92.499 93.501s-38 89.834 -38 144.501c0 79.333 35.167 150.666 105.5 213.999s158.166 97.666 263.499 102.999z" />
    <glyph glyph-name="c_t.liga" unicode="ct" horiz-adv-x="2058" 
d="M543 502c0 -31.333 12.1631 -58 36.4961 -80s56.5 -33 96.5 -33c27.333 0 54 6.83301 80 20.5s44.333 27.5 55 41.5l18 20l277 -287c-4 -5.33301 -10.167 -12.833 -18.5 -22.5s-27.166 -27 -56.499 -52s-60.666 -46.833 -93.999 -65.5s-77.333 -35.834 -132 -51.501
s-111.334 -23.5 -170.001 -23.5c-166.667 0 -305.667 52.333 -417 157s-167 230 -167 376c0 132.667 47.167 249 141.5 349s211.166 157.667 350.499 173c10.667 118.667 70.334 223.5 179.001 314.5s243.334 136.5 404.001 136.5c168 0 306.333 -46.5 415 -139.5
s168.334 -203.5 179.001 -331.5h205v-390h-205v-102c0 -30 9.66699 -54.5 29 -73.5s44 -28.5 74 -28.5c18 0 35.5 1.66699 52.5 5s29.5 7 37.5 11l12 4v-410c-68 -27.333 -150 -40.666 -246 -39.999c-134 0 -239.167 39.5 -315.5 118.5s-114.5 189.5 -114.5 331.5v184h-82
v390h82c0 22 -10.167 41 -30.5 57s-47.5 24 -81.5 24c-35.333 0 -64.666 -11.5 -87.999 -34.5s-35 -52.167 -35 -87.5c0 -46.667 30.667 -94.667 92 -144l-277 -287c-40.667 54.667 -91.667 82 -153 82c-39.333 0 -71.333 -10.833 -96 -32.5s-37 -48.167 -37 -79.5z" />
    <glyph glyph-name="s_p.liga" unicode="sp" horiz-adv-x="2375" 
d="M1874 -20c-54.667 0 -104.166 11.8369 -148.499 35.5039s-74.833 47.167 -91.5 70.5l-26 37v-553h-471v1413c0 31.333 -10 56.166 -30 74.499s-47.667 27.5 -83 27.5s-64.666 -11.5 -87.999 -34.5s-35 -52.167 -35 -87.5c0 -50.667 24 -91.667 72 -123l-185 -195
c-27.333 27.333 -58 41 -92 41c-40.667 0 -61 -13.667 -61 -41c0 -9.33301 19.167 -20.833 57.5 -34.5s80.666 -28.667 126.999 -45s88.666 -47 126.999 -92s57.5 -100.5 57.5 -166.5c0 -92.667 -42.333 -172.167 -127 -238.5s-203 -99.5 -355 -99.5
c-66.667 0 -130 7.5 -190 22.5s-108.833 33.167 -146.5 54.5s-70.167 42.166 -97.5 62.499s-47 38.166 -59 53.499l-19 22l205 213c2.66699 -4 9.5 -11.5 20.5 -22.5s29.167 -23.333 54.5 -37s51.666 -20.5 78.999 -20.5c40.667 0 61 13.667 61 41
c0 8 -12.667 16.833 -38 26.5s-56 21 -92 34s-72.167 29.833 -108.5 50.5s-67.166 51.834 -92.499 93.501s-38 89.834 -38 144.501c0 79.333 35.167 150.666 105.5 213.999s158.166 97.666 263.499 102.999c10.667 118.667 70.334 223.5 179.001 314.5
s243.667 136.5 405 136.5c168 0 309 -49.833 423 -149.5s171 -213.834 171 -342.501v-102l10 15c4 6 14.167 17.167 30.5 33.5s33.833 31 52.5 44s43.667 24.667 75 35s64 15.5 98 15.5c117.333 0 218.333 -48.5 303 -145.5s127 -222.667 127 -377
s-42.333 -279.833 -127 -376.5s-185.667 -145 -303 -145zM1812 502.004c0 31.333 -9.16699 56.166 -27.5 74.499s-43.166 27.5 -74.499 27.5s-56.166 -9.16699 -74.499 -27.5s-27.5 -43.166 -27.5 -74.499s9.16699 -56.333 27.5 -75s43.166 -28 74.499 -28
s56.166 9.33301 74.499 28s27.5 43.667 27.5 75z" />
    <glyph glyph-name="f_t.liga" unicode="ft" horiz-adv-x="1720" 
d="M1587 942l-0.000976562 -410.001h-205v-20c0 -30 9.33301 -54.5 28 -73.5s43.667 -28.5 75 -28.5c18 0 35.5 1.66699 52.5 5s29.5 7 37.5 11l12 4v-410c-68 -27.333 -150 -40.666 -246 -39.999c-134 0 -239.167 39.5 -315.5 118.5s-114.5 189.5 -114.5 331.5v102h-286
v-532h-471v532h-123v410h123v82c0 142 38.167 252.667 114.5 332s181.5 119 315.5 119c42 0 83.5 -3.5 124.5 -10.5s71.167 -13.833 90.5 -20.5l30 -10v-390c-27.333 13.333 -61.333 20.333 -102 21c-30 0 -54.5 -8.16699 -73.5 -24.5s-28.5 -35.5 -28.5 -57.5v-41h204
c40.667 0 74.834 13.667 102.501 41s41.5 61.333 41.5 102v144h409v-287h205z" />
    <glyph glyph-name=".notdef" horiz-adv-x="0" 
 />
    <glyph glyph-name="glyph1" horiz-adv-x="0" 
 />
    <glyph glyph-name="glyph1" horiz-adv-x="0" 
 />
    <glyph glyph-name="uni000D" unicode="&#xd;" horiz-adv-x="0" 
 />
    <glyph glyph-name="space" unicode=" " horiz-adv-x="450" 
 />
    <glyph glyph-name="exclam" unicode="!" horiz-adv-x="737" 
d="M573 522h-409l-82 912h573zM625 215c0 -66.667 -24 -122.5 -72 -167.5s-109.5 -67.5 -184.5 -67.5s-136.333 22.5 -184 67.5s-71.5 100.833 -71.5 167.5s23.833 122.667 71.5 168s109 68 184 68s136.5 -22.667 184.5 -68s72 -101.333 72 -168z" />
    <glyph glyph-name="quotedbl" unicode="&#x22;" horiz-adv-x="1085" 
d="M492 1434v-574h-410v574h410zM1004 1434v-574h-410v574h410z" />
    <glyph glyph-name="numbersign" unicode="#" horiz-adv-x="1566" 
d="M92 635h184l31 164h-184l72 327h184l61 308h430l-61 -308h123l61 308h430l-61 -308h184l-71 -327h-185l-30 -164h184l-72 -328h-184l-62 -307h-430l62 307h-123l-62 -307h-430l62 307h-185zM727 819l-41 -205h154l41 205h-154z" />
    <glyph glyph-name="dollar" unicode="$" 
d="M1229 1270l-297.001 -307.002c-54.667 54.667 -116 81.667 -184 81c-28.667 0 -51.334 -6 -68.001 -18s-25 -26.333 -25 -43c0 -13.333 20.5 -26.5 61.5 -39.5s90.5 -29.167 148.5 -48.5s116 -44.666 174 -75.999s107.5 -78.666 148.5 -141.999
s61.5 -138.666 61.5 -225.999c0 -65.333 -12.5 -125.5 -37.5 -180.5s-55.667 -98.5 -92 -130.5s-72.666 -59.167 -108.999 -81.5s-67.166 -37.833 -92.499 -46.5l-37 -12v-184h-430v153c-84.667 15.333 -164.667 42.833 -240 82.5s-129.333 75.167 -162 106.5l-49 47
l297 307c9.33301 -9.33301 21.833 -20.833 37.5 -34.5s45 -31.834 88 -54.501s83.167 -34 120.5 -34c34 0 61.167 8.16699 81.5 24.5s30.5 35.5 30.5 57.5c0 13.333 -20.5 26.5 -61.5 39.5s-90.5 29.167 -148.5 48.5s-116 44.666 -174 75.999s-107.5 78.666 -148.5 141.999
s-61.5 139 -61.5 227c0 65.333 13.333 125 40 179s59.167 96.333 97.5 127s76.666 56.834 114.999 78.501s70.5 36.834 96.5 45.501l41 10v174h430v-164c72.667 -18 137.834 -42.333 195.501 -73s97.5 -56.667 119.5 -78z" />
    <glyph glyph-name="percent" unicode="%" horiz-adv-x="1925" 
d="M1587 348c0 20.667 -8.5 39.5 -25.5 56.5s-35.667 25.5 -56 25.5s-39.166 -8.5 -56.499 -25.5s-26 -35.833 -26 -56.5s8.66699 -39.5 26 -56.5s36.166 -25.5 56.499 -25.5s39 8.5 56 25.5s25.5 35.833 25.5 56.5zM1106 348.5c0 103.667 38.5 192.667 115.5 267
s171.5 111.5 283.5 111.5s206.667 -37.167 284 -111.5s116 -163.333 116 -267s-38.667 -192.834 -116 -267.501s-172 -112 -284 -112s-206.5 37.333 -283.5 112s-115.5 163.834 -115.5 267.501zM287 0l901 1434h450l-901 -1434h-450zM819 1085.5
c0 -103.667 -38.5 -192.667 -115.5 -267s-171.5 -111.5 -283.5 -111.5s-206.667 37.167 -284 111.5s-116 163.333 -116 267s38.667 192.667 116 267s172 111.5 284 111.5s206.5 -37.167 283.5 -111.5s115.5 -163.333 115.5 -267zM338 1085.5c0 -20.333 8.5 -39 25.5 -56
s35.833 -25.5 56.5 -25.5s39.5 8.5 56.5 25.5s25.5 35.667 25.5 56s-8.5 39 -25.5 56s-35.833 25.5 -56.5 25.5s-39.5 -8.5 -56.5 -25.5s-25.5 -35.667 -25.5 -56z" />
    <glyph glyph-name="ampersand" unicode="&#x26;" horiz-adv-x="1454" 
d="M1311 389c20.667 -13.333 41.0068 -19.9971 61.0068 -19.9971l62 10v-379c-54.667 -27.333 -130 -41 -226 -41c-54.667 0 -105.834 10.167 -153.501 30.5s-81.834 40.833 -102.501 61.5l-30 31c-9.33301 -9.33301 -23.333 -20.833 -42 -34.5
s-61.5 -31.834 -128.5 -54.501s-140.167 -34 -219.5 -34c-148.667 0 -271.167 42.667 -367.5 128s-144.5 186 -144.5 302c0 49.333 10 96.5 30 141.5s44 81.833 72 110.5s56 54 84 76s52.333 37.667 73 47l28 14c-10.667 10.667 -23.834 25.667 -39.501 45
s-36.834 56.666 -63.501 111.999s-40 109 -40 161c0 106.667 42.667 196.5 128 269.5s199.666 109.5 342.999 109.5s257.666 -36.667 342.999 -110s128 -163 128 -269c0 -36.667 -7.83301 -72.5 -23.5 -107.5s-34.5 -64.833 -56.5 -89.5s-43.833 -46.167 -65.5 -64.5
s-40.167 -32.166 -55.5 -41.499l-24 -15l71 -82c20.667 13.333 31 34 31 62h451c0 -66.667 -10.333 -130.834 -31 -192.501s-41.334 -106.834 -62.001 -135.501zM584.007 328.003c18 0 34.667 3.33203 50 9.99902s26.666 13.334 33.999 20.001l8 11l-103 123
c-40.667 -20.667 -61 -51.667 -61 -93c0 -20.667 6.83301 -37.667 20.5 -51s30.834 -20 51.501 -20zM696.007 1034c0 20.667 -6.16797 37.832 -18.501 51.499s-26.666 20.5 -42.999 20.5s-30.666 -6.83301 -42.999 -20.5s-18.5 -30.834 -18.5 -51.501
c0 -15.333 5.16699 -30.666 15.5 -45.999s20.166 -26.666 29.499 -33.999l17 -12c40.667 27.333 61 58 61 92z" />
    <glyph glyph-name="quotesingle" unicode="'" horiz-adv-x="593" 
d="M512 1434v-574h-430v574h430z" />
    <glyph glyph-name="parenleft" unicode="(" horiz-adv-x="880" 
d="M594 512c0 -80.667 9.16504 -162.661 27.498 -245.994s40.5 -156 66.5 -218s52 -118.333 78 -169s47.667 -89.667 65 -117l29 -38l-358 -216c-10.667 10.667 -25.667 26.667 -45 48s-53.166 66.166 -101.499 134.499s-91 139 -128 212s-70.5 165.167 -100.5 276.5
s-45 222.333 -45 333s14.333 221 43 331s63.5 203.5 104.5 280.5s82.333 146.167 124 207.5s76.834 107.666 105.501 138.999l43 46l358 -216c-6.66699 -9.33301 -16.167 -22.833 -28.5 -40.5s-33.833 -54.834 -64.5 -111.501s-57.667 -114.334 -81 -173.001
s-44.5 -130.334 -63.5 -215.001s-28.5 -167.334 -28.5 -248.001z" />
    <glyph glyph-name="parenright" unicode=")" horiz-adv-x="880" 
d="M287 512c0 80.667 -9.33203 162.661 -27.999 245.994s-40.834 156 -66.501 218s-51.5 118.333 -77.5 169s-48 89.667 -66 117l-29 38l359 216c10.667 -10.667 25.667 -26.667 45 -48s53.166 -66.166 101.499 -134.499s91 -139 128 -212s70.5 -165.167 100.5 -276.5
s45 -222.333 45 -333s-14.333 -221 -43 -331s-63.5 -203.5 -104.5 -280.5s-82.333 -146.167 -124 -207.5s-76.834 -107.666 -105.501 -138.999l-43 -46l-359 216c6.66699 9.33301 16.334 22.833 29.001 40.5s34.334 54.834 65.001 111.501s57.5 114.334 80.5 173.001
s44.167 130.334 63.5 215.001s29 167.334 29 248.001z" />
    <glyph glyph-name="asterisk" unicode="*" horiz-adv-x="839" 
d="M522 686l-102 143l-103 -143l-245 195l92 112l-144 41l93 287l153 -51l-10 164h328l-11 -164l154 51l92 -287l-143 -41l92 -112z" />
    <glyph glyph-name="plus" unicode="+" horiz-adv-x="1095" 
d="M338 1096h420v-277h276v-430h-276v-276h-420v276h-277v430h277v277z" />
    <glyph glyph-name="comma" unicode="," horiz-adv-x="655" 
d="M246 451l368 -205l-327 -512l-297 164z" />
    <glyph glyph-name="hyphen" unicode="-" horiz-adv-x="901" 
d="M840 819v-430h-779v430h779z" />
    <glyph glyph-name="period" unicode="." horiz-adv-x="634" 
d="M61 215c0 66.667 24 122.667 72 168s109.5 68 184.5 68s136.333 -22.667 184 -68s71.5 -101.333 71.5 -168s-23.833 -122.5 -71.5 -167.5s-109 -67.5 -184 -67.5s-136.5 22.5 -184.5 67.5s-72 100.833 -72 167.5z" />
    <glyph glyph-name="slash" unicode="/" horiz-adv-x="1208" 
d="M1147 1454l-615 -1884h-471l615 1884h471z" />
    <glyph glyph-name="zero" unicode="0" horiz-adv-x="1474" 
d="M870 717c0 191.333 -44.333 287 -133 287s-133 -95.667 -133 -287s44.333 -287 133 -287s133 95.667 133 287zM1403 717c0 -225.333 -63.833 -408 -191.5 -548s-285.667 -210 -474 -210s-346.333 70 -474 210s-191.5 322.667 -191.5 548s63.833 408 191.5 548
s285.667 210 474 210s346.333 -70 474 -210s191.5 -322.667 191.5 -548z" />
    <glyph glyph-name="one" unicode="1" horiz-adv-x="931" 
d="M317 1434h471v-1434h-532v922h-215v317c38 5.33301 73.5 15.833 106.5 31.5s59.333 32.5 79 50.5s37 35.5 52 52.5s25.167 31.5 30.5 43.5z" />
    <glyph glyph-name="two" unicode="2" 
d="M1208 0l-1167 -0.00390625c0 116 14.667 220.833 44 314.5s65.833 167.667 109.5 222s91.5 103.5 143.5 147.5s99.833 78.167 143.5 102.5s80.167 48.833 109.5 73.5s44 48.667 44 72c0 34 -20.667 51 -62 51c-18 0 -35.333 -5.16699 -52 -15.5
s-29.334 -20.166 -38.001 -29.499l-12 -16l-451 204c4 9.33301 10.833 22 20.5 38s32.334 43.833 68.001 83.5s75 74.834 118 105.501s102 58.667 177 84s155.5 38 241.5 38c178.667 0 320.667 -45.5 426 -136.5s158 -202.5 158 -334.5
c0 -61.333 -10.333 -117.666 -31 -168.999s-49 -94.833 -85 -130.5s-70.833 -65.667 -104.5 -90s-70.167 -48.166 -109.5 -71.499s-66 -40.333 -80 -51h389v-492z" />
    <glyph glyph-name="three" unicode="3" horiz-adv-x="1239" 
d="M604 460.5c0 47.667 -34.0049 71.5049 -102.005 71.5049h-144v390h134c24.667 0 44.334 6 59.001 18s22 26.333 22 43s-7.5 31 -22.5 43s-34.5 18 -58.5 18c-27.333 0 -54.666 -6 -81.999 -18s-48 -23.667 -62 -35l-20 -18l-297 307c4 5.33301 10.333 12.5 19 21.5
s29.834 24.333 63.501 46s70.334 41.167 110.001 58.5s92.5 33.166 158.5 47.499s136.667 21.5 212 21.5c174.667 0 313.834 -41 417.501 -123s155.5 -177.667 155.5 -287c0 -42 -7.83301 -81.167 -23.5 -117.5s-34.334 -65.833 -56.001 -88.5s-43.5 -41.834 -65.5 -57.501
s-40.333 -26.834 -55 -33.501l-25 -10c6.66699 -2.66699 15.834 -6.5 27.501 -11.5s32.167 -17 61.5 -36s55.333 -40.833 78 -65.5s43.167 -58.834 61.5 -102.501s27.5 -91.5 27.5 -143.5c0 -120 -55 -223.333 -165 -310s-259.667 -130 -449 -130
c-75.333 0 -147.5 8.16699 -216.5 24.5s-126 36.166 -171 59.499s-84.5 46.166 -118.5 68.499s-58.667 41.833 -74 58.5l-24 25l296 307c8 -8 19.333 -18.167 34 -30.5s42.167 -29.166 82.5 -50.499s76.833 -32 109.5 -32c68 0 102 23.833 102 71.5z" />
    <glyph glyph-name="four" unicode="4" horiz-adv-x="1310" 
d="M1147 614h123v-430h-123v-184h-533v184h-594v451l574 799h553v-820zM635 829l-154 -215h154v215z" />
    <glyph glyph-name="five" unicode="5" horiz-adv-x="1310" 
d="M666 492c0 20.667 -9.33105 39.3359 -27.998 56.0029s-40.334 25 -65.001 25c-18 0 -35.333 -3.33301 -52 -10s-29.334 -13.334 -38.001 -20.001l-12 -11l-369 82l62 820h1003v-430h-532l-10 -103c48 20.667 106 31 174 31c134 0 244.333 -43.333 331 -130
s130 -197 130 -331c0 -147.333 -55 -269.5 -165 -366.5s-260 -145.5 -450 -145.5c-75.333 0 -147.333 8.16699 -216 24.5s-125.667 36.166 -171 59.499s-85 46.166 -119 68.499s-58.333 41.833 -73 58.5l-25 25l307 317c8 -8 18.5 -17.5 31.5 -28.5s38.667 -26 77 -45
s73.833 -28.5 106.5 -28.5c30 0 54.667 8.16699 74 24.5s29 35.5 29 57.5z" />
    <glyph glyph-name="six" unicode="6" horiz-adv-x="1331" 
d="M1126 1434l-296.997 -441.001c12 -2.66699 28.333 -6.66699 49 -12s57.667 -21 111 -47s100.166 -56 140.499 -90s77.166 -83.5 110.499 -148.5s50 -136.5 50 -214.5c0 -147.333 -56.667 -271.166 -170 -371.499s-264.833 -150.5 -454.5 -150.5
s-341.167 50.167 -454.5 150.5s-170 224.166 -170 371.499c0 64 13.667 130.833 41 200.5s54.666 123.834 81.999 162.501l41 57l358 533h563zM748.003 480.999c0 24.667 -8.66699 46.167 -26 64.5s-36.166 27.5 -56.499 27.5s-39 -9.16699 -56 -27.5
s-25.5 -39.833 -25.5 -64.5s8.5 -46.167 25.5 -64.5s35.667 -27.5 56 -27.5s39.166 9.16699 56.499 27.5s26 39.833 26 64.5z" />
    <glyph glyph-name="seven" unicode="7" horiz-adv-x="1177" 
d="M61 1434h1076v-430l-482 -1004h-573l461 942h-482v492z" />
    <glyph glyph-name="eight" unicode="8" horiz-adv-x="1331" 
d="M665.5 -41c-195 0 -347.834 43.335 -458.501 130.002s-166 190 -166 310c0 52 8.83301 99.833 26.5 143.5s38.834 78.167 63.501 103.5s49.667 46.833 75 64.5s46.666 30.167 63.999 37.5l27 10c-5.33301 2.66699 -12.833 6 -22.5 10s-26.167 14.833 -49.5 32.5
s-43.833 37.167 -61.5 58.5s-34 50.333 -49 87s-22.5 76.334 -22.5 119.001c0 109.333 51.833 205 155.5 287s243 123 418 123s314.333 -41 418 -123s155.5 -177.667 155.5 -287c0 -42 -7.16699 -81.167 -21.5 -117.5s-31.333 -65.833 -51 -88.5
s-39.5 -41.834 -59.5 -57.501s-36.667 -26.834 -50 -33.501l-23 -10c6.66699 -2.66699 15.834 -6.5 27.501 -11.5s32.167 -17 61.5 -36s55.333 -40.833 78 -65.5s43.167 -58.834 61.5 -102.501s27.5 -91.5 27.5 -143.5c0 -120 -55.333 -223.333 -166 -310
s-263.5 -130 -458.5 -130zM665.499 1065c-24.333 0 -44 -6.83301 -59 -20.5s-22.5 -30.667 -22.5 -51s7.5 -37.333 22.5 -51s34.667 -20.5 59 -20.5s44.166 6.83301 59.499 20.5s23 30.667 23 51s-7.66699 37.333 -23 51s-35.166 20.5 -59.499 20.5zM665.499 532.002
c-24.333 0 -45.833 -8.5 -64.5 -25.5s-28 -35.667 -28 -56s9.33301 -39 28 -56s40.167 -25.5 64.5 -25.5s45.833 8.5 64.5 25.5s28 35.667 28 56s-9.33301 39 -28 56s-40.167 25.5 -64.5 25.5z" />
    <glyph glyph-name="nine" unicode="9" horiz-adv-x="1331" 
d="M205 0l296.997 439.999c-12 2.66699 -28.333 6.83398 -49 12.501s-57.667 21.5 -111 47.5s-100.166 56 -140.499 90s-77.166 83.5 -110.499 148.5s-50 136.167 -50 213.5c0 147.333 56.667 271.333 170 372s264.833 151 454.5 151s341.167 -50.167 454.5 -150.5
s170 -224.5 170 -372.5c0 -64 -13.667 -130.833 -41 -200.5s-54.666 -123.5 -81.999 -161.5l-41 -58l-358 -532h-563zM583.997 951.999c0 -24.667 8.5 -46.167 25.5 -64.5s35.667 -27.5 56 -27.5s39.166 9.16699 56.499 27.5s26 39.833 26 64.5s-8.66699 46.167 -26 64.5
s-36.166 27.5 -56.499 27.5s-39 -9.16699 -56 -27.5s-25.5 -39.833 -25.5 -64.5z" />
    <glyph glyph-name="colon" unicode=":" horiz-adv-x="634" 
d="M573 799c0 -62.667 -23.833 -116 -71.5 -160s-109 -66 -184 -66s-136.5 22 -184.5 66s-72 97.333 -72 160s24 115.834 72 159.501s109.5 65.5 184.5 65.5s136.333 -21.833 184 -65.5s71.5 -96.834 71.5 -159.501zM573 205c0 -62.667 -23.833 -115.834 -71.5 -159.501
s-109 -65.5 -184 -65.5s-136.5 21.833 -184.5 65.5s-72 96.834 -72 159.501s24 115.834 72 159.501s109.5 65.5 184.5 65.5s136.333 -21.833 184 -65.5s71.5 -96.834 71.5 -159.501z" />
    <glyph glyph-name="semicolon" unicode=";" horiz-adv-x="696" 
d="M645 799c0 -62.667 -23.833 -116 -71.5 -160s-109.167 -66 -184.5 -66s-136.833 22 -184.5 66s-71.5 97.333 -71.5 160s23.833 115.834 71.5 159.501s109.167 65.5 184.5 65.5s136.833 -21.833 184.5 -65.5s71.5 -96.834 71.5 -159.501zM236 430l368 -205l-317 -491
l-297 164z" />
    <glyph glyph-name="less" unicode="&#x3c;" horiz-adv-x="1105" 
d="M61 317v369l983 328v-410l-430 -102l430 -103v-409z" />
    <glyph glyph-name="equal" unicode="=" horiz-adv-x="1024" 
d="M963 553v-369h-902v369h902zM963 1024v-369h-902v369h902z" />
    <glyph glyph-name="greater" unicode="&#x3e;" horiz-adv-x="1105" 
d="M1044 686v-369l-983 -327v409l431 103l-431 102v410z" />
    <glyph glyph-name="question" unicode="?" horiz-adv-x="1208" 
d="M797 522l-448.999 -0.00195312c-6.66699 20.667 -10 44.667 -10 72c0 56 13.333 104.5 40 145.5s56 70.667 88 89s61.333 36.333 88 54s40 34.167 40 49.5c0 34 -20.667 51 -62 51c-18 0 -35.333 -5.16699 -52 -15.5s-29.334 -20.166 -38.001 -29.499l-12 -16l-450 204
c4 9.33301 10.667 22 20 38s31.833 43.833 67.5 83.5s75 74.834 118 105.501s102 58.667 177 84s155.5 38 241.5 38c177.333 0 319 -44.167 425 -132.5s159 -194.5 159 -318.5c0 -70.667 -15 -131 -45 -181s-64.167 -87.333 -102.5 -112s-82 -55.5 -131 -92.5
s-86.5 -75.833 -112.5 -116.5zM317.001 214.998c0 66.667 24 122.667 72 168s109.5 68 184.5 68s136.333 -22.667 184 -68s71.5 -101.333 71.5 -168s-23.833 -122.5 -71.5 -167.5s-109 -67.5 -184 -67.5s-136.5 22.5 -184.5 67.5s-72 100.833 -72 167.5z" />
    <glyph glyph-name="at" unicode="@" horiz-adv-x="1822" 
d="M901.5 573c-16.333 0 -30.666 -6.83301 -42.999 -20.5s-18.5 -30.667 -18.5 -51s6.16699 -37.333 18.5 -51s26.666 -20.5 42.999 -20.5s30.666 6.83301 42.999 20.5s18.5 30.667 18.5 51s-6.16699 37.333 -18.5 51s-26.666 20.5 -42.999 20.5zM819 881
c24.667 0 49 -4.16406 73 -12.4971s42 -16.5 54 -24.5l17 -15v41h307v-358c0 -30 8.83301 -54.5 26.5 -73.5s39.5 -28.5 65.5 -28.5c61.333 0 92 47.667 92 143c0 140.667 -51.167 259.5 -153.5 356.5s-232.166 145.5 -389.499 145.5
c-148.667 0 -276.167 -53.333 -382.5 -160s-159.5 -234.334 -159.5 -383.001s53.167 -276.334 159.5 -383.001s233.833 -160 382.5 -160c60 0 120.167 10.333 180.5 31s104.833 41 133.5 61l45 31l184 -225c-5.33301 -5.33301 -13.5 -12.166 -24.5 -20.499
s-34.833 -23 -71.5 -44s-74.834 -39.833 -114.501 -56.5s-89.5 -31.334 -149.5 -44.001s-121 -19 -183 -19c-234.667 0 -435 81.5 -601 244.5s-249 357.833 -249 584.5s83 421.5 249 584.5s366.333 244.5 601 244.5c243.333 0 445.833 -76.667 607.5 -230
s242.5 -339.333 242.5 -558c0 -131.333 -35.833 -235.833 -107.5 -313.5s-162.167 -116.5 -271.5 -116.5c-54.667 0 -104.167 10.167 -148.5 30.5s-74.5 40.833 -90.5 61.5l-27 31c-2.66699 -2.66699 -6 -7.16699 -10 -13.5s-13.833 -16.333 -29.5 -30
s-32.834 -25.834 -51.501 -36.501s-42.667 -20.5 -72 -29.5s-60.333 -13.5 -93 -13.5c-100 0 -181.333 34.167 -244 102.5s-94 160.5 -94 276.5c0 113.333 29.333 204.833 88 274.5s128.334 104.5 209.001 104.5z" />
    <glyph glyph-name="A" unicode="A" horiz-adv-x="1536" 
d="M1065 1434l512 -1434h-573l-62 246h-348l-62 -246h-573l512 1434h594zM840 635l-72 287l-72 -287h144z" />
    <glyph glyph-name="B" unicode="B" horiz-adv-x="1505" 
d="M881 0l-738 0.000976562v1434h697c174.667 0 310.5 -37 407.5 -111s145.5 -163.333 145.5 -268c0 -39.333 -7.83301 -76.833 -23.5 -112.5s-34.5 -64.167 -56.5 -85.5s-44 -39.833 -66 -55.5s-40.333 -26.834 -55 -33.501l-25 -10c8 -2.66699 18.667 -6.5 32 -11.5
s37 -16.667 71 -35s64.333 -39.5 91 -63.5s50.5 -57.5 71.5 -100.5s31.5 -88.833 31.5 -137.5c0 -114.667 -50.667 -211.667 -152 -291s-245 -119 -431 -119zM676 389.001h143c24.667 0 46.167 8.5 64.5 25.5s27.5 35.833 27.5 56.5s-9.16699 39.5 -27.5 56.5
s-39.833 25.5 -64.5 25.5h-143v-164zM758 1044l-82 -0.000976562v-143h82c24.667 0 44.5 6.83301 59.5 20.5s22.5 30.834 22.5 51.501s-7.5 37.667 -22.5 51s-34.833 20 -59.5 20z" />
    <glyph glyph-name="C" unicode="C" horiz-adv-x="1546" 
d="M1208 573l317.999 -327.001c-5.33301 -8 -13.833 -18.5 -25.5 -31.5s-37.667 -36 -78 -69s-83.333 -62.167 -129 -87.5s-105.834 -48.166 -180.501 -68.499s-152 -30.5 -232 -30.5c-232 0 -426.667 74.5 -584 223.5s-236 327.167 -236 534.5s78.5 385.5 235.5 534.5
s351.833 223.5 584.5 223.5c80.667 0 157.834 -10 231.501 -30s134.334 -44 182.001 -72s90 -56 127 -84s63.5 -52 79.5 -72l25 -29l-318 -328c-9.33301 10.667 -22.5 24 -39.5 40s-52.167 37.333 -105.5 64s-107.333 40 -162 40c-86 0 -158.667 -28.333 -218 -85
s-89 -124 -89 -202s29.667 -145.333 89 -202s132 -85 218 -85c54.667 0 107.667 12 159 36s88.333 47.667 111 71z" />
    <glyph glyph-name="D" unicode="D" horiz-adv-x="1597" 
d="M1536 717c0 -198 -75.5 -367 -226.5 -507s-341.833 -210 -572.5 -210h-594v1434h594c230.667 0 421.5 -70 572.5 -210s226.5 -309 226.5 -507zM676 471h61c75.333 0 138.666 24.167 189.999 72.5s77 106 77 173s-25.667 124.833 -77 173.5s-114.666 73 -189.999 73h-61
v-492z" />
    <glyph glyph-name="E" unicode="E" horiz-adv-x="1423" 
d="M676 430h665v-430h-1198v1434h1178v-430h-645v-93h481v-389h-481v-92z" />
    <glyph glyph-name="F" unicode="F" horiz-adv-x="1392" 
d="M143 1434h1188v-451h-655v-123h491v-450h-491v-410h-533v1434z" />
    <glyph glyph-name="G" unicode="G" horiz-adv-x="1658" 
d="M1526 1188l-318.002 -328.002c-9.33301 10.667 -22.5 24 -39.5 40s-52.167 37.333 -105.5 64s-107.333 40 -162 40c-86 0 -158.667 -28.333 -218 -85s-89 -124 -89 -202c0 -76.667 28.667 -143.667 86 -201s124.333 -86 201 -86c30 0 56.833 2.66699 80.5 8
s40.5 11 50.5 17l12 6v92h-184v266h716v-563c-6.66699 -8 -16.5 -18.5 -29.5 -31.5s-41.333 -36.667 -85 -71s-89.667 -64.666 -138 -90.999s-110.833 -50.166 -187.5 -71.499s-155 -32 -235 -32c-232 0 -426.667 74.5 -584 223.5s-236 327.167 -236 534.5
s78.5 385.5 235.5 534.5s351.833 223.5 584.5 223.5c80.667 0 157.834 -10 231.501 -30s134.334 -44 182.001 -72s90 -56 127 -84s63.5 -52 79.5 -72z" />
    <glyph glyph-name="H" unicode="H" horiz-adv-x="1689" 
d="M1546 1434v-1434h-532v492h-338v-492h-533v1434h533v-471h338v471h532z" />
    <glyph glyph-name="I" unicode="I" horiz-adv-x="819" 
d="M143 0v1434h533v-1434h-533z" />
    <glyph glyph-name="J" unicode="J" horiz-adv-x="1126" 
d="M-61 143l317.001 328c27.333 -27.333 58 -41 92 -41c35.333 0 64.666 11.667 87.999 35s35 52.666 35 87.999v881h533v-881c0 -178.667 -53.667 -322.334 -161 -431.001s-248.333 -163 -423 -163c-57.333 0 -113 6.5 -167 19.5s-99.5 28.333 -136.5 46
s-69.5 35.334 -97.5 53.001s-48 32.834 -60 45.501z" />
    <glyph glyph-name="K" unicode="K" horiz-adv-x="1576" 
d="M768 461l-92 -123v-338h-533v1434h533v-430l328 430h573l-461 -594l502 -840h-584z" />
    <glyph glyph-name="L" unicode="L" 
d="M1249 0h-1106v1434h533v-942h573v-492z" />
    <glyph glyph-name="M" unicode="M" horiz-adv-x="1945" 
d="M973 983l358 451h471v-1434h-532v686l-297 -369l-297 369v-686h-533v1434h471z" />
    <glyph glyph-name="N" unicode="N" horiz-adv-x="1730" 
d="M1055 1434h532v-1434h-450l-461 594v-594h-533v1434h451l461 -594v594z" />
    <glyph glyph-name="O" unicode="O" horiz-adv-x="1761" 
d="M1700 717c0 -207.333 -78.5 -385.5 -235.5 -534.5s-351.667 -223.5 -584 -223.5s-427 74.5 -584 223.5s-235.5 327.167 -235.5 534.5s78.5 385.5 235.5 534.5s351.667 223.5 584 223.5s427 -74.5 584 -223.5s235.5 -327.167 235.5 -534.5zM1167 716.5
c0 76.333 -28.667 143.333 -86 201s-124.166 86.5 -200.499 86.5s-143.166 -28.833 -200.499 -86.5s-86 -124.667 -86 -201s28.667 -143.166 86 -200.499s124.166 -86 200.499 -86s143.166 28.667 200.499 86s86 124.166 86 200.499z" />
    <glyph glyph-name="P" unicode="P" horiz-adv-x="1474" 
d="M143 1434l707 0.00195312c176 0 317.333 -49.833 424 -149.5s160 -227.334 160 -383.001s-53.333 -283.334 -160 -383.001s-248 -149.5 -424 -149.5h-174v-369h-533v1434zM809 983.002h-133v-164h133c24.667 0 46.167 8.5 64.5 25.5s27.5 35.833 27.5 56.5
s-9.16699 39.5 -27.5 56.5s-39.833 25.5 -64.5 25.5z" />
    <glyph glyph-name="Q" unicode="Q" horiz-adv-x="1761" 
d="M61 717c0 207.333 78.501 385.503 235.501 534.503s351.667 223.5 584 223.5s427 -74.5 584 -223.5s235.5 -327.167 235.5 -534.5c0 -147.333 -36.167 -274.333 -108.5 -381s-159.166 -191.334 -260.499 -254.001c5.33301 -5.33301 14.166 -12.833 26.499 -22.5
s39.666 -22 81.999 -37s88.166 -22.5 137.499 -22.5l102 10v-409c-27.333 -6.66699 -61.333 -10.334 -102 -11.001c-87.333 0 -170.333 12.667 -249 38s-142.167 56.166 -190.5 92.499s-90.666 72.5 -126.999 108.5s-61.833 67 -76.5 93l-23 37h-30
c-232 0 -426.667 74.5 -584 223.5s-236 327.167 -236 534.5zM1167 716.503c0 76.333 -28.667 143.333 -86 201s-124.166 86.5 -200.499 86.5s-143.166 -28.833 -200.499 -86.5s-86 -124.667 -86 -201s28.667 -143.166 86 -200.499s124.166 -86 200.499 -86
s143.166 28.667 200.499 86s86 124.166 86 200.499z" />
    <glyph glyph-name="R" unicode="R" horiz-adv-x="1525" 
d="M1229 492l276 -491.999h-553l-184 389h-92v-389h-533v1434h738c172 0 310.5 -49.167 415.5 -147.5s157.5 -223.5 157.5 -375.5c0 -56 -7.83301 -108.5 -23.5 -157.5s-34.5 -88.833 -56.5 -119.5s-43.833 -57.334 -65.5 -80.001s-40.167 -38.667 -55.5 -48zM840 983.001
h-164v-143h164c24.667 0 44.5 6.83301 59.5 20.5s22.5 30.667 22.5 51s-7.5 37.333 -22.5 51s-34.833 20.5 -59.5 20.5z" />
    <glyph glyph-name="S" unicode="S" 
d="M1229 1270l-297.001 -307c-54.667 54.667 -116 81.667 -184 81c-28.667 0 -51.334 -6 -68.001 -18s-25 -26.333 -25 -43c0 -13.333 20.5 -26.5 61.5 -39.5s90.5 -29.167 148.5 -48.5s116 -44.666 174 -75.999s107.5 -78.666 148.5 -141.999s61.5 -138.666 61.5 -225.999
c0 -131.333 -56.667 -246.166 -170 -344.499s-264.666 -147.5 -453.999 -147.5c-76.667 0 -150.5 8.5 -221.5 25.5s-130 37.5 -177 61.5s-88.333 48 -124 72s-61.5 44.667 -77.5 62l-25 25l297 307c9.33301 -9.33301 21.833 -20.833 37.5 -34.5s45 -31.834 88 -54.501
s83.167 -34 120.5 -34c34 0 61.167 8.16699 81.5 24.5s30.5 35.5 30.5 57.5c0 13.333 -20.5 26.5 -61.5 39.5s-90.5 29.167 -148.5 48.5s-116 44.666 -174 75.999s-107.5 78.666 -148.5 141.999s-61.5 139 -61.5 227c0 125.333 54.667 235.166 164 329.499
s256.333 141.5 441 141.5c72.667 0 141.667 -7.16699 207 -21.5s118.833 -31.5 160.5 -51.5s77.834 -39.833 108.501 -59.5s52.667 -37.167 66 -52.5z" />
    <glyph glyph-name="T" unicode="T" horiz-adv-x="1351" 
d="M41 1434h1270v-492h-369v-942h-532v942h-369v492z" />
    <glyph glyph-name="U" unicode="U" horiz-adv-x="1658" 
d="M829.5 430c46.333 0 87.002 18.167 122.002 54.5s52.5 79.5 52.5 129.5v820h532v-820c0 -187.333 -65.833 -343.333 -197.5 -468s-301.334 -187 -509.001 -187s-377.334 62.5 -509.001 187.5s-197.5 280.833 -197.5 467.5v820h532v-820c0 -50.667 17.5 -94 52.5 -130
s75.667 -54 122 -54z" />
    <glyph glyph-name="V" unicode="V" horiz-adv-x="1515" 
d="M1536 1434l-481 -1434h-594l-481 1434h573l205 -861l205 861h573z" />
    <glyph glyph-name="W" unicode="W" horiz-adv-x="2211" 
d="M1311 0l-205 614l-205 -614h-440l-481 1434h573l174 -676l174 676h410l174 -676l174 676h573l-481 -1434h-440z" />
    <glyph glyph-name="X" unicode="X" horiz-adv-x="1495" 
d="M748 1085l163 349h564l-379 -686l420 -748h-574l-194 410l-195 -410h-573l419 748l-379 686h564z" />
    <glyph glyph-name="Y" unicode="Y" horiz-adv-x="1474" 
d="M532 1434l205 -441l205 441h574l-512 -922v-512h-533v512l-512 922h573z" />
    <glyph glyph-name="Z" unicode="Z" horiz-adv-x="1392" 
d="M594 942h-481v492h1177v-492l-512 -450h533v-492h-1229v492z" />
    <glyph glyph-name="bracketleft" unicode="[" horiz-adv-x="942" 
d="M676 1004v-984h184v-450h-696v1884h696v-450h-184z" />
    <glyph glyph-name="backslash" unicode="\" horiz-adv-x="1208" 
d="M676 -430l-615 1884h471l615 -1884h-471z" />
    <glyph glyph-name="bracketright" unicode="]" horiz-adv-x="942" 
d="M266 20v984h-184v450h696v-1884h-696v450h184z" />
    <glyph glyph-name="asciicircum" unicode="^" horiz-adv-x="1003" 
d="M502 1014l-103 -236h-379l297 656h369l297 -656h-379z" />
    <glyph glyph-name="underscore" unicode="_" horiz-adv-x="737" 
d="M758 -143v-430h-778v430h778z" />
    <glyph glyph-name="grave" unicode="`" horiz-adv-x="819" 
d="M563 1475l195 -369h-420l-277 369h502z" />
    <glyph glyph-name="a" unicode="a" horiz-adv-x="1157" 
d="M512 307c27.333 0 49.501 10.668 66.501 32.001s25.5 51.666 25.5 90.999l-82 -20c-40.667 -12 -61 -32.667 -61 -62c0 -10.667 4.66699 -20.167 14 -28.5s21.666 -12.5 36.999 -12.5zM307.001 -19.999c-78 0 -143.501 27.166 -196.501 81.499s-79.5 122.5 -79.5 204.5
s29 151.667 87 209s138 97 240 119l246 51c-20.667 34 -58 51 -112 51c-30 0 -59.833 -6.83301 -89.5 -20.5s-51.167 -27.167 -64.5 -40.5l-21 -21l-215 226c4 5.33301 9.83301 12.333 17.5 21s25.167 24 52.5 46s57 41.5 89 58.5s74.333 32.667 127 47
s107.667 21.5 165 21.5c144.667 0 262.667 -41 354 -123s137 -181 137 -297v-614h-471v123c-2.66699 -4 -6 -9.16699 -10 -15.5s-14.167 -17.666 -30.5 -33.999s-33.666 -31 -51.999 -44s-43.333 -24.5 -75 -34.5s-64.5 -15 -98.5 -15z" />
    <glyph glyph-name="b" unicode="b" horiz-adv-x="1341" 
d="M840 1024c117.333 0 218.335 -48.5 303.002 -145.5s127 -222.667 127 -377s-42.333 -279.833 -127 -376.5s-185.667 -145 -303 -145c-54.667 0 -104.167 11.833 -148.5 35.5s-75.5 47.167 -93.5 70.5l-25 37v-123h-471v1434h471v-553c2.66699 4 6.16699 9 10.5 15
s14.666 17.167 30.999 33.5s33.666 31 51.999 44s43.333 24.667 75 35s64.5 15.5 98.5 15.5zM778.002 502c0 31.333 -9.5 56.166 -28.5 74.499s-43.5 27.5 -73.5 27.5s-54.667 -9.16699 -74 -27.5s-29 -43.166 -29 -74.499s9.66699 -56.333 29 -75s44 -28 74 -28
s54.5 9.33301 73.5 28s28.5 43.667 28.5 75z" />
    <glyph glyph-name="c" unicode="c" horiz-adv-x="1136" 
d="M543 502c0 -31.333 12.1621 -57.998 36.4951 -79.998s56.5 -33 96.5 -33c27.333 0 54 6.83301 80 20.5s44.333 27.5 55 41.5l18 20l277 -287c-4 -5.33301 -10.167 -12.833 -18.5 -22.5s-27.166 -27 -56.499 -52s-60.666 -46.833 -93.999 -65.5
s-77.333 -35.834 -132 -51.501s-111.334 -23.5 -170.001 -23.5c-166.667 0 -305.667 52.333 -417 157s-167 230 -167 376s55.667 271.167 167 375.5s250.333 156.5 417 156.5c58.667 0 115.334 -7.5 170.001 -22.5s99.334 -33 134.001 -54s65.334 -41.833 92.001 -62.5
s46.334 -38.334 59.001 -53.001l16 -23l-277 -287c-40.667 54.667 -91.667 82 -153 82c-39.333 0 -71.333 -10.833 -96 -32.5s-37 -48.167 -37 -79.5z" />
    <glyph glyph-name="d" unicode="d" horiz-adv-x="1341" 
d="M481 1024c54.667 0 104.165 -12.001 148.498 -36.001s74.833 -47.333 91.5 -70l27 -37v553h471v-1434h-471v123c-2.66699 -4 -6.16699 -9.16699 -10.5 -15.5s-14.666 -17.666 -30.999 -33.999s-33.666 -31 -51.999 -44s-43.333 -24.5 -75 -34.5s-64.5 -15 -98.5 -15
c-117.333 0 -218.333 48.333 -303 145s-127 222.167 -127 376.5s42.333 280 127 377s185.667 145.5 303 145.5zM542.998 501.999c0 -31.333 9.16699 -56.333 27.5 -75s43.166 -28 74.499 -28s56.333 9.33301 75 28s28 43.667 28 75s-9.33301 56.166 -28 74.499
s-43.667 27.5 -75 27.5s-56.166 -9.16699 -74.499 -27.5s-27.5 -43.166 -27.5 -74.499z" />
    <glyph glyph-name="e" unicode="e" horiz-adv-x="1228" 
d="M1157 410l-603.998 -0.00195312c2.66699 -5.33301 6.66699 -12.166 12 -20.499s22 -19 50 -32s62 -19.5 102 -19.5c27.333 0 55.333 4.5 84 13.5s51 17.5 67 25.5l23 12l164 -307c-12 -8 -29.333 -18.167 -52 -30.5s-70.5 -29.166 -143.5 -50.499
s-147.833 -32 -224.5 -32c-166.667 0 -305.667 52.333 -417 157s-167 230 -167 376c0 150 53.333 276.167 160 378.5s241 153.5 403 153.5c161.333 0 295.666 -50.167 402.999 -150.5s161 -220.833 161 -361.5c0 -22 -1.83301 -42.167 -5.5 -60.5
s-6.83398 -31.5 -9.50098 -39.5zM614.002 716.998c-26 0 -48.168 -9.66699 -66.501 -29s-30.166 -44 -35.499 -74h205c-5.33301 30 -17.333 54.667 -36 74s-41 29 -67 29z" />
    <glyph glyph-name="f" unicode="f" horiz-adv-x="880" 
d="M829 963v-410h-204v-553h-471v553h-123v410h123v41c0 142 38.167 252.5 114.5 331.5s181.5 118.5 315.5 118.5c42 0 83.5 -3.33301 124.5 -10s71.167 -13.667 90.5 -21l30 -10v-389c-27.333 13.333 -61.333 20 -102 20c-57.333 0 -91.333 -27 -102 -81h204z" />
    <glyph glyph-name="g" unicode="g" horiz-adv-x="1331" 
d="M543 543c0 -31.333 9.16699 -56.333 27.5 -75s43.166 -28 74.499 -28s56.333 9.33301 75 28s28 43.667 28 75s-9.33301 56.166 -28 74.499s-43.667 27.5 -75 27.5s-56.166 -9.16699 -74.499 -27.5s-27.5 -43.166 -27.5 -74.499zM82 -215l246.002 256
c5.33301 -5.33301 13.166 -12.833 23.499 -22.5s33.166 -22 68.499 -37s72.666 -22.5 111.999 -22.5c65.333 0 117.666 18.833 156.999 56.5s59 87.167 59 148.5v41c-2.66699 -4 -6.16699 -9.16699 -10.5 -15.5s-14.666 -17.666 -30.999 -33.999s-33.666 -31 -51.999 -44
s-43.333 -24.667 -75 -35s-64.5 -15.5 -98.5 -15.5c-114.667 0 -215 46.5 -301 139.5s-129 207 -129 342s43 249 129 342s186.333 139.5 301 139.5c54.667 0 104.167 -12 148.5 -36s74.833 -47.333 91.5 -70l27 -37v123h471v-840c0 -176 -58.5 -319 -175.5 -429
s-273.833 -165 -470.5 -165c-62.667 0 -122.667 7.5 -180 22.5s-104 32.667 -140 53s-67.667 41.166 -95 62.499s-47.333 39.333 -60 54z" />
    <glyph glyph-name="h" unicode="h" horiz-adv-x="1300" 
d="M573 1434l0.00488281 -553c2.66699 4 6.16699 9 10.5 15s14.666 17.167 30.999 33.5s33.666 31 51.999 44s43.166 24.667 74.499 35s64.333 15.5 99 15.5c100 0 183 -37.167 249 -111.5s99 -173.833 99 -298.5v-614h-471v492c0 24.667 -6.83301 44.334 -20.5 59.001
s-30.834 22 -51.501 22c-16.667 0 -32.834 -9.83301 -48.501 -29.5s-23.5 -43.834 -23.5 -72.501v-471h-471v1434h471z" />
    <glyph glyph-name="i" unicode="i" horiz-adv-x="716" 
d="M92 1311c0 62.667 24 115.834 72 159.501s109.5 65.5 184.5 65.5s136.333 -21.833 184 -65.5s71.5 -96.834 71.5 -159.501s-23.833 -116 -71.5 -160s-109 -66 -184 -66s-136.5 22 -184.5 66s-72 97.333 -72 160zM113 0v1004h471v-1004h-471z" />
    <glyph glyph-name="j" unicode="j" horiz-adv-x="716" 
d="M113 102v902h471v-984c0 -142 -38.333 -252.5 -115 -331.5s-181.667 -118.5 -315 -118.5c-42 0 -83.667 3.33301 -125 10s-71.333 13.667 -90 21l-31 10v409c27.333 -13.333 61.333 -20 102 -20c31.333 0 56.333 9.5 75 28.5s28 43.5 28 73.5zM92 1311
c0 62.667 24 115.834 72 159.501s109.5 65.5 184.5 65.5s136.333 -21.833 184 -65.5s71.5 -96.834 71.5 -159.501s-23.833 -116 -71.5 -160s-109 -66 -184 -66s-136.5 22 -184.5 66s-72 97.333 -72 160z" />
    <glyph glyph-name="k" unicode="k" horiz-adv-x="1269" 
d="M614 307l-41 -51v-256h-471v1434h471v-676l185 246h512l-332 -431l342 -573h-492z" />
    <glyph glyph-name="l" unicode="l" horiz-adv-x="696" 
d="M573 1434v-1434h-471v1434h471z" />
    <glyph glyph-name="m" unicode="m" horiz-adv-x="1863" 
d="M1280 0l-0.000976562 491.997c0 24.667 -6.16699 44.334 -18.5 59.001s-26.666 22 -42.999 22s-30.666 -8.5 -42.999 -25.5s-18.5 -42.5 -18.5 -76.5v-471h-471v492c0 24.667 -6.16699 44.334 -18.5 59.001s-26.666 22 -42.999 22s-30.666 -8.5 -42.999 -25.5
s-18.5 -42.5 -18.5 -76.5v-471h-471v1004h471v-123c2.66699 4 6.16699 9 10.5 15s14.333 17.167 30 33.5s32.667 31 51 44s42.166 24.667 71.499 35s60.333 15.5 93 15.5c36.667 0 71.167 -5.5 103.5 -16.5s58.666 -24.667 78.999 -41s38 -32.666 53 -48.999
s25.167 -29.833 30.5 -40.5l11 -17c2.66699 4 7 9.83301 13 17.5s19.333 21 40 40s42.167 35.667 64.5 50s51.666 27.333 87.999 39s73.5 17.5 111.5 17.5c101.333 0 183 -35.833 245 -107.5s93 -172.5 93 -302.5v-614h-471z" />
    <glyph glyph-name="n" unicode="n" 
d="M563 1004l0.00488281 -123c2.66699 4 6.16699 9 10.5 15s14.666 17.167 30.999 33.5s33.666 31 51.999 44s43.166 24.667 74.499 35s64 15.5 98 15.5c100 0 183.167 -37.167 249.5 -111.5s99.5 -173.833 99.5 -298.5v-614h-471v492
c0 24.667 -6.83301 44.334 -20.5 59.001s-30.834 22 -51.501 22c-16.667 0 -32.834 -9.83301 -48.501 -29.5s-23.5 -43.834 -23.5 -72.501v-471h-471v1004h471z" />
    <glyph glyph-name="o" unicode="o" 
d="M727 502c0 30 -8.83301 54.5 -26.5 73.5s-39.5 28.5 -65.5 28.5s-47.833 -9.5 -65.5 -28.5s-26.5 -43.5 -26.5 -73.5s8.83301 -54.667 26.5 -74s39.5 -29 65.5 -29s47.833 9.66699 65.5 29s26.5 44 26.5 74zM1219 502c0 -146 -55.667 -271.333 -167 -376
s-250.333 -157 -417 -157s-305.667 52.333 -417 157s-167 230 -167 376s55.667 271.167 167 375.5s250.333 156.5 417 156.5s305.667 -52.167 417 -156.5s167 -229.5 167 -375.5z" />
    <glyph glyph-name="p" unicode="p" horiz-adv-x="1331" 
d="M829 -20c-54.667 0 -104.164 11.833 -148.497 35.5s-74.5 47.167 -90.5 70.5l-27 37v-553h-471v1434h471v-123c2.66699 4 6.16699 9 10.5 15s14.666 17.167 30.999 33.5s33.666 31 51.999 44s43.166 24.667 74.499 35s64 15.5 98 15.5
c117.333 0 218.5 -48.5 303.5 -145.5s127.5 -222.667 127.5 -377s-42.5 -279.833 -127.5 -376.5s-186.167 -145 -303.5 -145zM768.003 502c0 31.333 -9.16699 56.166 -27.5 74.499s-43.333 27.5 -75 27.5s-56.667 -9.16699 -75 -27.5s-27.5 -43.166 -27.5 -74.499
s9.16699 -56.333 27.5 -75s43.333 -28 75 -28s56.667 9.33301 75 28s27.5 43.667 27.5 75z" />
    <glyph glyph-name="q" unicode="q" horiz-adv-x="1331" 
d="M481 -20c-117.333 0 -218.335 48.332 -303.002 144.999s-127 222.167 -127 376.5s42.333 280 127 377s185.667 145.5 303 145.5c54.667 0 104.167 -12 148.5 -36s74.833 -47.333 91.5 -70l27 -37v123h471v-1434h-471v553c-2.66699 -4 -6.16699 -9.16699 -10.5 -15.5
s-14.666 -17.666 -30.999 -33.999s-33.666 -31 -51.999 -44s-43.333 -24.5 -75 -34.5s-64.5 -15 -98.5 -15zM542.998 501.999c0 -31.333 9.16699 -56.333 27.5 -75s43.166 -28 74.499 -28s56.333 9.33301 75 28s28 43.667 28 75s-9.33301 56.166 -28 74.499
s-43.667 27.5 -75 27.5s-56.166 -9.16699 -74.499 -27.5s-27.5 -43.166 -27.5 -74.499z" />
    <glyph glyph-name="r" unicode="r" horiz-adv-x="901" 
d="M850 1024l0.00292969 -492c-27.333 13.333 -61.333 20.333 -102 21c-57.333 0 -102.5 -17.833 -135.5 -53.5s-49.5 -86.167 -49.5 -151.5v-348h-471v1004h471v-123c2.66699 4 6.16699 9 10.5 15s14.666 17.167 30.999 33.5s33.666 31 51.999 44s43.166 24.667 74.499 35
s64 15.5 98 15.5h21z" />
    <glyph glyph-name="s" unicode="s" horiz-adv-x="1054" 
d="M993 860l-204.999 -215.001c-27.333 27.333 -58 41 -92 41c-40.667 0 -61 -13.667 -61 -41c0 -9.33301 19.167 -20.833 57.5 -34.5s80.666 -28.667 126.999 -45s88.666 -47 126.999 -92s57.5 -100.5 57.5 -166.5c0 -92.667 -42.333 -172.167 -127 -238.5
s-203 -99.5 -355 -99.5c-66.667 0 -130 7.5 -190 22.5s-108.833 33.167 -146.5 54.5s-70.167 42.166 -97.5 62.499s-47 38.166 -59 53.499l-19 22l205 215c40.667 -54.667 92 -82 154 -82c40.667 0 61 13.667 61 41c0 8 -12.667 16.833 -38 26.5s-56 21 -92 34
s-72.167 29.833 -108.5 50.5s-67.166 51.834 -92.499 93.501s-38 89.834 -38 144.501c0 88.667 42 165.334 126 230.001s199 97 345 97c61.333 0 119 -6.16699 173 -18.5s97.833 -27 131.5 -44s63.167 -33.667 88.5 -50s43.333 -30.5 54 -42.5z" />
    <glyph glyph-name="t" unicode="t" horiz-adv-x="962" 
d="M829 1004l0.000976562 -390.001h-204v-102c0 -30 9.16699 -54.5 27.5 -73.5s43.166 -28.5 74.499 -28.5c18 0 35.5 1.66699 52.5 5s29.5 7 37.5 11l12 4v-410c-68 -27.333 -149.667 -40.666 -245 -39.999c-134 0 -239.167 39.5 -315.5 118.5s-114.5 189.5 -114.5 331.5
v184h-123v390h41c40.667 0 74.667 13.5 102 40.5s41 61.167 41 102.5v123h410v-266h204z" />
    <glyph glyph-name="u" unicode="u" horiz-adv-x="1300" 
d="M707 0l-0.00488281 122.998c-2.66699 -4 -6.16699 -9.16699 -10.5 -15.5s-14.666 -17.666 -30.999 -33.999s-33.666 -31 -51.999 -44s-43.166 -24.5 -74.499 -34.5s-64.333 -15 -99 -15c-100 0 -183 37.167 -249 111.5s-99 173.5 -99 297.5v615h471v-492
c0 -24.667 6.83301 -44.5 20.5 -59.5s30.834 -22.5 51.501 -22.5c16.667 0 32.834 9.83301 48.501 29.5s23.5 43.834 23.5 72.501v472h471v-1004h-471z" />
    <glyph glyph-name="v" unicode="v" horiz-adv-x="1167" 
d="M819 0h-491l-359 1004h492l112 -472l113 472h492z" />
    <glyph glyph-name="w" unicode="w" horiz-adv-x="1658" 
d="M942 0l-123 348l-123 -348h-368l-359 1004h492l102 -390l103 390h307l102 -390l103 390h491l-358 -1004h-369z" />
    <glyph glyph-name="x" unicode="x" horiz-adv-x="1146" 
d="M666 0l-103 225l-102 -225h-492l287 512l-276 492h491l92 -205l92 205h492l-277 -492l287 -512h-491z" />
    <glyph glyph-name="y" unicode="y" horiz-adv-x="1167" 
d="M307 61l-338.001 943.001h492l112 -472l113 472h492l-369 -1024c-98 -273.333 -262 -410 -492 -410c-42 0 -83.5 3.33301 -124.5 10s-71.167 13.667 -90.5 21l-30 10v409c27.333 -13.333 61.333 -20 102 -20c30 0 56.333 5.16699 79 15.5s37.334 20.166 44.001 29.499z
" />
    <glyph glyph-name="z" unicode="z" horiz-adv-x="1105" 
d="M1014 1004v-390l-338 -225h358v-389h-983v389l338 225h-317v390h942z" />
    <glyph glyph-name="braceleft" unicode="{" horiz-adv-x="1003" 
d="M82 737h20c40.667 0 74.834 13.667 102.501 41s41.5 61.666 41.5 102.999v163c0 122.667 37.5 221.667 112.5 297s173.833 113 296.5 113h267v-450h-62c-30 0 -54.5 -9.66699 -73.5 -29s-28.5 -44 -28.5 -74v-143c0 -60 -18.833 -110.5 -56.5 -151.5
s-74.834 -67.167 -111.501 -78.5l-58 -16c5.33301 -1.33301 13.166 -3.33301 23.499 -6s28.5 -9.83398 54.5 -21.501s49 -25.667 69 -42s38.167 -40.166 54.5 -71.499s24.5 -66.333 24.5 -105v-143c0 -30 9.5 -54.667 28.5 -74s43.5 -29 73.5 -29h62v-450h-267
c-122.667 0 -221.5 37.5 -296.5 112.5s-112.5 174.167 -112.5 297.5v163c0 40.667 -13.667 74.834 -41 102.501s-61.666 41.5 -102.999 41.5h-20v450z" />
    <glyph glyph-name="bar" unicode="|" horiz-adv-x="921" 
d="M717 1454v-1884h-512v1884h512z" />
    <glyph glyph-name="braceright" unicode="}" horiz-adv-x="1003" 
d="M901 737h21v-450h-21c-40.667 0 -74.667 -13.667 -102 -41s-41 -61.666 -41 -102.999v-163c0 -122.667 -37.667 -221.667 -113 -297s-174.333 -113 -297 -113h-266v450h61c30 0 54.667 9.66699 74 29s29 44 29 74v143c0 60 18.667 110.5 56 151.5
s74.666 67.167 111.999 78.5l57 16c-5.33301 1.33301 -13.166 3.33301 -23.499 6s-28.5 9.83398 -54.5 21.501s-48.833 25.667 -68.5 42s-37.667 40.166 -54 71.499s-24.5 66.333 -24.5 105v143c0 30 -9.66699 54.667 -29 74s-44 29 -74 29h-61v450h266
c122.667 0 221.667 -37.5 297 -112.5s113 -174.167 113 -297.5v-163c0 -40.667 13.667 -74.834 41 -102.501s61.333 -41.5 102 -41.5z" />
    <glyph glyph-name="asciitilde" unicode="~" horiz-adv-x="1228" 
d="M860 369c-57.333 0 -120.167 13.667 -188.5 41s-121.5 41 -159.5 41c-30 0 -58.667 -6.83301 -86 -20.5s-47 -27.5 -59 -41.5l-19 -20l-307 225c1.33301 6.66699 4 16.167 8 28.5s14.167 33.833 30.5 64.5s35.833 57.667 58.5 81s54.5 44.5 95.5 63.5
s86.167 28.5 135.5 28.5c57.333 0 120 -13.667 188 -41s121.333 -41 160 -41c30 0 58.667 6.83301 86 20.5s47 27.5 59 41.5l19 20l307 -225c-1.33301 -6.66699 -4 -16.167 -8 -28.5s-14.333 -33.833 -31 -64.5s-36.167 -57.667 -58.5 -81s-54 -44.5 -95 -63.5
s-86.167 -28.5 -135.5 -28.5z" />
    <glyph glyph-name="uni00A0" unicode="&#xa0;" horiz-adv-x="450" 
 />
    <glyph glyph-name="exclamdown" unicode="&#xa1;" horiz-adv-x="737" 
d="M164 481h409l82 -911h-573zM625 788.5c0 -67 -24 -123 -72 -168s-109.5 -67.5 -184.5 -67.5s-136.333 22.5 -184 67.5s-71.5 101 -71.5 168s23.833 123 71.5 168s109 67.5 184 67.5s136.5 -22.5 184.5 -67.5s72 -101 72 -168z" />
    <glyph glyph-name="cent" unicode="&#xa2;" horiz-adv-x="1136" 
d="M860 1188v-195.003c42 -12 83.667 -32.333 125 -61s72 -54.667 92 -78l29 -35l-277 -287c-40.667 54.667 -91.667 82 -153 82c-39.333 0 -71.333 -10.833 -96 -32.5s-37 -48.167 -37 -79.5s12.167 -58 36.5 -80s56.5 -33 96.5 -33c27.333 0 54 6.83301 80 20.5
s44.333 27.5 55 41.5l18 20l277 -287c-6.66699 -9.33301 -16.5 -21.166 -29.5 -35.499s-41 -37.166 -84 -68.499s-87.167 -54.666 -132.5 -69.999v-194h-430v184c-105.333 32.667 -194.833 94 -268.5 184s-110.5 195.833 -110.5 317.5s38.333 229 115 322
s164.667 153.167 264 180.5v184h430z" />
    <glyph glyph-name="sterling" unicode="&#xa3;" horiz-adv-x="1259" 
d="M205 860l-0.00195312 123.002c0 150 47.333 269.5 142 358.5s228.334 133.5 401.001 133.5c94 0 182 -16.5 264 -49.5s140.667 -65.833 176 -98.5l51 -47l-369 -348c-20.667 34 -48 51 -82 51c-20.667 0 -37.667 -6.83301 -51 -20.5s-20 -30.834 -20 -51.501v-51h256
v-287h-256c0 -18 -5.16699 -35.333 -15.5 -52s-20.166 -29.334 -29.499 -38.001l-17 -12h574v-471h-1147v471c82 0 123 34 123 102h-123v287h123z" />
    <glyph glyph-name="currency" unicode="&#xa4;" horiz-adv-x="1505" 
d="M61 860l134 -0.000976562v574h706c182.667 0 325.667 -43 429 -129s155 -193.167 155 -321.5s-51.5 -235.666 -154.5 -321.999s-246.167 -129.5 -429.5 -129.5h-174v-61h369v-328h-369v-143h-532v143h-134v328h134v61h-134v328zM860 1024h-133v-164h133
c24.667 0 46.167 8.5 64.5 25.5s27.5 35.833 27.5 56.5s-9.16699 39.5 -27.5 56.5s-39.833 25.5 -64.5 25.5z" />
    <glyph glyph-name="yen" unicode="&#xa5;" horiz-adv-x="1474" 
d="M532 1434l205 -441l205 441h574l-349 -615h103v-317h-266v-62h266v-317h-266v-123h-533v123h-266v317h266v62h-266v317h102l-348 615h573z" />
    <glyph glyph-name="brokenbar" unicode="&#xa6;" horiz-adv-x="921" 
d="M205 348h512v-778h-512v778zM717 676h-512v778h512v-778z" />
    <glyph glyph-name="section" unicode="&#xa7;" horiz-adv-x="1177" 
d="M1065 1300l-204.999 -215.001c-27.333 27.333 -58 41 -92 41c-40.667 0 -61 -13.667 -61 -41c0 -13.333 14 -28.166 42 -44.499s62 -34.833 102 -55.5s80.167 -45 120.5 -73s74.5 -65.833 102.5 -113.5s42 -102.167 42 -163.5c0 -34 -7.16699 -67.5 -21.5 -100.5
s-31.333 -60 -51 -81s-39.5 -40 -59.5 -57s-36.667 -29.167 -50 -36.5l-23 -12c4 -2.66699 10.167 -6 18.5 -10s22.333 -13.833 42 -29.5s37.5 -32.834 53.5 -51.501s30 -42.667 42 -72s18 -60.333 18 -93c0 -92.667 -42.333 -172.167 -127 -238.5
s-202.667 -99.5 -354 -99.5c-66.667 0 -130 7.5 -190 22.5s-108.833 32.833 -146.5 53.5s-70.167 41.5 -97.5 62.5s-47 39.167 -59 54.5l-19 22l205 215c40.667 -54.667 92 -82 154 -82c40.667 0 61 13.667 61 41c0 19.333 -10.5 38.5 -31.5 57.5s-47.667 36.333 -80 52
s-66.833 35.5 -103.5 59.5s-71.167 49.667 -103.5 77s-59 62.166 -80 104.499s-31.5 89.5 -31.5 141.5c0 34 6.5 66.667 19.5 98s28.333 56.666 46 75.999s35.334 36.5 53.001 51.5s32.834 25.833 45.501 32.5l20 8c-4 2.66699 -8.66699 6.16699 -14 10.5
s-15.833 14 -31.5 29s-29.334 31.333 -41.001 49s-22.334 40.834 -32.001 69.501s-14.5 58 -14.5 88c0 88.667 42 165.5 126 230.5s199 97.5 345 97.5c61.333 0 119 -6.16699 173 -18.5s97.667 -26.666 131 -42.999s62.666 -33.166 87.999 -50.499s43 -32 53 -44z
M676.001 603.999c0 27.333 -10.333 52.333 -31 75s-41 38 -61 46l-31 12c-20.667 -20.667 -31 -44.5 -31 -71.5s10.333 -51.833 31 -74.5s41 -38 61 -46l31 -13c20.667 20.667 31 44.667 31 72z" />
    <glyph glyph-name="dieresis" unicode="&#xa8;" horiz-adv-x="1085" 
d="M61 1321c0 57.333 22.333 107.5 67 150.5s97.667 64.5 159 64.5s114.166 -21.5 158.499 -64.5s66.5 -93.167 66.5 -150.5s-22.167 -107.5 -66.5 -150.5s-97.166 -64.5 -158.499 -64.5s-114.333 21.5 -159 64.5s-67 93.167 -67 150.5zM573 1321
c0 57.333 22.333 107.5 67 150.5s97.667 64.5 159 64.5s114.166 -21.5 158.499 -64.5s66.5 -93.167 66.5 -150.5s-22.167 -107.5 -66.5 -150.5s-97.166 -64.5 -158.499 -64.5s-114.333 21.5 -159 64.5s-67 93.167 -67 150.5z" />
    <glyph glyph-name="copyright" unicode="&#xa9;" horiz-adv-x="1720" 
d="M758 716.5c0 -41 13.668 -75.165 41.001 -102.498s61.333 -41 102 -41c30 0 58 6.16699 84 18.5s44.333 24.166 55 35.499l15 18l174 -174c-2.66699 -4 -6.83398 -9.83301 -12.501 -17.5s-18.667 -21 -39 -40s-42.833 -35.667 -67.5 -50s-57.5 -27.333 -98.5 -39
s-84.5 -17.5 -130.5 -17.5c-121.333 0 -223.333 40 -306 120s-124 176.667 -124 290s41.167 209.833 123.5 289.5s184.5 119.5 306.5 119.5c46.667 0 90 -5.33301 130 -16s73 -24.334 99 -41.001s48.167 -33.167 66.5 -49.5s31.833 -29.833 40.5 -40.5l12 -16l-174 -175
c-34 48 -85.333 72 -154 72c-40.667 0 -74.667 -13.667 -102 -41s-41 -61.5 -41 -102.5zM307.001 717.002c0 -148.667 55 -278 165 -388s239.333 -165 388 -165s278 55 388 165s165 239.333 165 388s-55 278 -165 388s-239.333 165 -388 165s-278 -55 -388 -165
s-165 -239.333 -165 -388zM61.001 716.502c0 215.667 77.167 399.334 231.5 551.001s343.5 227.5 567.5 227.5s413.167 -75.833 567.5 -227.5s231.5 -335.334 231.5 -551.001s-77.167 -399.167 -231.5 -550.5s-343.5 -227 -567.5 -227s-413.167 75.667 -567.5 227
s-231.5 334.833 -231.5 550.5z" />
    <glyph glyph-name="ordfeminine" unicode="&#xaa;" horiz-adv-x="839" 
d="M266 696c-65.333 0 -119.167 20.499 -161.5 61.499s-63.5 92.167 -63.5 153.5c0 128.667 82 207.334 246 236.001l174 31c-20.667 20.667 -55 30.667 -103 30c-22 0 -43.167 -3.33301 -63.5 -10s-35.166 -13.334 -44.499 -20.001l-14 -11l-154 164
c8 9.33301 19.833 20.833 35.5 34.5s52.5 31.834 110.5 54.501s122 34 192 34c106.667 0 193 -31 259 -93s99 -140.333 99 -235v-409h-317v71c-4 -6.66699 -10.833 -15 -20.5 -25s-31.334 -23.667 -65.001 -41s-70.167 -26 -109.5 -26zM460.999 1014l-51 -10.001
c-15.333 -2.66699 -27.833 -9.16699 -37.5 -19.5s-14.5 -21.166 -14.5 -32.499c0 -9.33301 4.5 -18.5 13.5 -27.5s18.167 -13.5 27.5 -13.5c16.667 0 31.167 7.5 43.5 22.5s18.5 34.833 18.5 59.5v21z" />
    <glyph glyph-name="guillemotleft" unicode="&#xab;" horiz-adv-x="1382" 
d="M768 881l-276 -389l276 -390h-430l-277 390l277 389h430zM1321 881l-277 -389l277 -390h-430l-277 390l277 389h430z" />
    <glyph glyph-name="logicalnot" unicode="&#xac;" horiz-adv-x="1044" 
d="M983 922v-615h-410v205h-512v410h922z" />
    <glyph glyph-name="uni00AD" unicode="&#xad;" horiz-adv-x="901" 
d="M840 819v-430h-779v430h779z" />
    <glyph glyph-name="registered" unicode="&#xae;" horiz-adv-x="1720" 
d="M819 543l0.00195312 -215.001h-307v778h389c95.333 0 172.166 -26.333 230.499 -79s87.5 -118.667 87.5 -198c0 -45.333 -10.333 -86.666 -31 -123.999s-41.334 -63.333 -62.001 -78l-30 -23l143 -276h-317zM819.002 849.999v-82h41c15.333 0 27.666 4.16699 36.999 12.5
s14 17.833 14 28.5s-4.66699 20.167 -14 28.5s-21.666 12.5 -36.999 12.5h-41zM307.002 716.999c0 -148.667 55 -278 165 -388s239.333 -165 388 -165s278 55 388 165s165 239.333 165 388s-55 278 -165 388s-239.333 165 -388 165s-278 -55 -388 -165
s-165 -239.333 -165 -388zM61.002 716.499c0 215.667 77.167 399.334 231.5 551.001s343.5 227.5 567.5 227.5s413.167 -75.833 567.5 -227.5s231.5 -335.334 231.5 -551.001s-77.167 -399.167 -231.5 -550.5s-343.5 -227 -567.5 -227s-413.167 75.667 -567.5 227
s-231.5 334.833 -231.5 550.5z" />
    <glyph glyph-name="macron" unicode="&#xaf;" horiz-adv-x="839" 
d="M778 1536v-348h-717v348h717z" />
    <glyph glyph-name="degree" unicode="&#xb0;" horiz-adv-x="860" 
d="M61 1106c0 92.667 36.333 173.834 109 243.501s159.5 104.5 260.5 104.5s187.667 -34.833 260 -104.5s108.5 -150.834 108.5 -243.501s-36.167 -173.834 -108.5 -243.501s-159 -104.5 -260 -104.5s-187.833 34.833 -260.5 104.5s-109 150.834 -109 243.501zM512 1106
c0 20.667 -8.16699 39.5 -24.5 56.5s-35.5 25.5 -57.5 25.5s-41.167 -8.5 -57.5 -25.5s-24.5 -35.833 -24.5 -56.5s8.16699 -39.5 24.5 -56.5s35.5 -25.5 57.5 -25.5s41.167 8.5 57.5 25.5s24.5 35.833 24.5 56.5z" />
    <glyph glyph-name="plusminus" unicode="&#xb1;" horiz-adv-x="1095" 
d="M338 420v246h-277v430h277v245h420v-245h276v-430h-276v-246h-420zM1034 379v-379h-973v379h973z" />
    <glyph glyph-name="uni00B2" unicode="&#xb2;" horiz-adv-x="727" 
d="M676 901l-635.002 -0.00292969c0 68 10.167 128.333 30.5 181s44.833 92.667 73.5 120s57.667 49.833 87 67.5s54.333 32 75 43s31 20.5 31 28.5c0 20.667 -10.333 31 -31 31c-9.33301 0 -17.5 -2.66699 -24.5 -8s-11.167 -10.666 -12.5 -15.999l-4 -7l-246 103
c2.66699 5.33301 6.5 12.833 11.5 22.5s17.333 26 37 49s41.834 43.5 66.501 61.5s57.834 34.5 99.501 49.5s86.5 22.5 134.5 22.5c98 0 175.333 -23 232 -69s85 -101.667 85 -167c0 -23.333 -3.66699 -45.166 -11 -65.499s-15.5 -37.666 -24.5 -51.999s-22 -29 -39 -44
s-30.667 -26 -41 -33s-25 -16.667 -44 -29s-30.5 -19.833 -34.5 -22.5h184v-266z" />
    <glyph glyph-name="uni00B3" unicode="&#xb3;" horiz-adv-x="727" 
d="M328 1157.5c0 11 -4.83398 20.4971 -14.501 28.4971s-22.167 12 -37.5 12h-71v164h71c27.333 0 41 10.167 41 30.5s-13.667 30.5 -41 30.5c-15.333 0 -29.666 -3.66699 -42.999 -11s-22.666 -14.333 -27.999 -21l-10 -11l-154 164c2.66699 2.66699 6 6.5 10 11.5
s15.333 13.5 34 25.5s39.167 22.5 61.5 31.5s53.333 17.333 93 25s82.834 11.5 129.501 11.5c96.667 0 172 -20.167 226 -60.5s81 -88.5 81 -144.5c0 -32.667 -10.333 -62.667 -31 -90s-41 -46.666 -61 -57.999l-31 -16c4 -1.33301 8.66699 -2.66602 14 -3.99902
s16 -6.5 32 -15.5s29.667 -19 41 -30s21.833 -26.667 31.5 -47s14.5 -42.833 14.5 -67.5c0 -60 -29 -112.5 -87 -157.5s-138.333 -67.5 -241 -67.5c-46.667 0 -89.667 3.66699 -129 11s-71.333 16.5 -96 27.5s-45.834 22.333 -63.501 34s-29.834 20.834 -36.501 27.501
l-13 13l154 163c27.333 -34 61.333 -51 102 -51c15.333 0 27.833 4.16699 37.5 12.5s14.5 18 14.5 29z" />
    <glyph glyph-name="acute" unicode="&#xb4;" horiz-adv-x="819" 
d="M61 1106l195 369h502l-277 -369h-420z" />
    <glyph glyph-name="mu" unicode="&#xb5;" horiz-adv-x="1300" 
d="M707 1004l470.997 -0.00292969v-523c0 -34 17 -51 51 -51l31 10v-420c-40.667 -27.333 -102.334 -40.666 -185.001 -39.999c-42 0 -80.5 5.33301 -115.5 16s-62.667 24.167 -83 40.5s-37.666 32.833 -51.999 49.5s-24.166 30.334 -29.499 41.001l-7 16
c-5.33301 -8 -13.333 -18.833 -24 -32.5s-35.5 -34.167 -74.5 -61.5s-81.167 -47 -126.5 -59v-420h-471v1434h471v-492c0 -24.667 6.83301 -44.5 20.5 -59.5s30.834 -22.5 51.501 -22.5c16.667 0 32.834 9.83301 48.501 29.5s23.5 43.834 23.5 72.501v472z" />
    <glyph glyph-name="paragraph" unicode="&#xb6;" horiz-adv-x="1515" 
d="M451 -205v799.002c-117.333 0 -218.5 41.667 -303.5 125s-127.5 181.666 -127.5 294.999s42.333 211.666 127 294.999s186 125 304 125h921v-1639h-409v1168h-103v-1168h-409z" />
    <glyph glyph-name="periodcentered" unicode="&#xb7;" horiz-adv-x="450" 
d="M-31 512c0 66.667 24 122.667 72 168s109.5 68 184.5 68s136.333 -22.667 184 -68s71.5 -101.333 71.5 -168s-23.833 -122.667 -71.5 -168s-109 -68 -184 -68s-136.5 22.667 -184.5 68s-72 101.333 -72 168z" />
    <glyph glyph-name="cedilla" unicode="&#xb8;" horiz-adv-x="727" 
d="M287 41h193.999l-61 -123c6.66699 -1.33301 15.5 -3 26.5 -5s30.5 -8.16699 58.5 -18.5s52.833 -23 74.5 -38s41.5 -36.833 59.5 -65.5s27 -61.334 27 -98.001c0 -69.333 -27.667 -127.666 -83 -174.999s-130.333 -71 -225 -71c-54.667 0 -106.5 8.5 -155.5 25.5
s-85.167 34.5 -108.5 52.5l-33 24l113 175c40.667 -34 81.5 -51.167 122.5 -51.5s61.5 13.167 61.5 40.5c0 10.667 -4.66699 20.167 -14 28.5s-21.666 12.5 -36.999 12.5l-41 -10l-71 92z" />
    <glyph glyph-name="uni00B9" unicode="&#xb9;" horiz-adv-x="532" 
d="M184 1638h286.999v-737h-317v410h-134v225c36.667 5.33301 68.834 16.5 96.501 33.5s46.167 33.167 55.5 48.5z" />
    <glyph glyph-name="ordmasculine" unicode="&#xba;" horiz-adv-x="880" 
d="M840 1075.5c0 -103.667 -38.667 -192.834 -116 -267.501s-172 -112 -284 -112s-206.5 37.333 -283.5 112s-115.5 163.834 -115.5 267.501s38.5 192.667 115.5 267s171.5 111.5 283.5 111.5s206.667 -37.167 284 -111.5s116 -163.333 116 -267zM358 1075
c0 -20.667 8.66699 -39.5 26 -56.5s36.166 -25.5 56.499 -25.5s39 8.5 56 25.5s25.5 35.833 25.5 56.5s-8.5 39.5 -25.5 56.5s-35.667 25.5 -56 25.5s-39.166 -8.5 -56.499 -25.5s-26 -35.833 -26 -56.5z" />
    <glyph glyph-name="guillemotright" unicode="&#xbb;" horiz-adv-x="1382" 
d="M891 492l-277 389h430l277 -389l-277 -390h-430zM338 492l-277 389h431l276 -389l-276 -390h-431z" />
    <glyph glyph-name="onequarter" unicode="&#xbc;" horiz-adv-x="1699" 
d="M164 0l901 1434h451l-902 -1434h-450zM205 1434l287 0.000976562v-738h-318v410h-133v225c36.667 5.33301 68.667 16.666 96 33.999s46 33.333 56 48zM1608 369.001h71v-267h-71v-102h-318v102h-307v246l328 389h297v-368zM1311 348.001v103l-90 -103h90z" />
    <glyph glyph-name="onehalf" unicode="&#xbd;" horiz-adv-x="1771" 
d="M164 0l901 1434h451l-902 -1434h-450zM205 1434l287 0.000976562v-738h-318v410h-133v225c36.667 5.33301 68.667 16.666 96 33.999s46 33.333 56 48zM1720 0.000976562l-635.001 -0.00195312c0 68 10.333 128.333 31 181s45.334 92.667 74.001 120
s57.667 49.833 87 67.5s54.166 32 74.499 43s30.5 20.5 30.5 28.5c0 20.667 -10 31 -30 31c-9.33301 0 -17.5 -2.66699 -24.5 -8s-11.167 -11 -12.5 -17l-4 -6l-246 103c2.66699 5.33301 6.33398 12.833 11.001 22.5s17 26 37 49s42.333 43.333 67 61s57.667 34.167 99 49.5
s86 23 134 23c98 0 175.5 -23 232.5 -69s85.5 -101.667 85.5 -167c0 -23.333 -3.83301 -45.166 -11.5 -65.499s-16 -37.666 -25 -51.999s-22 -29 -39 -44s-30.667 -26 -41 -33s-25 -16.667 -44 -29s-30.5 -19.833 -34.5 -22.5h184v-266z" />
    <glyph glyph-name="threequarters" unicode="&#xbe;" horiz-adv-x="1781" 
d="M246 0l901 1434h450l-901 -1434h-450zM1690 369h71v-267h-71v-102h-318v102h-307v246l328 389h297v-368zM1393 348v103l-90 -103h90zM307 952.5c0 11 -4.66992 20.498 -14.0029 28.498s-21.666 12 -36.999 12h-72v164h72c27.333 0 41 10.333 41 31s-13.667 31 -41 31
c-15.333 0 -29.666 -3.83301 -42.999 -11.5s-23 -14.834 -29 -21.501l-10 -10l-154 163c2.66699 2.66699 6.16699 6.5 10.5 11.5s15.666 13.667 33.999 26s38.833 22.833 61.5 31.5s53.834 16.834 93.501 24.501s82.5 11.5 128.5 11.5c96.667 0 172 -20.167 226 -60.5
s81 -88.5 81 -144.5c0 -32.667 -10.167 -62.667 -30.5 -90s-40.833 -46.333 -61.5 -57l-31 -17c4 -1.33301 8.83301 -2.66602 14.5 -3.99902s16.334 -6.5 32.001 -15.5s29.334 -18.833 41.001 -29.5s22.334 -26.334 32.001 -47.001s14.5 -43.334 14.5 -68.001
c0 -60 -29 -112.5 -87 -157.5s-138.333 -67.5 -241 -67.5c-46.667 0 -89.667 3.83301 -129 11.5s-71.333 16.834 -96 27.501s-45.834 21.834 -63.501 33.501s-30.167 20.834 -37.5 27.501l-12 13l154 164c27.333 -34 61.333 -51.333 102 -52
c15.333 0 27.666 4.16699 36.999 12.5s14 18 14 29z" />
    <glyph glyph-name="questiondown" unicode="&#xbf;" horiz-adv-x="1105" 
d="M412 481l448 0.00488281c6.66699 -20.667 10 -44.334 10 -71.001c0 -56 -13.167 -104.5 -39.5 -145.5s-55.666 -70.833 -87.999 -89.5s-61.833 -36.834 -88.5 -54.501s-40 -33.834 -40 -48.501c0 -34 20.667 -51.333 62 -52c18 0 35.5 5.16699 52.5 15.5
s29.5 20.5 37.5 30.5l12 16l451 -205c-4 -9.33301 -10.833 -21.833 -20.5 -37.5s-32.334 -43.334 -68.001 -83.001s-75 -74.834 -118 -105.501s-102 -58.667 -177 -84s-155.5 -38 -241.5 -38c-177.333 0 -319 44 -425 132s-159 194.333 -159 319
c0 70.667 15.167 131 45.5 181s64.5 87.167 102.5 111.5s81.667 55 131 92s87 75.833 113 116.5zM891 788.505c0 -67 -23.833 -123 -71.5 -168s-109.167 -67.5 -184.5 -67.5s-136.833 22.5 -184.5 67.5s-71.5 101 -71.5 168s23.833 123 71.5 168s109.167 67.5 184.5 67.5
s136.833 -22.5 184.5 -67.5s71.5 -101 71.5 -168z" />
    <glyph glyph-name="Agrave" unicode="&#xc0;" horiz-adv-x="1536" 
d="M1065 1434l512 -1434h-573l-62 246h-348l-62 -246h-573l512 1434h594zM840 635l-72 287l-72 -287h144zM768 1946l195 -369h-420l-277 369h502z" />
    <glyph glyph-name="Aacute" unicode="&#xc1;" horiz-adv-x="1536" 
d="M1065 1434l512 -1434h-573l-62 246h-348l-62 -246h-573l512 1434h594zM840 635l-72 287l-72 -287h144zM563 1577l195 369h502l-277 -369h-420z" />
    <glyph glyph-name="Acircumflex" unicode="&#xc2;" horiz-adv-x="1536" 
d="M1065 1434l512 -1434h-573l-62 246h-348l-62 -246h-573l512 1434h594zM840 635l-72 287l-72 -287h144zM256 1577l307 369h410l307 -369h-430l-82 123l-82 -123h-430z" />
    <glyph glyph-name="Atilde" unicode="&#xc3;" horiz-adv-x="1536" 
d="M1065 1434l512 -1434h-573l-62 246h-348l-62 -246h-573l512 1434h594zM840 635l-72 287l-72 -287h144zM877 1946h286v-123c0 -79.333 -21.833 -143.666 -65.5 -192.999s-96.834 -74 -159.501 -74c-46.667 0 -91.5 12 -134.5 36s-69.833 36 -80.5 36
c-40.667 0 -61 -24 -61 -72h-287v123c0 79.333 21.833 143.666 65.5 192.999s96.834 74 159.501 74c46.667 0 91.5 -12 134.5 -36s69.833 -36 80.5 -36c41.333 0 62 24 62 72z" />
    <glyph glyph-name="Adieresis" unicode="&#xc4;" horiz-adv-x="1536" 
d="M1065 1434l512 -1434h-573l-62 246h-348l-62 -246h-573l512 1434h594zM840 635l-72 287l-72 -287h144zM287 1772c0 57.333 22.167 107.5 66.5 150.5s97.166 64.5 158.499 64.5s114.166 -21.5 158.499 -64.5s66.5 -93.167 66.5 -150.5s-22.167 -107.666 -66.5 -150.999
s-97.166 -65 -158.499 -65s-114.166 21.667 -158.499 65s-66.5 93.666 -66.5 150.999zM799 1772c0 57.333 22.167 107.5 66.5 150.5s97.166 64.5 158.499 64.5s114.166 -21.5 158.499 -64.5s66.5 -93.167 66.5 -150.5s-22.167 -107.666 -66.5 -150.999
s-97.166 -65 -158.499 -65s-114.166 21.667 -158.499 65s-66.5 93.666 -66.5 150.999z" />
    <glyph glyph-name="Aring" unicode="&#xc5;" horiz-adv-x="1536" 
d="M1065 1434l512 -1434h-573l-62 246h-348l-62 -246h-573l512 1434h594zM840 635l-72 287l-72 -287h144zM840 1802.5c0 20.333 -6.83301 37.333 -20.5 51s-30.834 20.5 -51.501 20.5s-37.834 -6.83301 -51.501 -20.5s-20.5 -30.667 -20.5 -51s6.83301 -37.333 20.5 -51
s30.834 -20.5 51.501 -20.5s37.834 6.83301 51.501 20.5s20.5 30.667 20.5 51zM1075 1802.5c0 -77.667 -29.667 -144.834 -89 -201.501s-132 -85 -218 -85s-158.667 28.333 -218 85s-89 123.834 -89 201.501s29.667 144.834 89 201.501s132 85 218 85
s158.667 -28.333 218 -85s89 -123.834 89 -201.501z" />
    <glyph glyph-name="AE" unicode="&#xc6;" horiz-adv-x="2170" 
d="M-123 0l799 1434h1392v-430h-583v-93h420v-389h-420v-92h604v-430h-1137v266h-389l-143 -266h-543zM952 963l-164 -287h164v287z" />
    <glyph glyph-name="Ccedilla" unicode="&#xc7;" horiz-adv-x="1546" 
d="M1208 573l317.996 -327c-5.33301 -6.66699 -13.166 -16.167 -23.499 -28.5s-34 -34.333 -71 -66s-77 -59.667 -120 -84s-99.667 -47.5 -170 -69.5s-143.5 -35 -219.5 -39l-21 -41c6.66699 -1.33301 15.5 -3 26.5 -5s30.5 -8.16699 58.5 -18.5s53 -23 75 -38
s41.833 -36.833 59.5 -65.5s26.5 -61.334 26.5 -98.001c0 -69.333 -27.667 -127.666 -83 -174.999s-130 -71 -224 -71c-54.667 0 -106.667 8.5 -156 25.5s-84.666 34.5 -105.999 52.5l-35 24l112 175c40.667 -34 81.667 -51.167 123 -51.5s62 13.167 62 40.5
c0 10.667 -4.83301 20.167 -14.5 28.5s-22.167 12.5 -37.5 12.5l-40 -10l-72 92l61 133c-188.667 26 -348.5 109.333 -479.5 250s-196.5 306.667 -196.5 498c0 207.333 78.5 385.5 235.5 534.5s351.833 223.5 584.5 223.5c80.667 0 157.834 -10 231.501 -30
s134.334 -44 182.001 -72s90 -56 127 -84s63.5 -52 79.5 -72l25 -29l-318 -328c-9.33301 10.667 -22.5 24 -39.5 40s-52.167 37.333 -105.5 64s-107.333 40 -162 40c-86 0 -158.667 -28.333 -218 -85s-89 -124 -89 -202s29.667 -145.333 89 -202s132 -85 218 -85
c54.667 0 107.667 12 159 36s88.333 47.667 111 71z" />
    <glyph glyph-name="Egrave" unicode="&#xc8;" horiz-adv-x="1423" 
d="M676 430h665v-430h-1198v1434h1178v-430h-645v-93h481v-389h-481v-92zM768 1946l195 -369h-420l-277 369h502z" />
    <glyph glyph-name="Eacute" unicode="&#xc9;" horiz-adv-x="1423" 
d="M676 430h665v-430h-1198v1434h1178v-430h-645v-93h481v-389h-481v-92zM512 1577l195 369h501l-276 -369h-420z" />
    <glyph glyph-name="Ecircumflex" unicode="&#xca;" horiz-adv-x="1423" 
d="M676 430h665v-430h-1198v1434h1178v-430h-645v-93h481v-389h-481v-92zM225 1577l307 369h410l307 -369h-430l-82 123l-82 -123h-430z" />
    <glyph glyph-name="Edieresis" unicode="&#xcb;" horiz-adv-x="1423" 
d="M676 430h665v-430h-1198v1434h1178v-430h-645v-93h481v-389h-481v-92zM246 1772c0 57.333 22.167 107.5 66.5 150.5s97.166 64.5 158.499 64.5s114.166 -21.5 158.499 -64.5s66.5 -93.167 66.5 -150.5s-22.167 -107.666 -66.5 -150.999s-97.166 -65 -158.499 -65
s-114.166 21.667 -158.499 65s-66.5 93.666 -66.5 150.999zM758 1772c0 57.333 22.167 107.5 66.5 150.5s97.166 64.5 158.499 64.5s114.166 -21.5 158.499 -64.5s66.5 -93.167 66.5 -150.5s-22.167 -107.666 -66.5 -150.999s-97.166 -65 -158.499 -65
s-114.166 21.667 -158.499 65s-66.5 93.666 -66.5 150.999z" />
    <glyph glyph-name="Igrave" unicode="&#xcc;" horiz-adv-x="819" 
d="M143 0v1434h533v-1434h-533zM430 1946l195 -369h-420l-277 369h502z" />
    <glyph glyph-name="Iacute" unicode="&#xcd;" horiz-adv-x="819" 
d="M143 0v1434h533v-1434h-533zM195 1577l194 369h502l-277 -369h-419z" />
    <glyph glyph-name="Icircumflex" unicode="&#xce;" horiz-adv-x="819" 
d="M143 0v1434h533v-1434h-533zM-102 1577l307 369h409l308 -369h-430l-82 123l-82 -123h-430z" />
    <glyph glyph-name="Idieresis" unicode="&#xcf;" horiz-adv-x="819" 
d="M143 0v1434h533v-1434h-533zM-72 1772c0 57.333 22.167 107.5 66.5 150.5s97.333 64.5 159 64.5s114.667 -21.5 159 -64.5s66.5 -93.167 66.5 -150.5s-22.167 -107.666 -66.5 -150.999s-97.333 -65 -159 -65s-114.667 21.667 -159 65s-66.5 93.666 -66.5 150.999z
M440 1772c0 57.333 22.167 107.5 66.5 150.5s97.333 64.5 159 64.5s114.667 -21.5 159 -64.5s66.5 -93.167 66.5 -150.5s-22.167 -107.666 -66.5 -150.999s-97.333 -65 -159 -65s-114.667 21.667 -159 65s-66.5 93.666 -66.5 150.999z" />
    <glyph glyph-name="Eth" unicode="&#xd0;" horiz-adv-x="1628" 
d="M1567 717c0 -198 -75.5 -367 -226.5 -507s-341.833 -210 -572.5 -210h-594v532h-133v369h133v533h594c230.667 0 421.5 -70 572.5 -210s226.5 -309 226.5 -507zM707 451l61 0.000976562c76.667 0 140.167 25.167 190.5 75.5s75.5 113.666 75.5 189.999
s-25.167 139.833 -75.5 190.5s-113.833 76 -190.5 76h-61v-82h153v-369h-153v-81z" />
    <glyph glyph-name="Ntilde" unicode="&#xd1;" horiz-adv-x="1730" 
d="M1055 1434h532v-1434h-450l-461 594v-594h-533v1434h451l461 -594v594zM963 1946h286v-123c0 -79.333 -21.833 -143.666 -65.5 -192.999s-96.834 -74 -159.501 -74c-46.667 0 -91.5 12 -134.5 36s-69.833 36 -80.5 36c-40.667 0 -61 -24 -61 -72h-287v123
c0 79.333 21.833 143.666 65.5 192.999s96.834 74 159.501 74c46.667 0 91.5 -12 134.5 -36s69.833 -36 80.5 -36c41.333 0 62 24 62 72z" />
    <glyph glyph-name="Ograve" unicode="&#xd2;" horiz-adv-x="1761" 
d="M1700 717c0 -207.333 -78.5 -385.5 -235.5 -534.5s-351.667 -223.5 -584 -223.5s-427 74.5 -584 223.5s-235.5 327.167 -235.5 534.5s78.5 385.5 235.5 534.5s351.667 223.5 584 223.5s427 -74.5 584 -223.5s235.5 -327.167 235.5 -534.5zM1167 716.5
c0 76.333 -28.667 143.333 -86 201s-124.166 86.5 -200.499 86.5s-143.166 -28.833 -200.499 -86.5s-86 -124.667 -86 -201s28.667 -143.166 86 -200.499s124.166 -86 200.499 -86s143.166 28.667 200.499 86s86 124.166 86 200.499zM901 1946l195 -369h-420l-277 369h502z
" />
    <glyph glyph-name="Oacute" unicode="&#xd3;" horiz-adv-x="1761" 
d="M1700 717c0 -207.333 -78.5 -385.5 -235.5 -534.5s-351.667 -223.5 -584 -223.5s-427 74.5 -584 223.5s-235.5 327.167 -235.5 534.5s78.5 385.5 235.5 534.5s351.667 223.5 584 223.5s427 -74.5 584 -223.5s235.5 -327.167 235.5 -534.5zM1167 716.5
c0 76.333 -28.667 143.333 -86 201s-124.166 86.5 -200.499 86.5s-143.166 -28.833 -200.499 -86.5s-86 -124.667 -86 -201s28.667 -143.166 86 -200.499s124.166 -86 200.499 -86s143.166 28.667 200.499 86s86 124.166 86 200.499zM666 1577l194 369h502l-277 -369h-419z
" />
    <glyph glyph-name="Ocircumflex" unicode="&#xd4;" horiz-adv-x="1761" 
d="M1700 717c0 -207.333 -78.5 -385.5 -235.5 -534.5s-351.667 -223.5 -584 -223.5s-427 74.5 -584 223.5s-235.5 327.167 -235.5 534.5s78.5 385.5 235.5 534.5s351.667 223.5 584 223.5s427 -74.5 584 -223.5s235.5 -327.167 235.5 -534.5zM1167 716.5
c0 76.333 -28.667 143.333 -86 201s-124.166 86.5 -200.499 86.5s-143.166 -28.833 -200.499 -86.5s-86 -124.667 -86 -201s28.667 -143.166 86 -200.499s124.166 -86 200.499 -86s143.166 28.667 200.499 86s86 124.166 86 200.499zM369 1577l307 369h409l308 -369h-430
l-82 123l-82 -123h-430z" />
    <glyph glyph-name="Otilde" unicode="&#xd5;" horiz-adv-x="1761" 
d="M1700 717c0 -207.333 -78.5 -385.5 -235.5 -534.5s-351.667 -223.5 -584 -223.5s-427 74.5 -584 223.5s-235.5 327.167 -235.5 534.5s78.5 385.5 235.5 534.5s351.667 223.5 584 223.5s427 -74.5 584 -223.5s235.5 -327.167 235.5 -534.5zM1167 716.5
c0 76.333 -28.667 143.333 -86 201s-124.166 86.5 -200.499 86.5s-143.166 -28.833 -200.499 -86.5s-86 -124.667 -86 -201s28.667 -143.166 86 -200.499s124.166 -86 200.499 -86s143.166 28.667 200.499 86s86 124.166 86 200.499zM993 1966h287v-123
c0 -79.333 -21.833 -143.5 -65.5 -192.5s-96.834 -73.5 -159.501 -73.5c-46.667 0 -91.5 12 -134.5 36s-69.833 36 -80.5 36c-40.667 0 -61.334 -24 -62.001 -72h-286v123c0 79.333 21.833 143.5 65.5 192.5s96.834 73.5 159.501 73.5c46.667 0 91.334 -12 134.001 -36
s69.667 -36 81 -36c40.667 0 61 24 61 72z" />
    <glyph glyph-name="Odieresis" unicode="&#xd6;" horiz-adv-x="1761" 
d="M1700 717c0 -207.333 -78.5 -385.5 -235.5 -534.5s-351.667 -223.5 -584 -223.5s-427 74.5 -584 223.5s-235.5 327.167 -235.5 534.5s78.5 385.5 235.5 534.5s351.667 223.5 584 223.5s427 -74.5 584 -223.5s235.5 -327.167 235.5 -534.5zM1167 716.5
c0 76.333 -28.667 143.333 -86 201s-124.166 86.5 -200.499 86.5s-143.166 -28.833 -200.499 -86.5s-86 -124.667 -86 -201s28.667 -143.166 86 -200.499s124.166 -86 200.499 -86s143.166 28.667 200.499 86s86 124.166 86 200.499zM399 1772
c0 57.333 22.167 107.5 66.5 150.5s97.333 64.5 159 64.5s114.667 -21.5 159 -64.5s66.5 -93.167 66.5 -150.5s-22.167 -107.666 -66.5 -150.999s-97.333 -65 -159 -65s-114.667 21.667 -159 65s-66.5 93.666 -66.5 150.999zM911 1772c0 57.333 22.167 107.5 66.5 150.5
s97.333 64.5 159 64.5s114.667 -21.5 159 -64.5s66.5 -93.167 66.5 -150.5s-22.167 -107.666 -66.5 -150.999s-97.333 -65 -159 -65s-114.667 21.667 -159 65s-66.5 93.666 -66.5 150.999z" />
    <glyph glyph-name="multiply" unicode="&#xd7;" horiz-adv-x="1105" 
d="M61 420l215 215l-215 215l277 276l215 -215l215 215l276 -276l-215 -215l215 -215l-276 -277l-215 215l-215 -215z" />
    <glyph glyph-name="Oslash" unicode="&#xd8;" horiz-adv-x="1781" 
d="M573 645l410 388.999c-27.333 6.66699 -58 10 -92 10c-87.333 0 -163.833 -32.667 -229.5 -98s-98.5 -141.666 -98.5 -228.999zM1710 716.999c0 -207.333 -78.501 -385.499 -235.501 -534.499s-351.5 -223.5 -583.5 -223.5c-79.333 0 -155.5 9.16699 -228.5 27.5
s-126.5 37.166 -160.5 56.499l-51 29l-175 -154l-235 246l154 143c-9.33301 13.333 -21 31.666 -35 54.999s-32.167 70.833 -54.5 142.5s-33.5 142.5 -33.5 212.5c0 207.333 78.5 385.5 235.5 534.5s351.5 223.5 583.5 223.5c79.333 0 155.5 -9.66699 228.5 -29
s126.5 -38.333 160.5 -57l51 -27l174 154l236 -246l-154 -144c9.33301 -13.333 20.833 -31.666 34.5 -54.999s31.834 -70.833 54.501 -142.5s34 -142.167 34 -211.5zM1208 788l-409 -389c27.333 -6.66699 58 -10 92 -10c87.333 0 163.833 32.833 229.5 98.5
s98.5 142.167 98.5 229.5z" />
    <glyph glyph-name="Ugrave" unicode="&#xd9;" horiz-adv-x="1658" 
d="M829.5 430c46.333 0 87.002 18.167 122.002 54.5s52.5 79.5 52.5 129.5v820h532v-820c0 -187.333 -65.833 -343.333 -197.5 -468s-301.334 -187 -509.001 -187s-377.334 62.5 -509.001 187.5s-197.5 280.833 -197.5 467.5v820h532v-820c0 -50.667 17.5 -94 52.5 -130
s75.667 -54 122 -54zM850.002 1946l194 -369h-419l-277 369h502z" />
    <glyph glyph-name="Uacute" unicode="&#xda;" horiz-adv-x="1658" 
d="M829.5 430c46.333 0 87.002 18.167 122.002 54.5s52.5 79.5 52.5 129.5v820h532v-820c0 -187.333 -65.833 -343.333 -197.5 -468s-301.334 -187 -509.001 -187s-377.334 62.5 -509.001 187.5s-197.5 280.833 -197.5 467.5v820h532v-820c0 -50.667 17.5 -94 52.5 -130
s75.667 -54 122 -54zM625.002 1577l194 369h502l-277 -369h-419z" />
    <glyph glyph-name="Ucircumflex" unicode="&#xdb;" horiz-adv-x="1658" 
d="M829.5 430c46.333 0 87.002 18.167 122.002 54.5s52.5 79.5 52.5 129.5v820h532v-820c0 -187.333 -65.833 -343.333 -197.5 -468s-301.334 -187 -509.001 -187s-377.334 62.5 -509.001 187.5s-197.5 280.833 -197.5 467.5v820h532v-820c0 -50.667 17.5 -94 52.5 -130
s75.667 -54 122 -54zM317.002 1577l308 369h409l307 -369h-430l-82 123l-81 -123h-431z" />
    <glyph glyph-name="Udieresis" unicode="&#xdc;" horiz-adv-x="1658" 
d="M829.5 430c46.333 0 87.002 18.167 122.002 54.5s52.5 79.5 52.5 129.5v820h532v-820c0 -187.333 -65.833 -343.333 -197.5 -468s-301.334 -187 -509.001 -187s-377.334 62.5 -509.001 187.5s-197.5 280.833 -197.5 467.5v820h532v-820c0 -50.667 17.5 -94 52.5 -130
s75.667 -54 122 -54zM348.002 1772c0 57.333 22.167 107.5 66.5 150.5s97.333 64.5 159 64.5s114.667 -21.5 159 -64.5s66.5 -93.167 66.5 -150.5s-22.167 -107.666 -66.5 -150.999s-97.333 -65 -159 -65s-114.667 21.667 -159 65s-66.5 93.666 -66.5 150.999zM860.002 1772
c0 57.333 22.167 107.5 66.5 150.5s97.333 64.5 159 64.5s114.667 -21.5 159 -64.5s66.5 -93.167 66.5 -150.5s-22.167 -107.666 -66.5 -150.999s-97.333 -65 -159 -65s-114.667 21.667 -159 65s-66.5 93.666 -66.5 150.999z" />
    <glyph glyph-name="Yacute" unicode="&#xdd;" horiz-adv-x="1474" 
d="M532 1434l205 -441l205 441h574l-512 -922v-512h-533v512l-512 922h573zM532 1577l195 369h502l-277 -369h-420z" />
    <glyph glyph-name="Thorn" unicode="&#xde;" horiz-adv-x="1443" 
d="M143 1475l533 -0.00195312v-154h72c191.333 0 348.333 -56.667 471 -170s184 -251.166 184 -413.499s-61.5 -300.166 -184.5 -413.499s-279.833 -170 -470.5 -170h-72v-195h-533v1516zM686 910.998h-10v-348h10c56 0 100.667 16 134 48s50 74 50 126s-16.667 94 -50 126
s-78 48 -134 48z" />
    <glyph glyph-name="germandbls" unicode="&#xdf;" horiz-adv-x="1331" 
d="M1004 778c6.66699 -2.66699 16.498 -6.33301 29.498 -11s35.167 -16.167 66.5 -34.5s59.333 -39.5 84 -63.5s46.834 -57.5 66.501 -100.5s29.5 -89.167 29.5 -138.5c0 -118.667 -51.5 -220 -154.5 -304s-242.5 -126 -418.5 -126h-72v410h72c15.333 0 29.333 6.5 42 19.5
s19 27 19 42s-6.5 28.833 -19.5 41.5s-26.833 19 -41.5 19h-72v390h20c15.333 0 29.5 6.5 42.5 19.5s19.5 27 19.5 42s-6.5 28.833 -19.5 41.5s-27.167 19 -42.5 19c-22 0 -41.167 -9.5 -57.5 -28.5s-24.5 -43.5 -24.5 -73.5v-942h-471v942
c0 155.333 50.167 279.5 150.5 372.5s241.5 139.5 423.5 139.5c147.333 0 266 -38.167 356 -114.5s135 -167.833 135 -274.5c0 -60 -13.667 -114 -41 -162s-54.666 -80.667 -81.999 -98z" />
    <glyph glyph-name="agrave" unicode="&#xe0;" horiz-adv-x="1157" 
d="M512 307c27.333 0 49.501 10.668 66.501 32.001s25.5 51.666 25.5 90.999l-82 -20c-40.667 -12 -61 -32.667 -61 -62c0 -10.667 4.66699 -20.167 14 -28.5s21.666 -12.5 36.999 -12.5zM307.001 -19.999c-78 0 -143.501 27.166 -196.501 81.499s-79.5 122.5 -79.5 204.5
s29 151.667 87 209s138 97 240 119l246 51c-20.667 34 -58 51 -112 51c-30 0 -59.833 -6.83301 -89.5 -20.5s-51.167 -27.167 -64.5 -40.5l-21 -21l-215 226c4 5.33301 9.83301 12.333 17.5 21s25.167 24 52.5 46s57 41.5 89 58.5s74.333 32.667 127 47
s107.667 21.5 165 21.5c144.667 0 262.667 -41 354 -123s137 -181 137 -297v-614h-471v123c-2.66699 -4 -6 -9.16699 -10 -15.5s-14.167 -17.666 -30.5 -33.999s-33.666 -31 -51.999 -44s-43.333 -24.5 -75 -34.5s-64.5 -15 -98.5 -15zM635 1495l194 -369h-419l-277 369h502
z" />
    <glyph glyph-name="aacute" unicode="&#xe1;" horiz-adv-x="1157" 
d="M512 307c27.333 0 49.501 10.668 66.501 32.001s25.5 51.666 25.5 90.999l-82 -20c-40.667 -12 -61 -32.667 -61 -62c0 -10.667 4.66699 -20.167 14 -28.5s21.666 -12.5 36.999 -12.5zM307.001 -19.999c-78 0 -143.501 27.166 -196.501 81.499s-79.5 122.5 -79.5 204.5
s29 151.667 87 209s138 97 240 119l246 51c-20.667 34 -58 51 -112 51c-30 0 -59.833 -6.83301 -89.5 -20.5s-51.167 -27.167 -64.5 -40.5l-21 -21l-215 226c4 5.33301 9.83301 12.333 17.5 21s25.167 24 52.5 46s57 41.5 89 58.5s74.333 32.667 127 47
s107.667 21.5 165 21.5c144.667 0 262.667 -41 354 -123s137 -181 137 -297v-614h-471v123c-2.66699 -4 -6 -9.16699 -10 -15.5s-14.167 -17.666 -30.5 -33.999s-33.666 -31 -51.999 -44s-43.333 -24.5 -75 -34.5s-64.5 -15 -98.5 -15zM358 1126l195 369h502l-277 -369h-420
z" />
    <glyph glyph-name="acircumflex" unicode="&#xe2;" horiz-adv-x="1157" 
d="M512 307c27.333 0 49.501 10.668 66.501 32.001s25.5 51.666 25.5 90.999l-82 -20c-40.667 -12 -61 -32.667 -61 -62c0 -10.667 4.66699 -20.167 14 -28.5s21.666 -12.5 36.999 -12.5zM307.001 -19.999c-78 0 -143.501 27.166 -196.501 81.499s-79.5 122.5 -79.5 204.5
s29 151.667 87 209s138 97 240 119l246 51c-20.667 34 -58 51 -112 51c-30 0 -59.833 -6.83301 -89.5 -20.5s-51.167 -27.167 -64.5 -40.5l-21 -21l-215 226c4 5.33301 9.83301 12.333 17.5 21s25.167 24 52.5 46s57 41.5 89 58.5s74.333 32.667 127 47
s107.667 21.5 165 21.5c144.667 0 262.667 -41 354 -123s137 -181 137 -297v-614h-471v123c-2.66699 -4 -6 -9.16699 -10 -15.5s-14.167 -17.666 -30.5 -33.999s-33.666 -31 -51.999 -44s-43.333 -24.5 -75 -34.5s-64.5 -15 -98.5 -15zM72 1126l307 369h409l308 -369h-430
l-82 123l-82 -123h-430z" />
    <glyph glyph-name="atilde" unicode="&#xe3;" horiz-adv-x="1157" 
d="M512 307c27.333 0 49.501 10.668 66.501 32.001s25.5 51.666 25.5 90.999l-82 -20c-40.667 -12 -61 -32.667 -61 -62c0 -10.667 4.66699 -20.167 14 -28.5s21.666 -12.5 36.999 -12.5zM307.001 -19.999c-78 0 -143.501 27.166 -196.501 81.499s-79.5 122.5 -79.5 204.5
s29 151.667 87 209s138 97 240 119l246 51c-20.667 34 -58 51 -112 51c-30 0 -59.833 -6.83301 -89.5 -20.5s-51.167 -27.167 -64.5 -40.5l-21 -21l-215 226c4 5.33301 9.83301 12.333 17.5 21s25.167 24 52.5 46s57 41.5 89 58.5s74.333 32.667 127 47
s107.667 21.5 165 21.5c144.667 0 262.667 -41 354 -123s137 -181 137 -297v-614h-471v123c-2.66699 -4 -6 -9.16699 -10 -15.5s-14.167 -17.666 -30.5 -33.999s-33.666 -31 -51.999 -44s-43.333 -24.5 -75 -34.5s-64.5 -15 -98.5 -15zM707 1495h286v-123
c0 -79.333 -21.833 -143.5 -65.5 -192.5s-96.834 -73.5 -159.501 -73.5c-46.667 0 -91.5 12 -134.5 36s-69.833 36 -80.5 36c-40.667 0 -61 -24 -61 -72h-287v123c0 79.333 21.833 143.5 65.5 192.5s96.834 73.5 159.501 73.5c46.667 0 91.5 -12 134.5 -36
s69.833 -36 80.5 -36c41.333 0 62 24 62 72z" />
    <glyph glyph-name="adieresis" unicode="&#xe4;" horiz-adv-x="1157" 
d="M512 307c27.333 0 49.501 10.668 66.501 32.001s25.5 51.666 25.5 90.999l-82 -20c-40.667 -12 -61 -32.667 -61 -62c0 -10.667 4.66699 -20.167 14 -28.5s21.666 -12.5 36.999 -12.5zM307.001 -19.999c-78 0 -143.501 27.166 -196.501 81.499s-79.5 122.5 -79.5 204.5
s29 151.667 87 209s138 97 240 119l246 51c-20.667 34 -58 51 -112 51c-30 0 -59.833 -6.83301 -89.5 -20.5s-51.167 -27.167 -64.5 -40.5l-21 -21l-215 226c4 5.33301 9.83301 12.333 17.5 21s25.167 24 52.5 46s57 41.5 89 58.5s74.333 32.667 127 47
s107.667 21.5 165 21.5c144.667 0 262.667 -41 354 -123s137 -181 137 -297v-614h-471v123c-2.66699 -4 -6 -9.16699 -10 -15.5s-14.167 -17.666 -30.5 -33.999s-33.666 -31 -51.999 -44s-43.333 -24.5 -75 -34.5s-64.5 -15 -98.5 -15zM102 1321
c0 57.333 22.333 107.5 67 150.5s97.667 64.5 159 64.5s114.166 -21.5 158.499 -64.5s66.5 -93.167 66.5 -150.5s-22.167 -107.5 -66.5 -150.5s-97.166 -64.5 -158.499 -64.5s-114.333 21.5 -159 64.5s-67 93.167 -67 150.5zM614 1321c0 57.333 22.333 107.5 67 150.5
s97.667 64.5 159 64.5s114.166 -21.5 158.499 -64.5s66.5 -93.167 66.5 -150.5s-22.167 -107.5 -66.5 -150.5s-97.166 -64.5 -158.499 -64.5s-114.333 21.5 -159 64.5s-67 93.167 -67 150.5z" />
    <glyph glyph-name="aring" unicode="&#xe5;" horiz-adv-x="1157" 
d="M512 307c27.333 0 49.501 10.668 66.501 32.001s25.5 51.666 25.5 90.999l-82 -20c-40.667 -12 -61 -32.667 -61 -62c0 -10.667 4.66699 -20.167 14 -28.5s21.666 -12.5 36.999 -12.5zM307.001 -19.999c-78 0 -143.501 27.166 -196.501 81.499s-79.5 122.5 -79.5 204.5
s29 151.667 87 209s138 97 240 119l246 51c-20.667 34 -58 51 -112 51c-30 0 -59.833 -6.83301 -89.5 -20.5s-51.167 -27.167 -64.5 -40.5l-21 -21l-215 226c4 5.33301 9.83301 12.333 17.5 21s25.167 24 52.5 46s57 41.5 89 58.5s74.333 32.667 127 47
s107.667 21.5 165 21.5c144.667 0 262.667 -41 354 -123s137 -181 137 -297v-614h-471v123c-2.66699 -4 -6 -9.16699 -10 -15.5s-14.167 -17.666 -30.5 -33.999s-33.666 -31 -51.999 -44s-43.333 -24.5 -75 -34.5s-64.5 -15 -98.5 -15zM666 1372
c0 20.667 -6.83301 37.834 -20.5 51.501s-30.834 20.5 -51.501 20.5s-37.834 -6.83301 -51.501 -20.5s-20.5 -30.834 -20.5 -51.501s6.83301 -37.834 20.5 -51.501s30.834 -20.5 51.501 -20.5s37.834 6.83301 51.501 20.5s20.5 30.834 20.5 51.501zM901 1372
c0 -78 -29.667 -145.333 -89 -202s-132 -85 -218 -85s-158.667 28.333 -218 85s-89 124 -89 202s29.667 145.333 89 202s132 85 218 85s158.667 -28.333 218 -85s89 -124 89 -202z" />
    <glyph glyph-name="ae" unicode="&#xe6;" horiz-adv-x="1751" 
d="M420 -31c-117.333 0 -211.494 29.333 -282.494 88s-106.5 128.334 -106.5 209.001c0 82 29 151.667 87 209s138 97 240 119l246 51c-20.667 34 -58 51 -112 51c-30 0 -59.833 -6.83301 -89.5 -20.5s-51.167 -27.167 -64.5 -40.5l-21 -21l-215 226
c4 5.33301 9.83301 12.333 17.5 21s24.5 24 50.5 46s53.667 41.5 83 58.5s67.5 32.667 114.5 47s95.167 21.5 144.5 21.5c60 0 115.667 -11.167 167 -33.5s87 -44.5 107 -66.5l33 -33c9.33301 9.33301 22.666 21.666 39.999 36.999s55.333 35.166 114 59.499
s120 36.5 184 36.5c151.333 0 279.666 -50.5 384.999 -151.5s158 -221.167 158 -360.5c0 -22 -1.66699 -42.167 -5 -60.5s-7.33301 -31.5 -12 -39.5l-4 -12h-604c2.66699 -5.33301 6.83398 -12.166 12.501 -20.499s22.5 -19 50.5 -32s61.667 -19.5 101 -19.5
c27.333 0 55.666 4.5 84.999 13.5s51.666 17.5 66.999 25.5l22 12l164 -307c-12 -8 -29.333 -18.167 -52 -30.5s-68.834 -29.166 -138.501 -50.499s-139.334 -32 -209.001 -32s-134.5 13 -194.5 39s-102.333 52 -127 78l-37 37c-2.66699 -4 -7.33398 -9.5 -14.001 -16.5
s-22 -19.333 -46 -37s-50.333 -33.334 -79 -47.001s-66.167 -26 -112.5 -37s-95.5 -16.5 -147.5 -16.5zM512.006 307c27.333 0 49.501 10.668 66.501 32.001s25.5 51.666 25.5 90.999l-82 -20c-40.667 -12 -61 -32.667 -61 -62c0 -10.667 4.66699 -20.167 14 -28.5
s21.666 -12.5 36.999 -12.5zM1137.01 717.001c-26 0 -48.334 -9.66699 -67.001 -29s-30.667 -44 -36 -74h205c-5.33301 30 -17.166 54.667 -35.499 74s-40.5 29 -66.5 29z" />
    <glyph glyph-name="ccedilla" unicode="&#xe7;" horiz-adv-x="1136" 
d="M543 502c0 -31.333 12.1631 -58 36.4961 -80s56.5 -33 96.5 -33c27.333 0 54 6.83301 80 20.5s44.333 27.5 55 41.5l18 20l277 -287c-4 -5.33301 -9.5 -12.333 -16.5 -21s-23.833 -24.667 -50.5 -48s-55.334 -44.166 -86.001 -62.499s-71.834 -35.833 -123.501 -52.5
s-106.167 -27 -163.5 -31l-21 -51c6.66699 -1.33301 15.5 -3 26.5 -5s30.5 -8.16699 58.5 -18.5s53 -23 75 -38s41.833 -36.833 59.5 -65.5s26.5 -61.334 26.5 -98.001c0 -69.333 -27.667 -127.666 -83 -174.999s-130 -71 -224 -71c-54.667 0 -106.667 8.5 -156 25.5
s-85.666 34.5 -108.999 52.5l-32 24l112 175c40.667 -34 81.667 -51.167 123 -51.5s62 13.167 62 40.5c0 10.667 -4.83301 20.167 -14.5 28.5s-22.167 12.5 -37.5 12.5l-40 -10l-72 92l72 154c-121.333 22 -225.166 80.333 -311.499 175s-129.5 207 -129.5 337
c0 146 55.667 271.167 167 375.5s250.333 156.5 417 156.5c58.667 0 115.334 -7.5 170.001 -22.5s99.334 -33 134.001 -54s65.334 -41.833 92.001 -62.5s46.334 -38.334 59.001 -53.001l16 -23l-277 -287c-40.667 54.667 -91.667 82 -153 82
c-39.333 0 -71.333 -10.833 -96 -32.5s-37 -48.167 -37 -79.5z" />
    <glyph glyph-name="egrave" unicode="&#xe8;" horiz-adv-x="1228" 
d="M1157 410l-603.998 -0.00195312c2.66699 -5.33301 6.66699 -12.166 12 -20.499s22 -19 50 -32s62 -19.5 102 -19.5c27.333 0 55.333 4.5 84 13.5s51 17.5 67 25.5l23 12l164 -307c-12 -8 -29.333 -18.167 -52 -30.5s-70.5 -29.166 -143.5 -50.499
s-147.833 -32 -224.5 -32c-166.667 0 -305.667 52.333 -417 157s-167 230 -167 376c0 150 53.333 276.167 160 378.5s241 153.5 403 153.5c161.333 0 295.666 -50.167 402.999 -150.5s161 -220.833 161 -361.5c0 -22 -1.83301 -42.167 -5.5 -60.5
s-6.83398 -31.5 -9.50098 -39.5zM614.002 716.998c-26 0 -48.168 -9.66699 -66.501 -29s-30.166 -44 -35.499 -74h205c-5.33301 30 -17.333 54.667 -36 74s-41 29 -67 29zM655.001 1495l195 -369h-420l-276 369h501z" />
    <glyph glyph-name="eacute" unicode="&#xe9;" horiz-adv-x="1228" 
d="M1157 410l-603.998 -0.00195312c2.66699 -5.33301 6.66699 -12.166 12 -20.499s22 -19 50 -32s62 -19.5 102 -19.5c27.333 0 55.333 4.5 84 13.5s51 17.5 67 25.5l23 12l164 -307c-12 -8 -29.333 -18.167 -52 -30.5s-70.5 -29.166 -143.5 -50.499
s-147.833 -32 -224.5 -32c-166.667 0 -305.667 52.333 -417 157s-167 230 -167 376c0 150 53.333 276.167 160 378.5s241 153.5 403 153.5c161.333 0 295.666 -50.167 402.999 -150.5s161 -220.833 161 -361.5c0 -22 -1.83301 -42.167 -5.5 -60.5
s-6.83398 -31.5 -9.50098 -39.5zM614.002 716.998c-26 0 -48.168 -9.66699 -66.501 -29s-30.166 -44 -35.499 -74h205c-5.33301 30 -17.333 54.667 -36 74s-41 29 -67 29zM399.001 1126l195 369h502l-277 -369h-420z" />
    <glyph glyph-name="ecircumflex" unicode="&#xea;" horiz-adv-x="1228" 
d="M1157 410l-603.998 -0.00195312c2.66699 -5.33301 6.66699 -12.166 12 -20.499s22 -19 50 -32s62 -19.5 102 -19.5c27.333 0 55.333 4.5 84 13.5s51 17.5 67 25.5l23 12l164 -307c-12 -8 -29.333 -18.167 -52 -30.5s-70.5 -29.166 -143.5 -50.499
s-147.833 -32 -224.5 -32c-166.667 0 -305.667 52.333 -417 157s-167 230 -167 376c0 150 53.333 276.167 160 378.5s241 153.5 403 153.5c161.333 0 295.666 -50.167 402.999 -150.5s161 -220.833 161 -361.5c0 -22 -1.83301 -42.167 -5.5 -60.5
s-6.83398 -31.5 -9.50098 -39.5zM614.002 716.998c-26 0 -48.168 -9.66699 -66.501 -29s-30.166 -44 -35.499 -74h205c-5.33301 30 -17.333 54.667 -36 74s-41 29 -67 29zM102.001 1126l308 369h409l307 -369h-430l-82 123l-82 -123h-430z" />
    <glyph glyph-name="edieresis" unicode="&#xeb;" horiz-adv-x="1228" 
d="M1157 410l-603.998 -0.00195312c2.66699 -5.33301 6.66699 -12.166 12 -20.499s22 -19 50 -32s62 -19.5 102 -19.5c27.333 0 55.333 4.5 84 13.5s51 17.5 67 25.5l23 12l164 -307c-12 -8 -29.333 -18.167 -52 -30.5s-70.5 -29.166 -143.5 -50.499
s-147.833 -32 -224.5 -32c-166.667 0 -305.667 52.333 -417 157s-167 230 -167 376c0 150 53.333 276.167 160 378.5s241 153.5 403 153.5c161.333 0 295.666 -50.167 402.999 -150.5s161 -220.833 161 -361.5c0 -22 -1.83301 -42.167 -5.5 -60.5
s-6.83398 -31.5 -9.50098 -39.5zM614.002 716.998c-26 0 -48.168 -9.66699 -66.501 -29s-30.166 -44 -35.499 -74h205c-5.33301 30 -17.333 54.667 -36 74s-41 29 -67 29zM133.001 1321c0 57.333 22.167 107.5 66.5 150.5s97.333 64.5 159 64.5s114.667 -21.5 159 -64.5
s66.5 -93.167 66.5 -150.5s-22.167 -107.5 -66.5 -150.5s-97.333 -64.5 -159 -64.5s-114.667 21.5 -159 64.5s-66.5 93.167 -66.5 150.5zM645.001 1321c0 57.333 22.167 107.5 66.5 150.5s97.333 64.5 159 64.5s114.667 -21.5 159 -64.5s66.5 -93.167 66.5 -150.5
s-22.167 -107.5 -66.5 -150.5s-97.333 -64.5 -159 -64.5s-114.667 21.5 -159 64.5s-66.5 93.167 -66.5 150.5z" />
    <glyph glyph-name="igrave" unicode="&#xec;" horiz-adv-x="716" 
d="M358 1495l195 -369h-420l-276 369h501zM584 1004v-1004h-471v1004h471z" />
    <glyph glyph-name="iacute" unicode="&#xed;" horiz-adv-x="716" 
d="M133 1126l195 369h501l-276 -369h-420zM584 1004v-1004h-471v1004h471z" />
    <glyph glyph-name="icircumflex" unicode="&#xee;" horiz-adv-x="737" 
d="M594 1004v-1004h-471v1004h471zM-154 1126l308 369h409l307 -369h-430l-82 123l-82 -123h-430z" />
    <glyph glyph-name="idieresis" unicode="&#xef;" horiz-adv-x="716" 
d="M-133 1321c0 57.333 22.167 107.5 66.5 150.5s97.166 64.5 158.499 64.5s114.166 -21.5 158.499 -64.5s66.5 -93.167 66.5 -150.5s-22.167 -107.5 -66.5 -150.5s-97.166 -64.5 -158.499 -64.5s-114.166 21.5 -158.499 64.5s-66.5 93.167 -66.5 150.5zM379 1321
c0 57.333 22.167 107.5 66.5 150.5s97.166 64.5 158.499 64.5s114.166 -21.5 158.499 -64.5s66.5 -93.167 66.5 -150.5s-22.167 -107.5 -66.5 -150.5s-97.166 -64.5 -158.499 -64.5s-114.166 21.5 -158.499 64.5s-66.5 93.167 -66.5 150.5zM584 1004v-1004h-471v1004h471z
" />
    <glyph glyph-name="eth" unicode="&#xf0;" horiz-adv-x="1280" 
d="M1055 1393l-133.001 -93.0039l29.5 -29.5c13 -13 35.167 -41.667 66.5 -86s59.333 -90.666 84 -138.999s46.834 -109.666 66.501 -183.999s29.5 -149.833 29.5 -226.5c0 -207.333 -55.333 -370.166 -166 -488.499s-256.667 -177.5 -438 -177.5
c-161.333 0 -293.833 48.5 -397.5 145.5s-155.5 215.833 -155.5 356.5c0 134 47.167 247.667 141.5 341s207.5 140 339.5 140c39.333 0 76.833 -5.66699 112.5 -17s61.834 -23.333 78.501 -36l24 -18c-12 39.333 -30 76.833 -54 112.5s-44.667 61.5 -62 77.5l-27 25
l-174 -113l-164 225l31 21l-103 31l103 327c143.333 -27.333 269.666 -64.666 378.999 -111.999l225 143zM706.999 470.996c0 26 -9 47.833 -27 65.5s-40 26.5 -66 26.5s-47.833 -8.83301 -65.5 -26.5s-26.5 -39.5 -26.5 -65.5s8.83301 -47.833 26.5 -65.5
s39.5 -26.5 65.5 -26.5s48 8.83301 66 26.5s27 39.5 27 65.5z" />
    <glyph glyph-name="ntilde" unicode="&#xf1;" 
d="M563 1004l0.00488281 -123c2.66699 4 6.16699 9 10.5 15s14.666 17.167 30.999 33.5s33.666 31 51.999 44s43.166 24.667 74.499 35s64 15.5 98 15.5c100 0 183.167 -37.167 249.5 -111.5s99.5 -173.833 99.5 -298.5v-614h-471v492
c0 24.667 -6.83301 44.334 -20.5 59.001s-30.834 22 -51.501 22c-16.667 0 -32.834 -9.83301 -48.501 -29.5s-23.5 -43.834 -23.5 -72.501v-471h-471v1004h471zM748.005 1495h286.001v-123c0 -79.333 -21.833 -143.5 -65.5 -192.5s-96.834 -73.5 -159.501 -73.5
c-46.667 0 -91.5 12 -134.5 36s-69.833 36 -80.5 36c-40.667 0 -61.334 -24 -62.001 -72h-286v123c0 79.333 21.833 143.5 65.5 192.5s96.834 73.5 159.501 73.5c46.667 0 91.5 -12 134.5 -36s69.833 -36 80.5 -36c41.333 0 62 24 62 72z" />
    <glyph glyph-name="ograve" unicode="&#xf2;" 
d="M727 502c0 30 -8.83301 54.5 -26.5 73.5s-39.5 28.5 -65.5 28.5s-47.833 -9.5 -65.5 -28.5s-26.5 -43.5 -26.5 -73.5s8.83301 -54.667 26.5 -74s39.5 -29 65.5 -29s47.833 9.66699 65.5 29s26.5 44 26.5 74zM1219 502c0 -146 -55.667 -271.333 -167 -376
s-250.333 -157 -417 -157s-305.667 52.333 -417 157s-167 230 -167 376s55.667 271.167 167 375.5s250.333 156.5 417 156.5s305.667 -52.167 417 -156.5s167 -229.5 167 -375.5zM666 1495l194 -369h-420l-276 369h502z" />
    <glyph glyph-name="oacute" unicode="&#xf3;" 
d="M727 502c0 30 -8.83301 54.5 -26.5 73.5s-39.5 28.5 -65.5 28.5s-47.833 -9.5 -65.5 -28.5s-26.5 -43.5 -26.5 -73.5s8.83301 -54.667 26.5 -74s39.5 -29 65.5 -29s47.833 9.66699 65.5 29s26.5 44 26.5 74zM1219 502c0 -146 -55.667 -271.333 -167 -376
s-250.333 -157 -417 -157s-305.667 52.333 -417 157s-167 230 -167 376s55.667 271.167 167 375.5s250.333 156.5 417 156.5s305.667 -52.167 417 -156.5s167 -229.5 167 -375.5zM410 1126l194 369h502l-277 -369h-419z" />
    <glyph glyph-name="ocircumflex" unicode="&#xf4;" 
d="M727 502c0 30 -8.83301 54.5 -26.5 73.5s-39.5 28.5 -65.5 28.5s-47.833 -9.5 -65.5 -28.5s-26.5 -43.5 -26.5 -73.5s8.83301 -54.667 26.5 -74s39.5 -29 65.5 -29s47.833 9.66699 65.5 29s26.5 44 26.5 74zM1219 502c0 -146 -55.667 -271.333 -167 -376
s-250.333 -157 -417 -157s-305.667 52.333 -417 157s-167 230 -167 376s55.667 271.167 167 375.5s250.333 156.5 417 156.5s305.667 -52.167 417 -156.5s167 -229.5 167 -375.5zM123 1126l307 369h410l307 -369h-430l-82 123l-82 -123h-430z" />
    <glyph glyph-name="otilde" unicode="&#xf5;" 
d="M727 502c0 30 -8.83301 54.5 -26.5 73.5s-39.5 28.5 -65.5 28.5s-47.833 -9.5 -65.5 -28.5s-26.5 -43.5 -26.5 -73.5s8.83301 -54.667 26.5 -74s39.5 -29 65.5 -29s47.833 9.66699 65.5 29s26.5 44 26.5 74zM1219 502c0 -146 -55.667 -271.333 -167 -376
s-250.333 -157 -417 -157s-305.667 52.333 -417 157s-167 230 -167 376s55.667 271.167 167 375.5s250.333 156.5 417 156.5s305.667 -52.167 417 -156.5s167 -229.5 167 -375.5zM737 1495h287v-123c0 -79.333 -21.833 -143.5 -65.5 -192.5s-96.834 -73.5 -159.501 -73.5
c-46.667 0 -91.5 12 -134.5 36s-69.833 36 -80.5 36c-40.667 0 -61.334 -24 -62.001 -72h-286v123c0 79.333 21.833 143.5 65.5 192.5s96.834 73.5 159.501 73.5c46.667 0 91.334 -12 134.001 -36s69.667 -36 81 -36c40.667 0 61 24 61 72z" />
    <glyph glyph-name="odieresis" unicode="&#xf6;" 
d="M727 502c0 30 -8.83301 54.5 -26.5 73.5s-39.5 28.5 -65.5 28.5s-47.833 -9.5 -65.5 -28.5s-26.5 -43.5 -26.5 -73.5s8.83301 -54.667 26.5 -74s39.5 -29 65.5 -29s47.833 9.66699 65.5 29s26.5 44 26.5 74zM1219 502c0 -146 -55.667 -271.333 -167 -376
s-250.333 -157 -417 -157s-305.667 52.333 -417 157s-167 230 -167 376s55.667 271.167 167 375.5s250.333 156.5 417 156.5s305.667 -52.167 417 -156.5s167 -229.5 167 -375.5zM154 1321c0 57.333 22.167 107.5 66.5 150.5s97.166 64.5 158.499 64.5
s114.166 -21.5 158.499 -64.5s66.5 -93.167 66.5 -150.5s-22.167 -107.5 -66.5 -150.5s-97.166 -64.5 -158.499 -64.5s-114.166 21.5 -158.499 64.5s-66.5 93.167 -66.5 150.5zM666 1321c0 57.333 22.167 107.5 66.5 150.5s97.166 64.5 158.499 64.5
s114.166 -21.5 158.499 -64.5s66.5 -93.167 66.5 -150.5s-22.167 -107.5 -66.5 -150.5s-97.166 -64.5 -158.499 -64.5s-114.166 21.5 -158.499 64.5s-66.5 93.167 -66.5 150.5z" />
    <glyph glyph-name="divide" unicode="&#xf7;" horiz-adv-x="1085" 
d="M1024 758v-307h-963v307h963zM788 184c0 -58.667 -22.167 -107.334 -66.5 -146.001s-104 -58 -179 -58s-134.667 19.333 -179 58s-66.5 87.334 -66.5 146.001s22.167 107.5 66.5 146.5s104 58.5 179 58.5s134.667 -19.5 179 -58.5s66.5 -87.833 66.5 -146.5zM788 1024
c0 -58.667 -22.167 -107.5 -66.5 -146.5s-104 -58.5 -179 -58.5s-134.667 19.5 -179 58.5s-66.5 87.833 -66.5 146.5s22.167 107.5 66.5 146.5s104 58.5 179 58.5s134.667 -19.5 179 -58.5s66.5 -87.833 66.5 -146.5z" />
    <glyph glyph-name="oslash" unicode="&#xf8;" 
d="M1229 891l-103 -102.999c6.66699 -8 15.167 -19.833 25.5 -35.5s24.166 -48.334 41.499 -98.001s26 -100.5 26 -152.5c0 -146 -55.667 -271.333 -167 -376s-250.333 -157 -417 -157c-49.333 0 -96.166 5.16699 -140.499 15.5s-76.833 20.833 -97.5 31.5l-28 15l-123 -123
l-205 205l102 102c-6.66699 8 -15.167 19.833 -25.5 35.5s-24 48.5 -41 98.5s-25.5 101 -25.5 153c0 146 55.667 271.167 167 375.5s250.333 156.5 417 156.5c22 0 43.833 -1 65.5 -3s41 -5 58 -9s33.333 -8 49 -12s29 -8.16699 40 -12.5s20.667 -8.5 29 -12.5
s14.5 -7.33301 18.5 -10l6 -2l123 123zM420 492.001l215 215c-61.333 0 -112.5 -20.5 -153.5 -61.5s-61.5 -92.167 -61.5 -153.5zM850 512.001l-215 -215c61.333 0 112.5 20.5 153.5 61.5s61.5 92.167 61.5 153.5z" />
    <glyph glyph-name="ugrave" unicode="&#xf9;" horiz-adv-x="1300" 
d="M707 0l-0.00488281 122.998c-2.66699 -4 -6.16699 -9.16699 -10.5 -15.5s-14.666 -17.666 -30.999 -33.999s-33.666 -31 -51.999 -44s-43.166 -24.5 -74.499 -34.5s-64.333 -15 -99 -15c-100 0 -183 37.167 -249 111.5s-99 173.5 -99 297.5v615h471v-492
c0 -24.667 6.83301 -44.5 20.5 -59.5s30.834 -22.5 51.501 -22.5c16.667 0 32.834 9.83301 48.501 29.5s23.5 43.834 23.5 72.501v472h471v-1004h-471zM665.995 1495l194 -369h-420l-276 369h502z" />
    <glyph glyph-name="uacute" unicode="&#xfa;" horiz-adv-x="1300" 
d="M707 0l-0.00488281 122.998c-2.66699 -4 -6.16699 -9.16699 -10.5 -15.5s-14.666 -17.666 -30.999 -33.999s-33.666 -31 -51.999 -44s-43.166 -24.5 -74.499 -34.5s-64.333 -15 -99 -15c-100 0 -183 37.167 -249 111.5s-99 173.5 -99 297.5v615h471v-492
c0 -24.667 6.83301 -44.5 20.5 -59.5s30.834 -22.5 51.501 -22.5c16.667 0 32.834 9.83301 48.501 29.5s23.5 43.834 23.5 72.501v472h471v-1004h-471zM409.995 1126l194 369h502l-277 -369h-419z" />
    <glyph glyph-name="ucircumflex" unicode="&#xfb;" horiz-adv-x="1300" 
d="M707 0l-0.00488281 122.998c-2.66699 -4 -6.16699 -9.16699 -10.5 -15.5s-14.666 -17.666 -30.999 -33.999s-33.666 -31 -51.999 -44s-43.166 -24.5 -74.499 -34.5s-64.333 -15 -99 -15c-100 0 -183 37.167 -249 111.5s-99 173.5 -99 297.5v615h471v-492
c0 -24.667 6.83301 -44.5 20.5 -59.5s30.834 -22.5 51.501 -22.5c16.667 0 32.834 9.83301 48.501 29.5s23.5 43.834 23.5 72.501v472h471v-1004h-471zM122.995 1126l307 369h410l307 -369h-430l-82 123l-82 -123h-430z" />
    <glyph glyph-name="udieresis" unicode="&#xfc;" horiz-adv-x="1300" 
d="M707 0l-0.00488281 122.998c-2.66699 -4 -6.16699 -9.16699 -10.5 -15.5s-14.666 -17.666 -30.999 -33.999s-33.666 -31 -51.999 -44s-43.166 -24.5 -74.499 -34.5s-64.333 -15 -99 -15c-100 0 -183 37.167 -249 111.5s-99 173.5 -99 297.5v615h471v-492
c0 -24.667 6.83301 -44.5 20.5 -59.5s30.834 -22.5 51.501 -22.5c16.667 0 32.834 9.83301 48.501 29.5s23.5 43.834 23.5 72.501v472h471v-1004h-471zM153.995 1321c0 57.333 22.167 107.5 66.5 150.5s97.166 64.5 158.499 64.5s114.166 -21.5 158.499 -64.5
s66.5 -93.167 66.5 -150.5s-22.167 -107.5 -66.5 -150.5s-97.166 -64.5 -158.499 -64.5s-114.166 21.5 -158.499 64.5s-66.5 93.167 -66.5 150.5zM665.995 1321c0 57.333 22.167 107.5 66.5 150.5s97.166 64.5 158.499 64.5s114.166 -21.5 158.499 -64.5
s66.5 -93.167 66.5 -150.5s-22.167 -107.5 -66.5 -150.5s-97.166 -64.5 -158.499 -64.5s-114.166 21.5 -158.499 64.5s-66.5 93.167 -66.5 150.5z" />
    <glyph glyph-name="yacute" unicode="&#xfd;" horiz-adv-x="1167" 
d="M307 61l-338.001 943.001h492l112 -472l113 472h492l-369 -1024c-98 -273.333 -262 -410 -492 -410c-42 0 -83.5 3.33301 -124.5 10s-71.167 13.667 -90.5 21l-30 10v409c27.333 -13.333 61.333 -20 102 -20c30 0 56.333 5.16699 79 15.5s37.334 20.166 44.001 29.499z
M357.999 1126l195 369h502l-277 -369h-420z" />
    <glyph glyph-name="thorn" unicode="&#xfe;" horiz-adv-x="1351" 
d="M850 -20c-54.667 0 -104.167 11.833 -148.5 35.5s-74.833 47.167 -91.5 70.5l-26 37v-553h-471v1864h471v-553l10 15c4 6 14.167 17.167 30.5 33.5s33.833 31 52.5 44s43.667 24.667 75 35s64 15.5 98 15.5c117.333 0 218.333 -48.5 303 -145.5s127 -222.667 127 -377
s-42.333 -279.833 -127 -376.5s-185.667 -145 -303 -145zM788 502c0 31.333 -9.16699 56.166 -27.5 74.499s-43.166 27.5 -74.499 27.5s-56.166 -9.16699 -74.499 -27.5s-27.5 -43.166 -27.5 -74.499s9.16699 -56.333 27.5 -75s43.166 -28 74.499 -28
s56.166 9.33301 74.499 28s27.5 43.667 27.5 75z" />
    <glyph glyph-name="ydieresis" unicode="&#xff;" horiz-adv-x="1167" 
d="M307 61l-338.001 943.001h492l112 -472l113 472h492l-369 -1024c-98 -273.333 -262 -410 -492 -410c-42 0 -83.5 3.33301 -124.5 10s-71.167 13.667 -90.5 21l-30 10v409c27.333 -13.333 61.333 -20 102 -20c30 0 56.333 5.16699 79 15.5s37.334 20.166 44.001 29.499z
M91.999 1321c0 57.333 22.167 107.5 66.5 150.5s97.333 64.5 159 64.5s114.667 -21.5 159 -64.5s66.5 -93.167 66.5 -150.5s-22.167 -107.5 -66.5 -150.5s-97.333 -64.5 -159 -64.5s-114.667 21.5 -159 64.5s-66.5 93.167 -66.5 150.5zM603.999 1321
c0 57.333 22.167 107.5 66.5 150.5s97.333 64.5 159 64.5s114.667 -21.5 159 -64.5s66.5 -93.167 66.5 -150.5s-22.167 -107.5 -66.5 -150.5s-97.333 -64.5 -159 -64.5s-114.667 21.5 -159 64.5s-66.5 93.167 -66.5 150.5z" />
    <glyph glyph-name="Amacron" unicode="&#x100;" horiz-adv-x="1536" 
d="M1065 1434l512 -1434h-573l-62 246h-348l-62 -246h-573l512 1434h594zM840 635l-72 287l-72 -287h144zM1126 1966v-348h-716v348h716z" />
    <glyph glyph-name="amacron" unicode="&#x101;" horiz-adv-x="1157" 
d="M512 307c27.333 0 49.501 10.668 66.501 32.001s25.5 51.666 25.5 90.999l-82 -20c-40.667 -12 -61 -32.667 -61 -62c0 -10.667 4.66699 -20.167 14 -28.5s21.666 -12.5 36.999 -12.5zM307.001 -19.999c-78 0 -143.501 27.166 -196.501 81.499s-79.5 122.5 -79.5 204.5
s29 151.667 87 209s138 97 240 119l246 51c-20.667 34 -58 51 -112 51c-30 0 -59.833 -6.83301 -89.5 -20.5s-51.167 -27.167 -64.5 -40.5l-21 -21l-215 226c4 5.33301 9.83301 12.333 17.5 21s25.167 24 52.5 46s57 41.5 89 58.5s74.333 32.667 127 47
s107.667 21.5 165 21.5c144.667 0 262.667 -41 354 -123s137 -181 137 -297v-614h-471v123c-2.66699 -4 -6 -9.16699 -10 -15.5s-14.167 -17.666 -30.5 -33.999s-33.666 -31 -51.999 -44s-43.333 -24.5 -75 -34.5s-64.5 -15 -98.5 -15zM963 1516v-349h-717v349h717z" />
    <glyph glyph-name="Abreve" unicode="&#x102;" horiz-adv-x="1536" 
d="M1065 1434l512 -1434h-573l-62 246h-348l-62 -246h-573l512 1434h594zM840 635l-72 287l-72 -287h144zM768 1864c20.667 0 37.832 7.5 51.499 22.5s20.5 34.833 20.5 59.5h327c0 -104 -37.5 -191.5 -112.5 -262.5s-170.5 -106.5 -286.5 -106.5s-211.5 35.5 -286.5 106.5
s-112.5 158.5 -112.5 262.5h327c0 -24.667 6.83301 -44.5 20.5 -59.5s30.834 -22.5 51.501 -22.5z" />
    <glyph glyph-name="abreve" unicode="&#x103;" horiz-adv-x="1157" 
d="M512 307c27.333 0 49.501 10.668 66.501 32.001s25.5 51.666 25.5 90.999l-82 -20c-40.667 -12 -61 -32.667 -61 -62c0 -10.667 4.66699 -20.167 14 -28.5s21.666 -12.5 36.999 -12.5zM307.001 -19.999c-78 0 -143.501 27.166 -196.501 81.499s-79.5 122.5 -79.5 204.5
s29 151.667 87 209s138 97 240 119l246 51c-20.667 34 -58 51 -112 51c-30 0 -59.833 -6.83301 -89.5 -20.5s-51.167 -27.167 -64.5 -40.5l-21 -21l-215 226c4 5.33301 9.83301 12.333 17.5 21s25.167 24 52.5 46s57 41.5 89 58.5s74.333 32.667 127 47
s107.667 21.5 165 21.5c144.667 0 262.667 -41 354 -123s137 -181 137 -297v-614h-471v123c-2.66699 -4 -6 -9.16699 -10 -15.5s-14.167 -17.666 -30.5 -33.999s-33.666 -31 -51.999 -44s-43.333 -24.5 -75 -34.5s-64.5 -15 -98.5 -15zM604 1413
c20.667 0 37.832 7.5 51.499 22.5s20.5 34.833 20.5 59.5h328c0 -104 -37.667 -191.5 -113 -262.5s-171 -106.5 -287 -106.5s-211.5 35.5 -286.5 106.5s-112.5 158.5 -112.5 262.5h327c0 -24.667 6.83301 -44.5 20.5 -59.5s30.834 -22.5 51.501 -22.5z" />
    <glyph glyph-name="Aogonek" unicode="&#x104;" horiz-adv-x="1536" 
d="M1004 0l-61.998 245.998h-348l-62 -246h-573l512 1434h594l512 -1434h-410c-27.333 -68 -41 -136.333 -41 -205c0 -54.667 27.333 -82 82 -82c12 0 25 2.83301 39 8.5s24.333 11.167 31 16.5l12 6v-236c-54.667 -27.333 -126.334 -40.666 -215.001 -39.999
c-80.667 0 -146.834 23.833 -198.501 71.5s-77.5 105.5 -77.5 173.5c0 30 7.16699 60.833 21.5 92.5s31.333 58.334 51 80.001s39.5 41.667 59.5 60s37.333 32.5 52 42.5zM840.002 634.998l-72 287l-72 -287h144z" />
    <glyph glyph-name="aogonek" unicode="&#x105;" horiz-adv-x="1157" 
d="M1044 0l-307.001 -0.00292969c-40.667 -68 -61 -136.333 -61 -205c0 -54.667 27.333 -82 82 -82c12 0 24.833 2.83301 38.5 8.5s23.834 11.167 30.501 16.5l13 6v-236c-54.667 -27.333 -126.334 -40.666 -215.001 -39.999c-80.667 0 -147 23.833 -199 71.5
s-78 105.5 -78 173.5c0 30 7.83301 60.833 23.5 92.5s34.5 58.334 56.5 80.001s43.833 41.667 65.5 60s40.167 32.5 55.5 42.5l24 12v123c-2.66699 -4 -6 -9.16699 -10 -15.5s-14.167 -17.666 -30.5 -33.999s-33.666 -31 -51.999 -44s-43.333 -24.5 -75 -34.5
s-64.5 -15 -98.5 -15c-78 0 -143.5 27.167 -196.5 81.5s-79.5 122.5 -79.5 204.5s29 151.667 87 209s138 97 240 119l246 51c-20.667 34 -58 51 -112 51c-30 0 -59.833 -6.83301 -89.5 -20.5s-51.167 -27.167 -64.5 -40.5l-21 -21l-215 226
c4 5.33301 9.83301 12.333 17.5 21s25.167 24 52.5 46s57 41.5 89 58.5s74.333 32.667 127 47s107.667 21.5 165 21.5c144.667 0 262.667 -41 354 -123s137 -181 137 -297v-614zM511.999 306.997c27.333 0 49.501 10.668 66.501 32.001s25.5 51.666 25.5 90.999l-82 -20
c-40.667 -12 -61 -32.667 -61 -62c0 -10.667 4.66699 -20.167 14 -28.5s21.666 -12.5 36.999 -12.5z" />
    <glyph glyph-name="Cacute" unicode="&#x106;" horiz-adv-x="1546" 
d="M1208 573l317.999 -327.001c-5.33301 -8 -13.833 -18.5 -25.5 -31.5s-37.667 -36 -78 -69s-83.333 -62.167 -129 -87.5s-105.834 -48.166 -180.501 -68.499s-152 -30.5 -232 -30.5c-232 0 -426.667 74.5 -584 223.5s-236 327.167 -236 534.5s78.5 385.5 235.5 534.5
s351.833 223.5 584.5 223.5c80.667 0 157.834 -10 231.501 -30s134.334 -44 182.001 -72s90 -56 127 -84s63.5 -52 79.5 -72l25 -29l-318 -328c-9.33301 10.667 -22.5 24 -39.5 40s-52.167 37.333 -105.5 64s-107.333 40 -162 40c-86 0 -158.667 -28.333 -218 -85
s-89 -124 -89 -202s29.667 -145.333 89 -202s132 -85 218 -85c54.667 0 107.667 12 159 36s88.333 47.667 111 71zM634.999 1577l194 369h502l-276 -369h-420z" />
    <glyph glyph-name="cacute" unicode="&#x107;" horiz-adv-x="1136" 
d="M543 502c0 -31.333 12.1621 -57.998 36.4951 -79.998s56.5 -33 96.5 -33c27.333 0 54 6.83301 80 20.5s44.333 27.5 55 41.5l18 20l277 -287c-4 -5.33301 -10.167 -12.833 -18.5 -22.5s-27.166 -27 -56.499 -52s-60.666 -46.833 -93.999 -65.5
s-77.333 -35.834 -132 -51.501s-111.334 -23.5 -170.001 -23.5c-166.667 0 -305.667 52.333 -417 157s-167 230 -167 376s55.667 271.167 167 375.5s250.333 156.5 417 156.5c58.667 0 115.334 -7.5 170.001 -22.5s99.334 -33 134.001 -54s65.334 -41.833 92.001 -62.5
s46.334 -38.334 59.001 -53.001l16 -23l-277 -287c-40.667 54.667 -91.667 82 -153 82c-39.333 0 -71.333 -10.833 -96 -32.5s-37 -48.167 -37 -79.5zM398.995 1126l195 369h502l-277 -369h-420z" />
    <glyph glyph-name="Ccircumflex" unicode="&#x108;" horiz-adv-x="1546" 
d="M1208 573l317.999 -327.001c-5.33301 -8 -13.833 -18.5 -25.5 -31.5s-37.667 -36 -78 -69s-83.333 -62.167 -129 -87.5s-105.834 -48.166 -180.501 -68.499s-152 -30.5 -232 -30.5c-232 0 -426.667 74.5 -584 223.5s-236 327.167 -236 534.5s78.5 385.5 235.5 534.5
s351.833 223.5 584.5 223.5c80.667 0 157.834 -10 231.501 -30s134.334 -44 182.001 -72s90 -56 127 -84s63.5 -52 79.5 -72l25 -29l-318 -328c-9.33301 10.667 -22.5 24 -39.5 40s-52.167 37.333 -105.5 64s-107.333 40 -162 40c-86 0 -158.667 -28.333 -218 -85
s-89 -124 -89 -202s29.667 -145.333 89 -202s132 -85 218 -85c54.667 0 107.667 12 159 36s88.333 47.667 111 71zM347.999 1577l307 369h410l307 -369h-430l-82 123l-82 -123h-430z" />
    <glyph glyph-name="ccircumflex" unicode="&#x109;" horiz-adv-x="1136" 
d="M543 502c0 -31.333 12.1621 -57.998 36.4951 -79.998s56.5 -33 96.5 -33c27.333 0 54 6.83301 80 20.5s44.333 27.5 55 41.5l18 20l277 -287c-4 -5.33301 -10.167 -12.833 -18.5 -22.5s-27.166 -27 -56.499 -52s-60.666 -46.833 -93.999 -65.5
s-77.333 -35.834 -132 -51.501s-111.334 -23.5 -170.001 -23.5c-166.667 0 -305.667 52.333 -417 157s-167 230 -167 376s55.667 271.167 167 375.5s250.333 156.5 417 156.5c58.667 0 115.334 -7.5 170.001 -22.5s99.334 -33 134.001 -54s65.334 -41.833 92.001 -62.5
s46.334 -38.334 59.001 -53.001l16 -23l-277 -287c-40.667 54.667 -91.667 82 -153 82c-39.333 0 -71.333 -10.833 -96 -32.5s-37 -48.167 -37 -79.5zM122.995 1126l307 369h410l307 -369h-430l-82 123l-82 -123h-430z" />
    <glyph glyph-name="Ccaron" unicode="&#x10c;" horiz-adv-x="1546" 
d="M1208 573l317.999 -327.001c-5.33301 -8 -13.833 -18.5 -25.5 -31.5s-37.667 -36 -78 -69s-83.333 -62.167 -129 -87.5s-105.834 -48.166 -180.501 -68.499s-152 -30.5 -232 -30.5c-232 0 -426.667 74.5 -584 223.5s-236 327.167 -236 534.5s78.5 385.5 235.5 534.5
s351.833 223.5 584.5 223.5c80.667 0 157.834 -10 231.501 -30s134.334 -44 182.001 -72s90 -56 127 -84s63.5 -52 79.5 -72l25 -29l-318 -328c-9.33301 10.667 -22.5 24 -39.5 40s-52.167 37.333 -105.5 64s-107.333 40 -162 40c-86 0 -158.667 -28.333 -218 -85
s-89 -124 -89 -202s29.667 -145.333 89 -202s132 -85 218 -85c54.667 0 107.667 12 159 36s88.333 47.667 111 71zM654.999 1577l-307 369h430l82 -123l82 123h430l-307 -369h-410z" />
    <glyph glyph-name="ccaron" unicode="&#x10d;" horiz-adv-x="1136" 
d="M543 502c0 -31.333 12.1621 -57.998 36.4951 -79.998s56.5 -33 96.5 -33c27.333 0 54 6.83301 80 20.5s44.333 27.5 55 41.5l18 20l277 -287c-4 -5.33301 -10.167 -12.833 -18.5 -22.5s-27.166 -27 -56.499 -52s-60.666 -46.833 -93.999 -65.5
s-77.333 -35.834 -132 -51.501s-111.334 -23.5 -170.001 -23.5c-166.667 0 -305.667 52.333 -417 157s-167 230 -167 376s55.667 271.167 167 375.5s250.333 156.5 417 156.5c58.667 0 115.334 -7.5 170.001 -22.5s99.334 -33 134.001 -54s65.334 -41.833 92.001 -62.5
s46.334 -38.334 59.001 -53.001l16 -23l-277 -287c-40.667 54.667 -91.667 82 -153 82c-39.333 0 -71.333 -10.833 -96 -32.5s-37 -48.167 -37 -79.5zM429.995 1126l-307 369h430l82 -123l82 123h430l-307 -369h-410z" />
    <glyph glyph-name="Dcaron" unicode="&#x10e;" horiz-adv-x="1597" 
d="M1536 717c0 -198 -75.5 -367 -226.5 -507s-341.833 -210 -572.5 -210h-594v1434h594c230.667 0 421.5 -70 572.5 -210s226.5 -309 226.5 -507zM676 471h61c75.333 0 138.666 24.167 189.999 72.5s77 106 77 173s-25.667 124.833 -77 173.5s-114.666 73 -189.999 73h-61
v-492zM594 1577l-307 369h430l82 -123l82 123h430l-307 -369h-410z" />
    <glyph glyph-name="dcaron" unicode="&#x10f;" horiz-adv-x="1576" 
d="M481 1024c54.667 0 104.165 -12.001 148.498 -36.001s74.833 -47.333 91.5 -70l27 -37v553h471v-1434h-471v123c-2.66699 -4 -6.16699 -9.16699 -10.5 -15.5s-14.666 -17.666 -30.999 -33.999s-33.666 -31 -51.999 -44s-43.333 -24.5 -75 -34.5s-64.5 -15 -98.5 -15
c-117.333 0 -218.333 48.333 -303 145s-127 222.167 -127 376.5s42.333 280 127 377s185.667 145.5 303 145.5zM542.998 501.999c0 -31.333 9.16699 -56.333 27.5 -75s43.166 -28 74.499 -28s56.333 9.33301 75 28s28 43.667 28 75s-9.33301 56.166 -28 74.499
s-43.667 27.5 -75 27.5s-56.166 -9.16699 -74.499 -27.5s-27.5 -43.166 -27.5 -74.499zM1239 1065l123 369h450l-174 -369h-399z" />
    <glyph glyph-name="Dcroat" unicode="&#x110;" horiz-adv-x="1628" 
d="M1567 717c0 -198 -75.5 -367 -226.5 -507s-341.833 -210 -572.5 -210h-594v532h-133v369h133v533h594c230.667 0 421.5 -70 572.5 -210s226.5 -309 226.5 -507zM707 451l61 0.000976562c76.667 0 140.167 25.167 190.5 75.5s75.5 113.666 75.5 189.999
s-25.167 139.833 -75.5 190.5s-113.833 76 -190.5 76h-61v-82h153v-369h-153v-81z" />
    <glyph glyph-name="dcroat" unicode="&#x111;" horiz-adv-x="1351" 
d="M1341 942l-143 -0.000976562v-942h-471v123c-2.66699 -4 -6 -9.16699 -10 -15.5s-14.167 -17.666 -30.5 -33.999s-33.833 -31 -52.5 -44s-43.667 -24.5 -75 -34.5s-64 -15 -98 -15c-114.667 0 -215 45.667 -301 137s-129 202.5 -129 333.5s43 242.333 129 334
s186.333 137.5 301 137.5c54.667 0 104.167 -12 148.5 -36s74.5 -47.667 90.5 -71l27 -37v164h-184v389h184v103h471v-103h143v-389zM522 450.999c0 -30 9.33301 -54.667 28 -74s43.667 -29 75 -29s56.166 9.66699 74.499 29s27.5 44 27.5 74s-9.16699 54.5 -27.5 73.5
s-43.166 28.5 -74.499 28.5s-56.333 -9.5 -75 -28.5s-28 -43.5 -28 -73.5z" />
    <glyph glyph-name="Emacron" unicode="&#x112;" horiz-adv-x="1423" 
d="M676 430h665v-430h-1198v1434h1178v-430h-645v-93h481v-389h-481v-92zM1085 1966v-348h-716v348h716z" />
    <glyph glyph-name="emacron" unicode="&#x113;" horiz-adv-x="1228" 
d="M1157 410l-603.998 -0.00195312c2.66699 -5.33301 6.66699 -12.166 12 -20.499s22 -19 50 -32s62 -19.5 102 -19.5c27.333 0 55.333 4.5 84 13.5s51 17.5 67 25.5l23 12l164 -307c-12 -8 -29.333 -18.167 -52 -30.5s-70.5 -29.166 -143.5 -50.499
s-147.833 -32 -224.5 -32c-166.667 0 -305.667 52.333 -417 157s-167 230 -167 376c0 150 53.333 276.167 160 378.5s241 153.5 403 153.5c161.333 0 295.666 -50.167 402.999 -150.5s161 -220.833 161 -361.5c0 -22 -1.83301 -42.167 -5.5 -60.5
s-6.83398 -31.5 -9.50098 -39.5zM614.002 716.998c-26 0 -48.168 -9.66699 -66.501 -29s-30.166 -44 -35.499 -74h205c-5.33301 30 -17.333 54.667 -36 74s-41 29 -67 29zM973.001 1495v-348h-717v348h717z" />
    <glyph glyph-name="Edotaccent" unicode="&#x116;" horiz-adv-x="1423" 
d="M676 430h665v-430h-1198v1434h1178v-430h-645v-93h481v-389h-481v-92zM492 1761c0 62.667 23.833 116 71.5 160s109 66 184 66s136.5 -22 184.5 -66s72 -97.333 72 -160s-24 -115.834 -72 -159.501s-109.5 -65.5 -184.5 -65.5s-136.333 21.833 -184 65.5
s-71.5 96.834 -71.5 159.501z" />
    <glyph glyph-name="edotaccent" unicode="&#x117;" horiz-adv-x="1228" 
d="M1157 410l-603.998 -0.00195312c2.66699 -5.33301 6.66699 -12.166 12 -20.499s22 -19 50 -32s62 -19.5 102 -19.5c27.333 0 55.333 4.5 84 13.5s51 17.5 67 25.5l23 12l164 -307c-12 -8 -29.333 -18.167 -52 -30.5s-70.5 -29.166 -143.5 -50.499
s-147.833 -32 -224.5 -32c-166.667 0 -305.667 52.333 -417 157s-167 230 -167 376c0 150 53.333 276.167 160 378.5s241 153.5 403 153.5c161.333 0 295.666 -50.167 402.999 -150.5s161 -220.833 161 -361.5c0 -22 -1.83301 -42.167 -5.5 -60.5
s-6.83398 -31.5 -9.50098 -39.5zM614.002 716.998c-26 0 -48.168 -9.66699 -66.501 -29s-30.166 -44 -35.499 -74h205c-5.33301 30 -17.333 54.667 -36 74s-41 29 -67 29zM358.001 1331c0 62.667 24 115.834 72 159.501s109.5 65.5 184.5 65.5s136.333 -21.833 184 -65.5
s71.5 -96.834 71.5 -159.501s-23.833 -115.834 -71.5 -159.501s-109 -65.5 -184 -65.5s-136.5 21.833 -184.5 65.5s-72 96.834 -72 159.501z" />
    <glyph glyph-name="Eogonek" unicode="&#x118;" horiz-adv-x="1423" 
d="M1178 0l-1035 -0.00195312v1434h1178v-430h-645v-93h481v-389h-481v-92h665v-430c-27.333 -68 -41 -136.333 -41 -205c0 -54.667 27.333 -82 82 -82c12 0 25 2.83301 39 8.5s25 11.167 33 16.5l10 6v-236c-54.667 -27.333 -126.334 -40.666 -215.001 -39.999
c-80.667 0 -146.834 23.833 -198.501 71.5s-77.5 105.5 -77.5 173.5c0 30 7.16699 60.833 21.5 92.5s31.333 58.334 51 80.001s39.5 41.667 59.5 60s36.667 32.5 50 42.5z" />
    <glyph glyph-name="eogonek" unicode="&#x119;" horiz-adv-x="1228" 
d="M1157 410l-603.998 -0.00195312c2.66699 -5.33301 6.66699 -12.166 12 -20.499s22 -19 50 -32s62 -19.5 102 -19.5c27.333 0 55.333 4.5 84 13.5s51 17.5 67 25.5l23 12l164 -307c-75.333 -54.667 -177.666 -88.667 -306.999 -102c-20.667 -61.333 -31 -123 -31 -185
c0 -54.667 27.333 -82 82 -82c12 0 24.833 2.83301 38.5 8.5s23.834 11.167 30.501 16.5l13 6v-236c-54.667 -27.333 -126.334 -40.666 -215.001 -39.999c-80.667 0 -147 23.833 -199 71.5s-78 105.5 -78 173.5c0 45.333 13.667 89.5 41 132.5s54.666 74.167 81.999 93.5
l41 30c-144.667 20.667 -264.5 80.5 -359.5 179.5s-142.5 216.833 -142.5 353.5c0 150 53.333 276.167 160 378.5s241 153.5 403 153.5c161.333 0 295.666 -50.167 402.999 -150.5s161 -220.833 161 -361.5c0 -22 -1.83301 -42.167 -5.5 -60.5
s-6.83398 -31.5 -9.50098 -39.5zM614.002 716.998c-26 0 -48.168 -9.66699 -66.501 -29s-30.166 -44 -35.499 -74h205c-5.33301 30 -17.333 54.667 -36 74s-41 29 -67 29z" />
    <glyph glyph-name="Ecaron" unicode="&#x11a;" horiz-adv-x="1423" 
d="M676 430h665v-430h-1198v1434h1178v-430h-645v-93h481v-389h-481v-92zM532 1577l-307 369h430l82 -123l82 123h430l-307 -369h-410z" />
    <glyph glyph-name="ecaron" unicode="&#x11b;" horiz-adv-x="1228" 
d="M1157 410l-603.998 -0.00195312c2.66699 -5.33301 6.66699 -12.166 12 -20.499s22 -19 50 -32s62 -19.5 102 -19.5c27.333 0 55.333 4.5 84 13.5s51 17.5 67 25.5l23 12l164 -307c-12 -8 -29.333 -18.167 -52 -30.5s-70.5 -29.166 -143.5 -50.499
s-147.833 -32 -224.5 -32c-166.667 0 -305.667 52.333 -417 157s-167 230 -167 376c0 150 53.333 276.167 160 378.5s241 153.5 403 153.5c161.333 0 295.666 -50.167 402.999 -150.5s161 -220.833 161 -361.5c0 -22 -1.83301 -42.167 -5.5 -60.5
s-6.83398 -31.5 -9.50098 -39.5zM614.002 716.998c-26 0 -48.168 -9.66699 -66.501 -29s-30.166 -44 -35.499 -74h205c-5.33301 30 -17.333 54.667 -36 74s-41 29 -67 29zM410.001 1126l-308 369h430l82 -123l82 123h430l-307 -369h-409z" />
    <glyph glyph-name="Gbreve" unicode="&#x11e;" horiz-adv-x="1658" 
d="M1526 1188l-318.002 -328.002c-9.33301 10.667 -22.5 24 -39.5 40s-52.167 37.333 -105.5 64s-107.333 40 -162 40c-86 0 -158.667 -28.333 -218 -85s-89 -124 -89 -202c0 -76.667 28.667 -143.667 86 -201s124.333 -86 201 -86c30 0 56.833 2.66699 80.5 8
s40.5 11 50.5 17l12 6v92h-184v266h716v-563c-6.66699 -8 -16.5 -18.5 -29.5 -31.5s-41.333 -36.667 -85 -71s-89.667 -64.666 -138 -90.999s-110.833 -50.166 -187.5 -71.499s-155 -32 -235 -32c-232 0 -426.667 74.5 -584 223.5s-236 327.167 -236 534.5
s78.5 385.5 235.5 534.5s351.833 223.5 584.5 223.5c80.667 0 157.834 -10 231.501 -30s134.334 -44 182.001 -72s90 -56 127 -84s63.5 -52 79.5 -72zM859.998 1864c20.667 0 37.832 7.5 51.499 22.5s20.5 34.833 20.5 59.5h328c0 -104 -37.667 -191.5 -113 -262.5
s-171 -106.5 -287 -106.5s-211.5 35.5 -286.5 106.5s-112.5 158.5 -112.5 262.5h327c0 -24.667 6.83301 -44.5 20.5 -59.5s30.834 -22.5 51.501 -22.5z" />
    <glyph glyph-name="gbreve" unicode="&#x11f;" horiz-adv-x="1331" 
d="M543 543c0 -31.333 9.16699 -56.333 27.5 -75s43.166 -28 74.499 -28s56.333 9.33301 75 28s28 43.667 28 75s-9.33301 56.166 -28 74.499s-43.667 27.5 -75 27.5s-56.166 -9.16699 -74.499 -27.5s-27.5 -43.166 -27.5 -74.499zM82 -215l246.002 256
c5.33301 -5.33301 13.166 -12.833 23.499 -22.5s33.166 -22 68.499 -37s72.666 -22.5 111.999 -22.5c65.333 0 117.666 18.833 156.999 56.5s59 87.167 59 148.5v41c-2.66699 -4 -6.16699 -9.16699 -10.5 -15.5s-14.666 -17.666 -30.999 -33.999s-33.666 -31 -51.999 -44
s-43.333 -24.667 -75 -35s-64.5 -15.5 -98.5 -15.5c-114.667 0 -215 46.5 -301 139.5s-129 207 -129 342s43 249 129 342s186.333 139.5 301 139.5c54.667 0 104.167 -12 148.5 -36s74.833 -47.333 91.5 -70l27 -37v123h471v-840c0 -176 -58.5 -319 -175.5 -429
s-273.833 -165 -470.5 -165c-62.667 0 -122.667 7.5 -180 22.5s-104 32.667 -140 53s-67.667 41.166 -95 62.499s-47.333 39.333 -60 54zM665.502 1413c20.333 0 37.333 7.5 51 22.5s20.5 34.833 20.5 59.5h328c0 -104 -37.5 -191.5 -112.5 -262.5
s-170.5 -106.5 -286.5 -106.5s-211.667 35.5 -287 106.5s-113 158.5 -113 262.5h328c0 -24.667 6.83301 -44.5 20.5 -59.5s30.667 -22.5 51 -22.5z" />
    <glyph glyph-name="uni0122" unicode="&#x122;" horiz-adv-x="1658" 
d="M1526 1188l-318.002 -328.002c-9.33301 10.667 -22.5 24 -39.5 40s-52.167 37.333 -105.5 64s-107.333 40 -162 40c-86 0 -158.667 -28.333 -218 -85s-89 -124 -89 -202c0 -76.667 28.667 -143.667 86 -201s124.333 -86 201 -86c30 0 56.833 2.66699 80.5 8
s40.5 11 50.5 17l12 6v92h-184v266h716v-563c-6.66699 -8 -16.5 -18.5 -29.5 -31.5s-41.333 -36.667 -85 -71s-89.667 -64.666 -138 -90.999s-110.833 -50.166 -187.5 -71.499s-155 -32 -235 -32c-232 0 -426.667 74.5 -584 223.5s-236 327.167 -236 534.5
s78.5 385.5 235.5 534.5s351.833 223.5 584.5 223.5c80.667 0 157.834 -10 231.501 -30s134.334 -44 182.001 -72s90 -56 127 -84s63.5 -52 79.5 -72zM531.998 -532.002l123 368h451l-174 -368h-400z" />
    <glyph glyph-name="uni0123" unicode="&#x123;" horiz-adv-x="1331" 
d="M543 543c0 -31.333 9.16699 -56.333 27.5 -75s43.166 -28 74.499 -28s56.333 9.33301 75 28s28 43.667 28 75s-9.33301 56.166 -28 74.499s-43.667 27.5 -75 27.5s-56.166 -9.16699 -74.499 -27.5s-27.5 -43.166 -27.5 -74.499zM82 -215l246.002 256
c5.33301 -5.33301 13.166 -12.833 23.499 -22.5s33.166 -22 68.499 -37s72.666 -22.5 111.999 -22.5c65.333 0 117.666 18.833 156.999 56.5s59 87.167 59 148.5v41c-2.66699 -4 -6.16699 -9.16699 -10.5 -15.5s-14.666 -17.666 -30.999 -33.999s-33.666 -31 -51.999 -44
s-43.333 -24.667 -75 -35s-64.5 -15.5 -98.5 -15.5c-114.667 0 -215 46.5 -301 139.5s-129 207 -129 342s43 249 129 342s186.333 139.5 301 139.5c54.667 0 104.167 -12 148.5 -36s74.833 -47.333 91.5 -70l27 -37v123h471v-840c0 -176 -58.5 -319 -175.5 -429
s-273.833 -165 -470.5 -165c-62.667 0 -122.667 7.5 -180 22.5s-104 32.667 -140 53s-67.667 41.166 -95 62.499s-47.333 39.333 -60 54zM993.002 1495l-123 -369h-450l174 369h399z" />
    <glyph glyph-name="Imacron" unicode="&#x12a;" horiz-adv-x="819" 
d="M143 0v1434h533v-1434h-533zM768 1966v-348h-717v348h717z" />
    <glyph glyph-name="imacron" unicode="&#x12b;" horiz-adv-x="716" 
d="M707 1495v-348h-717v348h717zM584 1004v-1004h-471v1004h471z" />
    <glyph glyph-name="Iogonek" unicode="&#x12e;" horiz-adv-x="819" 
d="M143 0l0.000976562 1434h533v-1434h-369c-27.333 -68 -41 -136.333 -41 -205c0 -54.667 27.333 -82 82 -82c12 0 25 2.83301 39 8.5s24.333 11.167 31 16.5l12 6v-236c-54.667 -27.333 -126.334 -40.666 -215.001 -39.999c-80.667 0 -146.834 23.833 -198.501 71.5
s-77.5 105.5 -77.5 173.5c0 30 7.16699 60.833 21.5 92.5s31.333 58.334 51 80.001s39.334 41.667 59.001 60s37.167 32.5 52.5 42.5z" />
    <glyph glyph-name="iogonek" unicode="&#x12f;" horiz-adv-x="716" 
d="M584 0l-307.999 -0.00195312c-27.333 -68 -40.666 -136.333 -39.999 -205c0 -54.667 27 -82 81 -82c12 0 25 2.83301 39 8.5s25 11.167 33 16.5l10 6v-236c-54.667 -27.333 -126.334 -40.666 -215.001 -39.999c-80.667 0 -146.834 23.833 -198.501 71.5
s-77.5 105.5 -77.5 173.5c0 30 7.16699 60.833 21.5 92.5s31.333 58.334 51 80.001s39.5 41.667 59.5 60s36.667 32.5 50 42.5l23 12v1004h471v-1004zM92.001 1311c0 62.667 24 115.834 72 159.501s109.5 65.5 184.5 65.5s136.333 -21.833 184 -65.5
s71.5 -96.834 71.5 -159.501s-23.833 -116 -71.5 -160s-109 -66 -184 -66s-136.5 22 -184.5 66s-72 97.333 -72 160z" />
    <glyph glyph-name="Idotaccent" unicode="&#x130;" horiz-adv-x="819" 
d="M143 0v1434h533v-1434h-533zM154 1761c0 62.667 23.833 116 71.5 160s109 66 184 66s136.5 -22 184.5 -66s72 -97.333 72 -160s-24 -115.834 -72 -159.501s-109.5 -65.5 -184.5 -65.5s-136.333 21.833 -184 65.5s-71.5 96.834 -71.5 159.501z" />
    <glyph glyph-name="dotlessi" unicode="&#x131;" horiz-adv-x="716" 
d="M584 1004v-1004h-471v1004h471z" />
    <glyph glyph-name="uni0136" unicode="&#x136;" horiz-adv-x="1576" 
d="M768 461l-92 -123v-338h-533v1434h533v-430l328 430h573l-461 -594l502 -840h-584zM532 -532l123 368h451l-174 -368h-400z" />
    <glyph glyph-name="uni0137" unicode="&#x137;" horiz-adv-x="1269" 
d="M614 307l-41 -51v-256h-471v1434h471v-676l185 246h512l-332 -431l342 -573h-492zM338 -532l123 368h450l-174 -368h-399z" />
    <glyph glyph-name="Lacute" unicode="&#x139;" 
d="M1249 0h-1106v1434h533v-942h573v-492zM205 1577l194 369h502l-276 -369h-420z" />
    <glyph glyph-name="lacute" unicode="&#x13a;" horiz-adv-x="696" 
d="M573 1434v-1434h-471v1434h471zM143 1577l195 369h502l-277 -369h-420z" />
    <glyph glyph-name="uni013B" unicode="&#x13b;" 
d="M1249 0h-1106v1434h533v-942h573v-492zM389 -532l123 368h451l-175 -368h-399z" />
    <glyph glyph-name="uni013C" unicode="&#x13c;" horiz-adv-x="696" 
d="M573 1434v-1434h-471v1434h471zM-10 -532l123 368h450l-174 -368h-399z" />
    <glyph glyph-name="Lcaron" unicode="&#x13d;" 
d="M1249 0h-1106v1434h533v-942h573v-492zM737 1065l123 369h451l-174 -369h-400z" />
    <glyph glyph-name="lcaron" unicode="&#x13e;" horiz-adv-x="931" 
d="M573 1434v-1434h-471v1434h471zM594 1065l123 369h450l-174 -369h-399z" />
    <glyph glyph-name="Lslash" unicode="&#x141;" horiz-adv-x="1382" 
d="M1341 0h-1105v348l-72 -41l-225 400l297 174v553h532v-318l72 41l225 -399l-297 -174v-92h573v-492z" />
    <glyph glyph-name="lslash" unicode="&#x142;" horiz-adv-x="880" 
d="M932 788l-266 -153v-635h-471v358l-62 -41l-205 359l267 153v605h471v-328l61 41z" />
    <glyph glyph-name="Nacute" unicode="&#x143;" horiz-adv-x="1730" 
d="M1055 1434h532v-1434h-450l-461 594v-594h-533v1434h451l461 -594v594zM635 1577l194 369h502l-276 -369h-420z" />
    <glyph glyph-name="nacute" unicode="&#x144;" 
d="M563 1004l0.00488281 -123c2.66699 4 6.16699 9 10.5 15s14.666 17.167 30.999 33.5s33.666 31 51.999 44s43.166 24.667 74.499 35s64 15.5 98 15.5c100 0 183.167 -37.167 249.5 -111.5s99.5 -173.833 99.5 -298.5v-614h-471v492
c0 24.667 -6.83301 44.334 -20.5 59.001s-30.834 22 -51.501 22c-16.667 0 -32.834 -9.83301 -48.501 -29.5s-23.5 -43.834 -23.5 -72.501v-471h-471v1004h471zM410.005 1126l194 369h502l-277 -369h-419z" />
    <glyph glyph-name="uni0145" unicode="&#x145;" horiz-adv-x="1730" 
d="M1055 1434h532v-1434h-450l-461 594v-594h-533v1434h451l461 -594v594zM555 -532l123 368h450l-174 -368h-399z" />
    <glyph glyph-name="uni0146" unicode="&#x146;" 
d="M563 1004l0.00488281 -123c2.66699 4 6.16699 9 10.5 15s14.666 17.167 30.999 33.5s33.666 31 51.999 44s43.166 24.667 74.499 35s64 15.5 98 15.5c100 0 183.167 -37.167 249.5 -111.5s99.5 -173.833 99.5 -298.5v-614h-471v492
c0 24.667 -6.83301 44.334 -20.5 59.001s-30.834 22 -51.501 22c-16.667 0 -32.834 -9.83301 -48.501 -29.5s-23.5 -43.834 -23.5 -72.501v-471h-471v1004h471zM297.005 -532l123 368h450l-174 -368h-399z" />
    <glyph glyph-name="Ncaron" unicode="&#x147;" horiz-adv-x="1730" 
d="M1055 1434h532v-1434h-450l-461 594v-594h-533v1434h451l461 -594v594zM655 1577l-307 369h430l82 -123l82 123h430l-307 -369h-410z" />
    <glyph glyph-name="ncaron" unicode="&#x148;" 
d="M563 1004l0.00488281 -123c2.66699 4 6.16699 9 10.5 15s14.666 17.167 30.999 33.5s33.666 31 51.999 44s43.166 24.667 74.499 35s64 15.5 98 15.5c100 0 183.167 -37.167 249.5 -111.5s99.5 -173.833 99.5 -298.5v-614h-471v492
c0 24.667 -6.83301 44.334 -20.5 59.001s-30.834 22 -51.501 22c-16.667 0 -32.834 -9.83301 -48.501 -29.5s-23.5 -43.834 -23.5 -72.501v-471h-471v1004h471zM430.005 1126l-307 369h430l82 -123l82 123h430l-307 -369h-410z" />
    <glyph glyph-name="Omacron" unicode="&#x14c;" horiz-adv-x="1761" 
d="M1700 717c0 -207.333 -78.5 -385.5 -235.5 -534.5s-351.667 -223.5 -584 -223.5s-427 74.5 -584 223.5s-235.5 327.167 -235.5 534.5s78.5 385.5 235.5 534.5s351.667 223.5 584 223.5s427 -74.5 584 -223.5s235.5 -327.167 235.5 -534.5zM1167 716.5
c0 76.333 -28.667 143.333 -86 201s-124.166 86.5 -200.499 86.5s-143.166 -28.833 -200.499 -86.5s-86 -124.667 -86 -201s28.667 -143.166 86 -200.499s124.166 -86 200.499 -86s143.166 28.667 200.499 86s86 124.166 86 200.499zM1239 1966v-348h-717v348h717z" />
    <glyph glyph-name="omacron" unicode="&#x14d;" 
d="M727 502c0 30 -8.83301 54.5 -26.5 73.5s-39.5 28.5 -65.5 28.5s-47.833 -9.5 -65.5 -28.5s-26.5 -43.5 -26.5 -73.5s8.83301 -54.667 26.5 -74s39.5 -29 65.5 -29s47.833 9.66699 65.5 29s26.5 44 26.5 74zM1219 502c0 -146 -55.667 -271.333 -167 -376
s-250.333 -157 -417 -157s-305.667 52.333 -417 157s-167 230 -167 376s55.667 271.167 167 375.5s250.333 156.5 417 156.5s305.667 -52.167 417 -156.5s167 -229.5 167 -375.5zM993 1495v-348h-717v348h717z" />
    <glyph glyph-name="Ohungarumlaut" unicode="&#x150;" horiz-adv-x="1761" 
d="M1700 717c0 -207.333 -78.5 -385.5 -235.5 -534.5s-351.667 -223.5 -584 -223.5s-427 74.5 -584 223.5s-235.5 327.167 -235.5 534.5s78.5 385.5 235.5 534.5s351.667 223.5 584 223.5s427 -74.5 584 -223.5s235.5 -327.167 235.5 -534.5zM1167 716.5
c0 76.333 -28.667 143.333 -86 201s-124.166 86.5 -200.499 86.5s-143.166 -28.833 -200.499 -86.5s-86 -124.667 -86 -201s28.667 -143.166 86 -200.499s124.166 -86 200.499 -86s143.166 28.667 200.499 86s86 124.166 86 200.499zM451 1577l204 369h420l-276 -369h-348z
M942 1577l205 369h420l-277 -369h-348z" />
    <glyph glyph-name="ohungarumlaut" unicode="&#x151;" 
d="M727 502c0 30 -8.83301 54.5 -26.5 73.5s-39.5 28.5 -65.5 28.5s-47.833 -9.5 -65.5 -28.5s-26.5 -43.5 -26.5 -73.5s8.83301 -54.667 26.5 -74s39.5 -29 65.5 -29s47.833 9.66699 65.5 29s26.5 44 26.5 74zM1219 502c0 -146 -55.667 -271.333 -167 -376
s-250.333 -157 -417 -157s-305.667 52.333 -417 157s-167 230 -167 376s55.667 271.167 167 375.5s250.333 156.5 417 156.5s305.667 -52.167 417 -156.5s167 -229.5 167 -375.5zM205 1126l205 369h419l-276 -369h-348zM696 1126l205 369h420l-277 -369h-348z" />
    <glyph glyph-name="OE" unicode="&#x152;" horiz-adv-x="2099" 
d="M61 717c0 198 75.5 367 226.5 507s341.833 210 572.5 210h1137v-430h-584v-93h420v-389h-420v-92h604v-430h-1157c-230.667 0 -421.5 70 -572.5 210s-226.5 309 -226.5 507zM860 471h21v492h-21c-75.333 0 -138.5 -24.333 -189.5 -73s-76.5 -106.5 -76.5 -173.5
s25.5 -124.667 76.5 -173s114.167 -72.5 189.5 -72.5z" />
    <glyph glyph-name="oe" unicode="&#x153;" horiz-adv-x="1904" 
d="M1833 410h-603.998c2.66699 -5.33301 6.66699 -12.166 12 -20.499s22 -19 50 -32s62 -19.5 102 -19.5c27.333 0 55.333 4.5 84 13.5s51 17.5 67 25.5l23 12l164 -307c-12 -8 -29.333 -18.167 -52 -30.5s-68.834 -29.166 -138.501 -50.499s-139.334 -32 -209.001 -32
s-134.5 11.333 -194.5 34s-102.333 45 -127 67l-37 32c-9.33301 -9.33301 -23 -21.5 -41 -36.5s-58 -34.833 -120 -59.5s-128 -37 -198 -37c-157.333 0 -290.5 52.667 -399.5 158s-163.5 230.333 -163.5 375s54.667 269.5 164 374.5s242.333 157.5 399 157.5
c69.333 0 134.166 -11.167 194.499 -33.5s102.833 -44.5 127.5 -66.5l37 -33c9.33301 9.33301 22.5 21.666 39.5 36.999s54.833 35.166 113.5 59.499s120.334 36.5 185.001 36.5c151.333 0 279.5 -50.5 384.5 -151.5s157.5 -221.167 157.5 -360.5
c0 -22 -1.66699 -42.167 -5 -60.5s-6.33301 -31.5 -9 -39.5zM727.002 502c0 30 -8.83301 54.5 -26.5 73.5s-39.5 28.5 -65.5 28.5s-47.833 -9.5 -65.5 -28.5s-26.5 -43.5 -26.5 -73.5s8.83301 -54.667 26.5 -74s39.5 -29 65.5 -29s47.833 9.66699 65.5 29s26.5 44 26.5 74z
M1290 717c-26 0 -48.168 -9.66699 -66.501 -29s-30.166 -44 -35.499 -74h205c-5.33301 30 -17.333 54.667 -36 74s-41 29 -67 29z" />
    <glyph glyph-name="Racute" unicode="&#x154;" horiz-adv-x="1525" 
d="M1229 492l276 -491.999h-553l-184 389h-92v-389h-533v1434h738c172 0 310.5 -49.167 415.5 -147.5s157.5 -223.5 157.5 -375.5c0 -56 -7.83301 -108.5 -23.5 -157.5s-34.5 -88.833 -56.5 -119.5s-43.833 -57.334 -65.5 -80.001s-40.167 -38.667 -55.5 -48zM840 983.001
h-164v-143h164c24.667 0 44.5 6.83301 59.5 20.5s22.5 30.667 22.5 51s-7.5 37.333 -22.5 51s-34.833 20.5 -59.5 20.5zM553 1577l195 369h501l-276 -369h-420z" />
    <glyph glyph-name="racute" unicode="&#x155;" horiz-adv-x="901" 
d="M850 1024l0.00292969 -492c-27.333 13.333 -61.333 20.333 -102 21c-57.333 0 -102.5 -17.833 -135.5 -53.5s-49.5 -86.167 -49.5 -151.5v-348h-471v1004h471v-123c2.66699 4 6.16699 9 10.5 15s14.666 17.167 30.999 33.5s33.666 31 51.999 44s43.166 24.667 74.499 35
s64 15.5 98 15.5h21zM256.003 1126l195 369h501l-276 -369h-420z" />
    <glyph glyph-name="uni0156" unicode="&#x156;" horiz-adv-x="1525" 
d="M1229 492l276 -491.999h-553l-184 389h-92v-389h-533v1434h738c172 0 310.5 -49.167 415.5 -147.5s157.5 -223.5 157.5 -375.5c0 -56 -7.83301 -108.5 -23.5 -157.5s-34.5 -88.833 -56.5 -119.5s-43.833 -57.334 -65.5 -80.001s-40.167 -38.667 -55.5 -48zM840 983.001
h-164v-143h164c24.667 0 44.5 6.83301 59.5 20.5s22.5 30.667 22.5 51s-7.5 37.333 -22.5 51s-34.833 20.5 -59.5 20.5zM471 -531.999l123 368h450l-174 -368h-399z" />
    <glyph glyph-name="uni0157" unicode="&#x157;" horiz-adv-x="901" 
d="M850 1024l0.00292969 -492c-27.333 13.333 -61.333 20.333 -102 21c-57.333 0 -102.5 -17.833 -135.5 -53.5s-49.5 -86.167 -49.5 -151.5v-348h-471v1004h471v-123c2.66699 4 6.16699 9 10.5 15s14.666 17.167 30.999 33.5s33.666 31 51.999 44s43.166 24.667 74.499 35
s64 15.5 98 15.5h21zM-19.9971 -532l122 368h451l-174 -368h-399z" />
    <glyph glyph-name="Rcaron" unicode="&#x158;" horiz-adv-x="1525" 
d="M1229 492l276 -491.999h-553l-184 389h-92v-389h-533v1434h738c172 0 310.5 -49.167 415.5 -147.5s157.5 -223.5 157.5 -375.5c0 -56 -7.83301 -108.5 -23.5 -157.5s-34.5 -88.833 -56.5 -119.5s-43.833 -57.334 -65.5 -80.001s-40.167 -38.667 -55.5 -48zM840 983.001
h-164v-143h164c24.667 0 44.5 6.83301 59.5 20.5s22.5 30.667 22.5 51s-7.5 37.333 -22.5 51s-34.833 20.5 -59.5 20.5zM553 1577l-307 369h430l82 -123l82 123h430l-307 -369h-410z" />
    <glyph glyph-name="rcaron" unicode="&#x159;" horiz-adv-x="901" 
d="M850 1024l0.00292969 -492c-27.333 13.333 -61.333 20.333 -102 21c-57.333 0 -102.5 -17.833 -135.5 -53.5s-49.5 -86.167 -49.5 -151.5v-348h-471v1004h471v-123c2.66699 4 6.16699 9 10.5 15s14.666 17.167 30.999 33.5s33.666 31 51.999 44s43.166 24.667 74.499 35
s64 15.5 98 15.5h21zM276.003 1126l-307 369h430l82 -123l82 123h430l-307 -369h-410z" />
    <glyph glyph-name="Sacute" unicode="&#x15a;" 
d="M1229 1270l-297.001 -307c-54.667 54.667 -116 81.667 -184 81c-28.667 0 -51.334 -6 -68.001 -18s-25 -26.333 -25 -43c0 -13.333 20.5 -26.5 61.5 -39.5s90.5 -29.167 148.5 -48.5s116 -44.666 174 -75.999s107.5 -78.666 148.5 -141.999s61.5 -138.666 61.5 -225.999
c0 -131.333 -56.667 -246.166 -170 -344.499s-264.666 -147.5 -453.999 -147.5c-76.667 0 -150.5 8.5 -221.5 25.5s-130 37.5 -177 61.5s-88.333 48 -124 72s-61.5 44.667 -77.5 62l-25 25l297 307c9.33301 -9.33301 21.833 -20.833 37.5 -34.5s45 -31.834 88 -54.501
s83.167 -34 120.5 -34c34 0 61.167 8.16699 81.5 24.5s30.5 35.5 30.5 57.5c0 13.333 -20.5 26.5 -61.5 39.5s-90.5 29.167 -148.5 48.5s-116 44.666 -174 75.999s-107.5 78.666 -148.5 141.999s-61.5 139 -61.5 227c0 125.333 54.667 235.166 164 329.499
s256.333 141.5 441 141.5c72.667 0 141.667 -7.16699 207 -21.5s118.833 -31.5 160.5 -51.5s77.834 -39.833 108.501 -59.5s52.667 -37.167 66 -52.5zM439.999 1577l195 369h502l-277 -369h-420z" />
    <glyph glyph-name="sacute" unicode="&#x15b;" horiz-adv-x="1054" 
d="M993 860l-204.999 -215.001c-27.333 27.333 -58 41 -92 41c-40.667 0 -61 -13.667 -61 -41c0 -9.33301 19.167 -20.833 57.5 -34.5s80.666 -28.667 126.999 -45s88.666 -47 126.999 -92s57.5 -100.5 57.5 -166.5c0 -92.667 -42.333 -172.167 -127 -238.5
s-203 -99.5 -355 -99.5c-66.667 0 -130 7.5 -190 22.5s-108.833 33.167 -146.5 54.5s-70.167 42.166 -97.5 62.499s-47 38.166 -59 53.499l-19 22l205 215c40.667 -54.667 92 -82 154 -82c40.667 0 61 13.667 61 41c0 8 -12.667 16.833 -38 26.5s-56 21 -92 34
s-72.167 29.833 -108.5 50.5s-67.166 51.834 -92.499 93.501s-38 89.834 -38 144.501c0 88.667 42 165.334 126 230.001s199 97 345 97c61.333 0 119 -6.16699 173 -18.5s97.833 -27 131.5 -44s63.167 -33.667 88.5 -50s43.333 -30.5 54 -42.5zM297.001 1126l195 369h501
l-276 -369h-420z" />
    <glyph glyph-name="Scedilla" unicode="&#x15e;" 
d="M1229 1270l-297.001 -307c-54.667 54.667 -116 81.667 -184 81c-28.667 0 -51.334 -6 -68.001 -18s-25 -26.333 -25 -43c0 -13.333 20.5 -26.5 61.5 -39.5s90.5 -29.167 148.5 -48.5s116 -44.666 174 -75.999s107.5 -78.666 148.5 -141.999s61.5 -138.666 61.5 -225.999
c0 -122.667 -49.833 -231.167 -149.5 -325.5s-230.5 -146.5 -392.5 -156.5l-21 -51c6.66699 -1.33301 15.5 -3 26.5 -5s30.5 -8.16699 58.5 -18.5s53 -23 75 -38s41.833 -36.833 59.5 -65.5s26.5 -61.334 26.5 -98.001c0 -69.333 -27.667 -127.666 -83 -174.999
s-130 -71 -224 -71c-54.667 0 -106.667 8.5 -156 25.5s-85.666 34.5 -108.999 52.5l-32 24l112 175c40.667 -34 81.667 -51.167 123 -51.5s62 13.167 62 40.5c0 10.667 -4.83301 20.167 -14.5 28.5s-22.167 12.5 -37.5 12.5l-41 -10l-71 92l61 133
c-62.667 5.33301 -123.667 17.333 -183 36s-108.5 38.834 -147.5 60.501s-73.5 43.167 -103.5 64.5s-52.667 39.333 -68 54l-20 21l297 307c9.33301 -9.33301 21.833 -20.833 37.5 -34.5s45 -31.834 88 -54.501s83.167 -34 120.5 -34c34 0 61.167 8.16699 81.5 24.5
s30.5 35.5 30.5 57.5c0 13.333 -20.5 26.5 -61.5 39.5s-90.5 29.167 -148.5 48.5s-116 44.666 -174 75.999s-107.5 78.666 -148.5 141.999s-61.5 139 -61.5 227c0 125.333 54.667 235.166 164 329.499s256.333 141.5 441 141.5c72.667 0 141.667 -7.16699 207 -21.5
s118.833 -31.5 160.5 -51.5s77.834 -39.833 108.501 -59.5s52.667 -37.167 66 -52.5z" />
    <glyph glyph-name="scedilla" unicode="&#x15f;" horiz-adv-x="1054" 
d="M993 860l-204.996 -215.003c-27.333 27.333 -58 41 -92 41c-40.667 0 -61 -13.667 -61 -41c0 -9.33301 19.167 -20.833 57.5 -34.5s80.666 -28.667 126.999 -45s88.666 -47 126.999 -92s57.5 -100.5 57.5 -166.5c0 -86 -38 -161.333 -114 -226s-177.333 -102 -304 -112
l-23 -51c6.66699 -1.33301 15.5 -3 26.5 -5s30.5 -8.16699 58.5 -18.5s53 -23 75 -38s41.833 -36.833 59.5 -65.5s26.5 -61.334 26.5 -98.001c0 -69.333 -27.667 -127.666 -83 -174.999s-130 -71 -224 -71c-54.667 0 -106.667 8.5 -156 25.5s-85.333 34.5 -108 52.5l-33 24
l112 175c40.667 -34 81.667 -51.167 123 -51.5s62 13.167 62 40.5c0 10.667 -4.83301 20.167 -14.5 28.5s-21.834 12.5 -36.501 12.5l-41 -10l-72 92l61 144c-79.333 9.33301 -151.333 31 -216 65s-109.334 65.333 -134.001 94l-39 45l205 213
c2.66699 -4 9.5 -11.5 20.5 -22.5s29.167 -23.333 54.5 -37s51.666 -20.5 78.999 -20.5c40.667 0 61 13.667 61 41c0 8 -12.667 16.833 -38 26.5s-56 21 -92 34s-72.167 29.833 -108.5 50.5s-67.166 51.834 -92.499 93.501s-38 89.834 -38 144.501
c0 88.667 42 165.334 126 230.001s199 97 345 97c61.333 0 119 -6.16699 173 -18.5s97.833 -27 131.5 -44s63.167 -33.667 88.5 -50s43.333 -30.5 54 -42.5z" />
    <glyph glyph-name="Scaron" unicode="&#x160;" 
d="M1229 1270l-297.001 -307c-54.667 54.667 -116 81.667 -184 81c-28.667 0 -51.334 -6 -68.001 -18s-25 -26.333 -25 -43c0 -13.333 20.5 -26.5 61.5 -39.5s90.5 -29.167 148.5 -48.5s116 -44.666 174 -75.999s107.5 -78.666 148.5 -141.999s61.5 -138.666 61.5 -225.999
c0 -131.333 -56.667 -246.166 -170 -344.499s-264.666 -147.5 -453.999 -147.5c-76.667 0 -150.5 8.5 -221.5 25.5s-130 37.5 -177 61.5s-88.333 48 -124 72s-61.5 44.667 -77.5 62l-25 25l297 307c9.33301 -9.33301 21.833 -20.833 37.5 -34.5s45 -31.834 88 -54.501
s83.167 -34 120.5 -34c34 0 61.167 8.16699 81.5 24.5s30.5 35.5 30.5 57.5c0 13.333 -20.5 26.5 -61.5 39.5s-90.5 29.167 -148.5 48.5s-116 44.666 -174 75.999s-107.5 78.666 -148.5 141.999s-61.5 139 -61.5 227c0 125.333 54.667 235.166 164 329.499
s256.333 141.5 441 141.5c72.667 0 141.667 -7.16699 207 -21.5s118.833 -31.5 160.5 -51.5s77.834 -39.833 108.501 -59.5s52.667 -37.167 66 -52.5zM460.999 1577l-307 369h430l82 -123l82 123h430l-308 -369h-409z" />
    <glyph glyph-name="scaron" unicode="&#x161;" horiz-adv-x="1054" 
d="M993 860l-204.999 -215.001c-27.333 27.333 -58 41 -92 41c-40.667 0 -61 -13.667 -61 -41c0 -9.33301 19.167 -20.833 57.5 -34.5s80.666 -28.667 126.999 -45s88.666 -47 126.999 -92s57.5 -100.5 57.5 -166.5c0 -92.667 -42.333 -172.167 -127 -238.5
s-203 -99.5 -355 -99.5c-66.667 0 -130 7.5 -190 22.5s-108.833 33.167 -146.5 54.5s-70.167 42.166 -97.5 62.499s-47 38.166 -59 53.499l-19 22l205 215c40.667 -54.667 92 -82 154 -82c40.667 0 61 13.667 61 41c0 8 -12.667 16.833 -38 26.5s-56 21 -92 34
s-72.167 29.833 -108.5 50.5s-67.166 51.834 -92.499 93.501s-38 89.834 -38 144.501c0 88.667 42 165.334 126 230.001s199 97 345 97c61.333 0 119 -6.16699 173 -18.5s97.833 -27 131.5 -44s63.167 -33.667 88.5 -50s43.333 -30.5 54 -42.5zM338.001 1126l-307 369h430
l82 -123l82 123h430l-307 -369h-410z" />
    <glyph glyph-name="uni0162" unicode="&#x162;" horiz-adv-x="1351" 
d="M41 1434h1270v-492h-369v-942h-532v942h-369v492zM328 -532l123 368h450l-174 -368h-399z" />
    <glyph glyph-name="uni0163" unicode="&#x163;" horiz-adv-x="962" 
d="M829 1004l0.000976562 -390.001h-204v-102c0 -30 9.16699 -54.5 27.5 -73.5s43.166 -28.5 74.499 -28.5c18 0 35.5 1.66699 52.5 5s29.5 7 37.5 11l12 4v-410c-68 -27.333 -149.667 -40.666 -245 -39.999c-134 0 -239.167 39.5 -315.5 118.5s-114.5 189.5 -114.5 331.5
v184h-123v390h41c40.667 0 74.667 13.5 102 40.5s41 61.167 41 102.5v123h410v-266h204zM174.001 -532.001l123 368h451l-175 -368h-399z" />
    <glyph glyph-name="Tcaron" unicode="&#x164;" horiz-adv-x="1351" 
d="M41 1434h1270v-492h-369v-942h-532v942h-369v492zM471 1577l-307 369h430l82 -123l82 123h430l-307 -369h-410z" />
    <glyph glyph-name="tcaron" unicode="&#x165;" horiz-adv-x="1044" 
d="M829 1004l0.000976562 -390.001h-204v-102c0 -30 9.16699 -54.5 27.5 -73.5s43.166 -28.5 74.499 -28.5c18 0 35.5 1.66699 52.5 5s29.5 7 37.5 11l12 4v-410c-68 -27.333 -149.667 -40.666 -245 -39.999c-134 0 -239.167 39.5 -315.5 118.5s-114.5 189.5 -114.5 331.5
v184h-123v390h41c40.667 0 74.667 13.5 102 40.5s41 61.167 41 102.5v123h410v-266h204zM707.001 1065l122 369h451l-174 -369h-399z" />
    <glyph glyph-name="Umacron" unicode="&#x16a;" horiz-adv-x="1658" 
d="M829.5 430c46.333 0 87.002 18.167 122.002 54.5s52.5 79.5 52.5 129.5v820h532v-820c0 -187.333 -65.833 -343.333 -197.5 -468s-301.334 -187 -509.001 -187s-377.334 62.5 -509.001 187.5s-197.5 280.833 -197.5 467.5v820h532v-820c0 -50.667 17.5 -94 52.5 -130
s75.667 -54 122 -54zM1188 1966v-348h-717v348h717z" />
    <glyph glyph-name="umacron" unicode="&#x16b;" horiz-adv-x="1300" 
d="M707 0l-0.00488281 122.998c-2.66699 -4 -6.16699 -9.16699 -10.5 -15.5s-14.666 -17.666 -30.999 -33.999s-33.666 -31 -51.999 -44s-43.166 -24.5 -74.499 -34.5s-64.333 -15 -99 -15c-100 0 -183 37.167 -249 111.5s-99 173.5 -99 297.5v615h471v-492
c0 -24.667 6.83301 -44.5 20.5 -59.5s30.834 -22.5 51.501 -22.5c16.667 0 32.834 9.83301 48.501 29.5s23.5 43.834 23.5 72.501v472h471v-1004h-471zM992.995 1495v-348h-717v348h717z" />
    <glyph glyph-name="Uring" unicode="&#x16e;" horiz-adv-x="1658" 
d="M829.5 430c46.333 0 87.002 18.167 122.002 54.5s52.5 79.5 52.5 129.5v820h532v-820c0 -187.333 -65.833 -343.333 -197.5 -468s-301.334 -187 -509.001 -187s-377.334 62.5 -509.001 187.5s-197.5 280.833 -197.5 467.5v820h532v-820c0 -50.667 17.5 -94 52.5 -130
s75.667 -54 122 -54zM901.002 1802.5c0 20.333 -6.83301 37.333 -20.5 51s-30.667 20.5 -51 20.5s-37.333 -6.83301 -51 -20.5s-20.5 -30.667 -20.5 -51s6.83301 -37.333 20.5 -51s30.667 -20.5 51 -20.5s37.333 6.83301 51 20.5s20.5 30.667 20.5 51zM1137 1802.5
c0 -77.667 -29.833 -144.834 -89.5 -201.501s-132.5 -85 -218.5 -85s-158.667 28.333 -218 85s-89 123.834 -89 201.501s29.667 144.834 89 201.501s132 85 218 85s158.833 -28.333 218.5 -85s89.5 -123.834 89.5 -201.501z" />
    <glyph glyph-name="uring" unicode="&#x16f;" horiz-adv-x="1300" 
d="M707 0l-0.00488281 122.998c-2.66699 -4 -6.16699 -9.16699 -10.5 -15.5s-14.666 -17.666 -30.999 -33.999s-33.666 -31 -51.999 -44s-43.166 -24.5 -74.499 -34.5s-64.333 -15 -99 -15c-100 0 -183 37.167 -249 111.5s-99 173.5 -99 297.5v615h471v-492
c0 -24.667 6.83301 -44.5 20.5 -59.5s30.834 -22.5 51.501 -22.5c16.667 0 32.834 9.83301 48.501 29.5s23.5 43.834 23.5 72.501v472h471v-1004h-471zM706.995 1372c0 20.667 -6.83301 37.834 -20.5 51.501s-30.834 20.5 -51.501 20.5s-37.834 -6.83301 -51.501 -20.5
s-20.5 -30.834 -20.5 -51.501s6.83301 -37.834 20.5 -51.501s30.834 -20.5 51.501 -20.5s37.834 6.83301 51.501 20.5s20.5 30.834 20.5 51.501zM941.995 1372c0 -78 -29.667 -145.333 -89 -202s-132 -85 -218 -85s-158.667 28.333 -218 85s-89 124 -89 202
s29.667 145.333 89 202s132 85 218 85s158.667 -28.333 218 -85s89 -124 89 -202z" />
    <glyph glyph-name="Uhungarumlaut" unicode="&#x170;" horiz-adv-x="1658" 
d="M829.5 430c46.333 0 87.002 18.167 122.002 54.5s52.5 79.5 52.5 129.5v820h532v-820c0 -187.333 -65.833 -343.333 -197.5 -468s-301.334 -187 -509.001 -187s-377.334 62.5 -509.001 187.5s-197.5 280.833 -197.5 467.5v820h532v-820c0 -50.667 17.5 -94 52.5 -130
s75.667 -54 122 -54zM399.002 1577l205 369h420l-276 -369h-349zM891.002 1577l205 369h420l-277 -369h-348z" />
    <glyph glyph-name="uhungarumlaut" unicode="&#x171;" horiz-adv-x="1300" 
d="M707 0l-0.00488281 122.998c-2.66699 -4 -6.16699 -9.16699 -10.5 -15.5s-14.666 -17.666 -30.999 -33.999s-33.666 -31 -51.999 -44s-43.166 -24.5 -74.499 -34.5s-64.333 -15 -99 -15c-100 0 -183 37.167 -249 111.5s-99 173.5 -99 297.5v615h471v-492
c0 -24.667 6.83301 -44.5 20.5 -59.5s30.834 -22.5 51.501 -22.5c16.667 0 32.834 9.83301 48.501 29.5s23.5 43.834 23.5 72.501v472h471v-1004h-471zM204.995 1126l205 369h419l-276 -369h-348zM695.995 1126l205 369h420l-277 -369h-348z" />
    <glyph glyph-name="Uogonek" unicode="&#x172;" horiz-adv-x="1658" 
d="M829.5 430c46.333 0 87.002 18.165 122.002 54.498s52.5 79.5 52.5 129.5v820h532v-820c0 -172 -57.333 -318.667 -172 -440s-255.334 -189.666 -422.001 -204.999c-13.333 -54.667 -20 -112.667 -20 -174c0 -54.667 27.333 -82 82 -82c12 0 24.833 2.83301 38.5 8.5
s23.834 11.167 30.501 16.5l12 6v-236c-54.667 -27.333 -126.334 -40.666 -215.001 -39.999c-80.667 0 -146.834 23.833 -198.501 71.5s-77.5 105.5 -77.5 173.5c0 42 13 84.667 39 128s51.333 76 76 98l39 30c-180 10.667 -329.167 76.167 -447.5 196.5
s-177.5 269.833 -177.5 448.5v820h532v-820c0 -50.667 17.5 -94 52.5 -130s75.667 -54 122 -54z" />
    <glyph glyph-name="uogonek" unicode="&#x173;" horiz-adv-x="1300" 
d="M707 0l-0.00585938 122.996c-2.66699 -4 -6.16699 -9.16699 -10.5 -15.5s-14.666 -17.666 -30.999 -33.999s-33.666 -31 -51.999 -44s-43.166 -24.5 -74.499 -34.5s-64.333 -15 -99 -15c-100 0 -183 37.167 -249 111.5s-99 173.5 -99 297.5v615h471v-492
c0 -24.667 6.83301 -44.5 20.5 -59.5s30.834 -22.5 51.501 -22.5c16.667 0 32.834 9.83301 48.501 29.5s23.5 43.834 23.5 72.501v472h471v-1004h-308c-40.667 -68 -61 -136.333 -61 -205c0 -54.667 27.333 -82 82 -82c12 0 24.833 2.83301 38.5 8.5
s24.834 11.167 33.501 16.5l10 6v-236c-54.667 -27.333 -126.334 -40.666 -215.001 -39.999c-80.667 0 -147 23.833 -199 71.5s-78 105.5 -78 173.5c0 30 7.83301 60.833 23.5 92.5s34.5 58.334 56.5 80.001s43.833 41.667 65.5 60s40.834 32.5 57.501 42.5z" />
    <glyph glyph-name="Ydieresis" unicode="&#x178;" horiz-adv-x="1474" 
d="M532 1434l205 -441l205 441h574l-512 -922v-512h-533v512l-512 922h573zM256 1772c0 57.333 22.167 107.5 66.5 150.5s97.166 64.5 158.499 64.5s114.333 -21.5 159 -64.5s67 -93.167 67 -150.5s-22.333 -107.666 -67 -150.999s-97.667 -65 -159 -65
s-114.166 21.667 -158.499 65s-66.5 93.666 -66.5 150.999zM768 1772c0 57.333 22.167 107.5 66.5 150.5s97.166 64.5 158.499 64.5s114.333 -21.5 159 -64.5s67 -93.167 67 -150.5s-22.333 -107.666 -67 -150.999s-97.667 -65 -159 -65s-114.166 21.667 -158.499 65
s-66.5 93.666 -66.5 150.999z" />
    <glyph glyph-name="Zacute" unicode="&#x179;" horiz-adv-x="1392" 
d="M594 942h-481v492h1177v-492l-512 -450h533v-492h-1229v492zM492 1577l194 369h502l-277 -369h-419z" />
    <glyph glyph-name="zacute" unicode="&#x17a;" horiz-adv-x="1105" 
d="M1014 1004v-390l-338 -225h358v-389h-983v389l338 225h-317v390h942zM317 1126l195 369h502l-277 -369h-420z" />
    <glyph glyph-name="Zdotaccent" unicode="&#x17b;" horiz-adv-x="1392" 
d="M594 942h-481v492h1177v-492l-512 -450h533v-492h-1229v492zM440 1761c0 62.667 24 116 72 160s109.5 66 184.5 66s136.333 -22 184 -66s71.5 -97.333 71.5 -160s-23.833 -115.834 -71.5 -159.501s-109 -65.5 -184 -65.5s-136.5 21.833 -184.5 65.5
s-72 96.834 -72 159.501z" />
    <glyph glyph-name="zdotaccent" unicode="&#x17c;" horiz-adv-x="1105" 
d="M1014 1004v-390l-338 -225h358v-389h-983v389l338 225h-317v390h942zM287 1311c0 62.667 23.833 115.834 71.5 159.501s109 65.5 184 65.5s136.5 -21.833 184.5 -65.5s72 -96.834 72 -159.501s-24 -116 -72 -160s-109.5 -66 -184.5 -66s-136.333 22 -184 66
s-71.5 97.333 -71.5 160z" />
    <glyph glyph-name="Zcaron" unicode="&#x17d;" horiz-adv-x="1392" 
d="M594 942h-481v492h1177v-492l-512 -450h533v-492h-1229v492zM492 1577l-308 369h430l82 -123l82 123h430l-307 -369h-409z" />
    <glyph glyph-name="zcaron" unicode="&#x17e;" horiz-adv-x="1105" 
d="M1014 1004v-390l-338 -225h358v-389h-983v389l338 225h-317v390h942zM338 1126l-307 369h430l82 -123l82 123h430l-307 -369h-410z" />
    <glyph glyph-name="florin" unicode="&#x192;" horiz-adv-x="952" 
d="M123 61l81.999 451.001h-103v410h174l21 112c50.667 286.667 194 430 430 430c42 0 83.5 -3.33301 124.5 -10s71.167 -13.334 90.5 -20.001l31 -11v-389c-27.333 13.333 -61.666 20.333 -102.999 21c-57.333 0 -91.333 -27.333 -102 -82l-10 -51h143v-410h-215l-92 -512
c-52 -286.667 -195.333 -430 -430 -430c-42 0 -83.667 3.33301 -125 10s-72 13.667 -92 21l-29 10v389c27.333 -13.333 61.333 -20 102 -20c58 -0.666992 92.333 26.333 103 81z" />
    <glyph glyph-name="uni0218" unicode="&#x218;" 
d="M1229 1270l-297.001 -307c-54.667 54.667 -116 81.667 -184 81c-28.667 0 -51.334 -6 -68.001 -18s-25 -26.333 -25 -43c0 -13.333 20.5 -26.5 61.5 -39.5s90.5 -29.167 148.5 -48.5s116 -44.666 174 -75.999s107.5 -78.666 148.5 -141.999s61.5 -138.666 61.5 -225.999
c0 -131.333 -56.667 -246.166 -170 -344.499s-264.666 -147.5 -453.999 -147.5c-76.667 0 -150.5 8.5 -221.5 25.5s-130 37.5 -177 61.5s-88.333 48 -124 72s-61.5 44.667 -77.5 62l-25 25l297 307c9.33301 -9.33301 21.833 -20.833 37.5 -34.5s45 -31.834 88 -54.501
s83.167 -34 120.5 -34c34 0 61.167 8.16699 81.5 24.5s30.5 35.5 30.5 57.5c0 13.333 -20.5 26.5 -61.5 39.5s-90.5 29.167 -148.5 48.5s-116 44.666 -174 75.999s-107.5 78.666 -148.5 141.999s-61.5 139 -61.5 227c0 125.333 54.667 235.166 164 329.499
s256.333 141.5 441 141.5c72.667 0 141.667 -7.16699 207 -21.5s118.833 -31.5 160.5 -51.5s77.834 -39.833 108.501 -59.5s52.667 -37.167 66 -52.5zM306.999 -532l123 368h451l-174 -368h-400z" />
    <glyph glyph-name="uni0219" unicode="&#x219;" horiz-adv-x="1054" 
d="M993 860l-204.999 -215.001c-27.333 27.333 -58 41 -92 41c-40.667 0 -61 -13.667 -61 -41c0 -9.33301 19.167 -20.833 57.5 -34.5s80.666 -28.667 126.999 -45s88.666 -47 126.999 -92s57.5 -100.5 57.5 -166.5c0 -92.667 -42.333 -172.167 -127 -238.5
s-203 -99.5 -355 -99.5c-66.667 0 -130 7.5 -190 22.5s-108.833 33.167 -146.5 54.5s-70.167 42.166 -97.5 62.499s-47 38.166 -59 53.499l-19 22l205 215c40.667 -54.667 92 -82 154 -82c40.667 0 61 13.667 61 41c0 8 -12.667 16.833 -38 26.5s-56 21 -92 34
s-72.167 29.833 -108.5 50.5s-67.166 51.834 -92.499 93.501s-38 89.834 -38 144.501c0 88.667 42 165.334 126 230.001s199 97 345 97c61.333 0 119 -6.16699 173 -18.5s97.833 -27 131.5 -44s63.167 -33.667 88.5 -50s43.333 -30.5 54 -42.5zM205.001 -532.001l123 368
h450l-174 -368h-399z" />
    <glyph glyph-name="uni021A" unicode="&#x21a;" horiz-adv-x="1351" 
d="M41 1434h1270v-492h-369v-942h-532v942h-369v492zM328 -532l123 368h450l-174 -368h-399z" />
    <glyph glyph-name="uni021B" unicode="&#x21b;" horiz-adv-x="962" 
d="M829 1004l0.000976562 -390.001h-204v-102c0 -30 9.16699 -54.5 27.5 -73.5s43.166 -28.5 74.499 -28.5c18 0 35.5 1.66699 52.5 5s29.5 7 37.5 11l12 4v-410c-68 -27.333 -149.667 -40.666 -245 -39.999c-134 0 -239.167 39.5 -315.5 118.5s-114.5 189.5 -114.5 331.5
v184h-123v390h41c40.667 0 74.667 13.5 102 40.5s41 61.167 41 102.5v123h410v-266h204zM174.001 -532.001l123 368h451l-175 -368h-399z" />
    <glyph glyph-name="uni02BC" unicode="&#x2bc;" horiz-adv-x="696" 
d="M61 1106l123 369h451l-174 -369h-400z" />
    <glyph glyph-name="circumflex" unicode="&#x2c6;" horiz-adv-x="1146" 
d="M61 1106l308 369h409l307 -369h-430l-82 123l-81 -123h-431z" />
    <glyph glyph-name="caron" unicode="&#x2c7;" horiz-adv-x="1146" 
d="M369 1106l-308 369h431l81 -123l82 123h430l-307 -369h-409z" />
    <glyph glyph-name="breve" unicode="&#x2d8;" horiz-adv-x="921" 
d="M461 1393c20.667 0 37.666 7.5 50.999 22.5s20 34.833 20 59.5h328c0 -104 -37.5 -191.5 -112.5 -262.5s-170.5 -106.5 -286.5 -106.5s-211.667 35.5 -287 106.5s-113 158.5 -113 262.5h328c0 -24.667 6.83301 -44.5 20.5 -59.5s30.834 -22.5 51.501 -22.5z" />
    <glyph glyph-name="dotaccent" unicode="&#x2d9;" horiz-adv-x="634" 
d="M61 1311c0 62.667 24 115.834 72 159.501s109.5 65.5 184.5 65.5s136.333 -21.833 184 -65.5s71.5 -96.834 71.5 -159.501s-23.833 -116 -71.5 -160s-109 -66 -184 -66s-136.5 22 -184.5 66s-72 97.333 -72 160z" />
    <glyph glyph-name="ring" unicode="&#x2da;" horiz-adv-x="737" 
d="M440 1269.5c0 20.333 -6.83301 37.333 -20.5 51s-30.667 20.5 -51 20.5s-37.333 -6.83301 -51 -20.5s-20.5 -30.667 -20.5 -51s6.83301 -37.333 20.5 -51s30.667 -20.5 51 -20.5s37.333 6.83301 51 20.5s20.5 30.667 20.5 51zM676 1269.5
c0 -77.667 -29.667 -144.834 -89 -201.501s-132 -85 -218 -85s-158.833 28.333 -218.5 85s-89.5 123.834 -89.5 201.501s29.833 144.834 89.5 201.501s132.5 85 218.5 85s158.667 -28.333 218 -85s89 -123.834 89 -201.501z" />
    <glyph glyph-name="ogonek" unicode="&#x2db;" horiz-adv-x="614" 
d="M266 0l164.001 -0.00195312c-27.333 -68 -41 -136.333 -41 -205c0 -54.667 27.333 -82 82 -82c12 0 24.833 2.83301 38.5 8.5s24.167 11.167 31.5 16.5l12 6v-236c-54.667 -27.333 -126.334 -40.666 -215.001 -39.999c-80.667 0 -147 23.833 -199 71.5
s-78 105.5 -78 173.5c0 30 7.16699 60.833 21.5 92.5s31.5 58.334 51.5 80.001s39.833 41.667 59.5 60s37.167 32.5 52.5 42.5z" />
    <glyph glyph-name="tilde" unicode="&#x2dc;" horiz-adv-x="911" 
d="M563 1495h287.001v-123c0 -79.333 -21.833 -143.5 -65.5 -192.5s-96.834 -73.5 -159.501 -73.5c-46.667 0 -91.5 12 -134.5 36s-69.833 36 -80.5 36c-40.667 0 -61.334 -24 -62.001 -72h-287v123c0 79.333 22 143.5 66 192.5s97.333 73.5 160 73.5
c46.667 0 91.334 -12 134.001 -36s69.667 -36 81 -36c40.667 0 61 24 61 72z" />
    <glyph glyph-name="hungarumlaut" unicode="&#x2dd;" horiz-adv-x="1239" 
d="M61 1106l205 369h420l-276 -369h-349zM553 1106l205 369h420l-277 -369h-348z" />
    <glyph glyph-name="uni0401" unicode="&#x401;" horiz-adv-x="1423" 
d="M676 430h665v-430h-1198v1434h1178v-430h-645v-93h481v-389h-481v-92zM256 1792c0 57.333 22.167 107.5 66.5 150.5s97.166 64.5 158.499 64.5s114.333 -21.5 159 -64.5s67 -93.167 67 -150.5s-22.333 -107.5 -67 -150.5s-97.667 -64.5 -159 -64.5
s-114.166 21.5 -158.499 64.5s-66.5 93.167 -66.5 150.5zM768 1792c0 57.333 22.167 107.5 66.5 150.5s97.166 64.5 158.499 64.5s114.333 -21.5 159 -64.5s67 -93.167 67 -150.5s-22.333 -107.5 -67 -150.5s-97.667 -64.5 -159 -64.5s-114.166 21.5 -158.499 64.5
s-66.5 93.167 -66.5 150.5z" />
    <glyph glyph-name="uni0402" unicode="&#x402;" horiz-adv-x="1617" 
d="M1577 430c0 -146 -49.5 -264.332 -148.5 -354.999s-233.833 -136 -404.5 -136h-123v450h41c54.667 0 82 13.667 82 41s-34 41 -102 41c-18 0 -35.5 -1.66699 -52.5 -5s-29.833 -7 -38.5 -11l-12 -4v-451h-532v963h-287v471h1085v-471h-266v-93
c54.667 20.667 123 31 205 31c169.333 0 303.833 -44.333 403.5 -133s149.5 -201.334 149.5 -338.001z" />
    <glyph glyph-name="uni0403" unicode="&#x403;" 
d="M471 1577l195 369h501l-276 -369h-420zM143 0v1434h1106v-471h-573v-963h-533z" />
    <glyph glyph-name="uni0404" unicode="&#x404;" horiz-adv-x="1546" 
d="M1526 1188l-295.002 -307.001c-2.66699 4 -7.5 9 -14.5 15s-21.333 17.167 -43 33.5s-44.5 31 -68.5 44s-54.5 24.667 -91.5 35s-74.5 15.5 -112.5 15.5c-54.667 0 -104.167 -10.167 -148.5 -30.5s-75.5 -40.833 -93.5 -61.5l-24 -31h430v-369h-430
c2.66699 -2.66699 6 -7 10 -13s14.167 -15.833 30.5 -29.5s33.833 -26 52.5 -37s43.667 -20.833 75 -29.5s64 -13 98 -13c60 0 117.333 11.833 172 35.5s94.334 47.167 119.001 70.5l37 37l297 -307c-5.33301 -8 -13.833 -18.5 -25.5 -31.5s-37.667 -36 -78 -69
s-83.333 -62.167 -129 -87.5s-105.834 -48.166 -180.501 -68.499s-152 -30.5 -232 -30.5c-232 0 -426.667 74.5 -584 223.5s-236 327.167 -236 534.5s78.5 385.5 235.5 534.5s351.833 223.5 584.5 223.5c80.667 0 157.834 -10 231.501 -30s134.334 -44 182.001 -72
s90 -56 127 -84s63.5 -52 79.5 -72z" />
    <glyph glyph-name="uni0405" unicode="&#x405;" 
d="M1229 1270l-297.001 -307c-54.667 54.667 -116 81.667 -184 81c-28.667 0 -51.334 -6 -68.001 -18s-25 -26.333 -25 -43c0 -13.333 20.5 -26.5 61.5 -39.5s90.5 -29.167 148.5 -48.5s116 -44.666 174 -75.999s107.5 -78.666 148.5 -141.999s61.5 -138.666 61.5 -225.999
c0 -131.333 -56.667 -246.166 -170 -344.499s-264.666 -147.5 -453.999 -147.5c-76.667 0 -150.5 8.5 -221.5 25.5s-130 37.5 -177 61.5s-88.333 48 -124 72s-61.5 44.667 -77.5 62l-25 25l297 307c9.33301 -9.33301 21.833 -20.833 37.5 -34.5s45 -31.834 88 -54.501
s83.167 -34 120.5 -34c34 0 61.167 8.16699 81.5 24.5s30.5 35.5 30.5 57.5c0 13.333 -20.5 26.5 -61.5 39.5s-90.5 29.167 -148.5 48.5s-116 44.666 -174 75.999s-107.5 78.666 -148.5 141.999s-61.5 139 -61.5 227c0 125.333 54.667 235.166 164 329.499
s256.333 141.5 441 141.5c72.667 0 141.667 -7.16699 207 -21.5s118.833 -31.5 160.5 -51.5s77.834 -39.833 108.501 -59.5s52.667 -37.167 66 -52.5z" />
    <glyph glyph-name="uni0406" unicode="&#x406;" horiz-adv-x="819" 
d="M143 0v1434h533v-1434h-533z" />
    <glyph glyph-name="uni0407" unicode="&#x407;" horiz-adv-x="798" 
d="M133 0v1434h533v-1434h-533zM-82 1731c0 57.333 22.167 107.5 66.5 150.5s97.333 64.5 159 64.5s114.667 -21.5 159 -64.5s66.5 -93.167 66.5 -150.5s-22.167 -107.5 -66.5 -150.5s-97.333 -64.5 -159 -64.5s-114.667 21.5 -159 64.5s-66.5 93.167 -66.5 150.5zM430 1731
c0 57.333 22.167 107.5 66.5 150.5s97.333 64.5 159 64.5s114.667 -21.5 159 -64.5s66.5 -93.167 66.5 -150.5s-22.167 -107.5 -66.5 -150.5s-97.333 -64.5 -159 -64.5s-114.667 21.5 -159 64.5s-66.5 93.167 -66.5 150.5z" />
    <glyph glyph-name="uni0408" unicode="&#x408;" horiz-adv-x="1126" 
d="M-61 143l317.001 328c27.333 -27.333 58 -41 92 -41c35.333 0 64.666 11.667 87.999 35s35 52.666 35 87.999v881h533v-881c0 -178.667 -53.667 -322.334 -161 -431.001s-248.333 -163 -423 -163c-57.333 0 -113 6.5 -167 19.5s-99.5 28.333 -136.5 46
s-69.5 35.334 -97.5 53.001s-48 32.834 -60 45.501z" />
    <glyph glyph-name="uni0409" unicode="&#x409;" horiz-adv-x="2242" 
d="M1618 0l-686 -0.000976562v963h-133c0 -187.333 -13.667 -347.166 -41 -479.499s-67.333 -236.166 -120 -311.499s-112.5 -129.666 -179.5 -162.999s-144.833 -50 -233.5 -50c-42 0 -81.833 3.5 -119.5 10.5s-64.5 13.833 -80.5 20.5l-25 10v481
c27.333 -6.66699 51.333 -10 72 -10c45.333 0 82.5 12.667 111.5 38s53.5 75.5 73.5 150.5s30 176.167 30 303.5v471h1177v-369h154c176 0 317.333 -49.833 424 -149.5s160 -227.334 160 -383.001s-53.333 -283.334 -160 -383.001s-248 -149.5 -424 -149.5zM1464 450.999
h113c24.667 0 46.167 8.5 64.5 25.5s27.5 35.667 27.5 56s-9.16699 39 -27.5 56s-39.833 25.5 -64.5 25.5h-113v-163z" />
    <glyph glyph-name="uni040A" unicode="&#x40a;" horiz-adv-x="2304" 
d="M1690 0h-697v594h-317v-594h-533v1434h533v-390h317v390h533v-390h164c176 0 315.5 -48 418.5 -144s154.5 -221.833 154.5 -377.5s-51.5 -281.667 -154.5 -378s-242.5 -144.5 -418.5 -144.5zM1526 451h123c24.667 0 44.5 6.83301 59.5 20.5s22.5 30.667 22.5 51
s-7.5 37.333 -22.5 51s-34.833 20.5 -59.5 20.5h-123v-143z" />
    <glyph glyph-name="uni040B" unicode="&#x40b;" horiz-adv-x="1658" 
d="M1044 0v307c0 35.333 -11.5 64.666 -34.5 87.999s-52.167 35 -87.5 35c-18 0 -35.5 -1.66699 -52.5 -5s-29.833 -7 -38.5 -11l-12 -4v-410h-532v963h-287v471h1106v-471h-287v-93c54.667 20.667 123 31 205 31c170.667 0 305.5 -52.167 404.5 -156.5
s148.5 -250.166 148.5 -437.499v-307h-533z" />
    <glyph glyph-name="uni040C" unicode="&#x40c;" horiz-adv-x="1576" 
d="M768 461l-92 -123v-338h-533v1434h533v-430l328 430h573l-461 -594l502 -840h-584zM604 1577l195 369h501l-276 -369h-420z" />
    <glyph glyph-name="uni040E" unicode="&#x40e;" horiz-adv-x="1413" 
d="M717 1843c26 0 47.8311 9.66699 65.498 29s26.5 44 26.5 74h328c0 -109.333 -39.667 -201.666 -119 -276.999s-179.666 -113 -300.999 -113s-221.666 37.667 -300.999 113s-119 167.666 -119 276.999h328c0 -30 8.83301 -54.667 26.5 -74s39.5 -29 65.5 -29z
M-41.002 1434l573.001 0.000976562l185 -471l164 471h573l-491 -1045c-56 -118.667 -133.167 -216.5 -231.5 -293.5s-212.5 -115.5 -342.5 -115.5c-42 0 -81.833 2.66699 -119.5 8s-64.834 10.666 -81.501 15.999l-24 6v461c40.667 -13.333 81.667 -20 123 -20
c30 0 58.667 5 86 15s47 20 59 30l19 16z" />
    <glyph glyph-name="uni040F" unicode="&#x40f;" horiz-adv-x="1699" 
d="M1556 1434v-1434h-440v-266h-532v266h-441v1434h533v-963h348v963h532z" />
    <glyph glyph-name="uni0410" unicode="&#x410;" horiz-adv-x="1536" 
d="M1065 1434l512 -1434h-573l-62 246h-348l-62 -246h-573l512 1434h594zM840 635l-72 287l-72 -287h144z" />
    <glyph glyph-name="uni0411" unicode="&#x411;" horiz-adv-x="1474" 
d="M676 1024v-81.998h194c169.333 0 305.666 -45.333 408.999 -136s155 -202.334 155 -335.001s-51.667 -244.334 -155 -335.001s-239.666 -136 -408.999 -136h-727v1434h1147v-410h-614zM676 410.002h153c20.667 0 37.834 6 51.501 18s20.5 26.333 20.5 43
s-6.83301 31 -20.5 43s-30.834 18 -51.501 18h-153v-122z" />
    <glyph glyph-name="uni0412" unicode="&#x412;" horiz-adv-x="1505" 
d="M881 0l-738 0.000976562v1434h697c174.667 0 310.5 -37 407.5 -111s145.5 -163.333 145.5 -268c0 -39.333 -7.83301 -76.833 -23.5 -112.5s-34.5 -64.167 -56.5 -85.5s-44 -39.833 -66 -55.5s-40.333 -26.834 -55 -33.501l-25 -10c8 -2.66699 18.667 -6.5 32 -11.5
s37 -16.667 71 -35s64.333 -39.5 91 -63.5s50.5 -57.5 71.5 -100.5s31.5 -88.833 31.5 -137.5c0 -114.667 -50.667 -211.667 -152 -291s-245 -119 -431 -119zM676 389.001h143c24.667 0 46.167 8.5 64.5 25.5s27.5 35.833 27.5 56.5s-9.16699 39.5 -27.5 56.5
s-39.833 25.5 -64.5 25.5h-143v-164zM758 1044l-82 -0.000976562v-143h82c24.667 0 44.5 6.83301 59.5 20.5s22.5 30.834 22.5 51.501s-7.5 37.667 -22.5 51s-34.833 20 -59.5 20z" />
    <glyph glyph-name="uni0413" unicode="&#x413;" 
d="M143 0v1434h1106v-471h-573v-963h-533z" />
    <glyph glyph-name="uni0414" unicode="&#x414;" horiz-adv-x="1607" 
d="M0 471h72.001c5.33301 4 12 9.83301 20 17.5s22.667 26.167 44 55.5s40.166 61 56.499 95s31 80 44 138s19.5 120 19.5 186v471h1178v-963h153v-737h-532v266h-523v-266h-532v737zM768.001 963c0 -65.333 -6.16699 -126.833 -18.5 -184.5s-27 -104.5 -44 -140.5
s-33.667 -67.333 -50 -94s-30.833 -45.667 -43.5 -57l-18 -16h307v492h-133z" />
    <glyph glyph-name="uni0415" unicode="&#x415;" horiz-adv-x="1423" 
d="M676 430h665v-430h-1198v1434h1178v-430h-645v-93h481v-389h-481v-92z" />
    <glyph glyph-name="uni0416" unicode="&#x416;" horiz-adv-x="2293" 
d="M1485 461l-72 -92v-369h-532v369l-72 92l-266 -461h-584l502 840l-461 594h573l308 -410v410h532v-410l307 410h574l-461 -594l502 -840h-584z" />
    <glyph glyph-name="uni0417" unicode="&#x417;" 
d="M655 460.5c0 47.667 -37.335 71.5039 -112.002 71.5039h-154v390h143c28.667 0 51.334 6 68.001 18s25 26.333 25 43s-8.33301 31 -25 43s-39.334 18 -68.001 18c-30 0 -60.333 -6.66699 -91 -20s-53.334 -27 -68.001 -41l-25 -20l-297 307
c4 5.33301 10.833 12.833 20.5 22.5s31.834 26 66.501 49s72.5 43.5 113.5 61.5s96 34.5 165 49.5s141.833 22.5 218.5 22.5c180 0 322.333 -40.667 427 -122s157 -177.333 157 -288c0 -42 -8 -81.167 -24 -117.5s-34.833 -65.833 -56.5 -88.5s-43.5 -41.834 -65.5 -57.501
s-41 -26.834 -57 -33.501l-23 -10c6.66699 -2.66699 15.834 -6.5 27.501 -11.5s32.167 -17 61.5 -36s55.333 -40.833 78 -65.5s43.167 -58.834 61.5 -102.501s27.5 -91.5 27.5 -143.5c0 -120 -55.167 -223.333 -165.5 -310s-263.166 -130 -458.499 -130
c-76.667 0 -150.5 8.5 -221.5 25.5s-130 37.5 -177 61.5s-88.333 48 -124 72s-61.5 44.667 -77.5 62l-25 25l297 307c9.33301 -9.33301 21.833 -20.833 37.5 -34.5s45 -31.834 88 -54.501s83.167 -34 120.5 -34c74.667 0 112 23.833 112 71.5z" />
    <glyph glyph-name="uni0418" unicode="&#x418;" horiz-adv-x="1730" 
d="M1587 0h-532v594l-461 -594h-451v1434h533v-594l461 594h450v-1434z" />
    <glyph glyph-name="uni0419" unicode="&#x419;" horiz-adv-x="1730" 
d="M870 1843c26 0 48 9.66699 66 29s27 44 27 74h327c0 -109.333 -39.5 -201.666 -118.5 -276.999s-179.333 -113 -301 -113s-222 37.667 -301 113s-118.5 167.666 -118.5 276.999h327c0 -30 8.83301 -54.667 26.5 -74s39.5 -29 65.5 -29zM1587 0h-532v594l-461 -594h-451
v1434h533v-594l461 594h450v-1434z" />
    <glyph glyph-name="uni041A" unicode="&#x41a;" horiz-adv-x="1576" 
d="M768 461l-92 -123v-338h-533v1434h533v-430l328 430h573l-461 -594l502 -840h-584z" />
    <glyph glyph-name="uni041B" unicode="&#x41b;" horiz-adv-x="1648" 
d="M1505 1434v-1434h-532v963h-174c0 -187.333 -13.667 -347.166 -41 -479.499s-67.333 -236.166 -120 -311.499s-112.5 -129.666 -179.5 -162.999s-144.833 -50 -233.5 -50c-42 0 -81.833 3.5 -119.5 10.5s-64.5 13.833 -80.5 20.5l-25 10v481
c27.333 -6.66699 51.333 -10 72 -10c45.333 0 82.5 12.667 111.5 38s53.5 75.5 73.5 150.5s30 176.167 30 303.5v471h1218z" />
    <glyph glyph-name="uni041C" unicode="&#x41c;" horiz-adv-x="1945" 
d="M973 983l358 451h471v-1434h-532v686l-297 -369l-297 369v-686h-533v1434h471z" />
    <glyph glyph-name="uni041D" unicode="&#x41d;" horiz-adv-x="1689" 
d="M1546 1434v-1434h-532v492h-338v-492h-533v1434h533v-471h338v471h532z" />
    <glyph glyph-name="uni041E" unicode="&#x41e;" horiz-adv-x="1761" 
d="M1700 717c0 -207.333 -78.5 -385.5 -235.5 -534.5s-351.667 -223.5 -584 -223.5s-427 74.5 -584 223.5s-235.5 327.167 -235.5 534.5s78.5 385.5 235.5 534.5s351.667 223.5 584 223.5s427 -74.5 584 -223.5s235.5 -327.167 235.5 -534.5zM1167 716.5
c0 76.333 -28.667 143.333 -86 201s-124.166 86.5 -200.499 86.5s-143.166 -28.833 -200.499 -86.5s-86 -124.667 -86 -201s28.667 -143.166 86 -200.499s124.166 -86 200.499 -86s143.166 28.667 200.499 86s86 124.166 86 200.499z" />
    <glyph glyph-name="uni041F" unicode="&#x41f;" horiz-adv-x="1689" 
d="M1546 1434v-1434h-532v963h-338v-963h-533v1434h1403z" />
    <glyph glyph-name="uni0420" unicode="&#x420;" horiz-adv-x="1474" 
d="M143 1434l707 0.00195312c176 0 317.333 -49.833 424 -149.5s160 -227.334 160 -383.001s-53.333 -283.334 -160 -383.001s-248 -149.5 -424 -149.5h-174v-369h-533v1434zM809 983.002h-133v-164h133c24.667 0 46.167 8.5 64.5 25.5s27.5 35.833 27.5 56.5
s-9.16699 39.5 -27.5 56.5s-39.833 25.5 -64.5 25.5z" />
    <glyph glyph-name="uni0421" unicode="&#x421;" horiz-adv-x="1546" 
d="M1208 573l317.999 -327.001c-5.33301 -8 -13.833 -18.5 -25.5 -31.5s-37.667 -36 -78 -69s-83.333 -62.167 -129 -87.5s-105.834 -48.166 -180.501 -68.499s-152 -30.5 -232 -30.5c-232 0 -426.667 74.5 -584 223.5s-236 327.167 -236 534.5s78.5 385.5 235.5 534.5
s351.833 223.5 584.5 223.5c80.667 0 157.834 -10 231.501 -30s134.334 -44 182.001 -72s90 -56 127 -84s63.5 -52 79.5 -72l25 -29l-318 -328c-9.33301 10.667 -22.5 24 -39.5 40s-52.167 37.333 -105.5 64s-107.333 40 -162 40c-86 0 -158.667 -28.333 -218 -85
s-89 -124 -89 -202s29.667 -145.333 89 -202s132 -85 218 -85c54.667 0 107.667 12 159 36s88.333 47.667 111 71z" />
    <glyph glyph-name="uni0422" unicode="&#x422;" horiz-adv-x="1351" 
d="M41 1434h1270v-492h-369v-942h-532v942h-369v492z" />
    <glyph glyph-name="uni0423" unicode="&#x423;" horiz-adv-x="1413" 
d="M-41 1434l573.001 0.000976562l185 -471l164 471h573l-491 -1045c-56 -118.667 -133.167 -216.5 -231.5 -293.5s-212.5 -115.5 -342.5 -115.5c-42 0 -81.833 2.66699 -119.5 8s-64.834 10.666 -81.501 15.999l-24 6v461c40.667 -13.333 81.667 -20 123 -20
c30 0 58.667 5 86 15s47 20 59 30l19 16z" />
    <glyph glyph-name="uni0424" unicode="&#x424;" horiz-adv-x="1925" 
d="M1352 737.5c0 43.667 -12.333 80.501 -37 110.501s-53.334 47.667 -86.001 53v-328c32.667 5.33301 61.334 23.166 86.001 53.499s37 67.333 37 111zM696 1495l533 0.000976562v-143c192.667 -9.33301 350 -72.833 472 -190.5s183 -259.167 183 -424.5
s-61 -306.666 -183 -423.999s-279.333 -180.666 -472 -189.999v-164h-533v164c-192.667 9.33301 -350 72.666 -472 189.999s-183 258.666 -183 423.999s61.167 306.666 183.5 423.999s279.5 181 471.5 191v143zM573 737.502c0 -43.667 12.333 -80.5 37 -110.5
s53.334 -48 86.001 -54v328c-32.667 -5.33301 -61.334 -23 -86.001 -53s-37 -66.833 -37 -110.5z" />
    <glyph glyph-name="uni0425" unicode="&#x425;" horiz-adv-x="1495" 
d="M748 1085l163 349h564l-379 -686l420 -748h-574l-194 410l-195 -410h-573l419 748l-379 686h564z" />
    <glyph glyph-name="uni0426" unicode="&#x426;" horiz-adv-x="1699" 
d="M143 0v1434h533v-963h317v963h533v-963h153v-737h-532v266h-1004z" />
    <glyph glyph-name="uni0427" unicode="&#x427;" horiz-adv-x="1597" 
d="M655 1434l0.000976562 -450.999c0 -40.667 13.667 -74.667 41 -102s61.666 -41 102.999 -41c18 0 37.167 2.66699 57.5 8s36.5 10.666 48.5 15.999l17 6v564h532v-1434h-532v410c-68 -27.333 -143.333 -41 -226 -41c-176 0 -315.5 54.167 -418.5 162.5
s-154.5 258.833 -154.5 451.5v451h532z" />
    <glyph glyph-name="uni0428" unicode="&#x428;" horiz-adv-x="2293" 
d="M2150 1434v-1434h-2007v1434h533v-963h205v963h532v-963h205v963h532z" />
    <glyph glyph-name="uni0429" unicode="&#x429;" horiz-adv-x="2324" 
d="M1772 0h-1629v1434h533v-963h205v963h532v-963h205v963h532v-963h154v-737h-532v266z" />
    <glyph glyph-name="uni042A" unicode="&#x42a;" horiz-adv-x="1597" 
d="M973 0l-686 0.00195312v983h-287v451h819v-369h154c176 0 317.167 -49.833 423.5 -149.5s159.5 -227.334 159.5 -383.001s-53.167 -283.334 -159.5 -383.001s-247.5 -149.5 -423.5 -149.5zM819 451.002h113c24.667 0 46.167 8.5 64.5 25.5s27.5 35.667 27.5 56
s-9.16699 39 -27.5 56s-39.833 25.5 -64.5 25.5h-113v-163z" />
    <glyph glyph-name="uni042B" unicode="&#x42b;" horiz-adv-x="2191" 
d="M2048 1434v-1434h-532v1434h532zM829 0l-686 0.00195312v1434h533v-369h153c176 0 317.333 -49.833 424 -149.5s160 -227.334 160 -383.001s-53.333 -283.334 -160 -383.001s-248 -149.5 -424 -149.5zM676 451.002h112c24.667 0 46.334 8.5 65.001 25.5s28 35.667 28 56
s-9.33301 39 -28 56s-40.334 25.5 -65.001 25.5h-112v-163z" />
    <glyph glyph-name="uni042C" unicode="&#x42c;" horiz-adv-x="1474" 
d="M850 0l-707 0.00195312v1434h533v-369h174c176 0 317.333 -49.833 424 -149.5s160 -227.334 160 -383.001s-53.333 -283.334 -160 -383.001s-248 -149.5 -424 -149.5zM676 451.002h133c24.667 0 46.167 8.5 64.5 25.5s27.5 35.667 27.5 56s-9.16699 39 -27.5 56
s-39.833 25.5 -64.5 25.5h-133v-163z" />
    <glyph glyph-name="uni042D" unicode="&#x42d;" horiz-adv-x="1546" 
d="M315 881l-294.997 306.999c5.33301 8 13.833 18.5 25.5 31.5s37.667 35.833 78 68.5s83.5 61.667 129.5 87s106.167 48.333 180.5 69s151.833 31 232.5 31c232 0 426.5 -74.5 583.5 -223.5s235.5 -327.167 235.5 -534.5s-78.5 -385.5 -235.5 -534.5
s-351.5 -223.5 -583.5 -223.5c-80.667 0 -157.834 9.83301 -231.501 29.5s-134.5 43.5 -182.5 71.5s-90.333 56 -127 84s-63.334 52.333 -80.001 73l-25 29l297 307c9.33301 -10.667 22.666 -24 39.999 -40s54.666 -37.167 111.999 -63.5s116 -39.5 176 -39.5
c54.667 0 104.167 10.167 148.5 30.5s74.833 40.833 91.5 61.5l26 30h-430v369h430c-2.66699 2.66699 -6 7.16699 -10 13.5s-14.167 16.333 -30.5 30s-33.666 25.834 -51.999 36.501s-43.333 20.5 -75 29.5s-64.5 13.5 -98.5 13.5c-60 0 -117.667 -12 -173 -36
s-95.333 -47.333 -120 -70z" />
    <glyph glyph-name="uni042E" unicode="&#x42e;" horiz-adv-x="2334" 
d="M2273 716.5c0 -215.667 -72.332 -395.832 -216.999 -540.499s-324.667 -217 -540 -217c-106.667 0 -204.834 18.5 -294.501 55.5s-160 81.333 -211 133s-94.333 103.5 -130 155.5s-60.167 96.333 -73.5 133l-19 56h-112v-492h-533v1434h533v-471h112
c4 13.333 10.833 31.666 20.5 54.999s33.667 64.333 72 123s82 110.5 131 155.5s118.667 86 209 123s188.833 55.5 295.5 55.5c216 0 396.167 -72.5 540.5 -217.5s216.5 -325.333 216.5 -541zM1741 717.002c0 83.333 -22.833 152 -68.5 206s-98 81 -157 81
s-111.333 -27 -157 -81s-68.5 -122.667 -68.5 -206s22.833 -152 68.5 -206s98 -81 157 -81s111.333 27 157 81s68.5 122.667 68.5 206z" />
    <glyph glyph-name="uni042F" unicode="&#x42f;" horiz-adv-x="1525" 
d="M20 0l276.999 492c-5.33301 2.66699 -13.166 7.33398 -23.499 14.001s-28.5 22.667 -54.5 48s-48.833 52.666 -68.5 81.999s-37.667 68.5 -54 117.5s-24.5 101.5 -24.5 157.5c0 151.333 52.5 276.333 157.5 375s243.5 148 415.5 148h737v-1434h-532v389h-92l-185 -389
h-553zM849.999 983h-164c-24.667 0 -44.5 -6.83301 -59.5 -20.5s-22.5 -30.667 -22.5 -51s7.5 -37.333 22.5 -51s34.833 -20.5 59.5 -20.5h164v143z" />
    <glyph glyph-name="uni0430" unicode="&#x430;" horiz-adv-x="1157" 
d="M512 307c27.333 0 49.501 10.668 66.501 32.001s25.5 51.666 25.5 90.999l-82 -20c-40.667 -12 -61 -32.667 -61 -62c0 -10.667 4.66699 -20.167 14 -28.5s21.666 -12.5 36.999 -12.5zM307.001 -19.999c-78 0 -143.501 27.166 -196.501 81.499s-79.5 122.5 -79.5 204.5
s29 151.667 87 209s138 97 240 119l246 51c-20.667 34 -58 51 -112 51c-30 0 -59.833 -6.83301 -89.5 -20.5s-51.167 -27.167 -64.5 -40.5l-21 -21l-215 226c4 5.33301 9.83301 12.333 17.5 21s25.167 24 52.5 46s57 41.5 89 58.5s74.333 32.667 127 47
s107.667 21.5 165 21.5c144.667 0 262.667 -41 354 -123s137 -181 137 -297v-614h-471v123c-2.66699 -4 -6 -9.16699 -10 -15.5s-14.167 -17.666 -30.5 -33.999s-33.666 -31 -51.999 -44s-43.333 -24.5 -75 -34.5s-64.5 -15 -98.5 -15z" />
    <glyph glyph-name="uni0431" unicode="&#x431;" horiz-adv-x="1280" 
d="M1219 471c0 -140.667 -52 -259.499 -156 -356.499s-236.333 -145.5 -397 -145.5c-181.333 0 -327.5 59.167 -438.5 177.5s-166.5 281.166 -166.5 488.499c0 243.333 44.167 426 132.5 548s214.833 202 379.5 240c64 15.333 126.833 33.166 188.5 53.499
s106.834 37.5 135.501 51.5l45 18l215 -358c-102.667 -46.667 -225.667 -87.667 -369 -123c-46.667 -10.667 -87.334 -24.667 -122.001 -42s-60.834 -33.833 -78.501 -49.5s-32 -30.667 -43 -45s-17.833 -26.166 -20.5 -35.499l-2 -12c54.667 48 126.334 71.667 215.001 71
c134 0 247.833 -46.667 341.5 -140s140.5 -207 140.5 -341zM553 481.001c0 -26 8.83301 -47.833 26.5 -65.5s39.5 -26.5 65.5 -26.5s47.833 8.83301 65.5 26.5s26.5 39.5 26.5 65.5s-8.83301 47.833 -26.5 65.5s-39.5 26.5 -65.5 26.5s-47.833 -8.83301 -65.5 -26.5
s-26.5 -39.5 -26.5 -65.5z" />
    <glyph glyph-name="uni0432" unicode="&#x432;" horiz-adv-x="1198" 
d="M92 1004l584.004 -0.000976562c135.333 0 239.166 -26.667 311.499 -80s108.5 -119 108.5 -197c0 -45.333 -12 -85 -36 -119s-48.333 -56.333 -73 -67l-35 -19c5.33301 -1.33301 12.166 -3.33301 20.499 -6s23.166 -10.167 44.499 -22.5s40.166 -26.333 56.499 -42
s31 -37.167 44 -64.5s19.5 -57.333 19.5 -90c0 -87.333 -37 -158.666 -111 -213.999s-184 -83 -330 -83h-604v1004zM614.004 398.999l-82 0.00195312v-123h82c19.333 0 34.5 6.16699 45.5 18.5s16.5 26.666 16.5 42.999s-5.5 30.666 -16.5 42.999s-26.167 18.5 -45.5 18.5z
M655.004 675.501c0 11 -4.99902 22.333 -14.999 34s-22 17.5 -36 17.5h-72v-102h72c13.333 0 25.166 5.66699 35.499 17s15.5 22.5 15.5 33.5z" />
    <glyph glyph-name="uni0433" unicode="&#x433;" horiz-adv-x="993" 
d="M942 1004v-431h-379v-573h-471v1004h850z" />
    <glyph glyph-name="uni0434" unicode="&#x434;" horiz-adv-x="1249" 
d="M1219 410l0.00195312 -615.001h-471v205h-287v-205h-471v615h61c9.33301 10.667 21.666 26.5 36.999 47.5s35.166 68.833 59.499 143.5s36.5 154.334 36.5 239.001v164h922v-594h113zM635.002 624.999l-62 0.000976562c-2.66699 -32.667 -10.167 -67.834 -22.5 -105.501
s-23.833 -67.5 -34.5 -89.5l-14 -31h133v226z" />
    <glyph glyph-name="uni0435" unicode="&#x435;" horiz-adv-x="1228" 
d="M1157 410l-603.998 -0.00195312c2.66699 -5.33301 6.66699 -12.166 12 -20.499s22 -19 50 -32s62 -19.5 102 -19.5c27.333 0 55.333 4.5 84 13.5s51 17.5 67 25.5l23 12l164 -307c-12 -8 -29.333 -18.167 -52 -30.5s-70.5 -29.166 -143.5 -50.499
s-147.833 -32 -224.5 -32c-166.667 0 -305.667 52.333 -417 157s-167 230 -167 376c0 150 53.333 276.167 160 378.5s241 153.5 403 153.5c161.333 0 295.666 -50.167 402.999 -150.5s161 -220.833 161 -361.5c0 -22 -1.83301 -42.167 -5.5 -60.5
s-6.83398 -31.5 -9.50098 -39.5zM614.002 716.998c-26 0 -48.168 -9.66699 -66.501 -29s-30.166 -44 -35.499 -74h205c-5.33301 30 -17.333 54.667 -36 74s-41 29 -67 29z" />
    <glyph glyph-name="uni0436" unicode="&#x436;" horiz-adv-x="1802" 
d="M481 1004l174 -236v236h471v-236l174 236h502l-332 -431l342 -573h-481l-174 307l-31 -41v-266h-471v266l-30 41l-174 -307h-482l342 573l-331 431h501z" />
    <glyph glyph-name="uni0437" unicode="&#x437;" horiz-adv-x="1044" 
d="M983 276c0 -79.333 -43.0029 -150.329 -129.003 -212.996s-203.333 -94 -352 -94c-66.667 0 -130.167 7.5 -190.5 22.5s-109.166 33.167 -146.499 54.5s-69.666 42.166 -96.999 62.499s-47.333 38.166 -60 53.499l-18 22l205 215c4 -6.66699 10.667 -15.167 20 -25.5
s29.833 -24 61.5 -41s65.834 -25.5 102.501 -25.5c48 0 72 13.667 72 41s-24 41 -72 41h-72v246h72c18 0 32.667 3.33301 44 10s17 13.5 17 20.5s-5.66699 13.833 -17 20.5s-26 10 -44 10c-24.667 0 -49 -4 -73 -12s-41.333 -16.333 -52 -25l-18 -14l-205 215
c4 4 9.33301 10.167 16 18.5s24 22.333 52 42s58.5 37.334 91.5 53.001s77.5 29.667 133.5 42s115.333 18.5 178 18.5c144.667 0 257.667 -29.667 339 -89s122 -128.666 122 -207.999c0 -34 -7.5 -65 -22.5 -93s-32.833 -49.833 -53.5 -65.5s-41.5 -29 -62.5 -40
s-39.167 -18.5 -54.5 -22.5l-22 -4c6.66699 -1.33301 15 -3.33301 25 -6s28.667 -9.83398 56 -21.501s51.333 -25.334 72 -41.001s39.5 -38.334 56.5 -68.001s25.5 -62.834 25.5 -99.501z" />
    <glyph glyph-name="uni0438" unicode="&#x438;" 
d="M788 1004h390v-1004h-471v317l-226 -317h-389v1004h471v-318z" />
    <glyph glyph-name="uni0439" unicode="&#x439;" 
d="M788 1004h390v-1004h-471v317l-226 -317h-389v1004h471v-318zM635 1393c20.667 0 37.832 7.5 51.499 22.5s20.5 34.833 20.5 59.5h327c0 -104 -37.5 -191.5 -112.5 -262.5s-170.5 -106.5 -286.5 -106.5s-211.5 35.5 -286.5 106.5s-112.5 158.5 -112.5 262.5h327
c0 -24.667 6.83301 -44.5 20.5 -59.5s30.834 -22.5 51.501 -22.5z" />
    <glyph glyph-name="uni043A" unicode="&#x43a;" horiz-adv-x="1259" 
d="M928 573l342 -573h-492l-174 307l-41 -51v-256h-471v1004h471v-246l185 246h512z" />
    <glyph glyph-name="uni043B" unicode="&#x43b;" horiz-adv-x="1259" 
d="M195 1004l951.999 -0.000976562v-1004h-471v594h-62c0 -210 -38.5 -366.667 -115.5 -470s-178.167 -155 -303.5 -155c-32.667 0 -66.167 2.83301 -100.5 8.5s-60.5 10.5 -78.5 14.5l-26 8v430c20.667 -6.66699 37.667 -10 51 -10c34 0 61.333 9.5 82 28.5
s37.834 60.333 51.501 124s20.5 152.834 20.5 267.501v164z" />
    <glyph glyph-name="uni043C" unicode="&#x43c;" horiz-adv-x="1454" 
d="M932 1004h409v-1004h-471v399l-153 -194l-154 194v-399h-471v1004h410l215 -277z" />
    <glyph glyph-name="uni043D" unicode="&#x43d;" horiz-adv-x="1280" 
d="M696 0v297h-133v-297h-471v1004h471v-297h133v297h471v-1004h-471z" />
    <glyph glyph-name="uni043E" unicode="&#x43e;" 
d="M727 502c0 30 -8.83301 54.5 -26.5 73.5s-39.5 28.5 -65.5 28.5s-47.833 -9.5 -65.5 -28.5s-26.5 -43.5 -26.5 -73.5s8.83301 -54.667 26.5 -74s39.5 -29 65.5 -29s47.833 9.66699 65.5 29s26.5 44 26.5 74zM1219 502c0 -146 -55.667 -271.333 -167 -376
s-250.333 -157 -417 -157s-305.667 52.333 -417 157s-167 230 -167 376s55.667 271.167 167 375.5s250.333 156.5 417 156.5s305.667 -52.167 417 -156.5s167 -229.5 167 -375.5z" />
    <glyph glyph-name="uni043F" unicode="&#x43f;" horiz-adv-x="1280" 
d="M696 0v594h-133v-594h-471v1004h1075v-1004h-471z" />
    <glyph glyph-name="uni0440" unicode="&#x440;" horiz-adv-x="1331" 
d="M829 -20c-54.667 0 -104.164 11.833 -148.497 35.5s-74.5 47.167 -90.5 70.5l-27 37v-553h-471v1434h471v-123c2.66699 4 6.16699 9 10.5 15s14.666 17.167 30.999 33.5s33.666 31 51.999 44s43.166 24.667 74.499 35s64 15.5 98 15.5
c117.333 0 218.5 -48.5 303.5 -145.5s127.5 -222.667 127.5 -377s-42.5 -279.833 -127.5 -376.5s-186.167 -145 -303.5 -145zM768.003 502c0 31.333 -9.16699 56.166 -27.5 74.499s-43.333 27.5 -75 27.5s-56.667 -9.16699 -75 -27.5s-27.5 -43.166 -27.5 -74.499
s9.16699 -56.333 27.5 -75s43.333 -28 75 -28s56.667 9.33301 75 28s27.5 43.667 27.5 75z" />
    <glyph glyph-name="uni0441" unicode="&#x441;" horiz-adv-x="1136" 
d="M543 502c0 -31.333 12.1621 -57.998 36.4951 -79.998s56.5 -33 96.5 -33c27.333 0 54 6.83301 80 20.5s44.333 27.5 55 41.5l18 20l277 -287c-4 -5.33301 -10.167 -12.833 -18.5 -22.5s-27.166 -27 -56.499 -52s-60.666 -46.833 -93.999 -65.5
s-77.333 -35.834 -132 -51.501s-111.334 -23.5 -170.001 -23.5c-166.667 0 -305.667 52.333 -417 157s-167 230 -167 376s55.667 271.167 167 375.5s250.333 156.5 417 156.5c58.667 0 115.334 -7.5 170.001 -22.5s99.334 -33 134.001 -54s65.334 -41.833 92.001 -62.5
s46.334 -38.334 59.001 -53.001l16 -23l-277 -287c-40.667 54.667 -91.667 82 -153 82c-39.333 0 -71.333 -10.833 -96 -32.5s-37 -48.167 -37 -79.5z" />
    <glyph glyph-name="uni0442" unicode="&#x442;" horiz-adv-x="1064" 
d="M31 573v431h983v-431h-256v-573h-471v573h-256z" />
    <glyph glyph-name="uni0443" unicode="&#x443;" horiz-adv-x="1167" 
d="M307 61l-338.001 943.001h492l112 -472l113 472h492l-369 -1024c-98 -273.333 -262 -410 -492 -410c-42 0 -83.5 3.33301 -124.5 10s-71.167 13.667 -90.5 21l-30 10v409c27.333 -13.333 61.333 -20 102 -20c30 0 56.333 5.16699 79 15.5s37.334 20.166 44.001 29.499z
" />
    <glyph glyph-name="uni0444" unicode="&#x444;" horiz-adv-x="1658" 
d="M1024 635l-0.00195312 -286.999c2.66699 1.33301 6.33398 3 11.001 5s12.834 7.16699 24.501 15.5s22 17.666 31 27.999s17.167 24 24.5 41s11 35.167 11 54.5c0 30 -8.5 56.833 -25.5 80.5s-34.167 40.5 -51.5 50.5zM583.998 -429.999v389
c-148.667 15.333 -274.667 74.5 -378 177.5s-155 221.333 -155 355s51.5 252 154.5 355s229.167 162.167 378.5 177.5v410h471v-410c148.667 -15.333 274.5 -74.5 377.5 -177.5s154.5 -221.333 154.5 -355s-51.5 -252 -154.5 -355s-228.833 -162.167 -377.5 -177.5v-389
h-471zM613.998 348.001l0.00390625 286.999c-2.66699 -1.33301 -6.33398 -3 -11.001 -5s-12.834 -7.16699 -24.501 -15.5s-21.834 -17.666 -30.501 -27.999s-16.834 -24 -24.501 -41s-11.5 -34.833 -11.5 -53.5c0 -30 8.5 -57 25.5 -81s34.5 -41 52.5 -51z" />
    <glyph glyph-name="uni0445" unicode="&#x445;" horiz-adv-x="1146" 
d="M666 0l-103 225l-102 -225h-492l287 512l-276 492h491l92 -205l92 205h492l-277 -492l287 -512h-491z" />
    <glyph glyph-name="uni0446" unicode="&#x446;" horiz-adv-x="1269" 
d="M92 0v1004h471v-594h92v594h471v-594h113v-615h-471v205h-676z" />
    <glyph glyph-name="uni0447" unicode="&#x447;" horiz-adv-x="1218" 
d="M635 0v246c-61.333 -27.333 -126.333 -41 -195 -41c-109.333 0 -198 36.833 -266 110.5s-102 173.167 -102 298.5v390h471v-318c0 -34 17 -51 51 -51l41 10v359h471v-1004h-471z" />
    <glyph glyph-name="uni0448" unicode="&#x448;" horiz-adv-x="1761" 
d="M92 0v1004h471v-594h82v594h451v-594h82v594h471v-1004h-1557z" />
    <glyph glyph-name="uni0449" unicode="&#x449;" horiz-adv-x="1792" 
d="M92 0v1004h471v-594h82v594h451v-594h82v594h471v-594h112v-615h-471v205h-1198z" />
    <glyph glyph-name="uni044A" unicode="&#x44a;" horiz-adv-x="1249" 
d="M1198 368.5c0 -105 -39.5 -192.667 -118.5 -263s-186.167 -105.5 -321.5 -105.5h-563v573h-185v431h656v-267h92c135.333 0 242.5 -35.167 321.5 -105.5s118.5 -158 118.5 -263zM635 297h31c20.667 0 37.667 6.83301 51 20.5s20 30.667 20 51s-6.83301 37.333 -20.5 51
s-30.5 20.5 -50.5 20.5h-31v-143z" />
    <glyph glyph-name="uni044B" unicode="&#x44b;" horiz-adv-x="1740" 
d="M1628 1004v-1004h-471v1004h471zM1075 368.5c0 -105 -38.499 -192.667 -115.499 -263s-178.5 -105.5 -304.5 -105.5h-563v1004h471v-267h92c125.333 0 226.666 -35.167 303.999 -105.5s116 -158 116 -263zM532.001 297h31c20.667 0 37.834 6.83301 51.501 20.5
s20.5 30.667 20.5 51s-6.83301 37.333 -20.5 51s-30.834 20.5 -51.501 20.5h-31v-143z" />
    <glyph glyph-name="uni044C" unicode="&#x44c;" horiz-adv-x="1146" 
d="M1096 368.5c0 -105 -39.667 -192.667 -119 -263s-186.666 -105.5 -321.999 -105.5h-563v1004h471v-267h92c135.333 0 242.666 -35.167 321.999 -105.5s119 -158 119 -263zM532 297h31c20.667 0 37.834 6.83301 51.501 20.5s20.5 30.667 20.5 51s-6.83301 37.333 -20.5 51
s-30.834 20.5 -51.501 20.5h-31v-143z" />
    <glyph glyph-name="uni044D" unicode="&#x44d;" horiz-adv-x="1136" 
d="M440 707c-27.333 0 -53.1611 -3.82812 -77.4941 -11.4951s-44.333 -17 -60 -28s-29.667 -22.333 -42 -34s-21.5 -20.834 -27.5 -27.501l-8 -12l-215 225c4 5.33301 10.167 12.833 18.5 22.5s27.166 27.167 56.499 52.5s60.666 47.166 93.999 65.499s77.333 35.333 132 51
s111.334 23.5 170.001 23.5c166.667 0 305.667 -52.167 417 -156.5s167 -229.5 167 -375.5s-55.667 -271.333 -167 -376s-250.333 -157 -417 -157c-58.667 0 -115.334 7.5 -170.001 22.5s-99.334 33.167 -134.001 54.5s-65.334 42.166 -92.001 62.499
s-45.334 38.166 -56.001 53.499l-19 22l215 226c5.33301 -8 13.166 -18.333 23.499 -31s34.333 -29.5 72 -50.5s77.5 -31.5 119.5 -31.5c30 0 57 5.83301 81 17.5s40 23.5 48 35.5l15 19h-267v266h267c-2.66699 5.33301 -7.5 12.166 -14.5 20.499s-22.833 19 -47.5 32
s-52 19.5 -82 19.5z" />
    <glyph glyph-name="uni044E" unicode="&#x44e;" horiz-adv-x="1792" 
d="M563 297v-297.003h-471v1004h471v-297h72c2.66699 9.33301 7.83398 21.166 15.501 35.499s25.834 40.333 54.501 78s60.667 70.834 96 99.501s84.666 54.834 147.999 78.501s132.666 35.5 207.999 35.5c162.667 0 297.167 -51.167 403.5 -153.5
s159.5 -228.666 159.5 -378.999s-53.167 -276.666 -159.5 -378.999s-240.833 -153.5 -403.5 -153.5c-75.333 0 -144 11.333 -206 34s-111 50 -147 82s-66.667 64 -92 96s-43 59 -53 81l-14 35h-82zM1239 501.997c0 30 -8.16699 54.5 -24.5 73.5s-35.5 28.5 -57.5 28.5
s-41.167 -9.5 -57.5 -28.5s-24.5 -43.5 -24.5 -73.5s8.16699 -54.667 24.5 -74s35.5 -29 57.5 -29s41.167 9.66699 57.5 29s24.5 44 24.5 74z" />
    <glyph glyph-name="uni044F" unicode="&#x44f;" horiz-adv-x="1187" 
d="M604 246l-112.001 -245.998h-482l205 369c-4 2.66699 -9.16699 6 -15.5 10s-17.666 14.167 -33.999 30.5s-31 33.666 -44 51.999s-24.5 43.333 -34.5 75s-15 64.5 -15 98.5c0 105.333 39.5 193.166 118.5 263.499s186.167 105.5 321.5 105.5h563v-1004h-471v246z
M634.999 707.002l-31 0.00195312c-20.667 0 -37.834 -6.83301 -51.501 -20.5s-20.5 -30.834 -20.5 -51.501s6.83301 -37.834 20.5 -51.501s30.834 -20.5 51.501 -20.5h31v144z" />
    <glyph glyph-name="uni0451" unicode="&#x451;" horiz-adv-x="1228" 
d="M1157 410l-603.998 -0.00195312c2.66699 -5.33301 6.66699 -12.166 12 -20.499s22 -19 50 -32s62 -19.5 102 -19.5c27.333 0 55.333 4.5 84 13.5s51 17.5 67 25.5l23 12l164 -307c-12 -8 -29.333 -18.167 -52 -30.5s-70.5 -29.166 -143.5 -50.499
s-147.833 -32 -224.5 -32c-166.667 0 -305.667 52.333 -417 157s-167 230 -167 376c0 150 53.333 276.167 160 378.5s241 153.5 403 153.5c161.333 0 295.666 -50.167 402.999 -150.5s161 -220.833 161 -361.5c0 -22 -1.83301 -42.167 -5.5 -60.5
s-6.83398 -31.5 -9.50098 -39.5zM614.002 716.998c-26 0 -48.168 -9.66699 -66.501 -29s-30.166 -44 -35.499 -74h205c-5.33301 30 -17.333 54.667 -36 74s-41 29 -67 29zM133.001 1321c0 57.333 22.167 107.5 66.5 150.5s97.333 64.5 159 64.5s114.667 -21.5 159 -64.5
s66.5 -93.167 66.5 -150.5s-22.167 -107.5 -66.5 -150.5s-97.333 -64.5 -159 -64.5s-114.667 21.5 -159 64.5s-66.5 93.167 -66.5 150.5zM645.001 1321c0 57.333 22.167 107.5 66.5 150.5s97.333 64.5 159 64.5s114.667 -21.5 159 -64.5s66.5 -93.167 66.5 -150.5
s-22.167 -107.5 -66.5 -150.5s-97.333 -64.5 -159 -64.5s-114.667 21.5 -159 64.5s-66.5 93.167 -66.5 150.5z" />
    <glyph glyph-name="uni0452" unicode="&#x452;" 
d="M655 -41l0.00292969 451h41c15.333 0 27.833 4 37.5 12s14.5 17.5 14.5 28.5s-4.83301 20.667 -14.5 29s-22.167 12.5 -37.5 12.5c-26 0 -47.833 -9.66699 -65.5 -29s-26.5 -44 -26.5 -74v-389h-471v922h-143v409h143v103h471v-103h164v-409h-164v-164
c2.66699 4 6.16699 9 10.5 15s14.666 17.167 30.999 33.5s33.666 31 51.999 44s43.166 24.667 74.499 35s64 15.5 98 15.5c101.333 0 184.833 -38.167 250.5 -114.5s98.5 -181.5 98.5 -315.5c0 -155.333 -42.333 -279.5 -127 -372.5s-192.667 -139.5 -324 -139.5h-113z" />
    <glyph glyph-name="uni0453" unicode="&#x453;" horiz-adv-x="993" 
d="M297 1106l195 369h501l-276 -369h-420zM942 1004v-431h-379v-573h-471v1004h850z" />
    <glyph glyph-name="uni0454" unicode="&#x454;" horiz-adv-x="1136" 
d="M676 707c-30 0 -57.0068 -5.83105 -81.0068 -17.498s-40.667 -23.834 -50 -36.501l-13 -18h267v-266h-267c2.66699 -5.33301 7.5 -12.166 14.5 -20.499s22.833 -19 47.5 -32s52 -19.5 82 -19.5c27.333 0 53.333 3.66699 78 11s44.834 16.5 60.501 27.5
s29.5 22.333 41.5 34s21 20.834 27 27.501l8 13l215 -226c-4 -5.33301 -10.167 -12.833 -18.5 -22.5s-27.166 -27 -56.499 -52s-60.666 -46.833 -93.999 -65.5s-77.333 -35.834 -132 -51.501s-111.334 -23.5 -170.001 -23.5c-166.667 0 -305.667 52.333 -417 157
s-167 230 -167 376s55.667 271.167 167 375.5s250.333 156.5 417 156.5c58.667 0 115.334 -7.5 170.001 -22.5s99.334 -33 134.001 -54s65.334 -41.833 92.001 -62.5s46.334 -38.334 59.001 -53.001l16 -23l-215 -225c-5.33301 8 -13.166 18.167 -23.499 30.5
s-34.333 29.166 -72 50.499s-77.5 32 -119.5 32z" />
    <glyph glyph-name="uni0455" unicode="&#x455;" horiz-adv-x="1054" 
d="M993 860l-204.999 -215.001c-27.333 27.333 -58 41 -92 41c-40.667 0 -61 -13.667 -61 -41c0 -9.33301 19.167 -20.833 57.5 -34.5s80.666 -28.667 126.999 -45s88.666 -47 126.999 -92s57.5 -100.5 57.5 -166.5c0 -92.667 -42.333 -172.167 -127 -238.5
s-203 -99.5 -355 -99.5c-66.667 0 -130 7.5 -190 22.5s-108.833 33.167 -146.5 54.5s-70.167 42.166 -97.5 62.499s-47 38.166 -59 53.499l-19 22l205 215c40.667 -54.667 92 -82 154 -82c40.667 0 61 13.667 61 41c0 8 -12.667 16.833 -38 26.5s-56 21 -92 34
s-72.167 29.833 -108.5 50.5s-67.166 51.834 -92.499 93.501s-38 89.834 -38 144.501c0 88.667 42 165.334 126 230.001s199 97 345 97c61.333 0 119 -6.16699 173 -18.5s97.833 -27 131.5 -44s63.167 -33.667 88.5 -50s43.333 -30.5 54 -42.5z" />
    <glyph glyph-name="uni0456" unicode="&#x456;" horiz-adv-x="716" 
d="M92 1311c0 62.667 24 115.834 72 159.501s109.5 65.5 184.5 65.5s136.333 -21.833 184 -65.5s71.5 -96.834 71.5 -159.501s-23.833 -116 -71.5 -160s-109 -66 -184 -66s-136.5 22 -184.5 66s-72 97.333 -72 160zM113 0v1004h471v-1004h-471z" />
    <glyph glyph-name="uni0457" unicode="&#x457;" horiz-adv-x="716" 
d="M584 1004v-1004h-471v1004h471zM-133 1300c0 57.333 22.167 107.666 66.5 150.999s97.166 65 158.499 65s114.166 -21.667 158.499 -65s66.5 -93.666 66.5 -150.999s-22.167 -107.5 -66.5 -150.5s-97.166 -64.5 -158.499 -64.5s-114.166 21.5 -158.499 64.5
s-66.5 93.167 -66.5 150.5zM379 1300c0 57.333 22.167 107.666 66.5 150.999s97.166 65 158.499 65s114.166 -21.667 158.499 -65s66.5 -93.666 66.5 -150.999s-22.167 -107.5 -66.5 -150.5s-97.166 -64.5 -158.499 -64.5s-114.166 21.5 -158.499 64.5
s-66.5 93.167 -66.5 150.5z" />
    <glyph glyph-name="uni0458" unicode="&#x458;" horiz-adv-x="716" 
d="M113 102v902h471v-984c0 -142 -38.333 -252.5 -115 -331.5s-181.667 -118.5 -315 -118.5c-42 0 -83.667 3.33301 -125 10s-71.333 13.667 -90 21l-31 10v409c27.333 -13.333 61.333 -20 102 -20c31.333 0 56.333 9.5 75 28.5s28 43.5 28 73.5zM92 1311
c0 62.667 24 115.834 72 159.501s109.5 65.5 184.5 65.5s136.333 -21.833 184 -65.5s71.5 -96.834 71.5 -159.501s-23.833 -116 -71.5 -160s-109 -66 -184 -66s-136.5 22 -184.5 66s-72 97.333 -72 160z" />
    <glyph glyph-name="uni0459" unicode="&#x459;" horiz-adv-x="1689" 
d="M1638 368.5c0 -105 -39.501 -192.668 -118.501 -263.001s-186.167 -105.5 -321.5 -105.5h-543v594h-41c0 -210 -38.5 -366.667 -115.5 -470s-178.167 -155 -303.5 -155c-32.667 0 -66.167 2.83301 -100.5 8.5s-60.5 10.5 -78.5 14.5l-26 8v430
c20.667 -6.66699 37.667 -10 51 -10c34 0 61.333 9.5 82 28.5s37.834 60.333 51.501 124s20.5 152.834 20.5 267.501v164h931v-267h72c135.333 0 242.5 -35.167 321.5 -105.5s118.5 -158 118.5 -263zM1075 296.999h31c20.667 0 37.834 6.83301 51.501 20.5
s20.5 30.667 20.5 51s-6.83301 37.333 -20.5 51s-30.834 20.5 -51.501 20.5h-31v-143z" />
    <glyph glyph-name="uni045A" unicode="&#x45a;" horiz-adv-x="1710" 
d="M1659 368.5c0 -105 -39.667 -192.667 -119 -263s-186.333 -105.5 -321 -105.5h-543v348h-113v-348h-471v1004h471v-267h113v267h471v-267h72c135.333 0 242.5 -35.167 321.5 -105.5s118.5 -158 118.5 -263zM1096 297h30c20.667 0 37.834 6.83301 51.501 20.5
s20.5 30.667 20.5 51s-6.83301 37.333 -20.5 51s-30.834 20.5 -51.501 20.5h-30v-143z" />
    <glyph glyph-name="uni045B" unicode="&#x45b;" horiz-adv-x="1331" 
d="M768 1331l0.00488281 -409h-164v-164c2.66699 4 6.16699 9 10.5 15s14.666 17.167 30.999 33.5s33.666 31 51.999 44s43.166 24.667 74.499 35s64 15.5 98 15.5c100 0 183.167 -37.167 249.5 -111.5s99.5 -173.5 99.5 -297.5v-492h-471v369
c0 24.667 -6.83301 44.5 -20.5 59.5s-30.834 22.5 -51.501 22.5c-16.667 0 -32.834 -10 -48.501 -30s-23.5 -44.333 -23.5 -73v-348h-471v922h-143v409h143v103h471v-103h164z" />
    <glyph glyph-name="uni045C" unicode="&#x45c;" horiz-adv-x="1259" 
d="M430 1106l195 369h501l-276 -369h-420zM928 573l342 -573h-492l-174 307l-41 -51v-256h-471v1004h471v-246l185 246h512z" />
    <glyph glyph-name="uni045E" unicode="&#x45e;" horiz-adv-x="1208" 
d="M307 61l-338.001 943.001h492l112 -472l113 472h492l-369 -1024c-98 -273.333 -262 -410 -492 -410c-42 0 -83.5 3.33301 -124.5 10s-71.167 13.667 -90.5 21l-30 10v409c27.333 -13.333 61.333 -20 102 -20c30 0 56.333 5.16699 79 15.5s37.334 20.166 44.001 29.499z
M593.999 1393c20.667 0 37.832 7.5 51.499 22.5s20.5 34.833 20.5 59.5h327c0 -104 -37.5 -191.5 -112.5 -262.5s-170.5 -106.5 -286.5 -106.5s-211.5 35.5 -286.5 106.5s-112.5 158.5 -112.5 262.5h327c0 -24.667 6.83301 -44.5 20.5 -59.5s30.834 -22.5 51.501 -22.5z" />
    <glyph glyph-name="uni045F" unicode="&#x45f;" 
d="M92 0v1004h471v-594h144v594h471v-1004h-308v-205h-471v205h-307z" />
    <glyph glyph-name="uni0490" unicode="&#x490;" 
d="M717 1434v245h532v-716h-573v-963h-533v1434h574z" />
    <glyph glyph-name="uni0491" unicode="&#x491;" horiz-adv-x="993" 
d="M92 0v1004h379v184h471v-615h-379v-573h-471z" />
    <glyph glyph-name="uni1E9E" unicode="&#x1e9e;" horiz-adv-x="1484" 
d="M1352 1014l-153.996 -215.001c6.66699 -2.66699 15.167 -6.83398 25.5 -12.501s29.166 -19.334 56.499 -41.001s51.166 -45.167 71.499 -70.5s39.166 -60.166 56.499 -104.499s26 -91.166 26 -140.499c0 -118.667 -50.167 -220 -150.5 -304s-234.5 -126 -402.5 -126h-154
v389h51c68 0 102.167 27.333 102.5 82s-33.834 82 -102.501 82h-41v307l103 144h-62c-35.333 0 -64.666 -11.667 -87.999 -35s-35 -52.666 -35 -87.999v-881h-532v881c0 165.333 53.167 298.833 159.5 400.5s251.166 152.5 434.499 152.5h635v-420z" />
    <glyph glyph-name="endash" unicode="&#x2013;" horiz-adv-x="1146" 
d="M1085 799v-389h-1024v389h1024z" />
    <glyph glyph-name="emdash" unicode="&#x2014;" horiz-adv-x="1638" 
d="M1577 799v-389h-1516v389h1516z" />
    <glyph glyph-name="quoteleft" unicode="&#x2018;" horiz-adv-x="696" 
d="M410 758l-369 205l328 512l297 -164z" />
    <glyph glyph-name="quoteright" unicode="&#x2019;" horiz-adv-x="696" 
d="M287 1475l368 -205l-327 -512l-297 164z" />
    <glyph glyph-name="quotesinglbase" unicode="&#x201a;" horiz-adv-x="655" 
d="M246 451l368 -205l-327 -512l-297 164z" />
    <glyph glyph-name="quotedblleft" unicode="&#x201c;" horiz-adv-x="1187" 
d="M901 778l-328 185l328 512l256 -144zM369 778l-328 185l328 512l256 -144z" />
    <glyph glyph-name="quotedblright" unicode="&#x201d;" horiz-adv-x="1187" 
d="M287 1475l327 -185l-327 -512l-256 144zM819 1475l328 -185l-328 -512l-256 144z" />
    <glyph glyph-name="quotedblbase" unicode="&#x201e;" horiz-adv-x="1116" 
d="M215 430l328 -184l-328 -512l-256 143zM748 430l327 -184l-327 -512l-256 143z" />
    <glyph glyph-name="dagger" unicode="&#x2020;" horiz-adv-x="1085" 
d="M748 1434v-256h256v-359h-256v-635h-410v635h-256v359h256v256h410z" />
    <glyph glyph-name="daggerdbl" unicode="&#x2021;" horiz-adv-x="1085" 
d="M338 184v195h-256v358h256v144h-256v358h256v195h410v-195h256v-358h-256v-144h256v-358h-256v-195h-410z" />
    <glyph glyph-name="bullet" unicode="&#x2022;" horiz-adv-x="942" 
d="M143 491.5c0 87.667 32.833 164.167 98.5 229.5s142.167 98 229.5 98s163.833 -32.667 229.5 -98s98.5 -141.833 98.5 -229.5s-32.833 -164.167 -98.5 -229.5s-142.167 -98 -229.5 -98s-163.833 32.667 -229.5 98s-98.5 141.833 -98.5 229.5z" />
    <glyph glyph-name="ellipsis" unicode="&#x2026;" horiz-adv-x="1863" 
d="M61 215c0 66.667 24 122.667 72 168s109.5 68 184.5 68s136.333 -22.667 184 -68s71.5 -101.333 71.5 -168s-23.833 -122.5 -71.5 -167.5s-109 -67.5 -184 -67.5s-136.5 22.5 -184.5 67.5s-72 100.833 -72 167.5zM676 215c0 66.667 23.833 122.667 71.5 168
s109 68 184 68s136.5 -22.667 184.5 -68s72 -101.333 72 -168s-24 -122.5 -72 -167.5s-109.5 -67.5 -184.5 -67.5s-136.333 22.5 -184 67.5s-71.5 100.833 -71.5 167.5zM1290 215c0 66.667 24 122.667 72 168s109.5 68 184.5 68s136.333 -22.667 184 -68
s71.5 -101.333 71.5 -168s-23.833 -122.5 -71.5 -167.5s-109 -67.5 -184 -67.5s-136.5 22.5 -184.5 67.5s-72 100.833 -72 167.5z" />
    <glyph glyph-name="perthousand" unicode="&#x2030;" horiz-adv-x="2744" 
d="M1567 348c0 20.667 -8.5 39.5 -25.5 56.5s-35.833 25.5 -56.5 25.5s-39.5 -8.5 -56.5 -25.5s-25.5 -35.833 -25.5 -56.5s8.5 -39.5 25.5 -56.5s35.833 -25.5 56.5 -25.5s39.5 8.5 56.5 25.5s25.5 35.833 25.5 56.5zM1085 348.5c0 103.667 38.667 192.667 116 267
s172 111.5 284 111.5s206.5 -37.167 283.5 -111.5s115.5 -163.333 115.5 -267s-38.5 -192.834 -115.5 -267.501s-171.5 -112 -283.5 -112s-206.667 37.333 -284 112s-116 163.834 -116 267.501zM287 0l901 1434h450l-901 -1434h-450zM819 1085.5
c0 -103.667 -38.5 -192.667 -115.5 -267s-171.5 -111.5 -283.5 -111.5s-206.667 37.167 -284 111.5s-116 163.333 -116 267s38.667 192.667 116 267s172 111.5 284 111.5s206.5 -37.167 283.5 -111.5s115.5 -163.333 115.5 -267zM338 1085.5c0 -20.333 8.5 -39 25.5 -56
s35.833 -25.5 56.5 -25.5s39.5 8.5 56.5 25.5s25.5 35.667 25.5 56s-8.5 39 -25.5 56s-35.833 25.5 -56.5 25.5s-39.5 -8.5 -56.5 -25.5s-25.5 -35.667 -25.5 -56zM2406 348c0 20.667 -8.5 39.5 -25.5 56.5s-35.667 25.5 -56 25.5s-39 -8.5 -56 -25.5
s-25.5 -35.833 -25.5 -56.5s8.5 -39.5 25.5 -56.5s35.667 -25.5 56 -25.5s39 8.5 56 25.5s25.5 35.833 25.5 56.5zM1925 348.5c0 103.667 38.667 192.667 116 267s171.833 111.5 283.5 111.5s206.167 -37.167 283.5 -111.5s116 -163.333 116 -267
s-38.667 -192.834 -116 -267.501s-171.833 -112 -283.5 -112s-206.167 37.333 -283.5 112s-116 163.834 -116 267.501z" />
    <glyph glyph-name="guilsinglleft" unicode="&#x2039;" horiz-adv-x="870" 
d="M809 881l-277 -389l277 -390h-471l-277 390l277 389h471z" />
    <glyph glyph-name="guilsinglright" unicode="&#x203a;" horiz-adv-x="870" 
d="M338 492l-277 389h471l277 -389l-277 -390h-471z" />
    <glyph glyph-name="fraction" unicode="&#x2044;" horiz-adv-x="573" 
d="M-389 0l901 1434h451l-902 -1434h-450z" />
    <glyph glyph-name="uni2070" unicode="&#x2070;" horiz-adv-x="798" 
d="M41 1270c0 112 33.833 203.167 101.5 273.5s153.334 105.5 257.001 105.5s189.334 -35.167 257.001 -105.5s101.5 -161.5 101.5 -273.5s-33.833 -203.167 -101.5 -273.5s-153.334 -105.5 -257.001 -105.5s-189.334 35.167 -257.001 105.5s-101.5 161.5 -101.5 273.5z
M440 1269.5c0 68.333 -13.667 102.5 -41 102.5s-41 -34.167 -41 -102.5s13.667 -102.5 41 -102.5s41 34.167 41 102.5z" />
    <glyph glyph-name="uni2074" unicode="&#x2074;" horiz-adv-x="737" 
d="M645 1270h72v-266h-72v-103h-317v103h-308v245l328 389h297v-368zM348 1249v103l-90 -103h90z" />
    <glyph glyph-name="uni2075" unicode="&#x2075;" horiz-adv-x="706" 
d="M328 1167.5c0 34.333 -17.3301 51.498 -51.9971 51.498l-30 -11h-174l51 430h512v-225h-236l-10 -41c13.333 6.66699 37.333 10 72 10c61.333 0 114.166 -20.333 158.499 -61s66.5 -92 66.5 -154c0 -83.333 -29.333 -150.166 -88 -200.499s-138.667 -75.5 -240 -75.5
c-46.667 0 -89.667 3.66699 -129 11s-71.333 16.5 -96 27.5s-45.834 22.333 -63.501 34s-29.834 20.834 -36.501 27.501l-13 13l154 163c27.333 -34 61.333 -51 102 -51c34.667 0 52 17.167 52 51.5z" />
    <glyph glyph-name="uni2076" unicode="&#x2076;" horiz-adv-x="716" 
d="M635 1638l-163.998 -204.001c5.33301 -1.33301 13.166 -3.5 23.499 -6.5s28.5 -11 54.5 -24s48.833 -28.333 68.5 -46s37.667 -43.167 54 -76.5s24.5 -71.333 24.5 -114c0 -75.333 -31.333 -140.166 -94 -194.499s-143.834 -81.5 -243.501 -81.5s-181 28 -244 84
s-94.5 123.667 -94.5 203c0 36.667 6.83301 72.667 20.5 108s27.5 62 41.5 80l20 27l205 245h328zM317.002 1177.5c0 -15 4.16699 -27.333 12.5 -37s18 -14.5 29 -14.5s20.5 4.83301 28.5 14.5s12 22 12 37s-4 27.333 -12 37s-17.5 14.5 -28.5 14.5
s-20.667 -4.83301 -29 -14.5s-12.5 -22 -12.5 -37z" />
    <glyph glyph-name="uni2077" unicode="&#x2077;" horiz-adv-x="645" 
d="M20 1638h605v-286l-205 -451h-338l205 451h-267v286z" />
    <glyph glyph-name="uni2078" unicode="&#x2078;" horiz-adv-x="737" 
d="M369 891c-110.667 0 -196.497 22.1641 -257.497 66.4971s-91.5 97.166 -91.5 158.499c0 39.333 12 72.666 36 99.999s47.667 45.333 71 54l37 10c-9.33301 4 -20.833 9.83301 -34.5 17.5s-31.834 25.834 -54.501 54.501s-34 59.334 -34 92.001c0 56 28 104.167 84 144.5
s137.167 60.5 243.5 60.5s187.5 -20.167 243.5 -60.5s84 -88.5 84 -144.5c0 -32.667 -10.167 -62.667 -30.5 -90s-40.833 -46.666 -61.5 -57.999l-31 -16c4 -1.33301 9.16699 -2.66602 15.5 -3.99902s17.666 -6.5 33.999 -15.5s31 -19 44 -30s24.667 -26.667 35 -47
s15.5 -42.833 15.5 -67.5c0 -61.333 -30.333 -114.166 -91 -158.499s-146.334 -66.5 -257.001 -66.5zM369.003 1423c-27.333 0 -41 -10.167 -41 -30.5s13.667 -30.5 41 -30.5s41 10.167 41 30.5s-13.667 30.5 -41 30.5zM368.503 1198c-15 0 -27.333 -4 -37 -12
s-14.5 -17.5 -14.5 -28.5s4.83301 -20.667 14.5 -29s22 -12.5 37 -12.5s27.333 4.16699 37 12.5s14.5 18 14.5 29s-4.83301 20.5 -14.5 28.5s-22 12 -37 12z" />
    <glyph glyph-name="uni2079" unicode="&#x2079;" horiz-adv-x="716" 
d="M82 901l163.999 205c-5.33301 1.33301 -13.166 3.33301 -23.499 6s-28.5 10.5 -54.5 23.5s-48.833 28.333 -68.5 46s-37.834 43.334 -54.501 77.001s-25 71.5 -25 113.5c0 75.333 31.5 140.333 94.5 195s144.333 82 244 82s180.834 -28 243.501 -84s94 -123.667 94 -203
c0 -36.667 -6.83301 -72.834 -20.5 -108.501s-27.167 -62.167 -40.5 -79.5l-21 -27l-204 -246h-328zM398.999 1361.5c0 15 -4 27.333 -12 37s-17.5 14.5 -28.5 14.5s-20.667 -4.83301 -29 -14.5s-12.5 -22 -12.5 -37s4.16699 -27.167 12.5 -36.5s18 -14 29 -14
s20.5 4.66699 28.5 14s12 21.5 12 36.5z" />
    <glyph glyph-name="uni2080" unicode="&#x2080;" horiz-adv-x="798" 
d="M41 164c0 112 33.833 203.167 101.5 273.5s153.334 105.5 257.001 105.5s189.334 -35.167 257.001 -105.5s101.5 -161.5 101.5 -273.5s-33.833 -203.167 -101.5 -273.5s-153.334 -105.5 -257.001 -105.5s-189.334 35.167 -257.001 105.5s-101.5 161.5 -101.5 273.5z
M440 163.5c0 68.333 -13.667 102.5 -41 102.5s-41 -34.167 -41 -102.5s13.667 -102.5 41 -102.5s41 34.167 41 102.5z" />
    <glyph glyph-name="uni2081" unicode="&#x2081;" horiz-adv-x="532" 
d="M184 532h286.999v-737h-317v410h-134v225c36.667 5.33301 68.834 16.5 96.501 33.5s46.167 33.167 55.5 48.5z" />
    <glyph glyph-name="uni2082" unicode="&#x2082;" horiz-adv-x="727" 
d="M676 -205l-635.002 -0.00292969c0 68 10.167 128.333 30.5 181s44.833 92.667 73.5 120s57.667 49.833 87 67.5s54.333 32 75 43s31 20.833 31 29.5c0 20.667 -10.333 30.667 -31 30c-9.33301 0 -17.5 -2.66699 -24.5 -8s-11.167 -10.666 -12.5 -15.999l-4 -6l-246 102
c2.66699 5.33301 6.5 12.833 11.5 22.5s17.333 26 37 49s41.834 43.5 66.501 61.5s57.834 34.5 99.501 49.5s86.5 22.5 134.5 22.5c98 0 175.333 -22.833 232 -68.5s85 -101.5 85 -167.5c0 -23.333 -3.66699 -45.166 -11 -65.499s-15.5 -37.666 -24.5 -51.999
s-22 -29 -39 -44s-30.667 -26 -41 -33s-25 -16.5 -44 -28.5s-30.5 -19.667 -34.5 -23h184v-266z" />
    <glyph glyph-name="uni2083" unicode="&#x2083;" horiz-adv-x="727" 
d="M328 51.5c0 11 -4.83398 20.498 -14.501 28.498s-22.167 12 -37.5 12h-71v164h71c27.333 0 41 10.167 41 30.5s-13.667 30.5 -41 30.5c-15.333 0 -29.666 -3.66699 -42.999 -11s-22.666 -14.333 -27.999 -21l-10 -11l-154 164c2.66699 2.66699 6 6.5 10 11.5
s15.333 13.667 34 26s39.167 22.833 61.5 31.5s53.333 16.834 93 24.501s82.834 11.5 129.501 11.5c96.667 0 172 -20.167 226 -60.5s81 -88.5 81 -144.5c0 -32.667 -10.333 -62.667 -31 -90s-41 -46.666 -61 -57.999l-31 -16c4 -1.33301 8.66699 -2.66602 14 -3.99902
s16 -6.5 32 -15.5s29.667 -18.833 41 -29.5s21.833 -26.334 31.5 -47.001s14.5 -43.334 14.5 -68.001c0 -60 -29 -112.5 -87 -157.5s-138.333 -67.5 -241 -67.5c-46.667 0 -89.667 3.66699 -129 11s-71.333 16.5 -96 27.5s-45.834 22.333 -63.501 34
s-29.834 20.834 -36.501 27.501l-13 13l154 163c27.333 -34 61.333 -51 102 -51c15.333 0 27.833 4.16699 37.5 12.5s14.5 18 14.5 29z" />
    <glyph glyph-name="uni2084" unicode="&#x2084;" horiz-adv-x="737" 
d="M645 164h72v-266h-72v-103h-317v103h-308v245l328 389h297v-368zM348 143v103l-90 -103h90z" />
    <glyph glyph-name="uni2085" unicode="&#x2085;" horiz-adv-x="706" 
d="M328 61.5c0 34.333 -17.3301 51.498 -51.9971 51.498l-30 -11h-174l51 430h512v-225h-236l-10 -41c13.333 6.66699 37.333 10 72 10c61.333 0 114.166 -20.333 158.499 -61s66.5 -92 66.5 -154c0 -83.333 -29.333 -150.166 -88 -200.499s-138.667 -75.5 -240 -75.5
c-46.667 0 -89.667 3.66699 -129 11s-71.333 16.5 -96 27.5s-45.834 22.333 -63.501 34s-29.834 20.834 -36.501 27.501l-13 13l154 163c27.333 -34 61.333 -51 102 -51c34.667 0 52 17.167 52 51.5z" />
    <glyph glyph-name="uni2086" unicode="&#x2086;" horiz-adv-x="716" 
d="M635 532l-163.998 -204.001c5.33301 -1.33301 13.166 -3.5 23.499 -6.5s28.5 -10.833 54.5 -23.5s48.833 -28 68.5 -46s37.667 -43.667 54 -77s24.5 -71.333 24.5 -114c0 -75.333 -31.333 -140.166 -94 -194.499s-143.834 -81.5 -243.501 -81.5s-181 28 -244 84
s-94.5 123.667 -94.5 203c0 36.667 6.83301 72.667 20.5 108s27.5 62 41.5 80l20 27l205 245h328zM317.002 71.499c0 -15 4.16699 -27.333 12.5 -37s18 -14.5 29 -14.5s20.5 4.83301 28.5 14.5s12 22 12 37s-4 27.333 -12 37s-17.5 14.5 -28.5 14.5
s-20.667 -4.83301 -29 -14.5s-12.5 -22 -12.5 -37z" />
    <glyph glyph-name="uni2087" unicode="&#x2087;" horiz-adv-x="645" 
d="M20 532h605v-286l-205 -451h-338l205 451h-267v286z" />
    </font>
</defs>
</svg>
