<?xml version="1.0" standalone="no"?>
<!DOCTYPE svg PUBLIC "-//W3C//DTD SVG 1.1//EN" "http://www.w3.org/Graphics/SVG/1.1/DTD/svg11.dtd" >
<svg xmlns="http://www.w3.org/2000/svg" xmlns:xlink="http://www.w3.org/1999/xlink" version="1.1">
<metadata>
Created by FontForge 20190801 at Tue May 30 06:20:21 2017
 By Jimmy Wärting
Copyright (c) 2017 by TypeType. Designers Ivan Gladkikh, Pavel Emelyanov. Technical designers Olexa Volochay, Nadyr Rakhimov, Dmitriy Greshnev. All rights reserved.
</metadata>
<defs>
<font id="TTNorms-HeavyItalic" horiz-adv-x="1290" >
  <font-face 
    font-family="TT Norms Heavy Italic"
    font-weight="900"
    font-style="italic"
    font-stretch="normal"
    units-per-em="2048"
    panose-1="2 0 5 3 3 0 0 9 0 2"
    ascent="1638"
    descent="-410"
    x-height="1004"
    cap-height="1434"
    bbox="-481 -573 2945.01 2089"
    underline-thickness="0"
    underline-position="0"
    unicode-range="U+000D-FB06"
  />
<missing-glyph horiz-adv-x="0" 
 />
    <glyph glyph-name="ij" unicode="ij" horiz-adv-x="1392" 
d="M705 1004l-115 -533c-6.66699 -31.333 -1.5 -56.166 15.5 -74.499s42.5 -27.5 76.5 -27.5c18 0 35.167 1.66699 51.5 5s27.833 7 34.5 11l10 4l131 615h471l-209 -984c-64 -300.667 -233 -450.667 -507 -450c-42 0 -84.667 3.33301 -128 10s-76 13.667 -98 21l-30 10
l73 348c24.667 -13.333 57.667 -20 99 -20c30 0 56.5 9.16699 79.5 27.5s38.167 43.166 45.5 74.499c-66.667 -27.333 -148 -41 -244 -41c-135.333 0 -234.333 39.667 -297 119s-79 190 -49 332l118 553h472zM942 1288c0 68 27.667 126.334 83 175.001s119.333 73 192 73
c76.667 0 137 -19.833 181 -59.5s66 -88.167 66 -145.5c0 -66.667 -26.833 -124.334 -80.5 -173.001s-118.167 -73 -193.5 -73c-76.667 0 -137.167 19.5 -181.5 58.5s-66.5 87.167 -66.5 144.5zM260 1288c0 68 27.667 126.334 83 175.001s119.333 73 192 73
c76.667 0 137 -19.833 181 -59.5s66 -88.167 66 -145.5c0 -66.667 -26.833 -124.334 -80.5 -173.001s-118.167 -73 -193.5 -73c-76.667 0 -137.167 19.5 -181.5 58.5s-66.5 87.167 -66.5 144.5z" />
    <glyph glyph-name="uniFB00" unicode="ff" horiz-adv-x="1638" 
d="M1499 983l-9.99805 -41h205l-86 -410h-205l-113 -532h-471l113 532h-287l-113 -532h-471l113 532h-123l86 410h123l10 41c62.667 300.667 232.667 451 510 451c42 0 84.333 -3.5 127 -10.5s74 -13.833 94 -20.5l31 -10l-82 -389c-24.667 13.333 -57.334 20 -98.001 20
c-56 0 -96.333 -27.333 -121 -82h287l18 82c64 300.667 234.667 451 512 451c42 0 84 -3.5 126 -10.5s73 -13.833 93 -20.5l31 -10l-82 -390c-24.667 13.333 -57.334 20.333 -98.001 21c-30 0 -56.333 -8.16699 -79 -24.5s-36 -35.5 -40 -57.5z" />
    <glyph glyph-name="uniFB01" unicode="fi" horiz-adv-x="1525" 
d="M731 942l757.998 0.000976562l-199 -942h-471l113 532h-287l-113 -532h-471l113 532h-123l86 410h123l19 82c64 300.667 231.667 451 503 451c36.667 0 74.834 -3.5 114.501 -10.5s69.834 -13.833 90.501 -20.5l33 -10l-82 -390c-26 13.333 -54 20.166 -84 20.499
s-55.167 -7.66699 -75.5 -24s-32.833 -35.5 -37.5 -57.5zM1053 1247c0 68 27.667 126.334 83 175.001s119 73 191 73c76.667 0 137.167 -19.833 181.5 -59.5s66.5 -88.167 66.5 -145.5c0 -66.667 -27 -124.334 -81 -173.001s-118.667 -73 -194 -73
c-76.667 0 -137 19.5 -181 58.5s-66 87.167 -66 144.5z" />
    <glyph glyph-name="uniFB02" unicode="fl" horiz-adv-x="1505" 
d="M1489 942l-199 -941.999h-471l199 942c6.66699 34 -2.66602 63 -27.999 87s-57 36 -95 36c-40.667 0 -76.5 -12.333 -107.5 -37s-49.833 -53.334 -56.5 -86.001h205l-86 -410h-205l-113 -532h-471l113 532h-123l86 410h123c32.667 150 110.167 276.333 232.5 379
s272.166 154 449.499 154c162.667 0 296.167 -42.667 400.5 -128s156.5 -191 156.5 -317c0 -24.667 -3.33301 -54 -10 -88z" />
    <glyph glyph-name="uniFB03" unicode="ffi" horiz-adv-x="2273" 
d="M1489 942h758.001l-199 -942h-471l113 532h-287l-113 -532h-471l113 532h-287l-113 -532h-471l113 532h-123l86 410h123l10 41c62.667 300.667 232.667 451 510 451c42 0 84.333 -3.5 127 -10.5s74 -13.833 94 -20.5l31 -10l-82 -389
c-24.667 13.333 -57.334 20 -98.001 20c-56 0 -96.333 -27.333 -121 -82h287l18 82c64 300.667 234.667 451 512 451c36.667 0 74.167 -3.5 112.5 -10.5s67.833 -13.833 88.5 -20.5l29 -10l-82 -390c-24.667 13.333 -54.667 20.333 -90 21
c-28.667 0 -52.667 -8.16699 -72 -24.5s-31 -35.5 -35 -57.5zM1810 1249c0 68 27.667 126.333 83 175s119.333 73 192 73c76.667 0 137.167 -19.833 181.5 -59.5s66.5 -88.167 66.5 -145.5c0 -66.667 -27 -124.167 -81 -172.5s-118.667 -72.5 -194 -72.5
c-76.667 0 -137.167 19.333 -181.5 58s-66.5 86.667 -66.5 144z" />
    <glyph glyph-name="uniFB06" unicode="st" horiz-adv-x="1966" 
d="M111 670c0 92.667 37.5029 172.838 112.503 240.505s185.5 106.167 331.5 115.5c31.333 120 105 224.833 221 314.5s256 134.5 420 134.5c162.667 0 296.167 -40.667 400.5 -122s156.5 -179.333 156.5 -294c0 -12 -1.33301 -30.333 -4 -55h205l-84 -390h-205l-20 -102
c-5.33301 -28.667 -1.66602 -52.834 11.001 -72.501s34.667 -29.5 66 -29.5c18 0 36.167 1.66699 54.5 5s32.5 7 42.5 11l12 4l-86 -410c-69.333 -27.333 -152 -40.666 -248 -39.999c-112 0 -199.333 27.5 -262 82.5s-94 133.833 -94 236.5c0 44 4.66699 87.667 14 131
l39 184h-82l84 390h82c0 26 -11 46 -33 60s-48.667 21 -80 21c-45.333 0 -82.5 -13.167 -111.5 -39.5s-43.5 -60.833 -43.5 -103.5c0 -39.333 16.333 -73.333 49 -102l-221 -189c-32.667 23.333 -66.334 35 -101.001 35c-39.333 0 -59 -13 -59 -39
c0 -10.667 15.667 -23.834 47 -39.501s66.166 -31.667 104.499 -48s73.166 -43.333 104.499 -81s47 -82.5 47 -134.5c0 -106.667 -42.667 -195.834 -128 -267.501s-211.333 -107.5 -378 -107.5c-66.667 0 -130 7.5 -190 22.5s-109.167 33.167 -147.5 54.5
s-71.833 42.166 -100.5 62.499s-49.334 38.166 -62.001 53.499l-18 22l244 209c40.667 -50.667 91.667 -76 153 -76c39.333 0 59.333 13 60 39c0 10.667 -10.333 22 -31 34s-46 24.833 -76 38.5s-60 29.667 -90 48s-55.167 44.666 -75.5 78.999s-30.5 72.5 -30.5 114.5z" />
    <glyph glyph-name="c_t.liga" unicode="ct" horiz-adv-x="2058" 
d="M705 614c-39.333 0 -74.502 -11.4971 -105.502 -34.4971s-46.5 -54.5 -46.5 -94.5c0 -26 11.333 -48.5 34 -67.5s51 -28.5 85 -28.5c27.333 0 55 6.16699 83 18.5s49.333 25.166 64 38.499l21 19l219 -287c-5.33301 -5.33301 -12.5 -12.833 -21.5 -22.5
s-29.5 -26.334 -61.5 -50.001s-65.833 -44.834 -101.5 -63.501s-81.5 -35.5 -137.5 -50.5s-113.333 -22.5 -172 -22.5c-147.333 0 -269.5 46.833 -366.5 140.5s-145.5 202.5 -145.5 326.5c0 158.667 58.333 294.667 175 408s264 176 442 188
c32.667 118.667 107.667 222.167 225 310.5s255.333 132.5 414 132.5c157.333 0 286 -40.667 386 -122s150 -179.333 150 -294c0 -12 -1.33301 -30.333 -4 -55h205l-84 -390h-205l-20 -102c-5.33301 -28.667 -1.66602 -52.834 11.001 -72.501s35 -29.5 67 -29.5
c18 0 36 1.66699 54 5s31.333 7 40 11l14 4l-86 -410c-68 -27.333 -150 -40.666 -246 -39.999c-112 0 -199.667 27.833 -263 83.5s-95 134.167 -95 235.5c0 44 4.66699 87.667 14 131l39 184h-82l84 390h82c1.33301 26 -8.5 46 -29.5 60s-46.5 21 -76.5 21
c-39.333 0 -72.833 -13.167 -100.5 -39.5s-41.5 -60.833 -41.5 -103.5c0 -35.333 22 -76.333 66 -123l-332 -282c-39.333 51.333 -89.666 77 -150.999 77z" />
    <glyph glyph-name="s_p.liga" unicode="sp" horiz-adv-x="2375" 
d="M1706 399c34 0 63 11.999 87 35.999s36 53.667 36 89c0 23.333 -8.16699 42.5 -24.5 57.5s-37.5 22.5 -63.5 22.5c-34 0 -63 -11.167 -87 -33.5s-36 -52.166 -36 -89.499c0 -24.667 7.83301 -44.5 23.5 -59.5s37.167 -22.5 64.5 -22.5zM1724 982.999l-19.9961 -91.9971
c8 9.33301 19.5 21.5 34.5 36.5s47.833 34.833 98.5 59.5s103.334 37 158.001 37c96.667 0 177.167 -39.333 241.5 -118s96.5 -176.667 96.5 -294c0 -188.667 -53.667 -341.167 -161 -457.5s-228 -174.5 -362 -174.5c-36.667 0 -71 5 -103 15s-57.5 22.5 -76.5 37.5
s-35.667 30.333 -50 46s-24.5 29.167 -30.5 40.5l-8 14l-119 -563h-471l301 1413c8 30 2.16699 54.5 -17.5 73.5s-45.834 28.5 -78.501 28.5c-39.333 0 -73.666 -14.333 -102.999 -43s-44 -64 -44 -106c0 -35.333 16.333 -67.333 49 -96l-221 -189
c-32.667 23.333 -66.334 35 -101.001 35c-39.333 0 -59 -13 -59 -39c0 -10.667 15.667 -23.834 47 -39.501s66.166 -31.667 104.499 -48s73.166 -43.333 104.499 -81s47 -82.5 47 -134.5c0 -106.667 -42.667 -195.834 -128 -267.501s-211.333 -107.5 -378 -107.5
c-66.667 0 -130 7.5 -190 22.5s-109.167 33.167 -147.5 54.5s-71.833 42.166 -100.5 62.499s-49.334 38.166 -62.001 53.499l-18 22l244 209c40.667 -50.667 91.667 -76 153 -76c39.333 0 59.333 13 60 39c0 10.667 -10.333 22 -31 34s-46 24.833 -76 38.5
s-60 29.667 -90 48s-55.167 44.5 -75.5 78.5s-30.5 72.333 -30.5 115c0 92.667 37.5 172.834 112.5 240.501s185.5 106.167 331.5 115.5c31.333 120 105.666 224.833 222.999 314.5s256 134.5 416 134.5c154 0 282 -42.333 384 -127s153 -183.667 153 -297
c-0.666992 -23.333 -3 -46 -7 -68z" />
    <glyph glyph-name="f_t.liga" unicode="ft" horiz-adv-x="1720" 
d="M1694 942l-85.9971 -410.001h-205l-4 -20c-6.66699 -30 -2.83398 -54.5 11.499 -73.5s37.166 -28.5 68.499 -28.5c18 0 35.833 1.66699 53.5 5s31.167 7 40.5 11l12 4l-86 -410c-68 -27.333 -150 -40.666 -246 -39.999c-135.333 0 -234 39.5 -296 118.5
s-78 189.5 -48 331.5l23 102h-287l-113 -532h-471l113 532h-123l86 410h123l19 82c64 300.667 232.333 451 505 451c42 0 84.667 -3.5 128 -10.5s75.333 -13.833 96 -20.5l32 -10l-82 -390c-24.667 13.333 -57.334 20.333 -98.001 21c-30 0 -56.167 -8.16699 -78.5 -24.5
s-35.833 -35.5 -40.5 -57.5l-10 -41h213c40.667 0 76.5 13.667 107.5 41s50.5 61.333 58.5 102l31 144h409l-61 -287h205z" />
    <glyph glyph-name=".notdef" horiz-adv-x="0" 
 />
    <glyph glyph-name="glyph1" horiz-adv-x="0" 
 />
    <glyph glyph-name="glyph1" horiz-adv-x="0" 
 />
    <glyph glyph-name="uni000D" unicode="&#xd;" horiz-adv-x="0" 
 />
    <glyph glyph-name="space" unicode=" " horiz-adv-x="450" 
 />
    <glyph glyph-name="exclam" unicode="!" horiz-adv-x="737" 
d="M592 522h-410l111 912h573zM66 186c0 70.667 27.165 132.5 81.498 185.5s119.833 79.5 196.5 79.5s136.834 -20.167 180.501 -60.5s65.5 -90.5 65.5 -150.5c0 -72.667 -27 -134.167 -81 -184.5s-120.667 -75.5 -200 -75.5c-75.333 0 -134.666 19.333 -177.999 58
s-65 88 -65 148z" />
    <glyph glyph-name="quotedbl" unicode="&#x22;" horiz-adv-x="1085" 
d="M702 1434l-120 -574h-410l121 574h409zM1214 1434l-120 -574h-410l121 574h409z" />
    <glyph glyph-name="numbersign" unicode="#" horiz-adv-x="1566" 
d="M133 635h184l66 164h-184l141 327h184l127 308h430l-127 -308h123l127 308h430l-127 -308h185l-142 -327h-184l-66 -164h185l-142 -328h-184l-125 -307h-430l125 307h-123l-125 -307h-430l125 307h-184zM809 819l-86 -205h154l86 205h-154z" />
    <glyph glyph-name="dollar" unicode="$" 
d="M1405 1270l-352.001 -298.997c-57.333 49.333 -120.333 73.666 -189 72.999c-61.333 0 -92 -19.667 -92 -59c0 -22 25.667 -45.167 77 -69.5s107.333 -48.833 168 -73.5s116.667 -66.334 168 -125.001s77 -129.667 77 -213c0 -122.667 -41.333 -232.834 -124 -330.501
s-201.334 -162.167 -356.001 -193.5l-34 -164h-431l35 170c-78 19.333 -150.333 47 -217 83s-114.334 67.667 -143.001 95l-41 41l348 295c9.33301 -8 22.166 -18.167 38.499 -30.5s46.833 -28.833 91.5 -49.5s85.334 -31 122.001 -31c74 0 111 22 111 66
c0 16.667 -12.333 32.334 -37 47.001s-55.167 28.834 -91.5 42.501s-75.666 32.167 -117.999 55.5s-81.5 49 -117.5 77s-66.333 65.5 -91 112.5s-37 100.5 -37 160.5c0 121.333 42.667 229.833 128 325.5s208 157.167 368 184.5l34 158h430l-36 -176
c62.667 -16.667 119.834 -39.334 171.501 -68.001s87.834 -53.334 108.501 -74.001z" />
    <glyph glyph-name="percent" unicode="%" horiz-adv-x="1925" 
d="M195 0l1204 1434h450l-1204 -1434h-450zM965 1118c0 -112 -44.5 -208.501 -133.5 -289.501s-193.5 -121.5 -313.5 -121.5c-108 0 -196.333 33.333 -265 100s-103 147.334 -103 242.001c0 113.333 44 210.5 132 291.5s192 121.5 312 121.5
c109.333 0 198.5 -33.833 267.5 -101.5s103.5 -148.5 103.5 -242.5zM569 1167c-23.333 0 -45.167 -8.83398 -65.5 -26.501s-30.5 -39.5 -30.5 -65.5c0 -20.667 6.5 -37.667 19.5 -51s30.5 -20 52.5 -20c24.667 0 46.834 8.83301 66.501 26.5s29.5 38.834 29.5 63.501
c0 20.667 -6.83301 38 -20.5 52s-30.834 21 -51.501 21zM1894 382.998c0 -112 -44.333 -208.666 -133 -289.999s-193 -122 -313 -122c-108 0 -196.5 33.5 -265.5 100.5s-103.5 147.5 -103.5 241.5c0 113.333 44 210.666 132 291.999s192.333 122 313 122
c109.333 0 198.333 -33.833 267 -101.5s103 -148.5 103 -242.5zM1499 431.999c-23.333 0 -45.167 -8.83203 -65.5 -26.499s-30.5 -39.5 -30.5 -65.5c0 -20.667 6.5 -37.834 19.5 -51.501s30.5 -20.5 52.5 -20.5c24.667 0 46.834 9 66.501 27s29.5 39 29.5 63
c0 20.667 -6.83301 38.167 -20.5 52.5s-30.834 21.5 -51.501 21.5z" />
    <glyph glyph-name="ampersand" unicode="&#x26;" horiz-adv-x="1454" 
d="M1292 389c22 -13.333 43.332 -19.9961 63.999 -19.9961l65 10l-80 -379c-46.667 -27.333 -117.667 -41 -213 -41c-34 0 -66.667 4.5 -98 13.5s-57.166 19.667 -77.499 32s-38.5 24.166 -54.5 35.499s-27.333 21.333 -34 30l-10 14
c-10.667 -9.33301 -26 -20.833 -46 -34.5s-64.5 -32.167 -133.5 -55.5s-141.5 -35 -217.5 -35c-132.667 0 -241.667 36.5 -327 109.5s-128 159.5 -128 259.5c0 61.333 13.333 118.666 40 171.999s58.5 96.666 95.5 129.999s74.167 62.333 111.5 87s69 42.334 95 53.001
l41 14c-60 82 -90 169.667 -90 263c0 121.333 46.333 223 139 305s219 123 379 123c126.667 0 231.667 -32.167 315 -96.5s125 -141.5 125 -231.5c0 -42 -10.5 -84.333 -31.5 -127s-46.167 -79 -75.5 -109s-59 -56.833 -89 -80.5s-56 -41.167 -78 -52.5l-31 -18l53 -74
c27.333 20.667 44 44.667 50 72h450c-13.333 -66.667 -37.5 -130.834 -72.5 -192.501s-66.167 -106.834 -93.5 -135.501zM566.999 328.004c16.667 0 33.1689 3.33594 49.502 10.0029s27.833 14 34.5 22l13 11l-76 123c-6.66699 -2.66699 -14.834 -6.83398 -24.501 -12.501
s-22.334 -17.334 -38.001 -35.001s-23.5 -36.834 -23.5 -57.501c0 -18 6 -32.667 18 -44s27.667 -17 47 -17zM741.001 942.007c20.667 10.667 39.832 25.998 57.499 45.998s26.5 40.333 26.5 61c0 16.667 -5 30.334 -15 41.001s-22.667 16 -38 16
c-19.333 0 -36.5 -8.16699 -51.5 -24.5s-22.5 -36.166 -22.5 -59.499c0 -13.333 3.83301 -26.5 11.5 -39.5s14.834 -23.167 21.501 -30.5z" />
    <glyph glyph-name="quotesingle" unicode="'" horiz-adv-x="593" 
d="M723 1434l-121 -574h-430l121 574h430z" />
    <glyph glyph-name="parenleft" unicode="(" horiz-adv-x="880" 
d="M610 512c-16.667 -75.333 -24.666 -155.997 -23.999 -241.997c0 -92.667 10.167 -184.667 30.5 -276s40.833 -159 61.5 -203l31 -67l-406 -216c-6.66699 9.33301 -15.167 22.333 -25.5 39s-28.833 52 -55.5 106s-50.167 109.333 -70.5 166s-39 127.334 -56 212.001
s-25.5 168.667 -25.5 252c0 136.667 22.833 272.5 68.5 407.5s100.167 250 163.5 345s128.166 180 194.499 255s121 131.333 164 169s66.5 56.5 70.5 56.5l311 -216c-9.33301 -9.33301 -21.833 -22.833 -37.5 -40.5s-44.667 -54.834 -87 -111.501
s-81.166 -114.334 -116.499 -173.001s-71.833 -130.334 -109.5 -215.001s-64.834 -167.334 -81.501 -248.001z" />
    <glyph glyph-name="parenright" unicode=")" horiz-adv-x="880" 
d="M303 512c16.667 82 25 161.33 25 237.997c0 92.667 -10.333 185 -31 277s-42 160.667 -64 206l-30 67l405 216c6.66699 -9.33301 15.167 -22.333 25.5 -39s29.166 -52 56.499 -106s51.333 -109.667 72 -167s39.5 -128.333 56.5 -213s25.5 -168.667 25.5 -252
c0 -138 -22.833 -274.167 -68.5 -408.5s-100.667 -249.333 -165 -345s-129.333 -180.667 -195 -255s-121 -130.333 -166 -168s-68.167 -55.834 -69.5 -54.501l-309 216c9.33301 9.33301 21.833 22.833 37.5 40.5s44.667 54.834 87 111.501s81.333 114.334 117 173.001
s71.834 130.334 108.501 215.001s64 167.334 82 248.001z" />
    <glyph glyph-name="asterisk" unicode="*" horiz-adv-x="839" 
d="M592 692l-76 142l-137 -152l-209 199l113 112l-136 41l154 287l141 -51l25 164h328l-45 -164l165 51l31 -287l-151 -41l67 -116z" />
    <glyph glyph-name="plus" unicode="+" horiz-adv-x="1095" 
d="M477 1096h420l-57 -277h276l-92 -430h-276l-60 -276h-420l60 276h-277l92 430h277z" />
    <glyph glyph-name="comma" unicode="," horiz-adv-x="655" 
d="M236 459l337 -213l-436 -512l-264 168z" />
    <glyph glyph-name="hyphen" unicode="-" horiz-adv-x="901" 
d="M922 819l-93 -430h-778l92 430h779z" />
    <glyph glyph-name="period" unicode="." horiz-adv-x="634" 
d="M8 186c0 70.667 27.333 132.5 82 185.5s120.167 79.5 196.5 79.5s136.333 -20.167 180 -60.5s65.5 -90.5 65.5 -150.5c0 -72.667 -26.833 -134.167 -80.5 -184.5s-120.167 -75.5 -199.5 -75.5c-75.333 0 -134.833 19.333 -178.5 58s-65.5 88 -65.5 148z" />
    <glyph glyph-name="slash" unicode="/" horiz-adv-x="1208" 
d="M1362 1454l-1000 -1884h-483l998 1884h485z" />
    <glyph glyph-name="zero" unicode="0" horiz-adv-x="1474" 
d="M748 430c35.333 0 66.6709 16.332 94.0039 48.999s48.166 73 62.499 121s25.166 94.167 32.499 138.5s11 82.833 11 115.5c0 98 -33.333 147 -100 147c-46.667 0 -86.334 -27.833 -119.001 -83.5s-54.834 -113.667 -66.501 -174s-17.5 -114.166 -17.5 -161.499
c0.666992 -101.333 35 -152 103 -152zM1485 855.999c0 -140.667 -31.168 -278.501 -93.501 -413.501s-155.166 -249.333 -278.499 -343s-263 -140.5 -419 -140.5c-174.667 0 -315.834 57 -423.501 171s-161.5 264 -161.5 450c0 130 22.833 251.833 68.5 365.5
s105.334 208.334 179.001 284.001s158 135.5 253 179.5s191.5 66 289.5 66c174.667 0 316 -57.167 424 -171.5s162 -263.5 162 -447.5z" />
    <glyph glyph-name="one" unicode="1" horiz-adv-x="931" 
d="M528 1434l470.999 0.000976562l-303 -1434h-532l194 922h-215l68 317c62.667 9.33301 120.334 30.166 173.001 62.499s90 62.833 112 91.5z" />
    <glyph glyph-name="two" unicode="2" 
d="M1116 0l-1167 -0.00292969c24.667 118.667 62.5 225.5 113.5 320.5s105.167 169.833 162.5 224.5s117.166 103.834 179.499 147.501s118 77.334 167 101.001s89.5 48.167 121.5 73.5s48 50.333 48 75c0 27.333 -18.333 41 -55 41c-18 0 -36.5 -5.16699 -55.5 -15.5
s-33.167 -20.166 -42.5 -29.499l-15 -16l-407 204c5.33301 9.33301 13.5 22 24.5 38s36.667 43.833 77 83.5s83.666 74.834 129.999 105.501s108.333 58.667 186 84s159.5 38 245.5 38c157.333 0 285.166 -39.667 383.499 -119s147.5 -175 147.5 -287
c0 -74 -13.333 -141 -40 -201s-62.834 -110.167 -108.501 -150.5s-89.667 -73.333 -132 -99s-88.166 -50.834 -137.499 -75.501s-81.333 -41.667 -96 -51h375z" />
    <glyph glyph-name="three" unicode="3" horiz-adv-x="1239" 
d="M500 389c28.667 0 54.168 6.50586 76.501 19.5059s33.5 33.833 33.5 62.5c0 40.667 -31.333 61 -94 61h-137l82 390h137c27.333 0 49.5 6.83301 66.5 20.5s25.5 29.167 25.5 46.5c0 36.667 -25.333 55 -76 55c-27.333 0 -55.333 -6 -84 -18s-51 -23.667 -67 -35l-23 -18
l-231 307c4 5.33301 10.833 12.5 20.5 21.5s31.5 24.333 65.5 46s70.833 41.167 110.5 58.5s93 33.166 160 47.499s137.833 21.5 212.5 21.5c157.333 0 284.833 -37.333 382.5 -112s146.5 -159.667 146.5 -255c0 -52 -10.333 -99.833 -31 -143.5
s-45.334 -78.834 -74.001 -105.501s-57.667 -49.834 -87 -69.501s-54.333 -32.834 -75 -39.501l-30 -13l20 -10c8 -4 23 -14.5 45 -31.5s41.167 -35.5 57.5 -55.5s31.333 -47 45 -81s20.5 -70.667 20.5 -110c0 -136.667 -58 -252.5 -174 -347.5s-281.333 -142.5 -496 -142.5
c-75.333 0 -147 8.16699 -215 24.5s-124.5 36.166 -169.5 59.499s-84.333 46.166 -118 68.499s-58.5 41.833 -74.5 58.5l-23 25l353 299c8 -8 18.5 -18 31.5 -30s39 -27.5 78 -46.5s75.5 -28.5 109.5 -28.5z" />
    <glyph glyph-name="four" unicode="4" horiz-adv-x="1310" 
d="M1184 614h123l-90 -430h-123l-39 -184h-533l39 184h-594l94 451l715 799h582zM719 829l-184 -215h137z" />
    <glyph glyph-name="five" unicode="5" horiz-adv-x="1310" 
d="M557 410c27.333 0 54.667 8.16895 82 24.502s41 39.5 41 69.5c0 20.667 -6.83301 37.334 -20.5 50.001s-32.834 19 -57.501 19c-18 0 -36.167 -3.33301 -54.5 -10s-32.166 -13.334 -41.499 -20.001l-14 -11l-353 82l236 820h1003l-90 -430h-538l-31 -103
c52 20.667 112 31 180 31c112 0 203.167 -36.5 273.5 -109.5s105.5 -163.5 105.5 -271.5c0 -172 -61.167 -313.667 -183.5 -425s-288.5 -167 -498.5 -167c-75.333 0 -147.5 8.16699 -216.5 24.5s-126 36.166 -171 59.499s-84.833 46.166 -119.5 68.499
s-60.334 41.833 -77.001 58.5l-22 25l364 309c6.66699 -6.66699 16.167 -15.167 28.5 -25.5s36.333 -24.333 72 -42s69.834 -26.5 102.501 -26.5z" />
    <glyph glyph-name="six" unicode="6" horiz-adv-x="1331" 
d="M1337 1434l-383 -440.999c9.33301 -2.66699 22.333 -6.66699 39 -12s45.5 -20 86.5 -44s76.833 -50.667 107.5 -80s59 -70.666 85 -123.999s39 -111.333 39 -174c0 -170.667 -66 -313.334 -198 -428.001s-304.333 -172 -517 -172c-166.667 0 -301.167 42.333 -403.5 127
s-153.5 188.334 -153.5 311.001c0 56 7.16699 109.333 21.5 160s36.5 99.167 66.5 145.5s54.167 81.166 72.5 104.499s45.5 54.666 81.5 93.999l473 533h583zM657 389.001c28.667 0 52.999 11 72.999 33s30 48.667 30 80c0 20.667 -6.5 37.667 -19.5 51s-29.167 20 -48.5 20
c-27.333 0 -51.166 -10.5 -71.499 -31.5s-30.5 -47.167 -30.5 -78.5c0 -22 6.33301 -39.833 19 -53.5s28.667 -20.5 48 -20.5z" />
    <glyph glyph-name="seven" unicode="7" horiz-adv-x="1177" 
d="M272 1434h1076l-91 -430l-692 -1004h-581l655 942h-471z" />
    <glyph glyph-name="eight" unicode="8" horiz-adv-x="1331" 
d="M604 -41c-174.667 0 -314.832 39.3301 -420.499 117.997s-158.5 169.667 -158.5 273c0 170.667 84.667 299.667 254 387c23.333 12 49 23.667 77 35l9 4c-4 2.66699 -9.5 5.83398 -16.5 9.50098s-18.667 13 -35 28s-31 31.333 -44 49s-25 40.834 -36 69.501
s-16.5 59.334 -16.5 92.001c0 124 53.667 230.167 161 318.5s263.333 132.5 468 132.5c157.333 0 285.333 -37 384 -111s148 -158.667 148 -254c-1.33301 -161.333 -93.333 -285 -276 -371c5.33301 -2.66699 12.166 -6 20.499 -10s23.333 -14.167 45 -30.5
s40.667 -34.5 57 -54.5s31.333 -47 45 -81s20.5 -70.667 20.5 -110c0 -138 -57.333 -254.833 -172 -350.5s-286 -143.5 -514 -143.5zM655.002 368.997c30 0 55.333 8.83301 76 26.5s31 38.834 31 63.501c0 20.667 -7.5 38 -22.5 52s-34.833 21 -59.5 21
c-30 0 -55.333 -8.83301 -76 -26.5s-31 -38.834 -31 -63.501c0 -20.667 7.5 -38 22.5 -52s34.833 -21 59.5 -21zM772.002 921.997c27.333 0 50.167 7.5 68.5 22.5s27.5 33.833 27.5 56.5c0 18 -6.83301 33.167 -20.5 45.5s-31.167 18.5 -52.5 18.5
c-26 0 -48.333 -7.5 -67 -22.5s-28 -33.5 -28 -55.5c0 -19.333 6.5 -35 19.5 -47s30.5 -18 52.5 -18z" />
    <glyph glyph-name="nine" unicode="9" horiz-adv-x="1331" 
d="M113 0l383 439.995c-9.33301 2.66699 -22.333 6.83398 -39 12.501s-45.5 20.334 -86.5 44.001s-76.833 50.334 -107.5 80.001s-59 71 -85 124s-39 110.833 -39 173.5c0 170.667 66 313.5 198 428.5s304.333 172.5 517 172.5c166.667 0 301.167 -42.333 403.5 -127
s153.5 -188.667 153.5 -312c0 -56 -7.16699 -109.167 -21.5 -159.5s-36.5 -98.666 -66.5 -144.999s-54.167 -81.166 -72.5 -104.499s-45.5 -55 -81.5 -95l-473 -532h-583zM793 1044c-28.667 0 -52.999 -10.8311 -72.999 -32.498s-30 -48.167 -30 -79.5
c0 -20.667 6.5 -37.834 19.5 -51.501s29.167 -20.5 48.5 -20.5c27.333 0 51.166 10.667 71.499 32s30.5 47.666 30.5 78.999c0 22 -6.33301 39.667 -19 53s-28.667 20 -48 20z" />
    <glyph glyph-name="colon" unicode=":" horiz-adv-x="634" 
d="M530 221c0 -66.667 -28.333 -123.5 -85 -170.5s-121 -70.5 -193 -70.5c-75.333 0 -135.166 19.667 -179.499 59s-66.5 87.666 -66.5 144.999c0 66.667 27.667 124.334 83 173.001s121.333 73 198 73c75.333 0 134.666 -20.167 177.999 -60.5s65 -89.833 65 -148.5z
M655 815c0 -66.667 -28.333 -123.668 -85 -171.001s-121 -71 -193 -71c-75.333 0 -135.166 19.833 -179.499 59.5s-66.5 88.167 -66.5 145.5c0 66.667 27.667 124.334 83 173.001s121.333 73 198 73c75.333 0 134.666 -20.167 177.999 -60.5s65 -89.833 65 -148.5z" />
    <glyph glyph-name="semicolon" unicode=";" horiz-adv-x="696" 
d="M219 438l340 -213l-422 -491l-264 168zM729 815c0 -66.667 -28.334 -123.668 -85.001 -171.001s-121 -71 -193 -71c-75.333 0 -135.166 19.833 -179.499 59.5s-66.5 88.167 -66.5 145.5c0 66.667 27.667 124.334 83 173.001s121 73 197 73
c75.333 0 134.833 -20.167 178.5 -60.5s65.5 -89.833 65.5 -148.5z" />
    <glyph glyph-name="less" unicode="&#x3c;" horiz-adv-x="1105" 
d="M35 317l80 369l1052 328l-90 -422l-450 -103l407 -102l-86 -397z" />
    <glyph glyph-name="equal" unicode="=" horiz-adv-x="1024" 
d="M987 553l-78 -369h-901l78 369h901zM1087 1024l-77 -369h-901l77 369h901z" />
    <glyph glyph-name="greater" unicode="&#x3e;" horiz-adv-x="1105" 
d="M1098 686l-80 -369l-1053 -327l90 422l453 102l-410 102l86 398z" />
    <glyph glyph-name="question" unicode="?" horiz-adv-x="1208" 
d="M815 522h-447.998c-1.33301 5.33301 -2 12.333 -2 21c0 50.667 11.5 96.667 34.5 138s50.833 74.666 83.5 99.999s65.5 47.666 98.5 66.999s61 36.833 84 52.5s34.5 30.167 34.5 43.5c0 26 -17 39 -51 39c-18 0 -36.833 -5.16699 -56.5 -15.5
s-34.167 -20.166 -43.5 -29.499l-17 -16l-407 204c5.33301 9.33301 13.5 22 24.5 38s36 43.833 75 83.5s81.667 74.834 128 105.501s108.333 58.667 186 84s159.5 38 245.5 38c155.333 0 283.666 -41.333 384.999 -124s152 -177.334 152 -284.001
c0 -64 -11.333 -119.333 -34 -166s-53.334 -85 -92.001 -115s-78.5 -56.5 -119.5 -79.5s-86.5 -50.667 -136.5 -83s-91.333 -66.166 -124 -101.499zM264.002 186c0 70.667 27.333 132.5 82 185.5s120.167 79.5 196.5 79.5s136.333 -20.167 180 -60.5s65.5 -90.5 65.5 -150.5
c0 -72.667 -26.833 -134.167 -80.5 -184.5s-120.167 -75.5 -199.5 -75.5c-75.333 0 -134.833 19.333 -178.5 58s-65.5 88 -65.5 148z" />
    <glyph glyph-name="at" unicode="@" horiz-adv-x="1822" 
d="M928 573c-19.333 0 -36.833 -8.83301 -52.5 -26.5s-23.5 -38.167 -23.5 -61.5c0 -16.667 4.5 -30 13.5 -40s20.833 -15 35.5 -15c19.333 0 37.166 8.5 53.499 25.5s24.5 37.167 24.5 60.5c0 18 -4.66699 32 -14 42s-21.666 15 -36.999 15zM893 881
c30 0 57.6699 -5.16895 83.0029 -15.502s42.666 -20.166 51.999 -29.499l16 -17l11 51h307l-76 -358c-5.33301 -26 -2.5 -49.5 8.5 -70.5s30.833 -31.5 59.5 -31.5c36.667 0 68.334 17.667 95.001 53s40 92.666 40 171.999c0 125.333 -42.333 226.666 -127 303.999
s-200 116 -346 116c-177.333 0 -328.833 -61.5 -454.5 -184.5s-188.5 -272.5 -188.5 -448.5c0 -125.333 43 -232.166 129 -320.499s196.667 -132.5 332 -132.5c60 0 120.333 9.66699 181 29s106 38.333 136 57l47 29l141 -231c-16.667 -12 -39.834 -27.667 -69.501 -47
s-92.334 -44.666 -188.001 -75.999s-191.834 -47 -288.501 -47c-208.667 0 -383.167 69.833 -523.5 209.5s-210.5 305.167 -210.5 496.5c0 266 94.333 491.167 283 675.5s420 276.5 694 276.5c221.333 0 404.333 -63 549 -189s217 -279.333 217 -460
c0 -173.333 -44.667 -311.5 -134 -414.5s-200.333 -154.5 -333 -154.5c-54.667 0 -101.667 10.167 -141 30.5s-66 40.833 -80 61.5l-18 31c-8 -9.33301 -19.667 -21 -35 -35s-47.5 -32.167 -96.5 -54.5s-99.5 -33.5 -151.5 -33.5c-82 0 -150.667 28.333 -206 85
s-83 127.334 -83 212.001c0 138 39 249.333 117 334s162 127 252 127z" />
    <glyph glyph-name="A" unicode="A" horiz-adv-x="1536" 
d="M1280 1434l205 -1434h-559l-11 246h-348l-112 -246h-588l811 1434h602zM895 635l-10 287l-133 -287h143z" />
    <glyph glyph-name="B" unicode="B" horiz-adv-x="1505" 
d="M829 0h-777.999l303 1434h676c160 0 283.333 -32.167 370 -96.5s130 -144.166 130 -239.499c0 -136.667 -74.333 -244.667 -223 -324c-40.667 -20.667 -64.667 -31 -72 -31c6.66699 -2.66699 15.167 -6 25.5 -10s28.833 -14.5 55.5 -31.5s50.167 -35.5 70.5 -55.5
s38.666 -47.333 54.999 -82s24.5 -71.667 24.5 -111c0 -128.667 -55.333 -236.334 -166 -323.001s-267.667 -130 -471 -130zM666.001 389h150.999c28.667 0 53 9.5 73 28.5s30 40.833 30 65.5c0 19.333 -7.16699 35.833 -21.5 49.5s-33.166 20.5 -56.499 20.5h-142z
M885 1044l-79.999 -0.000976562l-31 -143h86c28.667 0 51.5 8.16699 68.5 24.5s25.5 36.833 25.5 61.5c0 16.667 -6.33301 30.334 -19 41.001s-29.334 16 -50.001 16z" />
    <glyph glyph-name="C" unicode="C" horiz-adv-x="1546" 
d="M1239 571l257.997 -340l-28.5 -28.5c-12.333 -12.333 -40.333 -34.166 -84 -65.499s-89.667 -59 -138 -83s-110.833 -45.833 -187.5 -65.5s-155.334 -29.5 -236.001 -29.5c-202 0 -372.333 65.833 -511 197.5s-208 285.5 -208 461.5c0 240 88.833 442.833 266.5 608.5
s400.834 248.5 669.501 248.5c80.667 0 157.834 -10 231.501 -30s134.5 -44 182.5 -72s90.333 -56 127 -84s63.334 -52 80.001 -72l25 -29l-381 -322c-2.66699 4 -7.16699 9.16699 -13.5 15.5s-19.333 17.333 -39 33s-40.5 29.667 -62.5 42s-49.667 23.333 -83 33
s-67 14.5 -101 14.5c-96.667 0 -180.667 -32.833 -252 -98.5s-107 -142.167 -107 -229.5c0 -66.667 25 -124.334 75 -173.001s112.333 -73 187 -73c54.667 0 109.334 11.667 164.001 35s95.667 47.333 123 72z" />
    <glyph glyph-name="D" unicode="D" horiz-adv-x="1597" 
d="M1610 817c0 -232 -89.833 -426.167 -269.5 -582.5s-395.167 -234.5 -646.5 -234.5h-643l303 1434h547c204.667 0 374 -61.167 508 -183.5s201 -266.833 201 -433.5zM682 471h70.001c86 0 160 28.667 222 86s93 125 93 203c0 57.333 -20.833 105.5 -62.5 144.5
s-97.834 58.5 -168.501 58.5h-50z" />
    <glyph glyph-name="E" unicode="E" horiz-adv-x="1423" 
d="M674 430h665l-90 -430h-1198l303 1434h1178l-90 -430h-645l-21 -93h481l-81 -389h-482z" />
    <glyph glyph-name="F" unicode="F" horiz-adv-x="1392" 
d="M354 1434h1188l-94 -451h-655l-27 -123h491l-96 -450h-491l-86 -410h-533z" />
    <glyph glyph-name="G" unicode="G" horiz-adv-x="1658" 
d="M1686 1188l-377.009 -318.001c-8 9.33301 -19.333 21.666 -34 36.999s-47.5 35.333 -98.5 60s-104.5 37 -160.5 37c-101.333 0 -188.166 -33.167 -260.499 -99.5s-108.5 -143.833 -108.5 -232.5c0 -65.333 21.833 -122 65.5 -170s99.834 -72 168.501 -72
c30 0 57.167 2.66699 81.5 8s41.5 11 51.5 17l14 6l21 92h-185l58 266h716l-120 -563c-6.66699 -8 -16.667 -18.5 -30 -31.5s-42.166 -36.667 -86.499 -71s-91.666 -64.666 -141.999 -90.999s-115.166 -50.166 -194.499 -71.499s-161.333 -32 -246 -32
c-200.667 0 -370 66.167 -508 198.5s-207 285.833 -207 460.5c0 238.667 88.167 441.167 264.5 607.5s398.833 249.5 667.5 249.5c80.667 0 157.834 -10 231.501 -30s134.834 -44 183.501 -72s91.334 -56 128.001 -84s63.334 -52 80.001 -72z" />
    <glyph glyph-name="H" unicode="H" horiz-adv-x="1689" 
d="M1757 1434l-303 -1434h-532l104 492h-338l-104 -492h-533l303 1434h533l-101 -471h338l101 471h532z" />
    <glyph glyph-name="I" unicode="I" horiz-adv-x="819" 
d="M51 0l303 1434h533l-303 -1434h-533z" />
    <glyph glyph-name="J" unicode="J" horiz-adv-x="1126" 
d="M-123 143l383 325.998c27.333 -26 58 -39 92 -39c35.333 0 66 11.333 92 34s43.333 52.334 52 89.001l186 881h532l-186 -881c-38 -182.667 -115.833 -327.334 -233.5 -434.001s-263.167 -160 -436.5 -160c-57.333 0 -112.833 6.5 -166.5 19.5s-99 28.333 -136 46
s-69.5 35.334 -97.5 53.001s-48 32.834 -60 45.501z" />
    <glyph glyph-name="K" unicode="K" horiz-adv-x="1576" 
d="M786 459l-135 -142l-67 -317h-533l303 1434h533l-84 -398l377 398h608l-578 -607l316 -827h-568z" />
    <glyph glyph-name="L" unicode="L" 
d="M1157 0h-1106l303 1434h533l-199 -942h574z" />
    <glyph glyph-name="M" unicode="M" horiz-adv-x="1945" 
d="M1073 983l453 451h487l-303 -1434h-532l145 686l-377 -369l-217 369l-145 -686h-533l303 1434h455z" />
    <glyph glyph-name="N" unicode="N" horiz-adv-x="1730" 
d="M1266 1434h532l-303 -1434h-438l-346 604l-127 -604h-533l303 1434h439l346 -605z" />
    <glyph glyph-name="O" unicode="O" horiz-adv-x="1761" 
d="M1776 786c0 -144.667 -42.332 -281.166 -126.999 -409.499s-197.334 -230 -338.001 -305s-289.667 -112.5 -447 -112.5c-226.667 0 -410 67.167 -550 201.5s-210 297.166 -210 488.499c0 221.333 90.5 414.333 271.5 579s394.5 247 640.5 247c226.667 0 410 -67 550 -201
s210 -296.667 210 -488zM905.001 430.001c83.333 0 158.832 31.332 226.499 93.999s101.5 135.667 101.5 219c0 70.667 -24.667 131.834 -74 183.501s-110 77.5 -182 77.5c-86 0 -162.5 -31.833 -229.5 -95.5s-100.5 -136.5 -100.5 -218.5
c0 -70.667 24.833 -131.667 74.5 -183s110.834 -77 183.501 -77z" />
    <glyph glyph-name="P" unicode="P" horiz-adv-x="1474" 
d="M354 1434h680c154 0 277.5 -43 370.5 -129s139.5 -192.667 139.5 -320c0 -182.667 -61.667 -331 -185 -445s-284 -171 -482 -171h-215l-78 -369h-533zM926 983l-133.001 0.000976562l-35 -164h137c28.667 0 53.5 9.66699 74.5 29s31.5 40.333 31.5 63
c0 19.333 -6.66699 36.166 -20 50.499s-31.666 21.5 -54.999 21.5z" />
    <glyph glyph-name="Q" unicode="Q" horiz-adv-x="1761" 
d="M1776 786c0 -151.333 -45.834 -292.165 -137.501 -422.498s-211.167 -232.5 -358.5 -306.5c50.667 -38 119 -57 205 -57l104 10l-88 -409c-28.667 -6.66699 -63.334 -10.334 -104.001 -11.001c-83.333 0 -160.5 12.667 -231.5 38s-126 51.666 -165 78.999
s-75.167 63.5 -108.5 108.5s-53.166 74.333 -59.499 88s-14.166 32.167 -23.499 55.5l-2 2c-211.333 12 -381.333 84 -510 216s-193 289.333 -193 472c0 221.333 90.5 414.333 271.5 579s394.5 247 640.5 247c226.667 0 410 -67 550 -201s210 -296.667 210 -488z
M904.999 430.001c83.333 0 158.832 31.332 226.499 93.999s101.5 135.667 101.5 219c0 70.667 -24.667 131.834 -74 183.501s-110 77.5 -182 77.5c-86 0 -162.5 -31.833 -229.5 -95.5s-100.5 -136.5 -100.5 -218.5c0 -70.667 24.833 -131.667 74.5 -183
s110.834 -77 183.501 -77z" />
    <glyph glyph-name="R" unicode="R" horiz-adv-x="1525" 
d="M1243 489l168.001 -489h-530l-109 389h-106l-82 -389h-533l303 1434h697c157.333 0 282.666 -43.833 375.999 -131.5s140 -193.5 140 -317.5c-1.33301 -224 -109.333 -389.333 -324 -496zM952.001 983l-159 -0.000976562l-31 -143h168c28.667 0 51.5 8.16699 68.5 24.5
s25.5 36.833 25.5 61.5c0 16.667 -6.5 30.334 -19.5 41.001s-30.5 16 -52.5 16z" />
    <glyph glyph-name="S" unicode="S" 
d="M1405 1270l-351.999 -298.999c-57.333 49.333 -120.333 73.666 -189 72.999c-61.333 0 -92 -19.667 -92 -59c0 -22 25.667 -45.167 77 -69.5s107.333 -48.833 168 -73.5s116.667 -66.334 168 -125.001s77 -129.667 77 -213c0 -148.667 -58.833 -276.667 -176.5 -384
s-285.5 -161 -503.5 -161c-76.667 0 -150.834 8.5 -222.501 25.5s-131 37.5 -178 61.5s-88.667 48 -125 72s-63.5 44.667 -81.5 62l-24 25l348 295c9.33301 -8 22.166 -18.167 38.499 -30.5s46.833 -28.833 91.5 -49.5s85.334 -31 122.001 -31c74 0 111 22 111 66
c0 16.667 -12.333 32.334 -37 47.001s-55.167 28.834 -91.5 42.501s-75.666 32.167 -117.999 55.5s-81.5 49 -117.5 77s-66.333 65.5 -91 112.5s-37 100.5 -37 160.5c0 143.333 58 266.666 174 369.999s281.333 155 496 155c72.667 0 141.667 -7.16699 207 -21.5
s118.833 -31.5 160.5 -51.5s78.167 -39.833 109.5 -59.5s53.666 -37.167 66.999 -52.5z" />
    <glyph glyph-name="T" unicode="T" horiz-adv-x="1351" 
d="M252 1434h1270l-105 -492h-368l-199 -942h-533l199 942h-369z" />
    <glyph glyph-name="U" unicode="U" horiz-adv-x="1658" 
d="M831 430c52 0 96.834 17.5 134.501 52.5s62.5 78.833 74.5 131.5l174 820h533l-174 -820c-40.667 -194 -130 -351.667 -268 -473s-315 -182 -531 -182c-184 0 -334.833 49.833 -452.5 149.5s-176.5 226.5 -176.5 380.5c0 44 5 85.667 15 125l174 820h532l-174 -820
c-9.33301 -46.667 -1.83301 -89 22.5 -127s63.166 -57 116.499 -57z" />
    <glyph glyph-name="V" unicode="V" horiz-adv-x="1495" 
d="M1726 1434l-774 -1434h-604l-178 1434h547l35 -846l378 846h596z" />
    <glyph glyph-name="W" unicode="W" horiz-adv-x="2191" 
d="M1206 0l-86 610l-321 -610h-463l-166 1434h549l39 -666l309 666h414l35 -666l311 666h596l-764 -1434h-453z" />
    <glyph glyph-name="X" unicode="X" horiz-adv-x="1484" 
d="M854 1085l236 349h585l-522 -691l260 -743h-553l-110 410l-279 -410h-594l576 752l-232 682h541z" />
    <glyph glyph-name="Y" unicode="Y" horiz-adv-x="1464" 
d="M700 1434l117 -441l293 441h606l-706 -922l-109 -512h-532l108 512l-317 922h540z" />
    <glyph glyph-name="Z" unicode="Z" horiz-adv-x="1392" 
d="M682 942h-463l105 492h1177l-104 -492l-588 -450h514l-104 -492h-1229l104 492z" />
    <glyph glyph-name="bracketleft" unicode="[" horiz-adv-x="942" 
d="M797 1004l-209 -984h184l-96 -450h-696l399 1884h696l-94 -450h-184z" />
    <glyph glyph-name="backslash" unicode="\" horiz-adv-x="1208" 
d="M502 -430l-226 1884h461l226 -1884h-461z" />
    <glyph glyph-name="bracketright" unicode="]" horiz-adv-x="942" 
d="M178 20l209 984h-184l94 450h696l-399 -1884h-694l94 450h184z" />
    <glyph glyph-name="asciicircum" unicode="^" horiz-adv-x="1003" 
d="M635 1014l-154 -236h-389l436 656h369l158 -656h-369z" />
    <glyph glyph-name="underscore" unicode="_" horiz-adv-x="737" 
d="M635 -143l-92 -430h-776l92 430h776z" />
    <glyph glyph-name="grave" unicode="`" horiz-adv-x="819" 
d="M768 1475l117 -369h-406l-196 369h485z" />
    <glyph glyph-name="a" unicode="a" horiz-adv-x="1337" 
d="M575 1024c36.667 0 71.168 -5.16895 103.501 -15.502s58 -23.333 77 -39s35.667 -31 50 -46s24.5 -27.833 30.5 -38.5l8 -15l28 134h471l-213 -1004h-471l23 113c-8 -9.33301 -19.5 -21.666 -34.5 -36.999s-47.833 -35.166 -98.5 -59.499s-103.334 -36.5 -158.001 -36.5
c-96.667 0 -177.167 39.167 -241.5 117.5s-96.5 176.166 -96.5 293.499c0 188.667 53.5 341.334 160.5 458.001s227.5 175 361.5 175zM680.001 603.998c-34 0 -63 -12.001 -87 -36.001s-36 -53.667 -36 -89c0 -23.333 8.16699 -42.5 24.5 -57.5s37.5 -22.5 63.5 -22.5
c34 0 63 11.333 87 34s36 52.334 36 89.001c0 24.667 -7.83301 44.5 -23.5 59.5s-37.167 22.5 -64.5 22.5z" />
    <glyph glyph-name="b" unicode="b" horiz-adv-x="1341" 
d="M776 -20c-36.667 0 -71.0029 5 -103.003 15s-57.667 22.5 -77 37.5s-36.166 30.333 -50.499 46s-24.166 29.167 -29.499 40.5l-8 14l-27 -133h-471l303 1434h471l-114 -543c8 9.33301 19.5 21.5 34.5 36.5s47.833 34.833 98.5 59.5s103.334 37 158.001 37
c96.667 0 177 -39.333 241 -118s96 -176.667 96 -294c0 -188.667 -53.5 -341.167 -160.5 -457.5s-227.5 -174.5 -361.5 -174.5zM671.997 399c34 0 63 11.999 87 35.999s36 53.667 36 89c0 23.333 -8.33301 42.5 -25 57.5s-37.667 22.5 -63 22.5c-34 0 -63 -11.167 -87 -33.5
s-36 -52.166 -36 -89.499c0 -24.667 7.83301 -44.5 23.5 -59.5s37.167 -22.5 64.5 -22.5z" />
    <glyph glyph-name="c" unicode="c" horiz-adv-x="1136" 
d="M705 614c-39.333 0 -74.501 -11.4961 -105.501 -34.4961s-46.5 -54.5 -46.5 -94.5c0 -26 11.333 -48.5 34 -67.5s51 -28.5 85 -28.5c27.333 0 55 6.16699 83 18.5s49.333 25.166 64 38.499l21 19l219 -287c-5.33301 -5.33301 -12.5 -12.833 -21.5 -22.5
s-29.5 -26.334 -61.5 -50.001s-65.833 -44.834 -101.5 -63.501s-81.5 -35.5 -137.5 -50.5s-113.333 -22.5 -172 -22.5c-147.333 0 -269.5 46.833 -366.5 140.5s-145.5 202.5 -145.5 326.5c0 166.667 64.5 308 193.5 424s288.5 174 478.5 174c58.667 0 115 -7.5 169 -22.5
s98 -33 132 -54s64 -41.833 90 -62.5s44.333 -38.334 55 -53.001l17 -23l-332 -282c-39.333 51.333 -89.666 77 -150.999 77z" />
    <glyph glyph-name="d" unicode="d" horiz-adv-x="1341" 
d="M571 1024c36.667 0 71.1689 -5.16895 103.502 -15.502s58 -23.333 77 -39s35.667 -31 50 -46s24.166 -27.833 29.499 -38.5l9 -15l118 564h472l-304 -1434h-471l23 113c-8 -9.33301 -19.5 -21.666 -34.5 -36.999s-47.833 -35.166 -98.5 -59.499
s-103.334 -36.5 -158.001 -36.5c-96.667 0 -177.167 39.167 -241.5 117.5s-96.5 176.166 -96.5 293.499c0 188.667 53.5 341.334 160.5 458.001s227.5 175 361.5 175zM676.002 603.998c-34 0 -63 -12.001 -87 -36.001s-36 -53.667 -36 -89
c0 -23.333 8.16699 -42.5 24.5 -57.5s37.5 -22.5 63.5 -22.5c34 0 63 11.333 87 34s36 52.334 36 89.001c0 24.667 -7.83301 44.5 -23.5 59.5s-37.167 22.5 -64.5 22.5z" />
    <glyph glyph-name="e" unicode="e" horiz-adv-x="1228" 
d="M1151 410h-605.999c34 -48 85.667 -72 155 -72c27.333 0 56.5 3.33301 87.5 10s55.167 13.667 72.5 21l25 10l96 -303c-10.667 -8 -26.667 -17.833 -48 -29.5s-67.833 -27.5 -139.5 -47.5s-145.834 -30 -222.501 -30c-154 0 -278.833 46.167 -374.5 138.5
s-143.5 201.166 -143.5 326.499c0 170.667 63.833 313.334 191.5 428.001s282.5 172 464.5 172c142 0 260.333 -39.833 355 -119.5s142 -177.5 142 -293.5c0 -38 -4.33301 -74.833 -13 -110.5s-18 -61.167 -28 -76.5zM661.501 717c-25.667 0 -49.833 -9.16699 -72.5 -27.5
s-40 -43.5 -52 -75.5h204c1.33301 30 -5.16699 54.667 -19.5 74s-34.333 29 -60 29z" />
    <glyph glyph-name="f" unicode="f" horiz-adv-x="880" 
d="M940 963l-86 -410h-205l-117 -553h-471l117 553h-123l86 410h123l10 41c62.667 300.667 230.667 450.667 504 450c42 0 84.667 -3.33301 128 -10s76 -13.667 98 -21l32 -10l-82 -389c-23.333 13.333 -55.333 20 -96 20c-57.333 0 -98.333 -27 -123 -81h205z" />
    <glyph glyph-name="g" unicode="g" horiz-adv-x="1331" 
d="M682 645c-34 0 -62.665 -12.001 -85.998 -36.001s-35 -53.667 -35 -89c0 -23.333 8.16699 -42.5 24.5 -57.5s38.166 -22.5 65.499 -22.5c34 0 62.667 11.333 86 34s35 52.334 35 89.001c0 24.667 -7.83301 44.5 -23.5 59.5s-37.834 22.5 -66.501 22.5zM-60.998 -217.001
l297.003 251.997c5.33301 -5.33301 12.666 -12.166 21.999 -20.499s31.5 -19.666 66.5 -33.999s72.167 -21.5 111.5 -21.5c65.333 0 120.666 17 165.999 51s74 82 86 144l8 41c-6.66699 -9.33301 -16.834 -21.666 -30.501 -36.999s-44 -35.333 -91 -60
s-97.833 -37 -152.5 -37c-96.667 0 -181 39.667 -253 119s-108 173 -108 281c0 158.667 53 292.167 159 400.5s224.333 162.5 355 162.5c58.667 0 110 -13 154 -39s73.333 -51.333 88 -76l23 -39l28 134h471l-178 -840c-38 -180 -118.5 -324 -241.5 -432
s-280.833 -162 -473.5 -162c-62.667 0 -123 7.16699 -181 21.5s-106.167 32 -144.5 53s-71.833 42.167 -100.5 63.5s-49 39.333 -61 54z" />
    <glyph glyph-name="h" unicode="h" horiz-adv-x="1300" 
d="M784 1434l-114.003 -545.001c8 9.33301 19.833 21.5 35.5 36.5s48.834 35.167 99.501 60.5s102.667 38 156 38c82 0 148.5 -26 199.5 -78s76.5 -123 76.5 -213c0 -38 -4 -77.667 -12 -119l-129 -614h-471l104 492c5.33301 20.667 3.33301 39.334 -6 56.001
s-25.666 25 -48.999 25c-20.667 0 -40.167 -9.5 -58.5 -28.5s-30.166 -43.5 -35.499 -73.5l-99 -471h-471l303 1434h471z" />
    <glyph glyph-name="i" unicode="i" horiz-adv-x="716" 
d="M264 1288c0 68 27.667 126.334 83 175.001s119.333 73 192 73c76.667 0 137 -19.833 181 -59.5s66 -88.167 66 -145.5c0 -66.667 -26.833 -124.334 -80.5 -173.001s-118.167 -73 -193.5 -73c-76.667 0 -137.167 19.5 -181.5 58.5s-66.5 87.167 -66.5 144.5z
M20 0.000976562l213 1004h472l-213 -1004h-472z" />
    <glyph glyph-name="j" unicode="j" horiz-adv-x="716" 
d="M41 102l192 901.999h472l-209 -984c-30 -143.333 -90.167 -254.166 -180.5 -332.499s-202.166 -117.5 -335.499 -117.5c-42 0 -83.667 3.33301 -125 10s-72.333 13.667 -93 21l-28 10l88 409c23.333 -13.333 55.333 -20 96 -20c30 0 56.667 9.5 80 28.5
s37.666 43.5 42.999 73.5zM264 1288c0 68 27.667 126.334 83 175.001s119.333 73 192 73c76.667 0 137 -19.833 181 -59.5s66 -88.167 66 -145.5c0 -66.667 -26.833 -124.334 -80.5 -173.001s-118.167 -73 -193.5 -73c-76.667 0 -137.167 19.5 -181.5 58.5
s-66.5 87.167 -66.5 144.5z" />
    <glyph glyph-name="k" unicode="k" horiz-adv-x="1269" 
d="M594 309l-62 -61l-51 -248h-471l303 1434h471l-139 -658l219 228h527l-424 -437l217 -567h-482z" />
    <glyph glyph-name="l" unicode="l" horiz-adv-x="696" 
d="M784 1434l-303 -1434h-471l303 1434h471z" />
    <glyph glyph-name="m" unicode="m" horiz-adv-x="1863" 
d="M1188 0l104 491.997c5.33301 20.667 4.33301 39.334 -3 56.001s-22 25 -44 25c-40.667 0 -68 -34 -82 -102l-98 -471h-471l104 492c5.33301 20.667 4.66602 39.334 -2.00098 56.001s-21.667 25 -45 25c-40.667 0 -68 -34 -82 -102l-98 -471h-471l213 1004h471l-25 -113
c6.66699 9.33301 17.334 21.5 32.001 36.5s45.5 34.833 92.5 59.5s96.5 37 148.5 37c57.333 0 106.5 -13.667 147.5 -41s67.5 -54.666 79.5 -81.999l19 -41c10.667 12 25.834 27.333 45.501 46s60 43 121 73s121.5 45 181.5 45c83.333 0 150.166 -25 200.499 -75
s75.5 -120.667 75.5 -212c0 -31.333 -4.66699 -72.333 -14 -123l-129 -614h-471z" />
    <glyph glyph-name="n" unicode="n" 
d="M684 1004l-24.9971 -115.001c8 9.33301 20 21.5 36 36.5s49.167 35.167 99.5 60.5s102.166 38 155.499 38c82 0 148.667 -26 200 -78s77 -123 77 -213c0 -38 -4.33301 -77.667 -13 -119l-129 -614h-471l105 492c5.33301 20.667 3.16602 39.334 -6.50098 56.001
s-25.834 25 -48.501 25c-20.667 0 -40.167 -9.5 -58.5 -28.5s-30.5 -43.5 -36.5 -73.5l-98 -471h-471l213 1004h471z" />
    <glyph glyph-name="o" unicode="o" 
d="M635 399c28.667 0 54.168 11.999 76.501 35.999s33.5 52.333 33.5 85c0 24.667 -7.5 44.834 -22.5 60.501s-34.5 23.5 -58.5 23.5c-28.667 0 -54.334 -11.5 -77.001 -34.5s-34 -51.167 -34 -84.5c0 -26 7.5 -46.833 22.5 -62.5s34.833 -23.5 59.5 -23.5zM1243 548.999
c0 -157.333 -64.833 -293.333 -194.5 -408s-281.167 -172 -454.5 -172c-164 0 -295.167 47.5 -393.5 142.5s-147.5 210.167 -147.5 345.5c0 154 64.5 288.667 193.5 404s282.5 173 460.5 173c162.667 0 292.667 -47.333 390 -142s146 -209 146 -343z" />
    <glyph glyph-name="p" unicode="p" horiz-adv-x="1331" 
d="M766 -20c-36.667 0 -71.167 5 -103.5 15s-58 22.5 -77 37.5s-35.667 30.333 -50 46s-24.166 29.167 -29.499 40.5l-8 14l-119 -563h-471l305 1434h471l-25 -113c8 9.33301 19.667 21.5 35 36.5s48.166 34.833 98.499 59.5s102.833 37 157.5 37
c96.667 0 177.167 -39.333 241.5 -118s96.5 -176.667 96.5 -294c0 -188.667 -53.5 -341.167 -160.5 -457.5s-227.5 -174.5 -361.5 -174.5zM662 399c34 0 62.833 11.999 86.5 35.999s35.5 53.667 35.5 89c0 23.333 -8.16699 42.5 -24.5 57.5s-37.5 22.5 -63.5 22.5
c-34 0 -63 -11.167 -87 -33.5s-36 -52.166 -36 -89.499c0 -24.667 8 -44.5 24 -59.5s37.667 -22.5 65 -22.5z" />
    <glyph glyph-name="q" unicode="q" horiz-adv-x="1331" 
d="M571 1024c36.667 0 71.1689 -5.16895 103.502 -15.502s58 -23.333 77 -39s35.667 -31 50 -46s24.166 -27.833 29.499 -38.5l9 -15l26 134h471l-303 -1434h-471l115 543c-8 -9.33301 -19.5 -21.666 -34.5 -36.999s-47.833 -35.166 -98.5 -59.499
s-103.334 -36.5 -158.001 -36.5c-96.667 0 -177.167 39.167 -241.5 117.5s-96.5 176.166 -96.5 293.499c0 188.667 53.5 341.334 160.5 458.001s227.5 175 361.5 175zM676.002 603.998c-34 0 -63 -12.001 -87 -36.001s-36 -53.667 -36 -89
c0 -23.333 8.16699 -42.5 24.5 -57.5s37.5 -22.5 63.5 -22.5c34 0 63 11.333 87 34s36 52.334 36 89.001c0 24.667 -7.83301 44.5 -23.5 59.5s-37.167 22.5 -64.5 22.5z" />
    <glyph glyph-name="r" unicode="r" horiz-adv-x="901" 
d="M975 1024l-104.999 -492c-24.667 13.333 -57.334 20.333 -98.001 21c-56 0 -104.833 -19.5 -146.5 -58.5s-69.167 -91.167 -82.5 -156.5l-72 -338h-471l213 1004h471l-25 -113c8 9.33301 20 21.5 36 36.5s49.5 34.833 100.5 59.5s103.833 37 158.5 37h21z" />
    <glyph glyph-name="s" unicode="s" horiz-adv-x="1054" 
d="M1083 860l-244.996 -208.996c-32.667 23.333 -66.334 35 -101.001 35c-39.333 0 -59 -13 -59 -39c0 -10.667 15.667 -23.834 47 -39.501s66.166 -31.667 104.499 -48s73.166 -43.333 104.499 -81s47 -82.5 47 -134.5c0 -106.667 -42.667 -195.834 -128 -267.501
s-211.333 -107.5 -378 -107.5c-66.667 0 -130 7.5 -190 22.5s-109.167 33.167 -147.5 54.5s-71.833 42.166 -100.5 62.499s-49.334 38.166 -62.001 53.499l-18 22l244 209c40.667 -50.667 91.667 -76 153 -76c39.333 0 59.333 13 60 39c0 10.667 -10.333 22 -31 34
s-46 24.833 -76 38.5s-60 29.667 -90 48s-55.167 44.5 -75.5 78.5s-30.5 72.333 -30.5 115c0 101.333 43 187.333 129 258s212 106 378 106c94 0 179.667 -14.667 257 -44s131 -58.333 161 -87z" />
    <glyph glyph-name="t" unicode="t" horiz-adv-x="962" 
d="M950 1004l-84 -390.002h-204l-21 -102c-16.667 -68 10 -102 80 -102c18 0 35.833 1.66699 53.5 5s31.167 7 40.5 11l12 4l-86 -410c-70.667 -27.333 -153.667 -40.666 -249 -39.999c-131.333 0 -228.5 39.833 -291.5 119.5s-79.167 189.834 -48.5 330.501l38 184h-122
l84 390h41c44 0 81.5 13.167 112.5 39.5s51.5 60.833 61.5 103.5l24 123h410l-56 -266h205z" />
    <glyph glyph-name="u" unicode="u" horiz-adv-x="1292" 
d="M614 0l23 112.998c-8 -9.33301 -19.167 -21.666 -33.5 -36.999s-46.5 -35.166 -96.5 -59.499s-102.333 -36.5 -157 -36.5c-86 0 -154.5 25.833 -205.5 77.5s-76.5 123.167 -76.5 214.5c0 30 4.66699 69 14 117l131 615h471l-104 -492c-10.667 -54.667 7 -82 53 -82
c48 0 79.333 34 94 102l100 472h471l-213 -1004h-471z" />
    <glyph glyph-name="v" unicode="v" horiz-adv-x="1167" 
d="M737 0h-506l-141 1004h463l25 -469l208 469h512z" />
    <glyph glyph-name="w" unicode="w" horiz-adv-x="1658" 
d="M848 0l-53 348l-193 -348h-375l-137 1004h467l25 -390l186 390h311l19 -390l186 390h506l-551 -1004h-391z" />
    <glyph glyph-name="x" unicode="x" horiz-adv-x="1146" 
d="M590 0l-60 225l-149 -225h-504l395 516l-172 488h475l52 -205l137 205h504l-381 -496l178 -508h-475z" />
    <glyph glyph-name="y" unicode="y" horiz-adv-x="1167" 
d="M221 61l-127 943.001h473l15 -469l213 469h503l-579 -1024c-155.333 -273.333 -345 -410 -569 -410c-42 0 -84.333 3.33301 -127 10s-74.334 13.667 -95.001 21l-30 10l86 409c27.333 -13.333 61.333 -20 102 -20c30 0 56.333 5.16699 79 15.5
s37.334 20.166 44.001 29.499z" />
    <glyph glyph-name="z" unicode="z" horiz-adv-x="1105" 
d="M1135 1004l-84 -390l-369 -225h342l-82 -389h-983l82 389l371 225h-303l84 390h942z" />
    <glyph glyph-name="braceleft" unicode="{" horiz-adv-x="1003" 
d="M145 737h21c40.667 0 77.5 13.667 110.5 41s54.167 61.666 63.5 102.999l35 163c26 125.333 78.167 225 156.5 299s177.5 111 297.5 111h308l-95 -450h-61c-31.333 0 -58.666 -9.66699 -81.999 -29s-37.666 -44 -42.999 -74l-31 -143
c-12 -60 -41.167 -110.5 -87.5 -151.5s-89.5 -67.167 -129.5 -78.5l-59 -16c5.33301 -1.33301 12.833 -3.33301 22.5 -6s26 -9.83398 49 -21.501s42.833 -25.667 59.5 -42s29.667 -40.166 39 -71.499s10 -66.333 2 -105l-31 -143c-6.66699 -30 -2.5 -54.667 12.5 -74
s38.167 -29 69.5 -29h62l-97 -450h-225c-125.333 0 -223.5 38.167 -294.5 114.5s-94.5 174.833 -70.5 295.5l35 163c9.33301 40.667 3.16602 74.834 -18.501 102.501s-52.834 41.5 -93.501 41.5h-21z" />
    <glyph glyph-name="bar" unicode="|" horiz-adv-x="921" 
d="M932 1454l-400 -1884h-512l400 1884h512z" />
    <glyph glyph-name="braceright" unicode="}" horiz-adv-x="1003" 
d="M965 737h20.002l-96 -450h-21c-40.667 0 -77.334 -13.667 -110.001 -41s-54 -61.666 -64 -102.999l-35 -163c-26 -125.333 -78.167 -225 -156.5 -299s-177.5 -111 -297.5 -111h-305l94 450h61c31.333 0 58 9.66699 80 29s36.333 44 43 74l31 143
c12 60 41.333 110.5 88 151.5s89.667 67.167 129 78.5l61 16c-5.33301 1.33301 -12.666 3.33301 -21.999 6s-26 9.83398 -50 21.501s-44.167 25.667 -60.5 42s-29.333 40.166 -39 71.499s-10.5 66.333 -2.5 105l31 143c6.66699 31.333 2.5 56.333 -12.5 75
s-37.5 28 -67.5 28h-61l94 450h225c125.333 0 223.666 -38.167 294.999 -114.5s94.666 -174.833 69.999 -295.5l-35 -163c-9.33301 -40.667 -3 -74.834 19 -102.501s53.333 -41.5 94 -41.5z" />
    <glyph glyph-name="asciitilde" unicode="~" horiz-adv-x="1228" 
d="M877 369c-57.333 0 -123 13.667 -197 41s-129.333 41 -166 41c-30 0 -60 -6.83301 -90 -20.5s-52.667 -27.5 -68 -41.5l-22 -20l-260 225c2.66699 6.66699 6.33398 16.167 11.001 28.5s16.667 33.833 36 64.5s41.166 57.667 65.499 81s58 44.5 101 63.5
s89.167 28.5 138.5 28.5c57.333 0 122.833 -13.667 196.5 -41s128.834 -41 165.501 -41c30 0 60.5 6.83301 91.5 20.5s53.833 27.5 68.5 41.5l23 20l258 -225c-2.66699 -6.66699 -6.5 -16.167 -11.5 -28.5s-17 -33.833 -36 -64.5s-40.833 -57.667 -65.5 -81
s-58.334 -44.5 -101.001 -63.5s-88.667 -28.5 -138 -28.5z" />
    <glyph glyph-name="uni00A0" unicode="&#xa0;" horiz-adv-x="450" 
 />
    <glyph glyph-name="exclamdown" unicode="&#xa1;" horiz-adv-x="737" 
d="M172 481h410l-111 -911h-573zM698 817c0 -70.667 -27.165 -132.333 -81.498 -185s-119.833 -79 -196.5 -79s-136.834 20.167 -180.501 60.5s-65.5 90.5 -65.5 150.5c0 72.667 27 134.167 81 184.5s120.667 75.5 200 75.5c75.333 0 134.666 -19.5 177.999 -58.5
s65 -88.5 65 -148.5z" />
    <glyph glyph-name="cent" unicode="&#xa2;" horiz-adv-x="1136" 
d="M705 614c-39.333 0 -74.5 -11.502 -105.5 -34.502s-46.5 -54.5 -46.5 -94.5c0 -26 11.333 -48.5 34 -67.5s51 -28.5 85 -28.5c27.333 0 55 6.16699 83 18.5s49.333 25.166 64 38.499l21 19l219 -287c-8 -9.33301 -19.667 -21.166 -35 -35.499s-48.5 -37.5 -99.5 -69.5
s-103.833 -56.333 -158.5 -73l-39 -184h-430l43 200c-87.333 38 -157 95.667 -209 173s-78 159.666 -78 246.999c0 139.333 46.5 262.333 139.5 369s213.167 176.334 360.5 209.001l37 174h430l-45 -205c44 -19.333 83.667 -42.666 119 -69.999
s59.666 -49.666 72.999 -66.999l21 -27l-332 -282c-39.333 51.333 -89.666 77 -150.999 77z" />
    <glyph glyph-name="sterling" unicode="&#xa3;" horiz-adv-x="1259" 
d="M295 860l27 123.002c32.667 154 99.5 274.5 200.5 361.5s236.167 130.5 405.5 130.5c94 0 181.667 -16.5 263 -49.5s139 -65.833 173 -98.5l51 -47l-432 -342c-13.333 30 -39.333 45 -78 45c-20.667 0 -39.5 -6.83301 -56.5 -20.5s-27.5 -30.834 -31.5 -51.501l-10 -51
h256l-62 -287h-256c-4 -18 -12.167 -35.333 -24.5 -52s-23.166 -29.334 -32.499 -38.001l-16 -12h563l-98 -471h-1147l98 471c83.333 0 131.666 34 144.999 102h-122l61 287h123z" />
    <glyph glyph-name="currency" unicode="&#xa4;" horiz-adv-x="1505" 
d="M152 860h133l121 574h686c165.333 0 293 -39 383 -117s135 -173 135 -285c0 -146 -57 -265.833 -171 -359.5s-272.667 -140.5 -476 -140.5h-215l-15 -61h369l-70 -328h-368l-29 -143h-533l29 143h-133l70 328h133l14 61h-133zM981 1024h-129l-35 -164h141
c28.667 0 53 10 73 30s30 41.333 30 64c0 19.333 -6.83301 35.833 -20.5 49.5s-33.5 20.5 -59.5 20.5z" />
    <glyph glyph-name="yen" unicode="&#xa5;" horiz-adv-x="1464" 
d="M707 1434l112 -441l297 441h600l-477 -615h102l-67 -317h-266l-15 -62h267l-68 -317h-266l-25 -123h-532l24 123h-266l68 317h266l14 62h-266l67 317h103l-219 615h547z" />
    <glyph glyph-name="brokenbar" unicode="&#xa6;" horiz-adv-x="921" 
d="M186 348h512l-166 -778h-512zM768 676h-512l164 778h512z" />
    <glyph glyph-name="section" unicode="&#xa7;" horiz-adv-x="1177" 
d="M1249 1303l-249.998 -216.002c-26 26 -56 39 -90 39c-20.667 0 -36.667 -4.66699 -48 -14s-17 -20.333 -17 -33c0 -16.667 16.667 -36.834 50 -60.501s70.166 -47.167 110.499 -70.5s77.166 -58.166 110.499 -104.499s50 -98.166 50 -155.499
c0 -44 -9.16699 -85.667 -27.5 -125s-40.166 -72 -65.499 -98s-51.666 -48.833 -78.999 -68.5s-50.166 -34 -68.499 -43s-28.833 -13.5 -31.5 -13.5c9.33301 -5.33301 20.833 -13.5 34.5 -24.5s32.167 -35.333 55.5 -73s35 -76.834 35 -117.501
c0 -104 -43.333 -191.833 -130 -263.5s-212 -107.5 -376 -107.5c-62.667 0 -123.334 7.16699 -182.001 21.5s-108.167 31.833 -148.5 52.5s-75.833 40.834 -106.5 60.501s-53.667 36.5 -69 50.5l-22 22l249 213c46.667 -48 95.334 -72 146.001 -72
c23.333 0 40.833 5.5 52.5 16.5s17.5 23.5 17.5 37.5c0 24.667 -17.5 51.667 -52.5 81s-73.333 56.5 -115 81.5s-79.834 61.5 -114.501 109.5s-52 100.667 -52 158c0 44 8.5 85 25.5 123s37.5 68.667 61.5 92s48.5 43.833 73.5 61.5s45.667 29.834 62 36.501
s25.5 10 27.5 10c-6.66699 5.33301 -14.834 13.166 -24.501 23.499s-22.334 32.333 -38.001 66s-23.5 68.834 -23.5 105.501c0 102.667 41.167 190.167 123.5 262.5s204.833 108.5 367.5 108.5c60 0 117.667 -5.83301 173 -17.5s100.833 -26 136.5 -43
s66.667 -34.167 93 -51.5s45.833 -32 58.5 -44zM666.002 531.998c31.333 20.667 47 51.668 47 93.001c0 23.333 -8.16699 44.166 -24.5 62.499s-32.833 30.833 -49.5 37.5l-23 12c-31.333 -20.667 -47 -51.334 -47 -92.001c0 -23.333 8.16699 -44.166 24.5 -62.499
s32.833 -30.833 49.5 -37.5z" />
    <glyph glyph-name="dieresis" unicode="&#xa8;" horiz-adv-x="1085" 
d="M246 1307c0 60 25.168 113.166 75.501 159.499s108.5 69.5 174.5 69.5c58.667 0 108.167 -19.5 148.5 -58.5s60.5 -85.167 60.5 -138.5c0 -61.333 -25.333 -115.5 -76 -162.5s-109.334 -70.5 -176.001 -70.5c-60 0 -109.5 19.833 -148.5 59.5s-58.5 86.834 -58.5 141.501
zM758.001 1307c0 60 25.168 113.166 75.501 159.499s108.5 69.5 174.5 69.5c58.667 0 108.167 -19.5 148.5 -58.5s60.5 -85.167 60.5 -138.5c0 -61.333 -25.333 -115.5 -76 -162.5s-109.334 -70.5 -176.001 -70.5c-60 0 -109.5 19.833 -148.5 59.5
s-58.5 86.834 -58.5 141.501z" />
    <glyph glyph-name="copyright" unicode="&#xa9;" horiz-adv-x="1720" 
d="M989 860c-46.667 0 -87.6689 -16.6621 -123.002 -49.9951s-53 -74 -53 -122c0 -32.667 11.667 -60 35 -82s52 -33 86 -33c27.333 0 54.333 6.16699 81 18.5s46.667 24.166 60 35.499l21 18l135 -174c-4 -4 -9.16699 -9.83301 -15.5 -17.5s-21.333 -21 -45 -40
s-48.834 -35.667 -75.501 -50s-61.167 -27.333 -103.5 -39s-86.833 -17.5 -133.5 -17.5c-105.333 0 -190.666 32.167 -255.999 96.5s-98 143.5 -98 237.5c0 132.667 47.833 246.667 143.5 342s211.5 143 347.5 143c45.333 0 87.833 -5.66699 127.5 -17
s71.334 -25.333 95.001 -42s44.5 -32.834 62.5 -48.501s30.333 -28.834 37 -39.501l10 -18l-203 -168c-2.66699 5.33301 -6.66699 11.666 -12 18.999s-19.666 17.166 -42.999 29.499s-50 18.5 -80 18.5zM1010 1270c-172 0 -324.333 -62.5 -457 -187.5
s-199 -274.833 -199 -449.5c0 -131.333 45.833 -242.333 137.5 -333s204.167 -136 337.5 -136c170.667 0 322.667 63.5 456 190.5s200 275.833 200 446.5c0 131.333 -45.667 242.333 -137 333s-204 136 -338 136zM101.998 618.005c0 118.667 25 232.334 75 341.001
s116 202 198 280s179 140.167 291 186.5s227.333 69.5 346 69.5c211.333 0 385 -65.833 521 -197.5s204 -292.5 204 -482.5c0 -162.667 -43 -311.834 -129 -447.501s-198.333 -241 -337 -316s-286.667 -112.5 -444 -112.5c-212.667 0 -386.667 65.333 -522 196
s-203 291.667 -203 483z" />
    <glyph glyph-name="ordfeminine" unicode="&#xaa;" horiz-adv-x="866" 
d="M580 1014l-53.999 -10c-42 -8 -63 -26 -63 -54c0 -26 13 -39 39 -39c16.667 0 31.667 7.5 45 22.5s22.666 34.833 27.999 59.5zM317.001 696c-53.333 0 -97.3311 16.4971 -131.998 49.4971s-52 74.5 -52 124.5c0 70.667 26.667 130.334 80 179.001s127 81.334 221 98.001
l180 31c-18 20.667 -50.667 30.667 -98 30c-22 0 -43.833 -3.33301 -65.5 -10s-38.167 -12.667 -49.5 -18l-16 -11l-117 162l13.5 13.5c6.33301 6.33301 19.666 16.333 39.999 30s42.833 25.834 67.5 36.501s57.167 20.5 97.5 29.5s82.166 13.5 125.499 13.5
c92.667 0 168.5 -23.833 227.5 -71.5s88.5 -109.167 88.5 -184.5c0 -15.333 -2.66699 -39.333 -8 -72l-86 -409h-318l14 71c-5.33301 -6.66699 -13.833 -15 -25.5 -25s-36 -23.667 -73 -41s-75.167 -26 -114.5 -26z" />
    <glyph glyph-name="guillemotleft" unicode="&#xab;" horiz-adv-x="1382" 
d="M877 881l-375 -408l184 -371h-420l-192 390l358 389h445zM1430 881l-375 -408l184 -371h-420l-192 390l358 389h445z" />
    <glyph glyph-name="logicalnot" unicode="&#xac;" horiz-adv-x="1044" 
d="M1085 922l-131 -615h-409l45 205h-512l86 410h921z" />
    <glyph glyph-name="uni00AD" unicode="&#xad;" horiz-adv-x="901" 
d="M922 819l-93 -430h-778l92 430h779z" />
    <glyph glyph-name="registered" unicode="&#xae;" horiz-adv-x="1720" 
d="M842 543l-45 -215h-308l164 778h375c83.333 0 151 -22.5 203 -67.5s78 -99.833 78 -164.5c0 -35.333 -6.16699 -69 -18.5 -101s-27 -57.833 -44 -77.5s-34.167 -36.667 -51.5 -51s-32 -24.5 -44 -30.5l-18 -10l81 -276h-315zM907 850l-18 -82h43c18 0 32 4.83301 42 14.5
s15 21.167 15 34.5c0 22 -14.333 33 -43 33h-39zM1010 1270c-172 0 -324.333 -62.5 -457 -187.5s-199 -274.833 -199 -449.5c0 -131.333 45.833 -242.333 137.5 -333s204.167 -136 337.5 -136c170.667 0 322.667 63.5 456 190.5s200 275.833 200 446.5
c0 131.333 -45.667 242.333 -137 333s-204 136 -338 136zM102 618c0 118.667 25 232.334 75 341.001s116 202 198 280s179 140.167 291 186.5s227.333 69.5 346 69.5c211.333 0 385 -65.833 521 -197.5s204 -292.5 204 -482.5c0 -162.667 -43 -311.834 -129 -447.501
s-198.333 -241 -337 -316s-286.667 -112.5 -444 -112.5c-212.667 0 -386.667 65.333 -522 196s-203 291.667 -203 483z" />
    <glyph glyph-name="macron" unicode="&#xaf;" horiz-adv-x="839" 
d="M1012 1536l-74 -348h-717l74 348h717z" />
    <glyph glyph-name="degree" unicode="&#xb0;" horiz-adv-x="860" 
d="M195 1077c0 101.333 40.499 189.5 121.499 264.5s176.833 112.5 287.5 112.5c100 0 182 -31 246 -93s96 -136.667 96 -224c0 -101.333 -40.167 -189.833 -120.5 -265.5s-177.166 -113.5 -290.499 -113.5c-98 0 -179.167 31.333 -243.5 94s-96.5 137.667 -96.5 225z
M564.999 1024c23.333 0 44.168 8.83105 62.501 26.498s27.5 38.834 27.5 63.501c0 20.667 -7.16699 38.167 -21.5 52.5s-32.833 21.5 -55.5 21.5c-24.667 0 -46 -9.16699 -64 -27.5s-27 -39.166 -27 -62.499c0 -20.667 7.16699 -38.167 21.5 -52.5
s33.166 -21.5 56.499 -21.5z" />
    <glyph glyph-name="plusminus" unicode="&#xb1;" horiz-adv-x="1095" 
d="M334 420l53 246h-276l90 430h276l53 245h420l-53 -245h277l-91 -430h-276l-53 -246h-420zM1022 379l-80 -379h-973l80 379h973z" />
    <glyph glyph-name="uni00B2" unicode="&#xb2;" horiz-adv-x="727" 
d="M774 901l-635.004 -0.000976562c15.333 72.667 39.333 135.5 72 188.5s66.834 92.5 102.501 118.5s70.167 47.167 103.5 63.5s60.833 30.333 82.5 42s32.5 23.834 32.5 36.501c0 15.333 -8.66699 22.666 -26 21.999c-8 0 -16.167 -2.66699 -24.5 -8
s-14.5 -10.666 -18.5 -15.999l-4 -7l-226 103c4 5.33301 9.16699 12.833 15.5 22.5s21.5 26 45.5 49s49.333 43.5 76 61.5s61.834 34.5 105.501 49.5s88.5 22.5 134.5 22.5c86 0 155.333 -20.833 208 -62.5s79 -90.5 79 -146.5c0 -27.333 -4.5 -53 -13.5 -77
s-18.5 -43.833 -28.5 -59.5s-25.667 -32 -47 -49s-37.166 -28.667 -47.499 -35s-27.666 -16.333 -51.999 -30s-37.833 -21.167 -40.5 -22.5h163z" />
    <glyph glyph-name="uni00B3" unicode="&#xb3;" horiz-adv-x="727" 
d="M428 1116c13.333 0 25.5 4.16895 36.5 12.502s16.5 19.166 16.5 32.499c0 24.667 -16.333 37 -49 37h-65l34 164h74c30 0 45 11.667 45 35c0 18 -12.333 26.667 -37 26c-16.667 0 -32.334 -3 -47.001 -9s-26.334 -11.667 -35.001 -17l-10 -11l-115 158
c8 8 20 17.833 36 29.5s52.667 27.167 110 46.5s119.333 29 186 29c86 0 155 -18.167 207 -54.5s78 -78.5 78 -126.5c0 -39.333 -13.667 -75.333 -41 -108s-54.666 -56 -81.999 -70l-39 -18c2.66699 -1.33301 6.5 -3 11.5 -5s13.167 -7.16699 24.5 -15.5
s21.5 -17.333 30.5 -27s17.333 -23 25 -40s11.5 -35.167 11.5 -54.5c0 -65.333 -31.5 -121.5 -94.5 -168.5s-151.167 -70.5 -264.5 -70.5c-70.667 0 -133.667 9.16699 -189 27.5s-93.333 37.166 -114 56.499l-31 29l183 157c28.667 -30 63.334 -45 104.001 -45z" />
    <glyph glyph-name="acute" unicode="&#xb4;" horiz-adv-x="819" 
d="M199 1106l266 369h514l-356 -369h-424z" />
    <glyph glyph-name="mu" unicode="&#xb5;" horiz-adv-x="1300" 
d="M827 1004l470.999 -0.00195312l-112 -523c-6.66699 -34 6.33301 -51 39 -51l35 10l-89 -420c-40.667 -27.333 -102 -40.666 -184 -39.999c-42 0 -79.167 5.33301 -111.5 16s-56.666 24.167 -72.999 40.5s-29.5 32.833 -39.5 49.5s-16 30.334 -18 41.001l-4 16
c-8 -8 -19.5 -18.833 -34.5 -32.5s-46.333 -34.167 -94 -61.5s-96.167 -47 -145.5 -59l-88 -420h-471l305 1434h471l-104 -492c-5.33301 -24.667 -3.33301 -44.5 6 -59.5s24.333 -22.5 45 -22.5s40.167 9.5 58.5 28.5s30.833 43.5 37.5 73.5z" />
    <glyph glyph-name="paragraph" unicode="&#xb6;" horiz-adv-x="1515" 
d="M313 -205l170 799c-100 0 -183.333 37.5 -250 112.5s-100 161.833 -100 260.5c0 126.667 51.5 236.167 154.5 328.5s221.5 138.5 355.5 138.5h940l-348 -1639h-410l248 1168h-102l-248 -1168h-410z" />
    <glyph glyph-name="periodcentered" unicode="&#xb7;" horiz-adv-x="450" 
d="M-23 483c0 70.667 27.3311 132.501 81.998 185.501s120.334 79.5 197.001 79.5s136.834 -20.167 180.501 -60.5s65.5 -90.5 65.5 -150.5c0 -72.667 -27 -134.334 -81 -185.001s-120.667 -76 -200 -76c-75.333 0 -134.833 19.5 -178.5 58.5s-65.5 88.5 -65.5 148.5z" />
    <glyph glyph-name="cedilla" unicode="&#xb8;" horiz-adv-x="727" 
d="M203 41h194.002l-88 -123c5.33301 -1.33301 12.5 -3.33301 21.5 -6s25.5 -9.5 49.5 -20.5s44.833 -23.667 62.5 -38s33.667 -34.5 48 -60.5s21.5 -54 21.5 -84c0 -78 -30 -141.167 -90 -189.5s-142 -72.5 -246 -72.5c-54.667 0 -106.834 8.5 -156.501 25.5
s-86.167 34.5 -109.5 52.5l-35 24l143 170c35.333 -31.333 73.666 -47 114.999 -47c22 0 39.5 4.83301 52.5 14.5s19.5 20.5 19.5 32.5c0 23.333 -14.333 35 -43 35l-43 -10l-53 92z" />
    <glyph glyph-name="uni00B9" unicode="&#xb9;" horiz-adv-x="532" 
d="M440 1638h286.999l-158 -737h-317l88 410h-133l47 225c38 5.33301 72.333 16.5 103 33.5s52.334 33.167 65.001 48.5z" />
    <glyph glyph-name="ordmasculine" unicode="&#xba;" horiz-adv-x="880" 
d="M983 1108c0 -112 -44.333 -208.666 -133 -289.999s-193 -122 -313 -122c-108 0 -196.5 33.5 -265.5 100.5s-103.5 147.5 -103.5 241.5c0 113.333 44 210.666 132 291.999s192 122 312 122c109.333 0 198.5 -33.833 267.5 -101.5s103.5 -148.5 103.5 -242.5zM588 1157
c-23.333 0 -45.168 -8.83203 -65.501 -26.499s-30.5 -39.5 -30.5 -65.5c0 -20.667 6.33301 -37.834 19 -51.501s30 -20.5 52 -20.5c24.667 0 46.834 9 66.501 27s29.5 39 29.5 63c0 20.667 -6.66699 38.167 -20 52.5s-30.333 21.5 -51 21.5z" />
    <glyph glyph-name="guillemotright" unicode="&#xbb;" horiz-adv-x="1382" 
d="M530 102l375 408l-184 371h420l192 -389l-358 -390h-445zM-23 102l375 408l-184 371h420l192 -389l-358 -390h-445z" />
    <glyph glyph-name="onequarter" unicode="&#xbc;" horiz-adv-x="1699" 
d="M72 0l1188 1434h466l-1187 -1434h-467zM416 1434l286 0.000976562l-157 -738h-318l88 410h-133l47 225c38 5.33301 72.5 16.666 103.5 33.999s52.5 33.333 64.5 48zM1591 369.001h72l-55 -267h-72l-23 -102h-317l23 102h-308l52 246l395 389h313zM1290 348.001l23 103
l-105 -103h82z" />
    <glyph glyph-name="onehalf" unicode="&#xbd;" horiz-adv-x="1771" 
d="M72 0l1188 1434h466l-1187 -1434h-467zM418 1434l287 0.000976562l-158 -738h-318l88 410h-133l47 225c38 5.33301 72.5 16.666 103.5 33.999s52.5 33.333 64.5 48zM1628 0.000976562h-635.004c15.333 72.667 39.333 135.5 72 188.5s66.834 92.5 102.501 118.5
s70.167 47.167 103.5 63.5s60.833 30.333 82.5 42s32.5 23.834 32.5 36.501c0 15.333 -8.66699 22.666 -26 21.999c-8 0 -16.167 -2.66699 -24.5 -8s-13.833 -11 -16.5 -17l-6 -6l-226 103c4 5.33301 9.16699 12.833 15.5 22.5s21.5 26 45.5 49s49.333 43.333 76 61
s61.834 34.167 105.501 49.5s88.5 23 134.5 23c86 0 155.333 -20.833 208 -62.5s79 -90.5 79 -146.5c0 -27.333 -4.5 -53 -13.5 -77s-18.5 -43.833 -28.5 -59.5s-25.667 -32 -47 -49s-37.166 -28.667 -47.499 -35s-27.666 -16.333 -51.999 -30s-37.833 -21.167 -40.5 -22.5
h164z" />
    <glyph glyph-name="threequarters" unicode="&#xbe;" horiz-adv-x="1781" 
d="M154 0l1187 1434h467l-1187 -1434h-467zM1675 369h72l-55 -267h-72l-23 -102h-317l23 102h-308l52 246l395 389h313zM1374 348l23 103l-105 -103h82zM362 911c13.333 0 25.665 4.16406 36.998 12.4971s17 19.166 17 32.499c0 24.667 -16.333 37 -49 37h-66l35 164h74
c30 0 45 11.667 45 35c0 18 -12.333 27 -37 27c-16.667 0 -32.5 -3.16699 -47.5 -9.5s-26.5 -12.166 -34.5 -17.499l-10 -10l-115 157c8 8 19.833 17.833 35.5 29.5s52.167 27.167 109.5 46.5s119.666 29 186.999 29c87.333 0 156.5 -18.167 207.5 -54.5
s76.5 -78.166 76.5 -125.499c0 -39.333 -13.667 -75.5 -41 -108.5s-54.333 -56.5 -81 -70.5l-39 -18c2.66699 -1.33301 6.33398 -3 11.001 -5s12.834 -7.16699 24.501 -15.5s21.834 -17.166 30.501 -26.499s16.834 -22.666 24.501 -39.999s11.5 -35.333 11.5 -54
c0 -65.333 -31.333 -121.666 -94 -168.999s-150.667 -71 -264 -71c-70.667 0 -133.834 9.16699 -189.501 27.5s-93.834 37.166 -114.501 56.499l-30 29l182 157c28.667 -30 63.334 -45 104.001 -45z" />
    <glyph glyph-name="questiondown" unicode="&#xbf;" horiz-adv-x="1105" 
d="M420 481l447.997 0.00195312c1.33301 -5.33301 2 -12 2 -20c0 -50.667 -11.5 -96.834 -34.5 -138.501s-51 -75.167 -84 -100.5s-65.833 -47.5 -98.5 -66.5s-60.5 -36.333 -83.5 -52s-34.5 -30.5 -34.5 -44.5c0 -26 17 -39 51 -39c18 0 36.833 5.16699 56.5 15.5
s34.834 20.5 45.501 30.5l14 16l408 -205c-5.33301 -9.33301 -13.5 -21.833 -24.5 -37.5s-36 -43.334 -75 -83.001s-81.667 -74.834 -128 -105.501s-108.333 -58.667 -186 -84s-159.5 -38 -245.5 -38c-155.333 0 -283.666 41.333 -384.999 124s-152 177.334 -152 284.001
c0 64 11.333 119.167 34 165.5s53.334 84.5 92.001 114.5s78.5 56.667 119.5 80s86.5 51 136.5 83s91.333 65.667 124 101zM970.997 817.002c0 -70.667 -27.333 -132.333 -82 -185s-120.167 -79 -196.5 -79s-136.5 20.167 -180.5 60.5s-66 90.5 -66 150.5
c0 72.667 27 134.167 81 184.5s120.667 75.5 200 75.5c75.333 0 134.833 -19.5 178.5 -58.5s65.5 -88.5 65.5 -148.5z" />
    <glyph glyph-name="Agrave" unicode="&#xc0;" horiz-adv-x="1536" 
d="M1280 1434l205 -1434h-559l-11 246h-348l-112 -246h-588l811 1434h602zM895 635l-10 287l-133 -287h143zM1069 1946l117 -369h-406l-196 369h485z" />
    <glyph glyph-name="Aacute" unicode="&#xc1;" horiz-adv-x="1536" 
d="M1280 1434l205 -1434h-559l-11 246h-348l-112 -246h-588l811 1434h602zM895 635l-10 287l-133 -287h143zM801 1577l266 369h514l-356 -369h-424z" />
    <glyph glyph-name="Acircumflex" unicode="&#xc2;" horiz-adv-x="1536" 
d="M1280 1434l205 -1434h-559l-11 246h-348l-112 -246h-588l811 1434h602zM895 635l-10 287l-133 -287h143zM1266 1946l227 -369h-408l-59 123l-104 -123h-453l387 369h410z" />
    <glyph glyph-name="Atilde" unicode="&#xc3;" horiz-adv-x="1536" 
d="M1280 1434l205 -1434h-559l-11 246h-348l-112 -246h-588l811 1434h602zM895 635l-10 287l-133 -287h143zM1171 1946h287l-26 -123c-18 -82 -50.833 -147 -98.5 -195s-102.5 -72 -164.5 -72c-46.667 0 -92 12 -136 36s-71.667 36 -83 36c-40.667 0 -66.667 -24 -78 -72
h-286l26 123c18 82 50.833 147 98.5 195s102.167 72 163.5 72c46.667 0 92.167 -12 136.5 -36s72.166 -36 83.499 -36c40.667 0 66.334 24 77.001 72z" />
    <glyph glyph-name="Adieresis" unicode="&#xc4;" horiz-adv-x="1536" 
d="M1280 1434l205 -1434h-559l-11 246h-348l-112 -246h-588l811 1434h602zM895 635l-10 287l-133 -287h143zM537 1757c0 60 25.167 113.331 75.5 159.998s108.166 70 173.499 70c58.667 0 108.167 -19.5 148.5 -58.5s60.5 -85.167 60.5 -138.5
c0 -61.333 -25.167 -115.666 -75.5 -162.999s-109.166 -71 -176.499 -71c-60 0 -109.333 19.833 -148 59.5s-58 86.834 -58 141.501zM1049 1757c0 60 25.167 113.331 75.5 159.998s108.166 70 173.499 70c58.667 0 108.167 -19.5 148.5 -58.5s60.5 -85.167 60.5 -138.5
c0 -61.333 -25.167 -115.666 -75.5 -162.999s-109.166 -71 -176.499 -71c-60 0 -109.333 19.833 -148 59.5s-58 86.834 -58 141.501z" />
    <glyph glyph-name="Aring" unicode="&#xc5;" horiz-adv-x="1536" 
d="M1280 1434l205 -1434h-559l-11 246h-348l-112 -246h-588l811 1434h602zM895 635l-10 287l-133 -287h143zM1018 1731c20.667 0 39.498 8.16797 56.498 24.501s25.5 35.166 25.5 56.499c0 18 -5.83301 32.833 -17.5 44.5s-27.667 17.5 -48 17.5
s-39.166 -8.16699 -56.499 -24.5s-26 -35.5 -26 -57.5c0 -18 5.83301 -32.667 17.5 -44s27.834 -17 48.501 -17zM1053 2089c83.333 0 151.833 -26 205.5 -78s80.5 -113.333 80.5 -184c0 -84.667 -33 -157.667 -99 -219s-146.333 -92 -241 -92
c-83.333 0 -151.833 25.833 -205.5 77.5s-80.5 113.167 -80.5 184.5c0 84.667 33.167 157.667 99.5 219s146.5 92 240.5 92z" />
    <glyph glyph-name="AE" unicode="&#xc6;" horiz-adv-x="2170" 
d="M-215 0l1092 1434h1402l-90 -430h-583l-21 -93h420l-82 -389h-420l-20 -92h604l-90 -430h-1137l55 266h-372l-199 -266h-559zM1063 963l-211 -287h152z" />
    <glyph glyph-name="Ccedilla" unicode="&#xc7;" horiz-adv-x="1546" 
d="M1239 571l257.998 -340l-28.5 -28.5c-12.333 -12.333 -40.333 -34.166 -84 -65.499s-89.667 -59 -138 -83s-110.833 -45.833 -187.5 -65.5s-155.334 -29.5 -236.001 -29.5l-28 -41c5.33301 -1.33301 12.333 -3.33301 21 -6s25 -9.5 49 -20.5s44.833 -23.667 62.5 -38
s33.667 -34.5 48 -60.5s21.5 -54 21.5 -84c0 -78 -30 -141.167 -90 -189.5s-141.667 -72.5 -245 -72.5c-54.667 0 -107 8.5 -157 25.5s-86.667 34.5 -110 52.5l-35 24l144 170c35.333 -31.333 73.333 -47 114 -47c22 0 39.5 4.83301 52.5 14.5s19.5 20.5 19.5 32.5
c0 23.333 -14.333 35 -43 35l-43 -10l-53 92l96 144c-158.667 36.667 -288.834 115 -390.501 235s-152.5 254.333 -152.5 403c0 240 88.833 442.833 266.5 608.5s400.834 248.5 669.501 248.5c80.667 0 157.834 -10 231.501 -30s134.5 -44 182.5 -72s90.333 -56 127 -84
s63.334 -52 80.001 -72l25 -29l-381 -322c-2.66699 4 -7.16699 9.16699 -13.5 15.5s-19.333 17.333 -39 33s-40.5 29.667 -62.5 42s-49.667 23.333 -83 33s-67 14.5 -101 14.5c-96.667 0 -180.667 -32.833 -252 -98.5s-107 -142.167 -107 -229.5
c0 -66.667 25 -124.334 75 -173.001s112.333 -73 187 -73c54.667 0 109.334 11.667 164.001 35s95.667 47.333 123 72z" />
    <glyph glyph-name="Egrave" unicode="&#xc8;" horiz-adv-x="1423" 
d="M674 430h665l-90 -430h-1198l303 1434h1178l-90 -430h-645l-21 -93h481l-81 -389h-482zM1057 1946l117 -369h-406l-197 369h486z" />
    <glyph glyph-name="Eacute" unicode="&#xc9;" horiz-adv-x="1423" 
d="M674 430h665l-90 -430h-1198l303 1434h1178l-90 -430h-645l-21 -93h481l-81 -389h-482zM741 1577l267 369h514l-357 -369h-424z" />
    <glyph glyph-name="Ecircumflex" unicode="&#xca;" horiz-adv-x="1423" 
d="M674 430h665l-90 -430h-1198l303 1434h1178l-90 -430h-645l-21 -93h481l-81 -389h-482zM1257 1946l228 -369h-408l-59 123l-105 -123h-452l387 369h409z" />
    <glyph glyph-name="Edieresis" unicode="&#xcb;" horiz-adv-x="1423" 
d="M674 430h665l-90 -430h-1198l303 1434h1178l-90 -430h-645l-21 -93h481l-81 -389h-482zM508 1757c0 60 25.168 113.331 75.501 159.998s108.5 70 174.5 70c58.667 0 108.167 -19.5 148.5 -58.5s60.5 -85.167 60.5 -138.5c0 -61.333 -25.333 -115.666 -76 -162.999
s-109.334 -71 -176.001 -71c-60 0 -109.5 19.833 -148.5 59.5s-58.5 86.834 -58.5 141.501zM1020 1757c0 60 25.168 113.331 75.501 159.998s108.5 70 174.5 70c58.667 0 108.167 -19.5 148.5 -58.5s60.5 -85.167 60.5 -138.5c0 -61.333 -25.333 -115.666 -76 -162.999
s-109.334 -71 -176.001 -71c-60 0 -109.5 19.833 -148.5 59.5s-58.5 86.834 -58.5 141.501z" />
    <glyph glyph-name="Igrave" unicode="&#xcc;" horiz-adv-x="819" 
d="M51 0l303 1434h533l-303 -1434h-533zM709 1946l116 -369h-405l-197 369h486z" />
    <glyph glyph-name="Iacute" unicode="&#xcd;" horiz-adv-x="819" 
d="M51 0l303 1434h533l-303 -1434h-533zM438 1577l267 369h514l-357 -369h-424z" />
    <glyph glyph-name="Icircumflex" unicode="&#xce;" horiz-adv-x="819" 
d="M51 0l303 1434h533l-303 -1434h-533zM928 1946l227 -369h-407l-60 123l-104 -123h-453l387 369h410z" />
    <glyph glyph-name="Idieresis" unicode="&#xcf;" horiz-adv-x="819" 
d="M51 0l303 1434h533l-303 -1434h-533zM184 1757c0 60 25.332 113.331 75.999 159.998s108.667 70 174 70c58.667 0 108.167 -19.5 148.5 -58.5s60.5 -85.167 60.5 -138.5c0 -61.333 -25.167 -115.666 -75.5 -162.999s-109.166 -71 -176.499 -71
c-60 0 -109.5 19.833 -148.5 59.5s-58.5 86.834 -58.5 141.501zM695.999 1757c0 60 25.332 113.331 75.999 159.998s108.667 70 174 70c58.667 0 108.167 -19.5 148.5 -58.5s60.5 -85.167 60.5 -138.5c0 -61.333 -25.167 -115.666 -75.5 -162.999s-109.166 -71 -176.499 -71
c-60 0 -109.5 19.833 -148.5 59.5s-58.5 86.834 -58.5 141.501z" />
    <glyph glyph-name="Eth" unicode="&#xd0;" horiz-adv-x="1628" 
d="M709 451h70.999c87.333 0 162.5 30 225.5 90s94.5 135 94.5 225c0 62.667 -20.167 114.5 -60.5 155.5s-93.166 61.5 -158.499 61.5h-58l-18 -82h153l-77 -369h-154zM1640 817c0 -232 -89.6689 -426.167 -269.002 -582.5s-394.666 -234.5 -645.999 -234.5h-643l113 532
h-134l78 369h133l113 533h547c204.667 0 373.834 -61.167 507.501 -183.5s200.5 -266.833 200.5 -433.5z" />
    <glyph glyph-name="Ntilde" unicode="&#xd1;" horiz-adv-x="1730" 
d="M1266 1434h532l-303 -1434h-438l-346 604l-127 -604h-533l303 1434h439l346 -605zM1247 1946h287l-27 -123c-18 -82 -50.833 -147 -98.5 -195s-102.167 -72 -163.5 -72c-46.667 0 -92.167 12 -136.5 36s-71.833 36 -82.5 36c-40.667 0 -66.667 -24 -78 -72h-286l26 123
c18 82 50.833 147 98.5 195s102.167 72 163.5 72c46.667 0 92.167 -12 136.5 -36s71.833 -36 82.5 -36c41.333 0 67.333 24 78 72z" />
    <glyph glyph-name="Ograve" unicode="&#xd2;" horiz-adv-x="1761" 
d="M1776 786c0 -144.667 -42.332 -281.166 -126.999 -409.499s-197.334 -230 -338.001 -305s-289.667 -112.5 -447 -112.5c-226.667 0 -410 67.167 -550 201.5s-210 297.166 -210 488.499c0 221.333 90.5 414.333 271.5 579s394.5 247 640.5 247c226.667 0 410 -67 550 -201
s210 -296.667 210 -488zM905.001 430.001c83.333 0 158.832 31.332 226.499 93.999s101.5 135.667 101.5 219c0 70.667 -24.667 131.834 -74 183.501s-110 77.5 -182 77.5c-86 0 -162.5 -31.833 -229.5 -95.5s-100.5 -136.5 -100.5 -218.5
c0 -70.667 24.833 -131.667 74.5 -183s110.834 -77 183.501 -77zM1145 1946l117 -369h-406l-197 369h486z" />
    <glyph glyph-name="Oacute" unicode="&#xd3;" horiz-adv-x="1761" 
d="M1776 786c0 -144.667 -42.332 -281.166 -126.999 -409.499s-197.334 -230 -338.001 -305s-289.667 -112.5 -447 -112.5c-226.667 0 -410 67.167 -550 201.5s-210 297.166 -210 488.499c0 221.333 90.5 414.333 271.5 579s394.5 247 640.5 247c226.667 0 410 -67 550 -201
s210 -296.667 210 -488zM905.001 430.001c83.333 0 158.832 31.332 226.499 93.999s101.5 135.667 101.5 219c0 70.667 -24.667 131.834 -74 183.501s-110 77.5 -182 77.5c-86 0 -162.5 -31.833 -229.5 -95.5s-100.5 -136.5 -100.5 -218.5
c0 -70.667 24.833 -131.667 74.5 -183s110.834 -77 183.501 -77zM848 1577l266 369h514l-356 -369h-424z" />
    <glyph glyph-name="Ocircumflex" unicode="&#xd4;" horiz-adv-x="1761" 
d="M1776 786c0 -144.667 -42.332 -281.166 -126.999 -409.499s-197.334 -230 -338.001 -305s-289.667 -112.5 -447 -112.5c-226.667 0 -410 67.167 -550 201.5s-210 297.166 -210 488.499c0 221.333 90.5 414.333 271.5 579s394.5 247 640.5 247c226.667 0 410 -67 550 -201
s210 -296.667 210 -488zM905.001 430.001c83.333 0 158.832 31.332 226.499 93.999s101.5 135.667 101.5 219c0 70.667 -24.667 131.834 -74 183.501s-110 77.5 -182 77.5c-86 0 -162.5 -31.833 -229.5 -95.5s-100.5 -136.5 -100.5 -218.5
c0 -70.667 24.833 -131.667 74.5 -183s110.834 -77 183.501 -77zM1346 1946l227 -369h-408l-59 123l-105 -123h-452l387 369h410z" />
    <glyph glyph-name="Otilde" unicode="&#xd5;" horiz-adv-x="1761" 
d="M1776 786c0 -144.667 -42.332 -281.166 -126.999 -409.499s-197.334 -230 -338.001 -305s-289.667 -112.5 -447 -112.5c-226.667 0 -410 67.167 -550 201.5s-210 297.166 -210 488.499c0 221.333 90.5 414.333 271.5 579s394.5 247 640.5 247c226.667 0 410 -67 550 -201
s210 -296.667 210 -488zM905.001 430.001c83.333 0 158.832 31.332 226.499 93.999s101.5 135.667 101.5 219c0 70.667 -24.667 131.834 -74 183.501s-110 77.5 -182 77.5c-86 0 -162.5 -31.833 -229.5 -95.5s-100.5 -136.5 -100.5 -218.5
c0 -70.667 24.833 -131.667 74.5 -183s110.834 -77 183.501 -77zM1253 1966h287l-27 -123c-18 -82 -50.833 -146.833 -98.5 -194.5s-102.167 -71.5 -163.5 -71.5c-46.667 0 -92 12 -136 36s-71.667 36 -83 36c-40.667 0 -66.667 -24 -78 -72h-286l26 123
c18 82 50.833 146.833 98.5 194.5s102.167 71.5 163.5 71.5c46.667 0 92.167 -12 136.5 -36s72.166 -36 83.499 -36c40.667 0 66.334 24 77.001 72z" />
    <glyph glyph-name="Odieresis" unicode="&#xd6;" horiz-adv-x="1761" 
d="M1776 786c0 -144.667 -42.332 -281.166 -126.999 -409.499s-197.334 -230 -338.001 -305s-289.667 -112.5 -447 -112.5c-226.667 0 -410 67.167 -550 201.5s-210 297.166 -210 488.499c0 221.333 90.5 414.333 271.5 579s394.5 247 640.5 247c226.667 0 410 -67 550 -201
s210 -296.667 210 -488zM905.001 430.001c83.333 0 158.832 31.332 226.499 93.999s101.5 135.667 101.5 219c0 70.667 -24.667 131.834 -74 183.501s-110 77.5 -182 77.5c-86 0 -162.5 -31.833 -229.5 -95.5s-100.5 -136.5 -100.5 -218.5
c0 -70.667 24.833 -131.667 74.5 -183s110.834 -77 183.501 -77zM608 1757c0 60 25.334 113.331 76.001 159.998s108.667 70 174 70c58.667 0 108.167 -19.5 148.5 -58.5s60.5 -85.167 60.5 -138.5c0 -61.333 -25.333 -115.666 -76 -162.999s-109.334 -71 -176.001 -71
c-60 0 -109.5 19.833 -148.5 59.5s-58.5 86.834 -58.5 141.501zM1120 1757c0 60 25.334 113.331 76.001 159.998s108.667 70 174 70c58.667 0 108.167 -19.5 148.5 -58.5s60.5 -85.167 60.5 -138.5c0 -61.333 -25.333 -115.666 -76 -162.999s-109.334 -71 -176.001 -71
c-60 0 -109.5 19.833 -148.5 59.5s-58.5 86.834 -58.5 141.501z" />
    <glyph glyph-name="multiply" unicode="&#xd7;" horiz-adv-x="1105" 
d="M70 434l247 205l-174 223l320 264l170 -215l260 215l233 -284l-256 -211l177 -223l-322 -265l-168 215l-262 -215z" />
    <glyph glyph-name="Oslash" unicode="&#xd8;" horiz-adv-x="1781" 
d="M1776 786c0 -144.667 -42.3311 -281.168 -126.998 -409.501s-197.334 -230 -338.001 -305s-289.667 -112.5 -447 -112.5c-177.333 0 -331 43 -461 129l-231 -178l-195 264l205 158c-52 96.667 -78 202.334 -78 317.001c0 221.333 90.5 414.333 271.5 579
s394.5 247 640.5 247c181.333 0 337.666 -46 468.999 -138l244 189l194 -264l-221 -170c49.333 -98.667 74 -200.667 74 -306zM608.002 687.999v-26.001l471 362c-31.333 12 -64 18 -98 18c-95.333 0 -181.333 -36.167 -258 -108.5s-115 -154.166 -115 -245.499z
M901.002 390.998c94 0 179.334 35.5 256.001 106.5s115 153.5 115 247.5v13l-459 -355c27.333 -8 56.666 -12 87.999 -12z" />
    <glyph glyph-name="Ugrave" unicode="&#xd9;" horiz-adv-x="1658" 
d="M831 430c52 0 96.834 17.5 134.501 52.5s62.5 78.833 74.5 131.5l174 820h533l-174 -820c-40.667 -194 -130 -351.667 -268 -473s-315 -182 -531 -182c-184 0 -334.833 49.833 -452.5 149.5s-176.5 226.5 -176.5 380.5c0 44 5 85.667 15 125l174 820h532l-174 -820
c-9.33301 -46.667 -1.83301 -89 22.5 -127s63.166 -57 116.499 -57zM1130 1946l117 -369h-405l-197 369h485z" />
    <glyph glyph-name="Uacute" unicode="&#xda;" horiz-adv-x="1658" 
d="M831 430c52 0 96.834 17.5 134.501 52.5s62.5 78.833 74.5 131.5l174 820h533l-174 -820c-40.667 -194 -130 -351.667 -268 -473s-315 -182 -531 -182c-184 0 -334.833 49.833 -452.5 149.5s-176.5 226.5 -176.5 380.5c0 44 5 85.667 15 125l174 820h532l-174 -820
c-9.33301 -46.667 -1.83301 -89 22.5 -127s63.166 -57 116.499 -57zM850.001 1577l266 369h514l-356 -369h-424z" />
    <glyph glyph-name="Ucircumflex" unicode="&#xdb;" horiz-adv-x="1658" 
d="M831 430c52 0 96.834 17.5 134.501 52.5s62.5 78.833 74.5 131.5l174 820h533l-174 -820c-40.667 -194 -130 -351.667 -268 -473s-315 -182 -531 -182c-184 0 -334.833 49.833 -452.5 149.5s-176.5 226.5 -176.5 380.5c0 44 5 85.667 15 125l174 820h532l-174 -820
c-9.33301 -46.667 -1.83301 -89 22.5 -127s63.166 -57 116.499 -57zM1319 1946l227 -369h-407l-60 123l-104 -123h-453l387 369h410z" />
    <glyph glyph-name="Udieresis" unicode="&#xdc;" horiz-adv-x="1658" 
d="M831 430c52 0 96.834 17.5 134.501 52.5s62.5 78.833 74.5 131.5l174 820h533l-174 -820c-40.667 -194 -130 -351.667 -268 -473s-315 -182 -531 -182c-184 0 -334.833 49.833 -452.5 149.5s-176.5 226.5 -176.5 380.5c0 44 5 85.667 15 125l174 820h532l-174 -820
c-9.33301 -46.667 -1.83301 -89 22.5 -127s63.166 -57 116.499 -57zM612.001 1757c0 60 25.332 113.331 75.999 159.998s108.667 70 174 70c58.667 0 108.167 -19.5 148.5 -58.5s60.5 -85.167 60.5 -138.5c0 -61.333 -25.167 -115.666 -75.5 -162.999
s-109.166 -71 -176.499 -71c-60 0 -109.5 19.833 -148.5 59.5s-58.5 86.834 -58.5 141.501zM1124 1757c0 60 25.332 113.331 75.999 159.998s108.667 70 174 70c58.667 0 108.167 -19.5 148.5 -58.5s60.5 -85.167 60.5 -138.5c0 -61.333 -25.167 -115.666 -75.5 -162.999
s-109.166 -71 -176.499 -71c-60 0 -109.5 19.833 -148.5 59.5s-58.5 86.834 -58.5 141.501z" />
    <glyph glyph-name="Yacute" unicode="&#xdd;" horiz-adv-x="1464" 
d="M700 1434l117 -441l293 441h606l-706 -922l-109 -512h-532l108 512l-317 922h540zM707 1577l266 369h514l-357 -369h-423z" />
    <glyph glyph-name="Thorn" unicode="&#xde;" horiz-adv-x="1443" 
d="M365 1475h532l-33 -154h43c165.333 0 302 -50.833 410 -152.5s162 -220.167 162 -355.5c0 -184 -72 -339.833 -216 -467.5s-323.333 -191.5 -538 -191.5h-111l-41 -195h-532zM784 911l-8 0.00195312l-74 -348h19c62.667 0 114.5 19.167 155.5 57.5
s61.5 88.166 61.5 149.499c0 39.333 -14 72.666 -42 99.999s-65.333 41 -112 41z" />
    <glyph glyph-name="germandbls" unicode="&#xdf;" horiz-adv-x="1331" 
d="M1075 766c5.33301 -2.66699 12.834 -6.83594 22.501 -12.5029s26.834 -17.667 51.501 -36s46.167 -38.333 64.5 -60s35 -50.334 50 -86.001s22.5 -72.5 22.5 -110.5c0 -131.333 -56.667 -241 -170 -329s-268.333 -132 -465 -132h-108l86 410h76
c19.333 0 36 6.83301 50 20.5s21 29.834 21 48.501c0 15.333 -4.66699 28 -14 38s-21.666 15 -36.999 15h-70l82 390h25c18 0 34.833 6.83301 50.5 20.5s23.5 29.834 23.5 48.501c0 35.333 -18.667 53 -56 53c-24.667 0 -45.834 -9.16699 -63.501 -27.5
s-29.834 -43.166 -36.501 -74.499l-199 -942h-471l199 942c34 160 104.667 285.333 212 376s250.333 136 429 136c138 0 248.667 -33.5 332 -100.5s125 -149.5 125 -247.5c0 -27.333 -2.83301 -53.666 -8.5 -78.999s-12.834 -47.833 -21.501 -67.5s-19.167 -38 -31.5 -55
s-25 -32 -38 -45s-26 -25 -39 -36s-25 -20 -36 -27s-21.333 -12.833 -31 -17.5s-16.5 -7.66699 -20.5 -9z" />
    <glyph glyph-name="agrave" unicode="&#xe0;" horiz-adv-x="1337" 
d="M575 1024c36.667 0 71.168 -5.16895 103.501 -15.502s58 -23.333 77 -39s35.667 -31 50 -46s24.5 -27.833 30.5 -38.5l8 -15l28 134h471l-213 -1004h-471l23 113c-8 -9.33301 -19.5 -21.666 -34.5 -36.999s-47.833 -35.166 -98.5 -59.499s-103.334 -36.5 -158.001 -36.5
c-96.667 0 -177.167 39.167 -241.5 117.5s-96.5 176.166 -96.5 293.499c0 188.667 53.5 341.334 160.5 458.001s227.5 175 361.5 175zM680.001 603.998c-34 0 -63 -12.001 -87 -36.001s-36 -53.667 -36 -89c0 -23.333 8.16699 -42.5 24.5 -57.5s37.5 -22.5 63.5 -22.5
c34 0 63 11.333 87 34s36 52.334 36 89.001c0 24.667 -7.83301 44.5 -23.5 59.5s-37.167 22.5 -64.5 22.5zM877.001 1495l116 -369h-405l-197 369h486z" />
    <glyph glyph-name="aacute" unicode="&#xe1;" horiz-adv-x="1337" 
d="M575 1024c36.667 0 71.168 -5.16895 103.501 -15.502s58 -23.333 77 -39s35.667 -31 50 -46s24.5 -27.833 30.5 -38.5l8 -15l28 134h471l-213 -1004h-471l23 113c-8 -9.33301 -19.5 -21.666 -34.5 -36.999s-47.833 -35.166 -98.5 -59.499s-103.334 -36.5 -158.001 -36.5
c-96.667 0 -177.167 39.167 -241.5 117.5s-96.5 176.166 -96.5 293.499c0 188.667 53.5 341.334 160.5 458.001s227.5 175 361.5 175zM680.001 603.998c-34 0 -63 -12.001 -87 -36.001s-36 -53.667 -36 -89c0 -23.333 8.16699 -42.5 24.5 -57.5s37.5 -22.5 63.5 -22.5
c34 0 63 11.333 87 34s36 52.334 36 89.001c0 24.667 -7.83301 44.5 -23.5 59.5s-37.167 22.5 -64.5 22.5zM553.001 1126l266 369h514l-356 -369h-424z" />
    <glyph glyph-name="acircumflex" unicode="&#xe2;" horiz-adv-x="1337" 
d="M575 1024c36.667 0 71.168 -5.16895 103.501 -15.502s58 -23.333 77 -39s35.667 -31 50 -46s24.5 -27.833 30.5 -38.5l8 -15l28 134h471l-213 -1004h-471l23 113c-8 -9.33301 -19.5 -21.666 -34.5 -36.999s-47.833 -35.166 -98.5 -59.499s-103.334 -36.5 -158.001 -36.5
c-96.667 0 -177.167 39.167 -241.5 117.5s-96.5 176.166 -96.5 293.499c0 188.667 53.5 341.334 160.5 458.001s227.5 175 361.5 175zM680.001 603.998c-34 0 -63 -12.001 -87 -36.001s-36 -53.667 -36 -89c0 -23.333 8.16699 -42.5 24.5 -57.5s37.5 -22.5 63.5 -22.5
c34 0 63 11.333 87 34s36 52.334 36 89.001c0 24.667 -7.83301 44.5 -23.5 59.5s-37.167 22.5 -64.5 22.5zM1069 1495l227 -369h-407l-60 123l-104 -123h-453l387 369h410z" />
    <glyph glyph-name="atilde" unicode="&#xe3;" horiz-adv-x="1337" 
d="M575 1024c36.667 0 71.168 -5.16895 103.501 -15.502s58 -23.333 77 -39s35.667 -31 50 -46s24.5 -27.833 30.5 -38.5l8 -15l28 134h471l-213 -1004h-471l23 113c-8 -9.33301 -19.5 -21.666 -34.5 -36.999s-47.833 -35.166 -98.5 -59.499s-103.334 -36.5 -158.001 -36.5
c-96.667 0 -177.167 39.167 -241.5 117.5s-96.5 176.166 -96.5 293.499c0 188.667 53.5 341.334 160.5 458.001s227.5 175 361.5 175zM680.001 603.998c-34 0 -63 -12.001 -87 -36.001s-36 -53.667 -36 -89c0 -23.333 8.16699 -42.5 24.5 -57.5s37.5 -22.5 63.5 -22.5
c34 0 63 11.333 87 34s36 52.334 36 89.001c0 24.667 -7.83301 44.5 -23.5 59.5s-37.167 22.5 -64.5 22.5zM975.001 1495h287l-27 -123c-18 -82 -50.833 -146.833 -98.5 -194.5s-102.167 -71.5 -163.5 -71.5c-46.667 0 -92.167 12 -136.5 36s-71.833 36 -82.5 36
c-40.667 0 -66.667 -24 -78 -72h-287l27 123c18 82 50.833 146.833 98.5 194.5s102.167 71.5 163.5 71.5c46.667 0 92.167 -12 136.5 -36s71.833 -36 82.5 -36c41.333 0 67.333 24 78 72z" />
    <glyph glyph-name="adieresis" unicode="&#xe4;" horiz-adv-x="1341" 
d="M575 1024c36.667 0 71.168 -5.16895 103.501 -15.502s58 -23.333 77 -39s35.667 -31 50 -46s24.5 -27.833 30.5 -38.5l8 -15l28 134h471l-213 -1004h-471l23 113c-8 -9.33301 -19.5 -21.666 -34.5 -36.999s-47.833 -35.166 -98.5 -59.499s-103.334 -36.5 -158.001 -36.5
c-96.667 0 -177.167 39.167 -241.5 117.5s-96.5 176.166 -96.5 293.499c0 188.667 53.5 341.334 160.5 458.001s227.5 175 361.5 175zM680.001 603.998c-34 0 -63 -12.001 -87 -36.001s-36 -53.667 -36 -89c0 -23.333 8.16699 -42.5 24.5 -57.5s37.5 -22.5 63.5 -22.5
c34 0 63 11.333 87 34s36 52.334 36 89.001c0 24.667 -7.83301 44.5 -23.5 59.5s-37.167 22.5 -64.5 22.5zM377.001 1307c0 60 25.168 113.166 75.501 159.499s108.5 69.5 174.5 69.5c58.667 0 108.167 -19.5 148.5 -58.5s60.5 -85.167 60.5 -138.5
c0 -61.333 -25.333 -115.5 -76 -162.5s-109.334 -70.5 -176.001 -70.5c-60 0 -109.5 19.833 -148.5 59.5s-58.5 86.834 -58.5 141.501zM889.002 1307c0 60 25.168 113.166 75.501 159.499s108.5 69.5 174.5 69.5c58.667 0 108.167 -19.5 148.5 -58.5
s60.5 -85.167 60.5 -138.5c0 -61.333 -25.333 -115.5 -76 -162.5s-109.334 -70.5 -176.001 -70.5c-60 0 -109.5 19.833 -148.5 59.5s-58.5 86.834 -58.5 141.501z" />
    <glyph glyph-name="aring" unicode="&#xe5;" horiz-adv-x="1337" 
d="M575 1024c36.667 0 71.168 -5.16895 103.501 -15.502s58 -23.333 77 -39s35.667 -31 50 -46s24.5 -27.833 30.5 -38.5l8 -15l28 134h471l-213 -1004h-471l23 113c-8 -9.33301 -19.5 -21.666 -34.5 -36.999s-47.833 -35.166 -98.5 -59.499s-103.334 -36.5 -158.001 -36.5
c-96.667 0 -177.167 39.167 -241.5 117.5s-96.5 176.166 -96.5 293.499c0 188.667 53.5 341.334 160.5 458.001s227.5 175 361.5 175zM680.001 603.998c-34 0 -63 -12.001 -87 -36.001s-36 -53.667 -36 -89c0 -23.333 8.16699 -42.5 24.5 -57.5s37.5 -22.5 63.5 -22.5
c34 0 63 11.333 87 34s36 52.334 36 89.001c0 24.667 -7.83301 44.5 -23.5 59.5s-37.167 22.5 -64.5 22.5zM817.001 1300c20.667 0 39.5 8.33301 56.5 25s25.5 35.667 25.5 57c0 18 -5.83301 32.833 -17.5 44.5s-27.667 17.5 -48 17.5s-39 -8.16699 -56 -24.5
s-25.5 -35.5 -25.5 -57.5c0 -18 5.66699 -32.833 17 -44.5s27.333 -17.5 48 -17.5zM852.001 1659c83.333 0 152 -25.999 206 -77.999s81 -113.333 81 -184c0 -84.667 -33.167 -157.834 -99.5 -219.501s-146.5 -92.5 -240.5 -92.5c-83.333 0 -152 26 -206 78
s-81 113.667 -81 185c0 84.667 33.167 157.667 99.5 219s146.5 92 240.5 92z" />
    <glyph glyph-name="ae" unicode="&#xe6;" horiz-adv-x="1730" 
d="M330 -31c-110.667 0 -198.5 25.335 -263.5 76.002s-97.5 116.334 -97.5 197.001c0 91.333 37.333 166.666 112 225.999s171.334 101.333 290.001 126l254 51c-12 34 -45.667 51 -101 51c-30 0 -61.333 -6.16699 -94 -18.5s-57.334 -24.5 -74.001 -36.5l-26 -18l-166 225
c4 5.33301 10.5 12.166 19.5 20.499s27.5 23 55.5 44s57.333 39.667 88 56s69.834 31.333 117.501 45s95.5 20.5 143.5 20.5c60 0 113.167 -11.167 159.5 -33.5s77.833 -44.5 94.5 -66.5l24 -33c10.667 9.33301 26.667 21.666 48 36.999s63.833 35.166 127.5 59.499
s127.5 36.5 191.5 36.5c143.333 0 258.333 -39.833 345 -119.5s130 -180.5 130 -302.5c0 -36.667 -4.83301 -71.667 -14.5 -105s-18.5 -57.666 -26.5 -72.999l-14 -24h-606c1.33301 -5.33301 3.66602 -12.166 6.99902 -20.499s16.833 -19 40.5 -32s55.5 -19.5 95.5 -19.5
c27.333 0 57 3.66699 89 11s57.667 15.333 77 24l28 10l99 -307c-12 -8 -29.333 -17.833 -52 -29.5s-67.167 -27.5 -133.5 -47.5s-131.5 -30 -195.5 -30c-48 0 -92.5 5.16699 -133.5 15.5s-73.333 23 -97 38s-44.5 30.333 -62.5 46s-30.333 28.167 -37 37.5l-10 17
c-4 -4 -10.167 -9.5 -18.5 -16.5s-26.5 -19.333 -54.5 -37s-57.333 -33.334 -88 -47.001s-70.5 -26 -119.5 -37s-99.5 -16.5 -151.5 -16.5zM1175.5 717.002c-25.667 0 -49.833 -9.16699 -72.5 -27.5s-40 -43.5 -52 -75.5h204c1.33301 30 -5.16699 54.667 -19.5 74
s-34.333 29 -60 29zM461.001 307.002c27.333 0 51.834 10.668 73.501 32.001s36.834 51.666 45.501 90.999l-86 -20c-44 -12 -68.667 -32.667 -74 -62c-2.66699 -10.667 -0.333984 -20.167 6.99902 -28.5s18.666 -12.5 33.999 -12.5z" />
    <glyph glyph-name="ccedilla" unicode="&#xe7;" horiz-adv-x="1136" 
d="M705 614c-39.333 0 -74.5 -11.498 -105.5 -34.498s-46.5 -54.5 -46.5 -94.5c0 -26 11.333 -48.5 34 -67.5s51 -28.5 85 -28.5c27.333 0 55 6.16699 83 18.5s49.333 25.166 64 38.499l21 19l219 -287c-5.33301 -5.33301 -12.5 -12.833 -21.5 -22.5s-29.167 -26 -60.5 -49
s-64.5 -43.833 -99.5 -62.5s-80.167 -35.5 -135.5 -50.5s-112.333 -23.167 -171 -24.5l-36 -51c5.33301 -1.33301 12.333 -3.33301 21 -6s25 -9.5 49 -20.5s44.833 -23.667 62.5 -38s33.667 -34.5 48 -60.5s21.5 -54 21.5 -84c0 -78 -30 -141.167 -90 -189.5
s-142 -72.5 -246 -72.5c-54.667 0 -106.834 8.5 -156.501 25.5s-86.167 34.5 -109.5 52.5l-35 24l144 170c35.333 -31.333 73.333 -47 114 -47c22 0 39.5 4.83301 52.5 14.5s19.5 20.5 19.5 32.5c0 23.333 -14.333 35 -43 35l-43 -10l-53 92l106 160
c-104 31.333 -187.333 88 -250 170s-94 172 -94 270c0 166.667 64.5 308 193.5 424s288.5 174 478.5 174c58.667 0 115 -7.5 169 -22.5s98 -33 132 -54s64 -41.833 90 -62.5s44.333 -38.334 55 -53.001l17 -23l-332 -282c-39.333 51.333 -89.666 77 -150.999 77z" />
    <glyph glyph-name="egrave" unicode="&#xe8;" horiz-adv-x="1228" 
d="M1151 410h-605.999c34 -48 85.667 -72 155 -72c27.333 0 56.5 3.33301 87.5 10s55.167 13.667 72.5 21l25 10l96 -303c-10.667 -8 -26.667 -17.833 -48 -29.5s-67.833 -27.5 -139.5 -47.5s-145.834 -30 -222.501 -30c-154 0 -278.833 46.167 -374.5 138.5
s-143.5 201.166 -143.5 326.499c0 170.667 63.833 313.334 191.5 428.001s282.5 172 464.5 172c142 0 260.333 -39.833 355 -119.5s142 -177.5 142 -293.5c0 -38 -4.33301 -74.833 -13 -110.5s-18 -61.167 -28 -76.5zM661.501 717c-25.667 0 -49.833 -9.16699 -72.5 -27.5
s-40 -43.5 -52 -75.5h204c1.33301 30 -5.16699 54.667 -19.5 74s-34.333 29 -60 29zM825.002 1495l117 -369h-405l-197 369h485z" />
    <glyph glyph-name="eacute" unicode="&#xe9;" horiz-adv-x="1228" 
d="M1151 410h-605.999c34 -48 85.667 -72 155 -72c27.333 0 56.5 3.33301 87.5 10s55.167 13.667 72.5 21l25 10l96 -303c-10.667 -8 -26.667 -17.833 -48 -29.5s-67.833 -27.5 -139.5 -47.5s-145.834 -30 -222.501 -30c-154 0 -278.833 46.167 -374.5 138.5
s-143.5 201.166 -143.5 326.499c0 170.667 63.833 313.334 191.5 428.001s282.5 172 464.5 172c142 0 260.333 -39.833 355 -119.5s142 -177.5 142 -293.5c0 -38 -4.33301 -74.833 -13 -110.5s-18 -61.167 -28 -76.5zM661.501 717c-25.667 0 -49.833 -9.16699 -72.5 -27.5
s-40 -43.5 -52 -75.5h204c1.33301 30 -5.16699 54.667 -19.5 74s-34.333 29 -60 29zM508.002 1126l266 369h514l-356 -369h-424z" />
    <glyph glyph-name="ecircumflex" unicode="&#xea;" horiz-adv-x="1228" 
d="M1151 410h-605.999c34 -48 85.667 -72 155 -72c27.333 0 56.5 3.33301 87.5 10s55.167 13.667 72.5 21l25 10l96 -303c-10.667 -8 -26.667 -17.833 -48 -29.5s-67.833 -27.5 -139.5 -47.5s-145.834 -30 -222.501 -30c-154 0 -278.833 46.167 -374.5 138.5
s-143.5 201.166 -143.5 326.499c0 170.667 63.833 313.334 191.5 428.001s282.5 172 464.5 172c142 0 260.333 -39.833 355 -119.5s142 -177.5 142 -293.5c0 -38 -4.33301 -74.833 -13 -110.5s-18 -61.167 -28 -76.5zM661.501 717c-25.667 0 -49.833 -9.16699 -72.5 -27.5
s-40 -43.5 -52 -75.5h204c1.33301 30 -5.16699 54.667 -19.5 74s-34.333 29 -60 29zM1020 1495l227 -369h-407l-60 123l-104 -123h-453l387 369h410z" />
    <glyph glyph-name="edieresis" unicode="&#xeb;" horiz-adv-x="1228" 
d="M1151 410h-605.999c34 -48 85.667 -72 155 -72c27.333 0 56.5 3.33301 87.5 10s55.167 13.667 72.5 21l25 10l96 -303c-10.667 -8 -26.667 -17.833 -48 -29.5s-67.833 -27.5 -139.5 -47.5s-145.834 -30 -222.501 -30c-154 0 -278.833 46.167 -374.5 138.5
s-143.5 201.166 -143.5 326.499c0 170.667 63.833 313.334 191.5 428.001s282.5 172 464.5 172c142 0 260.333 -39.833 355 -119.5s142 -177.5 142 -293.5c0 -38 -4.33301 -74.833 -13 -110.5s-18 -61.167 -28 -76.5zM661.501 717c-25.667 0 -49.833 -9.16699 -72.5 -27.5
s-40 -43.5 -52 -75.5h204c1.33301 30 -5.16699 54.667 -19.5 74s-34.333 29 -60 29zM299.002 1307c0 60 25.334 113.166 76.001 159.499s108.667 69.5 174 69.5c58.667 0 108.167 -19.5 148.5 -58.5s60.5 -85.167 60.5 -138.5c0 -61.333 -25.333 -115.5 -76 -162.5
s-109.334 -70.5 -176.001 -70.5c-60 0 -109.5 19.833 -148.5 59.5s-58.5 86.834 -58.5 141.501zM811.003 1307c0 60 25.334 113.166 76.001 159.499s108.667 69.5 174 69.5c58.667 0 108.167 -19.5 148.5 -58.5s60.5 -85.167 60.5 -138.5
c0 -61.333 -25.333 -115.5 -76 -162.5s-109.334 -70.5 -176.001 -70.5c-60 0 -109.5 19.833 -148.5 59.5s-58.5 86.834 -58.5 141.501z" />
    <glyph glyph-name="igrave" unicode="&#xec;" horiz-adv-x="716" 
d="M555 1495l117 -369h-406l-196 369h485zM705 1004l-213 -1004h-472l213 1004h472z" />
    <glyph glyph-name="iacute" unicode="&#xed;" horiz-adv-x="716" 
d="M274 1126l267 369h514l-357 -369h-424zM705 1004l-213 -1004h-472l213 1004h472z" />
    <glyph glyph-name="icircumflex" unicode="&#xee;" horiz-adv-x="737" 
d="M715 1004l-213 -1004h-471l213 1004h471zM766 1495l227 -369h-407l-60 123l-104 -123h-453l387 369h410z" />
    <glyph glyph-name="idieresis" unicode="&#xef;" horiz-adv-x="716" 
d="M41 1307c0 60 25.334 113.166 76.001 159.499s108.667 69.5 174 69.5c58.667 0 108.167 -19.5 148.5 -58.5s60.5 -85.167 60.5 -138.5c0 -61.333 -25.333 -115.5 -76 -162.5s-109.334 -70.5 -176.001 -70.5c-60 0 -109.5 19.833 -148.5 59.5s-58.5 86.834 -58.5 141.501z
M553.001 1307c0 60 25.334 113.166 76.001 159.499s108.667 69.5 174 69.5c58.667 0 108.167 -19.5 148.5 -58.5s60.5 -85.167 60.5 -138.5c0 -61.333 -25.333 -115.5 -76 -162.5s-109.334 -70.5 -176.001 -70.5c-60 0 -109.5 19.833 -148.5 59.5
s-58.5 86.834 -58.5 141.501zM705.002 1004l-213 -1004h-472l213 1004h472z" />
    <glyph glyph-name="eth" unicode="&#xf0;" horiz-adv-x="1280" 
d="M1257 1393l-153.001 -93.001c4 -5.33301 9.33301 -13 16 -23s19.334 -31.833 38.001 -65.5s34.834 -68.5 48.501 -104.5s26 -81.667 37 -137s16.5 -111 16.5 -167c0 -256.667 -69.667 -459.834 -209 -609.501s-311.333 -224.5 -516 -224.5
c-140.667 0 -258.834 43.333 -354.501 130s-143.5 188 -143.5 304c0 157.333 56.333 288.166 169 392.499s240 156.5 382 156.5c54.667 0 102.5 -6.83301 143.5 -20.5s67.5 -27.167 79.5 -40.5l20 -21c0 40.667 -8.16699 79.834 -24.5 117.501s-32.5 64.834 -48.5 81.501
l-25 27l-196 -113l-117 225l35 21l-97 31l172 327c138 -27.333 257 -64.666 357 -111.999l254 143zM712.999 470.999c5.33301 26 1.16797 47.833 -12.499 65.5s-33.5 26.5 -59.5 26.5s-49.5 -8.83301 -70.5 -26.5s-35.167 -39.5 -42.5 -65.5
c-5.33301 -26 -0.833008 -47.833 13.5 -65.5s34.5 -26.5 60.5 -26.5s49.667 8.83301 71 26.5s34.666 39.5 39.999 65.5z" />
    <glyph glyph-name="ntilde" unicode="&#xf1;" 
d="M684 1004l-24.9971 -115.001c8 9.33301 20 21.5 36 36.5s49.167 35.167 99.5 60.5s102.166 38 155.499 38c82 0 148.667 -26 200 -78s77 -123 77 -213c0 -38 -4.33301 -77.667 -13 -119l-129 -614h-471l105 492c5.33301 20.667 3.16602 39.334 -6.50098 56.001
s-25.834 25 -48.501 25c-20.667 0 -40.167 -9.5 -58.5 -28.5s-30.5 -43.5 -36.5 -73.5l-98 -471h-471l213 1004h471zM948.003 1495h287l-27 -123c-18 -82 -50.833 -146.833 -98.5 -194.5s-102.167 -71.5 -163.5 -71.5c-46.667 0 -92.167 12 -136.5 36s-71.833 36 -82.5 36
c-40.667 0 -66.667 -24 -78 -72h-287l27 123c18 82 50.833 146.833 98.5 194.5s102.167 71.5 163.5 71.5c46.667 0 92.167 -12 136.5 -36s71.833 -36 82.5 -36c41.333 0 67.333 24 78 72z" />
    <glyph glyph-name="ograve" unicode="&#xf2;" 
d="M635 399c28.667 0 54.168 11.999 76.501 35.999s33.5 52.333 33.5 85c0 24.667 -7.5 44.834 -22.5 60.501s-34.5 23.5 -58.5 23.5c-28.667 0 -54.334 -11.5 -77.001 -34.5s-34 -51.167 -34 -84.5c0 -26 7.5 -46.833 22.5 -62.5s34.833 -23.5 59.5 -23.5zM1243 548.999
c0 -157.333 -64.833 -293.333 -194.5 -408s-281.167 -172 -454.5 -172c-164 0 -295.167 47.5 -393.5 142.5s-147.5 210.167 -147.5 345.5c0 154 64.5 288.667 193.5 404s282.5 173 460.5 173c162.667 0 292.667 -47.333 390 -142s146 -209 146 -343zM809.001 1495l117 -369
h-406l-196 369h485z" />
    <glyph glyph-name="oacute" unicode="&#xf3;" 
d="M635 399c28.667 0 54.168 11.999 76.501 35.999s33.5 52.333 33.5 85c0 24.667 -7.5 44.834 -22.5 60.501s-34.5 23.5 -58.5 23.5c-28.667 0 -54.334 -11.5 -77.001 -34.5s-34 -51.167 -34 -84.5c0 -26 7.5 -46.833 22.5 -62.5s34.833 -23.5 59.5 -23.5zM1243 548.999
c0 -157.333 -64.833 -293.333 -194.5 -408s-281.167 -172 -454.5 -172c-164 0 -295.167 47.5 -393.5 142.5s-147.5 210.167 -147.5 345.5c0 154 64.5 288.667 193.5 404s282.5 173 460.5 173c162.667 0 292.667 -47.333 390 -142s146 -209 146 -343zM510.001 1126l266 369
h514l-356 -369h-424z" />
    <glyph glyph-name="ocircumflex" unicode="&#xf4;" 
d="M635 399c28.667 0 54.168 11.999 76.501 35.999s33.5 52.333 33.5 85c0 24.667 -7.5 44.834 -22.5 60.501s-34.5 23.5 -58.5 23.5c-28.667 0 -54.334 -11.5 -77.001 -34.5s-34 -51.167 -34 -84.5c0 -26 7.5 -46.833 22.5 -62.5s34.833 -23.5 59.5 -23.5zM1243 548.999
c0 -157.333 -64.833 -293.333 -194.5 -408s-281.167 -172 -454.5 -172c-164 0 -295.167 47.5 -393.5 142.5s-147.5 210.167 -147.5 345.5c0 154 64.5 288.667 193.5 404s282.5 173 460.5 173c162.667 0 292.667 -47.333 390 -142s146 -209 146 -343zM1008 1495l227 -369
h-408l-59 123l-104 -123h-453l387 369h410z" />
    <glyph glyph-name="otilde" unicode="&#xf5;" 
d="M635 399c28.667 0 54.168 11.999 76.501 35.999s33.5 52.333 33.5 85c0 24.667 -7.5 44.834 -22.5 60.501s-34.5 23.5 -58.5 23.5c-28.667 0 -54.334 -11.5 -77.001 -34.5s-34 -51.167 -34 -84.5c0 -26 7.5 -46.833 22.5 -62.5s34.833 -23.5 59.5 -23.5zM1243 548.999
c0 -157.333 -64.833 -293.333 -194.5 -408s-281.167 -172 -454.5 -172c-164 0 -295.167 47.5 -393.5 142.5s-147.5 210.167 -147.5 345.5c0 154 64.5 288.667 193.5 404s282.5 173 460.5 173c162.667 0 292.667 -47.333 390 -142s146 -209 146 -343zM924.001 1495h286
l-26 -123c-18 -82 -50.833 -146.833 -98.5 -194.5s-102.167 -71.5 -163.5 -71.5c-46.667 0 -92.167 12 -136.5 36s-72.166 36 -83.499 36c-40.667 0 -66.334 -24 -77.001 -72h-287l27 123c18 82 50.833 146.833 98.5 194.5s102.167 71.5 163.5 71.5c46.667 0 92 -12 136 -36
s71.667 -36 83 -36c41.333 0 67.333 24 78 72z" />
    <glyph glyph-name="odieresis" unicode="&#xf6;" 
d="M635 399c28.667 0 54.168 11.999 76.501 35.999s33.5 52.333 33.5 85c0 24.667 -7.5 44.834 -22.5 60.501s-34.5 23.5 -58.5 23.5c-28.667 0 -54.334 -11.5 -77.001 -34.5s-34 -51.167 -34 -84.5c0 -26 7.5 -46.833 22.5 -62.5s34.833 -23.5 59.5 -23.5zM1243 548.999
c0 -157.333 -64.833 -293.333 -194.5 -408s-281.167 -172 -454.5 -172c-164 0 -295.167 47.5 -393.5 142.5s-147.5 210.167 -147.5 345.5c0 154 64.5 288.667 193.5 404s282.5 173 460.5 173c162.667 0 292.667 -47.333 390 -142s146 -209 146 -343zM291.001 1307
c0 60 25.168 113.166 75.501 159.499s108.5 69.5 174.5 69.5c58.667 0 108.167 -19.5 148.5 -58.5s60.5 -85.167 60.5 -138.5c0 -61.333 -25.333 -115.5 -76 -162.5s-109.334 -70.5 -176.001 -70.5c-60 0 -109.5 19.833 -148.5 59.5s-58.5 86.834 -58.5 141.501z
M803.002 1307c0 60 25.168 113.166 75.501 159.499s108.5 69.5 174.5 69.5c58.667 0 108.167 -19.5 148.5 -58.5s60.5 -85.167 60.5 -138.5c0 -61.333 -25.333 -115.5 -76 -162.5s-109.334 -70.5 -176.001 -70.5c-60 0 -109.5 19.833 -148.5 59.5
s-58.5 86.834 -58.5 141.501z" />
    <glyph glyph-name="divide" unicode="&#xf7;" horiz-adv-x="1085" 
d="M1092 758l-66 -307h-963l66 307h963zM918 1042c0 -62.667 -25.999 -115.5 -77.999 -158.5s-112.333 -64.5 -181 -64.5c-76.667 0 -136 17.833 -178 53.5s-63 80.167 -63 133.5c0 61.333 24.833 113.833 74.5 157.5s111.5 65.5 185.5 65.5
c75.333 0 134.166 -17.833 176.499 -53.5s63.5 -80.167 63.5 -133.5zM739.001 201c0 -62.667 -25.832 -115.668 -77.499 -159.001s-111.834 -65 -180.501 -65c-76.667 0 -136 17.833 -178 53.5s-63 80.167 -63 133.5c0 61.333 24.833 113.833 74.5 157.5
s111.5 65.5 185.5 65.5c75.333 0 134 -17.667 176 -53s63 -79.666 63 -132.999z" />
    <glyph glyph-name="oslash" unicode="&#xf8;" 
d="M1243 549c0 -157.333 -64.832 -293.332 -194.499 -407.999s-281.167 -172 -454.5 -172c-109.333 0 -207 23.333 -293 70l-164 -135l-170 213l142 116c-36.667 68 -55.334 142.667 -56.001 224c0 154 64.5 288.667 193.5 404s282.5 173 460.5 173
c106.667 0 202.667 -23 288 -69l164 135l170 -213l-141 -117c36.667 -66.667 55 -140.334 55 -221.001zM432.001 492.001l260 215c-61.333 0 -117 -20.5 -167 -61.5s-81 -92.167 -93 -153.5zM866.001 512.001l-262 -215c61.333 0 117 20.5 167 61.5s81.667 92.167 95 153.5z
" />
    <glyph glyph-name="ugrave" unicode="&#xf9;" horiz-adv-x="1300" 
d="M614 0l23 112.998c-8 -9.33301 -19.167 -21.666 -33.5 -36.999s-46.5 -35.166 -96.5 -59.499s-102.333 -36.5 -157 -36.5c-86 0 -154.5 25.833 -205.5 77.5s-76.5 123.167 -76.5 214.5c0 30 4.66699 69 14 117l131 615h471l-104 -492c-10.667 -54.667 7 -82 53 -82
c48 0 79.333 34 94 102l100 472h471l-213 -1004h-471zM864 1495l117 -369h-406l-196 369h485z" />
    <glyph glyph-name="uacute" unicode="&#xfa;" horiz-adv-x="1300" 
d="M614 0l23 112.998c-8 -9.33301 -19.167 -21.666 -33.5 -36.999s-46.5 -35.166 -96.5 -59.499s-102.333 -36.5 -157 -36.5c-86 0 -154.5 25.833 -205.5 77.5s-76.5 123.167 -76.5 214.5c0 30 4.66699 69 14 117l131 615h471l-104 -492c-10.667 -54.667 7 -82 53 -82
c48 0 79.333 34 94 102l100 472h471l-213 -1004h-471zM549 1126l266 369h514l-356 -369h-424z" />
    <glyph glyph-name="ucircumflex" unicode="&#xfb;" horiz-adv-x="1300" 
d="M614 0l23 112.998c-8 -9.33301 -19.167 -21.666 -33.5 -36.999s-46.5 -35.166 -96.5 -59.499s-102.333 -36.5 -157 -36.5c-86 0 -154.5 25.833 -205.5 77.5s-76.5 123.167 -76.5 214.5c0 30 4.66699 69 14 117l131 615h471l-104 -492c-10.667 -54.667 7 -82 53 -82
c48 0 79.333 34 94 102l100 472h471l-213 -1004h-471zM1047 1495l227 -369h-408l-59 123l-105 -123h-452l387 369h410z" />
    <glyph glyph-name="udieresis" unicode="&#xfc;" horiz-adv-x="1300" 
d="M614 0l23 112.998c-8 -9.33301 -19.167 -21.666 -33.5 -36.999s-46.5 -35.166 -96.5 -59.499s-102.333 -36.5 -157 -36.5c-86 0 -154.5 25.833 -205.5 77.5s-76.5 123.167 -76.5 214.5c0 30 4.66699 69 14 117l131 615h471l-104 -492c-10.667 -54.667 7 -82 53 -82
c48 0 79.333 34 94 102l100 472h471l-213 -1004h-471zM322 1307c0 60 25.167 113.166 75.5 159.499s108.166 69.5 173.499 69.5c58.667 0 108.167 -19.5 148.5 -58.5s60.5 -85.167 60.5 -138.5c0 -61.333 -25.167 -115.5 -75.5 -162.5s-109.166 -70.5 -176.499 -70.5
c-60 0 -109.333 19.833 -148 59.5s-58 86.834 -58 141.501zM834 1307c0 60 25.167 113.166 75.5 159.499s108.166 69.5 173.499 69.5c58.667 0 108.167 -19.5 148.5 -58.5s60.5 -85.167 60.5 -138.5c0 -61.333 -25.167 -115.5 -75.5 -162.5s-109.166 -70.5 -176.499 -70.5
c-60 0 -109.333 19.833 -148 59.5s-58 86.834 -58 141.501z" />
    <glyph glyph-name="yacute" unicode="&#xfd;" horiz-adv-x="1167" 
d="M221 61l-127 943.001h473l15 -469l213 469h503l-579 -1024c-155.333 -273.333 -345 -410 -569 -410c-42 0 -84.333 3.33301 -127 10s-74.334 13.667 -95.001 21l-30 10l86 409c27.333 -13.333 61.333 -20 102 -20c30 0 56.333 5.16699 79 15.5
s37.334 20.166 44.001 29.499zM477 1126l266 369h514l-356 -369h-424z" />
    <glyph glyph-name="thorn" unicode="&#xfe;" horiz-adv-x="1351" 
d="M786 -20c-36.667 0 -71.001 5 -103.001 15s-57.5 22.5 -76.5 37.5s-35.667 30.333 -50 46s-24.5 29.167 -30.5 40.5l-8 14l-119 -563h-471l396 1864h471l-115 -543c8 9.33301 19.5 21.5 34.5 36.5s47.833 34.833 98.5 59.5s103.334 37 158.001 37
c96.667 0 177.167 -39.333 241.5 -118s96.5 -176.667 96.5 -294c0 -188.667 -53.667 -341.167 -161 -457.5s-228 -174.5 -362 -174.5zM681.999 399c34 0 63 11.999 87 35.999s36 53.667 36 89c0 23.333 -8.16699 42.5 -24.5 57.5s-37.5 22.5 -63.5 22.5
c-34 0 -63 -11.167 -87 -33.5s-36 -52.166 -36 -89.499c0 -24.667 7.83301 -44.5 23.5 -59.5s37.167 -22.5 64.5 -22.5z" />
    <glyph glyph-name="ydieresis" unicode="&#xff;" horiz-adv-x="1167" 
d="M221 61l-127 943.001h473l15 -469l213 469h503l-579 -1024c-155.333 -273.333 -345 -410 -569 -410c-42 0 -84.333 3.33301 -127 10s-74.334 13.667 -95.001 21l-30 10l86 409c27.333 -13.333 61.333 -20 102 -20c30 0 56.333 5.16699 79 15.5
s37.334 20.166 44.001 29.499zM246 1307c0 60 25.168 113.166 75.501 159.499s108.5 69.5 174.5 69.5c58.667 0 108.167 -19.5 148.5 -58.5s60.5 -85.167 60.5 -138.5c0 -61.333 -25.333 -115.5 -76 -162.5s-109.334 -70.5 -176.001 -70.5c-60 0 -109.5 19.833 -148.5 59.5
s-58.5 86.834 -58.5 141.501zM758.001 1307c0 60 25.168 113.166 75.501 159.499s108.5 69.5 174.5 69.5c58.667 0 108.167 -19.5 148.5 -58.5s60.5 -85.167 60.5 -138.5c0 -61.333 -25.333 -115.5 -76 -162.5s-109.334 -70.5 -176.001 -70.5
c-60 0 -109.5 19.833 -148.5 59.5s-58.5 86.834 -58.5 141.501z" />
    <glyph glyph-name="Amacron" unicode="&#x100;" horiz-adv-x="1536" 
d="M1280 1434l205 -1434h-559l-11 246h-348l-112 -246h-588l811 1434h602zM895 635l-10 287l-133 -287h143zM1425 1966l-73 -348h-717l74 348h716z" />
    <glyph glyph-name="amacron" unicode="&#x101;" horiz-adv-x="1337" 
d="M575 1024c36.667 0 71.168 -5.16895 103.501 -15.502s58 -23.333 77 -39s35.667 -31 50 -46s24.5 -27.833 30.5 -38.5l8 -15l28 134h471l-213 -1004h-471l23 113c-8 -9.33301 -19.5 -21.666 -34.5 -36.999s-47.833 -35.166 -98.5 -59.499s-103.334 -36.5 -158.001 -36.5
c-96.667 0 -177.167 39.167 -241.5 117.5s-96.5 176.166 -96.5 293.499c0 188.667 53.5 341.334 160.5 458.001s227.5 175 361.5 175zM680.001 603.998c-34 0 -63 -12.001 -87 -36.001s-36 -53.667 -36 -89c0 -23.333 8.16699 -42.5 24.5 -57.5s37.5 -22.5 63.5 -22.5
c34 0 63 11.333 87 34s36 52.334 36 89.001c0 24.667 -7.83301 44.5 -23.5 59.5s-37.167 22.5 -64.5 22.5zM1237 1516l-74 -349h-717l74 349h717z" />
    <glyph glyph-name="Abreve" unicode="&#x102;" horiz-adv-x="1536" 
d="M1280 1434l205 -1434h-559l-11 246h-348l-112 -246h-588l811 1434h602zM895 635l-10 287l-133 -287h143zM1044 1864c44 0 72.666 27.333 85.999 82h328c-22 -106.667 -73.167 -194.834 -153.5 -264.501s-177.833 -104.5 -292.5 -104.5
c-118.667 0 -212.5 35.833 -281.5 107.5s-92.833 158.834 -71.5 261.501h328c-5.33301 -24.667 -2.66602 -44.5 8.00098 -59.5s27 -22.5 49 -22.5z" />
    <glyph glyph-name="abreve" unicode="&#x103;" horiz-adv-x="1337" 
d="M575 1024c36.667 0 71.168 -5.16895 103.501 -15.502s58 -23.333 77 -39s35.667 -31 50 -46s24.5 -27.833 30.5 -38.5l8 -15l28 134h471l-213 -1004h-471l23 113c-8 -9.33301 -19.5 -21.666 -34.5 -36.999s-47.833 -35.166 -98.5 -59.499s-103.334 -36.5 -158.001 -36.5
c-96.667 0 -177.167 39.167 -241.5 117.5s-96.5 176.166 -96.5 293.499c0 188.667 53.5 341.334 160.5 458.001s227.5 175 361.5 175zM680.001 603.998c-34 0 -63 -12.001 -87 -36.001s-36 -53.667 -36 -89c0 -23.333 8.16699 -42.5 24.5 -57.5s37.5 -22.5 63.5 -22.5
c34 0 63 11.333 87 34s36 52.334 36 89.001c0 24.667 -7.83301 44.5 -23.5 59.5s-37.167 22.5 -64.5 22.5zM848.001 1413c44 0 72.667 27.333 86 82h328c-22 -106.667 -73.333 -194.834 -154 -264.501s-178.334 -104.5 -293.001 -104.5
c-118.667 0 -212.5 35.833 -281.5 107.5s-92.5 158.834 -70.5 261.501h328c-5.33301 -24.667 -2.66602 -44.5 8.00098 -59.5s27 -22.5 49 -22.5z" />
    <glyph glyph-name="Aogonek" unicode="&#x104;" horiz-adv-x="1536" 
d="M926 0l-11 246h-348l-112 -246h-588l811 1434h602l205 -1434h-395c-58.667 -86 -88.334 -161 -89.001 -225c0 -40.667 22.667 -61.334 68 -62.001c12 0 25.167 2.83301 39.5 8.5s25.833 11.167 34.5 16.5l14 6l-51 -236c-60 -27.333 -134.333 -40.666 -223 -39.999
c-69.333 0 -124.666 19 -165.999 57s-62 86.333 -62 145c0 56 22.667 111.333 68 166s90.333 95.667 135 123zM895 635l-10 287l-133 -287h143z" />
    <glyph glyph-name="aogonek" unicode="&#x105;" horiz-adv-x="1337" 
d="M659 0l23.002 112.998c-8 -9.33301 -19.5 -21.666 -34.5 -36.999s-47.833 -35.166 -98.5 -59.499s-103.334 -36.5 -158.001 -36.5c-96.667 0 -177.167 39.167 -241.5 117.5s-96.5 176.166 -96.5 293.499c0 188.667 53.667 341.334 161 458.001s227.666 175 360.999 175
c36.667 0 71.167 -5.16699 103.5 -15.5s58 -23.333 77 -39s35.667 -31 50 -46s24.5 -27.833 30.5 -38.5l8 -15l28 134h471l-213 -1004h-307c-58.667 -86 -88 -161 -88 -225c0 -40.667 22.667 -61.334 68 -62.001c12 0 25.167 2.83301 39.5 8.5s25.833 11.167 34.5 16.5l14 6
l-51 -236c-60 -27.333 -134.667 -40.666 -224 -39.999c-69.333 0 -124.5 19 -165.5 57s-61.5 86.333 -61.5 145c0 56 22.5 111.333 67.5 166s90.167 95.667 135.5 123zM680.002 603.998c-34 0 -63 -12.001 -87 -36.001s-36 -53.667 -36 -89
c0 -23.333 8.16699 -42.5 24.5 -57.5s37.5 -22.5 63.5 -22.5c34 0 63 11.333 87 34s36 52.334 36 89.001c0 24.667 -7.83301 44.5 -23.5 59.5s-37.167 22.5 -64.5 22.5z" />
    <glyph glyph-name="Cacute" unicode="&#x106;" horiz-adv-x="1546" 
d="M1239 571l257.997 -340l-28.5 -28.5c-12.333 -12.333 -40.333 -34.166 -84 -65.499s-89.667 -59 -138 -83s-110.833 -45.833 -187.5 -65.5s-155.334 -29.5 -236.001 -29.5c-202 0 -372.333 65.833 -511 197.5s-208 285.5 -208 461.5c0 240 88.833 442.833 266.5 608.5
s400.834 248.5 669.501 248.5c80.667 0 157.834 -10 231.501 -30s134.5 -44 182.5 -72s90.333 -56 127 -84s63.334 -52 80.001 -72l25 -29l-381 -322c-2.66699 4 -7.16699 9.16699 -13.5 15.5s-19.333 17.333 -39 33s-40.5 29.667 -62.5 42s-49.667 23.333 -83 33
s-67 14.5 -101 14.5c-96.667 0 -180.667 -32.833 -252 -98.5s-107 -142.167 -107 -229.5c0 -66.667 25 -124.334 75 -173.001s112.333 -73 187 -73c54.667 0 109.334 11.667 164.001 35s95.667 47.333 123 72zM845.997 1577l266 369h514l-356 -369h-424z" />
    <glyph glyph-name="cacute" unicode="&#x107;" horiz-adv-x="1136" 
d="M705 614c-39.333 0 -74.501 -11.4961 -105.501 -34.4961s-46.5 -54.5 -46.5 -94.5c0 -26 11.333 -48.5 34 -67.5s51 -28.5 85 -28.5c27.333 0 55 6.16699 83 18.5s49.333 25.166 64 38.499l21 19l219 -287c-5.33301 -5.33301 -12.5 -12.833 -21.5 -22.5
s-29.5 -26.334 -61.5 -50.001s-65.833 -44.834 -101.5 -63.501s-81.5 -35.5 -137.5 -50.5s-113.333 -22.5 -172 -22.5c-147.333 0 -269.5 46.833 -366.5 140.5s-145.5 202.5 -145.5 326.5c0 166.667 64.5 308 193.5 424s288.5 174 478.5 174c58.667 0 115 -7.5 169 -22.5
s98 -33 132 -54s64 -41.833 90 -62.5s44.333 -38.334 55 -53.001l17 -23l-332 -282c-39.333 51.333 -89.666 77 -150.999 77zM517.999 1126l266 369h514l-356 -369h-424z" />
    <glyph glyph-name="Ccircumflex" unicode="&#x108;" horiz-adv-x="1546" 
d="M1239 571l257.997 -340l-28.5 -28.5c-12.333 -12.333 -40.333 -34.166 -84 -65.499s-89.667 -59 -138 -83s-110.833 -45.833 -187.5 -65.5s-155.334 -29.5 -236.001 -29.5c-202 0 -372.333 65.833 -511 197.5s-208 285.5 -208 461.5c0 240 88.833 442.833 266.5 608.5
s400.834 248.5 669.501 248.5c80.667 0 157.834 -10 231.501 -30s134.5 -44 182.5 -72s90.333 -56 127 -84s63.334 -52 80.001 -72l25 -29l-381 -322c-2.66699 4 -7.16699 9.16699 -13.5 15.5s-19.333 17.333 -39 33s-40.5 29.667 -62.5 42s-49.667 23.333 -83 33
s-67 14.5 -101 14.5c-96.667 0 -180.667 -32.833 -252 -98.5s-107 -142.167 -107 -229.5c0 -66.667 25 -124.334 75 -173.001s112.333 -73 187 -73c54.667 0 109.334 11.667 164.001 35s95.667 47.333 123 72zM1350 1946l227 -369h-408l-59 123l-104 -123h-453l387 369h410z
" />
    <glyph glyph-name="ccircumflex" unicode="&#x109;" horiz-adv-x="1136" 
d="M705 614c-39.333 0 -74.501 -11.4961 -105.501 -34.4961s-46.5 -54.5 -46.5 -94.5c0 -26 11.333 -48.5 34 -67.5s51 -28.5 85 -28.5c27.333 0 55 6.16699 83 18.5s49.333 25.166 64 38.499l21 19l219 -287c-5.33301 -5.33301 -12.5 -12.833 -21.5 -22.5
s-29.5 -26.334 -61.5 -50.001s-65.833 -44.834 -101.5 -63.501s-81.5 -35.5 -137.5 -50.5s-113.333 -22.5 -172 -22.5c-147.333 0 -269.5 46.833 -366.5 140.5s-145.5 202.5 -145.5 326.5c0 166.667 64.5 308 193.5 424s288.5 174 478.5 174c58.667 0 115 -7.5 169 -22.5
s98 -33 132 -54s64 -41.833 90 -62.5s44.333 -38.334 55 -53.001l17 -23l-332 -282c-39.333 51.333 -89.666 77 -150.999 77zM1012 1495l227 -369h-408l-59 123l-104 -123h-453l387 369h410z" />
    <glyph glyph-name="Ccaron" unicode="&#x10c;" horiz-adv-x="1546" 
d="M1239 571l257.997 -340l-28.5 -28.5c-12.333 -12.333 -40.333 -34.166 -84 -65.499s-89.667 -59 -138 -83s-110.833 -45.833 -187.5 -65.5s-155.334 -29.5 -236.001 -29.5c-202 0 -372.333 65.833 -511 197.5s-208 285.5 -208 461.5c0 240 88.833 442.833 266.5 608.5
s400.834 248.5 669.501 248.5c80.667 0 157.834 -10 231.501 -30s134.5 -44 182.5 -72s90.333 -56 127 -84s63.334 -52 80.001 -72l25 -29l-381 -322c-2.66699 4 -7.16699 9.16699 -13.5 15.5s-19.333 17.333 -39 33s-40.5 29.667 -62.5 42s-49.667 23.333 -83 33
s-67 14.5 -101 14.5c-96.667 0 -180.667 -32.833 -252 -98.5s-107 -142.167 -107 -229.5c0 -66.667 25 -124.334 75 -173.001s112.333 -73 187 -73c54.667 0 109.334 11.667 164.001 35s95.667 47.333 123 72zM853.997 1577l-227 369h407l60 -123l104 123h453l-387 -369
h-410z" />
    <glyph glyph-name="ccaron" unicode="&#x10d;" horiz-adv-x="1136" 
d="M705 614c-39.333 0 -74.501 -11.4961 -105.501 -34.4961s-46.5 -54.5 -46.5 -94.5c0 -26 11.333 -48.5 34 -67.5s51 -28.5 85 -28.5c27.333 0 55 6.16699 83 18.5s49.333 25.166 64 38.499l21 19l219 -287c-5.33301 -5.33301 -12.5 -12.833 -21.5 -22.5
s-29.5 -26.334 -61.5 -50.001s-65.833 -44.834 -101.5 -63.501s-81.5 -35.5 -137.5 -50.5s-113.333 -22.5 -172 -22.5c-147.333 0 -269.5 46.833 -366.5 140.5s-145.5 202.5 -145.5 326.5c0 166.667 64.5 308 193.5 424s288.5 174 478.5 174c58.667 0 115 -7.5 169 -22.5
s98 -33 132 -54s64 -41.833 90 -62.5s44.333 -38.334 55 -53.001l17 -23l-332 -282c-39.333 51.333 -89.666 77 -150.999 77zM544.999 1126l-228 369h408l59 -123l105 123h452l-387 -369h-409z" />
    <glyph glyph-name="Dcaron" unicode="&#x10e;" horiz-adv-x="1597" 
d="M1610 817c0 -232 -89.833 -426.167 -269.5 -582.5s-395.167 -234.5 -646.5 -234.5h-643l303 1434h547c204.667 0 374 -61.167 508 -183.5s201 -266.833 201 -433.5zM682 471h70.001c86 0 160 28.667 222 86s93 125 93 203c0 57.333 -20.833 105.5 -62.5 144.5
s-97.834 58.5 -168.501 58.5h-50zM737.001 1577l-227 369h408l59 -123l104 123h453l-387 -369h-410z" />
    <glyph glyph-name="dcaron" unicode="&#x10f;" horiz-adv-x="1576" 
d="M571 1024c36.667 0 71.1689 -5.16895 103.502 -15.502s58 -23.333 77 -39s35.667 -31 50 -46s24.166 -27.833 29.499 -38.5l9 -15l118 564h472l-304 -1434h-471l23 113c-8 -9.33301 -19.5 -21.666 -34.5 -36.999s-47.833 -35.166 -98.5 -59.499
s-103.334 -36.5 -158.001 -36.5c-96.667 0 -177.167 39.167 -241.5 117.5s-96.5 176.166 -96.5 293.499c0 188.667 53.5 341.334 160.5 458.001s227.5 175 361.5 175zM676.002 603.998c-34 0 -63 -12.001 -87 -36.001s-36 -53.667 -36 -89
c0 -23.333 8.16699 -42.5 24.5 -57.5s37.5 -22.5 63.5 -22.5c34 0 63 11.333 87 34s36 52.334 36 89.001c0 24.667 -7.83301 44.5 -23.5 59.5s-37.167 22.5 -64.5 22.5zM1380 1065l193 369h461l-252 -369h-402z" />
    <glyph glyph-name="Dcroat" unicode="&#x110;" horiz-adv-x="1628" 
d="M709 451h70.999c87.333 0 162.5 30 225.5 90s94.5 135 94.5 225c0 62.667 -20.167 114.5 -60.5 155.5s-93.166 61.5 -158.499 61.5h-58l-18 -82h153l-77 -369h-154zM1640 817c0 -232 -89.6689 -426.167 -269.002 -582.5s-394.666 -234.5 -645.999 -234.5h-643l113 532
h-134l78 369h133l113 533h547c204.667 0 373.834 -61.167 507.501 -183.5s200.5 -266.833 200.5 -433.5z" />
    <glyph glyph-name="dcroat" unicode="&#x111;" horiz-adv-x="1351" 
d="M1448 942h-143l-199 -942h-471l22 113c-6.66699 -9.33301 -16.5 -21.666 -29.5 -36.999s-44 -35.166 -93 -59.499s-102.833 -36.5 -161.5 -36.5c-100 0 -183.333 39.167 -250 117.5s-100 172.166 -100 281.499c0 151.333 51.5 279.666 154.5 384.999
s217.833 158 344.5 158c60 0 113 -13 159 -39s77 -51.333 93 -76l23 -39l37 174h-185l84 389h185l20 103h471l-20 -103h143zM647 553c-34 0 -63.333 -11.999 -88 -35.999s-37 -53.667 -37 -89c0 -23.333 7.83301 -42.5 23.5 -57.5s36.5 -22.5 62.5 -22.5
c36.667 0 66.667 11.667 90 35s35 54 35 92c0 23.333 -7.83301 42.166 -23.5 56.499s-36.5 21.5 -62.5 21.5z" />
    <glyph glyph-name="Emacron" unicode="&#x112;" horiz-adv-x="1423" 
d="M674 430h665l-90 -430h-1198l303 1434h1178l-90 -430h-645l-21 -93h481l-81 -389h-482zM1389 1966l-74 -348h-717l74 348h717z" />
    <glyph glyph-name="emacron" unicode="&#x113;" horiz-adv-x="1228" 
d="M1151 410h-605.999c34 -48 85.667 -72 155 -72c27.333 0 56.5 3.33301 87.5 10s55.167 13.667 72.5 21l25 10l96 -303c-10.667 -8 -26.667 -17.833 -48 -29.5s-67.833 -27.5 -139.5 -47.5s-145.834 -30 -222.501 -30c-154 0 -278.833 46.167 -374.5 138.5
s-143.5 201.166 -143.5 326.499c0 170.667 63.833 313.334 191.5 428.001s282.5 172 464.5 172c142 0 260.333 -39.833 355 -119.5s142 -177.5 142 -293.5c0 -38 -4.33301 -74.833 -13 -110.5s-18 -61.167 -28 -76.5zM661.501 717c-25.667 0 -49.833 -9.16699 -72.5 -27.5
s-40 -43.5 -52 -75.5h204c1.33301 30 -5.16699 54.667 -19.5 74s-34.333 29 -60 29zM1186 1495l-74 -348h-717l74 348h717z" />
    <glyph glyph-name="Edotaccent" unicode="&#x116;" horiz-adv-x="1423" 
d="M674 430h665l-90 -430h-1198l303 1434h1178l-90 -430h-645l-21 -93h481l-81 -389h-482zM723 1737c0 68 26.667 126.667 80 176s117.5 74 192.5 74s135 -19.833 180 -59.5s67.5 -87.5 67.5 -143.5c0 -68 -26 -126.333 -78 -175s-116.667 -73 -194 -73
c-75.333 0 -135.5 19.5 -180.5 58.5s-67.5 86.5 -67.5 142.5z" />
    <glyph glyph-name="edotaccent" unicode="&#x117;" horiz-adv-x="1228" 
d="M1151 410h-605.999c34 -48 85.667 -72 155 -72c27.333 0 56.5 3.33301 87.5 10s55.167 13.667 72.5 21l25 10l96 -303c-10.667 -8 -26.667 -17.833 -48 -29.5s-67.833 -27.5 -139.5 -47.5s-145.834 -30 -222.501 -30c-154 0 -278.833 46.167 -374.5 138.5
s-143.5 201.166 -143.5 326.499c0 170.667 63.833 313.334 191.5 428.001s282.5 172 464.5 172c142 0 260.333 -39.833 355 -119.5s142 -177.5 142 -293.5c0 -38 -4.33301 -74.833 -13 -110.5s-18 -61.167 -28 -76.5zM661.501 717c-25.667 0 -49.833 -9.16699 -72.5 -27.5
s-40 -43.5 -52 -75.5h204c1.33301 30 -5.16699 54.667 -19.5 74s-34.333 29 -60 29zM516.002 1307c0 68 26.667 126.5 80 175.5s117.5 73.5 192.5 73.5s135 -19.667 180 -59s67.5 -87 67.5 -143c0 -68 -25.833 -126.333 -77.5 -175s-116.5 -73 -194.5 -73
c-75.333 0 -135.5 19.5 -180.5 58.5s-67.5 86.5 -67.5 142.5z" />
    <glyph glyph-name="Eogonek" unicode="&#x118;" horiz-adv-x="1423" 
d="M1085 0h-1034l303 1434h1178l-90 -430h-645l-21 -93h481l-81 -389h-482l-20 -92h665l-90 -430c-58.667 -86 -88 -161 -88 -225c0 -40.667 22.667 -61.334 68 -62.001c12 0 25.167 2.83301 39.5 8.5s25.833 11.167 34.5 16.5l14 6l-51 -236
c-60 -27.333 -134.667 -40.666 -224 -39.999c-69.333 0 -124.5 19 -165.5 57s-61.5 86.333 -61.5 145c0 56 22.5 111.333 67.5 166s90.167 95.667 135.5 123z" />
    <glyph glyph-name="eogonek" unicode="&#x119;" horiz-adv-x="1228" 
d="M1151 410h-606.001c34 -48 85.667 -72 155 -72c27.333 0 56.5 3.33301 87.5 10s55.167 13.667 72.5 21l25 10l96 -303c-82 -56 -193.333 -90.333 -334 -103c-46.667 -80.667 -69.667 -146.667 -69 -198c0 -40.667 22.333 -61.334 67 -62.001c12 0 25.333 2.83301 40 8.5
s26.667 11.167 36 16.5l12 6l-51 -236c-60 -27.333 -134.333 -40.666 -223 -39.999c-69.333 0 -124.666 19 -165.999 57s-62 86.333 -62 145c0 108 77.333 211.333 232 310c-124 20.667 -223.333 74.167 -298 160.5s-112 184.166 -112 293.499
c0 170.667 63.833 313.334 191.5 428.001s282.5 172 464.5 172c142 0 260.333 -39.833 355 -119.5s142 -177.5 142 -293.5c0 -38 -4.33301 -74.833 -13 -110.5s-18 -61.167 -28 -76.5zM661.499 717c-25.667 0 -49.833 -9.16699 -72.5 -27.5s-40 -43.5 -52 -75.5h204
c1.33301 30 -5.16699 54.667 -19.5 74s-34.333 29 -60 29z" />
    <glyph glyph-name="Ecaron" unicode="&#x11a;" horiz-adv-x="1423" 
d="M674 430h665l-90 -430h-1198l303 1434h1178l-90 -430h-645l-21 -93h481l-81 -389h-482zM741 1577l-227 369h408l59 -123l104 123h453l-387 -369h-410z" />
    <glyph glyph-name="ecaron" unicode="&#x11b;" horiz-adv-x="1228" 
d="M1151 410h-605.999c34 -48 85.667 -72 155 -72c27.333 0 56.5 3.33301 87.5 10s55.167 13.667 72.5 21l25 10l96 -303c-10.667 -8 -26.667 -17.833 -48 -29.5s-67.833 -27.5 -139.5 -47.5s-145.834 -30 -222.501 -30c-154 0 -278.833 46.167 -374.5 138.5
s-143.5 201.166 -143.5 326.499c0 170.667 63.833 313.334 191.5 428.001s282.5 172 464.5 172c142 0 260.333 -39.833 355 -119.5s142 -177.5 142 -293.5c0 -38 -4.33301 -74.833 -13 -110.5s-18 -61.167 -28 -76.5zM661.501 717c-25.667 0 -49.833 -9.16699 -72.5 -27.5
s-40 -43.5 -52 -75.5h204c1.33301 30 -5.16699 54.667 -19.5 74s-34.333 29 -60 29zM524.002 1126l-227 369h408l59 -123l104 123h453l-387 -369h-410z" />
    <glyph glyph-name="Gbreve" unicode="&#x11e;" horiz-adv-x="1658" 
d="M1686 1188l-377.009 -318.001c-8 9.33301 -19.333 21.666 -34 36.999s-47.5 35.333 -98.5 60s-104.5 37 -160.5 37c-101.333 0 -188.166 -33.167 -260.499 -99.5s-108.5 -143.833 -108.5 -232.5c0 -65.333 21.833 -122 65.5 -170s99.834 -72 168.501 -72
c30 0 57.167 2.66699 81.5 8s41.5 11 51.5 17l14 6l21 92h-185l58 266h716l-120 -563c-6.66699 -8 -16.667 -18.5 -30 -31.5s-42.166 -36.667 -86.499 -71s-91.666 -64.666 -141.999 -90.999s-115.166 -50.166 -194.499 -71.499s-161.333 -32 -246 -32
c-200.667 0 -370 66.167 -508 198.5s-207 285.833 -207 460.5c0 238.667 88.167 441.167 264.5 607.5s398.833 249.5 667.5 249.5c80.667 0 157.834 -10 231.501 -30s134.834 -44 183.501 -72s91.334 -56 128.001 -84s63.334 -52 80.001 -72zM1089.99 1864
c44 0 72.667 27.333 86 82h327c-22 -106.667 -73.167 -194.834 -153.5 -264.501s-177.833 -104.5 -292.5 -104.5c-118.667 0 -212.5 35.833 -281.5 107.5s-92.5 158.834 -70.5 261.501h327c-5.33301 -24.667 -2.5 -44.5 8.5 -59.5s27.5 -22.5 49.5 -22.5z" />
    <glyph glyph-name="gbreve" unicode="&#x11f;" horiz-adv-x="1331" 
d="M682 645c-34 0 -62.665 -12.001 -85.998 -36.001s-35 -53.667 -35 -89c0 -23.333 8.16699 -42.5 24.5 -57.5s38.166 -22.5 65.499 -22.5c34 0 62.667 11.333 86 34s35 52.334 35 89.001c0 24.667 -7.83301 44.5 -23.5 59.5s-37.834 22.5 -66.501 22.5zM-60.998 -217.001
l297.003 251.997c5.33301 -5.33301 12.666 -12.166 21.999 -20.499s31.5 -19.666 66.5 -33.999s72.167 -21.5 111.5 -21.5c65.333 0 120.666 17 165.999 51s74 82 86 144l8 41c-6.66699 -9.33301 -16.834 -21.666 -30.501 -36.999s-44 -35.333 -91 -60
s-97.833 -37 -152.5 -37c-96.667 0 -181 39.667 -253 119s-108 173 -108 281c0 158.667 53 292.167 159 400.5s224.333 162.5 355 162.5c58.667 0 110 -13 154 -39s73.333 -51.333 88 -76l23 -39l28 134h471l-178 -840c-38 -180 -118.5 -324 -241.5 -432
s-280.833 -162 -473.5 -162c-62.667 0 -123 7.16699 -181 21.5s-106.167 32 -144.5 53s-71.833 42.167 -100.5 63.5s-49 39.333 -61 54zM844.005 1413c44 0 72.667 27.333 86 82h327c-22 -106.667 -73.167 -194.834 -153.5 -264.501s-177.833 -104.5 -292.5 -104.5
c-118.667 0 -212.5 35.833 -281.5 107.5s-92.5 158.834 -70.5 261.501h327c-5.33301 -24.667 -2.5 -44.5 8.5 -59.5s27.5 -22.5 49.5 -22.5z" />
    <glyph glyph-name="uni0122" unicode="&#x122;" horiz-adv-x="1658" 
d="M1686 1188l-377.009 -318.001c-8 9.33301 -19.333 21.666 -34 36.999s-47.5 35.333 -98.5 60s-104.5 37 -160.5 37c-101.333 0 -188.166 -33.167 -260.499 -99.5s-108.5 -143.833 -108.5 -232.5c0 -65.333 21.833 -122 65.5 -170s99.834 -72 168.501 -72
c30 0 57.167 2.66699 81.5 8s41.5 11 51.5 17l14 6l21 92h-185l58 266h716l-120 -563c-6.66699 -8 -16.667 -18.5 -30 -31.5s-42.166 -36.667 -86.499 -71s-91.666 -64.666 -141.999 -90.999s-115.166 -50.166 -194.499 -71.499s-161.333 -32 -246 -32
c-200.667 0 -370 66.167 -508 198.5s-207 285.833 -207 460.5c0 238.667 88.167 441.167 264.5 607.5s398.833 249.5 667.5 249.5c80.667 0 157.834 -10 231.501 -30s134.834 -44 183.501 -72s91.334 -56 128.001 -84s63.334 -52 80.001 -72zM405.991 -532.001l192 368h461
l-252 -368h-401z" />
    <glyph glyph-name="uni0123" unicode="&#x123;" horiz-adv-x="1331" 
d="M682 645c-34 0 -62.665 -12.001 -85.998 -36.001s-35 -53.667 -35 -89c0 -23.333 8.16699 -42.5 24.5 -57.5s38.166 -22.5 65.499 -22.5c34 0 62.667 11.333 86 34s35 52.334 35 89.001c0 24.667 -7.83301 44.5 -23.5 59.5s-37.834 22.5 -66.501 22.5zM-60.998 -217.001
l297.003 251.997c5.33301 -5.33301 12.666 -12.166 21.999 -20.499s31.5 -19.666 66.5 -33.999s72.167 -21.5 111.5 -21.5c65.333 0 120.666 17 165.999 51s74 82 86 144l8 41c-6.66699 -9.33301 -16.834 -21.666 -30.501 -36.999s-44 -35.333 -91 -60
s-97.833 -37 -152.5 -37c-96.667 0 -181 39.667 -253 119s-108 173 -108 281c0 158.667 53 292.167 159 400.5s224.333 162.5 355 162.5c58.667 0 110 -13 154 -39s73.333 -51.333 88 -76l23 -39l28 134h471l-178 -840c-38 -180 -118.5 -324 -241.5 -432
s-280.833 -162 -473.5 -162c-62.667 0 -123 7.16699 -181 21.5s-106.167 32 -144.5 53s-71.833 42.167 -100.5 63.5s-49 39.333 -61 54zM1214 1495l-198 -369h-459l254 369h403z" />
    <glyph glyph-name="Imacron" unicode="&#x12a;" horiz-adv-x="819" 
d="M51 0l303 1434h533l-303 -1434h-533zM1079 1966l-73 -348h-717l73 348h717z" />
    <glyph glyph-name="imacron" unicode="&#x12b;" horiz-adv-x="716" 
d="M922 1495l-74 -348h-717l74 348h717zM705 1004l-213 -1004h-472l213 1004h472z" />
    <glyph glyph-name="Iogonek" unicode="&#x12e;" horiz-adv-x="819" 
d="M51 0l303.001 1434h533l-303 -1434h-369c-58.667 -86 -88 -161 -88 -225c0 -40.667 22.667 -61.334 68 -62.001c12 0 25.167 2.83301 39.5 8.5s26.166 11.167 35.499 16.5l13 6l-52 -236c-60 -27.333 -134.333 -40.666 -223 -39.999c-69.333 0 -124.5 19 -165.5 57
s-61.5 86.333 -61.5 145c0 56 22.5 111.333 67.5 166s90.167 95.667 135.5 123z" />
    <glyph glyph-name="iogonek" unicode="&#x12f;" horiz-adv-x="716" 
d="M20 0l213 1004h472l-213 -1004h-308c-58.667 -86 -88 -161 -88 -225c0 -40.667 22.667 -61.334 68 -62.001c12 0 25.167 2.83301 39.5 8.5s25.833 11.167 34.5 16.5l14 6l-51 -236c-60 -27.333 -134.667 -40.666 -224 -39.999c-69.333 0 -124.5 19 -165.5 57
s-61.5 86.333 -61.5 145c0 56 22.5 111.333 67.5 166s90.167 95.667 135.5 123zM264 1288c0 68 27.667 126.334 83 175.001s119.333 73 192 73c76.667 0 137 -19.833 181 -59.5s66 -88.167 66 -145.5c0 -66.667 -26.833 -124.334 -80.5 -173.001s-118.167 -73 -193.5 -73
c-76.667 0 -137.167 19.5 -181.5 58.5s-66.5 87.167 -66.5 144.5z" />
    <glyph glyph-name="Idotaccent" unicode="&#x130;" horiz-adv-x="819" 
d="M51 0l303 1434h533l-303 -1434h-533zM416 1737c0 68 26.5 126.667 79.5 176s117.167 74 192.5 74s135.5 -19.833 180.5 -59.5s67.5 -87.5 67.5 -143.5c0 -68 -26 -126.333 -78 -175s-116.667 -73 -194 -73c-75.333 0 -135.5 19.5 -180.5 58.5s-67.5 86.5 -67.5 142.5z
" />
    <glyph glyph-name="dotlessi" unicode="&#x131;" horiz-adv-x="716" 
d="M705 1004l-213 -1004h-472l213 1004h472z" />
    <glyph glyph-name="uni0136" unicode="&#x136;" horiz-adv-x="1576" 
d="M786 459l-135 -142l-67 -317h-533l303 1434h533l-84 -398l377 398h608l-578 -607l316 -827h-568zM348 -532l193 368h460l-251 -368h-402z" />
    <glyph glyph-name="uni0137" unicode="&#x137;" horiz-adv-x="1269" 
d="M594 309l-62 -61l-51 -248h-471l303 1434h471l-139 -658l219 228h527l-424 -437l217 -567h-482zM170 -532l192 368h461l-252 -368h-401z" />
    <glyph glyph-name="Lacute" unicode="&#x139;" 
d="M1157 0h-1106l303 1434h533l-199 -942h574zM434 1577l266 369h514l-356 -369h-424z" />
    <glyph glyph-name="lacute" unicode="&#x13a;" horiz-adv-x="696" 
d="M784 1434l-303 -1434h-471l303 1434h471zM375 1577l266 369h514l-356 -369h-424z" />
    <glyph glyph-name="uni013B" unicode="&#x13b;" 
d="M1157 0h-1106l303 1434h533l-199 -942h574zM174 -532l193 368h460l-252 -368h-401z" />
    <glyph glyph-name="uni013C" unicode="&#x13c;" horiz-adv-x="696" 
d="M784 1434l-303 -1434h-471l303 1434h471zM-211 -532l193 368h460l-252 -368h-401z" />
    <glyph glyph-name="Lcaron" unicode="&#x13d;" 
d="M1157 0h-1106l303 1434h533l-199 -942h574zM872 1065l197 369h463l-254 -369h-406z" />
    <glyph glyph-name="lcaron" unicode="&#x13e;" horiz-adv-x="931" 
d="M784 1434l-303 -1434h-471l303 1434h471zM731 1065l197 369h463l-254 -369h-406z" />
    <glyph glyph-name="Lslash" unicode="&#x141;" horiz-adv-x="1382" 
d="M1249 0h-1106l74 348l-82 -41l-139 400l334 174l116 553h533l-68 -318l82 41l140 -399l-334 -174l-19 -92h574z" />
    <glyph glyph-name="lslash" unicode="&#x142;" horiz-adv-x="880" 
d="M1006 788l-299 -153l-134 -635h-471l76 358l-72 -41l-126 359l299 153l127 605h471l-70 -328l72 41z" />
    <glyph glyph-name="Nacute" unicode="&#x143;" horiz-adv-x="1730" 
d="M1266 1434h532l-303 -1434h-438l-346 604l-127 -604h-533l303 1434h439l346 -605zM817 1577l266 369h514l-356 -369h-424z" />
    <glyph glyph-name="nacute" unicode="&#x144;" 
d="M684 1004l-24.9971 -115.001c8 9.33301 20 21.5 36 36.5s49.167 35.167 99.5 60.5s102.166 38 155.499 38c82 0 148.667 -26 200 -78s77 -123 77 -213c0 -38 -4.33301 -77.667 -13 -119l-129 -614h-471l105 492c5.33301 20.667 3.16602 39.334 -6.50098 56.001
s-25.834 25 -48.501 25c-20.667 0 -40.167 -9.5 -58.5 -28.5s-30.5 -43.5 -36.5 -73.5l-98 -471h-471l213 1004h471zM526.003 1126l267 369h514l-357 -369h-424z" />
    <glyph glyph-name="uni0145" unicode="&#x145;" horiz-adv-x="1730" 
d="M1266 1434h532l-303 -1434h-438l-346 604l-127 -604h-533l303 1434h439l346 -605zM391 -532l193 368h460l-251 -368h-402z" />
    <glyph glyph-name="uni0146" unicode="&#x146;" 
d="M684 1004l-24.9971 -115.001c8 9.33301 20 21.5 36 36.5s49.167 35.167 99.5 60.5s102.166 38 155.499 38c82 0 148.667 -26 200 -78s77 -123 77 -213c0 -38 -4.33301 -77.667 -13 -119l-129 -614h-471l105 492c5.33301 20.667 3.16602 39.334 -6.50098 56.001
s-25.834 25 -48.501 25c-20.667 0 -40.167 -9.5 -58.5 -28.5s-30.5 -43.5 -36.5 -73.5l-98 -471h-471l213 1004h471zM102.003 -532.001l193 368h461l-252 -368h-402z" />
    <glyph glyph-name="Ncaron" unicode="&#x147;" horiz-adv-x="1730" 
d="M1266 1434h532l-303 -1434h-438l-346 604l-127 -604h-533l303 1434h439l346 -605zM860 1577l-227 369h407l60 -123l104 123h453l-387 -369h-410z" />
    <glyph glyph-name="ncaron" unicode="&#x148;" 
d="M684 1004l-24.9971 -115.001c8 9.33301 20 21.5 36 36.5s49.167 35.167 99.5 60.5s102.166 38 155.499 38c82 0 148.667 -26 200 -78s77 -123 77 -213c0 -38 -4.33301 -77.667 -13 -119l-129 -614h-471l105 492c5.33301 20.667 3.16602 39.334 -6.50098 56.001
s-25.834 25 -48.501 25c-20.667 0 -40.167 -9.5 -58.5 -28.5s-30.5 -43.5 -36.5 -73.5l-98 -471h-471l213 1004h471zM530.003 1126l-227 369h408l59 -123l104 123h453l-387 -369h-410z" />
    <glyph glyph-name="Omacron" unicode="&#x14c;" horiz-adv-x="1761" 
d="M1776 786c0 -144.667 -42.332 -281.166 -126.999 -409.499s-197.334 -230 -338.001 -305s-289.667 -112.5 -447 -112.5c-226.667 0 -410 67.167 -550 201.5s-210 297.166 -210 488.499c0 221.333 90.5 414.333 271.5 579s394.5 247 640.5 247c226.667 0 410 -67 550 -201
s210 -296.667 210 -488zM905.001 430.001c83.333 0 158.832 31.332 226.499 93.999s101.5 135.667 101.5 219c0 70.667 -24.667 131.834 -74 183.501s-110 77.5 -182 77.5c-86 0 -162.5 -31.833 -229.5 -95.5s-100.5 -136.5 -100.5 -218.5
c0 -70.667 24.833 -131.667 74.5 -183s110.834 -77 183.501 -77zM1503 1966l-73 -348h-717l73 348h717z" />
    <glyph glyph-name="omacron" unicode="&#x14d;" 
d="M635 399c28.667 0 54.168 11.999 76.501 35.999s33.5 52.333 33.5 85c0 24.667 -7.5 44.834 -22.5 60.501s-34.5 23.5 -58.5 23.5c-28.667 0 -54.334 -11.5 -77.001 -34.5s-34 -51.167 -34 -84.5c0 -26 7.5 -46.833 22.5 -62.5s34.833 -23.5 59.5 -23.5zM1243 548.999
c0 -157.333 -64.833 -293.333 -194.5 -408s-281.167 -172 -454.5 -172c-164 0 -295.167 47.5 -393.5 142.5s-147.5 210.167 -147.5 345.5c0 154 64.5 288.667 193.5 404s282.5 173 460.5 173c162.667 0 292.667 -47.333 390 -142s146 -209 146 -343zM1171 1495l-73 -348
h-717l74 348h716z" />
    <glyph glyph-name="Ohungarumlaut" unicode="&#x150;" horiz-adv-x="1761" 
d="M1776 786c0 -144.667 -42.332 -281.166 -126.999 -409.499s-197.334 -230 -338.001 -305s-289.667 -112.5 -447 -112.5c-226.667 0 -410 67.167 -550 201.5s-210 297.166 -210 488.499c0 221.333 90.5 414.333 271.5 579s394.5 247 640.5 247c226.667 0 410 -67 550 -201
s210 -296.667 210 -488zM905.001 430.001c83.333 0 158.832 31.332 226.499 93.999s101.5 135.667 101.5 219c0 70.667 -24.667 131.834 -74 183.501s-110 77.5 -182 77.5c-86 0 -162.5 -31.833 -229.5 -95.5s-100.5 -136.5 -100.5 -218.5
c0 -70.667 24.833 -131.667 74.5 -183s110.834 -77 183.501 -77zM637 1577l274 369h437l-357 -369h-354zM1128 1577l275 369h436l-356 -369h-355z" />
    <glyph glyph-name="ohungarumlaut" unicode="&#x151;" 
d="M635 399c28.667 0 54.168 11.999 76.501 35.999s33.5 52.333 33.5 85c0 24.667 -7.5 44.834 -22.5 60.501s-34.5 23.5 -58.5 23.5c-28.667 0 -54.334 -11.5 -77.001 -34.5s-34 -51.167 -34 -84.5c0 -26 7.5 -46.833 22.5 -62.5s34.833 -23.5 59.5 -23.5zM1243 548.999
c0 -157.333 -64.833 -293.333 -194.5 -408s-281.167 -172 -454.5 -172c-164 0 -295.167 47.5 -393.5 142.5s-147.5 210.167 -147.5 345.5c0 154 64.5 288.667 193.5 404s282.5 173 460.5 173c162.667 0 292.667 -47.333 390 -142s146 -209 146 -343zM322.001 1126l274 369
h436l-356 -369h-354zM813.001 1126l274 369h437l-357 -369h-354z" />
    <glyph glyph-name="OE" unicode="&#x152;" horiz-adv-x="2099" 
d="M106 616c0 232 90.168 426.333 270.501 583s398.166 235 653.499 235h1178l-90 -430h-584l-21 -93h420l-82 -389h-419l-21 -92h604l-90 -430h-1137c-200.667 0 -364.5 60.667 -491.5 182s-190.5 266 -190.5 434zM866.001 471h21.001l104 492h-30
c-86 0 -159.833 -28.333 -221.5 -85s-92.5 -124 -92.5 -202c0 -57.333 20.167 -105.833 60.5 -145.5s93.166 -59.5 158.499 -59.5z" />
    <glyph glyph-name="oe" unicode="&#x153;" horiz-adv-x="1904" 
d="M1827 410l-604.001 0.00195312c0 -1.33301 0.666992 -3.83301 2 -7.5s5.33301 -9.5 12 -17.5s14.834 -15.167 24.501 -21.5s24.334 -12.166 44.001 -17.499s41.834 -8 66.501 -8c27.333 0 56.666 3.66699 87.999 11s55.333 14.666 72 21.999l27 10l98 -307
c-10.667 -8 -27 -17.833 -49 -29.5s-66.833 -27.167 -134.5 -46.5s-136.334 -29 -206.001 -29s-132.167 11.333 -187.5 34s-93 45 -113 67l-33 32c-10.667 -9.33301 -26.667 -21.5 -48 -36.5s-65.833 -34.833 -133.5 -59.5s-136.167 -37 -205.5 -37
c-143.333 0 -261.5 44.5 -354.5 133.5s-139.5 198.167 -139.5 327.5c0 166.667 61.5 309 184.5 427s276.5 177 460.5 177c69.333 0 132.833 -11.167 190.5 -33.5s97.5 -44.5 119.5 -66.5l32 -33c12 9.33301 28.667 21.666 50 36.999s64.166 35.166 128.499 59.499
s128.5 36.5 192.5 36.5c136.667 0 249.334 -39.5 338.001 -118.5s133 -177.167 133 -294.5c0 -36.667 -4.5 -72.5 -13.5 -107.5s-18.167 -61.5 -27.5 -79.5zM628.999 399.002c31.333 0 58.166 11.999 80.499 35.999s33.5 53 33.5 87c0 23.333 -7.16699 42.833 -21.5 58.5
s-32.166 23.5 -53.499 23.5c-31.333 0 -58.333 -12 -81 -36s-34 -54.333 -34 -91c0 -23.333 7.16699 -42.166 21.5 -56.499s32.5 -21.5 54.5 -21.5zM1350 717.001c-26 0 -50.333 -9.16699 -73 -27.5s-40 -43.5 -52 -75.5h205c1.33301 30 -5.16699 54.667 -19.5 74
s-34.5 29 -60.5 29z" />
    <glyph glyph-name="Racute" unicode="&#x154;" horiz-adv-x="1525" 
d="M1243 489l168.001 -489h-530l-109 389h-106l-82 -389h-533l303 1434h697c157.333 0 282.666 -43.833 375.999 -131.5s140 -193.5 140 -317.5c-1.33301 -224 -109.333 -389.333 -324 -496zM952.001 983l-159 -0.000976562l-31 -143h168c28.667 0 51.5 8.16699 68.5 24.5
s25.5 36.833 25.5 61.5c0 16.667 -6.5 30.334 -19.5 41.001s-30.5 16 -52.5 16zM719.001 1577l266 369h514l-356 -369h-424z" />
    <glyph glyph-name="racute" unicode="&#x155;" horiz-adv-x="901" 
d="M975 1024l-104.999 -492c-24.667 13.333 -57.334 20.333 -98.001 21c-56 0 -104.833 -19.5 -146.5 -58.5s-69.167 -91.167 -82.5 -156.5l-72 -338h-471l213 1004h471l-25 -113c8 9.33301 20 21.5 36 36.5s49.5 34.833 100.5 59.5s103.833 37 158.5 37h21zM377.001 1126
l266 369h514l-356 -369h-424z" />
    <glyph glyph-name="uni0156" unicode="&#x156;" horiz-adv-x="1525" 
d="M1243 489l168.001 -489h-530l-109 389h-106l-82 -389h-533l303 1434h697c157.333 0 282.666 -43.833 375.999 -131.5s140 -193.5 140 -317.5c-1.33301 -224 -109.333 -389.333 -324 -496zM952.001 983l-159 -0.000976562l-31 -143h168c28.667 0 51.5 8.16699 68.5 24.5
s25.5 36.833 25.5 61.5c0 16.667 -6.5 30.334 -19.5 41.001s-30.5 16 -52.5 16zM301.001 -532.001l193 368h460l-252 -368h-401z" />
    <glyph glyph-name="uni0157" unicode="&#x157;" horiz-adv-x="901" 
d="M975 1024l-104.999 -492c-24.667 13.333 -57.334 20.333 -98.001 21c-56 0 -104.833 -19.5 -146.5 -58.5s-69.167 -91.167 -82.5 -156.5l-72 -338h-471l213 1004h471l-25 -113c8 9.33301 20 21.5 36 36.5s49.5 34.833 100.5 59.5s103.833 37 158.5 37h21zM-220.999 -532
l192 368h461l-252 -368h-401z" />
    <glyph glyph-name="Rcaron" unicode="&#x158;" horiz-adv-x="1525" 
d="M1243 489l168.001 -489h-530l-109 389h-106l-82 -389h-533l303 1434h697c157.333 0 282.666 -43.833 375.999 -131.5s140 -193.5 140 -317.5c-1.33301 -224 -109.333 -389.333 -324 -496zM952.001 983l-159 -0.000976562l-31 -143h168c28.667 0 51.5 8.16699 68.5 24.5
s25.5 36.833 25.5 61.5c0 16.667 -6.5 30.334 -19.5 41.001s-30.5 16 -52.5 16zM731.001 1577l-227 369h407l60 -123l104 123h453l-387 -369h-410z" />
    <glyph glyph-name="rcaron" unicode="&#x159;" horiz-adv-x="901" 
d="M975 1024l-104.999 -492c-24.667 13.333 -57.334 20.333 -98.001 21c-56 0 -104.833 -19.5 -146.5 -58.5s-69.167 -91.167 -82.5 -156.5l-72 -338h-471l213 1004h471l-25 -113c8 9.33301 20 21.5 36 36.5s49.5 34.833 100.5 59.5s103.833 37 158.5 37h21zM418.001 1126
l-228 369h408l59 -123l105 123h452l-387 -369h-409z" />
    <glyph glyph-name="Sacute" unicode="&#x15a;" 
d="M1405 1270l-351.999 -298.999c-57.333 49.333 -120.333 73.666 -189 72.999c-61.333 0 -92 -19.667 -92 -59c0 -22 25.667 -45.167 77 -69.5s107.333 -48.833 168 -73.5s116.667 -66.334 168 -125.001s77 -129.667 77 -213c0 -148.667 -58.833 -276.667 -176.5 -384
s-285.5 -161 -503.5 -161c-76.667 0 -150.834 8.5 -222.501 25.5s-131 37.5 -178 61.5s-88.667 48 -125 72s-63.5 44.667 -81.5 62l-24 25l348 295c9.33301 -8 22.166 -18.167 38.499 -30.5s46.833 -28.833 91.5 -49.5s85.334 -31 122.001 -31c74 0 111 22 111 66
c0 16.667 -12.333 32.334 -37 47.001s-55.167 28.834 -91.5 42.501s-75.666 32.167 -117.999 55.5s-81.5 49 -117.5 77s-66.333 65.5 -91 112.5s-37 100.5 -37 160.5c0 143.333 58 266.666 174 369.999s281.333 155 496 155c72.667 0 141.667 -7.16699 207 -21.5
s118.833 -31.5 160.5 -51.5s78.167 -39.833 109.5 -59.5s53.666 -37.167 66.999 -52.5zM633.001 1577l266 369h514l-356 -369h-424z" />
    <glyph glyph-name="sacute" unicode="&#x15b;" horiz-adv-x="1054" 
d="M1083 860l-244.996 -208.996c-32.667 23.333 -66.334 35 -101.001 35c-39.333 0 -59 -13 -59 -39c0 -10.667 15.667 -23.834 47 -39.501s66.166 -31.667 104.499 -48s73.166 -43.333 104.499 -81s47 -82.5 47 -134.5c0 -106.667 -42.667 -195.834 -128 -267.501
s-211.333 -107.5 -378 -107.5c-66.667 0 -130 7.5 -190 22.5s-109.167 33.167 -147.5 54.5s-71.833 42.166 -100.5 62.499s-49.334 38.166 -62.001 53.499l-18 22l244 209c40.667 -50.667 91.667 -76 153 -76c39.333 0 59.333 13 60 39c0 10.667 -10.333 22 -31 34
s-46 24.833 -76 38.5s-60 29.667 -90 48s-55.167 44.5 -75.5 78.5s-30.5 72.333 -30.5 115c0 101.333 43 187.333 129 258s212 106 378 106c94 0 179.667 -14.667 257 -44s131 -58.333 161 -87zM426.004 1126l266 369h514l-356 -369h-424z" />
    <glyph glyph-name="Scedilla" unicode="&#x15e;" 
d="M1405 1270l-351.998 -298.999c-57.333 49.333 -120.333 73.666 -189 72.999c-61.333 0 -92 -19.667 -92 -59c0 -22 25.667 -45.167 77 -69.5s107.333 -48.833 168 -73.5s116.667 -66.334 168 -125.001s77 -129.667 77 -213c0 -146 -57 -272 -171 -378
s-276.333 -161.667 -487 -167l-29 -41c5.33301 -1.33301 12.5 -3.33301 21.5 -6s25.5 -9.5 49.5 -20.5s44.833 -23.667 62.5 -38s33.667 -34.5 48 -60.5s21.5 -54 21.5 -84c0 -78 -30 -141.167 -90 -189.5s-142 -72.5 -246 -72.5c-54.667 0 -106.834 8.5 -156.501 25.5
s-86.167 34.5 -109.5 52.5l-35 24l144 170c35.333 -31.333 73.333 -47 114 -47c22 0 39.5 4.83301 52.5 14.5s19.5 20.5 19.5 32.5c0 23.333 -14.333 35 -43 35l-43 -10l-53 92l90 135c-91.333 15.333 -176.333 42.5 -255 81.5s-134.334 74.167 -167.001 105.5l-49 47
l348 295c9.33301 -8 22.166 -18.167 38.499 -30.5s46.833 -28.833 91.5 -49.5s85.334 -31 122.001 -31c74 0 111 22 111 66c0 16.667 -12.333 32.334 -37 47.001s-55.167 28.834 -91.5 42.501s-75.666 32.167 -117.999 55.5s-81.5 49 -117.5 77s-66.333 65.5 -91 112.5
s-37 100.5 -37 160.5c0 143.333 58 266.666 174 369.999s281.333 155 496 155c72.667 0 141.667 -7.16699 207 -21.5s118.833 -31.5 160.5 -51.5s78.167 -39.833 109.5 -59.5s53.666 -37.167 66.999 -52.5z" />
    <glyph glyph-name="scedilla" unicode="&#x15f;" horiz-adv-x="1054" 
d="M1083 860l-244.995 -208.997c-32.667 23.333 -66.334 35 -101.001 35c-39.333 0 -59 -13 -59 -39c0 -10.667 15.667 -23.834 47 -39.501s66.166 -31.667 104.499 -48s73.166 -43.333 104.499 -81s47 -82.5 47 -134.5c0 -104 -41.333 -191.833 -124 -263.5
s-205.334 -108.834 -368.001 -111.501l-36 -51c5.33301 -1.33301 12.333 -3.33301 21 -6s25 -9.5 49 -20.5s44.833 -23.667 62.5 -38s33.667 -34.5 48 -60.5s21.5 -54 21.5 -84c0 -78 -30 -141.167 -90 -189.5s-142 -72.5 -246 -72.5c-54.667 0 -106.834 8.5 -156.501 25.5
s-86.167 34.5 -109.5 52.5l-35 24l144 170c35.333 -31.333 73.333 -47 114 -47c22 0 39.5 4.83301 52.5 14.5s19.5 20.5 19.5 32.5c0 23.333 -14.333 35 -43 35l-43 -10l-53 92l100 150c-72.667 15.333 -138.167 39.166 -196.5 71.499s-98.5 61.5 -120.5 87.5l-35 39
l244 209c40.667 -50.667 91.667 -76 153 -76c39.333 0 59.333 13 60 39c0 10.667 -10.333 22 -31 34s-46 24.833 -76 38.5s-60 29.667 -90 48s-55.167 44.5 -75.5 78.5s-30.5 72.333 -30.5 115c0 101.333 43 187.333 129 258s212 106 378 106c94 0 179.667 -14.667 257 -44
s131 -58.333 161 -87z" />
    <glyph glyph-name="Scaron" unicode="&#x160;" 
d="M1405 1270l-351.999 -298.999c-57.333 49.333 -120.333 73.666 -189 72.999c-61.333 0 -92 -19.667 -92 -59c0 -22 25.667 -45.167 77 -69.5s107.333 -48.833 168 -73.5s116.667 -66.334 168 -125.001s77 -129.667 77 -213c0 -148.667 -58.833 -276.667 -176.5 -384
s-285.5 -161 -503.5 -161c-76.667 0 -150.834 8.5 -222.501 25.5s-131 37.5 -178 61.5s-88.667 48 -125 72s-63.5 44.667 -81.5 62l-24 25l348 295c9.33301 -8 22.166 -18.167 38.499 -30.5s46.833 -28.833 91.5 -49.5s85.334 -31 122.001 -31c74 0 111 22 111 66
c0 16.667 -12.333 32.334 -37 47.001s-55.167 28.834 -91.5 42.501s-75.666 32.167 -117.999 55.5s-81.5 49 -117.5 77s-66.333 65.5 -91 112.5s-37 100.5 -37 160.5c0 143.333 58 266.666 174 369.999s281.333 155 496 155c72.667 0 141.667 -7.16699 207 -21.5
s118.833 -31.5 160.5 -51.5s78.167 -39.833 109.5 -59.5s53.666 -37.167 66.999 -52.5zM655.001 1577l-227 369h408l59 -123l104 123h453l-387 -369h-410z" />
    <glyph glyph-name="scaron" unicode="&#x161;" horiz-adv-x="1054" 
d="M1083 860l-244.996 -208.996c-32.667 23.333 -66.334 35 -101.001 35c-39.333 0 -59 -13 -59 -39c0 -10.667 15.667 -23.834 47 -39.501s66.166 -31.667 104.499 -48s73.166 -43.333 104.499 -81s47 -82.5 47 -134.5c0 -106.667 -42.667 -195.834 -128 -267.501
s-211.333 -107.5 -378 -107.5c-66.667 0 -130 7.5 -190 22.5s-109.167 33.167 -147.5 54.5s-71.833 42.166 -100.5 62.499s-49.334 38.166 -62.001 53.499l-18 22l244 209c40.667 -50.667 91.667 -76 153 -76c39.333 0 59.333 13 60 39c0 10.667 -10.333 22 -31 34
s-46 24.833 -76 38.5s-60 29.667 -90 48s-55.167 44.5 -75.5 78.5s-30.5 72.333 -30.5 115c0 101.333 43 187.333 129 258s212 106 378 106c94 0 179.667 -14.667 257 -44s131 -58.333 161 -87zM438.004 1126l-227 369h407l60 -123l104 123h453l-387 -369h-410z" />
    <glyph glyph-name="uni0162" unicode="&#x162;" horiz-adv-x="1351" 
d="M252 1434h1270l-105 -492h-368l-199 -942h-533l199 942h-369zM135 -532l193 368h460l-251 -368h-402z" />
    <glyph glyph-name="uni0163" unicode="&#x163;" horiz-adv-x="962" 
d="M950 1004l-84 -390.002h-204l-21 -102c-16.667 -68 10 -102 80 -102c18 0 35.833 1.66699 53.5 5s31.167 7 40.5 11l12 4l-86 -410c-70.667 -27.333 -153.667 -40.666 -249 -39.999c-131.333 0 -228.5 39.833 -291.5 119.5s-79.167 189.834 -48.5 330.501l38 184h-122
l84 390h41c44 0 81.5 13.167 112.5 39.5s51.5 60.833 61.5 103.5l24 123h410l-56 -266h205zM2 -532.002l193 368h460l-252 -368h-401z" />
    <glyph glyph-name="Tcaron" unicode="&#x164;" horiz-adv-x="1351" 
d="M252 1434h1270l-105 -492h-368l-199 -942h-533l199 942h-369zM682 1577l-227 369h407l60 -123l104 123h453l-387 -369h-410z" />
    <glyph glyph-name="tcaron" unicode="&#x165;" horiz-adv-x="1044" 
d="M950 1004l-84 -390.002h-204l-21 -102c-16.667 -68 10 -102 80 -102c18 0 35.833 1.66699 53.5 5s31.167 7 40.5 11l12 4l-86 -410c-70.667 -27.333 -153.667 -40.666 -249 -39.999c-131.333 0 -228.5 39.833 -291.5 119.5s-79.167 189.834 -48.5 330.501l38 184h-122
l84 390h41c44 0 81.5 13.167 112.5 39.5s51.5 60.833 61.5 103.5l24 123h410l-56 -266h205zM842 1065l196 369h463l-254 -369h-405z" />
    <glyph glyph-name="Umacron" unicode="&#x16a;" horiz-adv-x="1658" 
d="M831 430c52 0 96.834 17.5 134.501 52.5s62.5 78.833 74.5 131.5l174 820h533l-174 -820c-40.667 -194 -130 -351.667 -268 -473s-315 -182 -531 -182c-184 0 -334.833 49.833 -452.5 149.5s-176.5 226.5 -176.5 380.5c0 44 5 85.667 15 125l174 820h532l-174 -820
c-9.33301 -46.667 -1.83301 -89 22.5 -127s63.166 -57 116.499 -57zM1483 1966l-74 -348h-717l74 348h717z" />
    <glyph glyph-name="umacron" unicode="&#x16b;" horiz-adv-x="1300" 
d="M614 0l23 112.998c-8 -9.33301 -19.167 -21.666 -33.5 -36.999s-46.5 -35.166 -96.5 -59.499s-102.333 -36.5 -157 -36.5c-86 0 -154.5 25.833 -205.5 77.5s-76.5 123.167 -76.5 214.5c0 30 4.66699 69 14 117l131 615h471l-104 -492c-10.667 -54.667 7 -82 53 -82
c48 0 79.333 34 94 102l100 472h471l-213 -1004h-471zM1188 1495l-74 -348h-717l74 348h717z" />
    <glyph glyph-name="Uring" unicode="&#x16e;" horiz-adv-x="1658" 
d="M831 430c52 0 96.834 17.5 134.501 52.5s62.5 78.833 74.5 131.5l174 820h533l-174 -820c-40.667 -194 -130 -351.667 -268 -473s-315 -182 -531 -182c-184 0 -334.833 49.833 -452.5 149.5s-176.5 226.5 -176.5 380.5c0 44 5 85.667 15 125l174 820h532l-174 -820
c-9.33301 -46.667 -1.83301 -89 22.5 -127s63.166 -57 116.499 -57zM1077.5 1731c20.333 0 39 8.16797 56 24.501s25.5 35.166 25.5 56.499c0 18 -5.83301 32.833 -17.5 44.5s-27.667 17.5 -48 17.5s-39 -8.16699 -56 -24.5s-25.5 -35.5 -25.5 -57.5
c0 -18 5.83301 -32.667 17.5 -44s27.667 -17 48 -17zM1112 2089c83.333 0 152 -26 206 -78s81 -113.333 81 -184c0 -84.667 -33.167 -157.667 -99.5 -219s-146.5 -92 -240.5 -92c-83.333 0 -152 25.833 -206 77.5s-81 113.167 -81 184.5c0 84.667 33.167 157.667 99.5 219
s146.5 92 240.5 92z" />
    <glyph glyph-name="uring" unicode="&#x16f;" horiz-adv-x="1300" 
d="M614 0l23 112.998c-8 -9.33301 -19.167 -21.666 -33.5 -36.999s-46.5 -35.166 -96.5 -59.499s-102.333 -36.5 -157 -36.5c-86 0 -154.5 25.833 -205.5 77.5s-76.5 123.167 -76.5 214.5c0 30 4.66699 69 14 117l131 615h471l-104 -492c-10.667 -54.667 7 -82 53 -82
c48 0 79.333 34 94 102l100 472h471l-213 -1004h-471zM796.5 1300c20.333 0 39.168 8.33301 56.501 25s26 35.667 26 57c0 18 -5.83301 32.833 -17.5 44.5s-27.834 17.5 -48.501 17.5s-39.5 -8.16699 -56.5 -24.5s-25.5 -35.5 -25.5 -57.5c0 -18 5.83301 -32.833 17.5 -44.5
s27.667 -17.5 48 -17.5zM831.002 1659c83.333 0 152 -25.999 206 -77.999s81 -113.333 81 -184c0 -84.667 -33 -157.834 -99 -219.501s-146.333 -92.5 -241 -92.5c-83.333 0 -151.833 26 -205.5 78s-80.5 113.667 -80.5 185c0 84.667 33 157.667 99 219s146 92 240 92z" />
    <glyph glyph-name="Uhungarumlaut" unicode="&#x170;" horiz-adv-x="1658" 
d="M831 430c52 0 96.834 17.5 134.501 52.5s62.5 78.833 74.5 131.5l174 820h533l-174 -820c-40.667 -194 -130 -351.667 -268 -473s-315 -182 -531 -182c-184 0 -334.833 49.833 -452.5 149.5s-176.5 226.5 -176.5 380.5c0 44 5 85.667 15 125l174 820h532l-174 -820
c-9.33301 -46.667 -1.83301 -89 22.5 -127s63.166 -57 116.499 -57zM618.001 1577l275 369h436l-356 -369h-355zM1110 1577l274 369h437l-357 -369h-354z" />
    <glyph glyph-name="uhungarumlaut" unicode="&#x171;" horiz-adv-x="1300" 
d="M614 0l23 112.998c-8 -9.33301 -19.167 -21.666 -33.5 -36.999s-46.5 -35.166 -96.5 -59.499s-102.333 -36.5 -157 -36.5c-86 0 -154.5 25.833 -205.5 77.5s-76.5 123.167 -76.5 214.5c0 30 4.66699 69 14 117l131 615h471l-104 -492c-10.667 -54.667 7 -82 53 -82
c48 0 79.333 34 94 102l100 472h471l-213 -1004h-471zM348 1126l275 369h436l-357 -369h-354zM840 1126l274 369h436l-356 -369h-354z" />
    <glyph glyph-name="Uogonek" unicode="&#x172;" horiz-adv-x="1658" 
d="M831 430c52 0 96.833 17.499 134.5 52.499s62.5 78.833 74.5 131.5l174 820h533l-174 -820c-38 -181.333 -119.833 -331.666 -245.5 -450.999s-286.167 -186 -481.5 -200c-42 -78 -63.333 -140.667 -64 -188c0 -40.667 22.667 -61.334 68 -62.001
c12 0 25.167 2.83301 39.5 8.5s26.5 11.167 36.5 16.5l12 6l-51 -236c-60 -27.333 -134.333 -40.666 -223 -39.999c-69.333 0 -124.666 19 -165.999 57s-62 86.333 -62 145c0 104 71.667 203 215 297c-151.333 22 -273.5 80.5 -366.5 175.5s-139.5 210.5 -139.5 346.5
c0 44 5 85.667 15 125l174 820h532l-174 -820c-9.33301 -46.667 -1.83301 -89 22.5 -127s63.166 -57 116.499 -57z" />
    <glyph glyph-name="uogonek" unicode="&#x173;" horiz-adv-x="1300" 
d="M614 0l23 112.998c-8 -9.33301 -19.167 -21.666 -33.5 -36.999s-46.5 -35.166 -96.5 -59.499s-102.333 -36.5 -157 -36.5c-86 0 -154.5 25.833 -205.5 77.5s-76.5 123.167 -76.5 214.5c0 30 4.66699 69 14 117l131 615h471l-104 -492c-10.667 -54.667 7 -82 53 -82
c48 0 79.333 34 94 102l100 472h471l-213 -1004h-307c-58.667 -86 -88 -161 -88 -225c0 -40.667 22.667 -61.334 68 -62.001c12 0 25.167 2.83301 39.5 8.5s25.5 11.167 33.5 16.5l15 6l-51 -236c-60 -27.333 -134.667 -40.666 -224 -39.999c-69.333 0 -124.5 19 -165.5 57
s-61.5 86.333 -61.5 145c0 56 22.5 111.333 67.5 166s90.167 95.667 135.5 123z" />
    <glyph glyph-name="Ydieresis" unicode="&#x178;" horiz-adv-x="1464" 
d="M700 1434l117 -441l293 441h606l-706 -922l-109 -512h-532l108 512l-317 922h540zM471 1757c0 60 25.334 113.331 76.001 159.998s108.667 70 174 70c58.667 0 108.167 -19.5 148.5 -58.5s60.5 -85.167 60.5 -138.5c0 -61.333 -25.333 -115.666 -76 -162.999
s-109.334 -71 -176.001 -71c-60 0 -109.5 19.833 -148.5 59.5s-58.5 86.834 -58.5 141.501zM983.001 1757c0 60 25.334 113.331 76.001 159.998s108.667 70 174 70c58.667 0 108.167 -19.5 148.5 -58.5s60.5 -85.167 60.5 -138.5c0 -61.333 -25.333 -115.666 -76 -162.999
s-109.334 -71 -176.001 -71c-60 0 -109.5 19.833 -148.5 59.5s-58.5 86.834 -58.5 141.501z" />
    <glyph glyph-name="Zacute" unicode="&#x179;" horiz-adv-x="1392" 
d="M682 942h-463l105 492h1177l-104 -492l-588 -450h514l-104 -492h-1229l104 492zM696 1577l267 369h514l-357 -369h-424z" />
    <glyph glyph-name="zacute" unicode="&#x17a;" horiz-adv-x="1105" 
d="M1135 1004l-84 -390l-369 -225h342l-82 -389h-983l82 389l371 225h-303l84 390h942zM440 1126l267 369h514l-357 -369h-424z" />
    <glyph glyph-name="Zdotaccent" unicode="&#x17b;" horiz-adv-x="1392" 
d="M682 942h-463l105 492h1177l-104 -492l-588 -450h514l-104 -492h-1229l104 492zM678 1737c0 68 26.667 126.667 80 176s117.5 74 192.5 74s135 -19.833 180 -59.5s67.5 -87.5 67.5 -143.5c0 -68 -26 -126.333 -78 -175s-116.667 -73 -194 -73
c-75.333 0 -135.5 19.5 -180.5 58.5s-67.5 86.5 -67.5 142.5z" />
    <glyph glyph-name="zdotaccent" unicode="&#x17c;" horiz-adv-x="1105" 
d="M1135 1004l-84 -390l-369 -225h342l-82 -389h-983l82 389l371 225h-303l84 390h942zM424 1286c0 68 26.667 126.667 80 176s117.5 74 192.5 74s135 -19.833 180 -59.5s67.5 -87.5 67.5 -143.5c0 -68 -26 -126.333 -78 -175s-116.667 -73 -194 -73
c-75.333 0 -135.5 19.5 -180.5 58.5s-67.5 86.5 -67.5 142.5z" />
    <glyph glyph-name="Zcaron" unicode="&#x17d;" horiz-adv-x="1392" 
d="M682 942h-463l105 492h1177l-104 -492l-588 -450h514l-104 -492h-1229l104 492zM721 1577l-227 369h407l60 -123l104 123h453l-388 -369h-409z" />
    <glyph glyph-name="zcaron" unicode="&#x17e;" horiz-adv-x="1105" 
d="M1135 1004l-84 -390l-369 -225h342l-82 -389h-983l82 389l371 225h-303l84 390h942zM485 1126l-227 369h408l59 -123l104 123h453l-387 -369h-410z" />
    <glyph glyph-name="florin" unicode="&#x192;" horiz-adv-x="952" 
d="M43 61l178 451.001h-102l86 410h174l45 112c57.333 146 126 254.167 206 324.5s178 105.5 294 105.5c42 0 84.5 -3.33301 127.5 -10s75.5 -13.334 97.5 -20.001l33 -11l-82 -389c-24.667 13.333 -57.667 20.333 -99 21c-56 0 -96 -27.333 -120 -82l-21 -51h144l-86 -410
h-216l-200 -512c-57.333 -146 -126.333 -254.167 -207 -324.5s-179 -105.5 -295 -105.5c-42 0 -84.167 3.33301 -126.5 10s-74.5 13.667 -96.5 21l-33 10l82 389c24.667 -13.333 56.667 -20 96 -20c58.667 -0.666992 99 26.333 121 81z" />
    <glyph glyph-name="uni0218" unicode="&#x218;" 
d="M1405 1270l-351.999 -298.999c-57.333 49.333 -120.333 73.666 -189 72.999c-61.333 0 -92 -19.667 -92 -59c0 -22 25.667 -45.167 77 -69.5s107.333 -48.833 168 -73.5s116.667 -66.334 168 -125.001s77 -129.667 77 -213c0 -148.667 -58.833 -276.667 -176.5 -384
s-285.5 -161 -503.5 -161c-76.667 0 -150.834 8.5 -222.501 25.5s-131 37.5 -178 61.5s-88.667 48 -125 72s-63.5 44.667 -81.5 62l-24 25l348 295c9.33301 -8 22.166 -18.167 38.499 -30.5s46.833 -28.833 91.5 -49.5s85.334 -31 122.001 -31c74 0 111 22 111 66
c0 16.667 -12.333 32.334 -37 47.001s-55.167 28.834 -91.5 42.501s-75.666 32.167 -117.999 55.5s-81.5 49 -117.5 77s-66.333 65.5 -91 112.5s-37 100.5 -37 160.5c0 143.333 58 266.666 174 369.999s281.333 155 496 155c72.667 0 141.667 -7.16699 207 -21.5
s118.833 -31.5 160.5 -51.5s78.167 -39.833 109.5 -59.5s53.666 -37.167 66.999 -52.5zM152.001 -531.999l192 368h461l-252 -368h-401z" />
    <glyph glyph-name="uni0219" unicode="&#x219;" horiz-adv-x="1054" 
d="M1083 860l-244.996 -208.996c-32.667 23.333 -66.334 35 -101.001 35c-39.333 0 -59 -13 -59 -39c0 -10.667 15.667 -23.834 47 -39.501s66.166 -31.667 104.499 -48s73.166 -43.333 104.499 -81s47 -82.5 47 -134.5c0 -106.667 -42.667 -195.834 -128 -267.501
s-211.333 -107.5 -378 -107.5c-66.667 0 -130 7.5 -190 22.5s-109.167 33.167 -147.5 54.5s-71.833 42.166 -100.5 62.499s-49.334 38.166 -62.001 53.499l-18 22l244 209c40.667 -50.667 91.667 -76 153 -76c39.333 0 59.333 13 60 39c0 10.667 -10.333 22 -31 34
s-46 24.833 -76 38.5s-60 29.667 -90 48s-55.167 44.5 -75.5 78.5s-30.5 72.333 -30.5 115c0 101.333 43 187.333 129 258s212 106 378 106c94 0 179.667 -14.667 257 -44s131 -58.333 161 -87zM41.0039 -531.996l192 368h461l-252 -368h-401z" />
    <glyph glyph-name="uni021A" unicode="&#x21a;" horiz-adv-x="1351" 
d="M252 1434h1270l-105 -492h-368l-199 -942h-533l199 942h-369zM135 -532l193 368h460l-251 -368h-402z" />
    <glyph glyph-name="uni021B" unicode="&#x21b;" horiz-adv-x="962" 
d="M950 1004l-84 -390.002h-204l-21 -102c-16.667 -68 10 -102 80 -102c18 0 35.833 1.66699 53.5 5s31.167 7 40.5 11l12 4l-86 -410c-70.667 -27.333 -153.667 -40.666 -249 -39.999c-131.333 0 -228.5 39.833 -291.5 119.5s-79.167 189.834 -48.5 330.501l38 184h-122
l84 390h41c44 0 81.5 13.167 112.5 39.5s51.5 60.833 61.5 103.5l24 123h410l-56 -266h205zM2 -532.002l193 368h460l-252 -368h-401z" />
    <glyph glyph-name="uni02BC" unicode="&#x2bc;" horiz-adv-x="696" 
d="M197 1106l196 369h463l-254 -369h-405z" />
    <glyph glyph-name="circumflex" unicode="&#x2c6;" horiz-adv-x="1146" 
d="M999 1475l228 -369h-408l-59 123l-105 -123h-452l387 369h409z" />
    <glyph glyph-name="caron" unicode="&#x2c7;" horiz-adv-x="1146" 
d="M510 1106l-227 369h407l60 -123l104 123h453l-387 -369h-410z" />
    <glyph glyph-name="breve" unicode="&#x2d8;" horiz-adv-x="921" 
d="M668 1393c44 0 72.667 27.333 86 82h327c-22 -106.667 -73.167 -194.834 -153.5 -264.501s-177.833 -104.5 -292.5 -104.5c-118.667 0 -212.5 35.833 -281.5 107.5s-92.5 158.834 -70.5 261.501h327c-5.33301 -24.667 -2.5 -44.5 8.5 -59.5s27.5 -22.5 49.5 -22.5z" />
    <glyph glyph-name="dotaccent" unicode="&#x2d9;" horiz-adv-x="634" 
d="M244 1286c0 68 26.5 126.667 79.5 176s117.167 74 192.5 74s135.5 -19.833 180.5 -59.5s67.5 -87.5 67.5 -143.5c0 -68 -26 -126.333 -78 -175s-116.667 -73 -194 -73c-75.333 0 -135.5 19.5 -180.5 58.5s-67.5 86.5 -67.5 142.5z" />
    <glyph glyph-name="ring" unicode="&#x2da;" horiz-adv-x="737" 
d="M536.5 1198c20.333 0 39 8.16602 56 24.499s25.5 35.5 25.5 57.5c0 18 -5.66699 32.667 -17 44s-27.333 17 -48 17s-39.5 -8.16699 -56.5 -24.5s-25.5 -35.166 -25.5 -56.499c0 -18 5.83301 -32.833 17.5 -44.5s27.667 -17.5 48 -17.5zM571 1556
c83.333 0 152 -25.833 206 -77.5s81 -113.167 81 -184.5c0 -84.667 -33.167 -157.667 -99.5 -219s-146.5 -92 -240.5 -92c-83.333 0 -152 26 -206 78s-81 113.333 -81 184c0 84.667 33.167 157.667 99.5 219s146.5 92 240.5 92z" />
    <glyph glyph-name="ogonek" unicode="&#x2db;" horiz-adv-x="614" 
d="M174 0h164c-58.667 -86 -88 -161 -88 -225c0 -40.667 22.333 -61.334 67 -62.001c12 0 25.333 2.83301 40 8.5s26.667 11.167 36 16.5l13 6l-52 -236c-60 -27.333 -134.333 -40.666 -223 -39.999c-69.333 0 -124.5 19 -165.5 57s-61.5 86.333 -61.5 145
c0 56 22.5 111.333 67.5 166s89.833 95.667 134.5 123z" />
    <glyph glyph-name="tilde" unicode="&#x2dc;" horiz-adv-x="911" 
d="M788 1495h286.999l-26 -123c-18 -82 -50.833 -146.833 -98.5 -194.5s-102.5 -71.5 -164.5 -71.5c-46.667 0 -92 12 -136 36s-71.667 36 -83 36c-40.667 0 -66.667 -24 -78 -72h-286l26 123c18 82 50.833 146.833 98.5 194.5s102.5 71.5 164.5 71.5
c46.667 0 92 -12 136 -36s71.667 -36 83 -36c40.667 0 66.334 24 77.001 72z" />
    <glyph glyph-name="hungarumlaut" unicode="&#x2dd;" horiz-adv-x="1239" 
d="M197 1106l274 369h436l-356 -369h-354zM688 1106l275 369h436l-357 -369h-354z" />
    <glyph glyph-name="uni0401" unicode="&#x401;" horiz-adv-x="1423" 
d="M674 430h665l-90 -430h-1198l303 1434h1178l-90 -430h-645l-21 -93h481l-81 -389h-482zM508 1757c0 60 25.168 113.331 75.501 159.998s108.5 70 174.5 70c58.667 0 108.167 -19.5 148.5 -58.5s60.5 -85.167 60.5 -138.5c0 -61.333 -25.333 -115.666 -76 -162.999
s-109.334 -71 -176.001 -71c-60 0 -109.5 19.833 -148.5 59.5s-58.5 86.834 -58.5 141.501zM1020 1757c0 60 25.168 113.331 75.501 159.998s108.5 70 174.5 70c58.667 0 108.167 -19.5 148.5 -58.5s60.5 -85.167 60.5 -138.5c0 -61.333 -25.333 -115.666 -76 -162.999
s-109.334 -71 -176.001 -71c-60 0 -109.5 19.833 -148.5 59.5s-58.5 86.834 -58.5 141.501z" />
    <glyph glyph-name="uni0402" unicode="&#x402;" horiz-adv-x="1617" 
d="M1585 492c0 -165.333 -61.333 -298.833 -184 -400.5s-275 -152.5 -457 -152.5h-149l96 450h41c60 0 90 15.667 90 47c0 23.333 -31.333 35 -94 35c-18 0 -35.833 -1.66699 -53.5 -5s-30.5 -7 -38.5 -11l-15 -4l-94 -451h-532l202 963h-286l100 471h1085l-100 -471h-266
l-19 -93c58.667 20.667 129 31 211 31c143.333 0 256.333 -39.833 339 -119.5s124 -176.167 124 -289.5z" />
    <glyph glyph-name="uni0403" unicode="&#x403;" 
d="M696 1577l267 369h514l-357 -369h-424zM51 0l303 1434h1106l-100 -471h-574l-202 -963h-533z" />
    <glyph glyph-name="uni0404" unicode="&#x404;" horiz-adv-x="1546" 
d="M1253 555l243.996 -324l-28.5 -28.5c-12.333 -12.333 -40.333 -34.166 -84 -65.499s-89.667 -59 -138 -83s-110.833 -45.833 -187.5 -65.5s-155.334 -29.5 -236.001 -29.5c-202 0 -372.333 65.833 -511 197.5s-208 285.5 -208 461.5c0 240 88.833 442.833 266.5 608.5
s400.834 248.5 669.501 248.5c80.667 0 157.834 -10 231.501 -30s134.5 -44 182.5 -72s90.333 -56 127 -84s63.334 -52 80.001 -72l25 -29l-357 -303c-2.66699 4 -7 9 -13 15s-19.333 16.833 -40 32.5s-42.5 29.667 -65.5 42s-52.667 23.666 -89 33.999
s-73.5 15.5 -111.5 15.5c-117.333 0 -215.666 -41 -294.999 -123h448l-78 -369h-426c54.667 -82 134.667 -122.667 240 -122c60 0 119.333 12.167 178 36.5s102.334 48.833 131.001 73.5z" />
    <glyph glyph-name="uni0405" unicode="&#x405;" 
d="M1405 1270l-351.999 -298.999c-57.333 49.333 -120.333 73.666 -189 72.999c-61.333 0 -92 -19.667 -92 -59c0 -22 25.667 -45.167 77 -69.5s107.333 -48.833 168 -73.5s116.667 -66.334 168 -125.001s77 -129.667 77 -213c0 -148.667 -58.833 -276.667 -176.5 -384
s-285.5 -161 -503.5 -161c-76.667 0 -150.834 8.5 -222.501 25.5s-131 37.5 -178 61.5s-88.667 48 -125 72s-63.5 44.667 -81.5 62l-24 25l348 295c9.33301 -8 22.166 -18.167 38.499 -30.5s46.833 -28.833 91.5 -49.5s85.334 -31 122.001 -31c74 0 111 22 111 66
c0 16.667 -12.333 32.334 -37 47.001s-55.167 28.834 -91.5 42.501s-75.666 32.167 -117.999 55.5s-81.5 49 -117.5 77s-66.333 65.5 -91 112.5s-37 100.5 -37 160.5c0 143.333 58 266.666 174 369.999s281.333 155 496 155c72.667 0 141.667 -7.16699 207 -21.5
s118.833 -31.5 160.5 -51.5s78.167 -39.833 109.5 -59.5s53.666 -37.167 66.999 -52.5z" />
    <glyph glyph-name="uni0406" unicode="&#x406;" horiz-adv-x="819" 
d="M51 0l303 1434h533l-303 -1434h-533z" />
    <glyph glyph-name="uni0407" unicode="&#x407;" horiz-adv-x="819" 
d="M51 0l303 1434h533l-303 -1434h-533zM184 1757c0 60 25.332 113.331 75.999 159.998s108.667 70 174 70c58.667 0 108.167 -19.5 148.5 -58.5s60.5 -85.167 60.5 -138.5c0 -61.333 -25.167 -115.666 -75.5 -162.999s-109.166 -71 -176.499 -71
c-60 0 -109.5 19.833 -148.5 59.5s-58.5 86.834 -58.5 141.501zM695.999 1757c0 60 25.332 113.331 75.999 159.998s108.667 70 174 70c58.667 0 108.167 -19.5 148.5 -58.5s60.5 -85.167 60.5 -138.5c0 -61.333 -25.167 -115.666 -75.5 -162.999s-109.166 -71 -176.499 -71
c-60 0 -109.5 19.833 -148.5 59.5s-58.5 86.834 -58.5 141.501z" />
    <glyph glyph-name="uni0408" unicode="&#x408;" horiz-adv-x="1126" 
d="M-123 143l383 325.998c27.333 -26 58 -39 92 -39c35.333 0 66 11.333 92 34s43.333 52.334 52 89.001l186 881h532l-186 -881c-38 -182.667 -115.833 -327.334 -233.5 -434.001s-263.167 -160 -436.5 -160c-57.333 0 -112.833 6.5 -166.5 19.5s-99 28.333 -136 46
s-69.5 35.334 -97.5 53.001s-48 32.834 -60 45.501z" />
    <glyph glyph-name="uni0409" unicode="&#x409;" horiz-adv-x="2242" 
d="M1546 0l-705.998 0.000976562l202 963h-133c-39.333 -188.667 -85.333 -348.5 -138 -479.5s-112 -234.833 -178 -311.5s-136.333 -131.334 -211 -164.001s-158.334 -49 -251.001 -49c-42 0 -81.833 3.5 -119.5 10.5s-64.834 13.833 -81.501 20.5l-22 10l100 481
c26 -6.66699 49.333 -10 70 -10c68 0 128.333 35.5 181 106.5s98.667 199.5 138 385.5l101 471h1177l-78 -369h134c150 0 271.333 -43.333 364 -130s139 -193 139 -319c0 -181.333 -64.833 -329.333 -194.5 -444s-294.167 -172 -493.5 -172zM1466 451.001l121 0.000976562
c30 0 54.667 9.16699 74 27.5s29 39.166 29 62.499c0 20.667 -7.16699 38 -21.5 52s-32.5 21 -54.5 21h-113z" />
    <glyph glyph-name="uni040A" unicode="&#x40a;" horiz-adv-x="2304" 
d="M1618 0h-717l125 594h-317l-125 -594h-533l303 1434h533l-82 -390h317l82 390h533l-82 -390h143c151.333 0 272.166 -41.167 362.499 -123.5s135.5 -185.833 135.5 -310.5c0 -182.667 -63.167 -330 -189.5 -442s-289.166 -168 -488.499 -168zM1528 451
l126.999 -0.000976562c28.667 0 51.834 7.83301 69.501 23.5s26.5 35.834 26.5 60.501c0 16.667 -6.5 30.667 -19.5 42s-30.5 17 -52.5 17h-120z" />
    <glyph glyph-name="uni040B" unicode="&#x40b;" horiz-adv-x="1658" 
d="M952 0l63.999 307.001c2.66699 13.333 4 23 4 29c0 28.667 -9.16699 51.5 -27.5 68.5s-43.166 25.5 -74.499 25.5c-18 0 -35.833 -1.66699 -53.5 -5s-30.834 -7 -39.501 -11l-12 -4l-86 -410h-532l202 963h-286l100 471h1106l-100 -471h-287l-19 -93
c58.667 20.667 129 31 211 31c140.667 0 250.334 -36.167 329.001 -108.5s118 -175.5 118 -309.5c0 -46.667 -7 -105.334 -21 -176.001l-63 -307h-533z" />
    <glyph glyph-name="uni040C" unicode="&#x40c;" horiz-adv-x="1576" 
d="M786 459l-135 -142l-67 -317h-533l303 1434h533l-84 -398l377 398h608l-578 -607l316 -827h-568zM825 1577l267 369h514l-357 -369h-424z" />
    <glyph glyph-name="uni040E" unicode="&#x40e;" horiz-adv-x="1413" 
d="M971 1843c27.333 0 50.832 9.16797 70.499 27.501s32.834 43.5 39.501 75.5h328c-22 -110.667 -76 -203.334 -162 -278.001s-189 -112 -309 -112c-122.667 0 -220.167 38 -292.5 114s-97.833 168 -76.5 276h328c-5.33301 -30 -0.833008 -54.667 13.5 -74
s34.5 -29 60.5 -29zM175.999 1434l536.999 0.000976562l104 -465l256 465h592l-702 -1047c-181.333 -272 -391.666 -407.667 -630.999 -407c-42 0 -84.667 2.66699 -128 8s-76 10.666 -98 15.999l-32 6l96 461c40.667 -13.333 81.667 -20 123 -20c31.333 0 61 5.33301 89 16
s48 21.667 60 33l17 14z" />
    <glyph glyph-name="uni040F" unicode="&#x40f;" horiz-adv-x="1699" 
d="M1767 1434l-303 -1434h-440l-57 -266h-533l58 266h-441l303 1434h533l-205 -963h348l205 963h532z" />
    <glyph glyph-name="uni0410" unicode="&#x410;" horiz-adv-x="1536" 
d="M1280 1434l205 -1434h-559l-11 246h-348l-112 -246h-588l811 1434h602zM895 635l-10 287l-133 -287h143z" />
    <glyph glyph-name="uni0411" unicode="&#x411;" horiz-adv-x="1474" 
d="M801 1024l-18.999 -81.998h174c154 0 274.833 -41.333 362.5 -124s131.5 -181.334 131.5 -296.001c0 -148.667 -60.833 -272.834 -182.5 -372.501s-277.834 -149.5 -468.501 -149.5h-748l303 1434h1147l-86 -410h-614zM670.001 410.002l157.001 0.000976562
c23.333 0 42.833 7.16699 58.5 21.5s23.5 30.166 23.5 47.499c0 13.333 -5.83301 25.5 -17.5 36.5s-26.834 16.5 -45.501 16.5h-150z" />
    <glyph glyph-name="uni0412" unicode="&#x412;" horiz-adv-x="1505" 
d="M829 0h-777.999l303 1434h676c160 0 283.333 -32.167 370 -96.5s130 -144.166 130 -239.499c0 -136.667 -74.333 -244.667 -223 -324c-40.667 -20.667 -64.667 -31 -72 -31c6.66699 -2.66699 15.167 -6 25.5 -10s28.833 -14.5 55.5 -31.5s50.167 -35.5 70.5 -55.5
s38.666 -47.333 54.999 -82s24.5 -71.667 24.5 -111c0 -128.667 -55.333 -236.334 -166 -323.001s-267.667 -130 -471 -130zM666.001 389h150.999c28.667 0 53 9.5 73 28.5s30 40.833 30 65.5c0 19.333 -7.16699 35.833 -21.5 49.5s-33.166 20.5 -56.499 20.5h-142z
M885 1044l-79.999 -0.000976562l-31 -143h86c28.667 0 51.5 8.16699 68.5 24.5s25.5 36.833 25.5 61.5c0 16.667 -6.33301 30.334 -19 41.001s-29.334 16 -50.001 16z" />
    <glyph glyph-name="uni0413" unicode="&#x413;" 
d="M51 0l303 1434h1106l-100 -471h-574l-202 -963h-533z" />
    <glyph glyph-name="uni0414" unicode="&#x414;" horiz-adv-x="1607" 
d="M6 471h72.002c5.33301 4 13.166 9.83301 23.499 17.5s29.166 26.167 56.499 55.5s52.5 61 75.5 95s47.5 80 73.5 138s46 120 60 186l100 471h1178l-205 -963h153l-155 -737h-533l58 266h-523l-57 -266h-530zM879.002 963
c-13.333 -65.333 -31.3311 -126.833 -53.998 -184.5s-45.334 -104.5 -68.001 -140.5s-43.834 -67.333 -63.501 -94s-36.5 -45.667 -50.5 -57l-18 -16h282l105 492h-133z" />
    <glyph glyph-name="uni0415" unicode="&#x415;" horiz-adv-x="1423" 
d="M674 430h665l-90 -430h-1198l303 1434h1178l-90 -430h-645l-21 -93h481l-81 -389h-482z" />
    <glyph glyph-name="uni0416" unicode="&#x416;" horiz-adv-x="2293" 
d="M1505 459l-110 -111l-74 -348h-533l82 383l-43 74l-360 -457h-600l682 856l-330 578h545l237 -426l91 426h532l-78 -371l350 371h609l-578 -607l316 -827h-568z" />
    <glyph glyph-name="uni0417" unicode="&#x417;" 
d="M539 391c31.333 0 59.6689 6.50781 85.002 19.5078s38 33.833 38 62.5c0 39.333 -34.333 59 -103 59h-149l82 390h149c66.667 0 100 21.667 100 65c0 15.333 -7.83301 28.666 -23.5 39.999s-36.5 17 -62.5 17c-31.333 0 -63.666 -6.33301 -96.999 -19
s-59 -25.334 -77 -38.001l-26 -20l-228 303c5.33301 5.33301 13.166 12.833 23.499 22.5s33.666 26 69.999 49s75.333 43.5 117 61.5s96.167 34.5 163.5 49.5s138 22.5 212 22.5c161.333 0 292.5 -38.333 393.5 -115s151.5 -163.334 151.5 -260.001
c0 -36.667 -5.5 -71.834 -16.5 -105.501s-25.333 -62.5 -43 -86.5s-37.5 -45.833 -59.5 -65.5s-43.167 -36 -63.5 -49s-39.666 -23.833 -57.999 -32.5s-32.5 -15.334 -42.5 -20.001l-14 -4c5.33301 -2.66699 12.166 -6.33398 20.499 -11.001s23.333 -15.5 45 -32.5
s40.667 -35.833 57 -56.5s31.333 -48.334 45 -83.001s20.5 -72 20.5 -112c0 -136.667 -56 -251.334 -168 -344.001s-277.667 -139 -497 -139c-76.667 0 -150.834 8.5 -222.501 25.5s-131 37.5 -178 61.5s-89 48 -126 72s-64.5 44.667 -82.5 62l-24 25l348 295
c8 -8 19.833 -18.167 35.5 -30.5s44.5 -28.5 86.5 -48.5s81.333 -30 118 -30z" />
    <glyph glyph-name="uni0418" unicode="&#x418;" horiz-adv-x="1730" 
d="M1495 0h-532l120 580l-567 -580h-465l303 1434h533l-121 -578l567 578h465z" />
    <glyph glyph-name="uni0419" unicode="&#x419;" horiz-adv-x="1730" 
d="M1161 1843c27.333 0 51.001 9.16797 71.001 27.501s33.333 43.5 40 75.5h327c-22 -110.667 -75.833 -203.334 -161.5 -278.001s-188.834 -112 -309.501 -112c-122.667 0 -220.167 38 -292.5 114s-97.5 168 -75.5 276h327c-5.33301 -30 -0.833008 -54.667 13.5 -74
s34.5 -29 60.5 -29zM1495 0.000976562h-532l120 580l-567 -580h-465l303 1434h533l-121 -578l567 578h465z" />
    <glyph glyph-name="uni041A" unicode="&#x41a;" horiz-adv-x="1576" 
d="M786 459l-135 -142l-67 -317h-533l303 1434h533l-84 -398l377 398h608l-578 -607l316 -827h-568z" />
    <glyph glyph-name="uni041B" unicode="&#x41b;" horiz-adv-x="1648" 
d="M1716 1434l-302.999 -1434h-532l202 963h-174c-39.333 -190 -85 -350.167 -137 -480.5s-111 -233.833 -177 -310.5s-136 -131.334 -210 -164.001s-158 -49 -252 -49c-42 0 -81.833 3.5 -119.5 10.5s-64.834 13.833 -81.501 20.5l-24 10l100 481
c26 -6.66699 49.333 -10 70 -10c68 0 128.333 35.5 181 106.5s98.667 199.5 138 385.5l101 471h1218z" />
    <glyph glyph-name="uni041C" unicode="&#x41c;" horiz-adv-x="1945" 
d="M1073 983l453 451h487l-303 -1434h-532l145 686l-377 -369l-217 369l-145 -686h-533l303 1434h455z" />
    <glyph glyph-name="uni041D" unicode="&#x41d;" horiz-adv-x="1689" 
d="M1757 1434l-303 -1434h-532l104 492h-338l-104 -492h-533l303 1434h533l-101 -471h338l101 471h532z" />
    <glyph glyph-name="uni041E" unicode="&#x41e;" horiz-adv-x="1761" 
d="M1776 786c0 -144.667 -42.332 -281.166 -126.999 -409.499s-197.334 -230 -338.001 -305s-289.667 -112.5 -447 -112.5c-226.667 0 -410 67.167 -550 201.5s-210 297.166 -210 488.499c0 221.333 90.5 414.333 271.5 579s394.5 247 640.5 247c226.667 0 410 -67 550 -201
s210 -296.667 210 -488zM905.001 430.001c83.333 0 158.832 31.332 226.499 93.999s101.5 135.667 101.5 219c0 70.667 -24.667 131.834 -74 183.501s-110 77.5 -182 77.5c-86 0 -162.5 -31.833 -229.5 -95.5s-100.5 -136.5 -100.5 -218.5
c0 -70.667 24.833 -131.667 74.5 -183s110.834 -77 183.501 -77z" />
    <glyph glyph-name="uni041F" unicode="&#x41f;" horiz-adv-x="1689" 
d="M1757 1434l-303 -1434h-532l202 963h-338l-202 -963h-533l303 1434h1403z" />
    <glyph glyph-name="uni0420" unicode="&#x420;" horiz-adv-x="1474" 
d="M354 1434h680c154 0 277.5 -43 370.5 -129s139.5 -192.667 139.5 -320c0 -182.667 -61.667 -331 -185 -445s-284 -171 -482 -171h-215l-78 -369h-533zM926 983l-133.001 0.000976562l-35 -164h137c28.667 0 53.5 9.66699 74.5 29s31.5 40.333 31.5 63
c0 19.333 -6.66699 36.166 -20 50.499s-31.666 21.5 -54.999 21.5z" />
    <glyph glyph-name="uni0421" unicode="&#x421;" horiz-adv-x="1546" 
d="M1239 571l257.997 -340l-28.5 -28.5c-12.333 -12.333 -40.333 -34.166 -84 -65.499s-89.667 -59 -138 -83s-110.833 -45.833 -187.5 -65.5s-155.334 -29.5 -236.001 -29.5c-202 0 -372.333 65.833 -511 197.5s-208 285.5 -208 461.5c0 240 88.833 442.833 266.5 608.5
s400.834 248.5 669.501 248.5c80.667 0 157.834 -10 231.501 -30s134.5 -44 182.5 -72s90.333 -56 127 -84s63.334 -52 80.001 -72l25 -29l-381 -322c-2.66699 4 -7.16699 9.16699 -13.5 15.5s-19.333 17.333 -39 33s-40.5 29.667 -62.5 42s-49.667 23.333 -83 33
s-67 14.5 -101 14.5c-96.667 0 -180.667 -32.833 -252 -98.5s-107 -142.167 -107 -229.5c0 -66.667 25 -124.334 75 -173.001s112.333 -73 187 -73c54.667 0 109.334 11.667 164.001 35s95.667 47.333 123 72z" />
    <glyph glyph-name="uni0422" unicode="&#x422;" horiz-adv-x="1351" 
d="M252 1434h1270l-105 -492h-368l-199 -942h-533l199 942h-369z" />
    <glyph glyph-name="uni0423" unicode="&#x423;" horiz-adv-x="1413" 
d="M176 1434l536.999 0.000976562l104 -465l256 465h592l-702 -1047c-181.333 -272 -391.666 -407.667 -630.999 -407c-42 0 -84.667 2.66699 -128 8s-76 10.666 -98 15.999l-32 6l96 461c40.667 -13.333 81.667 -20 123 -20c31.333 0 61 5.33301 89 16s48 21.667 60 33
l17 14z" />
    <glyph glyph-name="uni0424" unicode="&#x424;" horiz-adv-x="1925" 
d="M1257 573c45.333 8 83.667 31.5 115 70.5s47 82.5 47 130.5c0 34 -8.83301 62.667 -26.5 86s-39.5 37 -65.5 41zM922.001 1495l531.998 0.000976562l-31 -143c162.667 -9.33301 292.834 -65 390.501 -167s146.5 -224 146.5 -366c0 -188.667 -77.5 -349.167 -232.5 -481.5
s-343.833 -203.833 -566.5 -214.5l-35 -164h-532l35 164c-162.667 9.33301 -293.167 64.833 -391.5 166.5s-147.5 223.5 -147.5 365.5c0 188.667 77.833 349.167 233.5 481.5s344.834 204.166 567.501 215.499zM794.999 901.001c-44 -6.66699 -82 -29.5 -114 -68.5
s-48 -83.167 -48 -132.5c0 -34 8.83301 -62.5 26.5 -85.5s39.5 -36.833 65.5 -41.5z" />
    <glyph glyph-name="uni0425" unicode="&#x425;" horiz-adv-x="1484" 
d="M854 1085l236 349h585l-522 -691l260 -743h-553l-110 410l-279 -410h-594l576 752l-232 682h541z" />
    <glyph glyph-name="uni0426" unicode="&#x426;" horiz-adv-x="1699" 
d="M51 0l303 1434h533l-205 -963h317l205 963h533l-205 -963h154l-156 -737h-533l58 266h-1004z" />
    <glyph glyph-name="uni0427" unicode="&#x427;" horiz-adv-x="1597" 
d="M866 1434l-93.999 -451c-2.66699 -13.333 -4 -23.666 -4 -30.999c0 -32.667 11.667 -59.5 35 -80.5s52.666 -31.5 87.999 -31.5c20.667 0 41.167 2.66699 61.5 8s35.833 10.666 46.5 15.999l15 6l119 564h532l-303 -1434h-533l86 410c-74 -27.333 -151.667 -41 -233 -41
c-146 0 -259.667 37.833 -341 113.5s-122 183.167 -122 322.5c0 58.667 7 118 21 178l94 451h532z" />
    <glyph glyph-name="uni0428" unicode="&#x428;" horiz-adv-x="2293" 
d="M2361 1434l-303 -1434h-2007l303 1434h533l-205 -963h205l205 963h532l-205 -963h205l205 963h532z" />
    <glyph glyph-name="uni0429" unicode="&#x429;" horiz-adv-x="2324" 
d="M1679 0h-1628l303 1434h533l-205 -963h205l205 963h532l-205 -963h205l205 963h532l-204 -963h153l-156 -737h-532z" />
    <glyph glyph-name="uni042A" unicode="&#x42a;" horiz-adv-x="1597" 
d="M903 0h-707.999l208 983h-286l94 451h819l-78 -369h127c157.333 0 281.666 -44 372.999 -132s137 -196.333 137 -325c0 -181.333 -64.5 -328 -193.5 -440s-293.167 -168 -492.5 -168zM821.001 451h117c30 0 55.167 9.5 75.5 28.5s30.5 40.833 30.5 65.5
c0 22 -7.5 39 -22.5 51s-33.833 18 -56.5 18h-109z" />
    <glyph glyph-name="uni042B" unicode="&#x42b;" horiz-adv-x="2191" 
d="M2259 1434l-303 -1434h-533l303 1434h533zM678 451h117c30 0 55.167 9.5 75.5 28.5s30.5 40.833 30.5 65.5c0 22 -7.5 39 -22.5 51s-34.167 18 -57.5 18h-108zM760 0h-708.999l303 1434h533l-78 -369h127c157.333 0 281.666 -44 372.999 -132s137 -196.333 137 -325
c0 -181.333 -64.5 -328 -193.5 -440s-293.167 -168 -492.5 -168z" />
    <glyph glyph-name="uni042C" unicode="&#x42c;" horiz-adv-x="1474" 
d="M678 451h137c30 0 55.333 9.5 76 28.5s31 40.833 31 65.5c0 22 -7.5 39 -22.5 51s-34.167 18 -57.5 18h-129zM780 0h-728.999l303 1434h533l-78 -369h147c157.333 0 281.666 -44 372.999 -132s137 -196.333 137 -325c0 -181.333 -64.5 -328 -193.5 -440
s-293.167 -168 -492.5 -168z" />
    <glyph glyph-name="uni042D" unicode="&#x42d;" horiz-adv-x="1546" 
d="M653 410c117.333 0 213.666 40.6641 288.999 121.997h-440l78 369h424c-52 82 -135.333 123 -250 123c-60 0 -118.667 -11.667 -176 -35s-99.666 -47 -126.999 -71l-41 -35l-238 317c6.66699 6.66699 16.167 16.5 28.5 29.5s40.333 35.167 84 66.5s89.5 59 137.5 83
s109.5 46 184.5 66s151.5 30 229.5 30c210 0 383.333 -64.667 520 -194s205 -282 205 -458c0 -237.333 -91.167 -440.666 -273.5 -609.999s-408.166 -254 -677.499 -254c-80.667 0 -157.5 9.83301 -230.5 29.5s-132.667 43.5 -179 71.5s-86.833 56 -121.5 84
s-59.667 52.333 -75 73l-24 29l350 297c9.33301 -9.33301 22.166 -21.666 38.499 -36.999s52.833 -35.166 109.5 -59.499s115 -36.5 175 -36.5z" />
    <glyph glyph-name="uni042E" unicode="&#x42e;" horiz-adv-x="2334" 
d="M1495 -39c-164 0 -309.833 48.168 -437.5 144.501s-207.167 225.166 -238.5 386.499h-131l-104 -492h-533l303 1434h533l-101 -471h93c68 151.333 174 274.5 318 369.5s298.667 142.5 464 142.5c206 0 372.833 -63.167 500.5 -189.5s191.5 -284.5 191.5 -474.5
c0 -154 -40.667 -297 -122 -429s-187.5 -235.167 -318.5 -309.5s-270.167 -111.5 -417.5 -111.5zM1538 428.001c80.667 0 146.501 36.166 197.501 108.499s76.5 150.833 76.5 235.5c0 68 -17.667 124.333 -53 169s-81 67 -137 67c-70.667 0 -134.834 -32.167 -192.501 -96.5
s-86.5 -146.166 -86.5 -245.499c0 -69.333 18.5 -126.333 55.5 -171s83.5 -67 139.5 -67z" />
    <glyph glyph-name="uni042F" unicode="&#x42f;" horiz-adv-x="1525" 
d="M-68 0l371.001 492.001c-10.667 9.33301 -23.834 23.166 -39.501 41.499s-36.834 57.5 -63.501 117.5s-40 122.333 -40 187c0 174.667 61.333 317.667 184 429s280.334 167 473.001 167h776l-303 -1434h-532l82 389h-78l-264 -389h-566zM967.001 983.001
l-170 0.000976562c-28.667 0 -51.667 -7.83301 -69 -23.5s-26 -35.834 -26 -60.501c0 -18 6.5 -32.333 19.5 -43s30.5 -16 52.5 -16h162z" />
    <glyph glyph-name="uni0430" unicode="&#x430;" horiz-adv-x="1337" 
d="M575 1024c36.667 0 71.168 -5.16895 103.501 -15.502s58 -23.333 77 -39s35.667 -31 50 -46s24.5 -27.833 30.5 -38.5l8 -15l28 134h471l-213 -1004h-471l23 113c-8 -9.33301 -19.5 -21.666 -34.5 -36.999s-47.833 -35.166 -98.5 -59.499s-103.334 -36.5 -158.001 -36.5
c-96.667 0 -177.167 39.167 -241.5 117.5s-96.5 176.166 -96.5 293.499c0 188.667 53.5 341.334 160.5 458.001s227.5 175 361.5 175zM680.001 603.998c-34 0 -63 -12.001 -87 -36.001s-36 -53.667 -36 -89c0 -23.333 8.16699 -42.5 24.5 -57.5s37.5 -22.5 63.5 -22.5
c34 0 63 11.333 87 34s36 52.334 36 89.001c0 24.667 -7.83301 44.5 -23.5 59.5s-37.167 22.5 -64.5 22.5z" />
    <glyph glyph-name="uni0431" unicode="&#x431;" horiz-adv-x="1280" 
d="M1235 545c0 -165.333 -59.665 -302.665 -178.998 -411.998s-270 -164 -452 -164c-154 0 -279.5 45.5 -376.5 136.5s-145.5 215.5 -145.5 373.5c0 54.667 6.66699 114 20 178c49.333 232 131.666 408.167 246.999 528.5s259.666 199.5 432.999 237.5
c66.667 15.333 133.167 33.166 199.5 53.499s115.833 37.5 148.5 51.5l48 18l139 -358c-118.667 -48 -254 -89.667 -406 -125c-76.667 -18 -140.167 -42.333 -190.5 -73s-81.5 -56.334 -93.5 -77.001l-21 -32c58.667 48 136.667 71.667 234 71
c117.333 0 212.5 -39.5 285.5 -118.5s109.5 -175.167 109.5 -288.5zM559.002 481.001c-5.33301 -26 -1.16797 -47.833 12.499 -65.5s33.5 -26.5 59.5 -26.5s49.5 8.83301 70.5 26.5s34.833 39.5 41.5 65.5c5.33301 26 1 47.833 -13 65.5s-34 26.5 -60 26.5
s-49.667 -8.83301 -71 -26.5s-34.666 -39.5 -39.999 -65.5z" />
    <glyph glyph-name="uni0432" unicode="&#x432;" horiz-adv-x="1198" 
d="M606 399h-82l-26 -123h82c39.333 0 64.333 20.667 75 62c2.66699 16.667 0 31 -8 43s-21.667 18 -41 18zM706.5 675.5c3 11 0.332031 22.333 -8.00098 34s-19.166 17.5 -32.499 17.5h-72l-23 -102h72c15.333 0 29 5.66699 41 17s19.5 22.5 22.5 33.5zM212.999 1004
l593.999 0.000976562c118.667 0 207.334 -24.333 266.001 -73s88 -107.667 88 -177c-1.33301 -112 -64.666 -194.667 -189.999 -248c4 -1.33301 9 -3.33301 15 -6s16.833 -9.5 32.5 -20.5s29.667 -23 42 -36s23.666 -30.833 33.999 -53.5s15.5 -46.334 15.5 -71.001
c0 -96.667 -40 -174 -120 -232s-199 -87 -357 -87h-633z" />
    <glyph glyph-name="uni0433" unicode="&#x433;" horiz-adv-x="1073" 
d="M305 649l-157.998 215c4 4 10.5 10.167 19.5 18.5s28.5 22 58.5 41s62.167 36 96.5 51s79.5 28.667 135.5 41s113.333 18.5 172 18.5c130 0 233.833 -30 311.5 -90s116.5 -129 116.5 -207c0 -61.333 -15.333 -114.166 -46 -158.499s-68.334 -77 -113.001 -98
s-88.834 -38.333 -132.501 -52s-80.834 -26.334 -111.501 -38.001s-46 -24.5 -46 -38.5c0 -23.333 17 -35 51 -35c27.333 0 56.166 6.16699 86.499 18.5s53.5 24.833 69.5 37.5l23 18l159 -215c-5.33301 -5.33301 -12.666 -12.833 -21.999 -22.5
s-31.166 -26.334 -65.499 -50.001s-71 -44.5 -110 -62.5s-89.833 -34.5 -152.5 -49.5s-127.334 -22.5 -194.001 -22.5c-134 0 -240.333 30.167 -319 90.5s-118 130.5 -118 210.5c0 60 15.5 112.333 46.5 157s68.667 77.834 113 99.501s88.333 39.667 132 54
s80.834 27.333 111.501 39s46 23.5 46 35.5c0 20.667 -19 31 -57 31c-16.667 0 -33.5 -3 -50.5 -9s-29.833 -12 -38.5 -18z" />
    <glyph glyph-name="uni0434" unicode="&#x434;" horiz-adv-x="1323" 
d="M547 1587c229.333 -46.667 408.169 -137.166 536.502 -271.499s192.5 -305.166 192.5 -512.499c0 -256.667 -69.667 -459.834 -209 -609.501s-311.333 -224.5 -516 -224.5c-140.667 0 -258.834 43.333 -354.501 130s-143.5 188 -143.5 304
c0 157.333 56.333 288.166 169 392.499s240 156.5 382 156.5c54.667 0 102.5 -6.83301 143.5 -20.5s67.5 -27.167 79.5 -40.5l21 -21c-40.667 204.667 -198.334 334.667 -473.001 390zM729.003 471.001c5.33301 26 1.16797 47.833 -12.499 65.5s-33.5 26.5 -59.5 26.5
s-49.5 -8.83301 -70.5 -26.5s-34.833 -39.5 -41.5 -65.5c-5.33301 -26 -0.833008 -47.833 13.5 -65.5s34.333 -26.5 60 -26.5s49.167 8.83301 70.5 26.5s34.666 39.5 39.999 65.5z" />
    <glyph glyph-name="uni0435" unicode="&#x435;" horiz-adv-x="1228" 
d="M1151 410h-605.999c34 -48 85.667 -72 155 -72c27.333 0 56.5 3.33301 87.5 10s55.167 13.667 72.5 21l25 10l96 -303c-10.667 -8 -26.667 -17.833 -48 -29.5s-67.833 -27.5 -139.5 -47.5s-145.834 -30 -222.501 -30c-154 0 -278.833 46.167 -374.5 138.5
s-143.5 201.166 -143.5 326.499c0 170.667 63.833 313.334 191.5 428.001s282.5 172 464.5 172c142 0 260.333 -39.833 355 -119.5s142 -177.5 142 -293.5c0 -38 -4.33301 -74.833 -13 -110.5s-18 -61.167 -28 -76.5zM661.501 717c-25.667 0 -49.833 -9.16699 -72.5 -27.5
s-40 -43.5 -52 -75.5h204c1.33301 30 -5.16699 54.667 -19.5 74s-34.333 29 -60 29z" />
    <glyph glyph-name="uni0436" unicode="&#x436;" horiz-adv-x="1802" 
d="M584 1004l141 -238l51 238h471l-47 -218l205 218h518l-426 -439l219 -565h-469l-112 305l-48 -49l-53 -256h-471l51 244l-22 39l-225 -283h-500l483 594l-246 410h480z" />
    <glyph glyph-name="uni0437" unicode="&#x437;" horiz-adv-x="1044" 
d="M952 287c0 -74 -28.332 -136.165 -84.999 -186.498s-121.5 -84.833 -194.5 -103.5s-149.167 -28 -228.5 -28c-66.667 0 -129.667 7.5 -189 22.5s-107.5 33.167 -144.5 54.5s-69.5 42.166 -97.5 62.499s-47.333 38.166 -58 53.499l-18 22l237 205
c46.667 -54.667 106 -82 178 -82c53.333 0 80 15 80 45c0 24.667 -20.333 37 -61 37h-74l51 246h78c42 0 63 10.167 63 30.5s-19 30.5 -57 30.5c-24.667 0 -50 -4 -76 -12s-45.667 -16.333 -59 -25l-21 -10l-157 215c4 4 10.5 10.167 19.5 18.5s28.5 22 58.5 41s62 36 96 51
s79.333 28.667 136 41s115.667 18.5 177 18.5c130 0 233.167 -28.667 309.5 -86s114.5 -121.333 114.5 -192c0 -130 -88.667 -216 -266 -258c5.33301 -1.33301 12.166 -3.83301 20.499 -7.5s23.333 -11.167 45 -22.5s40.667 -24.5 57 -39.5s31.333 -35.167 45 -60.5
s20.5 -52.333 20.5 -81z" />
    <glyph glyph-name="uni0438" unicode="&#x438;" horiz-adv-x="1292" 
d="M614 0l23 112.998c-8 -9.33301 -19.167 -21.666 -33.5 -36.999s-46.5 -35.166 -96.5 -59.499s-102.333 -36.5 -157 -36.5c-86 0 -154.5 25.833 -205.5 77.5s-76.5 123.167 -76.5 214.5c0 30 4.66699 69 14 117l131 615h471l-104 -492c-10.667 -54.667 7 -82 53 -82
c48 0 79.333 34 94 102l100 472h471l-213 -1004h-471z" />
    <glyph glyph-name="uni0439" unicode="&#x439;" horiz-adv-x="1292" 
d="M614 0l23 112.998c-8 -9.33301 -19.167 -21.666 -33.5 -36.999s-46.5 -35.166 -96.5 -59.499s-102.333 -36.5 -157 -36.5c-86 0 -154.5 25.833 -205.5 77.5s-76.5 123.167 -76.5 214.5c0 30 4.66699 69 14 117l131 615h471l-104 -492c-10.667 -54.667 7 -82 53 -82
c48 0 79.333 34 94 102l100 472h471l-213 -1004h-471zM817 1393c44 0 72.667 27.333 86 82h328c-22 -106.667 -73.333 -194.834 -154 -264.501s-178.334 -104.5 -293.001 -104.5c-118.667 0 -212.5 35.833 -281.5 107.5s-92.5 158.834 -70.5 261.501h328
c-5.33301 -24.667 -2.66602 -44.5 8.00098 -59.5s27 -22.5 49 -22.5z" />
    <glyph glyph-name="uni043A" unicode="&#x43a;" horiz-adv-x="1259" 
d="M584 309l-62 -61l-51 -248h-471l213 1004h471l-49 -228l219 228h526l-424 -437l218 -567h-482z" />
    <glyph glyph-name="uni043B" unicode="&#x43b;" horiz-adv-x="1259" 
d="M315 1004l953.002 -0.000976562l-213 -1004h-471l125 594h-62c-88.667 -416.667 -272.334 -625 -551.001 -625c-32.667 0 -65.667 2.83301 -99 8.5s-58.333 10.5 -75 14.5l-24 8l88 430c19.333 -6.66699 35.666 -10 48.999 -10c52 0 97 28.333 135 85
s75 168.334 111 335.001z" />
    <glyph glyph-name="uni043C" unicode="&#x43c;" horiz-adv-x="1454" 
d="M1034 1004h428l-213 -1004h-471l84 399l-194 -194l-113 194l-84 -399h-471l213 1004h391l156 -277z" />
    <glyph glyph-name="uni043D" unicode="&#x43d;" horiz-adv-x="1280" 
d="M604 0l62 297h-134l-61 -297h-471l213 1004h471l-63 -297h133l63 297h471l-213 -1004h-471z" />
    <glyph glyph-name="uni043E" unicode="&#x43e;" 
d="M635 399c28.667 0 54.168 11.999 76.501 35.999s33.5 52.333 33.5 85c0 24.667 -7.5 44.834 -22.5 60.501s-34.5 23.5 -58.5 23.5c-28.667 0 -54.334 -11.5 -77.001 -34.5s-34 -51.167 -34 -84.5c0 -26 7.5 -46.833 22.5 -62.5s34.833 -23.5 59.5 -23.5zM1243 548.999
c0 -157.333 -64.833 -293.333 -194.5 -408s-281.167 -172 -454.5 -172c-164 0 -295.167 47.5 -393.5 142.5s-147.5 210.167 -147.5 345.5c0 154 64.5 288.667 193.5 404s282.5 173 460.5 173c162.667 0 292.667 -47.333 390 -142s146 -209 146 -343z" />
    <glyph glyph-name="uni043F" unicode="&#x43f;" 
d="M684 1004l-24.9971 -115.001c8 9.33301 20 21.5 36 36.5s49.167 35.167 99.5 60.5s102.166 38 155.499 38c82 0 148.667 -26 200 -78s77 -123 77 -213c0 -38 -4.33301 -77.667 -13 -119l-129 -614h-471l105 492c5.33301 20.667 3.16602 39.334 -6.50098 56.001
s-25.834 25 -48.501 25c-20.667 0 -40.167 -9.5 -58.5 -28.5s-30.5 -43.5 -36.5 -73.5l-98 -471h-471l213 1004h471z" />
    <glyph glyph-name="uni0440" unicode="&#x440;" horiz-adv-x="1331" 
d="M766 -20c-36.667 0 -71.167 5 -103.5 15s-58 22.5 -77 37.5s-35.667 30.333 -50 46s-24.166 29.167 -29.499 40.5l-8 14l-119 -563h-471l305 1434h471l-25 -113c8 9.33301 19.667 21.5 35 36.5s48.166 34.833 98.499 59.5s102.833 37 157.5 37
c96.667 0 177.167 -39.333 241.5 -118s96.5 -176.667 96.5 -294c0 -188.667 -53.5 -341.167 -160.5 -457.5s-227.5 -174.5 -361.5 -174.5zM662 399c34 0 62.833 11.999 86.5 35.999s35.5 53.667 35.5 89c0 23.333 -8.16699 42.5 -24.5 57.5s-37.5 22.5 -63.5 22.5
c-34 0 -63 -11.167 -87 -33.5s-36 -52.166 -36 -89.499c0 -24.667 8 -44.5 24 -59.5s37.667 -22.5 65 -22.5z" />
    <glyph glyph-name="uni0441" unicode="&#x441;" horiz-adv-x="1136" 
d="M705 614c-39.333 0 -74.501 -11.4961 -105.501 -34.4961s-46.5 -54.5 -46.5 -94.5c0 -26 11.333 -48.5 34 -67.5s51 -28.5 85 -28.5c27.333 0 55 6.16699 83 18.5s49.333 25.166 64 38.499l21 19l219 -287c-5.33301 -5.33301 -12.5 -12.833 -21.5 -22.5
s-29.5 -26.334 -61.5 -50.001s-65.833 -44.834 -101.5 -63.501s-81.5 -35.5 -137.5 -50.5s-113.333 -22.5 -172 -22.5c-147.333 0 -269.5 46.833 -366.5 140.5s-145.5 202.5 -145.5 326.5c0 166.667 64.5 308 193.5 424s288.5 174 478.5 174c58.667 0 115 -7.5 169 -22.5
s98 -33 132 -54s64 -41.833 90 -62.5s44.333 -38.334 55 -53.001l17 -23l-332 -282c-39.333 51.333 -89.666 77 -150.999 77z" />
    <glyph glyph-name="uni0442" unicode="&#x442;" horiz-adv-x="1863" 
d="M1188 0l104 491.997c5.33301 20.667 4.33301 39.334 -3 56.001s-22 25 -44 25c-40.667 0 -68 -34 -82 -102l-98 -471h-471l104 492c5.33301 20.667 4.66602 39.334 -2.00098 56.001s-21.667 25 -45 25c-40.667 0 -68 -34 -82 -102l-98 -471h-471l213 1004h471l-25 -113
c6.66699 9.33301 17.334 21.5 32.001 36.5s45.5 34.833 92.5 59.5s96.5 37 148.5 37c57.333 0 106.5 -13.667 147.5 -41s67.5 -54.666 79.5 -81.999l19 -41c10.667 12 25.834 27.333 45.501 46s60 43 121 73s121.5 45 181.5 45c83.333 0 150.166 -25 200.499 -75
s75.5 -120.667 75.5 -212c0 -31.333 -4.66699 -72.333 -14 -123l-129 -614h-471z" />
    <glyph glyph-name="uni0443" unicode="&#x443;" horiz-adv-x="1167" 
d="M221 61l-127 943.001h473l15 -469l213 469h503l-579 -1024c-155.333 -273.333 -345 -410 -569 -410c-42 0 -84.333 3.33301 -127 10s-74.334 13.667 -95.001 21l-30 10l86 409c27.333 -13.333 61.333 -20 102 -20c30 0 56.333 5.16699 79 15.5
s37.334 20.166 44.001 29.499z" />
    <glyph glyph-name="uni0444" unicode="&#x444;" horiz-adv-x="1658" 
d="M1065 635l-59 -287l12 6c8 4 19.167 10.5 33.5 19.5s28 20 41 33s24.333 29.333 34 49s14.5 41.167 14.5 64.5c0 24.667 -6.5 46.5 -19.5 65.5s-25.833 32.167 -38.5 39.5zM596 348l59 286.999l-12 -6c-9.33301 -4 -20.833 -10.5 -34.5 -19.5s-27 -20 -40 -33
s-24.333 -29.667 -34 -50s-14.5 -42.166 -14.5 -65.499s6.16699 -44.5 18.5 -63.5s25.5 -32.167 39.5 -39.5zM399 -430.001l82 388.999c-126.667 13.333 -229.667 63.833 -309 151.5s-119 192.167 -119 313.5c0 157.333 64.833 292.166 194.5 404.499
s283.5 177.5 461.5 195.5l86 410h471l-86 -410c126.667 -13.333 230 -64.166 310 -152.499s120 -193.166 120 -314.499c0 -155.333 -65.5 -289.333 -196.5 -402s-284.833 -178 -461.5 -196l-82 -389h-471z" />
    <glyph glyph-name="uni0445" unicode="&#x445;" horiz-adv-x="1146" 
d="M590 0l-60 225l-149 -225h-504l395 516l-172 488h475l52 -205l137 205h504l-381 -496l178 -508h-475z" />
    <glyph glyph-name="uni0446" unicode="&#x446;" horiz-adv-x="1333" 
d="M827 1004l471.005 -0.00195312l-112 -523c-2.66699 -13.333 -0.333984 -25.166 6.99902 -35.499s18 -15.5 32 -15.5h63l-135 -635h-471l78 346c-6.66699 -6.66699 -13.5 -13 -20.5 -19s-23.833 -18.667 -50.5 -38s-53.334 -35.833 -80.001 -49.5
s-60.834 -26.167 -102.501 -37.5s-82.834 -17 -123.501 -17c-94 0 -169.667 26.833 -227 80.5s-86 127.834 -86 222.501c0 32.667 4 68 12 106l131 615h471l-104 -492c-5.33301 -23.333 -3.33301 -42.833 6 -58.5s25.666 -23.5 48.999 -23.5
c19.333 0 37.5 8.16699 54.5 24.5s28.833 39.5 35.5 69.5z" />
    <glyph glyph-name="uni0447" unicode="&#x447;" horiz-adv-x="1218" 
d="M543 0l51 246c-61.333 -27.333 -126.333 -41 -195 -41c-110.667 0 -193.167 36.833 -247.5 110.5s-68.5 173.167 -42.5 298.5l84 390h471l-68 -318c-6.66699 -34 6.33301 -51 39 -51l43 10l78 359h471l-213 -1004h-471z" />
    <glyph glyph-name="uni0448" unicode="&#x448;" horiz-adv-x="1863" 
d="M684 1004l-104.002 -492.002c-5.33301 -20.667 -4.33301 -39.5 3 -56.5s22 -25.5 44 -25.5c40.667 0 68 34 82 102l98 472h471l-104 -492c-5.33301 -20.667 -4.66602 -39.5 2.00098 -56.5s21.667 -25.5 45 -25.5c40.667 0 68 34 82 102l98 472h471l-213 -1004h-471
l24 113c-6.66699 -9.33301 -17.167 -21.666 -31.5 -36.999s-45 -35.166 -92 -59.499s-96.5 -36.5 -148.5 -36.5c-57.333 0 -106.5 13.5 -147.5 40.5s-67.5 54.167 -79.5 81.5l-19 41c-10.667 -12 -26 -27.167 -46 -45.5s-60.333 -42.5 -121 -72.5s-121 -45 -181 -45
c-83.333 0 -150.166 24.833 -200.499 74.5s-75.5 120.167 -75.5 211.5c0 31.333 4.66699 72.333 14 123l129 615h471z" />
    <glyph glyph-name="uni0449" unicode="&#x449;" horiz-adv-x="1906" 
d="M1872 1004l-110.998 -523.002c-2.66699 -13.333 -0.166992 -25.166 7.5 -35.499s18.167 -15.5 31.5 -15.5h64l-135 -635h-472l78 346c-6.66699 -6.66699 -13.334 -13 -20.001 -19s-23.334 -18.667 -50.001 -38s-53.334 -35.833 -80.001 -49.5
s-60.834 -26.167 -102.501 -37.5s-83.167 -17 -124.5 -17c-39.333 0 -75.666 5.33301 -108.999 16s-59 24.167 -77 40.5s-33.333 32.833 -46 49.5s-21.334 30.334 -26.001 41.001l-6 16c-10.667 -12 -26 -27.167 -46 -45.5s-60.333 -42.5 -121 -72.5s-121 -45 -181 -45
c-83.333 0 -150.166 24.833 -200.499 74.5s-75.5 120.167 -75.5 211.5c0 31.333 4.66699 72.333 14 123l129 615h471l-104 -492c-5.33301 -20.667 -4.33301 -39.5 3 -56.5s22 -25.5 44 -25.5c40.667 0 68 34 82 102l98 472h471l-104 -492
c-5.33301 -20.667 -4.66602 -39.5 2.00098 -56.5s21.667 -25.5 45 -25.5c40.667 0 68 34 82 102l98 472h471z" />
    <glyph glyph-name="uni044A" unicode="&#x44a;" horiz-adv-x="1249" 
d="M1192 416c0 -126.667 -48.168 -227.668 -144.501 -303.001s-214.166 -113 -353.499 -113h-592l121 573h-184l92 431h655l-57 -267h66c117.333 0 212.833 -31.667 286.5 -95s110.5 -138.666 110.5 -225.999zM603.999 296.999h31.001c23.333 0 44.166 8.5 62.499 25.5
s27.5 37.167 27.5 60.5c0 18 -5.5 32 -16.5 42s-25.167 15 -42.5 15h-31z" />
    <glyph glyph-name="uni044B" unicode="&#x44b;" horiz-adv-x="1740" 
d="M1749 1004l-213 -1004h-471l213 1004h471zM1069 414c0 -122.667 -45.667 -222.333 -137 -299s-204 -115 -338 -115h-594l213 1004h471l-57 -267h67c108 0 197.5 -32 268.5 -96s106.5 -139.667 106.5 -227zM502 297.001h30c23.333 0 44.333 8.5 63 25.5s28 37.167 28 60.5
c0 18 -5.5 32 -16.5 42s-25.5 15 -43.5 15h-31z" />
    <glyph glyph-name="uni044C" unicode="&#x44c;" horiz-adv-x="1146" 
d="M1090 414c0 -122.667 -45.833 -222.333 -137.5 -299s-204.5 -115 -338.5 -115h-614l213 1004h471l-57 -267h88c108 0 197.5 -32 268.5 -96s106.5 -139.667 106.5 -227zM502 297.001h30c23.333 0 44.333 8.5 63 25.5s28 37.167 28 60.5c0 18 -5.5 32 -16.5 42
s-25.5 15 -43.5 15h-31z" />
    <glyph glyph-name="uni044D" unicode="&#x44d;" horiz-adv-x="1136" 
d="M420 297c65.333 0 118.665 24.002 159.998 72.002h-277l55 266h258c-32.667 48 -81.667 72 -147 72c-38 0 -75.167 -9 -111.5 -27s-62.5 -35.667 -78.5 -53l-25 -27l-166 225c4 5.33301 10.833 12.833 20.5 22.5s30.167 26.5 61.5 50.5s64.5 45.167 99.5 63.5
s80.833 35 137.5 50s114.334 22.5 173.001 22.5c147.333 0 269.166 -46 365.499 -138s144.5 -201.667 144.5 -329c0 -165.333 -65.667 -306.333 -197 -423s-291.666 -175 -480.999 -175c-58.667 0 -114.667 7.5 -168 22.5s-96.833 33.167 -130.5 54.5
s-62.667 42.166 -87 62.499s-42.166 38.166 -53.499 53.499l-16 22l254 217c5.33301 -8 12.833 -17.833 22.5 -29.5s32.667 -27 69 -46s75.5 -28.5 117.5 -28.5z" />
    <glyph glyph-name="uni044E" unicode="&#x44e;" horiz-adv-x="1792" 
d="M1128 -31c-110.667 0 -213.667 29.332 -309 87.999s-160 138.667 -194 240h-93l-61 -297h-471l213 1004h471l-63 -297h47c53.333 98 129.833 176.667 229.5 236s208.167 89 325.5 89c157.333 0 284.333 -45.667 381 -137s145 -204 145 -338
c0 -161.333 -61.5 -299.666 -184.5 -414.999s-268.5 -173 -436.5 -173zM1155 398.999c27.333 0 50.833 12.668 70.5 38.001s29.5 53.666 29.5 84.999c0 24.667 -6.33301 44.5 -19 59.5s-28.667 22.5 -48 22.5c-24.667 0 -48 -11.5 -70 -34.5s-33 -51.833 -33 -86.5
c0 -26 6.83301 -46.5 20.5 -61.5s30.167 -22.5 49.5 -22.5z" />
    <glyph glyph-name="uni044F" unicode="&#x44f;" horiz-adv-x="1187" 
d="M692 707h-30c-23.333 0 -44.333 -8.66699 -63 -26s-28 -38.333 -28 -63c0 -36.667 20 -55 60 -55h31zM563 246l-164.001 -246h-473l271 369c-6.66699 6.66699 -15.167 16.167 -25.5 28.5s-24.166 37.833 -41.499 76.5s-26 78.667 -26 120c0 117.333 46.833 215 140.5 293
s214.167 117 361.5 117h590l-213 -1004h-471z" />
    <glyph glyph-name="uni0451" unicode="&#x451;" horiz-adv-x="1228" 
d="M1151 410h-605.999c34 -48 85.667 -72 155 -72c27.333 0 56.5 3.33301 87.5 10s55.167 13.667 72.5 21l25 10l96 -303c-10.667 -8 -26.667 -17.833 -48 -29.5s-67.833 -27.5 -139.5 -47.5s-145.834 -30 -222.501 -30c-154 0 -278.833 46.167 -374.5 138.5
s-143.5 201.166 -143.5 326.499c0 170.667 63.833 313.334 191.5 428.001s282.5 172 464.5 172c142 0 260.333 -39.833 355 -119.5s142 -177.5 142 -293.5c0 -38 -4.33301 -74.833 -13 -110.5s-18 -61.167 -28 -76.5zM661.501 717c-25.667 0 -49.833 -9.16699 -72.5 -27.5
s-40 -43.5 -52 -75.5h204c1.33301 30 -5.16699 54.667 -19.5 74s-34.333 29 -60 29zM299.002 1307c0 60 25.334 113.166 76.001 159.499s108.667 69.5 174 69.5c58.667 0 108.167 -19.5 148.5 -58.5s60.5 -85.167 60.5 -138.5c0 -61.333 -25.333 -115.5 -76 -162.5
s-109.334 -70.5 -176.001 -70.5c-60 0 -109.5 19.833 -148.5 59.5s-58.5 86.834 -58.5 141.501zM811.003 1307c0 60 25.334 113.166 76.001 159.499s108.667 69.5 174 69.5c58.667 0 108.167 -19.5 148.5 -58.5s60.5 -85.167 60.5 -138.5
c0 -61.333 -25.333 -115.5 -76 -162.5s-109.334 -70.5 -176.001 -70.5c-60 0 -109.5 19.833 -148.5 59.5s-58.5 86.834 -58.5 141.501z" />
    <glyph glyph-name="uni0452" unicode="&#x452;" 
d="M553 -41l95.999 451h45c16.667 0 30.167 4.66699 40.5 14s15.5 20.333 15.5 33c0 23.333 -15 35 -45 35c-27.333 0 -51.333 -9.66699 -72 -29s-33.667 -44 -39 -74l-82 -389h-471l195 922h-144l88 409h144l20 103h471l-20 -103h163l-88 -409h-163l-33 -154
c8 9.33301 19.5 21.5 34.5 36.5s47.833 34.833 98.5 59.5s103.334 37 158.001 37c82 0 148.167 -29.333 198.5 -88s75.5 -135.667 75.5 -231c0 -188.667 -54.333 -339.667 -163 -453s-236 -170 -382 -170h-141z" />
    <glyph glyph-name="uni0453" unicode="&#x453;" horiz-adv-x="1073" 
d="M305 649l-157.998 215c4 4 10.5 10.167 19.5 18.5s28.5 22 58.5 41s62.167 36 96.5 51s79.5 28.667 135.5 41s113.333 18.5 172 18.5c130 0 233.833 -30 311.5 -90s116.5 -129 116.5 -207c0 -61.333 -15.333 -114.166 -46 -158.499s-68.334 -77 -113.001 -98
s-88.834 -38.333 -132.501 -52s-80.834 -26.334 -111.501 -38.001s-46 -24.5 -46 -38.5c0 -23.333 17 -35 51 -35c27.333 0 56.166 6.16699 86.499 18.5s53.5 24.833 69.5 37.5l23 18l159 -215c-5.33301 -5.33301 -12.666 -12.833 -21.999 -22.5
s-31.166 -26.334 -65.499 -50.001s-71 -44.5 -110 -62.5s-89.833 -34.5 -152.5 -49.5s-127.334 -22.5 -194.001 -22.5c-134 0 -240.333 30.167 -319 90.5s-118 130.5 -118 210.5c0 60 15.5 112.333 46.5 157s68.667 77.834 113 99.501s88.333 39.667 132 54
s80.834 27.333 111.501 39s46 23.5 46 35.5c0 20.667 -19 31 -57 31c-16.667 0 -33.5 -3 -50.5 -9s-29.833 -12 -38.5 -18zM434.002 1106l266 369h514l-356 -369h-424z" />
    <glyph glyph-name="uni0454" unicode="&#x454;" horiz-adv-x="1136" 
d="M723 707c-61.333 0 -114.668 -23.998 -160.001 -71.998h277l-56 -266h-262c31.333 -48 78 -72 140 -72c42 0 81.833 8.83301 119.5 26.5s65.167 35.5 82.5 53.5l25 26l170 -225c-4 -5.33301 -10.167 -12.833 -18.5 -22.5s-27.5 -26.334 -57.5 -50.001
s-62.333 -44.834 -97 -63.501s-80 -35.5 -136 -50.5s-115 -22.5 -177 -22.5c-151.333 0 -275.833 45.5 -373.5 136.5s-146.5 198.5 -146.5 322.5c0 169.333 63.833 312.666 191.5 429.999s288.5 176 482.5 176c58.667 0 115 -7.5 169 -22.5s97.667 -33 131 -54
s63 -41.833 89 -62.5s44.333 -38.334 55 -53.001l17 -23l-250 -213c-5.33301 6.66699 -13.166 15.834 -23.499 27.501s-34.333 26.834 -72 45.501s-77.5 28 -119.5 28z" />
    <glyph glyph-name="uni0455" unicode="&#x455;" horiz-adv-x="1054" 
d="M1083 860l-244.996 -208.996c-32.667 23.333 -66.334 35 -101.001 35c-39.333 0 -59 -13 -59 -39c0 -10.667 15.667 -23.834 47 -39.501s66.166 -31.667 104.499 -48s73.166 -43.333 104.499 -81s47 -82.5 47 -134.5c0 -106.667 -42.667 -195.834 -128 -267.501
s-211.333 -107.5 -378 -107.5c-66.667 0 -130 7.5 -190 22.5s-109.167 33.167 -147.5 54.5s-71.833 42.166 -100.5 62.499s-49.334 38.166 -62.001 53.499l-18 22l244 209c40.667 -50.667 91.667 -76 153 -76c39.333 0 59.333 13 60 39c0 10.667 -10.333 22 -31 34
s-46 24.833 -76 38.5s-60 29.667 -90 48s-55.167 44.5 -75.5 78.5s-30.5 72.333 -30.5 115c0 101.333 43 187.333 129 258s212 106 378 106c94 0 179.667 -14.667 257 -44s131 -58.333 161 -87z" />
    <glyph glyph-name="uni0456" unicode="&#x456;" horiz-adv-x="716" 
d="M264 1288c0 68 27.667 126.334 83 175.001s119.333 73 192 73c76.667 0 137 -19.833 181 -59.5s66 -88.167 66 -145.5c0 -66.667 -26.833 -124.334 -80.5 -173.001s-118.167 -73 -193.5 -73c-76.667 0 -137.167 19.5 -181.5 58.5s-66.5 87.167 -66.5 144.5z
M20 0.000976562l213 1004h472l-213 -1004h-472z" />
    <glyph glyph-name="uni0457" unicode="&#x457;" horiz-adv-x="716" 
d="M41 1307c0 60 25.334 113.166 76.001 159.499s108.667 69.5 174 69.5c58.667 0 108.167 -19.5 148.5 -58.5s60.5 -85.167 60.5 -138.5c0 -61.333 -25.333 -115.5 -76 -162.5s-109.334 -70.5 -176.001 -70.5c-60 0 -109.5 19.833 -148.5 59.5s-58.5 86.834 -58.5 141.501z
M553.001 1307c0 60 25.334 113.166 76.001 159.499s108.667 69.5 174 69.5c58.667 0 108.167 -19.5 148.5 -58.5s60.5 -85.167 60.5 -138.5c0 -61.333 -25.333 -115.5 -76 -162.5s-109.334 -70.5 -176.001 -70.5c-60 0 -109.5 19.833 -148.5 59.5
s-58.5 86.834 -58.5 141.501zM705.002 1004l-213 -1004h-472l213 1004h472z" />
    <glyph glyph-name="uni0458" unicode="&#x458;" horiz-adv-x="716" 
d="M41 102l192 901.999h472l-209 -984c-30 -143.333 -90.167 -254.166 -180.5 -332.499s-202.166 -117.5 -335.499 -117.5c-42 0 -83.667 3.33301 -125 10s-72.333 13.667 -93 21l-28 10l88 409c23.333 -13.333 55.333 -20 96 -20c30 0 56.667 9.5 80 28.5
s37.666 43.5 42.999 73.5zM264 1288c0 68 27.667 126.334 83 175.001s119.333 73 192 73c76.667 0 137 -19.833 181 -59.5s66 -88.167 66 -145.5c0 -66.667 -26.833 -124.334 -80.5 -173.001s-118.167 -73 -193.5 -73c-76.667 0 -137.167 19.5 -181.5 58.5
s-66.5 87.167 -66.5 144.5z" />
    <glyph glyph-name="uni0459" unicode="&#x459;" horiz-adv-x="1689" 
d="M1044 297h31.001c23.333 0 44.166 8.5 62.499 25.5s27.5 37.167 27.5 60.5c0 18 -5.33301 32 -16 42s-25 15 -43 15h-31zM1632 420c0 -126.667 -48.498 -228.334 -145.498 -305.001s-214.833 -115 -353.5 -115h-570l125 594h-41
c-88.667 -416.667 -270.334 -625 -545.001 -625c-32.667 0 -66 2.83301 -100 8.5s-60 10.5 -78 14.5l-26 8l90 430c19.333 -6.66699 35.666 -10 48.999 -10c34 0 63.333 9.5 88 28.5s50.667 60.333 78 124s53.333 152.834 78 267.501l34 164h932l-57 -267h51
c121.333 0 216.833 -30.667 286.5 -92s104.5 -136.333 104.5 -225z" />
    <glyph glyph-name="uni045A" unicode="&#x45a;" horiz-adv-x="1710" 
d="M1153 0l-569 0.000976562l73 348h-112l-74 -348h-471l213 1004h471l-57 -267h112l58 267h471l-58 -267h52c121.333 0 216.833 -30.667 286.5 -92s104.5 -136.333 104.5 -225c0 -126.667 -48.5 -228.334 -145.5 -305.001s-215.167 -115 -354.5 -115zM1065 297.001h31.001
c23.333 0 44.166 8.5 62.499 25.5s27.5 37.167 27.5 60.5c0 18 -5.5 32 -16.5 42s-25.5 15 -43.5 15h-30z" />
    <glyph glyph-name="uni045B" unicode="&#x45b;" horiz-adv-x="1331" 
d="M958 1331l-87.998 -409h-163l-33 -156c2.66699 4 6.66699 9.16699 12 15.5s17.666 17 36.999 32s39.5 28.5 60.5 40.5s48.167 22.833 81.5 32.5s67.333 14.5 102 14.5c83.333 0 150.166 -26.333 200.499 -79s75.5 -125.334 75.5 -218.001c0 -34 -4 -71.333 -12 -112
l-105 -492h-471l78 369c5.33301 20.667 3 39.5 -7 56.5s-26 25.5 -48 25.5s-41.5 -10.667 -58.5 -32s-28.833 -47.666 -35.5 -78.999l-72 -340h-471l195 922h-144l88 409h144l20 103h471l-20 -103h163z" />
    <glyph glyph-name="uni045C" unicode="&#x45c;" horiz-adv-x="1259" 
d="M549 1106l266 369h514l-356 -369h-424zM584 309l-62 -61l-51 -248h-471l213 1004h471l-49 -228l219 228h526l-424 -437l218 -567h-482z" />
    <glyph glyph-name="uni045E" unicode="&#x45e;" horiz-adv-x="1208" 
d="M221 61l-127 943.001h473l15 -469l213 469h503l-579 -1024c-155.333 -273.333 -345 -410 -569 -410c-42 0 -84.333 3.33301 -127 10s-74.334 13.667 -95.001 21l-30 10l86 409c27.333 -13.333 61.333 -20 102 -20c30 0 56.333 5.16699 79 15.5
s37.334 20.166 44.001 29.499zM731 1393c44 0 72.667 27.333 86 82h328c-22 -106.667 -73.333 -194.834 -154 -264.501s-178.334 -104.5 -293.001 -104.5c-118.667 0 -212.5 35.833 -281.5 107.5s-92.5 158.834 -70.5 261.501h328
c-5.33301 -24.667 -2.66602 -44.5 8.00098 -59.5s27 -22.5 49 -22.5z" />
    <glyph glyph-name="uni045F" unicode="&#x45f;" 
d="M0 0l213 1004h471l-127 -594h143l127 594h471l-213 -1004h-307l-45 -205h-471l45 205h-307z" />
    <glyph glyph-name="uni0490" unicode="&#x490;" 
d="M928 1434l53 245h532l-153 -716h-574l-202 -963h-533l303 1434h574z" />
    <glyph glyph-name="uni0491" unicode="&#x491;" horiz-adv-x="993" 
d="M0 0l213 1004h379l39 184h471l-131 -615h-379l-121 -573h-471z" />
    <glyph glyph-name="uni1E9E" unicode="&#x1e9e;" horiz-adv-x="1484" 
d="M1475 1014l-194.997 -215c4 -2.66699 9.83301 -6.83398 17.5 -12.501s20.667 -18.334 39 -38.001s34.666 -40.5 48.999 -62.5s27.333 -50.667 39 -86s17.5 -72.333 17.5 -111c0 -135.333 -54.667 -250.666 -164 -345.999s-259 -143 -449 -143h-194l82 389h53
c79.333 0 119 33.333 119 100c0 42 -29.333 63.333 -88 64h-39l65 307l123 144h-51c-35.333 0 -67.333 -11.667 -96 -35s-46.334 -52.666 -53.001 -87.999l-187 -881h-532l186 881c35.333 168 114.166 302.167 236.499 402.5s273.5 150.5 453.5 150.5h656z" />
    <glyph glyph-name="endash" unicode="&#x2013;" horiz-adv-x="1146" 
d="M1161 799l-82 -389h-1024l82 389h1024z" />
    <glyph glyph-name="emdash" unicode="&#x2014;" horiz-adv-x="1638" 
d="M1653 799l-82 -389h-1516l82 389h1516z" />
    <glyph glyph-name="quoteleft" unicode="&#x2018;" horiz-adv-x="696" 
d="M489 750l-337 213l438 512l268 -168z" />
    <glyph glyph-name="quoteright" unicode="&#x2019;" horiz-adv-x="696" 
d="M494 1483l337 -213l-438 -512l-268 168z" />
    <glyph glyph-name="quotesinglbase" unicode="&#x201a;" horiz-adv-x="655" 
d="M236 455l337 -209l-436 -512l-264 166z" />
    <glyph glyph-name="quotedblleft" unicode="&#x201c;" horiz-adv-x="1187" 
d="M983 772l-299 191l438 512l230 -146zM451 772l-299 191l438 512l229 -146z" />
    <glyph glyph-name="quotedblright" unicode="&#x201d;" horiz-adv-x="1187" 
d="M496 1481l299 -191l-439 -512l-229 146zM1028 1481l299 -191l-438 -512l-230 146z" />
    <glyph glyph-name="quotedblbase" unicode="&#x201e;" horiz-adv-x="1116" 
d="M201 438l301 -192l-436 -512l-230 147zM733 438l301 -192l-436 -512l-231 147z" />
    <glyph glyph-name="dagger" unicode="&#x2020;" horiz-adv-x="1085" 
d="M958 1434l-53 -256h256l-76 -359h-256l-135 -635h-409l135 635h-256l76 359h256l53 256h409z" />
    <glyph glyph-name="daggerdbl" unicode="&#x2021;" horiz-adv-x="1085" 
d="M285 184l41 195h-256l75 358h256l31 144h-256l76 358h256l41 195h409l-40 -195h256l-76 -358h-256l-31 -144h256l-76 -358h-256l-41 -195h-409z" />
    <glyph glyph-name="bullet" unicode="&#x2022;" horiz-adv-x="942" 
d="M147 459c0 91.333 37.667 174.166 113 248.499s163.333 111.5 264 111.5c91.333 0 163.333 -28.667 216 -86s79 -127.666 79 -210.999c0 -92.667 -38.5 -175.5 -115.5 -248.5s-164.167 -109.5 -261.5 -109.5c-90 0 -161.667 28.333 -215 85s-80 126.667 -80 210z" />
    <glyph glyph-name="ellipsis" unicode="&#x2026;" horiz-adv-x="1863" 
d="M8 186c0 70.667 27.333 132.5 82 185.5s120.167 79.5 196.5 79.5s136.333 -20.167 180 -60.5s65.5 -90.5 65.5 -150.5c0 -72.667 -26.833 -134.167 -80.5 -184.5s-120.167 -75.5 -199.5 -75.5c-75.333 0 -134.833 19.333 -178.5 58s-65.5 88 -65.5 148zM623 186
c0 70.667 27.165 132.5 81.498 185.5s119.833 79.5 196.5 79.5s136.834 -20.167 180.501 -60.5s65.5 -90.5 65.5 -150.5c0 -72.667 -27 -134.167 -81 -184.5s-120.667 -75.5 -200 -75.5c-75.333 0 -134.666 19.333 -177.999 58s-65 88 -65 148zM1237 186
c0 70.667 27.333 132.5 82 185.5s120.167 79.5 196.5 79.5s136.333 -20.167 180 -60.5s65.5 -90.5 65.5 -150.5c0 -72.667 -27 -134.167 -81 -184.5s-120.333 -75.5 -199 -75.5c-75.333 0 -134.833 19.333 -178.5 58s-65.5 88 -65.5 148z" />
    </font>
</defs>
</svg>
