<?xml version="1.0" standalone="no"?>
<!DOCTYPE svg PUBLIC "-//W3C//DTD SVG 1.1//EN" "http://www.w3.org/Graphics/SVG/1.1/DTD/svg11.dtd" >
<svg xmlns="http://www.w3.org/2000/svg" xmlns:xlink="http://www.w3.org/1999/xlink" version="1.1">
<metadata>
Created by FontForge 20190801 at Tue May 30 06:19:16 2017
 By Jimmy Wärting
Copyright (c) 2017 by TypeType. Designers Ivan Gladkikh, Pavel Emelyanov. Technical designers Olexa Volochay, Nadyr Rakhimov, Dmitriy Greshnev. All rights reserved.
</metadata>
<defs>
<font id="TTNorms-Italic" horiz-adv-x="1187" >
  <font-face 
    font-family="TT Norms Italic"
    font-weight="400"
    font-style="italic"
    font-stretch="normal"
    units-per-em="2048"
    panose-1="2 0 5 3 2 0 0 9 0 3"
    ascent="1638"
    descent="-410"
    x-height="983"
    cap-height="1434"
    bbox="-379 -451.001 2945.01 1976"
    underline-thickness="0"
    underline-position="0"
    unicode-range="U+000D-FB06"
  />
<missing-glyph horiz-adv-x="0" 
 />
    <glyph glyph-name="ij" unicode="ij" horiz-adv-x="1003" 
d="M563 -143l35 162.999c-52 -27.333 -115.333 -40.666 -190 -39.999c-80.667 0 -146.667 25.5 -198 76.5s-77 117.5 -77 199.5c0 24.667 3.33301 52.667 10 84l138 643h143l-137 -643c-4 -22 -6 -42.333 -6 -61c0 -50.667 14.333 -91 43 -121s68.667 -45 120 -45
c27.333 0 56.5 4.33301 87.5 13s54.5 17.334 70.5 26.001l27 12l174 819h143l-239 -1126c-39.333 -191.333 -146.666 -287 -321.999 -287c-22 0 -43.167 2.66699 -63.5 8s-35.5 10.666 -45.5 15.999l-14 7l29 133c30 -20.667 65.333 -31 106 -31
c87.333 0 142.666 51.333 165.999 154zM322 1296c0 28.667 10.167 53.667 30.5 75s45.5 32 75.5 32c22 0 41.167 -7.83301 57.5 -23.5s24.5 -34.5 24.5 -56.5c0 -28.667 -11 -53.167 -33 -73.5s-47.333 -30.5 -76 -30.5c-22 0 -40.667 7.66699 -56 23s-23 33.333 -23 54z
M842 1296c0 28.667 10.168 53.667 30.501 75s45.5 32 75.5 32c22 0 41.167 -7.83301 57.5 -23.5s24.5 -34.5 24.5 -56.5c0 -28.667 -10.833 -53.167 -32.5 -73.5s-46.834 -30.5 -75.501 -30.5c-22 0 -40.833 7.66699 -56.5 23s-23.5 33.333 -23.5 54z" />
    <glyph glyph-name="uniFB00" unicode="ff" horiz-adv-x="1239" 
d="M1284 983l-28.999 -133.002h-235l-180 -850h-144l181 850h-441l-180 -850h-143l180 850h-154l29 133h154l28 143c18 91.333 56 162 114 212s128 75 210 75c24.667 0 48.5 -2.66699 71.5 -8s40.833 -10.666 53.5 -15.999l16 -7l-29 -133c-34 20.667 -74.667 31 -122 31
c-40.667 0 -76.834 -13.333 -108.501 -40s-52.167 -64.667 -61.5 -114l-29 -143h440l39 184c19.333 91.333 57.333 162 114 212s126 75 208 75c24.667 0 48.5 -2.66699 71.5 -8s40.167 -10.666 51.5 -15.999l18 -7l-29 -133c-32.667 20.667 -73 31 -121 31
c-44 0 -80.833 -13 -110.5 -39s-49.5 -64.333 -59.5 -115l-38 -184h235z" />
    <glyph glyph-name="uniFB01" unicode="fi" horiz-adv-x="1105" 
d="M696 0l180.998 849.999h-441l-180 -850h-143l180 850h-154l29 133h154l38 184c19.333 91.333 57 162 113 212s125 75 207 75c24.667 0 48.834 -2.66699 72.501 -8s41.834 -10.666 54.501 -15.999l16 -7l-28 -133c-32.667 20.667 -73 31 -121 31
c-42 0 -78.5 -13.333 -109.5 -40s-51.167 -64.667 -60.5 -114l-39 -184h584l-209 -983h-144zM943.998 1296c0 28.667 10.333 53.667 31 75s46 32 76 32c22 0 41.167 -7.83301 57.5 -23.5s24.5 -34.5 24.5 -56.5c0 -28.667 -11 -53.167 -33 -73.5s-47.333 -30.5 -76 -30.5
c-22 0 -40.833 7.66699 -56.5 23s-23.5 33.333 -23.5 54z" />
    <glyph glyph-name="uniFB02" unicode="fl" horiz-adv-x="1126" 
d="M707 0l229.001 1087c4 16.667 6 33.334 6 50.001c0 53.333 -18 97.333 -54 132s-80.667 52 -134 52c-61.333 0 -118.333 -22.5 -171 -67.5s-85.334 -100.5 -98.001 -166.5l-20 -104h235l-28 -133h-236l-180 -850h-143l180 850h-154l29 133h154l20 104
c19.333 102.667 69.833 189.5 151.5 260.5s173.167 106.5 274.5 106.5c90 0 165.333 -28.333 226 -85s91 -127.334 91 -212.001c0 -23.333 -2 -46.666 -6 -69.999l-229 -1087h-143z" />
    <glyph glyph-name="uniFB03" unicode="ffi" horiz-adv-x="1689" 
d="M1280 0l179.997 849.998h-440l-180 -850h-144l181 850h-441l-180 -850h-143l180 850h-154l29 133h154l28 143c20.667 91.333 59.334 162 116.001 212s126 75 208 75c24.667 0 48.5 -2.66699 71.5 -8s40.833 -10.666 53.5 -15.999l16 -7l-29 -133
c-32.667 20.667 -72.667 31 -120 31c-91.333 0 -148.666 -51.333 -171.999 -154l-29 -143h440l39 184c19.333 91.333 57.333 162 114 212s126 75 208 75c24.667 0 48.5 -2.66699 71.5 -8s40.167 -10.666 51.5 -15.999l18 -7l-29 -133c-31.333 20.667 -70.666 31 -117.999 31
c-42 0 -78.833 -13.333 -110.5 -40s-52.5 -64.667 -62.5 -114l-38 -184h583l-209 -983h-143zM1528 1296c0 28.667 10.168 53.667 30.501 75s45.5 32 75.5 32c22 0 41.167 -7.83301 57.5 -23.5s24.5 -34.5 24.5 -56.5c0 -28.667 -10.833 -53.167 -32.5 -73.5
s-46.834 -30.5 -75.501 -30.5c-22 0 -40.833 7.66699 -56.5 23s-23.5 33.333 -23.5 54z" />
    <glyph glyph-name="uniFB06" unicode="st" horiz-adv-x="1607" 
d="M840 870l-115.003 -96.0039c-5.33301 6.66699 -13.5 15.5 -24.5 26.5s-35.667 25.333 -74 43s-78.5 26.5 -120.5 26.5c-61.333 0 -110.166 -15.333 -146.499 -46s-54.5 -67 -54.5 -109c0 -36.667 23.167 -69.167 69.5 -97.5s97.166 -51.333 152.499 -69
s106.333 -47 153 -88s70 -90.833 70 -149.5c0 -96.667 -36.667 -176 -110 -238s-171.333 -93 -294 -93c-46.667 0 -90 6 -130 18s-72.667 26.333 -98 43s-47.166 33.5 -65.499 50.5s-31.833 31.5 -40.5 43.5l-12 19l115 96c6.66699 -10.667 16.5 -23.667 29.5 -39
s41 -35.5 84 -60.5s89.167 -37.5 138.5 -37.5c75.333 0 133.333 16.333 174 49s61 75.667 61 129c0 39.333 -23.167 73.333 -69.5 102s-97.166 51.834 -152.499 69.501s-106.166 46.334 -152.499 86.001s-69.5 88.167 -69.5 145.5c0 84.667 34.5 157.5 103.5 218.5
s157.167 91.5 264.5 91.5c40.667 0 83 -6.33301 127 -19c-9.33301 38 -14 64.667 -14 80c0 102.667 42 193.167 126 271.5s180.667 117.5 290 117.5c95.333 0 176.166 -27 242.499 -81s99.5 -121.333 99.5 -202c0 -22 -2 -43.667 -6 -65l-25 -123h215l-29 -133h-215
l-125 -584c-4 -19.333 -6 -35.666 -6 -48.999c0 -69.333 35.667 -104 107 -104c22 0 44.5 2.66699 67.5 8s40.833 10 53.5 14l18 8l-27 -133c-46.667 -20.667 -95.667 -30.667 -147 -30c-69.333 0 -123.166 17.333 -161.499 52s-57.5 84 -57.5 148
c0 23.333 3.33301 52 10 86l125 584h-184l28 133h185l24 123c2.66699 19.333 4 33 4 41c0 50.667 -19.333 92.334 -58 125.001s-87.334 49 -146.001 49c-78 0 -142.333 -27.333 -193 -82s-76 -123 -76 -205c0.666992 -61.333 21.334 -116 62.001 -164z" />
    <glyph glyph-name="c_t.liga" unicode="ct" horiz-adv-x="1771" 
d="M82 403c0 155.333 57.332 294.334 171.999 417.001s253.334 184 416.001 184c52 0 102.333 -9 151 -27c-12 27.333 -18 56.666 -18 87.999c0 104 44 194.833 132 272.5s189.333 116.5 304 116.5c90 0 166.5 -26.333 229.5 -79s94.5 -117.667 94.5 -195
c0 -16.667 -3 -41.334 -9 -74.001l-24 -123h215l-29 -133h-215l-125 -584c-4 -19.333 -6 -35.666 -6 -48.999c0 -69.333 35.667 -104 107 -104c22 0 44.5 2.66699 67.5 8s40.5 10 52.5 14l19 8l-27 -133c-46.667 -20.667 -95.667 -30.667 -147 -30
c-69.333 0 -123.166 17.333 -161.499 52s-57.5 84 -57.5 148c0 23.333 3.33301 52 10 86l125 584h-184l28 133h184l25 123c4 16.667 6 33 6 49c0 48 -18 87.667 -54 119s-80.667 47 -134 47c-83.333 0 -152 -26 -206 -78s-81 -117.333 -81 -196
c0 -68 36.333 -147.333 109 -238l-111 -92c-2.66699 4 -6.66699 9.33301 -12 16s-17 19 -35 37s-37.5 33.833 -58.5 47.5s-48.333 25.834 -82 36.501s-68.834 16 -105.501 16c-106.667 0 -203.334 -44.667 -290.001 -134s-130 -196 -130 -320
c0 -84.667 27.667 -156.334 83 -215.001s122.666 -88 201.999 -88c36.667 0 72.834 5.33301 108.501 16s66.5 24 92.5 40s48.833 32.167 68.5 48.5s34.834 29.833 45.501 40.5l15 16l88 -90c-4 -5.33301 -10.5 -12.833 -19.5 -22.5s-28.167 -26 -57.5 -49
s-59.333 -43.333 -90 -61s-70 -34 -118 -49s-95.667 -22.5 -143 -22.5c-116 0 -215 41.5 -297 124.5s-123 182.5 -123 298.5z" />
    <glyph glyph-name="s_p.liga" unicode="sp" horiz-adv-x="2109" 
d="M840 870l-115.001 -95.998c-5.33301 6.66699 -13.5 15.5 -24.5 26.5s-35.667 25.333 -74 43s-78.5 26.5 -120.5 26.5c-61.333 0 -110.166 -15.333 -146.499 -46s-54.5 -67 -54.5 -109c0 -36.667 23.167 -69.167 69.5 -97.5s97.166 -51.333 152.499 -69
s106.333 -47 153 -88s70 -90.833 70 -149.5c0 -96.667 -36.667 -176 -110 -238s-171.333 -93 -294 -93c-46.667 0 -90 6 -130 18s-72.667 26.333 -98 43s-47.166 33.5 -65.499 50.5s-31.833 31.5 -40.5 43.5l-12 19l115 96c6.66699 -10.667 16.5 -23.667 29.5 -39
s41 -35.5 84 -60.5s89.167 -37.5 138.5 -37.5c75.333 0 133.333 16.333 174 49s61 75.667 61 129c0 39.333 -23.167 73.333 -69.5 102s-97.166 51.834 -152.499 69.501s-106.166 46.334 -152.499 86.001s-69.5 88.167 -69.5 145.5c0 84.667 34.5 157.5 103.5 218.5
s157.167 91.5 264.5 91.5c39.333 0 82.333 -6.33301 129 -19c-10.667 22 -16 48.667 -16 80c0 102.667 39.667 193.167 119 271.5s171.333 117.5 276 117.5c79.333 0 149.333 -27.667 210 -83s91 -122.666 91 -201.999c0 -22 -2 -43 -6 -63l-59 -268
c4 4 9.33301 9.66699 16 17s22 20.666 46 39.999s49 36.166 75 50.499s59.167 27.666 99.5 39.999s81.5 18.5 123.5 18.5c106.667 0 199.667 -42 279 -126s119 -183.333 119 -298c0 -164 -60.167 -305 -180.5 -423s-251.5 -177 -393.5 -177c-42 0 -81.833 6 -119.5 18
s-68.834 27 -93.501 45s-45.834 36.167 -63.501 54.5s-30.5 33.5 -38.5 45.5l-13 19l-125 -592h-143l328 1536c2.66699 19.333 4 33.666 4 42.999c0 49.333 -16 90.333 -48 123s-69.333 49 -112 49c-68 0 -127 -27.667 -177 -83s-75 -123.333 -75 -204
c0 -58.667 17.667 -110.334 53 -155.001zM1614 870.002c-106.667 0 -204.333 -49.5 -293 -148.5s-133 -205.833 -133 -320.5c0 -83.333 28 -152.166 84 -206.499s123 -81.5 201 -81.5c95.333 0 187.333 45.667 276 137s133 197.666 133 318.999
c0 84.667 -26.5 156 -79.5 214s-115.833 87 -188.5 87z" />
    <glyph glyph-name="f_t.liga" unicode="ft" horiz-adv-x="1310" 
d="M956 1085l49.998 225.999h133l-70 -328h215l-29 -133h-215l-125 -584c-20.667 -102.667 13 -153.667 101 -153c22 0 44.5 2.66699 67.5 8s40.833 10 53.5 14l18 8l-27 -133c-46.667 -20.667 -95.667 -30.667 -147 -30c-84.667 0 -145.5 24.833 -182.5 74.5
s-45.833 120.167 -26.5 211.5l125 584h-461l-180 -850h-143l180 850h-154l29 133h154l38 184c19.333 91.333 57 162 113 212s125 75 207 75c24.667 0 48.834 -2.66699 72.501 -8s41.834 -10.666 54.501 -15.999l16 -7l-28 -133c-31.333 20.667 -71 31 -119 31
c-42 0 -78.833 -13.333 -110.5 -40s-52.167 -64.667 -61.5 -114l-39 -184h389c54.667 0 88.667 34 102 102z" />
    <glyph glyph-name=".notdef" horiz-adv-x="0" 
 />
    <glyph glyph-name="glyph1" horiz-adv-x="0" 
 />
    <glyph glyph-name="glyph1" horiz-adv-x="0" 
 />
    <glyph glyph-name="uni000D" unicode="&#xd;" horiz-adv-x="0" 
 />
    <glyph glyph-name="space" unicode=" " horiz-adv-x="389" 
 />
    <glyph glyph-name="exclam" unicode="!" horiz-adv-x="634" 
d="M360 348h-122l198 1086h185zM143 66c0 31.333 10.332 58.833 30.999 82.5s47.334 35.5 80.001 35.5c30 0 53.833 -7.83301 71.5 -23.5s26.5 -36.5 26.5 -62.5c0 -35.333 -10.833 -63.833 -32.5 -85.5s-48.167 -32.5 -79.5 -32.5c-30 0 -53.667 7.83301 -71 23.5
s-26 36.5 -26 62.5z" />
    <glyph glyph-name="quotedbl" unicode="&#x22;" horiz-adv-x="716" 
d="M477 1434l-90 -430h-133l90 430h133zM795 1434l-90 -430h-134l91 430h133z" />
    <glyph glyph-name="numbersign" unicode="#" horiz-adv-x="1484" 
d="M1286 1434h133l-170 -420h318l-49 -133h-322l-133 -328h303l-49 -133h-309l-168 -420h-133l167 420h-389l-168 -420h-133l168 420h-315l49 133h322l133 328h-303l49 133h307l170 420h133l-170 -420h389zM674 881l-133 -328h389l133 328h-389z" />
    <glyph glyph-name="dollar" unicode="$" horiz-adv-x="1157" 
d="M526 123c96.667 0 182.333 24.501 257 73.501s112 122.167 112 219.5c0 52 -22.167 96.333 -66.5 133s-98.666 67.334 -162.999 92.001s-128.166 50.667 -191.499 78s-117.166 65.833 -161.499 115.5s-66.5 109.5 -66.5 179.5c0 120 43.333 221.333 130 304
s203.667 127.334 351 134.001l45 207h143l-45 -215c60 -10.667 116 -30.834 168 -60.501s88.333 -55.834 109 -78.501l33 -35l-115 -99c-2.66699 4 -6.83398 9.16699 -12.501 15.5s-18.334 17.333 -38.001 33s-40.334 29.667 -62.001 42s-51 23.666 -88 33.999
s-75.167 15.5 -114.5 15.5c-106.667 0 -191.167 -26.667 -253.5 -80s-93.5 -118.333 -93.5 -195c0 -52 22.667 -96.333 68 -133s99.666 -67.334 162.999 -92.001s126.833 -50.667 190.5 -78s118 -65.833 163 -115.5s67.5 -109.5 67.5 -179.5
c0 -132.667 -44.5 -239.834 -133.5 -321.501s-209.833 -126.5 -362.5 -134.5l-45 -207h-143l45 211c-78 10.667 -148 33.334 -210 68.001s-104.667 67.334 -128 98.001l-37 43l109 100c2.66699 -4 7 -10.167 13 -18.5s20.333 -22.333 43 -42s46.834 -37 72.501 -52
s61 -28.667 106 -41s92.167 -18.5 141.5 -18.5z" />
    <glyph glyph-name="percent" unicode="%" horiz-adv-x="1556" 
d="M164 0l1196 1434h151l-1196 -1434h-151zM870 1171c0 -90 -35.834 -171.167 -107.501 -243.5s-155.167 -108.5 -250.5 -108.5c-83.333 0 -152.666 27.333 -207.999 82s-83 121 -83 199c0 94 36.833 176.5 110.5 247.5s156.5 106.5 248.5 106.5
c83.333 0 152.5 -27.333 207.5 -82s82.5 -121.667 82.5 -201zM525.999 940c54.667 0 103.5 23.167 146.5 69.5s64.5 98.166 64.5 155.499c0 49.333 -15.667 89.666 -47 120.999s-72.333 47 -123 47c-53.333 0 -101.833 -22.167 -145.5 -66.5s-65.5 -97.166 -65.5 -158.499
c0 -49.333 15.667 -89.666 47 -120.999s72.333 -47 123 -47zM1450 332c0 -90 -35.833 -171.168 -107.5 -243.501s-155.167 -108.5 -250.5 -108.5c-83.333 0 -152.666 27.167 -207.999 81.5s-83 120.5 -83 198.5c0 94 36.833 176.5 110.5 247.5s156.167 106.5 247.5 106.5
c83.333 0 152.666 -27.167 207.999 -81.5s83 -121.166 83 -200.499zM1106 99.999c54.667 0 103.5 23.333 146.5 70s64.5 98.667 64.5 156c0 49.333 -15.667 89.666 -47 120.999s-72.333 47 -123 47c-53.333 0 -101.833 -22.333 -145.5 -67s-65.5 -97.667 -65.5 -159
c0 -49.333 15.667 -89.666 47 -120.999s72.333 -47 123 -47z" />
    <glyph glyph-name="ampersand" unicode="&#x26;" horiz-adv-x="1280" 
d="M1018 1196c0 -150 -119.668 -302.998 -359.001 -458.998l238 -393c9.33301 10.667 21.5 25.667 36.5 45s38.333 59.333 70 120s54.167 123 67.5 187h131c-18 -82 -46.333 -161.833 -85 -239.5s-73.667 -134.834 -105 -171.501l-45 -56c4 -8 9.33301 -18.5 16 -31.5
s22.334 -30.333 47.001 -52s50 -32.5 76 -32.5l65 10l-28 -133c-24.667 -6.66699 -48.667 -10 -72 -10c-42 0 -80.167 13.5 -114.5 40.5s-58.166 54.167 -71.499 81.5l-19 39c-12 -12 -29 -26.833 -51 -44.5s-68.5 -41.5 -139.5 -71.5s-142.5 -45 -214.5 -45
c-104 0 -188 30.667 -252 92s-96 132.333 -96 213c0 50.667 12.833 101.5 38.5 152.5s57 94.667 94 131s74 69.166 111 98.499s68.5 51.333 94.5 66l38 21c-10.667 15.333 -23.834 35.166 -39.501 59.499s-36.834 67.833 -63.501 130.5s-40 118 -40 166
c0 96.667 36.5 178.167 109.5 244.5s159.5 99.5 259.5 99.5c80.667 0 151.334 -25.667 212.001 -77s91 -111.666 91 -180.999zM800.999 240.002l-249.999 421.999c-8 -4 -18.833 -10.5 -32.5 -19.5s-38 -27.167 -73 -54.5s-65.833 -54.666 -92.5 -81.999
s-50.834 -60.5 -72.501 -99.5s-32.5 -76.167 -32.5 -111.5c0 -53.333 19.833 -97 59.5 -131s96.167 -51 169.5 -51c54.667 0 109 10.5 163 31.5s94.667 42.5 122 64.5zM705 1321c-61.333 0 -113.667 -19.5 -157 -58.5s-65 -89.833 -65 -152.5c0 -35.333 10 -75.5 30 -120.5
s40 -81.167 60 -108.5l29 -41c6.66699 4 16.5 10 29.5 18s35.167 24.667 66.5 50s59.333 50.333 84 75s47 53.667 67 87s30 64.333 30 93c0 44 -17 81.333 -51 112s-75 46 -123 46z" />
    <glyph glyph-name="quotesingle" unicode="'" horiz-adv-x="399" 
d="M477 1434l-90 -430h-133l90 430h133z" />
    <glyph glyph-name="parenleft" unicode="(" horiz-adv-x="686" 
d="M313 512c-22 -104 -32.666 -202.334 -31.999 -295.001c0 -110.667 13.167 -216.5 39.5 -317.5s52.5 -173.833 78.5 -218.5l39 -70l-125 -62c-4 6.66699 -9.66699 16.334 -17 29.001s-21 39.667 -41 81s-37.167 85 -51.5 131s-27.666 105.167 -39.999 177.5
s-18.5 145.833 -18.5 220.5c0 371.333 125 723.666 375 1057c78 104 145.667 180.667 203 230l98 -62c-10.667 -9.33301 -24.834 -23.333 -42.501 -42s-51.5 -58.334 -101.5 -119.001s-95.833 -123.667 -137.5 -189s-84.334 -148.166 -128.001 -248.499
s-76.5 -201.166 -98.5 -302.499z" />
    <glyph glyph-name="parenright" unicode=")" horiz-adv-x="686" 
d="M406 512c20.667 95.333 30.667 192.333 30 291c0 112 -13.333 218.833 -40 320.5s-53 174.834 -79 219.501l-38 70l127 62c4 -6.66699 9.66699 -16.334 17 -29.001s21 -40.167 41 -82.5s37.167 -86.333 51.5 -132s27.5 -105 39.5 -178s18 -147.167 18 -222.5
c0 -82 -6.83301 -164.167 -20.5 -246.5s-31.334 -158 -53.001 -227s-47.167 -136.667 -76.5 -203s-60 -125.333 -92 -177s-64.5 -101.167 -97.5 -148.5s-63.5 -87.666 -91.5 -120.999s-53.5 -62.333 -76.5 -87s-40.833 -43 -53.5 -55l-16 -17l-98 62
c10.667 9.33301 24.834 23.333 42.501 42s51.167 58.334 100.5 119.001s94.833 123.667 136.5 189s84.667 148.166 129 248.499s77.5 201.166 99.5 302.499z" />
    <glyph glyph-name="asterisk" unicode="*" horiz-adv-x="798" 
d="M526 1014l-196 -230l-86 76l219 215l-244 62l66 112l229 -82l35 267h123l-76 -267l262 82l16 -112l-268 -62l129 -215l-98 -72z" />
    <glyph glyph-name="plus" unicode="+" horiz-adv-x="1054" 
d="M530 143h-133l84 389h-379l29 134h379l82 389h133l-82 -389h379l-29 -134h-379z" />
    <glyph glyph-name="comma" unicode="," horiz-adv-x="440" 
d="M125 184l131 -82l-313 -368l-82 51z" />
    <glyph glyph-name="hyphen" unicode="-" horiz-adv-x="870" 
d="M829 676l-28 -133h-686l28 133h686z" />
    <glyph glyph-name="period" unicode="." horiz-adv-x="430" 
d="M35 66c0 31.333 10.167 58.833 30.5 82.5s46.833 35.5 79.5 35.5c30 0 54 -7.83301 72 -23.5s27 -36.5 27 -62.5c0 -35.333 -11 -63.833 -33 -85.5s-48.667 -32.5 -80 -32.5c-30 0 -53.5 7.83301 -70.5 23.5s-25.5 36.5 -25.5 62.5z" />
    <glyph glyph-name="slash" unicode="/" horiz-adv-x="890" 
d="M1034 1454l-1007 -1884h-138l1006 1884h139z" />
    <glyph glyph-name="zero" unicode="0" horiz-adv-x="1392" 
d="M645 123c113.333 0 213.666 42 300.999 126s151.166 182.667 191.499 296s60.5 226 60.5 338c0 126.667 -32.333 229.667 -97 309s-143 119 -235 119c-113.333 0 -213.666 -42 -300.999 -126s-151.166 -182.667 -191.499 -296s-60.5 -226 -60.5 -338
c0 -126.667 32.5 -229.667 97.5 -309s143.167 -119 234.5 -119zM635 -20c-128.667 0 -240.334 53.501 -335.001 160.501s-142 241.167 -142 402.5c0 140.667 22.167 270 66.5 388s101.666 214.167 171.999 288.5s147.166 132 230.499 173s166.666 61.5 249.999 61.5
c128.667 0 240.334 -53.5 335.001 -160.5s142 -241.167 142 -402.5c0 -140.667 -22.167 -270 -66.5 -388s-101.666 -214.333 -171.999 -289s-147.166 -132.334 -230.499 -173.001s-166.666 -61 -249.999 -61z" />
    <glyph glyph-name="one" unicode="1" horiz-adv-x="716" 
d="M600 1434l113 0.00195312l-303 -1434h-154l244 1147h-267l19 92c46.667 1.33301 90.334 9.16602 131.001 23.499s73.667 30.666 99 48.999s47.166 36.833 65.499 55.5s31.833 34 40.5 46z" />
    <glyph glyph-name="two" unicode="2" horiz-adv-x="1126" 
d="M911 0l-921 0.00292969c18 84.667 50.167 162.5 96.5 233.5s99.5 130 159.5 177s123.833 91.333 191.5 133s133.5 81 197.5 118s122.333 75 175 114s95 84.333 127 136s48 108.834 48 171.501c0 65.333 -24.833 119.666 -74.5 162.999s-115.5 65 -197.5 65
c-48 0 -92.5 -8.5 -133.5 -25.5s-74.167 -37.5 -99.5 -61.5s-46.833 -48 -64.5 -72s-29.834 -44.667 -36.501 -62l-10 -25l-121 61c2.66699 9.33301 7.33398 21.333 14.001 36s23 40.667 49 78s55.5 70.333 88.5 99s78.833 55 137.5 79s122 36 190 36
c117.333 0 215.333 -35.167 294 -105.5s118 -154.5 118 -252.5c0 -80.667 -18.5 -154.834 -55.5 -222.501s-84.167 -123.334 -141.5 -167.001s-122.5 -88.334 -195.5 -134.001s-143.333 -86.667 -211 -123s-132.5 -81.5 -194.5 -135.5s-109.333 -111 -142 -171h741z" />
    <glyph glyph-name="three" unicode="3" horiz-adv-x="1146" 
d="M825 752c5.33301 -2.66699 12.4961 -6.16797 21.4961 -10.501s25.167 -15.333 48.5 -33s43.833 -36.667 61.5 -57s33.667 -48.666 48 -84.999s21.5 -74.833 21.5 -115.5c0 -128.667 -48.833 -239.334 -146.5 -332.001s-229.167 -139 -394.5 -139
c-61.333 0 -119.666 7.5 -174.999 22.5s-100.333 32.667 -135 53s-65 41.166 -91 62.499s-44.333 39.333 -55 54l-19 23l115 96c2.66699 -4 7 -9.83301 13 -17.5s20.333 -21.334 43 -41.001s46.667 -36.667 72 -51s59.5 -27.666 102.5 -39.999s88.5 -18.5 136.5 -18.5
c114.667 0 207.834 30 279.501 90s107.5 135 107.5 225c0 66.667 -23 123 -69 169s-112.667 69 -200 69h-159l30 143h117c96.667 0 181.334 27 254.001 81s109 124.667 109 212c0 54.667 -23.333 101.5 -70 140.5s-106.667 58.5 -180 58.5
c-39.333 0 -78.5 -5.5 -117.5 -16.5s-71.5 -24.667 -97.5 -41s-49.333 -32.666 -70 -48.999s-35.667 -30.166 -45 -41.499l-14 -16l-80 113c4 5.33301 10 12.333 18 21s26.333 24 55 46s58.834 41.5 90.501 58.5s73 32.667 124 47s103.167 21.5 156.5 21.5
c109.333 0 200.833 -32.333 274.5 -97s110.5 -141 110.5 -229c0 -157.333 -73.667 -273.333 -221 -348c-38.667 -18.667 -62 -28 -70 -28z" />
    <glyph glyph-name="four" unicode="4" horiz-adv-x="1198" 
d="M944 451h184l-30 -144h-185l-63 -307h-154l64 307h-727l37 174l880 953h203zM791 451l172 809l-746 -809h574z" />
    <glyph glyph-name="five" unicode="5" horiz-adv-x="1249" 
d="M723 922c117.333 0 214.168 -37.999 290.501 -113.999s114.5 -168.667 114.5 -278c0 -162.667 -54.167 -295 -162.5 -397s-244.5 -153 -408.5 -153c-58.667 0 -114.667 7.5 -168 22.5s-96.666 32.667 -129.999 53s-62.333 41.166 -87 62.499s-42.334 39.333 -53.001 54
l-17 23l119 98c2.66699 -4 7.16699 -10.167 13.5 -18.5s19.666 -22 39.999 -41s43.166 -36 68.499 -51s58.5 -28.667 99.5 -41s84.5 -18.5 130.5 -18.5c114.667 0 210 36.5 286 109.5s114 167.5 114 283.5c0 76.667 -25.333 139.5 -76 188.5s-117 73.5 -199 73.5
c-64 0 -124.667 -13 -182 -39s-98.333 -51 -123 -75l-37 -39h-112l223 809h768l-31 -144h-631l-124 -450c8 5.33301 18.833 12.833 32.5 22.5s44.334 22 92.001 37s97.5 22.5 149.5 22.5z" />
    <glyph glyph-name="six" unicode="6" horiz-adv-x="1208" 
d="M700 922c117.333 0 214.668 -37.6689 292.001 -113.002s116 -166.666 116 -273.999c0 -157.333 -56.333 -289.166 -169 -395.499s-250.334 -159.5 -413.001 -159.5c-124 0 -225.333 35.833 -304 107.5s-118 161.167 -118 268.5c0 138 53.333 271.333 160 400l2 2l576 676
h168l-451 -533c31.333 14 78.333 21 141 21zM545.002 122.998c112 0 207.834 37.167 287.501 111.5s119.5 168.833 119.5 283.5c0 76.667 -24.833 139.167 -74.5 187.5s-116.834 72.5 -201.501 72.5c-116 0 -214.333 -36.833 -295 -110.5s-121 -168.5 -121 -284.5
c0 -76.667 26 -139.167 78 -187.5s121 -72.5 207 -72.5z" />
    <glyph glyph-name="seven" unicode="7" horiz-adv-x="1013" 
d="M272 1434h902l-31 -144l-907 -1290h-166l907 1290h-735z" />
    <glyph glyph-name="eight" unicode="8" horiz-adv-x="1208" 
d="M698 840c91.333 0 166.501 25.5 225.501 76.5s88.5 116.167 88.5 195.5c0 54.667 -22.167 101.5 -66.5 140.5s-101.5 58.5 -171.5 58.5c-90 0 -163.667 -26 -221 -78s-86 -117.667 -86 -197c0 -54.667 21.167 -101 63.5 -139s98.166 -57 167.499 -57zM793.001 1454
c102.667 0 190.33 -33.8398 262.997 -101.507s109 -144.5 109 -230.5c-1.33301 -155.333 -86 -272.666 -254 -351.999c5.33301 -2.66699 11.833 -6.66699 19.5 -12s21.834 -17.333 42.501 -36s38.834 -38.5 54.501 -59.5s30 -49 43 -84s19.5 -71.5 19.5 -109.5
c0 -134 -54.667 -249 -164 -345s-240.666 -144 -393.999 -144c-118.667 0 -218.5 37.833 -299.5 113.5s-121.5 163.834 -121.5 264.501c0 28.667 2.66699 56.667 8 84s12.166 52 20.499 74s19.666 43.5 33.999 64.5s26.833 38.333 37.5 52s26 28.334 46 44.001
s34.667 27.667 44 36s24.333 18 45 29s33.334 17.833 38.001 20.5s15.167 7.33398 31.5 14.001s22.5 9.33398 18.5 8.00098l4 2h2c-9.33301 6.66699 -21.166 16.334 -35.499 29.001s-33.5 40.834 -57.5 84.501s-36 89.167 -36 136.5c0 110.667 47.167 208 141.5 292
s207.833 126 340.5 126zM658.997 716.993c-105.333 0 -197.166 -35.168 -275.499 -105.501s-117.5 -149.833 -117.5 -238.5c0 -68 26.333 -126.667 79 -176s122 -74 208 -74c109.333 0 200.166 33.833 272.499 101.5s108.5 145.834 108.5 234.501c0 68 -26.333 128 -79 180
s-118 78 -196 78z" />
    <glyph glyph-name="nine" unicode="9" horiz-adv-x="1208" 
d="M627 512c-117.333 0 -214.668 37.501 -292.001 112.501s-116 166.5 -116 274.5c0 157.333 56.333 289.166 169 395.499s250.334 159.5 413.001 159.5c124 0 225.333 -35.833 304 -107.5s118 -161.5 118 -269.5c0 -138 -53.333 -271 -160 -399l-2 -2l-576 -676h-168
l451 532c-31.333 -13.333 -78.333 -20 -141 -20zM781.998 1311c-112 0 -207.834 -37.332 -287.501 -111.999s-119.5 -169.334 -119.5 -284.001c0 -76.667 24.833 -139.167 74.5 -187.5s116.834 -72.5 201.501 -72.5c116 0 214.333 37 295 111s121 169 121 285
c0 76.667 -26 139.167 -78 187.5s-121 72.5 -207 72.5z" />
    <glyph glyph-name="colon" unicode=":" horiz-adv-x="430" 
d="M35 66c0 31.333 10.167 58.833 30.5 82.5s46.833 35.5 79.5 35.5c30 0 54 -7.83301 72 -23.5s27 -36.5 27 -62.5c0 -35.333 -11 -63.833 -33 -85.5s-48.667 -32.5 -80 -32.5c-30 0 -53.5 7.83301 -70.5 23.5s-25.5 36.5 -25.5 62.5zM209 885c0 31.333 10.167 59 30.5 83
s46.833 36 79.5 36c30 0 54 -8 72 -24s27 -36.667 27 -62c0 -35.333 -11 -64 -33 -86s-48.667 -33 -80 -33c-30 0 -53.5 7.83301 -70.5 23.5s-25.5 36.5 -25.5 62.5z" />
    <glyph glyph-name="semicolon" unicode=";" horiz-adv-x="450" 
d="M209 885c0 31.333 10.167 59 30.5 83s46.833 36 79.5 36c30 0 54 -8 72 -24s27 -36.667 27 -62c0 -35.333 -11 -64 -33 -86s-48.667 -33 -80 -33c-30 0 -53.5 7.83301 -70.5 23.5s-25.5 36.5 -25.5 62.5zM125 184l131 -82l-313 -368l-82 51z" />
    <glyph glyph-name="less" unicode="&#x3c;" horiz-adv-x="1013" 
d="M96 461l19 82l923 440l-32 -152l-717 -337l573 -338l-28 -136z" />
    <glyph glyph-name="equal" unicode="=" horiz-adv-x="1013" 
d="M934 492l-29 -134h-829l28 134h830zM1010 850l-29 -133h-829l28 133h830z" />
    <glyph glyph-name="greater" unicode="&#x3e;" horiz-adv-x="1013" 
d="M944 543l-18 -82l-924 -441l33 152l717 338l-574 338l29 135z" />
    <glyph glyph-name="question" unicode="?" horiz-adv-x="1075" 
d="M430 440c13.333 61.333 40.834 117.999 82.501 169.999s87.5 95.5 137.5 130.5s99.167 69.5 147.5 103.5s88.666 72.833 120.999 116.5s48.5 92.167 48.5 145.5c0 57.333 -23.667 105.833 -71 145.5s-109.666 59.5 -186.999 59.5c-49.333 0 -95.5 -7.83301 -138.5 -23.5
s-76.833 -34.834 -101.5 -57.501s-46.167 -45 -64.5 -67s-30.833 -41 -37.5 -57l-11 -23l-129 43c2.66699 9.33301 7.5 21.333 14.5 36s23.833 40.667 50.5 78s56.667 70.333 90 99s79.666 55 138.999 79s123.333 36 192 36c116 0 213.5 -33.833 292.5 -101.5
s118.5 -146.5 118.5 -236.5c0 -75.333 -16.667 -141.166 -50 -197.499s-75 -103 -125 -140s-100.5 -72.167 -151.5 -105.5s-98 -74 -141 -122s-70.833 -102 -83.5 -162l-8 -41h-143c0 32.667 2.66699 63.334 8 92.001zM350.001 65.999c0 31.333 10.332 58.833 30.999 82.5
s47.334 35.5 80.001 35.5c30 0 53.833 -7.83301 71.5 -23.5s26.5 -36.5 26.5 -62.5c0 -35.333 -10.833 -63.833 -32.5 -85.5s-48.5 -32.5 -80.5 -32.5c-30 0 -53.5 7.83301 -70.5 23.5s-25.5 36.5 -25.5 62.5z" />
    <glyph glyph-name="at" unicode="@" horiz-adv-x="1843" 
d="M958 758c-70.667 0 -134.333 -29.999 -191 -89.999s-85 -136 -85 -228c0 -56 18.167 -102.333 54.5 -139s80.833 -55 133.5 -55c75.333 0 142 31 200 93s87 138.667 87 230c0 57.333 -18.833 103.166 -56.5 137.499s-85.167 51.5 -142.5 51.5zM965.001 881.001
c32.667 0 63.335 -4.16602 92.002 -12.499s51.5 -18 68.5 -29s32 -22.333 45 -34s22.167 -21.5 27.5 -29.5l8 -12l23 106h123l-101 -467c-4 -23.333 -6 -42.333 -6 -57c0 -66.667 35 -100 105 -100c61.333 0 119.333 34.167 174 102.5s82 175.5 82 321.5
c0 140.667 -53 258.667 -159 354s-239.333 143 -400 143c-204.667 0 -384.334 -74 -539.001 -222s-232 -329.333 -232 -544c0 -150 49.167 -278.167 147.5 -384.5s223.5 -159.5 375.5 -159.5c72.667 0 143.334 11.5 212.001 34.5s119.334 46.167 152.001 69.5l49 35l56 -98
c-5.33301 -4 -12.833 -9.83301 -22.5 -17.5s-30.167 -21 -61.5 -40s-64.5 -35.667 -99.5 -50s-79.5 -27.333 -133.5 -39s-109 -17.5 -165 -17.5c-180 0 -332.167 65.5 -456.5 196.5s-186.5 285.167 -186.5 462.5c0 157.333 43.333 305.666 130 444.999s201 249.5 343 330.5
s290.333 121.5 445 121.5c191.333 0 352.166 -60 482.499 -180s195.5 -264.667 195.5 -434c0 -178.667 -42.333 -315.5 -127 -410.5s-179 -142.5 -283 -142.5c-49.333 0 -90 12 -122 36s-52 47.333 -60 70l-12 37c-2.66699 -4 -6.83398 -9 -12.501 -15
s-18.334 -17.167 -38.001 -33.5s-40.5 -31 -62.5 -44s-50 -24.667 -84 -35s-69.667 -15.5 -107 -15.5c-79.333 0 -146.5 30.667 -201.5 92s-82.5 134.333 -82.5 219c0 124 42.667 229.5 128 316.5s182 130.5 290 130.5z" />
    <glyph glyph-name="A" unicode="A" horiz-adv-x="1433" 
d="M1020 543l-133 676l-420 -676h553zM1051 399h-676l-248 -399h-168l897 1434h143l291 -1434h-160z" />
    <glyph glyph-name="B" unicode="B" horiz-adv-x="1372" 
d="M1073 762c4 -2.66699 10.166 -6.5 18.499 -11.5s22 -16.333 41 -34s36 -36.667 51 -57s28.667 -47.666 41 -81.999s18.5 -69.833 18.5 -106.5c0 -136.667 -49.167 -249.334 -147.5 -338.001s-221.166 -133 -368.499 -133h-604l303 1434h532
c100 0 183.5 -31.5 250.5 -94.5s100.5 -137.5 100.5 -223.5c-2 -165.333 -80.667 -283.333 -236 -354zM304.999 143l451 0.000976562c96.667 0 175.667 29.333 237 88s92 134.667 92 228c0 65.333 -21.5 121.166 -64.5 167.499s-100.5 69.5 -172.5 69.5h-424zM927.999 1290
l-379.001 0.00195312l-96 -459h393c86 0 158.667 24.667 218 74s89 115.666 89 198.999c0 53.333 -21.167 97.666 -63.5 132.999s-96.166 53 -161.499 53z" />
    <glyph glyph-name="C" unicode="C" horiz-adv-x="1536" 
d="M164 604c0 144.667 37.833 282.165 113.5 412.498s180.5 235.833 314.5 316.5s279.333 121 436 121c72.667 0 142 -10.167 208 -30.5s119.833 -44.833 161.5 -73.5s78.5 -57.667 110.5 -87s55 -54.333 69 -75l20 -31l-114 -88c-4 6.66699 -9.83301 15.5 -17.5 26.5
s-25.5 30.167 -53.5 57.5s-58.333 51.5 -91 72.5s-76.667 40.5 -132 58.5s-113.666 27 -174.999 27c-186 0 -347.833 -67.667 -485.5 -203s-206.5 -301.333 -206.5 -498c0 -136.667 47 -252 141 -346s211.333 -141 352 -141c61.333 0 120.666 8.5 177.999 25.5
s105.5 37.833 144.5 62.5s73.5 48.834 103.5 72.501s52 43.834 66 60.501l22 27l90 -95c-6.66699 -8 -15.834 -18.5 -27.501 -31.5s-37.667 -36.5 -78 -70.5s-82.666 -64.333 -126.999 -91s-101.333 -50.5 -171 -71.5s-140.5 -31.5 -212.5 -31.5
c-176 0 -326.5 62 -451.5 186s-187.5 270 -187.5 438z" />
    <glyph glyph-name="D" unicode="D" horiz-adv-x="1536" 
d="M426 1434h425.999c180 0 330.833 -60.5 452.5 -181.5s182.5 -264.167 182.5 -429.5c0 -222.667 -86.667 -415.5 -260 -578.5s-377.666 -244.5 -612.999 -244.5h-491zM830.999 1290h-282l-244 -1147h326c190 0 354.167 65.667 492.5 197s207.5 288.333 207.5 471
c0 132.667 -47.167 245.667 -141.5 339s-213.833 140 -358.5 140z" />
    <glyph glyph-name="E" unicode="E" horiz-adv-x="1310" 
d="M305 143h850l-29 -143h-1003l303 1434h983l-31 -144h-829l-98 -471h665l-31 -143h-665z" />
    <glyph glyph-name="F" unicode="F" horiz-adv-x="1259" 
d="M426 1434h973l-31 -144h-819l-105 -491h656l-29 -144h-655l-140 -655h-153z" />
    <glyph glyph-name="G" unicode="G" horiz-adv-x="1628" 
d="M164 600c0 147.333 38.4971 286.5 115.497 417.5s182.833 236.5 317.5 316.5s280.334 120 437.001 120c72.667 0 141.667 -10.167 207 -30.5s118.833 -44.833 160.5 -73.5s77.834 -57.667 108.501 -87s53 -54.333 67 -75l20 -31l-114 -88
c-4 6.66699 -9.83301 15.5 -17.5 26.5s-25.5 30.167 -53.5 57.5s-58.333 51.5 -91 72.5s-76.667 40.5 -132 58.5s-113.666 27 -174.999 27c-186 0 -347.833 -67.667 -485.5 -203s-206.5 -301.333 -206.5 -498c0 -135.333 48 -250.333 144 -345s214.333 -142 355 -142
c57.333 0 112.333 6.83301 165 20.5s96.334 30 131.001 49s65.334 37.667 92.001 56s45.667 34.5 57 48.5l18 20l59 277h-327l31 143h481l-98 -461c-6.66699 -8 -16.334 -18.5 -29.001 -31.5s-39.334 -36.5 -80.001 -70.5s-83.667 -64.333 -129 -91
s-103.5 -50.5 -174.5 -71.5s-142.5 -31.5 -214.5 -31.5c-176 0 -326.5 61.333 -451.5 184s-187.5 268 -187.5 436z" />
    <glyph glyph-name="H" unicode="H" horiz-adv-x="1536" 
d="M123 0l303 1434h154l-136 -635h799l135 635h154l-303 -1434h-154l139 655h-798l-140 -655h-153z" />
    <glyph glyph-name="I" unicode="I" horiz-adv-x="583" 
d="M123 0l303 1434h154l-304 -1434h-153z" />
    <glyph glyph-name="J" unicode="J" horiz-adv-x="1013" 
d="M866 1434l154.001 -0.000976562l-215 -1014c-27.333 -131.333 -84.666 -237.5 -171.999 -318.5s-194 -121.5 -320 -121.5c-66.667 0 -129.667 13.5 -189 40.5s-102 54.167 -128 81.5l-39 41l117 99c6.66699 -8 16.167 -19 28.5 -33s39.666 -31.833 81.999 -53.5
s88.166 -32.5 137.499 -32.5c86 0 157.667 26.333 215 79s95.333 125.334 114 218.001z" />
    <glyph glyph-name="K" unicode="K" horiz-adv-x="1372" 
d="M410 637l907 797h194l-669 -598l413 -836h-172l-360 729l-358 -309l-89 -420h-153l303 1434h154z" />
    <glyph glyph-name="L" unicode="L" horiz-adv-x="1146" 
d="M1014 0h-891l303 1434h154l-275 -1291h737z" />
    <glyph glyph-name="M" unicode="M" horiz-adv-x="1884" 
d="M1671 1167l-735 -757l-412 757l-248 -1167h-153l303 1434h127l430 -779l758 779h139l-303 -1434h-154z" />
    <glyph glyph-name="N" unicode="N" horiz-adv-x="1597" 
d="M1440 1434h153l-303 -1434h-123l-645 1159l-246 -1159h-153l303 1434h123l645 -1160z" />
    <glyph glyph-name="O" unicode="O" horiz-adv-x="1720" 
d="M981 1313c-173.333 0 -327.002 -68.001 -461.002 -204.001s-201 -293.333 -201 -472c0 -147.333 50.333 -270.166 151 -368.499s229.334 -147.5 386.001 -147.5c172 0 325.333 66.5 460 199.5s202 292.5 202 478.5c0 146 -50.167 268.167 -150.5 366.5
s-229.166 147.5 -386.499 147.5zM1673 800.999c0 -136.667 -37.832 -268.502 -113.499 -395.502s-178 -229.667 -307 -308s-266.5 -117.5 -412.5 -117.5c-195.333 0 -356.833 63 -484.5 189s-191.5 280.667 -191.5 464c0 144.667 39.833 280.834 119.5 408.501
s183.667 228.334 312 302.001s262.166 110.5 401.499 110.5c195.333 0 356.833 -63.167 484.5 -189.5s191.5 -280.833 191.5 -463.5z" />
    <glyph glyph-name="P" unicode="P" horiz-adv-x="1331" 
d="M426 1434l524.001 -0.000976562c113.333 0 207.666 -38.667 282.999 -116s113 -168.666 113 -273.999c0 -148.667 -53.667 -271.167 -161 -367.5s-236 -144.5 -386 -144.5h-410l-113 -532h-153zM928.001 1290l-379 -0.000976562l-129 -614h397c104 0 192.167 33 264.5 99
s108.5 153.667 108.5 263c0 72.667 -24.167 132.834 -72.5 180.501s-111.5 71.5 -189.5 71.5z" />
    <glyph glyph-name="Q" unicode="Q" horiz-adv-x="1720" 
d="M1673 801c0 -164 -53.8311 -319.002 -161.498 -465.002s-242.834 -249 -405.501 -309c8 -16.667 18.833 -33.5 32.5 -50.5s33.167 -36.167 58.5 -57.5s59.5 -38.833 102.5 -52.5s90.5 -20.5 142.5 -20.5l94 11l-29 -133c-22 -6.66699 -53.333 -10.334 -94 -11.001
c-64 0 -123 7.83301 -177 23.5s-97 34.5 -129 56.5s-60.667 47 -86 75s-42.833 50.833 -52.5 68.5s-17.167 34.834 -22.5 51.501c-46.667 -5.33301 -82 -8 -106 -8c-195.333 0 -356.833 63 -484.5 189s-191.5 280.667 -191.5 464c0 144.667 39.833 280.834 119.5 408.501
s183.667 228.334 312 302.001s262.166 110.5 401.499 110.5c195.333 0 356.833 -63.167 484.5 -189.5s191.5 -280.833 191.5 -463.5zM981.002 1313c-173.333 0 -327.002 -68.001 -461.002 -204.001s-201 -293.333 -201 -472c0 -147.333 50.333 -270.166 151 -368.499
s229.334 -147.5 386.001 -147.5c172 0 325.333 66.5 460 199.5s202 292.5 202 478.5c0 146 -50.167 268.167 -150.5 366.5s-229.166 147.5 -386.499 147.5z" />
    <glyph glyph-name="R" unicode="R" horiz-adv-x="1382" 
d="M426 1434l553 0.000976562c109.333 0 200.166 -35.833 272.499 -107.5s108.5 -157.5 108.5 -257.5c0 -196.667 -89.333 -339.334 -268 -428.001c-27.333 -13.333 -69.666 -29 -126.999 -47l213 -594h-164l-203 573h-414l-121 -573h-153zM961 1290l-411.999 -0.000976562
l-121 -573h406c101.333 0 188.333 31 261 93s109 145 109 249c0 66.667 -22.333 121.834 -67 165.501s-103.334 65.5 -176.001 65.5z" />
    <glyph glyph-name="S" unicode="S" horiz-adv-x="1157" 
d="M526 123c96.667 0 182.332 24.5039 256.999 73.5039s112 122.167 112 219.5c0 52 -22.167 96.333 -66.5 133s-98.666 67.334 -162.999 92.001s-128.166 50.667 -191.499 78s-117.166 65.833 -161.499 115.5s-66.5 109.5 -66.5 179.5c0 125.333 47 230 141 314
s220.333 126 379 126c52 0 101.5 -6.5 148.5 -19.5s85.833 -28.333 116.5 -46s57.667 -35.334 81 -53.001s40.333 -32.834 51 -45.501l17 -20l-115 -99c-2.66699 4 -6.83398 9.16699 -12.501 15.5s-18.334 17.333 -38.001 33s-40.334 29.667 -62.001 42
s-51 23.666 -88 33.999s-75.167 15.5 -114.5 15.5c-106.667 0 -191.167 -26.667 -253.5 -80s-93.5 -118.333 -93.5 -195c0 -52 22.667 -96.333 68 -133s99.666 -67.334 162.999 -92.001s126.833 -50.667 190.5 -78s118 -65.833 163 -115.5s67.5 -109.5 67.5 -179.5
c0 -139.333 -49.167 -250.5 -147.5 -333.5s-231.5 -124.5 -399.5 -124.5c-61.333 0 -119.333 7.5 -174 22.5s-99 32.667 -133 53s-63.667 41.166 -89 62.499s-43.666 39.333 -54.999 54l-16 23l109 100c2.66699 -4 7 -10.167 13 -18.5s20.333 -22.333 43 -42
s46.834 -37 72.501 -52s61 -28.667 106 -41s92.167 -18.5 141.5 -18.5z" />
    <glyph glyph-name="T" unicode="T" horiz-adv-x="1136" 
d="M252 1434h1055l-31 -144h-451l-272 -1290h-154l273 1290h-451z" />
    <glyph glyph-name="U" unicode="U" horiz-adv-x="1556" 
d="M733 123c116 0 221.833 42.333 317.5 127s157.167 189 184.5 313l184 871h154l-184 -871c-34 -162.667 -113.167 -300.5 -237.5 -413.5s-264.5 -169.5 -420.5 -169.5c-142 0 -264.5 46 -367.5 138s-154.5 203.667 -154.5 335c0 34 4 70.667 12 110l185 871h153l-184 -871
c-6.66699 -34 -10 -63.333 -10 -88c0 -101.333 35.333 -185.333 106 -252s158 -100 262 -100z" />
    <glyph glyph-name="V" unicode="V" horiz-adv-x="1372" 
d="M512 0l-260 1434h158l213 -1219l729 1219h170l-867 -1434h-143z" />
    <glyph glyph-name="W" unicode="W" horiz-adv-x="2109" 
d="M1331 0l-125 1198l-633 -1198h-153l-168 1434h158l127 -1198l643 1198h143l133 -1198l639 1198h164l-774 -1434h-154z" />
    <glyph glyph-name="X" unicode="X" horiz-adv-x="1320" 
d="M737 870l518 564h195l-637 -686l375 -748h-174l-309 625l-572 -625h-194l690 748l-346 686h174z" />
    <glyph glyph-name="Y" unicode="Y" horiz-adv-x="1290" 
d="M676 666h10l592 768h182l-729 -932l-106 -502h-154l107 502l-336 932h164z" />
    <glyph glyph-name="Z" unicode="Z" horiz-adv-x="1228" 
d="M1104 1290h-801l31 144h993l-31 -144l-1075 -1147h852l-29 -143h-1044l29 143z" />
    <glyph glyph-name="bracketleft" unicode="[" horiz-adv-x="686" 
d="M516 1321l-344 -1618h277l-29 -133h-420l399 1884h420l-26 -133h-277z" />
    <glyph glyph-name="backslash" unicode="\" horiz-adv-x="890" 
d="M506 -430l-219 1884h129l219 -1884h-129z" />
    <glyph glyph-name="bracketright" unicode="]" horiz-adv-x="686" 
d="M203 -297l344 1618h-277l27 133h420l-400 -1884h-417l26 133h277z" />
    <glyph glyph-name="asciicircum" unicode="^" horiz-adv-x="819" 
d="M569 1434h103l145 -574h-127l-98 410l-270 -410h-140z" />
    <glyph glyph-name="underscore" unicode="_" horiz-adv-x="675" 
d="M557 -215l-29 -133h-714l28 133h715z" />
    <glyph glyph-name="grave" unicode="`" horiz-adv-x="430" 
d="M420 1434l94 -277h-104l-138 277h148z" />
    <glyph glyph-name="a" unicode="a" horiz-adv-x="1218" 
d="M496 113c106.667 0 204.333 49.502 293 148.502s133 205.833 133 320.5c0 83.333 -28 152.166 -84 206.499s-123 81.5 -201 81.5c-95.333 0 -187.5 -45.333 -276.5 -136s-133.5 -196.667 -133.5 -318c0 -84.667 26.667 -156.334 80 -215.001s116.333 -88 189 -88z
M808.999 0.00195312l30.9971 144.997c-4 -4 -9.5 -9.66699 -16.5 -17s-22.5 -20.666 -46.5 -39.999s-48.833 -36.166 -74.5 -50.499s-58.667 -27.5 -99 -39.5s-81.833 -18 -124.5 -18c-106.667 0 -199.5 41.833 -278.5 125.5s-118.5 182.834 -118.5 297.501
c0 164 60 305.167 180 423.5s251 177.5 393 177.5c42 0 81.833 -6.16699 119.5 -18.5s68.834 -27.5 93.501 -45.5s45.834 -36.167 63.501 -54.5s30.834 -33.5 39.501 -45.5l12 -19l35 162h143l-209 -983h-143z" />
    <glyph glyph-name="b" unicode="b" horiz-adv-x="1228" 
d="M735 870c-106.667 0 -204.333 -49.5 -293 -148.5s-133 -205.833 -133 -320.5c0 -83.333 28 -152.166 84 -206.499s123 -81.5 201 -81.5c95.333 0 187.5 45.667 276.5 137s133.5 197.666 133.5 318.999c0 84.667 -26.667 156 -80 214s-116.333 87 -189 87zM518.001 1434
l-127 -595.997c4 4 9.5 9.66699 16.5 17s22.333 20.666 46 39.999s48.5 36.166 74.5 50.499s59.167 27.666 99.5 39.999s81.833 18.5 124.5 18.5c106.667 0 199.5 -42 278.5 -126s118.5 -183.333 118.5 -298c0 -164 -60.167 -305 -180.5 -423s-251.5 -177 -393.5 -177
c-42 0 -81.833 6 -119.5 18s-68.667 27 -93 45s-45.5 36.167 -63.5 54.5s-31 33.5 -39 45.5l-12 19l-33 -162h-143l303 1434h143z" />
    <glyph glyph-name="c" unicode="c" horiz-adv-x="1054" 
d="M82 403c0 155.333 57.334 294.332 172.001 416.999s253.334 184 416.001 184c48 0 93.667 -6.83301 137 -20.5s79.333 -30.167 108 -49.5s53.667 -38.166 75 -56.499s36.666 -34.5 45.999 -48.5l15 -20l-111 -92c-2.66699 4 -6.66699 9.33301 -12 16s-17 19 -35 37
s-37.5 33.833 -58.5 47.5s-48.333 25.834 -82 36.501s-68.834 16 -105.501 16c-106.667 0 -203.334 -44.667 -290.001 -134s-130 -196 -130 -320c0 -84.667 27.667 -156.334 83 -215.001s122.666 -88 201.999 -88c36.667 0 72.834 5.33301 108.501 16s66.5 24 92.5 40
s48.833 32.167 68.5 48.5s34.834 29.833 45.501 40.5l15 16l88 -90c-4 -5.33301 -10.5 -12.833 -19.5 -22.5s-28.167 -26 -57.5 -49s-59.333 -43.333 -90 -61s-70 -34 -118 -49s-95.667 -22.5 -143 -22.5c-116 0 -215 41.5 -297 124.5s-123 182.5 -123 298.5z" />
    <glyph glyph-name="d" unicode="d" horiz-adv-x="1228" 
d="M496 113c106.667 0 204.333 49.502 293 148.502s133 205.833 133 320.5c0 83.333 -28 152.166 -84 206.499s-123 81.5 -201 81.5c-95.333 0 -187.5 -45.333 -276.5 -136s-133.5 -196.667 -133.5 -318c0 -84.667 26.667 -156.334 80 -215.001s116.333 -88 189 -88z
M808.999 0.00195312l30.9971 144.997c-4 -4 -9.5 -9.66699 -16.5 -17s-22.5 -20.666 -46.5 -39.999s-48.833 -36.166 -74.5 -50.499s-58.667 -27.5 -99 -39.5s-81.833 -18 -124.5 -18c-106.667 0 -199.5 41.833 -278.5 125.5s-118.5 182.834 -118.5 297.501
c0 164 60 305.167 180 423.5s251 177.5 393 177.5c42 0 81.833 -6.16699 119.5 -18.5s68.834 -27.5 93.501 -45.5s45.834 -36.167 63.501 -54.5s30.834 -33.5 39.501 -45.5l12 -19l129 613h143l-303 -1434h-143z" />
    <glyph glyph-name="e" unicode="e" horiz-adv-x="1136" 
d="M508 113c61.333 0 120.671 13.668 178.004 41.001s99 54.666 125 81.999l41 40l78 -92c-4 -5.33301 -10.167 -12.833 -18.5 -22.5s-26.833 -26 -55.5 -49s-58.334 -43.333 -89.001 -61s-70.334 -34 -119.001 -49s-97.334 -22.5 -146.001 -22.5
c-116 0 -215 40.833 -297 122.5s-123 180.5 -123 296.5c0 165.333 59 307.5 177 426.5s250.667 178.5 398 178.5c116 0 212.667 -35.167 290 -105.5s116 -161.5 116 -273.5c0 -69.333 -13 -131.666 -39 -186.999l-801 2v-30c0 -84.667 27.667 -155.334 83 -212.001
s122.666 -85 201.999 -85zM643.005 870.001c-82 0 -160.168 -29 -234.501 -87s-127.166 -131.333 -158.499 -220h668c1.33301 8 2 19.667 2 35c0 79.333 -26 144.5 -78 195.5s-118.333 76.5 -199 76.5z" />
    <glyph glyph-name="f" unicode="f" horiz-adv-x="655" 
d="M700 983l-28 -133.001h-236l-180 -850h-143l180 850h-154l29 133h154l38 184c19.333 91.333 57.333 162 114 212s126 75 208 75c24.667 0 48.5 -2.66699 71.5 -8s40.833 -10.666 53.5 -15.999l16 -7l-28 -133c-32.667 20.667 -73 31 -121 31c-44 0 -81 -13 -111 -39
s-49.667 -64.333 -59 -115l-39 -184h235z" />
    <glyph glyph-name="g" unicode="g" 
d="M791 61l26.001 119.003c-2.66699 -4 -7 -9.66699 -13 -17s-19.667 -20.333 -41 -39s-44.333 -34.834 -69 -48.501s-56.334 -26.334 -95.001 -38.001s-79.334 -17.5 -122.001 -17.5c-106.667 0 -198.5 40 -275.5 120s-115.5 176 -115.5 288
c0 158.667 56.667 294.334 170 407.001s241 169 383 169c42 0 81.5 -5.83301 118.5 -17.5s67.167 -26 90.5 -43s43.5 -33.833 60.5 -50.5s28.833 -30.334 35.5 -41.001l10 -18l33 149h143l-196 -922c-30 -140.667 -96.5 -257.667 -199.5 -351s-220.167 -140 -351.5 -140
c-52 0 -101.167 7.16699 -147.5 21.5s-84.166 31.333 -113.499 51s-55.333 39.5 -78 59.5s-38.667 37.333 -48 52l-14 21l108 88c2.66699 -4 6.5 -9.83301 11.5 -17.5s16.333 -20.667 34 -39s37 -34.333 58 -48s49 -26.334 84 -38.001s71.5 -17.5 109.5 -17.5
c92.667 0 177.667 34 255 102s127 153.333 149 256zM623.001 870.003c-105.333 0 -197 -45.001 -275 -135.001s-117 -189.667 -117 -299c0 -79.333 26 -146.166 78 -200.499s113.667 -81.5 185 -81.5c100 0 191.833 44 275.5 132s125.5 191.333 125.5 310
c0 79.333 -26.167 144.833 -78.5 196.5s-116.833 77.5 -193.5 77.5z" />
    <glyph glyph-name="h" unicode="h" horiz-adv-x="1198" 
d="M518 1434l-124.999 -592c2.66699 4 7.16699 9.66699 13.5 17s20 20.333 41 39s43.167 35.167 66.5 49.5s54.166 27.333 92.499 39s77.166 17.5 116.499 17.5c102.667 0 185.334 -28.833 248.001 -86.5s94 -135.5 94 -233.5c0 -38 -3.33301 -71.333 -10 -100l-123 -584
h-144l123 584c5.33301 32.667 8.33301 55.667 9 69c0 66.667 -20.5 119.5 -61.5 158.5s-95.167 58.5 -162.5 58.5c-87.333 0 -165.5 -31.667 -234.5 -95s-113.5 -144.333 -133.5 -243l-113 -532h-143l303 1434h143z" />
    <glyph glyph-name="i" unicode="i" horiz-adv-x="471" 
d="M311 1296c0 28.667 10.333 53.667 31 75s46 32 76 32c22 0 41.167 -7.83301 57.5 -23.5s24.5 -34.5 24.5 -56.5c0 -28.667 -11 -53.167 -33 -73.5s-47.333 -30.5 -76 -30.5c-22 0 -40.833 7.66699 -56.5 23s-23.5 33.333 -23.5 54zM61 0l209 983h144l-209 -983h-144z" />
    <glyph glyph-name="j" unicode="j" horiz-adv-x="471" 
d="M31 -143l239 1126h144l-240 -1126c-42 -191.333 -150.667 -287 -326 -287c-22 0 -42.5 2.66699 -61.5 8s-32.5 10.666 -40.5 15.999l-14 7l28 133c30 -20.667 65.667 -31 107 -31c86 0 140.667 51.333 164 154zM309 1296c0 28.667 10.333 53.667 31 75s46 32 76 32
c22 0 41.167 -7.83301 57.5 -23.5s24.5 -34.5 24.5 -56.5c0 -28.667 -11 -53.167 -33 -73.5s-47.333 -30.5 -76 -30.5c-22 0 -40.833 7.66699 -56.5 23s-23.5 33.333 -23.5 54z" />
    <glyph glyph-name="k" unicode="k" horiz-adv-x="1044" 
d="M272 276l-57 -276h-143l303 1434h143l-205 -963l596 512h181l-465 -399l297 -584h-158l-250 483z" />
    <glyph glyph-name="l" unicode="l" horiz-adv-x="491" 
d="M518 1434l-303 -1434h-143l303 1434h143z" />
    <glyph glyph-name="m" unicode="m" horiz-adv-x="1781" 
d="M1372 0l123 583.999c5.33301 26 8 53.333 8 82c0 65.333 -18.333 115.666 -55 150.999s-86 53 -148 53c-74 0 -141.5 -29.667 -202.5 -89s-101.833 -138.666 -122.5 -237.999l-115 -543h-143l123 584c5.33301 26 8 53.333 8 82c0 65.333 -18.5 115.666 -55.5 150.999
s-86.167 53 -147.5 53c-74 0 -141.667 -29.667 -203 -89s-102.333 -138.666 -123 -237.999l-114 -543h-144l209 983h144l-27 -123c2.66699 4 6.5 9.16699 11.5 15.5s16.333 17.666 34 33.999s36.667 31 57 44s47.333 24.667 81 35s68.834 15.5 105.501 15.5
c44 0 84.333 -6.16699 121 -18.5s65.167 -26.666 85.5 -42.999s37.666 -33.166 51.999 -50.499s23.833 -32 28.5 -44l8 -19c2.66699 4 7 10.167 13 18.5s20.333 22.5 43 42.5s46.667 37.833 72 53.5s58.833 29.667 100.5 42s85.5 18.5 131.5 18.5
c94 0 170.833 -27 230.5 -81s89.5 -129.667 89.5 -227c0 -34 -4.33301 -71.333 -13 -112l-122 -584h-144z" />
    <glyph glyph-name="n" unicode="n" 
d="M414 983l-31.001 -141c2.66699 4 7.16699 9.66699 13.5 17s20 20.333 41 39s43.167 35.167 66.5 49.5s54 27.333 92 39s77 17.5 117 17.5c102.667 0 185.334 -28.833 248.001 -86.5s94 -135.5 94 -233.5c0 -38 -3.66699 -71.333 -11 -100l-122 -584h-144l123 584
c5.33301 32.667 8 55.667 8 69c0 66.667 -20.5 119.5 -61.5 158.5s-94.833 58.5 -161.5 58.5c-87.333 0 -165.5 -31.667 -234.5 -95s-113.833 -144.333 -134.5 -243l-112 -532h-144l209 983h144z" />
    <glyph glyph-name="o" unicode="o" 
d="M551 111c108 0 204 43.998 288 131.998s126 188.667 126 302c0 92.667 -30.833 170.334 -92.5 233.001s-138.834 94 -231.501 94c-104 0 -199 -42.667 -285 -128s-129 -187.333 -129 -306c0 -91.333 30.833 -168.666 92.5 -231.999s138.834 -95 231.501 -95zM82 429.998
c0 146 57 278.167 171 396.5s247.333 177.5 400 177.5c132.667 0 242 -43.833 328 -131.5s129 -194.834 129 -321.501c0 -154 -58.667 -287.667 -176 -401s-249 -170 -395 -170c-132.667 0 -242 43.333 -328 130s-129 193.334 -129 320.001z" />
    <glyph glyph-name="p" unicode="p" horiz-adv-x="1218" 
d="M725 870c-106.667 0 -204.333 -49.5 -293 -148.5s-133 -205.833 -133 -320.5c0 -83.333 28 -152.166 84 -206.499s123 -81.5 201 -81.5c95.333 0 187.333 45.667 276 137s133 197.666 133 318.999c0 84.667 -26.5 156 -79.5 214s-115.833 87 -188.5 87zM414.001 983
l-32.998 -144.997c4 4 9.5 9.66699 16.5 17s22.333 20.666 46 39.999s48.5 36.166 74.5 50.499s59.167 27.666 99.5 39.999s81.5 18.5 123.5 18.5c106.667 0 199.667 -42 279 -126s119 -183.333 119 -298c0 -164 -60.167 -305 -180.5 -423s-251.5 -177 -393.5 -177
c-42 0 -81.833 6 -119.5 18s-68.834 27 -93.501 45s-45.834 36.167 -63.501 54.5s-30.5 33.5 -38.5 45.5l-12 19l-125 -592h-144l301 1413h144z" />
    <glyph glyph-name="q" unicode="q" horiz-adv-x="1218" 
d="M496 113c106.667 0 204.333 49.502 293 148.502s133 205.833 133 320.5c0 83.333 -28 152.166 -84 206.499s-123 81.5 -201 81.5c-95.333 0 -187.5 -45.333 -276.5 -136s-133.5 -196.667 -133.5 -318c0 -84.667 26.667 -156.334 80 -215.001s116.333 -88 189 -88z
M716.999 -429.998l122.997 574.997c-4 -4 -9.5 -9.66699 -16.5 -17s-22.5 -20.666 -46.5 -39.999s-48.833 -36.166 -74.5 -50.499s-58.667 -27.5 -99 -39.5s-81.833 -18 -124.5 -18c-106.667 0 -199.5 41.833 -278.5 125.5s-118.5 182.834 -118.5 297.501
c0 164 60 305.167 180 423.5s251 177.5 393 177.5c42 0 81.833 -6.16699 119.5 -18.5s68.834 -27.5 93.501 -45.5s45.834 -36.167 63.501 -54.5s30.834 -33.5 39.501 -45.5l12 -19l35 162h143l-301 -1413h-143z" />
    <glyph glyph-name="r" unicode="r" horiz-adv-x="706" 
d="M786 1004l-30 -144.001h-62c-84.667 0 -163.167 -29.333 -235.5 -88s-118.833 -135 -139.5 -229l-114 -543h-144l209 983h144l-29 -133c2.66699 4 7.5 9.5 14.5 16.5s21.333 19.333 43 37s45.167 33.334 70.5 47.001s57.833 26 97.5 37s80.5 16.5 122.5 16.5h53z" />
    <glyph glyph-name="s" unicode="s" horiz-adv-x="880" 
d="M840 870l-115.003 -96.002c-5.33301 6.66699 -13.5 15.5 -24.5 26.5s-35.667 25.333 -74 43s-78.5 26.5 -120.5 26.5c-61.333 0 -110.166 -15.333 -146.499 -46s-54.5 -67 -54.5 -109c0 -36.667 23.167 -69.167 69.5 -97.5s97.166 -51.333 152.499 -69
s106.333 -47 153 -88s70 -90.833 70 -149.5c0 -96.667 -36.667 -176 -110 -238s-171.333 -93 -294 -93c-46.667 0 -90 6 -130 18s-72.667 26.333 -98 43s-47.166 33.5 -65.499 50.5s-31.833 31.5 -40.5 43.5l-12 19l115 96c6.66699 -10.667 16.5 -23.667 29.5 -39
s41 -35.5 84 -60.5s89.167 -37.5 138.5 -37.5c75.333 0 133.333 16.333 174 49s61 75.667 61 129c0 39.333 -23.167 73.333 -69.5 102s-97.166 51.834 -152.499 69.501s-106.166 46.334 -152.499 86.001s-69.5 88.167 -69.5 145.5c0 84.667 34.5 157.5 103.5 218.5
s157.167 91.5 264.5 91.5c38 0 74.833 -4.5 110.5 -13.5s65.5 -20 89.5 -33s44.833 -26.333 62.5 -40s30.5 -24.5 38.5 -32.5z" />
    <glyph glyph-name="t" unicode="t" horiz-adv-x="737" 
d="M383 1085l49.001 226h133l-69 -328h215l-29 -133h-215l-125 -584c-20.667 -102.667 12.666 -153.667 99.999 -153c22 0 44.667 2.66699 68 8s41 10 53 14l19 8l-27 -133c-46.667 -20.667 -95.667 -30.667 -147 -30c-84.667 0 -145.5 24.833 -182.5 74.5
s-45.833 120.167 -26.5 211.5l125 584h-185l29 133h113c54.667 0 88.667 34 102 102z" />
    <glyph glyph-name="u" unicode="u" 
d="M778 0l26.998 131.001c-2.66699 -4 -7.16699 -9.5 -13.5 -16.5s-19.666 -19.333 -39.999 -37s-42.166 -33 -65.499 -46s-54 -24.833 -92 -35.5s-77 -16 -117 -16c-98 0 -179.167 30.333 -243.5 91s-96.5 140.667 -96.5 240c0 36.667 3.33301 69.667 10 99l123 573h144
l-123 -573c-5.33301 -22 -8 -46 -8 -72c0 -66.667 20.5 -120.834 61.5 -162.501s94.167 -62.5 159.5 -62.5c83.333 0 160.5 32 231.5 96s116.5 144 136.5 240l115 534h143l-208 -983h-144z" />
    <glyph glyph-name="v" unicode="v" horiz-adv-x="1003" 
d="M471 0h-143l-191 983h148l149 -788l486 788h159z" />
    <glyph glyph-name="w" unicode="w" horiz-adv-x="1495" 
d="M784 983h123l92 -758l416 758h156l-547 -983h-133l-88 748l-404 -748h-133l-129 983h146l94 -758z" />
    <glyph glyph-name="x" unicode="x" horiz-adv-x="983" 
d="M481 399l-370 -399h-183l478 512l-238 471h166l178 -358l334 358h182l-438 -471l260 -512h-166z" />
    <glyph glyph-name="y" unicode="y" horiz-adv-x="1003" 
d="M240 -143l85.999 149l-189 977h148l147 -799l488 799h159l-690 -1126c-64 -104 -123.667 -177.833 -179 -221.5s-118.666 -65.5 -189.999 -65.5c-22 0 -42.5 1.66699 -61.5 5s-32.5 7 -40.5 11l-14 4l26 129c26 -10.667 56 -16 90 -16c88 0 161.333 51.333 220 154z" />
    <glyph glyph-name="z" unicode="z" horiz-adv-x="952" 
d="M956 983l-28 -133l-740 -717h607l-27 -133h-788l26 133l739 717h-565l29 133h747z" />
    <glyph glyph-name="braceleft" unicode="{" horiz-adv-x="727" 
d="M125 451l27 122.005c95.333 0 153.333 48 174 144l98 461c18 83.333 59.333 150.166 124 200.499s144.667 75.5 240 75.5h82l-24 -123h-82c-56 0 -102.167 -14 -138.5 -42s-59.166 -65 -68.499 -111l-98 -461c-6.66699 -32.667 -16.834 -62 -30.501 -88
s-28.167 -45.833 -43.5 -59.5s-30.166 -25.334 -44.499 -35.001s-25.5 -15.834 -33.5 -18.501l-14 -4c2.66699 -1.33301 6.33398 -3 11.001 -5s13.5 -7.83301 26.5 -17.5s22.667 -21.667 29 -36s12.166 -33.833 17.499 -58.5s3.33301 -54 -6 -88l-97 -461
c-10.667 -46.667 -3.66699 -83.834 21 -111.501s65 -41.5 121 -41.5h82l-27 -123h-82c-95.333 0 -164.833 25.167 -208.5 75.5s-56.834 117.166 -39.501 200.499l97 461c20 96 -17.667 144 -113 144z" />
    <glyph glyph-name="bar" unicode="|" horiz-adv-x="686" 
d="M625 1454l-400 -1884h-133l400 1884h133z" />
    <glyph glyph-name="braceright" unicode="}" horiz-adv-x="727" 
d="M633 573l-26.998 -122.002c-95.333 0 -153.333 -48 -174 -144l-96 -461c-18 -83.333 -59.667 -150.166 -125 -200.499s-146 -75.5 -242 -75.5h-80l25 123h82c54.667 0 100 14 136 42s59.667 65 71 111l96 461c10.667 52 30 95 58 129s53.667 55.333 77 64l33 12
c-2.66699 1.33301 -6.33398 3 -11.001 5s-13.834 7.83301 -27.501 17.5s-23.667 21.667 -30 36s-12.166 33.833 -17.499 58.5s-3.33301 54 6 88l98 461c9.33301 48 1.83301 85.5 -22.5 112.5s-63.833 40.5 -118.5 40.5h-82l25 123h82
c95.333 0 165.166 -25.167 209.499 -75.5s57.5 -117.166 39.5 -200.499l-98 -461c-20 -96 17.667 -144 113 -144z" />
    <glyph glyph-name="asciitilde" unicode="~" horiz-adv-x="1085" 
d="M381 614c-39.333 0 -75.5 -10.167 -108.5 -30.5s-56.167 -40.833 -69.5 -61.5l-21 -30l-84 71c2.66699 4 7.16699 10.167 13.5 18.5s19 22.333 38 42s39.167 37.334 60.5 53.001s48.666 29.667 81.999 42s67 18.5 101 18.5c57.333 0 107.166 -11.833 149.499 -35.5
s81 -47.5 116 -71.5s73.5 -36 115.5 -36c39.333 0 75.833 10.167 109.5 30.5s57.167 40.833 70.5 61.5l21 31l82 -72c-2.66699 -4 -7.16699 -10.167 -13.5 -18.5s-19 -22.333 -38 -42s-39.167 -37.334 -60.5 -53.001s-48.666 -29.667 -81.999 -42s-67 -18.5 -101 -18.5
c-57.333 0 -107.166 12 -149.499 36s-81 47.833 -116 71.5s-73.5 35.5 -115.5 35.5z" />
    <glyph glyph-name="uni00A0" unicode="&#xa0;" horiz-adv-x="389" 
 />
    <glyph glyph-name="exclamdown" unicode="&#xa1;" horiz-adv-x="573" 
d="M266 635h123l-194 -1065h-185zM483 918c0 -31.333 -10.167 -59 -30.5 -83s-46.833 -36 -79.5 -36c-30 0 -54 7.83301 -72 23.5s-27 36.5 -27 62.5c0 35.333 11 64 33 86s48.667 33 80 33c30 0 53.5 -7.83301 70.5 -23.5s25.5 -36.5 25.5 -62.5z" />
    <glyph glyph-name="cent" unicode="&#xa2;" horiz-adv-x="1024" 
d="M748 971l-132 10l50 227h133zM422 68l133 -2l-61 -291h-134zM823 256c-95.333 -95.333 -199.002 -143.001 -311.002 -143.001c-79.333 0 -146.666 29.333 -201.999 88s-83 130.334 -83 215.001c0 124 43.333 230.667 130 320s183.334 134 290.001 134
c116 0 209.667 -46.333 281 -139l106 90c-95.333 121.333 -216.666 182.333 -363.999 183c-162.667 0 -301.334 -61.167 -416.001 -183.5s-172 -261.5 -172 -417.5c0 -116 41 -215.5 123 -298.5s181 -124.5 297 -124.5c143.333 0 276.333 59.333 399 178z" />
    <glyph glyph-name="sterling" unicode="&#xa3;" horiz-adv-x="1146" 
d="M397 1004c28.667 135.333 87.8359 244.167 177.503 326.5s197.167 123.5 322.5 123.5c46.667 0 90.834 -6.16699 132.501 -18.5s76.167 -26.666 103.5 -42.999s51.166 -33 71.499 -50s35.166 -31.833 44.499 -44.5l15 -18l-115 -96c-2.66699 4 -6.5 8.66699 -11.5 14
s-16 15.166 -33 29.499s-35 27.333 -54 39s-43.833 22 -74.5 31s-62.334 13.5 -95.001 13.5c-80.667 0 -152.834 -29 -216.501 -87s-104.834 -131.333 -123.501 -220l-58 -267h420l-31 -143h-419l-68 -318c-5.33301 -27.333 -14.166 -51.833 -26.499 -73.5
s-23.166 -37.167 -32.499 -46.5l-15 -13h711l-29 -143h-952l29 143c40.667 0 77.667 13 111 39s53.666 57.333 60.999 94l67 318h-133l31 143h133z" />
    <glyph glyph-name="currency" unicode="&#xa4;" horiz-adv-x="1372" 
d="M131 573l31 143.999h164l151 717h512c113.333 0 206.833 -34.5 280.5 -103.5s110.5 -153.5 110.5 -253.5c0 -143.333 -51.833 -263.166 -155.5 -359.499s-229.167 -144.5 -376.5 -144.5h-399l-37 -174h501l-30 -143h-502l-53 -256h-154l53 256h-164l31 143h164l37 174
h-164zM967 1290h-367l-121 -573h389c96.667 0 180 32.667 250 98s105 146 105 242c0 65.333 -24.167 120.5 -72.5 165.5s-109.5 67.5 -183.5 67.5z" />
    <glyph glyph-name="yen" unicode="&#xa5;" horiz-adv-x="1290" 
d="M1063 522h-318l-14 -20l-29 -133h328l-29 -133h-327l-49 -236h-154l49 236h-327l28 133h328l29 133l-9 20h-315l29 133h239l-280 779h166l268 -768h10l592 768h182l-610 -779h242z" />
    <glyph glyph-name="brokenbar" unicode="&#xa6;" horiz-adv-x="686" 
d="M258 348h133l-166 -778h-133zM461 676h-133l164 778h133z" />
    <glyph glyph-name="section" unicode="&#xa7;" horiz-adv-x="1105" 
d="M553 860c-46.667 -8 -97.333 -32.5 -152 -73.5s-82 -93.5 -82 -157.5c0 -35.333 14.5 -67.833 43.5 -97.5s58.833 -51.334 89.5 -65.001s67.167 -27.667 109.5 -42s66.833 -22.833 73.5 -25.5c154 40.667 231 115.334 231 224.001c0 35.333 -14.333 68.333 -43 99
s-58 52.834 -88 66.501s-66.833 28.667 -110.5 45s-67.5 25.166 -71.5 26.499zM1014 639c0 -72.667 -25 -135.503 -75 -188.503s-114.667 -93.833 -194 -122.5c8 -5.33301 18.333 -13.5 31 -24.5s28.834 -33.667 48.501 -68s29.5 -69.166 29.5 -104.499
c0 -98 -41.333 -181.833 -124 -251.5s-187.334 -104.5 -314.001 -104.5c-46.667 0 -90.834 6.5 -132.501 19.5s-76.167 28.333 -103.5 46s-51.166 35.334 -71.499 53.001s-34.5 32.834 -42.5 45.501l-15 20l115 92c2.66699 -4 6.33398 -9 11.001 -15
s15.167 -17.333 31.5 -34s34.166 -31.334 53.499 -44.001s44 -24.167 74 -34.5s61.333 -15.5 94 -15.5c83.333 0 150.666 21.833 201.999 65.5s77 94.834 77 153.501c0 22 -5.83301 41.833 -17.5 59.5s-33.167 35 -64.5 52s-55.333 29.333 -72 37s-48.667 20.167 -96 37.5
c-191.333 74 -287 173 -287 297c0 45.333 9.16699 87.5 27.5 126.5s40.833 69.667 67.5 92s53.334 42 80.001 59s49 28.5 67 34.5l28 10c-8 5.33301 -17.5 12.833 -28.5 22.5s-26 30.5 -45 62.5s-28.5 65.667 -28.5 101c0 94 37.5 173.5 112.5 238.5
s171.833 97.5 290.5 97.5c61.333 0 120.166 -12 176.499 -36s96.5 -47.333 120.5 -70l37 -37l-114 -88c-6.66699 6.66699 -16.667 15.5 -30 26.5s-39.666 25.667 -78.999 44s-79 27.5 -119 27.5c-75.333 0 -135.833 -19.5 -181.5 -58.5s-68.5 -85.833 -68.5 -140.5
c0 -28.667 13 -55.167 39 -79.5s50.333 -42 73 -53s62.667 -27.5 120 -49.5c10.667 -4 18.667 -7.33301 24 -10c182 -71.333 273 -168.333 273 -291z" />
    <glyph glyph-name="dieresis" unicode="&#xa8;" horiz-adv-x="696" 
d="M242 1290c0 26 10.1689 49.668 30.502 71.001s44.166 32 71.499 32c26 0 46.833 -7.5 62.5 -22.5s23.5 -34.167 23.5 -57.5c0 -28.667 -9.83301 -53.334 -29.5 -74.001s-43.834 -31 -72.501 -31c-26 0 -46.833 7.83301 -62.5 23.5s-23.5 35.167 -23.5 58.5zM631.002 1290
c0 26 10.1689 49.668 30.502 71.001s44.166 32 71.499 32c26 0 46.833 -7.5 62.5 -22.5s23.5 -34.167 23.5 -57.5c0 -28.667 -9.83301 -53.334 -29.5 -74.001s-43.834 -31 -72.501 -31c-26 0 -46.833 7.83301 -62.5 23.5s-23.5 35.167 -23.5 58.5z" />
    <glyph glyph-name="copyright" unicode="&#xa9;" horiz-adv-x="1802" 
d="M1014 983c-86 0 -160.17 -30.002 -222.503 -90.002s-93.5 -134.333 -93.5 -223c0 -61.333 20.5 -113.166 61.5 -155.499s94.5 -63.5 160.5 -63.5c45.333 0 88 9.5 128 28.5s69 38.167 87 57.5l24 28l68 -84c-2.66699 -4 -7.16699 -9.33301 -13.5 -16
s-19.666 -19 -39.999 -37s-42.166 -33.833 -65.499 -47.5s-53 -25.834 -89 -36.501s-73.333 -16 -112 -16c-96.667 0 -176.834 30.667 -240.501 92s-95.5 137 -95.5 227c0 132.667 44.833 242.334 134.5 329.001s197.834 130 324.501 130c60 0 115 -13 165 -39
s84.333 -51.333 103 -76l29 -39l-92 -78c-5.33301 8 -13.166 18.333 -23.499 31s-34.5 28.834 -72.5 48.501s-79.667 29.5 -125 29.5zM1022 1333c-181.333 0 -341.999 -69.667 -481.999 -209s-210 -301.666 -210 -486.999c0 -152.667 52.833 -280.334 158.5 -383.001
s242.5 -154 410.5 -154c181.333 0 341.666 68.333 480.999 205s209 300.667 209 492c0 152.667 -52.5 280.167 -157.5 382.5s-241.5 153.5 -409.5 153.5zM1724 800.998c0 -138 -38.1689 -270.5 -114.502 -397.5s-179.666 -229.333 -309.999 -307
s-269.166 -116.5 -416.499 -116.5c-199.333 0 -363.833 63 -493.5 189s-194.5 280.667 -194.5 464c0 146 40.167 282.833 120.5 410.5s185 228 314 301s264.5 109.5 406.5 109.5c199.333 0 363.833 -63.167 493.5 -189.5s194.5 -280.833 194.5 -463.5z" />
    <glyph glyph-name="ordfeminine" unicode="&#xaa;" horiz-adv-x="673" 
d="M604 1126l-203.002 -40.999c-75.333 -16.667 -112.666 -49.334 -111.999 -98.001c0 -19.333 8.16699 -35 24.5 -47s38.833 -18 67.5 -18c52 0 98.833 17.333 140.5 52s67.834 78.667 78.501 132zM337.998 829.001c-49.333 0 -88.999 14.832 -118.999 44.499
s-45 63.5 -45 101.5c0 106.667 75.667 174.334 227 203.001l224 41c2.66699 16.667 4 28 4 34c0 31.333 -10 55.666 -30 72.999s-47 26 -81 26c-30 0 -58.667 -6.83301 -86 -20.5s-47 -27.5 -59 -41.5l-17 -22l-65 63c2.66699 2.66699 6 7.16699 10 13.5
s13.5 16.333 28.5 30s30.667 25.834 47 36.501s38.166 20.5 65.499 29.5s55.333 13.5 84 13.5c65.333 0 116.5 -14 153.5 -42s55.5 -68 55.5 -120c0 -20.667 -2 -41.667 -6 -63l-80 -379h-102l16 82c-5.33301 -8 -13.5 -17.5 -24.5 -28.5s-35.833 -26.167 -74.5 -45.5
s-80.667 -29 -126 -29z" />
    <glyph glyph-name="guillemotleft" unicode="&#xab;" horiz-adv-x="952" 
d="M266 154l-162 338l308 337h159l-315 -348l158 -327h-148zM645 154l-162 335l308 340h159l-315 -348l158 -327h-148z" />
    <glyph glyph-name="logicalnot" unicode="&#xac;" horiz-adv-x="942" 
d="M936 799l-88 -420h-143l61 287h-625l27 133h768z" />
    <glyph glyph-name="uni00AD" unicode="&#xad;" horiz-adv-x="870" 
d="M827 666l-28 -134h-686l28 134h686z" />
    <glyph glyph-name="registered" unicode="&#xae;" horiz-adv-x="1802" 
d="M1094 649l114 -311h-131l-100 287h-170l-59 -287h-123l159 758h279c64 0 116.833 -19.5 158.5 -58.5s62.5 -85.833 62.5 -140.5c0 -20.667 -2.33301 -40.5 -7 -59.5s-10.5 -35.667 -17.5 -50s-15.5 -27.666 -25.5 -39.999s-20.167 -23.333 -30.5 -33
s-21 -18.167 -32 -25.5s-21.333 -13.333 -31 -18s-18.167 -8.83398 -25.5 -12.501s-13 -6.16699 -17 -7.5zM881 973l-47 -225h161c50.667 0 92 11.833 124 35.5s48 57.5 48 101.5c0 58.667 -36.667 88 -110 88h-176zM1022 1333c-181.333 0 -341.999 -69.667 -481.999 -209
s-210 -301.666 -210 -486.999c0 -152.667 52.833 -280.334 158.5 -383.001s242.5 -154 410.5 -154c181.333 0 341.666 68.333 480.999 205s209 300.667 209 492c0 152.667 -52.5 280.167 -157.5 382.5s-241.5 153.5 -409.5 153.5zM1724 801
c0 -138 -38.1689 -270.5 -114.502 -397.5s-179.666 -229.333 -309.999 -307s-269.166 -116.5 -416.499 -116.5c-199.333 0 -363.833 63 -493.5 189s-194.5 280.667 -194.5 464c0 146 40.167 282.833 120.5 410.5s185 228 314 301s264.5 109.5 406.5 109.5
c199.333 0 363.833 -63.167 493.5 -189.5s194.5 -280.833 194.5 -463.5z" />
    <glyph glyph-name="macron" unicode="&#xaf;" horiz-adv-x="716" 
d="M862 1413l-24 -113h-594l24 113h594z" />
    <glyph glyph-name="degree" unicode="&#xb0;" horiz-adv-x="737" 
d="M545 1341c-48 0 -91.168 -18 -129.501 -54s-57.5 -78.667 -57.5 -128c0 -40.667 14.333 -75 43 -103s65 -42 109 -42c46.667 0 89.334 17.667 128.001 53s58 78.333 58 129c0 40.667 -14.167 75 -42.5 103s-64.5 42 -108.5 42zM818.999 1206
c0 -80.667 -31.667 -151.668 -95 -213.001s-137.333 -92 -222 -92c-79.333 0 -143.5 23.833 -192.5 71.5s-73.5 105.834 -73.5 174.501c0 83.333 31.667 155.333 95 216s137.333 91 222 91c78 0 141.833 -24 191.5 -72s74.5 -106.667 74.5 -176z" />
    <glyph glyph-name="plusminus" unicode="&#xb1;" horiz-adv-x="1054" 
d="M10 51l29 133h870l-28 -133h-871zM567 317h-133l84 390h-379l29 133h379l82 389h133l-82 -389h379l-29 -133h-379z" />
    <glyph glyph-name="uni00B2" unicode="&#xb2;" horiz-adv-x="614" 
d="M645 922l-480.999 0.00195312c12 58.667 36.833 111.834 74.5 159.501s78.667 86.167 123 115.5s88 57 131 83s78.833 53.333 107.5 82s43 60 43 94c0 24.667 -9.5 45.834 -28.5 63.501s-43.5 26.5 -73.5 26.5s-58.333 -9.5 -85 -28.5s-45.667 -38.167 -57 -57.5l-16 -28
l-94 32c1.33301 5.33301 4 12.166 8 20.499s13.167 23.166 27.5 44.499s30.333 40.166 48 56.499s42 31 73 44s64.833 19.5 101.5 19.5c61.333 0 112.166 -17.167 152.499 -51.5s60.5 -75.833 60.5 -124.5c0 -57.333 -17.833 -108.333 -53.5 -153s-76 -78.834 -121 -102.501
s-93.5 -53 -145.5 -88s-89.333 -70.167 -112 -105.5h340z" />
    <glyph glyph-name="uni00B3" unicode="&#xb3;" horiz-adv-x="634" 
d="M633 1296c5.33301 -2.66699 12.833 -6.33496 22.5 -11.002s22 -18.334 37 -41.001s22.5 -49 22.5 -79c0 -75.333 -25.667 -136.5 -77 -183.5s-119.333 -70.5 -204 -70.5c-54.667 0 -103.167 10.333 -145.5 31s-71.5 41.334 -87.5 62.001l-23 30l80 74
c4 -6.66699 10.5 -15.167 19.5 -25.5s29.167 -24.333 60.5 -42s65.333 -26.5 102 -26.5c50.667 0 90 12.167 118 36.5s42 58.5 42 102.5c0 28.667 -10.5 51.834 -31.5 69.501s-50.833 26.5 -89.5 26.5h-82l23 103h90c38 0 68.667 9.83301 92 29.5s35 47.834 35 84.501
c0 22 -9.16699 40.833 -27.5 56.5s-44.166 23.5 -77.499 23.5c-28.667 0 -57.334 -7.5 -86.001 -22.5s-49.667 -29.833 -63 -44.5l-21 -23l-59 76c6.66699 8 16.5 18.5 29.5 31.5s41 30.5 84 52.5s86.5 33 130.5 33c60 0 109.167 -16.5 147.5 -49.5
s57.5 -71.833 57.5 -116.5c-1.33301 -84 -41 -146.333 -119 -187z" />
    <glyph glyph-name="acute" unicode="&#xb4;" horiz-adv-x="430" 
d="M211 1157l207 277h162l-252 -277h-117z" />
    <glyph glyph-name="mu" unicode="&#xb5;" 
d="M797 143c-2.66699 -4 -7.17285 -9.66992 -13.5059 -17.0029s-19.666 -20.666 -39.999 -39.999s-42.166 -36.166 -65.499 -50.499s-54.166 -27.166 -92.499 -38.499s-77.166 -17 -116.499 -17c-52 0 -98.833 6.66699 -140.5 20s-70.5 27 -86.5 41l-25 22l-104 -493h-144
l301 1413h144l-125 -584c-18 -86 -6.16699 -155.167 35.5 -207.5s101.5 -78.5 179.5 -78.5c83.333 0 156.333 28.667 219 86s104.334 134.333 125.001 231l119 553h143l-166 -778c-5.33301 -26 -1.16602 -47.833 12.501 -65.5s33.5 -26.5 59.5 -26.5l53 10l-29 -133
c-15.333 -6.66699 -36.333 -10 -63 -10c-60 0 -105 13.5 -135 40.5s-45 54.167 -45 81.5v41z" />
    <glyph glyph-name="paragraph" unicode="&#xb6;" horiz-adv-x="1105" 
d="M293 -205l205 963c-78 0 -143.333 31.667 -196 95s-79 135.333 -79 216c0 102.667 42.667 189.167 128 259.5s182 105.5 290 105.5h481l-348 -1639h-133l320 1505h-216l-319 -1505h-133z" />
    <glyph glyph-name="periodcentered" unicode="&#xb7;" horiz-adv-x="389" 
d="M106 496c0 31.333 10.332 58.833 30.999 82.5s47.334 35.5 80.001 35.5c30 0 53.833 -7.83301 71.5 -23.5s26.5 -36.5 26.5 -62.5c0 -35.333 -10.833 -63.833 -32.5 -85.5s-48.167 -32.5 -79.5 -32.5c-30 0 -53.667 7.83301 -71 23.5s-26 36.5 -26 62.5z" />
    <glyph glyph-name="cedilla" unicode="&#xb8;" horiz-adv-x="491" 
d="M150 41h98l-105 -154h7c42 0 75 -12.167 99 -36.5s36 -54.5 36 -90.5c0 -52 -19.833 -95 -59.5 -129s-92.167 -51 -157.5 -51c-30 0 -59.333 5.5 -88 16.5s-50 21.833 -64 32.5l-20 17l53 67c26 -34 66.333 -51 121 -51c34 0 63 9.5 87 28.5s36 40.167 36 63.5
c0 18 -6.16699 32.833 -18.5 44.5s-29.5 17.5 -51.5 17.5c-10.667 0 -21.5 -1.83301 -32.5 -5.5s-19.167 -7.5 -24.5 -11.5l-9 -4l-39 51z" />
    <glyph glyph-name="uni00B9" unicode="&#xb9;" horiz-adv-x="430" 
d="M471 1638h91.999l-153 -716h-113l115 542h-133l18 82c36.667 0 69.334 7.83301 98.001 23.5s48.667 31.167 60 46.5z" />
    <glyph glyph-name="ordmasculine" unicode="&#xba;" horiz-adv-x="737" 
d="M541 1354c-64 0 -117.667 -26.332 -161 -78.999s-65 -113 -65 -181c0 -53.333 16.167 -95.333 48.5 -126s75.833 -46 130.5 -46c60 0 112.5 24.167 157.5 72.5s67.5 110.166 67.5 185.499c0 52 -16 94 -48 126s-75.333 48 -130 48zM834 1182
c0 -91.333 -34.5 -174.666 -103.5 -249.999s-152.167 -113 -249.5 -113c-83.333 0 -150.833 25.667 -202.5 77s-77.5 116.666 -77.5 195.999c0 101.333 35.167 187 105.5 257s151.166 105 242.499 105c84.667 0 153.334 -25.5 206.001 -76.5s79 -116.167 79 -195.5z" />
    <glyph glyph-name="guillemotright" unicode="&#xbb;" horiz-adv-x="952" 
d="M711 829l161 -337l-307 -338h-159l315 348l-158 327h148zM332 829l162 -335l-308 -340h-159l315 348l-158 327h148z" />
    <glyph glyph-name="onequarter" unicode="&#xbc;" horiz-adv-x="1361" 
d="M41 0l1176 1434h141l-1176 -1434h-141zM449 1434h92l-154 -717h-113l115 543h-133l18 81c36.667 0 69.5 8 98.5 24s48.833 31.333 59.5 46zM1161 266h82l-22 -102h-82l-35 -164h-113l35 164h-338l23 102l403 451h143zM1049 266l67 318l-282 -318h215z" />
    <glyph glyph-name="onehalf" unicode="&#xbd;" horiz-adv-x="1423" 
d="M41 0l1176 1434h141l-1176 -1434h-141zM449 1434h92l-154 -717h-113l115 543h-133l18 81c36.667 0 69.5 8 98.5 24s48.833 31.333 59.5 46zM1239 0l-481 -0.00292969c12 58.667 36.833 111.834 74.5 159.501s78.667 86.167 123 115.5s88 57 131 83
s78.833 53.333 107.5 82s43 60.334 43 95.001c0 24.667 -9.5 45.834 -28.5 63.501s-43.5 26.5 -73.5 26.5s-58.333 -9.66699 -85 -29s-45.667 -38.333 -57 -57l-16 -29l-94 33c1.33301 5.33301 4 12 8 20s13.167 22.667 27.5 44s30.333 40.166 48 56.499
s41.834 31 72.501 44s64.667 19.5 102 19.5c61.333 0 112.166 -17 152.499 -51s60.5 -75.667 60.5 -125c0 -57.333 -17.833 -108.166 -53.5 -152.499s-76 -78.5 -121 -102.5s-93.5 -53.333 -145.5 -88s-89.333 -70 -112 -106h340z" />
    <glyph glyph-name="threequarters" unicode="&#xbe;" horiz-adv-x="1495" 
d="M174 0l1176 1434h141l-1176 -1434h-141zM1294 266h82l-22 -102h-82l-35 -164h-113l35 164h-338l23 102l403 451h144zM1182 266l67 318l-282 -318h215zM600 1092c5.33301 -2.66699 12.835 -6.50098 22.502 -11.501s22 -18.667 37 -41s22.5 -48.5 22.5 -78.5
c0 -75.333 -25.667 -136.5 -77 -183.5s-119.333 -70.5 -204 -70.5c-54.667 0 -103 10.167 -145 30.5s-71.333 40.833 -88 61.5l-23 30l80 74c4 -6.66699 10.5 -15.167 19.5 -25.5s29.167 -24.333 60.5 -42s65.666 -26.5 102.999 -26.5c50.667 0 89.834 12.333 117.501 37
s41.5 58.667 41.5 102c0 28.667 -10.5 51.834 -31.5 69.501s-50.833 26.5 -89.5 26.5h-81l22 103h90c38 0 68.667 9.83301 92 29.5s35 48.167 35 85.5c0 22 -9.16699 40.667 -27.5 56s-43.833 23 -76.5 23c-28.667 0 -57.334 -7.5 -86.001 -22.5s-50 -29.833 -64 -44.5
l-20 -23l-60 76c6.66699 8 16.5 18.5 29.5 31.5s41.167 30.5 84.5 52.5s86.666 33 129.999 33c60 0 109.167 -16.333 147.5 -49s57.5 -71.667 57.5 -117c-1.33301 -83.333 -41 -145.333 -119 -186z" />
    <glyph glyph-name="questiondown" unicode="&#xbf;" horiz-adv-x="952" 
d="M637 543c-13.333 -61.333 -40.8359 -117.002 -82.5029 -167.002s-87.5 -91.333 -137.5 -124s-99.167 -64.667 -147.5 -96s-88.666 -68.166 -120.999 -110.499s-48.5 -90.166 -48.5 -143.499c0 -57.333 24.333 -106.5 73 -147.5s111.667 -61.5 189 -61.5
c49.333 0 95.166 7.83301 137.499 23.5s75.833 34.334 100.5 56.001s45.834 43.834 63.501 66.501s29.834 42.334 36.501 59.001l11 22l129 -43c-2.66699 -9.33301 -7.5 -21.166 -14.5 -35.499s-23.833 -40.333 -50.5 -78s-56.667 -70.834 -90 -99.501
s-79.666 -55 -138.999 -79s-123.333 -36 -192 -36c-116 0 -213.5 33.5 -292.5 100.5s-118.5 145.5 -118.5 235.5c0 75.333 16.667 140.666 50 195.999s75 100.333 125 135s100.5 68.167 151.5 100.5s98 71.666 141 117.999s70.833 99.5 83.5 159.5l8 41h143
c0 -32.667 -2.66699 -63.334 -8 -92.001zM718.997 917.998c0 -31.333 -10.332 -59 -30.999 -83s-47.334 -36 -80.001 -36c-30 0 -53.833 7.83301 -71.5 23.5s-26.5 36.5 -26.5 62.5c0 35.333 10.833 64 32.5 86s48.5 33 80.5 33c30 0 53.5 -7.83301 70.5 -23.5
s25.5 -36.5 25.5 -62.5z" />
    <glyph glyph-name="Agrave" unicode="&#xc0;" horiz-adv-x="1433" 
d="M1020 543l-133 676l-420 -676h553zM1051 399h-676l-248 -399h-168l897 1434h143l291 -1434h-160zM881 1905l94 -277h-105l-137 277h148z" />
    <glyph glyph-name="Aacute" unicode="&#xc1;" horiz-adv-x="1433" 
d="M1020 543l-133 676l-420 -676h553zM1051 399h-676l-248 -399h-168l897 1434h143l291 -1434h-160zM907 1628l207 277h162l-252 -277h-117z" />
    <glyph glyph-name="Acircumflex" unicode="&#xc2;" horiz-adv-x="1433" 
d="M1020 543l-133 676l-420 -676h553zM1051 399h-676l-248 -399h-168l897 1434h143l291 -1434h-160zM635 1628l283 277h143l168 -277h-127l-121 195l-207 -195h-139z" />
    <glyph glyph-name="Atilde" unicode="&#xc3;" horiz-adv-x="1433" 
d="M1020 543l-133 676l-420 -676h553zM1051 399h-676l-248 -399h-168l897 1434h143l291 -1434h-160zM831 1761c-22 0 -43.168 -11.166 -63.501 -33.499s-34.5 -55.5 -42.5 -99.5h-102c35.333 164 107 246 215 246c40.667 0 76.334 -11.333 107.001 -34
s58 -44.834 82 -66.501s48.333 -32.5 73 -32.5c22 0 43.167 11.167 63.5 33.5s34.5 55.5 42.5 99.5h103c-18 -80.667 -45.5 -141.834 -82.5 -183.501s-81.167 -62.5 -132.5 -62.5c-40.667 0 -76.5 11.333 -107.5 34s-58.5 44.834 -82.5 66.501s-48.333 32.5 -73 32.5z" />
    <glyph glyph-name="Adieresis" unicode="&#xc4;" horiz-adv-x="1433" 
d="M1020 543l-133 676l-420 -676h553zM1051 399h-676l-248 -399h-168l897 1434h143l291 -1434h-160zM676 1743c0 26 10.1689 49.5 30.502 70.5s44.166 31.5 71.499 31.5c26 0 46.833 -7.5 62.5 -22.5s23.5 -34.167 23.5 -57.5c0 -28.667 -9.83301 -53.167 -29.5 -73.5
s-43.834 -30.5 -72.501 -30.5c-26 0 -46.833 7.83301 -62.5 23.5s-23.5 35.167 -23.5 58.5zM1065 1743c0 26 10.1689 49.5 30.502 70.5s44.166 31.5 71.499 31.5c26 0 46.833 -7.5 62.5 -22.5s23.5 -34.167 23.5 -57.5c0 -28.667 -9.83301 -53.167 -29.5 -73.5
s-43.834 -30.5 -72.501 -30.5c-26 0 -46.833 7.83301 -62.5 23.5s-23.5 35.167 -23.5 58.5z" />
    <glyph glyph-name="Aring" unicode="&#xc5;" horiz-adv-x="1433" 
d="M1020 543l-133 676l-420 -676h553zM1051 399h-676l-248 -399h-168l897 1434h143l291 -1434h-160zM991 1864c-30 0 -54.833 -12.668 -74.5 -38.001s-29.5 -53.666 -29.5 -84.999c0 -24.667 7.83301 -44.5 23.5 -59.5s35.167 -22.5 58.5 -22.5
c27.333 0 51.833 11.167 73.5 33.5s32.5 50.833 32.5 85.5c0 26 -7.5 46.833 -22.5 62.5s-35.5 23.5 -61.5 23.5zM1180 1788c0 -58.667 -20.832 -110.168 -62.499 -154.501s-92.5 -66.5 -152.5 -66.5c-54.667 0 -98.834 15.333 -132.501 46s-50.5 70.667 -50.5 120
c0 62.667 21.167 115.5 63.5 158.5s93.5 64.5 153.5 64.5c54.667 0 98.5 -15.667 131.5 -47s49.5 -71.666 49.5 -120.999z" />
    <glyph glyph-name="AE" unicode="&#xc6;" horiz-adv-x="1966" 
d="M1053 143h757l-28 -143h-912l88 420h-598l-323 -420h-170l1102 1434h1095l-30 -144h-738l-98 -471h574l-31 -143h-574zM1026 1290l-563 -727h526l154 727h-117z" />
    <glyph glyph-name="Ccedilla" unicode="&#xc7;" horiz-adv-x="1536" 
d="M164 604c0 144.667 37.8311 282.166 113.498 412.499s180.5 235.833 314.5 316.5s279.333 121 436 121c72.667 0 142 -10.167 208 -30.5s119.833 -44.833 161.5 -73.5s78.5 -57.667 110.5 -87s55 -54.333 69 -75l20 -31l-114 -88c-4 6.66699 -9.83301 15.5 -17.5 26.5
s-25.5 30.167 -53.5 57.5s-58.333 51.5 -91 72.5s-76.667 40.5 -132 58.5s-113.666 27 -174.999 27c-186 0 -347.833 -67.667 -485.5 -203s-206.5 -301.333 -206.5 -498c0 -136.667 47 -252 141 -346s211.333 -141 352 -141c61.333 0 120.666 8.5 177.999 25.5
s105.5 37.833 144.5 62.5s73.5 48.834 103.5 72.501s52 43.834 66 60.501l22 27l90 -95c-6.66699 -8 -15.834 -18.5 -27.501 -31.5s-37.667 -36.5 -78 -70.5s-82.666 -64.333 -126.999 -91s-101.333 -50.5 -171 -71.5s-140.5 -31.5 -212.5 -31.5h-12l-64 -93h6
c42 0 75 -12.167 99 -36.5s36 -54.5 36 -90.5c0 -52 -19.667 -95 -59 -129s-92 -51 -158 -51c-30 0 -59.333 5.5 -88 16.5s-49.667 21.833 -63 32.5l-21 17l53 67c26 -34 66.333 -51 121 -51c34 0 63 9.5 87 28.5s36 40.167 36 63.5c0 18 -6.16699 32.833 -18.5 44.5
s-29.166 17.5 -50.499 17.5c-10.667 0 -21.667 -1.83301 -33 -5.5s-19.666 -7.5 -24.999 -11.5l-8 -4l-39 51l94 142c-151.333 24.667 -277.833 95.667 -379.5 213s-152.5 251.666 -152.5 402.999z" />
    <glyph glyph-name="Egrave" unicode="&#xc8;" horiz-adv-x="1310" 
d="M305 143h850l-29 -143h-1003l303 1434h983l-31 -144h-829l-98 -471h665l-31 -143h-665zM891 1905l94 -277h-104l-138 277h148z" />
    <glyph glyph-name="Eacute" unicode="&#xc9;" horiz-adv-x="1310" 
d="M305 143h850l-29 -143h-1003l303 1434h983l-31 -144h-829l-98 -471h665l-31 -143h-665zM877 1628l206 277h162l-252 -277h-116z" />
    <glyph glyph-name="Ecircumflex" unicode="&#xca;" horiz-adv-x="1310" 
d="M305 143h850l-29 -143h-1003l303 1434h983l-31 -144h-829l-98 -471h665l-31 -143h-665zM647 1618l283 276h143l168 -276h-127l-121 194l-207 -194h-139z" />
    <glyph glyph-name="Edieresis" unicode="&#xcb;" horiz-adv-x="1310" 
d="M305 143h850l-29 -143h-1003l303 1434h983l-31 -144h-829l-98 -471h665l-31 -143h-665zM682 1741c0 26 10.1689 49.5 30.502 70.5s44.166 31.5 71.499 31.5c26 0 46.833 -7.5 62.5 -22.5s23.5 -34.167 23.5 -57.5c0 -28.667 -9.83301 -53.167 -29.5 -73.5
s-43.834 -30.5 -72.501 -30.5c-26 0 -46.833 7.83301 -62.5 23.5s-23.5 35.167 -23.5 58.5zM1071 1741c0 26 10.333 49.5 31 70.5s44.667 31.5 72 31.5c26 0 46.833 -7.5 62.5 -22.5s23.5 -34.167 23.5 -57.5c0 -28.667 -10 -53.167 -30 -73.5s-44.333 -30.5 -73 -30.5
c-26 0 -46.833 7.83301 -62.5 23.5s-23.5 35.167 -23.5 58.5z" />
    <glyph glyph-name="Igrave" unicode="&#xcc;" horiz-adv-x="583" 
d="M123 0l303 1434h154l-304 -1434h-153zM479 1905l94 -277h-104l-137 277h147z" />
    <glyph glyph-name="Iacute" unicode="&#xcd;" horiz-adv-x="583" 
d="M123 0l303 1434h154l-304 -1434h-153zM489 1628l207 277h162l-252 -277h-117z" />
    <glyph glyph-name="Icircumflex" unicode="&#xce;" horiz-adv-x="583" 
d="M123 0l303 1434h154l-304 -1434h-153zM233 1618l283 276h143l168 -276h-127l-120 194l-207 -194h-140z" />
    <glyph glyph-name="Idieresis" unicode="&#xcf;" horiz-adv-x="583" 
d="M123 0l303 1434h154l-304 -1434h-153zM270 1741c0 26 10.333 49.5 31 70.5s44.667 31.5 72 31.5c26 0 46.833 -7.5 62.5 -22.5s23.5 -34.167 23.5 -57.5c0 -28.667 -10 -53.167 -30 -73.5s-44.333 -30.5 -73 -30.5c-26 0 -46.833 7.83301 -62.5 23.5
s-23.5 35.167 -23.5 58.5zM659 1741c0 26 10.333 49.5 31 70.5s44.667 31.5 72 31.5c26 0 46.833 -7.5 62.5 -22.5s23.5 -34.167 23.5 -57.5c0 -28.667 -10 -53.167 -30 -73.5s-44.333 -30.5 -73 -30.5c-26 0 -46.833 7.83301 -62.5 23.5s-23.5 35.167 -23.5 58.5z" />
    <glyph glyph-name="Eth" unicode="&#xd0;" horiz-adv-x="1566" 
d="M457 1434h426.001c180 0 330.833 -60.5 452.5 -181.5s182.5 -264.167 182.5 -429.5c0 -222.667 -86.833 -415.5 -260.5 -578.5s-377.834 -244.5 -612.501 -244.5h-491l135 645h-195l31 143h194zM862.001 1290h-282l-107 -502h348l-30 -143h-349l-106 -502h326
c190 0 354.167 65.667 492.5 197s207.5 288.333 207.5 471c0 132.667 -47.167 245.667 -141.5 339s-213.833 140 -358.5 140z" />
    <glyph glyph-name="Ntilde" unicode="&#xd1;" horiz-adv-x="1597" 
d="M1440 1434h153l-303 -1434h-123l-645 1159l-246 -1159h-153l303 1434h123l645 -1160zM950 1761c-22 0 -43.166 -11.166 -63.499 -33.499s-34.5 -55.5 -42.5 -99.5h-103c35.333 164 107 246 215 246c40.667 0 76.5 -11.333 107.5 -34s58.5 -44.834 82.5 -66.501
s48.333 -32.5 73 -32.5c22 0 43.167 11.167 63.5 33.5s34.5 55.5 42.5 99.5h102c-18 -80.667 -45.333 -141.834 -82 -183.501s-81 -62.5 -133 -62.5c-40.667 0 -76.334 11.333 -107.001 34s-58 44.834 -82 66.501s-48.333 32.5 -73 32.5z" />
    <glyph glyph-name="Ograve" unicode="&#xd2;" horiz-adv-x="1720" 
d="M981 1313c-173.333 0 -327.002 -68.001 -461.002 -204.001s-201 -293.333 -201 -472c0 -147.333 50.333 -270.166 151 -368.499s229.334 -147.5 386.001 -147.5c172 0 325.333 66.5 460 199.5s202 292.5 202 478.5c0 146 -50.167 268.167 -150.5 366.5
s-229.166 147.5 -386.499 147.5zM1673 800.999c0 -136.667 -37.832 -268.502 -113.499 -395.502s-178 -229.667 -307 -308s-266.5 -117.5 -412.5 -117.5c-195.333 0 -356.833 63 -484.5 189s-191.5 280.667 -191.5 464c0 144.667 39.833 280.834 119.5 408.501
s183.667 228.334 312 302.001s262.166 110.5 401.499 110.5c195.333 0 356.833 -63.167 484.5 -189.5s191.5 -280.833 191.5 -463.5zM998.999 1905l95 -277h-105l-137 277h147z" />
    <glyph glyph-name="Oacute" unicode="&#xd3;" horiz-adv-x="1720" 
d="M981 1313c-173.333 0 -327.002 -68.001 -461.002 -204.001s-201 -293.333 -201 -472c0 -147.333 50.333 -270.166 151 -368.499s229.334 -147.5 386.001 -147.5c172 0 325.333 66.5 460 199.5s202 292.5 202 478.5c0 146 -50.167 268.167 -150.5 366.5
s-229.166 147.5 -386.499 147.5zM1673 800.999c0 -136.667 -37.832 -268.502 -113.499 -395.502s-178 -229.667 -307 -308s-266.5 -117.5 -412.5 -117.5c-195.333 0 -356.833 63 -484.5 189s-191.5 280.667 -191.5 464c0 144.667 39.833 280.834 119.5 408.501
s183.667 228.334 312 302.001s262.166 110.5 401.499 110.5c195.333 0 356.833 -63.167 484.5 -189.5s191.5 -280.833 191.5 -463.5zM1030 1628l207 277h162l-252 -277h-117z" />
    <glyph glyph-name="Ocircumflex" unicode="&#xd4;" horiz-adv-x="1720" 
d="M981 1313c-173.333 0 -327.002 -68.001 -461.002 -204.001s-201 -293.333 -201 -472c0 -147.333 50.333 -270.166 151 -368.499s229.334 -147.5 386.001 -147.5c172 0 325.333 66.5 460 199.5s202 292.5 202 478.5c0 146 -50.167 268.167 -150.5 366.5
s-229.166 147.5 -386.499 147.5zM1673 800.999c0 -136.667 -37.832 -268.502 -113.499 -395.502s-178 -229.667 -307 -308s-266.5 -117.5 -412.5 -117.5c-195.333 0 -356.833 63 -484.5 189s-191.5 280.667 -191.5 464c0 144.667 39.833 280.834 119.5 408.501
s183.667 228.334 312 302.001s262.166 110.5 401.499 110.5c195.333 0 356.833 -63.167 484.5 -189.5s191.5 -280.833 191.5 -463.5zM769.999 1618l283 276h143l168 -276h-127l-121 194l-207 -194h-139z" />
    <glyph glyph-name="Otilde" unicode="&#xd5;" horiz-adv-x="1720" 
d="M981 1313c-173.333 0 -327.002 -68.001 -461.002 -204.001s-201 -293.333 -201 -472c0 -147.333 50.333 -270.166 151 -368.499s229.334 -147.5 386.001 -147.5c172 0 325.333 66.5 460 199.5s202 292.5 202 478.5c0 146 -50.167 268.167 -150.5 366.5
s-229.166 147.5 -386.499 147.5zM1673 800.999c0 -136.667 -37.832 -268.502 -113.499 -395.502s-178 -229.667 -307 -308s-266.5 -117.5 -412.5 -117.5c-195.333 0 -356.833 63 -484.5 189s-191.5 280.667 -191.5 464c0 144.667 39.833 280.834 119.5 408.501
s183.667 228.334 312 302.001s262.166 110.5 401.499 110.5c195.333 0 356.833 -63.167 484.5 -189.5s191.5 -280.833 191.5 -463.5zM978.999 1761c-22 0 -43.167 -11.166 -63.5 -33.499s-34.833 -55.5 -43.5 -99.5h-102c35.333 164 107 246 215 246
c40.667 0 76.5 -11.333 107.5 -34s58.333 -44.834 82 -66.501s47.834 -32.5 72.501 -32.5c22 0 43.167 11.167 63.5 33.5s34.833 55.5 43.5 99.5h102c-18 -80.667 -45.333 -141.834 -82 -183.501s-81 -62.5 -133 -62.5c-40.667 0 -76.5 11.333 -107.5 34
s-58.333 44.834 -82 66.501s-47.834 32.5 -72.501 32.5z" />
    <glyph glyph-name="Odieresis" unicode="&#xd6;" horiz-adv-x="1720" 
d="M981 1313c-173.333 0 -327.002 -68.001 -461.002 -204.001s-201 -293.333 -201 -472c0 -147.333 50.333 -270.166 151 -368.499s229.334 -147.5 386.001 -147.5c172 0 325.333 66.5 460 199.5s202 292.5 202 478.5c0 146 -50.167 268.167 -150.5 366.5
s-229.166 147.5 -386.499 147.5zM1673 800.999c0 -136.667 -37.832 -268.502 -113.499 -395.502s-178 -229.667 -307 -308s-266.5 -117.5 -412.5 -117.5c-195.333 0 -356.833 63 -484.5 189s-191.5 280.667 -191.5 464c0 144.667 39.833 280.834 119.5 408.501
s183.667 228.334 312 302.001s262.166 110.5 401.499 110.5c195.333 0 356.833 -63.167 484.5 -189.5s191.5 -280.833 191.5 -463.5zM814.999 1741c0 26 10.333 49.5 31 70.5s44.667 31.5 72 31.5c26 0 46.833 -7.5 62.5 -22.5s23.5 -34.167 23.5 -57.5
c0 -28.667 -10 -53.167 -30 -73.5s-44.333 -30.5 -73 -30.5c-26 0 -46.833 7.83301 -62.5 23.5s-23.5 35.167 -23.5 58.5zM1204 1741c0 26 10.333 49.5 31 70.5s44.667 31.5 72 31.5c26 0 46.833 -7.5 62.5 -22.5s23.5 -34.167 23.5 -57.5c0 -28.667 -10 -53.167 -30 -73.5
s-44.333 -30.5 -73 -30.5c-26 0 -46.833 7.83301 -62.5 23.5s-23.5 35.167 -23.5 58.5z" />
    <glyph glyph-name="multiply" unicode="&#xd7;" horiz-adv-x="942" 
d="M299 1008l223 -279l352 291l78 -98l-350 -289l229 -285l-106 -86l-221 279l-352 -291l-78 98l348 289l-227 285z" />
    <glyph glyph-name="Oslash" unicode="&#xd8;" horiz-adv-x="1720" 
d="M1673 801c0 -136.667 -37.832 -268.502 -113.499 -395.502s-178 -229.667 -307 -308s-266.5 -117.5 -412.5 -117.5c-192.667 0 -353.334 62 -482.001 186l-256 -211l-79 111l247 204c-70.667 108 -106 229 -106 363c0 144.667 39.833 280.834 119.5 408.501
s183.667 228.334 312 302.001s262.166 110.5 401.499 110.5c192.667 0 353.334 -62.667 482.001 -188l258 213l80 -111l-250 -207c70.667 -107.333 106 -227.333 106 -360zM981.001 1313c-173.333 0 -327 -68 -461 -204s-201 -293.333 -201 -472c0 -100 24 -189.333 72 -268
l971 800c-102.667 96 -229.667 144 -381 144zM1518 798.998c0 94 -24 182 -72 264l-971 -801c101.333 -94 228.333 -141 381 -141c172 0 325.333 66.5 460 199.5s202 292.5 202 478.5z" />
    <glyph glyph-name="Ugrave" unicode="&#xd9;" horiz-adv-x="1556" 
d="M733 123c116 0 221.833 42.333 317.5 127s157.167 189 184.5 313l184 871h154l-184 -871c-34 -162.667 -113.167 -300.5 -237.5 -413.5s-264.5 -169.5 -420.5 -169.5c-142 0 -264.5 46 -367.5 138s-154.5 203.667 -154.5 335c0 34 4 70.667 12 110l185 871h153l-184 -871
c-6.66699 -34 -10 -63.333 -10 -88c0 -101.333 35.333 -185.333 106 -252s158 -100 262 -100zM975 1905l94 -277h-104l-138 277h148z" />
    <glyph glyph-name="Uacute" unicode="&#xda;" horiz-adv-x="1556" 
d="M733 123c116 0 221.833 42.333 317.5 127s157.167 189 184.5 313l184 871h154l-184 -871c-34 -162.667 -113.167 -300.5 -237.5 -413.5s-264.5 -169.5 -420.5 -169.5c-142 0 -264.5 46 -367.5 138s-154.5 203.667 -154.5 335c0 34 4 70.667 12 110l185 871h153l-184 -871
c-6.66699 -34 -10 -63.333 -10 -88c0 -101.333 35.333 -185.333 106 -252s158 -100 262 -100zM936 1628l207 277h162l-252 -277h-117z" />
    <glyph glyph-name="Ucircumflex" unicode="&#xdb;" horiz-adv-x="1556" 
d="M733 123c116 0 221.833 42.333 317.5 127s157.167 189 184.5 313l184 871h154l-184 -871c-34 -162.667 -113.167 -300.5 -237.5 -413.5s-264.5 -169.5 -420.5 -169.5c-142 0 -264.5 46 -367.5 138s-154.5 203.667 -154.5 335c0 34 4 70.667 12 110l185 871h153l-184 -871
c-6.66699 -34 -10 -63.333 -10 -88c0 -101.333 35.333 -185.333 106 -252s158 -100 262 -100zM705 1618l282 276h143l168 -276h-127l-120 194l-207 -194h-139z" />
    <glyph glyph-name="Udieresis" unicode="&#xdc;" horiz-adv-x="1556" 
d="M733 123c116 0 221.833 42.333 317.5 127s157.167 189 184.5 313l184 871h154l-184 -871c-34 -162.667 -113.167 -300.5 -237.5 -413.5s-264.5 -169.5 -420.5 -169.5c-142 0 -264.5 46 -367.5 138s-154.5 203.667 -154.5 335c0 34 4 70.667 12 110l185 871h153l-184 -871
c-6.66699 -34 -10 -63.333 -10 -88c0 -101.333 35.333 -185.333 106 -252s158 -100 262 -100zM748 1741c0 26 10.1689 49.5 30.502 70.5s44.166 31.5 71.499 31.5c26 0 46.833 -7.5 62.5 -22.5s23.5 -34.167 23.5 -57.5c0 -28.667 -9.83301 -53.167 -29.5 -73.5
s-43.834 -30.5 -72.501 -30.5c-26 0 -46.833 7.83301 -62.5 23.5s-23.5 35.167 -23.5 58.5zM1137 1741c0 26 10.1689 49.5 30.502 70.5s44.166 31.5 71.499 31.5c26 0 46.833 -7.5 62.5 -22.5s23.5 -34.167 23.5 -57.5c0 -28.667 -9.83301 -53.167 -29.5 -73.5
s-43.834 -30.5 -72.501 -30.5c-26 0 -46.833 7.83301 -62.5 23.5s-23.5 35.167 -23.5 58.5z" />
    <glyph glyph-name="Yacute" unicode="&#xdd;" horiz-adv-x="1290" 
d="M676 666h10l592 768h182l-729 -932l-106 -502h-154l107 502l-336 932h164zM799 1628l207 277h161l-252 -277h-116z" />
    <glyph glyph-name="Thorn" unicode="&#xde;" horiz-adv-x="1331" 
d="M520 1147l-174 -819h277c147.333 0 268.333 46 363 138s142 208.333 142 349c0 94 -35 172.833 -105 236.5s-161.667 95.5 -275 95.5h-228zM549 1290l218.999 0.000976562c148.667 0 271.834 -46.333 369.501 -139s146.5 -203.334 146.5 -332.001
c0 -180 -64.5 -330.833 -193.5 -452.5s-289.833 -182.5 -482.5 -182.5h-293l-49 -225h-153l323 1516h154z" />
    <glyph glyph-name="germandbls" unicode="&#xdf;" horiz-adv-x="1198" 
d="M883 780c5.33301 -2.66699 12.832 -5.99609 22.499 -9.99609s26.334 -14.833 50.001 -32.5s44.834 -36.834 63.501 -57.501s35.5 -49 50.5 -85s22.5 -74.667 22.5 -116c0 -134 -54 -247.333 -162 -340s-233.667 -139 -377 -139h-92l28 143h93
c98 0 182.833 31.167 254.5 93.5s107.5 137.833 107.5 226.5c0 65.333 -22.167 120.5 -66.5 165.5s-103.5 67.5 -177.5 67.5h-92l31 144h20c83.333 0 157.833 26.167 223.5 78.5s98.5 116.166 98.5 191.499c0 56 -22.167 105.167 -66.5 147.5s-99.166 63.5 -164.499 63.5
c-75.333 0 -142 -24.5 -200 -73.5s-94.667 -109.833 -110 -182.5l-225 -1065h-143l225 1065c23.333 110.667 78.666 203.167 165.999 277.5s189 111.5 305 111.5c101.333 0 186.333 -32.333 255 -97s103 -141 103 -229c0 -27.333 -2.66699 -53.5 -8 -78.5
s-12.833 -47.5 -22.5 -67.5s-20.667 -38.833 -33 -56.5s-25.166 -33.334 -38.499 -47.001s-26.833 -26 -40.5 -37s-26.334 -20.167 -38.001 -27.5s-22.334 -13.833 -32.001 -19.5s-17.167 -9.83398 -22.5 -12.501z" />
    <glyph glyph-name="agrave" unicode="&#xe0;" horiz-adv-x="1218" 
d="M496 113c106.667 0 204.333 49.502 293 148.502s133 205.833 133 320.5c0 83.333 -28 152.166 -84 206.499s-123 81.5 -201 81.5c-95.333 0 -187.5 -45.333 -276.5 -136s-133.5 -196.667 -133.5 -318c0 -84.667 26.667 -156.334 80 -215.001s116.333 -88 189 -88z
M808.999 0.00195312l30.9971 144.997c-4 -4 -9.5 -9.66699 -16.5 -17s-22.5 -20.666 -46.5 -39.999s-48.833 -36.166 -74.5 -50.499s-58.667 -27.5 -99 -39.5s-81.833 -18 -124.5 -18c-106.667 0 -199.5 41.833 -278.5 125.5s-118.5 182.834 -118.5 297.501
c0 164 60 305.167 180 423.5s251 177.5 393 177.5c42 0 81.833 -6.16699 119.5 -18.5s68.834 -27.5 93.501 -45.5s45.834 -36.167 63.501 -54.5s30.834 -33.5 39.501 -45.5l12 -19l35 162h143l-209 -983h-143zM677.996 1434l94 -277h-104l-138 277h148z" />
    <glyph glyph-name="aacute" unicode="&#xe1;" horiz-adv-x="1218" 
d="M496 113c106.667 0 204.333 49.502 293 148.502s133 205.833 133 320.5c0 83.333 -28 152.166 -84 206.499s-123 81.5 -201 81.5c-95.333 0 -187.5 -45.333 -276.5 -136s-133.5 -196.667 -133.5 -318c0 -84.667 26.667 -156.334 80 -215.001s116.333 -88 189 -88z
M808.999 0.00195312l30.9971 144.997c-4 -4 -9.5 -9.66699 -16.5 -17s-22.5 -20.666 -46.5 -39.999s-48.833 -36.166 -74.5 -50.499s-58.667 -27.5 -99 -39.5s-81.833 -18 -124.5 -18c-106.667 0 -199.5 41.833 -278.5 125.5s-118.5 182.834 -118.5 297.501
c0 164 60 305.167 180 423.5s251 177.5 393 177.5c42 0 81.833 -6.16699 119.5 -18.5s68.834 -27.5 93.501 -45.5s45.834 -36.167 63.501 -54.5s30.834 -33.5 39.501 -45.5l12 -19l35 162h143l-209 -983h-143zM656.996 1157l207 277h162l-252 -277h-117z" />
    <glyph glyph-name="acircumflex" unicode="&#xe2;" horiz-adv-x="1218" 
d="M496 113c106.667 0 204.333 49.502 293 148.502s133 205.833 133 320.5c0 83.333 -28 152.166 -84 206.499s-123 81.5 -201 81.5c-95.333 0 -187.5 -45.333 -276.5 -136s-133.5 -196.667 -133.5 -318c0 -84.667 26.667 -156.334 80 -215.001s116.333 -88 189 -88z
M808.999 0.00195312l30.9971 144.997c-4 -4 -9.5 -9.66699 -16.5 -17s-22.5 -20.666 -46.5 -39.999s-48.833 -36.166 -74.5 -50.499s-58.667 -27.5 -99 -39.5s-81.833 -18 -124.5 -18c-106.667 0 -199.5 41.833 -278.5 125.5s-118.5 182.834 -118.5 297.501
c0 164 60 305.167 180 423.5s251 177.5 393 177.5c42 0 81.833 -6.16699 119.5 -18.5s68.834 -27.5 93.501 -45.5s45.834 -36.167 63.501 -54.5s30.834 -33.5 39.501 -45.5l12 -19l35 162h143l-209 -983h-143zM407.996 1157l282 277h144l167 -277h-127l-120 195l-207 -195
h-139z" />
    <glyph glyph-name="atilde" unicode="&#xe3;" horiz-adv-x="1218" 
d="M496 113c106.667 0 204.333 49.502 293 148.502s133 205.833 133 320.5c0 83.333 -28 152.166 -84 206.499s-123 81.5 -201 81.5c-95.333 0 -187.5 -45.333 -276.5 -136s-133.5 -196.667 -133.5 -318c0 -84.667 26.667 -156.334 80 -215.001s116.333 -88 189 -88z
M808.999 0.00195312l30.9971 144.997c-4 -4 -9.5 -9.66699 -16.5 -17s-22.5 -20.666 -46.5 -39.999s-48.833 -36.166 -74.5 -50.499s-58.667 -27.5 -99 -39.5s-81.833 -18 -124.5 -18c-106.667 0 -199.5 41.833 -278.5 125.5s-118.5 182.834 -118.5 297.501
c0 164 60 305.167 180 423.5s251 177.5 393 177.5c42 0 81.833 -6.16699 119.5 -18.5s68.834 -27.5 93.501 -45.5s45.834 -36.167 63.501 -54.5s30.834 -33.5 39.501 -45.5l12 -19l35 162h143l-209 -983h-143zM597.996 1290c-22 0 -43.167 -11.166 -63.5 -33.499
s-34.5 -55.5 -42.5 -99.5h-103c35.333 164 107 246 215 246c40.667 0 76.5 -11.333 107.5 -34s58.333 -44.834 82 -66.501s47.834 -32.5 72.501 -32.5c22 0 43.333 11.167 64 33.5s35 55.5 43 99.5h102c-18 -80.667 -45.333 -141.834 -82 -183.501s-81 -62.5 -133 -62.5
c-40.667 0 -76.334 11.333 -107.001 34s-58 44.834 -82 66.501s-48.333 32.5 -73 32.5z" />
    <glyph glyph-name="adieresis" unicode="&#xe4;" horiz-adv-x="1218" 
d="M496 113c106.667 0 204.333 49.502 293 148.502s133 205.833 133 320.5c0 83.333 -28 152.166 -84 206.499s-123 81.5 -201 81.5c-95.333 0 -187.5 -45.333 -276.5 -136s-133.5 -196.667 -133.5 -318c0 -84.667 26.667 -156.334 80 -215.001s116.333 -88 189 -88z
M808.999 0.00195312l30.9971 144.997c-4 -4 -9.5 -9.66699 -16.5 -17s-22.5 -20.666 -46.5 -39.999s-48.833 -36.166 -74.5 -50.499s-58.667 -27.5 -99 -39.5s-81.833 -18 -124.5 -18c-106.667 0 -199.5 41.833 -278.5 125.5s-118.5 182.834 -118.5 297.501
c0 164 60 305.167 180 423.5s251 177.5 393 177.5c42 0 81.833 -6.16699 119.5 -18.5s68.834 -27.5 93.501 -45.5s45.834 -36.167 63.501 -54.5s30.834 -33.5 39.501 -45.5l12 -19l35 162h143l-209 -983h-143zM441.996 1280c0 26 10.333 49.501 31 70.501
s44.667 31.5 72 31.5c26 0 46.833 -7.5 62.5 -22.5s23.5 -33.833 23.5 -56.5c0 -28.667 -10 -53.334 -30 -74.001s-44.333 -31 -73 -31c-26 0 -46.833 7.83301 -62.5 23.5s-23.5 35.167 -23.5 58.5zM830.996 1280c0 26 10.334 49.501 31.001 70.501s44.667 31.5 72 31.5
c26 0 46.833 -7.5 62.5 -22.5s23.5 -33.833 23.5 -56.5c0 -28.667 -9.83301 -53.334 -29.5 -74.001s-43.834 -31 -72.501 -31c-26 0 -47 7.83301 -63 23.5s-24 35.167 -24 58.5z" />
    <glyph glyph-name="aring" unicode="&#xe5;" horiz-adv-x="1218" 
d="M496 113c106.667 0 204.333 49.502 293 148.502s133 205.833 133 320.5c0 83.333 -28 152.166 -84 206.499s-123 81.5 -201 81.5c-95.333 0 -187.5 -45.333 -276.5 -136s-133.5 -196.667 -133.5 -318c0 -84.667 26.667 -156.334 80 -215.001s116.333 -88 189 -88z
M808.999 0.00195312l30.9971 144.997c-4 -4 -9.5 -9.66699 -16.5 -17s-22.5 -20.666 -46.5 -39.999s-48.833 -36.166 -74.5 -50.499s-58.667 -27.5 -99 -39.5s-81.833 -18 -124.5 -18c-106.667 0 -199.5 41.833 -278.5 125.5s-118.5 182.834 -118.5 297.501
c0 164 60 305.167 180 423.5s251 177.5 393 177.5c42 0 81.833 -6.16699 119.5 -18.5s68.834 -27.5 93.501 -45.5s45.834 -36.167 63.501 -54.5s30.834 -33.5 39.501 -45.5l12 -19l35 162h143l-209 -983h-143zM749.996 1413c-30 0 -55 -12.668 -75 -38.001
s-30 -53.666 -30 -84.999c0 -24.667 7.83301 -44.5 23.5 -59.5s35.167 -22.5 58.5 -22.5c27.333 0 52 11.333 74 34s33 51 33 85c0 26 -7.5 46.833 -22.5 62.5s-35.5 23.5 -61.5 23.5zM937.996 1337c0 -58.667 -20.834 -110.168 -62.501 -154.501s-92.5 -66.5 -152.5 -66.5
c-54.667 0 -98.667 15.333 -132 46s-50 70.667 -50 120c0 62.667 21.167 115.5 63.5 158.5s93.5 64.5 153.5 64.5c54.667 0 98.334 -15.667 131.001 -47s49 -71.666 49 -120.999z" />
    <glyph glyph-name="ae" unicode="&#xe6;" horiz-adv-x="1761" 
d="M1649 440l-768.003 0.00292969c-2.66699 -22 -4 -37.667 -4 -47c0 -76.667 28.667 -142.5 86 -197.5s126 -82.5 206 -82.5c60 0 117 14 171 42s93.333 55.667 118 83l35 41l78 -95c-4 -5.33301 -10.167 -12.833 -18.5 -22.5s-26.166 -26 -53.499 -49s-56 -43.333 -86 -61
s-68.5 -34 -115.5 -49s-95.167 -22.5 -144.5 -22.5c-52 0 -100.5 8.5 -145.5 25.5s-81.167 37.333 -108.5 61s-50.833 47.5 -70.5 71.5s-33.834 45 -42.501 63l-12 24c-4 -6.66699 -10.167 -15.5 -18.5 -26.5s-26.5 -30.5 -54.5 -58.5s-58 -52.833 -90 -74.5
s-73.833 -41.334 -125.5 -59.001s-105.5 -26.5 -161.5 -26.5c-90 0 -163.5 25.167 -220.5 75.5s-85.5 109.5 -85.5 177.5c0 94 37.667 174.167 113 240.5s166 99.5 272 99.5h363l6 31c5.33301 22 8 45.333 8 70c0 58.667 -19.333 106 -58 142s-89 54 -151 54
c-52 0 -101.167 -11.833 -147.5 -35.5s-79.5 -47.834 -99.5 -72.501l-33 -35l-76 92c4 5.33301 9.5 12.166 16.5 20.499s22.667 23 47 44s49.833 39.833 76.5 56.5s60.834 31.5 102.501 44.5s84.5 19.5 128.5 19.5c46.667 0 89 -7.16699 127 -21.5s67.667 -31.5 89 -51.5
s39.5 -39.833 54.5 -59.5s24.5 -37.167 28.5 -52.5l8 -20c4 5.33301 10.5 12.833 19.5 22.5s27.5 26 55.5 49s56.667 43.333 86 61s66.833 34.167 112.5 49.5s91.834 23 138.501 23c106.667 0 196.834 -35.167 270.501 -105.5s110.5 -161.5 110.5 -273.5
c0 -70 -12.333 -131.667 -37 -185zM349.997 113.003c94 0 177.332 32 249.999 96s118.334 141 137.001 231h-338c-65.333 0 -120.5 -18 -165.5 -54s-67.5 -82.667 -67.5 -140c0 -36.667 16.333 -68 49 -94s77.667 -39 135 -39zM1292 870.003
c-79.333 0 -156.168 -29.667 -230.501 -89s-125.166 -128.666 -152.499 -207.999h645c2.66699 87.333 -19.833 158.666 -67.5 213.999s-112.5 83 -194.5 83z" />
    <glyph glyph-name="ccedilla" unicode="&#xe7;" horiz-adv-x="1054" 
d="M82 403c0 155.333 57.334 294.332 172.001 416.999s253.334 184 416.001 184c48 0 93.667 -6.83301 137 -20.5s79.333 -30.167 108 -49.5s53.667 -38.166 75 -56.499s36.666 -34.5 45.999 -48.5l15 -20l-111 -92c-2.66699 4 -6.66699 9.33301 -12 16s-17 19 -35 37
s-37.5 33.833 -58.5 47.5s-48.333 25.834 -82 36.501s-68.834 16 -105.501 16c-106.667 0 -203.334 -44.667 -290.001 -134s-130 -196 -130 -320c0 -84.667 27.667 -156.334 83 -215.001s122.666 -88 201.999 -88c36.667 0 72.834 5.33301 108.501 16s66.5 24 92.5 40
s48.833 32.167 68.5 48.5s34.834 29.833 45.501 40.5l15 16l88 -90c-4 -5.33301 -10.5 -12.333 -19.5 -21s-27.5 -24.667 -55.5 -48s-57.333 -43.833 -88 -61.5s-69.167 -34 -115.5 -49s-92.833 -23.167 -139.5 -24.5l-61 -93h6c42 0 75 -12.167 99 -36.5s36 -54.5 36 -90.5
c0 -52 -19.833 -95 -59.5 -129s-92.167 -51 -157.5 -51c-30 0 -59.333 5.5 -88 16.5s-50 21.833 -64 32.5l-20 17l53 67c26 -34 66.333 -51 121 -51c34 0 63 9.5 87 28.5s36 40.167 36 63.5c0 18 -6.16699 32.833 -18.5 44.5s-29.5 17.5 -51.5 17.5
c-10.667 0 -21.5 -1.83301 -32.5 -5.5s-19.167 -7.5 -24.5 -11.5l-8 -4l-39 51l94 142c-96.667 19.333 -177.167 68 -241.5 146s-96.5 167.667 -96.5 269z" />
    <glyph glyph-name="egrave" unicode="&#xe8;" horiz-adv-x="1136" 
d="M508 113c61.333 0 120.671 13.668 178.004 41.001s99 54.666 125 81.999l41 40l78 -92c-4 -5.33301 -10.167 -12.833 -18.5 -22.5s-26.833 -26 -55.5 -49s-58.334 -43.333 -89.001 -61s-70.334 -34 -119.001 -49s-97.334 -22.5 -146.001 -22.5
c-116 0 -215 40.833 -297 122.5s-123 180.5 -123 296.5c0 165.333 59 307.5 177 426.5s250.667 178.5 398 178.5c116 0 212.667 -35.167 290 -105.5s116 -161.5 116 -273.5c0 -69.333 -13 -131.666 -39 -186.999l-801 2v-30c0 -84.667 27.667 -155.334 83 -212.001
s122.666 -85 201.999 -85zM643.005 870.001c-82 0 -160.168 -29 -234.501 -87s-127.166 -131.333 -158.499 -220h668c1.33301 8 2 19.667 2 35c0 79.333 -26 144.5 -78 195.5s-118.333 76.5 -199 76.5zM662.004 1434l94 -277h-105l-137 277h148z" />
    <glyph glyph-name="eacute" unicode="&#xe9;" horiz-adv-x="1136" 
d="M508 113c61.333 0 120.671 13.668 178.004 41.001s99 54.666 125 81.999l41 40l78 -92c-4 -5.33301 -10.167 -12.833 -18.5 -22.5s-26.833 -26 -55.5 -49s-58.334 -43.333 -89.001 -61s-70.334 -34 -119.001 -49s-97.334 -22.5 -146.001 -22.5
c-116 0 -215 40.833 -297 122.5s-123 180.5 -123 296.5c0 165.333 59 307.5 177 426.5s250.667 178.5 398 178.5c116 0 212.667 -35.167 290 -105.5s116 -161.5 116 -273.5c0 -69.333 -13 -131.666 -39 -186.999l-801 2v-30c0 -84.667 27.667 -155.334 83 -212.001
s122.666 -85 201.999 -85zM643.005 870.001c-82 0 -160.168 -29 -234.501 -87s-127.166 -131.333 -158.499 -220h668c1.33301 8 2 19.667 2 35c0 79.333 -26 144.5 -78 195.5s-118.333 76.5 -199 76.5zM649.004 1157l207 277h162l-252 -277h-117z" />
    <glyph glyph-name="ecircumflex" unicode="&#xea;" horiz-adv-x="1136" 
d="M508 113c61.333 0 120.671 13.668 178.004 41.001s99 54.666 125 81.999l41 40l78 -92c-4 -5.33301 -10.167 -12.833 -18.5 -22.5s-26.833 -26 -55.5 -49s-58.334 -43.333 -89.001 -61s-70.334 -34 -119.001 -49s-97.334 -22.5 -146.001 -22.5
c-116 0 -215 40.833 -297 122.5s-123 180.5 -123 296.5c0 165.333 59 307.5 177 426.5s250.667 178.5 398 178.5c116 0 212.667 -35.167 290 -105.5s116 -161.5 116 -273.5c0 -69.333 -13 -131.666 -39 -186.999l-801 2v-30c0 -84.667 27.667 -155.334 83 -212.001
s122.666 -85 201.999 -85zM643.005 870.001c-82 0 -160.168 -29 -234.501 -87s-127.166 -131.333 -158.499 -220h668c1.33301 8 2 19.667 2 35c0 79.333 -26 144.5 -78 195.5s-118.333 76.5 -199 76.5zM408.004 1157l282 277h144l167 -277h-127l-120 195l-207 -195h-139z
" />
    <glyph glyph-name="edieresis" unicode="&#xeb;" horiz-adv-x="1136" 
d="M508 113c61.333 0 120.671 13.668 178.004 41.001s99 54.666 125 81.999l41 40l78 -92c-4 -5.33301 -10.167 -12.833 -18.5 -22.5s-26.833 -26 -55.5 -49s-58.334 -43.333 -89.001 -61s-70.334 -34 -119.001 -49s-97.334 -22.5 -146.001 -22.5
c-116 0 -215 40.833 -297 122.5s-123 180.5 -123 296.5c0 165.333 59 307.5 177 426.5s250.667 178.5 398 178.5c116 0 212.667 -35.167 290 -105.5s116 -161.5 116 -273.5c0 -69.333 -13 -131.666 -39 -186.999l-801 2v-30c0 -84.667 27.667 -155.334 83 -212.001
s122.666 -85 201.999 -85zM643.005 870.001c-82 0 -160.168 -29 -234.501 -87s-127.166 -131.333 -158.499 -220h668c1.33301 8 2 19.667 2 35c0 79.333 -26 144.5 -78 195.5s-118.333 76.5 -199 76.5zM428.004 1280c0 26 10.1689 49.501 30.502 70.501
s44.166 31.5 71.499 31.5c26 0 46.833 -7.5 62.5 -22.5s23.5 -33.833 23.5 -56.5c0 -28.667 -9.83301 -53.334 -29.5 -74.001s-43.834 -31 -72.501 -31c-26 0 -46.833 7.83301 -62.5 23.5s-23.5 35.167 -23.5 58.5zM817.006 1280c0 26 10.333 49.501 31 70.501
s44.667 31.5 72 31.5c26 0 46.833 -7.5 62.5 -22.5s23.5 -33.833 23.5 -56.5c0 -28.667 -10 -53.334 -30 -74.001s-44.333 -31 -73 -31c-26 0 -46.833 7.83301 -62.5 23.5s-23.5 35.167 -23.5 58.5z" />
    <glyph glyph-name="igrave" unicode="&#xec;" horiz-adv-x="471" 
d="M311 1434l95 -277h-105l-137 277h147zM61 0l209 983h144l-209 -983h-144z" />
    <glyph glyph-name="iacute" unicode="&#xed;" horiz-adv-x="471" 
d="M319 1157l207 277h162l-252 -277h-117zM61 0l209 983h144l-209 -983h-144z" />
    <glyph glyph-name="icircumflex" unicode="&#xee;" horiz-adv-x="471" 
d="M61 0l209 983h144l-209 -983h-144zM68 1157l282 277h144l168 -277h-127l-121 195l-207 -195h-139z" />
    <glyph glyph-name="idieresis" unicode="&#xef;" horiz-adv-x="471" 
d="M100 1280c0 26 10.333 49.501 31 70.501s44.667 31.5 72 31.5c26 0 46.833 -7.5 62.5 -22.5s23.5 -33.833 23.5 -56.5c0 -28.667 -10 -53.334 -30 -74.001s-44.333 -31 -73 -31c-26 0 -46.833 7.83301 -62.5 23.5s-23.5 35.167 -23.5 58.5zM489 1280
c0 26 10.333 49.501 31 70.501s44.667 31.5 72 31.5c26 0 46.833 -7.5 62.5 -22.5s23.5 -33.833 23.5 -56.5c0 -28.667 -10 -53.334 -30 -74.001s-44.333 -31 -73 -31c-26 0 -46.833 7.83301 -62.5 23.5s-23.5 35.167 -23.5 58.5zM61 0.00195312l209 983h144l-209 -983h-144
z" />
    <glyph glyph-name="eth" unicode="&#xf0;" horiz-adv-x="1177" 
d="M1116 1495l-234.998 -143.001c5.33301 -4 13.166 -10.5 23.499 -19.5s28 -29.167 53 -60.5s47.5 -65.833 67.5 -103.5s37.833 -87.5 53.5 -149.5s23.5 -128 23.5 -198c0 -258 -61.5 -462.667 -184.5 -614s-269.167 -227 -438.5 -227c-112 0 -207.167 39.5 -285.5 118.5
s-117.5 174.5 -117.5 286.5c0 151.333 58.667 285.5 176 402.5s247.666 175.5 390.999 175.5c44 0 85.333 -6.83301 124 -20.5s70 -30.167 94 -49.5s44.5 -38.833 61.5 -58.5s28.833 -36.5 35.5 -50.5l13 -20v24c0 60 -7.16699 117.667 -21.5 173s-31.5 100.833 -51.5 136.5
s-40.167 67.167 -60.5 94.5s-37.5 47 -51.5 59l-22 19l-277 -174l-51 114l213 133c-56 46.667 -126.333 80.334 -211 101.001l68 123c49.333 -15.333 96.5 -34.833 141.5 -58.5s77.5 -43.167 97.5 -58.5l33 -25l283 174zM492.002 112.999
c106.667 0 200.5 44.998 281.5 134.998s121.5 189.667 121.5 299c0 80.667 -26 147.834 -78 201.501s-115.333 80.5 -190 80.5c-100 0 -192.333 -43.667 -277 -131s-127 -189.666 -127 -306.999c0 -80.667 26 -147.167 78 -199.5s115.667 -78.5 191 -78.5z" />
    <glyph glyph-name="ntilde" unicode="&#xf1;" 
d="M414 983l-31.001 -141c2.66699 4 7.16699 9.66699 13.5 17s20 20.333 41 39s43.167 35.167 66.5 49.5s54 27.333 92 39s77 17.5 117 17.5c102.667 0 185.334 -28.833 248.001 -86.5s94 -135.5 94 -233.5c0 -38 -3.66699 -71.333 -11 -100l-122 -584h-144l123 584
c5.33301 32.667 8 55.667 8 69c0 66.667 -20.5 119.5 -61.5 158.5s-94.833 58.5 -161.5 58.5c-87.333 0 -165.5 -31.667 -234.5 -95s-113.833 -144.333 -134.5 -243l-112 -532h-144l209 983h144zM611.999 1290c-22 0 -43.166 -11.168 -63.499 -33.501
s-34.5 -55.5 -42.5 -99.5h-103c18 80.667 45.5 141.834 82.5 183.501s81.167 62.5 132.5 62.5c40.667 0 76.5 -11.333 107.5 -34s58.5 -44.834 82.5 -66.501s48.333 -32.5 73 -32.5c22 0 43.167 11.167 63.5 33.5s34.5 55.5 42.5 99.5h103
c-35.333 -164 -107.333 -246 -216 -246c-40.667 0 -76.334 11.333 -107.001 34s-58 44.834 -82 66.501s-48.333 32.5 -73 32.5z" />
    <glyph glyph-name="ograve" unicode="&#xf2;" 
d="M551 111c108 0 204 43.998 288 131.998s126 188.667 126 302c0 92.667 -30.833 170.334 -92.5 233.001s-138.834 94 -231.501 94c-104 0 -199 -42.667 -285 -128s-129 -187.333 -129 -306c0 -91.333 30.833 -168.666 92.5 -231.999s138.834 -95 231.501 -95zM82 429.998
c0 146 57 278.167 171 396.5s247.333 177.5 400 177.5c132.667 0 242 -43.833 328 -131.5s129 -194.834 129 -321.501c0 -154 -58.667 -287.667 -176 -401s-249 -170 -395 -170c-132.667 0 -242 43.333 -328 130s-129 193.334 -129 320.001zM655 1434l95 -277h-105l-137 277
h147z" />
    <glyph glyph-name="oacute" unicode="&#xf3;" 
d="M551 111c108 0 204 43.998 288 131.998s126 188.667 126 302c0 92.667 -30.833 170.334 -92.5 233.001s-138.834 94 -231.501 94c-104 0 -199 -42.667 -285 -128s-129 -187.333 -129 -306c0 -91.333 30.833 -168.666 92.5 -231.999s138.834 -95 231.501 -95zM82 429.998
c0 146 57 278.167 171 396.5s247.333 177.5 400 177.5c132.667 0 242 -43.833 328 -131.5s129 -194.834 129 -321.501c0 -154 -58.667 -287.667 -176 -401s-249 -170 -395 -170c-132.667 0 -242 43.333 -328 130s-129 193.334 -129 320.001zM641 1157l207 277h162l-252 -277
h-117z" />
    <glyph glyph-name="ocircumflex" unicode="&#xf4;" 
d="M551 111c108 0 204 43.998 288 131.998s126 188.667 126 302c0 92.667 -30.833 170.334 -92.5 233.001s-138.834 94 -231.501 94c-104 0 -199 -42.667 -285 -128s-129 -187.333 -129 -306c0 -91.333 30.833 -168.666 92.5 -231.999s138.834 -95 231.501 -95zM82 429.998
c0 146 57 278.167 171 396.5s247.333 177.5 400 177.5c132.667 0 242 -43.833 328 -131.5s129 -194.834 129 -321.501c0 -154 -58.667 -287.667 -176 -401s-249 -170 -395 -170c-132.667 0 -242 43.333 -328 130s-129 193.334 -129 320.001zM408 1157l282 277h144l167 -277
h-127l-120 195l-207 -195h-139z" />
    <glyph glyph-name="otilde" unicode="&#xf5;" 
d="M551 111c108 0 204 43.998 288 131.998s126 188.667 126 302c0 92.667 -30.833 170.334 -92.5 233.001s-138.834 94 -231.501 94c-104 0 -199 -42.667 -285 -128s-129 -187.333 -129 -306c0 -91.333 30.833 -168.666 92.5 -231.999s138.834 -95 231.501 -95zM82 429.998
c0 146 57 278.167 171 396.5s247.333 177.5 400 177.5c132.667 0 242 -43.833 328 -131.5s129 -194.834 129 -321.501c0 -154 -58.667 -287.667 -176 -401s-249 -170 -395 -170c-132.667 0 -242 43.333 -328 130s-129 193.334 -129 320.001zM596 1290
c-22 0 -43.167 -11.167 -63.5 -33.5s-34.833 -55.5 -43.5 -99.5h-102c18 80.667 45.333 141.834 82 183.501s81 62.5 133 62.5c40.667 0 76.5 -11.333 107.5 -34s58.333 -44.834 82 -66.501s47.834 -32.5 72.501 -32.5c22 0 43.167 11.167 63.5 33.5s34.833 55.5 43.5 99.5
h102c-18 -80.667 -45.333 -141.834 -82 -183.501s-81 -62.5 -133 -62.5c-40.667 0 -76.334 11.333 -107.001 34s-58 44.834 -82 66.501s-48.333 32.5 -73 32.5z" />
    <glyph glyph-name="odieresis" unicode="&#xf6;" 
d="M551 111c108 0 204 43.998 288 131.998s126 188.667 126 302c0 92.667 -30.833 170.334 -92.5 233.001s-138.834 94 -231.501 94c-104 0 -199 -42.667 -285 -128s-129 -187.333 -129 -306c0 -91.333 30.833 -168.666 92.5 -231.999s138.834 -95 231.501 -95zM82 429.998
c0 146 57 278.167 171 396.5s247.333 177.5 400 177.5c132.667 0 242 -43.833 328 -131.5s129 -194.834 129 -321.501c0 -154 -58.667 -287.667 -176 -401s-249 -170 -395 -170c-132.667 0 -242 43.333 -328 130s-129 193.334 -129 320.001zM442 1280
c0 26 10.333 49.501 31 70.501s44.667 31.5 72 31.5c26 0 46.833 -7.5 62.5 -22.5s23.5 -33.833 23.5 -56.5c0 -28.667 -10 -53.334 -30 -74.001s-44.333 -31 -73 -31c-26 0 -46.833 7.83301 -62.5 23.5s-23.5 35.167 -23.5 58.5zM831 1280
c0 26 10.334 49.501 31.001 70.501s44.667 31.5 72 31.5c26 0 46.833 -7.5 62.5 -22.5s23.5 -33.833 23.5 -56.5c0 -28.667 -9.83301 -53.334 -29.5 -74.001s-43.834 -31 -72.501 -31c-26 0 -47 7.83301 -63 23.5s-24 35.167 -24 58.5z" />
    <glyph glyph-name="divide" unicode="&#xf7;" horiz-adv-x="1044" 
d="M1001 666l-28 -134h-860l28 134h860zM528 946c0 31.333 10.332 59 30.999 83s47.334 36 80.001 36c30 0 53.833 -7.83301 71.5 -23.5s26.5 -36.5 26.5 -62.5c0 -35.333 -10.833 -64 -32.5 -86s-48.167 -33 -79.5 -33c-30 0 -53.667 7.83301 -71 23.5s-26 36.5 -26 62.5z
M374.999 219c0 31.333 10.167 59 30.5 83s46.833 36 79.5 36c30 0 54 -7.83301 72 -23.5s27 -36.5 27 -62.5c0 -35.333 -11 -64 -33 -86s-48.667 -33 -80 -33c-30 0 -53.5 7.83301 -70.5 23.5s-25.5 36.5 -25.5 62.5z" />
    <glyph glyph-name="oslash" unicode="&#xf8;" 
d="M82 430c0 146 57 278.167 171 396.5s247.333 177.5 400 177.5c122.667 0 226 -38.333 310 -115l176 149l75 -100l-170 -145c44 -74 66 -154.667 66 -242c0 -154 -58.667 -287.667 -176 -401s-249 -170 -395 -170c-124 0 -228.667 38 -314 114l-174 -149l-76 100l170 145
c-42 72.667 -63 152.667 -63 240zM551 111c108 0 203.999 44 287.999 132s126 188.667 126 302c0 53.333 -11.667 103 -35 149l-594 -506c58.667 -51.333 130.334 -77 215.001 -77zM226.999 438c0 -56 11 -105.667 33 -149l594 506c-60 52 -131 77.667 -213 77
c-104 0 -199 -42.667 -285 -128s-129 -187.333 -129 -306z" />
    <glyph glyph-name="ugrave" unicode="&#xf9;" 
d="M778 0l26.998 131.001c-2.66699 -4 -7.16699 -9.5 -13.5 -16.5s-19.666 -19.333 -39.999 -37s-42.166 -33 -65.499 -46s-54 -24.833 -92 -35.5s-77 -16 -117 -16c-98 0 -179.167 30.333 -243.5 91s-96.5 140.667 -96.5 240c0 36.667 3.33301 69.667 10 99l123 573h144
l-123 -573c-5.33301 -22 -8 -46 -8 -72c0 -66.667 20.5 -120.834 61.5 -162.501s94.167 -62.5 159.5 -62.5c83.333 0 160.5 32 231.5 96s116.5 144 136.5 240l115 534h143l-208 -983h-144zM681.998 1434l94 -277h-104l-137 277h147z" />
    <glyph glyph-name="uacute" unicode="&#xfa;" 
d="M778 0l26.998 131.001c-2.66699 -4 -7.16699 -9.5 -13.5 -16.5s-19.666 -19.333 -39.999 -37s-42.166 -33 -65.499 -46s-54 -24.833 -92 -35.5s-77 -16 -117 -16c-98 0 -179.167 30.333 -243.5 91s-96.5 140.667 -96.5 240c0 36.667 3.33301 69.667 10 99l123 573h144
l-123 -573c-5.33301 -22 -8 -46 -8 -72c0 -66.667 20.5 -120.834 61.5 -162.501s94.167 -62.5 159.5 -62.5c83.333 0 160.5 32 231.5 96s116.5 144 136.5 240l115 534h143l-208 -983h-144zM624.998 1157l206 277h162l-252 -277h-116z" />
    <glyph glyph-name="ucircumflex" unicode="&#xfb;" 
d="M778 0l26.998 131.001c-2.66699 -4 -7.16699 -9.5 -13.5 -16.5s-19.666 -19.333 -39.999 -37s-42.166 -33 -65.499 -46s-54 -24.833 -92 -35.5s-77 -16 -117 -16c-98 0 -179.167 30.333 -243.5 91s-96.5 140.667 -96.5 240c0 36.667 3.33301 69.667 10 99l123 573h144
l-123 -573c-5.33301 -22 -8 -46 -8 -72c0 -66.667 20.5 -120.834 61.5 -162.501s94.167 -62.5 159.5 -62.5c83.333 0 160.5 32 231.5 96s116.5 144 136.5 240l115 534h143l-208 -983h-144zM402.998 1157l283 277h143l168 -277h-127l-120 195l-207 -195h-140z" />
    <glyph glyph-name="udieresis" unicode="&#xfc;" 
d="M778 0l26.998 131.001c-2.66699 -4 -7.16699 -9.5 -13.5 -16.5s-19.666 -19.333 -39.999 -37s-42.166 -33 -65.499 -46s-54 -24.833 -92 -35.5s-77 -16 -117 -16c-98 0 -179.167 30.333 -243.5 91s-96.5 140.667 -96.5 240c0 36.667 3.33301 69.667 10 99l123 573h144
l-123 -573c-5.33301 -22 -8 -46 -8 -72c0 -66.667 20.5 -120.834 61.5 -162.501s94.167 -62.5 159.5 -62.5c83.333 0 160.5 32 231.5 96s116.5 144 136.5 240l115 534h143l-208 -983h-144zM460.998 1270c0 26 10.1689 49.5 30.502 70.5s44.166 31.5 71.499 31.5
c26 0 46.833 -7.5 62.5 -22.5s23.5 -34.167 23.5 -57.5c0 -28.667 -9.83301 -53.167 -29.5 -73.5s-43.834 -30.5 -72.501 -30.5c-26 0 -46.833 7.83301 -62.5 23.5s-23.5 35.167 -23.5 58.5zM850 1270c0 26 10.1689 49.5 30.502 70.5s44.166 31.5 71.499 31.5
c26 0 46.833 -7.5 62.5 -22.5s23.5 -34.167 23.5 -57.5c0 -28.667 -9.83301 -53.167 -29.5 -73.5s-43.834 -30.5 -72.501 -30.5c-26 0 -46.833 7.83301 -62.5 23.5s-23.5 35.167 -23.5 58.5z" />
    <glyph glyph-name="yacute" unicode="&#xfd;" horiz-adv-x="1003" 
d="M240 -143l85.999 149l-189 977h148l147 -799l488 799h159l-690 -1126c-64 -104 -123.667 -177.833 -179 -221.5s-118.666 -65.5 -189.999 -65.5c-22 0 -42.5 1.66699 -61.5 5s-32.5 7 -40.5 11l-14 4l26 129c26 -10.667 56 -16 90 -16c88 0 161.333 51.333 220 154z
M558.999 1157l207 277h162l-252 -277h-117z" />
    <glyph glyph-name="thorn" unicode="&#xfe;" horiz-adv-x="1228" 
d="M735 870c-106.667 0 -204.333 -49.5 -293 -148.5s-133 -205.833 -133 -320.5c0 -83.333 28 -152.166 84 -206.499s123 -81.5 201 -81.5c95.333 0 187.5 45.667 276.5 137s133.5 197.666 133.5 318.999c0 84.667 -26.667 156 -80 214s-116.333 87 -189 87zM518.001 1434
l-127 -595.997c4 4 9.5 9.66699 16.5 17s22.333 20.666 46 39.999s48.5 36.166 74.5 50.499s59.167 27.666 99.5 39.999s81.833 18.5 124.5 18.5c106.667 0 199.5 -42 278.5 -126s118.5 -183.333 118.5 -298c0 -164 -60.167 -305 -180.5 -423s-251.5 -177 -393.5 -177
c-42 0 -81.833 6 -119.5 18s-68.667 27 -93 45s-45.5 36.167 -63.5 54.5s-31 33.5 -39 45.5l-12 19l-125 -592h-143l395 1864h143z" />
    <glyph glyph-name="ydieresis" unicode="&#xff;" horiz-adv-x="1003" 
d="M240 -143l85.999 149l-189 977h148l147 -799l488 799h159l-690 -1126c-64 -104 -123.667 -177.833 -179 -221.5s-118.666 -65.5 -189.999 -65.5c-22 0 -42.5 1.66699 -61.5 5s-32.5 7 -40.5 11l-14 4l26 129c26 -10.667 56 -16 90 -16c88 0 161.333 51.333 220 154z
M359.999 1280c0 26 10.333 49.501 31 70.501s44.667 31.5 72 31.5c26 0 46.833 -7.5 62.5 -22.5s23.5 -33.833 23.5 -56.5c0 -28.667 -10 -53.334 -30 -74.001s-44.333 -31 -73 -31c-26 0 -46.833 7.83301 -62.5 23.5s-23.5 35.167 -23.5 58.5zM749.999 1280
c0 26 10.1689 49.501 30.502 70.501s44.166 31.5 71.499 31.5c26 0 46.833 -7.5 62.5 -22.5s23.5 -33.833 23.5 -56.5c0 -28.667 -9.83301 -53.334 -29.5 -74.001s-43.834 -31 -72.501 -31c-26 0 -46.833 7.83301 -62.5 23.5s-23.5 35.167 -23.5 58.5z" />
    <glyph glyph-name="Amacron" unicode="&#x100;" horiz-adv-x="1433" 
d="M1020 543l-133 676l-420 -676h553zM1051 399h-676l-248 -399h-168l897 1434h143l291 -1434h-160zM1274 1812l-25 -112h-594l25 112h594z" />
    <glyph glyph-name="amacron" unicode="&#x101;" horiz-adv-x="1218" 
d="M496 113c106.667 0 204.333 49.502 293 148.502s133 205.833 133 320.5c0 83.333 -28 152.166 -84 206.499s-123 81.5 -201 81.5c-95.333 0 -187.5 -45.333 -276.5 -136s-133.5 -196.667 -133.5 -318c0 -84.667 26.667 -156.334 80 -215.001s116.333 -88 189 -88z
M808.999 0.00195312l30.9971 144.997c-4 -4 -9.5 -9.66699 -16.5 -17s-22.5 -20.666 -46.5 -39.999s-48.833 -36.166 -74.5 -50.499s-58.667 -27.5 -99 -39.5s-81.833 -18 -124.5 -18c-106.667 0 -199.5 41.833 -278.5 125.5s-118.5 182.834 -118.5 297.501
c0 164 60 305.167 180 423.5s251 177.5 393 177.5c42 0 81.833 -6.16699 119.5 -18.5s68.834 -27.5 93.501 -45.5s45.834 -36.167 63.501 -54.5s30.834 -33.5 39.501 -45.5l12 -19l35 162h143l-209 -983h-143zM1049 1362l-25 -113h-594l25 113h594z" />
    <glyph glyph-name="Abreve" unicode="&#x102;" horiz-adv-x="1433" 
d="M1020 543l-133 676l-420 -676h553zM1051 399h-676l-248 -399h-168l897 1434h143l291 -1434h-160zM971 1731c106.667 0 171.334 58 194.001 174h113c-18 -84.667 -53.833 -152 -107.5 -202s-120.834 -75 -201.501 -75c-83.333 0 -149 26 -197 78s-63.667 118.333 -47 199
h113c-10.667 -56 -4.16699 -99 19.5 -129s61.5 -45 113.5 -45z" />
    <glyph glyph-name="abreve" unicode="&#x103;" horiz-adv-x="1218" 
d="M496 113c106.667 0 204.333 49.502 293 148.502s133 205.833 133 320.5c0 83.333 -28 152.166 -84 206.499s-123 81.5 -201 81.5c-95.333 0 -187.5 -45.333 -276.5 -136s-133.5 -196.667 -133.5 -318c0 -84.667 26.667 -156.334 80 -215.001s116.333 -88 189 -88z
M808.999 0.00195312l30.9971 144.997c-4 -4 -9.5 -9.66699 -16.5 -17s-22.5 -20.666 -46.5 -39.999s-48.833 -36.166 -74.5 -50.499s-58.667 -27.5 -99 -39.5s-81.833 -18 -124.5 -18c-106.667 0 -199.5 41.833 -278.5 125.5s-118.5 182.834 -118.5 297.501
c0 164 60 305.167 180 423.5s251 177.5 393 177.5c42 0 81.833 -6.16699 119.5 -18.5s68.834 -27.5 93.501 -45.5s45.834 -36.167 63.501 -54.5s30.834 -33.5 39.501 -45.5l12 -19l35 162h143l-209 -983h-143zM742.996 1260c106.667 0 171.667 58 195 174h113
c-18 -84.667 -54 -152 -108 -202s-121.333 -75 -202 -75c-83.333 0 -148.833 26 -196.5 78s-63.167 118.333 -46.5 199h112c-10.667 -56 -4.16699 -99 19.5 -129s61.5 -45 113.5 -45z" />
    <glyph glyph-name="Aogonek" unicode="&#x104;" horiz-adv-x="1433" 
d="M1051 399l-676.001 -0.000976562l-248 -399h-168l897 1434h143l291 -1434h-57c-12 -10.667 -27.333 -25.334 -46 -44.001s-43.334 -50.167 -74.001 -94.5s-46 -82.166 -46 -113.499c0 -44 29.333 -65.667 88 -65c18 0 37.833 2.33301 59.5 7s38.834 9.66699 51.501 15
l18 8l-22 -102c-42 -20.667 -88 -31 -138 -31c-50.667 0 -90.5 13.667 -119.5 41s-43.5 63 -43.5 107c0 46.667 14.333 92.334 43 137.001s57.334 78.667 86.001 102l40 33zM1020 542.999l-133 676l-420 -676h553z" />
    <glyph glyph-name="aogonek" unicode="&#x105;" horiz-adv-x="1218" 
d="M809 0l30.9971 144.996c-4 -4 -9.5 -9.66699 -16.5 -17s-22.5 -20.666 -46.5 -39.999s-48.833 -36.166 -74.5 -50.499s-58.667 -27.5 -99 -39.5s-81.833 -18 -124.5 -18c-106.667 0 -199.5 41.833 -278.5 125.5s-118.5 182.834 -118.5 297.501
c0 164 60 305.167 180 423.5s251 177.5 393 177.5c42 0 81.833 -6.16699 119.5 -18.5s68.834 -27.5 93.501 -45.5s45.834 -36.167 63.501 -54.5s30.834 -33.5 39.501 -45.5l12 -19l35 162h143l-209 -983h-41c-12 -10.667 -27.167 -25.334 -45.5 -44.001
s-43 -50.167 -74 -94.5s-46.5 -82.166 -46.5 -113.499c0 -44 29.667 -65.667 89 -65c18 0 37.833 2.33301 59.5 7s38.5 9.66699 50.5 15l19 8l-23 -102c-42 -20.667 -87.667 -31 -137 -31c-50.667 0 -90.667 13.667 -120 41s-44 63 -44 107
c0 46.667 14.333 92.334 43 137.001s56.667 78.667 84 102zM495.997 112.996c106.667 0 204.333 49.502 293 148.502s133 205.833 133 320.5c0 83.333 -28 152.166 -84 206.499s-123 81.5 -201 81.5c-95.333 0 -187.5 -45.333 -276.5 -136s-133.5 -196.667 -133.5 -318
c0 -84.667 26.667 -156.334 80 -215.001s116.333 -88 189 -88z" />
    <glyph glyph-name="Cacute" unicode="&#x106;" horiz-adv-x="1536" 
d="M164 604c0 144.667 37.833 282.165 113.5 412.498s180.5 235.833 314.5 316.5s279.333 121 436 121c72.667 0 142 -10.167 208 -30.5s119.833 -44.833 161.5 -73.5s78.5 -57.667 110.5 -87s55 -54.333 69 -75l20 -31l-114 -88c-4 6.66699 -9.83301 15.5 -17.5 26.5
s-25.5 30.167 -53.5 57.5s-58.333 51.5 -91 72.5s-76.667 40.5 -132 58.5s-113.666 27 -174.999 27c-186 0 -347.833 -67.667 -485.5 -203s-206.5 -301.333 -206.5 -498c0 -136.667 47 -252 141 -346s211.333 -141 352 -141c61.333 0 120.666 8.5 177.999 25.5
s105.5 37.833 144.5 62.5s73.5 48.834 103.5 72.501s52 43.834 66 60.501l22 27l90 -95c-6.66699 -8 -15.834 -18.5 -27.501 -31.5s-37.667 -36.5 -78 -70.5s-82.666 -64.333 -126.999 -91s-101.333 -50.5 -171 -71.5s-140.5 -31.5 -212.5 -31.5
c-176 0 -326.5 62 -451.5 186s-187.5 270 -187.5 438zM989 1628l207 277h162l-252 -277h-117z" />
    <glyph glyph-name="cacute" unicode="&#x107;" horiz-adv-x="1054" 
d="M82 403c0 155.333 57.334 294.332 172.001 416.999s253.334 184 416.001 184c48 0 93.667 -6.83301 137 -20.5s79.333 -30.167 108 -49.5s53.667 -38.166 75 -56.499s36.666 -34.5 45.999 -48.5l15 -20l-111 -92c-2.66699 4 -6.66699 9.33301 -12 16s-17 19 -35 37
s-37.5 33.833 -58.5 47.5s-48.333 25.834 -82 36.501s-68.834 16 -105.501 16c-106.667 0 -203.334 -44.667 -290.001 -134s-130 -196 -130 -320c0 -84.667 27.667 -156.334 83 -215.001s122.666 -88 201.999 -88c36.667 0 72.834 5.33301 108.501 16s66.5 24 92.5 40
s48.833 32.167 68.5 48.5s34.834 29.833 45.501 40.5l15 16l88 -90c-4 -5.33301 -10.5 -12.833 -19.5 -22.5s-28.167 -26 -57.5 -49s-59.333 -43.333 -90 -61s-70 -34 -118 -49s-95.667 -22.5 -143 -22.5c-116 0 -215 41.5 -297 124.5s-123 182.5 -123 298.5zM641.001 1157
l207 277h162l-252 -277h-117z" />
    <glyph glyph-name="Ccircumflex" unicode="&#x108;" horiz-adv-x="1536" 
d="M164 604c0 144.667 37.833 282.165 113.5 412.498s180.5 235.833 314.5 316.5s279.333 121 436 121c72.667 0 142 -10.167 208 -30.5s119.833 -44.833 161.5 -73.5s78.5 -57.667 110.5 -87s55 -54.333 69 -75l20 -31l-114 -88c-4 6.66699 -9.83301 15.5 -17.5 26.5
s-25.5 30.167 -53.5 57.5s-58.333 51.5 -91 72.5s-76.667 40.5 -132 58.5s-113.666 27 -174.999 27c-186 0 -347.833 -67.667 -485.5 -203s-206.5 -301.333 -206.5 -498c0 -136.667 47 -252 141 -346s211.333 -141 352 -141c61.333 0 120.666 8.5 177.999 25.5
s105.5 37.833 144.5 62.5s73.5 48.834 103.5 72.501s52 43.834 66 60.501l22 27l90 -95c-6.66699 -8 -15.834 -18.5 -27.501 -31.5s-37.667 -36.5 -78 -70.5s-82.666 -64.333 -126.999 -91s-101.333 -50.5 -171 -71.5s-140.5 -31.5 -212.5 -31.5
c-176 0 -326.5 62 -451.5 186s-187.5 270 -187.5 438zM768 1628l283 277h143l168 -277h-127l-121 195l-207 -195h-139z" />
    <glyph glyph-name="ccircumflex" unicode="&#x109;" horiz-adv-x="1054" 
d="M82 403c0 155.333 57.334 294.332 172.001 416.999s253.334 184 416.001 184c48 0 93.667 -6.83301 137 -20.5s79.333 -30.167 108 -49.5s53.667 -38.166 75 -56.499s36.666 -34.5 45.999 -48.5l15 -20l-111 -92c-2.66699 4 -6.66699 9.33301 -12 16s-17 19 -35 37
s-37.5 33.833 -58.5 47.5s-48.333 25.834 -82 36.501s-68.834 16 -105.501 16c-106.667 0 -203.334 -44.667 -290.001 -134s-130 -196 -130 -320c0 -84.667 27.667 -156.334 83 -215.001s122.666 -88 201.999 -88c36.667 0 72.834 5.33301 108.501 16s66.5 24 92.5 40
s48.833 32.167 68.5 48.5s34.834 29.833 45.501 40.5l15 16l88 -90c-4 -5.33301 -10.5 -12.833 -19.5 -22.5s-28.167 -26 -57.5 -49s-59.333 -43.333 -90 -61s-70 -34 -118 -49s-95.667 -22.5 -143 -22.5c-116 0 -215 41.5 -297 124.5s-123 182.5 -123 298.5zM399.001 1157
l283 277h143l168 -277h-127l-121 195l-206 -195h-140z" />
    <glyph glyph-name="Ccaron" unicode="&#x10c;" horiz-adv-x="1536" 
d="M164 604c0 144.667 37.833 282.165 113.5 412.498s180.5 235.833 314.5 316.5s279.333 121 436 121c72.667 0 142 -10.167 208 -30.5s119.833 -44.833 161.5 -73.5s78.5 -57.667 110.5 -87s55 -54.333 69 -75l20 -31l-114 -88c-4 6.66699 -9.83301 15.5 -17.5 26.5
s-25.5 30.167 -53.5 57.5s-58.333 51.5 -91 72.5s-76.667 40.5 -132 58.5s-113.666 27 -174.999 27c-186 0 -347.833 -67.667 -485.5 -203s-206.5 -301.333 -206.5 -498c0 -136.667 47 -252 141 -346s211.333 -141 352 -141c61.333 0 120.666 8.5 177.999 25.5
s105.5 37.833 144.5 62.5s73.5 48.834 103.5 72.501s52 43.834 66 60.501l22 27l90 -95c-6.66699 -8 -15.834 -18.5 -27.501 -31.5s-37.667 -36.5 -78 -70.5s-82.666 -64.333 -126.999 -91s-101.333 -50.5 -171 -71.5s-140.5 -31.5 -212.5 -31.5
c-176 0 -326.5 62 -451.5 186s-187.5 270 -187.5 438zM1419 1905l-282 -277h-144l-168 277h127l121 -195l207 195h139z" />
    <glyph glyph-name="ccaron" unicode="&#x10d;" horiz-adv-x="1054" 
d="M82 403c0 155.333 57.334 294.332 172.001 416.999s253.334 184 416.001 184c48 0 93.667 -6.83301 137 -20.5s79.333 -30.167 108 -49.5s53.667 -38.166 75 -56.499s36.666 -34.5 45.999 -48.5l15 -20l-111 -92c-2.66699 4 -6.66699 9.33301 -12 16s-17 19 -35 37
s-37.5 33.833 -58.5 47.5s-48.333 25.834 -82 36.501s-68.834 16 -105.501 16c-106.667 0 -203.334 -44.667 -290.001 -134s-130 -196 -130 -320c0 -84.667 27.667 -156.334 83 -215.001s122.666 -88 201.999 -88c36.667 0 72.834 5.33301 108.501 16s66.5 24 92.5 40
s48.833 32.167 68.5 48.5s34.834 29.833 45.501 40.5l15 16l88 -90c-4 -5.33301 -10.5 -12.833 -19.5 -22.5s-28.167 -26 -57.5 -49s-59.333 -43.333 -90 -61s-70 -34 -118 -49s-95.667 -22.5 -143 -22.5c-116 0 -215 41.5 -297 124.5s-123 182.5 -123 298.5zM1051 1434
l-283 -277h-143l-168 277h127l121 -195l206 195h140z" />
    <glyph glyph-name="Dcaron" unicode="&#x10e;" horiz-adv-x="1536" 
d="M426 1434h425.999c180 0 330.833 -60.5 452.5 -181.5s182.5 -264.167 182.5 -429.5c0 -222.667 -86.667 -415.5 -260 -578.5s-377.666 -244.5 -612.999 -244.5h-491zM830.999 1290h-282l-244 -1147h326c190 0 354.167 65.667 492.5 197s207.5 288.333 207.5 471
c0 132.667 -47.167 245.667 -141.5 339s-213.833 140 -358.5 140zM1278 1905l-283 -277h-143l-168 277h127l121 -195l207 195h139z" />
    <glyph glyph-name="dcaron" unicode="&#x10f;" horiz-adv-x="1320" 
d="M496 113c106.667 0 204.333 49.502 293 148.502s133 205.833 133 320.5c0 83.333 -28 152.166 -84 206.499s-123 81.5 -201 81.5c-95.333 0 -187.5 -45.333 -276.5 -136s-133.5 -196.667 -133.5 -318c0 -84.667 26.667 -156.334 80 -215.001s116.333 -88 189 -88z
M808.999 0.00195312l30.9971 144.997c-4 -4 -9.5 -9.66699 -16.5 -17s-22.5 -20.666 -46.5 -39.999s-48.833 -36.166 -74.5 -50.499s-58.667 -27.5 -99 -39.5s-81.833 -18 -124.5 -18c-106.667 0 -199.5 41.833 -278.5 125.5s-118.5 182.834 -118.5 297.501
c0 164 60 305.167 180 423.5s251 177.5 393 177.5c42 0 81.833 -6.16699 119.5 -18.5s68.834 -27.5 93.501 -45.5s45.834 -36.167 63.501 -54.5s30.834 -33.5 39.501 -45.5l12 -19l129 613h143l-303 -1434h-143zM1327 1157l146 277h141l-180 -277h-107z" />
    <glyph glyph-name="Dcroat" unicode="&#x110;" horiz-adv-x="1566" 
d="M457 1434h426.001c180 0 330.833 -60.5 452.5 -181.5s182.5 -264.167 182.5 -429.5c0 -222.667 -86.833 -415.5 -260.5 -578.5s-377.834 -244.5 -612.501 -244.5h-491l135 645h-195l31 143h194zM862.001 1290h-282l-107 -502h348l-30 -143h-349l-106 -502h326
c190 0 354.167 65.667 492.5 197s207.5 288.333 207.5 471c0 132.667 -47.167 245.667 -141.5 339s-213.833 140 -358.5 140z" />
    <glyph glyph-name="dcroat" unicode="&#x111;" horiz-adv-x="1228" 
d="M963 780l71.002 336h-266l29 133h266l39 185h143l-39 -185h164l-29 -133h-163l-236 -1116h-143l28 143c-10.667 -12 -25.834 -27.167 -45.501 -45.5s-61.334 -42.5 -125.001 -72.5s-128.834 -45 -195.501 -45c-106.667 0 -197.167 41.5 -271.5 124.5
s-111.5 180.5 -111.5 292.5c0 150 58.667 281.833 176 395.5s246.333 170.5 387 170.5c42 0 81.833 -6.16699 119.5 -18.5s68.167 -27.5 91.5 -45.5s43.833 -36.167 61.5 -54.5s29.834 -33.5 36.501 -45.5zM477.002 113c105.333 0 202.999 44 292.999 132s135 186 135 294
c0 79.333 -27.667 147.5 -83 204.5s-121 85.5 -197 85.5c-95.333 0 -186.166 -42.333 -272.499 -127s-129.5 -180.667 -129.5 -288c0 -82 24.667 -152.667 74 -212s109.333 -89 180 -89z" />
    <glyph glyph-name="Emacron" unicode="&#x112;" horiz-adv-x="1310" 
d="M305 143h850l-29 -143h-1003l303 1434h983l-31 -144h-829l-98 -471h665l-31 -143h-665zM1282 1812l-25 -112h-593l24 112h594z" />
    <glyph glyph-name="emacron" unicode="&#x113;" horiz-adv-x="1136" 
d="M508 113c61.333 0 120.671 13.668 178.004 41.001s99 54.666 125 81.999l41 40l78 -92c-4 -5.33301 -10.167 -12.833 -18.5 -22.5s-26.833 -26 -55.5 -49s-58.334 -43.333 -89.001 -61s-70.334 -34 -119.001 -49s-97.334 -22.5 -146.001 -22.5
c-116 0 -215 40.833 -297 122.5s-123 180.5 -123 296.5c0 165.333 59 307.5 177 426.5s250.667 178.5 398 178.5c116 0 212.667 -35.167 290 -105.5s116 -161.5 116 -273.5c0 -69.333 -13 -131.666 -39 -186.999l-801 2v-30c0 -84.667 27.667 -155.334 83 -212.001
s122.666 -85 201.999 -85zM643.005 870.001c-82 0 -160.168 -29 -234.501 -87s-127.166 -131.333 -158.499 -220h668c1.33301 8 2 19.667 2 35c0 79.333 -26 144.5 -78 195.5s-118.333 76.5 -199 76.5zM1036 1341l-24 -112h-594l24 112h594z" />
    <glyph glyph-name="Edotaccent" unicode="&#x116;" horiz-adv-x="1310" 
d="M305 143h850l-29 -143h-1003l303 1434h983l-31 -144h-829l-98 -471h665l-31 -143h-665zM879 1751c0 26 10.1689 49.501 30.502 70.501s44.166 31.5 71.499 31.5c26 0 46.833 -7.5 62.5 -22.5s23.5 -33.833 23.5 -56.5c0 -28.667 -9.83301 -53.334 -29.5 -74.001
s-43.834 -31 -72.501 -31c-26 0 -46.833 7.83301 -62.5 23.5s-23.5 35.167 -23.5 58.5z" />
    <glyph glyph-name="edotaccent" unicode="&#x117;" horiz-adv-x="1136" 
d="M508 113c61.333 0 120.671 13.668 178.004 41.001s99 54.666 125 81.999l41 40l78 -92c-4 -5.33301 -10.167 -12.833 -18.5 -22.5s-26.833 -26 -55.5 -49s-58.334 -43.333 -89.001 -61s-70.334 -34 -119.001 -49s-97.334 -22.5 -146.001 -22.5
c-116 0 -215 40.833 -297 122.5s-123 180.5 -123 296.5c0 165.333 59 307.5 177 426.5s250.667 178.5 398 178.5c116 0 212.667 -35.167 290 -105.5s116 -161.5 116 -273.5c0 -69.333 -13 -131.666 -39 -186.999l-801 2v-30c0 -84.667 27.667 -155.334 83 -212.001
s122.666 -85 201.999 -85zM643.005 870.001c-82 0 -160.168 -29 -234.501 -87s-127.166 -131.333 -158.499 -220h668c1.33301 8 2 19.667 2 35c0 79.333 -26 144.5 -78 195.5s-118.333 76.5 -199 76.5zM631.004 1280c0 26 10.1689 49.501 30.502 70.501
s44.166 31.5 71.499 31.5c26 0 46.833 -7.5 62.5 -22.5s23.5 -33.833 23.5 -56.5c0 -28.667 -9.83301 -53.334 -29.5 -74.001s-43.834 -31 -72.501 -31c-26 0 -46.833 7.83301 -62.5 23.5s-23.5 35.167 -23.5 58.5z" />
    <glyph glyph-name="Eogonek" unicode="&#x118;" horiz-adv-x="1310" 
d="M1024 0l-901 -0.000976562l303 1434h983l-31 -144h-829l-98 -471h665l-31 -143h-665l-115 -533h850l-29 -143c-12 -10.667 -27.167 -25.334 -45.5 -44.001s-42.833 -50.167 -73.5 -94.5s-46 -82.166 -46 -113.499c0 -44 29.333 -65.667 88 -65
c18 0 37.833 2.33301 59.5 7s38.5 9.66699 50.5 15l19 8l-23 -102c-42 -20.667 -87.667 -31 -137 -31c-50.667 0 -90.667 13.667 -120 41s-44 63 -44 107c0 46.667 14 92.334 42 137.001s56.333 78.667 85 102z" />
    <glyph glyph-name="eogonek" unicode="&#x119;" horiz-adv-x="1136" 
d="M508 113c61.333 0 120.67 13.6689 178.003 41.002s99 54.666 125 81.999l41 40l78 -92c-4 -5.33301 -9.83301 -12 -17.5 -20s-24.5 -23 -50.5 -45s-52.667 -41.5 -80 -58.5s-62.833 -33.333 -106.5 -49s-87.834 -25.5 -132.501 -29.5
c-96.667 -91.333 -145.334 -169.333 -146.001 -234c0 -44 29.333 -65.667 88 -65c18 0 38 2.33301 60 7s39 9.66699 51 15l18 8l-22 -102c-42 -20.667 -87.667 -31 -137 -31c-50.667 0 -90.667 13.667 -120 41s-44 63 -44 107c0 90 49 175.333 147 256
c-101.333 15.333 -186 62.166 -254 140.499s-102 169.833 -102 274.5c0 165.333 59 307.5 177 426.5s250.667 178.5 398 178.5c116 0 212.667 -35.167 290 -105.5s116 -161.5 116 -273.5c0 -69.333 -13 -131.666 -39 -186.999l-801 2v-30
c0 -84.667 27.667 -155.334 83 -212.001s122.666 -85 201.999 -85zM643.004 870.002c-82 0 -160.168 -29 -234.501 -87s-127.166 -131.333 -158.499 -220h668c1.33301 8 2 19.667 2 35c0 79.333 -26 144.5 -78 195.5s-118.333 76.5 -199 76.5z" />
    <glyph glyph-name="Ecaron" unicode="&#x11a;" horiz-adv-x="1310" 
d="M305 143h850l-29 -143h-1003l303 1434h983l-31 -144h-829l-98 -471h665l-31 -143h-665zM1294 1894l-282 -276h-144l-168 276h127l121 -194l207 194h139z" />
    <glyph glyph-name="ecaron" unicode="&#x11b;" horiz-adv-x="1136" 
d="M508 113c61.333 0 120.671 13.668 178.004 41.001s99 54.666 125 81.999l41 40l78 -92c-4 -5.33301 -10.167 -12.833 -18.5 -22.5s-26.833 -26 -55.5 -49s-58.334 -43.333 -89.001 -61s-70.334 -34 -119.001 -49s-97.334 -22.5 -146.001 -22.5
c-116 0 -215 40.833 -297 122.5s-123 180.5 -123 296.5c0 165.333 59 307.5 177 426.5s250.667 178.5 398 178.5c116 0 212.667 -35.167 290 -105.5s116 -161.5 116 -273.5c0 -69.333 -13 -131.666 -39 -186.999l-801 2v-30c0 -84.667 27.667 -155.334 83 -212.001
s122.666 -85 201.999 -85zM643.005 870.001c-82 0 -160.168 -29 -234.501 -87s-127.166 -131.333 -158.499 -220h668c1.33301 8 2 19.667 2 35c0 79.333 -26 144.5 -78 195.5s-118.333 76.5 -199 76.5zM1065 1434l-283 -277h-143l-168 277h127l121 -195l207 195h139z" />
    <glyph glyph-name="Gbreve" unicode="&#x11e;" horiz-adv-x="1628" 
d="M164 600c0 147.333 38.4971 286.5 115.497 417.5s182.833 236.5 317.5 316.5s280.334 120 437.001 120c72.667 0 141.667 -10.167 207 -30.5s118.833 -44.833 160.5 -73.5s77.834 -57.667 108.501 -87s53 -54.333 67 -75l20 -31l-114 -88
c-4 6.66699 -9.83301 15.5 -17.5 26.5s-25.5 30.167 -53.5 57.5s-58.333 51.5 -91 72.5s-76.667 40.5 -132 58.5s-113.666 27 -174.999 27c-186 0 -347.833 -67.667 -485.5 -203s-206.5 -301.333 -206.5 -498c0 -135.333 48 -250.333 144 -345s214.333 -142 355 -142
c57.333 0 112.333 6.83301 165 20.5s96.334 30 131.001 49s65.334 37.667 92.001 56s45.667 34.5 57 48.5l18 20l59 277h-327l31 143h481l-98 -461c-6.66699 -8 -16.334 -18.5 -29.001 -31.5s-39.334 -36.5 -80.001 -70.5s-83.667 -64.333 -129 -91
s-103.5 -50.5 -174.5 -71.5s-142.5 -31.5 -214.5 -31.5c-176 0 -326.5 61.333 -451.5 184s-187.5 268 -187.5 436zM1083 1720c106.667 0 171.667 58.001 195 174.001h113c-18 -84.667 -54 -151.834 -108 -201.501s-121.333 -74.5 -202 -74.5
c-83.333 0 -148.833 26 -196.5 78s-63.167 118 -46.5 198h112c-10.667 -56 -4.16699 -99 19.5 -129s61.5 -45 113.5 -45z" />
    <glyph glyph-name="gbreve" unicode="&#x11f;" 
d="M791 61l26.001 119.003c-2.66699 -4 -7 -9.66699 -13 -17s-19.667 -20.333 -41 -39s-44.333 -34.834 -69 -48.501s-56.334 -26.334 -95.001 -38.001s-79.334 -17.5 -122.001 -17.5c-106.667 0 -198.5 40 -275.5 120s-115.5 176 -115.5 288
c0 158.667 56.667 294.334 170 407.001s241 169 383 169c42 0 81.5 -5.83301 118.5 -17.5s67.167 -26 90.5 -43s43.5 -33.833 60.5 -50.5s28.833 -30.334 35.5 -41.001l10 -18l33 149h143l-196 -922c-30 -140.667 -96.5 -257.667 -199.5 -351s-220.167 -140 -351.5 -140
c-52 0 -101.167 7.16699 -147.5 21.5s-84.166 31.333 -113.499 51s-55.333 39.5 -78 59.5s-38.667 37.333 -48 52l-14 21l108 88c2.66699 -4 6.5 -9.83301 11.5 -17.5s16.333 -20.667 34 -39s37 -34.333 58 -48s49 -26.334 84 -38.001s71.5 -17.5 109.5 -17.5
c92.667 0 177.667 34 255 102s127 153.333 149 256zM623.001 870.003c-105.333 0 -197 -45.001 -275 -135.001s-117 -189.667 -117 -299c0 -79.333 26 -146.166 78 -200.499s113.667 -81.5 185 -81.5c100 0 191.833 44 275.5 132s125.5 191.333 125.5 310
c0 79.333 -26.167 144.833 -78.5 196.5s-116.833 77.5 -193.5 77.5zM723.001 1260c106.667 0 171.668 58 195.001 174h112c-18 -84.667 -53.833 -152 -107.5 -202s-120.834 -75 -201.501 -75c-83.333 0 -148.833 26 -196.5 78s-63.5 118.333 -47.5 199h113
c-10.667 -56 -4.16699 -99 19.5 -129s61.5 -45 113.5 -45z" />
    <glyph glyph-name="uni0122" unicode="&#x122;" horiz-adv-x="1628" 
d="M164 600c0 147.333 38.4971 286.5 115.497 417.5s182.833 236.5 317.5 316.5s280.334 120 437.001 120c72.667 0 141.667 -10.167 207 -30.5s118.833 -44.833 160.5 -73.5s77.834 -57.667 108.501 -87s53 -54.333 67 -75l20 -31l-114 -88
c-4 6.66699 -9.83301 15.5 -17.5 26.5s-25.5 30.167 -53.5 57.5s-58.333 51.5 -91 72.5s-76.667 40.5 -132 58.5s-113.666 27 -174.999 27c-186 0 -347.833 -67.667 -485.5 -203s-206.5 -301.333 -206.5 -498c0 -135.333 48 -250.333 144 -345s214.333 -142 355 -142
c57.333 0 112.333 6.83301 165 20.5s96.334 30 131.001 49s65.334 37.667 92.001 56s45.667 34.5 57 48.5l18 20l59 277h-327l31 143h481l-98 -461c-6.66699 -8 -16.334 -18.5 -29.001 -31.5s-39.334 -36.5 -80.001 -70.5s-83.667 -64.333 -129 -91
s-103.5 -50.5 -174.5 -71.5s-142.5 -31.5 -214.5 -31.5c-176 0 -326.5 61.333 -451.5 184s-187.5 268 -187.5 436zM550.997 -440l143 276h142l-181 -276h-104z" />
    <glyph glyph-name="uni0123" unicode="&#x123;" 
d="M903 1434l-145 -277h-142l181 277h106zM791 61l26.001 119.003c-2.66699 -4 -7 -9.66699 -13 -17s-19.667 -20.333 -41 -39s-44.333 -34.834 -69 -48.501s-56.334 -26.334 -95.001 -38.001s-79.334 -17.5 -122.001 -17.5c-106.667 0 -198.5 40 -275.5 120
s-115.5 176 -115.5 288c0 158.667 56.667 294.334 170 407.001s241 169 383 169c42 0 81.5 -5.83301 118.5 -17.5s67.167 -26 90.5 -43s43.5 -33.833 60.5 -50.5s28.833 -30.334 35.5 -41.001l10 -18l33 149h143l-196 -922c-30 -140.667 -96.833 -257.667 -200.5 -351
s-221.167 -140 -352.5 -140c-52 0 -101.167 7.16699 -147.5 21.5s-84.166 31.333 -113.499 51s-55 39.5 -77 59.5s-37.667 37.333 -47 52l-14 21l108 88c2.66699 -4 6.5 -9.83301 11.5 -17.5s16.333 -20.667 34 -39s37 -34.333 58 -48s49 -26.334 84 -38.001
s71.5 -17.5 109.5 -17.5c92.667 0 177.667 34 255 102s127 153.333 149 256zM623.001 870.003c-105.333 0 -197 -45.001 -275 -135.001s-117 -189.667 -117 -299c0 -79.333 26 -146.166 78 -200.499s113.667 -81.5 185 -81.5c100 0 191.833 44 275.5 132
s125.5 191.333 125.5 310c0 79.333 -26.167 144.833 -78.5 196.5s-116.833 77.5 -193.5 77.5z" />
    <glyph glyph-name="Imacron" unicode="&#x12a;" horiz-adv-x="583" 
d="M123 0l303 1434h154l-304 -1434h-153zM868 1812l-24 -112h-594l24 112h594z" />
    <glyph glyph-name="imacron" unicode="&#x12b;" horiz-adv-x="471" 
d="M711 1341l-25 -112h-594l25 112h594zM61 0l209 983h144l-209 -983h-144z" />
    <glyph glyph-name="Iogonek" unicode="&#x12e;" horiz-adv-x="583" 
d="M123 0l303 1434h154l-304 -1434h-51c-12 -10.667 -27.167 -25.334 -45.5 -44.001s-43 -50.167 -74 -94.5s-46.5 -82.166 -46.5 -113.499c0 -44 29.333 -65.667 88 -65c18 0 38 2.33301 60 7s39 9.66699 51 15l18 8l-22 -102c-42 -20.667 -87.667 -31 -137 -31
c-50.667 0 -90.667 13.667 -120 41s-44 63 -44 107c0 46.667 14 92.334 42 137.001s56.333 78.667 85 102z" />
    <glyph glyph-name="iogonek" unicode="&#x12f;" horiz-adv-x="471" 
d="M61 0l209 982.999h144l-209 -983h-41c-12 -10.667 -27.333 -25.334 -46 -44.001s-43.334 -50.167 -74.001 -94.5s-46 -82.166 -46 -113.499c0 -44 29.333 -65.667 88 -65c18 0 37.833 2.33301 59.5 7s38.834 9.66699 51.501 15l18 8l-22 -102
c-42 -20.667 -88 -31 -138 -31c-50.667 0 -90.667 13.667 -120 41s-44 63 -44 107c0 46.667 14 92.334 42 137.001s56.333 78.667 85 102zM311 1296c0 28.667 10.333 53.667 31 75s46 32 76 32c22 0 41.167 -7.83301 57.5 -23.5s24.5 -34.5 24.5 -56.5
c0 -28.667 -11 -53.167 -33 -73.5s-47.333 -30.5 -76 -30.5c-22 0 -40.833 7.66699 -56.5 23s-23.5 33.333 -23.5 54z" />
    <glyph glyph-name="Idotaccent" unicode="&#x130;" horiz-adv-x="583" 
d="M123 0l303 1434h154l-304 -1434h-153zM475 1751c0 26 10.333 49.501 31 70.501s44.667 31.5 72 31.5c26 0 46.833 -7.5 62.5 -22.5s23.5 -33.833 23.5 -56.5c0 -28.667 -10 -53.334 -30 -74.001s-44.333 -31 -73 -31c-26 0 -46.833 7.83301 -62.5 23.5
s-23.5 35.167 -23.5 58.5z" />
    <glyph glyph-name="dotlessi" unicode="&#x131;" horiz-adv-x="471" 
d="M61 0l209 983h144l-209 -983h-144z" />
    <glyph glyph-name="uni0136" unicode="&#x136;" horiz-adv-x="1372" 
d="M410 637l907 797h194l-669 -598l413 -836h-172l-360 729l-358 -309l-89 -420h-153l303 1434h154zM430 -440l143 276h142l-180 -276h-105z" />
    <glyph glyph-name="uni0137" unicode="&#x137;" horiz-adv-x="1044" 
d="M272 276l-57 -276h-143l303 1434h143l-205 -963l596 512h181l-465 -399l297 -584h-158l-250 483zM254 -440l143 276h142l-181 -276h-104z" />
    <glyph glyph-name="Lacute" unicode="&#x139;" horiz-adv-x="1146" 
d="M1014 0h-891l303 1434h154l-275 -1291h737zM494 1628l206 277h162l-252 -277h-116z" />
    <glyph glyph-name="lacute" unicode="&#x13a;" horiz-adv-x="491" 
d="M518 1434l-303 -1434h-143l303 1434h143zM436 1628l207 277h162l-252 -277h-117z" />
    <glyph glyph-name="uni013B" unicode="&#x13b;" horiz-adv-x="1146" 
d="M1014 0h-891l303 1434h154l-275 -1291h737zM356 -440l144 276h141l-180 -276h-105z" />
    <glyph glyph-name="uni013C" unicode="&#x13c;" horiz-adv-x="491" 
d="M518 1434l-303 -1434h-143l303 1434h143zM-104 -440l143 276h141l-180 -276h-104z" />
    <glyph glyph-name="Lcaron" unicode="&#x13d;" horiz-adv-x="1146" 
d="M1014 0h-891l303 1434h154l-275 -1291h737zM692 1157l146 277h141l-180 -277h-107z" />
    <glyph glyph-name="lcaron" unicode="&#x13e;" horiz-adv-x="583" 
d="M518 1434l-303 -1434h-143l303 1434h143zM580 1157l145 277h141l-180 -277h-106z" />
    <glyph glyph-name="Lslash" unicode="&#x141;" horiz-adv-x="1259" 
d="M1126 0h-890l122 582l-276 -144l-45 127l354 174l148 695h153l-127 -603l324 175l45 -127l-402 -205l-114 -531h737z" />
    <glyph glyph-name="lslash" unicode="&#x142;" horiz-adv-x="716" 
d="M631 1434l-123 -582l291 164l39 -107l-361 -204l-149 -705h-144l133 633l-288 -154l-39 107l358 194l139 654h144z" />
    <glyph glyph-name="Nacute" unicode="&#x143;" horiz-adv-x="1597" 
d="M1440 1434h153l-303 -1434h-123l-645 1159l-246 -1159h-153l303 1434h123l645 -1160zM958 1628l207 277h162l-252 -277h-117z" />
    <glyph glyph-name="nacute" unicode="&#x144;" 
d="M414 983l-31.001 -141c2.66699 4 7.16699 9.66699 13.5 17s20 20.333 41 39s43.167 35.167 66.5 49.5s54 27.333 92 39s77 17.5 117 17.5c102.667 0 185.334 -28.833 248.001 -86.5s94 -135.5 94 -233.5c0 -38 -3.66699 -71.333 -11 -100l-122 -584h-144l123 584
c5.33301 32.667 8 55.667 8 69c0 66.667 -20.5 119.5 -61.5 158.5s-94.833 58.5 -161.5 58.5c-87.333 0 -165.5 -31.667 -234.5 -95s-113.833 -144.333 -134.5 -243l-112 -532h-144l209 983h144zM671.999 1157l207 277h161l-252 -277h-116z" />
    <glyph glyph-name="uni0145" unicode="&#x145;" horiz-adv-x="1597" 
d="M1440 1434h153l-303 -1434h-123l-645 1159l-246 -1159h-153l303 1434h123l645 -1160zM494 -440l143 276h141l-180 -276h-104z" />
    <glyph glyph-name="uni0146" unicode="&#x146;" 
d="M414 983l-31.001 -141c2.66699 4 7.16699 9.66699 13.5 17s20 20.333 41 39s43.167 35.167 66.5 49.5s54 27.333 92 39s77 17.5 117 17.5c102.667 0 185.334 -28.833 248.001 -86.5s94 -135.5 94 -233.5c0 -38 -3.66699 -71.333 -11 -100l-122 -584h-144l123 584
c5.33301 32.667 8 55.667 8 69c0 66.667 -20.5 119.5 -61.5 158.5s-94.833 58.5 -161.5 58.5c-87.333 0 -165.5 -31.667 -234.5 -95s-113.833 -144.333 -134.5 -243l-112 -532h-144l209 983h144zM259.999 -440l143 276h142l-180 -276h-105z" />
    <glyph glyph-name="Ncaron" unicode="&#x147;" horiz-adv-x="1597" 
d="M1440 1434h153l-303 -1434h-123l-645 1159l-246 -1159h-153l303 1434h123l645 -1160zM1384 1894l-282 -276h-144l-167 276h127l120 -194l207 194h139z" />
    <glyph glyph-name="ncaron" unicode="&#x148;" 
d="M414 983l-31.001 -141c2.66699 4 7.16699 9.66699 13.5 17s20 20.333 41 39s43.167 35.167 66.5 49.5s54 27.333 92 39s77 17.5 117 17.5c102.667 0 185.334 -28.833 248.001 -86.5s94 -135.5 94 -233.5c0 -38 -3.66699 -71.333 -11 -100l-122 -584h-144l123 584
c5.33301 32.667 8 55.667 8 69c0 66.667 -20.5 119.5 -61.5 158.5s-94.833 58.5 -161.5 58.5c-87.333 0 -165.5 -31.667 -234.5 -95s-113.833 -144.333 -134.5 -243l-112 -532h-144l209 983h144zM1081 1434l-282 -277h-144l-168 277h127l121 -195l207 195h139z" />
    <glyph glyph-name="Omacron" unicode="&#x14c;" horiz-adv-x="1720" 
d="M981 1313c-173.333 0 -327.002 -68.001 -461.002 -204.001s-201 -293.333 -201 -472c0 -147.333 50.333 -270.166 151 -368.499s229.334 -147.5 386.001 -147.5c172 0 325.333 66.5 460 199.5s202 292.5 202 478.5c0 146 -50.167 268.167 -150.5 366.5
s-229.166 147.5 -386.499 147.5zM1673 800.999c0 -136.667 -37.832 -268.502 -113.499 -395.502s-178 -229.667 -307 -308s-266.5 -117.5 -412.5 -117.5c-195.333 0 -356.833 63 -484.5 189s-191.5 280.667 -191.5 464c0 144.667 39.833 280.834 119.5 408.501
s183.667 228.334 312 302.001s262.166 110.5 401.499 110.5c195.333 0 356.833 -63.167 484.5 -189.5s191.5 -280.833 191.5 -463.5zM1419 1812l-24 -112h-594l24 112h594z" />
    <glyph glyph-name="omacron" unicode="&#x14d;" 
d="M551 111c108 0 204 43.998 288 131.998s126 188.667 126 302c0 92.667 -30.833 170.334 -92.5 233.001s-138.834 94 -231.501 94c-104 0 -199 -42.667 -285 -128s-129 -187.333 -129 -306c0 -91.333 30.833 -168.666 92.5 -231.999s138.834 -95 231.501 -95zM82 429.998
c0 146 57 278.167 171 396.5s247.333 177.5 400 177.5c132.667 0 242 -43.833 328 -131.5s129 -194.834 129 -321.501c0 -154 -58.667 -287.667 -176 -401s-249 -170 -395 -170c-132.667 0 -242 43.333 -328 130s-129 193.334 -129 320.001zM1053 1341l-25 -112h-594l25 112
h594z" />
    <glyph glyph-name="Ohungarumlaut" unicode="&#x150;" horiz-adv-x="1720" 
d="M981 1313c-173.333 0 -327.002 -68.001 -461.002 -204.001s-201 -293.333 -201 -472c0 -147.333 50.333 -270.166 151 -368.499s229.334 -147.5 386.001 -147.5c172 0 325.333 66.5 460 199.5s202 292.5 202 478.5c0 146 -50.167 268.167 -150.5 366.5
s-229.166 147.5 -386.499 147.5zM1673 800.999c0 -136.667 -37.832 -268.502 -113.499 -395.502s-178 -229.667 -307 -308s-266.5 -117.5 -412.5 -117.5c-195.333 0 -356.833 63 -484.5 189s-191.5 280.667 -191.5 464c0 144.667 39.833 280.834 119.5 408.501
s183.667 228.334 312 302.001s262.166 110.5 401.499 110.5c195.333 0 356.833 -63.167 484.5 -189.5s191.5 -280.833 191.5 -463.5zM853.999 1618l207 276h162l-254 -276h-115zM1171 1618l205 276h164l-252 -276h-117z" />
    <glyph glyph-name="ohungarumlaut" unicode="&#x151;" 
d="M551 111c108 0 204 43.998 288 131.998s126 188.667 126 302c0 92.667 -30.833 170.334 -92.5 233.001s-138.834 94 -231.501 94c-104 0 -199 -42.667 -285 -128s-129 -187.333 -129 -306c0 -91.333 30.833 -168.666 92.5 -231.999s138.834 -95 231.501 -95zM82 429.998
c0 146 57 278.167 171 396.5s247.333 177.5 400 177.5c132.667 0 242 -43.833 328 -131.5s129 -194.834 129 -321.501c0 -154 -58.667 -287.667 -176 -401s-249 -170 -395 -170c-132.667 0 -242 43.333 -328 130s-129 193.334 -129 320.001zM483 1157l207 277h162l-254 -277
h-115zM801 1157l205 277h163l-251 -277h-117z" />
    <glyph glyph-name="OE" unicode="&#x152;" horiz-adv-x="2058" 
d="M1145 143h758l-29 -143h-1075c-176 0 -325.5 59.667 -448.5 179s-184.5 261 -184.5 425c0 230.667 84.667 426.667 254 588s369.333 242 600 242h1137l-31 -144h-737l-99 -471h574l-31 -143h-573zM999 1290c-186 0 -345.333 -65.167 -478 -195.5
s-199 -289.833 -199 -478.5c0 -131.333 46.333 -243 139 -335s208.667 -138 348 -138h182l244 1147h-236z" />
    <glyph glyph-name="oe" unicode="&#x153;" horiz-adv-x="1925" 
d="M1810 430l-767.998 -0.000976562c-1.33301 -8 -2 -19 -2 -33c0 -80.667 25.667 -148.167 77 -202.5s117.333 -81.5 198 -81.5c60 0 118.333 14 175 42s98 55.667 124 83l39 41l76 -95c-4 -5.33301 -10.167 -12.833 -18.5 -22.5s-26.5 -26 -54.5 -49s-57 -43.333 -87 -61
s-69.333 -34 -118 -49s-97.334 -22.5 -146.001 -22.5c-53.333 0 -102.5 8.83301 -147.5 26.5s-80.167 38.667 -105.5 63s-46.833 49.166 -64.5 74.499s-30.167 47 -37.5 65l-8 27c-5.33301 -6.66699 -12.5 -16 -21.5 -28s-28.5 -32.667 -58.5 -62
s-61.333 -55.166 -94 -77.499s-74.334 -42.666 -125.001 -60.999s-102 -27.5 -154 -27.5c-110.667 0 -206.167 41.5 -286.5 124.5s-120.5 182.5 -120.5 298.5c0 165.333 59 306.833 177 424.5s251.333 176.5 400 176.5c52 0 100.167 -9 144.5 -27s79.5 -39.667 105.5 -65
s48.667 -50.5 68 -75.5s32.333 -46.5 39 -64.5l10 -27c4 6.66699 10.5 16 19.5 28s28.167 33 57.5 63s60 56.167 92 78.5s73.333 42.833 124 61.5s102 28 154 28c106.667 0 196 -35.167 268 -105.5s108 -161.5 108 -273.5c0 -88 -13 -153 -39 -195zM643.002 869.999
c-110.667 0 -207.665 -47.001 -290.998 -141.001s-125 -199 -125 -315c0 -84.667 27.667 -156 83 -214s120.666 -87 195.999 -87c100 0 194.333 46.333 283 139s133 200.334 133 323.001c0 84.667 -27.333 155 -82 211s-120.334 84 -197.001 84zM1460 869.998
c-80.667 0 -158.5 -30.3311 -233.5 -90.998s-126.833 -132.667 -155.5 -216h635c1.33301 9.33301 2 23.666 2 42.999c0 79.333 -22.5 143.166 -67.5 191.499s-105.167 72.5 -180.5 72.5z" />
    <glyph glyph-name="Racute" unicode="&#x154;" horiz-adv-x="1382" 
d="M426 1434l553 0.000976562c109.333 0 200.166 -35.833 272.499 -107.5s108.5 -157.5 108.5 -257.5c0 -196.667 -89.333 -339.334 -268 -428.001c-27.333 -13.333 -69.666 -29 -126.999 -47l213 -594h-164l-203 573h-414l-121 -573h-153zM961 1290l-411.999 -0.000976562
l-121 -573h406c101.333 0 188.333 31 261 93s109 145 109 249c0 66.667 -22.333 121.834 -67 165.501s-103.334 65.5 -176.001 65.5zM844.001 1628l207 277h161l-251 -277h-117z" />
    <glyph glyph-name="racute" unicode="&#x155;" horiz-adv-x="706" 
d="M786 1004l-30 -144.001h-62c-84.667 0 -163.167 -29.333 -235.5 -88s-118.833 -135 -139.5 -229l-114 -543h-144l209 983h144l-29 -133c2.66699 4 7.5 9.5 14.5 16.5s21.333 19.333 43 37s45.167 33.334 70.5 47.001s57.833 26 97.5 37s80.5 16.5 122.5 16.5h53z
M498 1157l207 277h161l-252 -277h-116z" />
    <glyph glyph-name="uni0156" unicode="&#x156;" horiz-adv-x="1382" 
d="M426 1434l553 0.000976562c109.333 0 200.166 -35.833 272.499 -107.5s108.5 -157.5 108.5 -257.5c0 -196.667 -89.333 -339.334 -268 -428.001c-27.333 -13.333 -69.666 -29 -126.999 -47l213 -594h-164l-203 573h-414l-121 -573h-153zM961 1290l-411.999 -0.000976562
l-121 -573h406c101.333 0 188.333 31 261 93s109 145 109 249c0 66.667 -22.333 121.834 -67 165.501s-103.334 65.5 -176.001 65.5zM416.001 -440l143 276h141l-180 -276h-104z" />
    <glyph glyph-name="uni0157" unicode="&#x157;" horiz-adv-x="706" 
d="M786 1004l-30 -144.001h-62c-84.667 0 -163.167 -29.333 -235.5 -88s-118.833 -135 -139.5 -229l-114 -543h-144l209 983h144l-29 -133c2.66699 4 7.5 9.5 14.5 16.5s21.333 19.333 43 37s45.167 33.334 70.5 47.001s57.833 26 97.5 37s80.5 16.5 122.5 16.5h53z
M-109 -440.001l144 276h141l-180 -276h-105z" />
    <glyph glyph-name="Rcaron" unicode="&#x158;" horiz-adv-x="1382" 
d="M426 1434l553 0.000976562c109.333 0 200.166 -35.833 272.499 -107.5s108.5 -157.5 108.5 -257.5c0 -196.667 -89.333 -339.334 -268 -428.001c-27.333 -13.333 -69.666 -29 -126.999 -47l213 -594h-164l-203 573h-414l-121 -573h-153zM961 1290l-411.999 -0.000976562
l-121 -573h406c101.333 0 188.333 31 261 93s109 145 109 249c0 66.667 -22.333 121.834 -67 165.501s-103.334 65.5 -176.001 65.5zM1253 1894l-282 -276h-144l-168 276h127l121 -194l207 194h139z" />
    <glyph glyph-name="rcaron" unicode="&#x159;" horiz-adv-x="706" 
d="M786 1004l-30 -144.001h-62c-84.667 0 -163.167 -29.333 -235.5 -88s-118.833 -135 -139.5 -229l-114 -543h-144l209 983h144l-29 -133c2.66699 4 7.5 9.5 14.5 16.5s21.333 19.333 43 37s45.167 33.334 70.5 47.001s57.833 26 97.5 37s80.5 16.5 122.5 16.5h53z
M920 1434l-283 -277h-143l-168 277h127l120 -195l207 195h140z" />
    <glyph glyph-name="Sacute" unicode="&#x15a;" horiz-adv-x="1157" 
d="M526 123c96.667 0 182.332 24.5039 256.999 73.5039s112 122.167 112 219.5c0 52 -22.167 96.333 -66.5 133s-98.666 67.334 -162.999 92.001s-128.166 50.667 -191.499 78s-117.166 65.833 -161.499 115.5s-66.5 109.5 -66.5 179.5c0 125.333 47 230 141 314
s220.333 126 379 126c52 0 101.5 -6.5 148.5 -19.5s85.833 -28.333 116.5 -46s57.667 -35.334 81 -53.001s40.333 -32.834 51 -45.501l17 -20l-115 -99c-2.66699 4 -6.83398 9.16699 -12.501 15.5s-18.334 17.333 -38.001 33s-40.334 29.667 -62.001 42
s-51 23.666 -88 33.999s-75.167 15.5 -114.5 15.5c-106.667 0 -191.167 -26.667 -253.5 -80s-93.5 -118.333 -93.5 -195c0 -52 22.667 -96.333 68 -133s99.666 -67.334 162.999 -92.001s126.833 -50.667 190.5 -78s118 -65.833 163 -115.5s67.5 -109.5 67.5 -179.5
c0 -139.333 -49.167 -250.5 -147.5 -333.5s-231.5 -124.5 -399.5 -124.5c-61.333 0 -119.333 7.5 -174 22.5s-99 32.667 -133 53s-63.667 41.166 -89 62.499s-43.666 39.333 -54.999 54l-16 23l109 100c2.66699 -4 7 -10.167 13 -18.5s20.333 -22.333 43 -42
s46.834 -37 72.501 -52s61 -28.667 106 -41s92.167 -18.5 141.5 -18.5zM753.998 1628l207 277h161l-252 -277h-116z" />
    <glyph glyph-name="sacute" unicode="&#x15b;" horiz-adv-x="880" 
d="M840 870l-115.003 -96.002c-5.33301 6.66699 -13.5 15.5 -24.5 26.5s-35.667 25.333 -74 43s-78.5 26.5 -120.5 26.5c-61.333 0 -110.166 -15.333 -146.499 -46s-54.5 -67 -54.5 -109c0 -36.667 23.167 -69.167 69.5 -97.5s97.166 -51.333 152.499 -69
s106.333 -47 153 -88s70 -90.833 70 -149.5c0 -96.667 -36.667 -176 -110 -238s-171.333 -93 -294 -93c-46.667 0 -90 6 -130 18s-72.667 26.333 -98 43s-47.166 33.5 -65.499 50.5s-31.833 31.5 -40.5 43.5l-12 19l115 96c6.66699 -10.667 16.5 -23.667 29.5 -39
s41 -35.5 84 -60.5s89.167 -37.5 138.5 -37.5c75.333 0 133.333 16.333 174 49s61 75.667 61 129c0 39.333 -23.167 73.333 -69.5 102s-97.166 51.834 -152.499 69.501s-106.166 46.334 -152.499 86.001s-69.5 88.167 -69.5 145.5c0 84.667 34.5 157.5 103.5 218.5
s157.167 91.5 264.5 91.5c38 0 74.833 -4.5 110.5 -13.5s65.5 -20 89.5 -33s44.833 -26.333 62.5 -40s30.5 -24.5 38.5 -32.5zM486.997 1157l207 277h162l-252 -277h-117z" />
    <glyph glyph-name="Scedilla" unicode="&#x15e;" horiz-adv-x="1157" 
d="M526 123c96.667 0 182.333 24.5029 257 73.5029s112 122.167 112 219.5c0 52 -22.167 96.333 -66.5 133s-98.666 67.334 -162.999 92.001s-128.166 50.667 -191.499 78s-117.166 65.833 -161.499 115.5s-66.5 109.5 -66.5 179.5c0 125.333 47 230 141 314
s220.333 126 379 126c52 0 101.5 -6.5 148.5 -19.5s85.833 -28.333 116.5 -46s57.667 -35.334 81 -53.001s40.333 -32.834 51 -45.501l17 -20l-115 -99c-2.66699 4 -6.83398 9.16699 -12.501 15.5s-18.334 17.333 -38.001 33s-40.334 29.667 -62.001 42
s-51 23.666 -88 33.999s-75.167 15.5 -114.5 15.5c-106.667 0 -191.167 -26.667 -253.5 -80s-93.5 -118.333 -93.5 -195c0 -52 22.667 -96.333 68 -133s99.666 -67.334 162.999 -92.001s126.833 -50.667 190.5 -78s118 -65.833 163 -115.5s67.5 -109.5 67.5 -179.5
c0 -138 -47.833 -248.167 -143.5 -330.5s-225.5 -124.833 -389.5 -127.5l-61 -93h6c42 0 75 -12.167 99 -36.5s36 -54.5 36 -90.5c0 -52 -19.833 -95 -59.5 -129s-92.167 -51 -157.5 -51c-30 0 -59.333 5.5 -88 16.5s-50 21.833 -64 32.5l-20 17l53 67
c26 -34 66.333 -51 121 -51c34 0 63 9.5 87 28.5s36 40.167 36 63.5c0 18 -6.16699 32.833 -18.5 44.5s-29.5 17.5 -51.5 17.5c-10.667 0 -21.5 -1.83301 -32.5 -5.5s-19.167 -7.5 -24.5 -11.5l-8 -4l-39 51l92 138c-50.667 5.33301 -98.5 16.5 -143.5 33.5
s-81.833 35 -110.5 54s-53.5 38.167 -74.5 57.5s-36.5 35 -46.5 47l-12 19l109 100c2.66699 -4 7 -10.167 13 -18.5s20.333 -22.333 43 -42s46.834 -37 72.501 -52s61 -28.667 106 -41s92.167 -18.5 141.5 -18.5z" />
    <glyph glyph-name="scedilla" unicode="&#x15f;" horiz-adv-x="880" 
d="M840 870l-115.003 -96.002c-5.33301 6.66699 -13.5 15.5 -24.5 26.5s-35.667 25.333 -74 43s-78.5 26.5 -120.5 26.5c-61.333 0 -110.166 -15.333 -146.499 -46s-54.5 -67 -54.5 -109c0 -36.667 23.167 -69.167 69.5 -97.5s97.166 -51.333 152.499 -69
s106.333 -47 153 -88s70 -90.833 70 -149.5c0 -94 -34.5 -171.667 -103.5 -233s-161.5 -94 -277.5 -98l-62 -93h6c42 0 75.167 -12.167 99.5 -36.5s36.5 -54.5 36.5 -90.5c0 -52 -19.833 -95 -59.5 -129s-92.5 -51 -158.5 -51c-30 0 -59.333 5.5 -88 16.5
s-49.667 21.833 -63 32.5l-21 17l54 67c26 -34 66 -51 120 -51c34 0 63 9.5 87 28.5s36 40.167 36 63.5c0 18 -6.16699 32.833 -18.5 44.5s-29.166 17.5 -50.499 17.5c-10.667 0 -21.5 -1.83301 -32.5 -5.5s-19.5 -7.5 -25.5 -11.5l-8 -4l-39 51l92 140
c-57.333 8 -108.833 26 -154.5 54s-77.167 54.333 -94.5 79l-25 35l115 96c6.66699 -10.667 16.5 -23.667 29.5 -39s41 -35.5 84 -60.5s89.167 -37.5 138.5 -37.5c75.333 0 133.333 16.333 174 49s61 75.667 61 129c0 39.333 -23.167 73.333 -69.5 102
s-97.166 51.834 -152.499 69.501s-106.166 46.334 -152.499 86.001s-69.5 88.167 -69.5 145.5c0 84.667 34.5 157.5 103.5 218.5s157.167 91.5 264.5 91.5c38 0 74.833 -4.5 110.5 -13.5s65.5 -20 89.5 -33s44.833 -26.333 62.5 -40s30.5 -24.5 38.5 -32.5z" />
    <glyph glyph-name="Scaron" unicode="&#x160;" horiz-adv-x="1157" 
d="M526 123c96.667 0 182.332 24.5039 256.999 73.5039s112 122.167 112 219.5c0 52 -22.167 96.333 -66.5 133s-98.666 67.334 -162.999 92.001s-128.166 50.667 -191.499 78s-117.166 65.833 -161.499 115.5s-66.5 109.5 -66.5 179.5c0 125.333 47 230 141 314
s220.333 126 379 126c52 0 101.5 -6.5 148.5 -19.5s85.833 -28.333 116.5 -46s57.667 -35.334 81 -53.001s40.333 -32.834 51 -45.501l17 -20l-115 -99c-2.66699 4 -6.83398 9.16699 -12.501 15.5s-18.334 17.333 -38.001 33s-40.334 29.667 -62.001 42
s-51 23.666 -88 33.999s-75.167 15.5 -114.5 15.5c-106.667 0 -191.167 -26.667 -253.5 -80s-93.5 -118.333 -93.5 -195c0 -52 22.667 -96.333 68 -133s99.666 -67.334 162.999 -92.001s126.833 -50.667 190.5 -78s118 -65.833 163 -115.5s67.5 -109.5 67.5 -179.5
c0 -139.333 -49.167 -250.5 -147.5 -333.5s-231.5 -124.5 -399.5 -124.5c-61.333 0 -119.333 7.5 -174 22.5s-99 32.667 -133 53s-63.667 41.166 -89 62.499s-43.666 39.333 -54.999 54l-16 23l109 100c2.66699 -4 7 -10.167 13 -18.5s20.333 -22.333 43 -42
s46.834 -37 72.501 -52s61 -28.667 106 -41s92.167 -18.5 141.5 -18.5zM1161 1894l-282 -276h-144l-168 276h127l121 -194l207 194h139z" />
    <glyph glyph-name="scaron" unicode="&#x161;" horiz-adv-x="880" 
d="M840 870l-115.003 -96.002c-5.33301 6.66699 -13.5 15.5 -24.5 26.5s-35.667 25.333 -74 43s-78.5 26.5 -120.5 26.5c-61.333 0 -110.166 -15.333 -146.499 -46s-54.5 -67 -54.5 -109c0 -36.667 23.167 -69.167 69.5 -97.5s97.166 -51.333 152.499 -69
s106.333 -47 153 -88s70 -90.833 70 -149.5c0 -96.667 -36.667 -176 -110 -238s-171.333 -93 -294 -93c-46.667 0 -90 6 -130 18s-72.667 26.333 -98 43s-47.166 33.5 -65.499 50.5s-31.833 31.5 -40.5 43.5l-12 19l115 96c6.66699 -10.667 16.5 -23.667 29.5 -39
s41 -35.5 84 -60.5s89.167 -37.5 138.5 -37.5c75.333 0 133.333 16.333 174 49s61 75.667 61 129c0 39.333 -23.167 73.333 -69.5 102s-97.166 51.834 -152.499 69.501s-106.166 46.334 -152.499 86.001s-69.5 88.167 -69.5 145.5c0 84.667 34.5 157.5 103.5 218.5
s157.167 91.5 264.5 91.5c38 0 74.833 -4.5 110.5 -13.5s65.5 -20 89.5 -33s44.833 -26.333 62.5 -40s30.5 -24.5 38.5 -32.5zM917.997 1434l-283 -277h-143l-168 277h127l120 -195l207 195h140z" />
    <glyph glyph-name="uni0162" unicode="&#x162;" horiz-adv-x="1136" 
d="M252 1434h1055l-31 -144h-451l-272 -1290h-154l273 1290h-451zM231 -440l144 276h141l-180 -276h-105z" />
    <glyph glyph-name="uni0163" unicode="&#x163;" horiz-adv-x="737" 
d="M383 1085l49.001 226h133l-69 -328h215l-29 -133h-215l-125 -584c-20.667 -102.667 12.666 -153.667 99.999 -153c22 0 44.667 2.66699 68 8s41 10 53 14l19 8l-27 -133c-46.667 -20.667 -95.667 -30.667 -147 -30c-84.667 0 -145.5 24.833 -182.5 74.5
s-45.833 120.167 -26.5 211.5l125 584h-185l29 133h113c54.667 0 88.667 34 102 102zM104.001 -440l144 276h141l-180 -276h-105z" />
    <glyph glyph-name="Tcaron" unicode="&#x164;" horiz-adv-x="1136" 
d="M252 1434h1055l-31 -144h-451l-272 -1290h-154l273 1290h-451zM1155 1894l-283 -276h-143l-168 276h127l121 -194l207 194h139z" />
    <glyph glyph-name="tcaron" unicode="&#x165;" horiz-adv-x="768" 
d="M383 1085l49.001 226h133l-69 -328h215l-29 -133h-215l-125 -584c-20.667 -102.667 12.666 -153.667 99.999 -153c22 0 44.667 2.66699 68 8s41 10 53 14l19 8l-27 -133c-46.667 -20.667 -95.667 -30.667 -147 -30c-84.667 0 -145.5 24.833 -182.5 74.5
s-45.833 120.167 -26.5 211.5l125 584h-185l29 133h113c54.667 0 88.667 34 102 102zM764.001 1157l145 277h142l-181 -277h-106z" />
    <glyph glyph-name="Umacron" unicode="&#x16a;" horiz-adv-x="1556" 
d="M733 123c116 0 221.833 42.333 317.5 127s157.167 189 184.5 313l184 871h154l-184 -871c-34 -162.667 -113.167 -300.5 -237.5 -413.5s-264.5 -169.5 -420.5 -169.5c-142 0 -264.5 46 -367.5 138s-154.5 203.667 -154.5 335c0 34 4 70.667 12 110l185 871h153l-184 -871
c-6.66699 -34 -10 -63.333 -10 -88c0 -101.333 35.333 -185.333 106 -252s158 -100 262 -100zM1346 1812l-25 -112h-594l25 112h594z" />
    <glyph glyph-name="umacron" unicode="&#x16b;" 
d="M778 0l26.998 131.001c-2.66699 -4 -7.16699 -9.5 -13.5 -16.5s-19.666 -19.333 -39.999 -37s-42.166 -33 -65.499 -46s-54 -24.833 -92 -35.5s-77 -16 -117 -16c-98 0 -179.167 30.333 -243.5 91s-96.5 140.667 -96.5 240c0 36.667 3.33301 69.667 10 99l123 573h144
l-123 -573c-5.33301 -22 -8 -46 -8 -72c0 -66.667 20.5 -120.834 61.5 -162.501s94.167 -62.5 159.5 -62.5c83.333 0 160.5 32 231.5 96s116.5 144 136.5 240l115 534h143l-208 -983h-144zM1069 1341l-25 -112h-593l24 112h594z" />
    <glyph glyph-name="Uring" unicode="&#x16e;" horiz-adv-x="1556" 
d="M733 123c116 0 221.833 42.333 317.5 127s157.167 189 184.5 313l184 871h154l-184 -871c-34 -162.667 -113.167 -300.5 -237.5 -413.5s-264.5 -169.5 -420.5 -169.5c-142 0 -264.5 46 -367.5 138s-154.5 203.667 -154.5 335c0 34 4 70.667 12 110l185 871h153l-184 -871
c-6.66699 -34 -10 -63.333 -10 -88c0 -101.333 35.333 -185.333 106 -252s158 -100 262 -100zM1049 1884c-30 0 -55 -12.668 -75 -38.001s-30 -53.666 -30 -84.999c0 -24.667 7.83301 -44.5 23.5 -59.5s35.167 -22.5 58.5 -22.5c27.333 0 52 11.333 74 34s33 51 33 85
c0 26 -7.5 46.833 -22.5 62.5s-35.5 23.5 -61.5 23.5zM1237 1808c0 -58.667 -20.834 -110.168 -62.501 -154.501s-92.5 -66.5 -152.5 -66.5c-54.667 0 -98.667 15.333 -132 46s-50 70.667 -50 120c0 62.667 21.167 115.5 63.5 158.5s93.5 64.5 153.5 64.5
c54.667 0 98.334 -15.667 131.001 -47s49 -71.666 49 -120.999z" />
    <glyph glyph-name="uring" unicode="&#x16f;" 
d="M778 0l26.998 131.001c-2.66699 -4 -7.16699 -9.5 -13.5 -16.5s-19.666 -19.333 -39.999 -37s-42.166 -33 -65.499 -46s-54 -24.833 -92 -35.5s-77 -16 -117 -16c-98 0 -179.167 30.333 -243.5 91s-96.5 140.667 -96.5 240c0 36.667 3.33301 69.667 10 99l123 573h144
l-123 -573c-5.33301 -22 -8 -46 -8 -72c0 -66.667 20.5 -120.834 61.5 -162.501s94.167 -62.5 159.5 -62.5c83.333 0 160.5 32 231.5 96s116.5 144 136.5 240l115 534h143l-208 -983h-144zM732.998 1413c-30 0 -54.833 -12.668 -74.5 -38.001s-29.5 -53.666 -29.5 -84.999
c0 -24.667 7.83301 -44.5 23.5 -59.5s35.167 -22.5 58.5 -22.5c27.333 0 51.833 11.333 73.5 34s32.5 51 32.5 85c0 26 -7.5 46.833 -22.5 62.5s-35.5 23.5 -61.5 23.5zM921.998 1337c0 -58.667 -20.832 -110.168 -62.499 -154.501s-92.5 -66.5 -152.5 -66.5
c-54.667 0 -98.834 15.333 -132.501 46s-50.5 70.667 -50.5 120c0 62.667 21.167 115.5 63.5 158.5s93.5 64.5 153.5 64.5c54.667 0 98.5 -15.667 131.5 -47s49.5 -71.666 49.5 -120.999z" />
    <glyph glyph-name="Uhungarumlaut" unicode="&#x170;" horiz-adv-x="1556" 
d="M733 123c116 0 221.833 42.333 317.5 127s157.167 189 184.5 313l184 871h154l-184 -871c-34 -162.667 -113.167 -300.5 -237.5 -413.5s-264.5 -169.5 -420.5 -169.5c-142 0 -264.5 46 -367.5 138s-154.5 203.667 -154.5 335c0 34 4 70.667 12 110l185 871h153l-184 -871
c-6.66699 -34 -10 -63.333 -10 -88c0 -101.333 35.333 -185.333 106 -252s158 -100 262 -100zM772 1618l207 276h162l-254 -276h-115zM1090 1618l204 276h164l-252 -276h-116z" />
    <glyph glyph-name="uhungarumlaut" unicode="&#x171;" 
d="M778 0l26.998 131.001c-2.66699 -4 -7.16699 -9.5 -13.5 -16.5s-19.666 -19.333 -39.999 -37s-42.166 -33 -65.499 -46s-54 -24.833 -92 -35.5s-77 -16 -117 -16c-98 0 -179.167 30.333 -243.5 91s-96.5 140.667 -96.5 240c0 36.667 3.33301 69.667 10 99l123 573h144
l-123 -573c-5.33301 -22 -8 -46 -8 -72c0 -66.667 20.5 -120.834 61.5 -162.501s94.167 -62.5 159.5 -62.5c83.333 0 160.5 32 231.5 96s116.5 144 136.5 240l115 534h143l-208 -983h-144zM476.998 1147l207 276h162l-254 -276h-115zM794.998 1147l204 276h164l-252 -276
h-116z" />
    <glyph glyph-name="Uogonek" unicode="&#x172;" horiz-adv-x="1556" 
d="M733 123c116 0 221.833 42.334 317.5 127.001s157.167 189 184.5 313l184 871h154l-184 -871c-32.667 -157.333 -108.5 -292.166 -227.5 -404.499s-254.167 -171.833 -405.5 -178.5c-95.333 -90 -143.333 -167.333 -144 -232c0 -44 29.333 -65.667 88 -65
c18 0 38 2.33301 60 7s39 9.66699 51 15l18 8l-22 -102c-42 -20.667 -87.667 -31 -137 -31c-50.667 0 -90.667 13.667 -120 41s-44 63 -44 107c0 90 49.667 176 149 258c-125.333 15.333 -231 67.166 -317 155.499s-129 192.166 -129 311.499c0 34 4 70.667 12 110l185 871
h153l-184 -871c-6.66699 -34 -10 -63.333 -10 -88c0 -101.333 35.333 -185.333 106 -252s158 -100 262 -100z" />
    <glyph glyph-name="uogonek" unicode="&#x173;" 
d="M778 0l26.999 131c-2.66699 -4 -7.16699 -9.5 -13.5 -16.5s-19.666 -19.333 -39.999 -37s-42.166 -33 -65.499 -46s-54 -24.833 -92 -35.5s-77 -16 -117 -16c-98 0 -179.167 30.333 -243.5 91s-96.5 140.667 -96.5 240c0 36.667 3.33301 69.667 10 99l123 573h144
l-123 -573c-5.33301 -22 -8 -46 -8 -72c0 -66.667 20.5 -120.834 61.5 -162.501s94.167 -62.5 159.5 -62.5c83.333 0 160.5 32 231.5 96s116.5 144 136.5 240l115 534h143l-208 -983h-41c-12 -10.667 -27.333 -25.334 -46 -44.001s-43.334 -50.167 -74.001 -94.5
s-46 -82.166 -46 -113.499c0 -44 29.333 -65.667 88 -65c18 0 37.833 2.33301 59.5 7s38.5 9.66699 50.5 15l19 8l-23 -102c-42 -20.667 -87.667 -31 -137 -31c-50.667 0 -90.667 13.667 -120 41s-44 63 -44 107c0 46.667 14 92.334 42 137.001s56.333 78.667 85 102z" />
    <glyph glyph-name="Ydieresis" unicode="&#x178;" horiz-adv-x="1290" 
d="M676 666h10l592 768h182l-729 -932l-106 -502h-154l107 502l-336 932h164zM604 1741c0 26 10.333 49.5 31 70.5s44.667 31.5 72 31.5c26 0 46.833 -7.5 62.5 -22.5s23.5 -34.167 23.5 -57.5c0 -28.667 -10 -53.167 -30 -73.5s-44.333 -30.5 -73 -30.5
c-26 0 -46.833 7.83301 -62.5 23.5s-23.5 35.167 -23.5 58.5zM993 1741c0 26 10.333 49.5 31 70.5s44.667 31.5 72 31.5c26 0 46.833 -7.5 62.5 -22.5s23.5 -34.167 23.5 -57.5c0 -28.667 -10 -53.167 -30 -73.5s-44.333 -30.5 -73 -30.5c-26 0 -46.833 7.83301 -62.5 23.5
s-23.5 35.167 -23.5 58.5z" />
    <glyph glyph-name="Zacute" unicode="&#x179;" horiz-adv-x="1228" 
d="M1104 1290h-801l31 144h993l-31 -144l-1075 -1147h852l-29 -143h-1044l29 143zM780 1628l207 277h162l-252 -277h-117z" />
    <glyph glyph-name="zacute" unicode="&#x17a;" horiz-adv-x="952" 
d="M956 983l-28 -133l-740 -717h607l-27 -133h-788l26 133l739 717h-565l29 133h747zM528 1157l207 277h162l-252 -277h-117z" />
    <glyph glyph-name="Zdotaccent" unicode="&#x17b;" horiz-adv-x="1228" 
d="M1104 1290h-801l31 144h993l-31 -144l-1075 -1147h852l-29 -143h-1044l29 143zM770 1751c0 26 10.1689 49.501 30.502 70.501s44.166 31.5 71.499 31.5c26 0 46.833 -7.5 62.5 -22.5s23.5 -33.833 23.5 -56.5c0 -28.667 -9.83301 -53.334 -29.5 -74.001
s-43.834 -31 -72.501 -31c-26 0 -46.833 7.83301 -62.5 23.5s-23.5 35.167 -23.5 58.5z" />
    <glyph glyph-name="zdotaccent" unicode="&#x17c;" horiz-adv-x="952" 
d="M956 983l-28 -133l-740 -717h607l-27 -133h-788l26 133l739 717h-565l29 133h747zM518 1270c0 26 10.333 49.5 31 70.5s44.667 31.5 72 31.5c26 0 46.833 -7.5 62.5 -22.5s23.5 -34.167 23.5 -57.5c0 -28.667 -10 -53.167 -30 -73.5s-44.333 -30.5 -73 -30.5
c-26 0 -46.833 7.83301 -62.5 23.5s-23.5 35.167 -23.5 58.5z" />
    <glyph glyph-name="Zcaron" unicode="&#x17d;" horiz-adv-x="1228" 
d="M1104 1290h-801l31 144h993l-31 -144l-1075 -1147h852l-29 -143h-1044l29 143zM1192 1894l-283 -276h-143l-168 276h127l121 -194l207 194h139z" />
    <glyph glyph-name="zcaron" unicode="&#x17e;" horiz-adv-x="952" 
d="M956 983l-28 -133l-740 -717h607l-27 -133h-788l26 133l739 717h-565l29 133h747zM940 1434l-283 -277h-143l-168 277h127l121 -195l207 195h139z" />
    <glyph glyph-name="florin" unicode="&#x192;" horiz-adv-x="716" 
d="M-2 -154l332 839.999h-164l29 133h184l145 348c40.667 98 89.5 170.333 146.5 217s128.5 70 214.5 70c22 0 43.167 -2.66699 63.5 -8s35.166 -10.666 44.499 -15.999l15 -7l-29 -133c-28.667 20.667 -67 31 -115 31c-90 0 -155.333 -51.333 -196 -154l-146 -348h236
l-29 -133h-256l-332 -840c-39.333 -98 -87.666 -170.167 -144.999 -216.5s-129 -69.5 -215 -69.5c-22 0 -43.167 2.33301 -63.5 7s-35.5 9.66699 -45.5 15l-14 8l29 134c30 -20.667 68.667 -31 116 -31c89.333 -0.666992 154.333 50.333 195 153z" />
    <glyph glyph-name="uni0218" unicode="&#x218;" horiz-adv-x="1157" 
d="M526 123c96.667 0 182.332 24.5039 256.999 73.5039s112 122.167 112 219.5c0 52 -22.167 96.333 -66.5 133s-98.666 67.334 -162.999 92.001s-128.166 50.667 -191.499 78s-117.166 65.833 -161.499 115.5s-66.5 109.5 -66.5 179.5c0 125.333 47 230 141 314
s220.333 126 379 126c52 0 101.5 -6.5 148.5 -19.5s85.833 -28.333 116.5 -46s57.667 -35.334 81 -53.001s40.333 -32.834 51 -45.501l17 -20l-115 -99c-2.66699 4 -6.83398 9.16699 -12.501 15.5s-18.334 17.333 -38.001 33s-40.334 29.667 -62.001 42
s-51 23.666 -88 33.999s-75.167 15.5 -114.5 15.5c-106.667 0 -191.167 -26.667 -253.5 -80s-93.5 -118.333 -93.5 -195c0 -52 22.667 -96.333 68 -133s99.666 -67.334 162.999 -92.001s126.833 -50.667 190.5 -78s118 -65.833 163 -115.5s67.5 -109.5 67.5 -179.5
c0 -139.333 -49.167 -250.5 -147.5 -333.5s-231.5 -124.5 -399.5 -124.5c-61.333 0 -119.333 7.5 -174 22.5s-99 32.667 -133 53s-63.667 41.166 -89 62.499s-43.666 39.333 -54.999 54l-16 23l109 100c2.66699 -4 7 -10.167 13 -18.5s20.333 -22.333 43 -42
s46.834 -37 72.501 -52s61 -28.667 106 -41s92.167 -18.5 141.5 -18.5zM300.998 -439.996l143 276h142l-180 -276h-105z" />
    <glyph glyph-name="uni0219" unicode="&#x219;" horiz-adv-x="880" 
d="M840 870l-115.003 -96.002c-5.33301 6.66699 -13.5 15.5 -24.5 26.5s-35.667 25.333 -74 43s-78.5 26.5 -120.5 26.5c-61.333 0 -110.166 -15.333 -146.499 -46s-54.5 -67 -54.5 -109c0 -36.667 23.167 -69.167 69.5 -97.5s97.166 -51.333 152.499 -69
s106.333 -47 153 -88s70 -90.833 70 -149.5c0 -96.667 -36.667 -176 -110 -238s-171.333 -93 -294 -93c-46.667 0 -90 6 -130 18s-72.667 26.333 -98 43s-47.166 33.5 -65.499 50.5s-31.833 31.5 -40.5 43.5l-12 19l115 96c6.66699 -10.667 16.5 -23.667 29.5 -39
s41 -35.5 84 -60.5s89.167 -37.5 138.5 -37.5c75.333 0 133.333 16.333 174 49s61 75.667 61 129c0 39.333 -23.167 73.333 -69.5 102s-97.166 51.834 -152.499 69.501s-106.166 46.334 -152.499 86.001s-69.5 88.167 -69.5 145.5c0 84.667 34.5 157.5 103.5 218.5
s157.167 91.5 264.5 91.5c38 0 74.833 -4.5 110.5 -13.5s65.5 -20 89.5 -33s44.833 -26.333 62.5 -40s30.5 -24.5 38.5 -32.5zM91.9971 -440.002l144 276h141l-180 -276h-105z" />
    <glyph glyph-name="uni021A" unicode="&#x21a;" horiz-adv-x="1136" 
d="M252 1434h1055l-31 -144h-451l-272 -1290h-154l273 1290h-451zM231 -440l144 276h141l-180 -276h-105z" />
    <glyph glyph-name="uni021B" unicode="&#x21b;" horiz-adv-x="737" 
d="M383 1085l49.001 226h133l-69 -328h215l-29 -133h-215l-125 -584c-20.667 -102.667 12.666 -153.667 99.999 -153c22 0 44.667 2.66699 68 8s41 10 53 14l19 8l-27 -133c-46.667 -20.667 -95.667 -30.667 -147 -30c-84.667 0 -145.5 24.833 -182.5 74.5
s-45.833 120.167 -26.5 211.5l125 584h-185l29 133h113c54.667 0 88.667 34 102 102zM104.001 -440l144 276h141l-180 -276h-105z" />
    <glyph glyph-name="uni02BC" unicode="&#x2bc;" horiz-adv-x="348" 
d="M211 1157l145 277h142l-181 -277h-106z" />
    <glyph glyph-name="circumflex" unicode="&#x2c6;" horiz-adv-x="716" 
d="M215 1157l283 277h143l168 -277h-127l-121 195l-207 -195h-139z" />
    <glyph glyph-name="caron" unicode="&#x2c7;" horiz-adv-x="716" 
d="M866 1434l-282 -277h-144l-168 277h127l121 -195l207 195h139z" />
    <glyph glyph-name="breve" unicode="&#x2d8;" horiz-adv-x="675" 
d="M518 1260c106.667 0 171.668 58 195.001 174h112c-18 -84.667 -53.833 -152 -107.5 -202s-120.834 -75 -201.501 -75c-83.333 0 -148.833 26 -196.5 78s-63.5 118.333 -47.5 199h113c-10.667 -56 -4.16699 -99 19.5 -129s61.5 -45 113.5 -45z" />
    <glyph glyph-name="dotaccent" unicode="&#x2d9;" horiz-adv-x="307" 
d="M246 1300c0 26 10.1689 49.668 30.502 71.001s44.166 32 71.499 32c26 0 46.833 -7.5 62.5 -22.5s23.5 -34.167 23.5 -57.5c0 -28.667 -9.83301 -53.167 -29.5 -73.5s-43.834 -30.5 -72.501 -30.5c-26 0 -46.833 7.66699 -62.5 23s-23.5 34.666 -23.5 57.999z" />
    <glyph glyph-name="ring" unicode="&#x2da;" horiz-adv-x="512" 
d="M434 1331c-30 0 -54.833 -12.668 -74.5 -38.001s-29.5 -53.666 -29.5 -84.999c0 -24.667 7.83301 -44.5 23.5 -59.5s35.167 -22.5 58.5 -22.5c27.333 0 51.833 11.333 73.5 34s32.5 51 32.5 85c0 26 -7.5 46.833 -22.5 62.5s-35.5 23.5 -61.5 23.5zM623 1255
c0 -58.667 -20.832 -110.168 -62.499 -154.501s-92.5 -66.5 -152.5 -66.5c-54.667 0 -98.834 15.333 -132.501 46s-50.5 70.667 -50.5 120c0 62.667 21.167 115.5 63.5 158.5s93.5 64.5 153.5 64.5c54.667 0 98.5 -15.667 131.5 -47s49.5 -71.666 49.5 -120.999z" />
    <glyph glyph-name="ogonek" unicode="&#x2db;" horiz-adv-x="450" 
d="M82 0l102 -0.000976562c-12 -10.667 -27.167 -25.334 -45.5 -44.001s-43 -50.167 -74 -94.5s-46.5 -82.166 -46.5 -113.499c0 -44 29.333 -65.667 88 -65c18 0 38 2.33301 60 7s39 9.66699 51 15l19 8l-23 -102c-42 -20.667 -87.667 -31 -137 -31
c-50.667 0 -90.667 13.667 -120 41s-44 63 -44 107c0 46.667 14 92.334 42 137.001s56.333 78.667 85 102z" />
    <glyph glyph-name="tilde" unicode="&#x2dc;" horiz-adv-x="757" 
d="M428 1311c-22 0 -43.167 -11.333 -63.5 -34s-34.5 -55.667 -42.5 -99h-103c18 80.667 45.333 141.667 82 183s81 62 133 62c40.667 0 76.5 -11.167 107.5 -33.5s58.333 -44.5 82 -66.5s47.834 -33 72.501 -33c22 0 43.333 11.333 64 34s35 55.667 43 99h102
c-35.333 -164 -107 -245.667 -215 -245c-40.667 0 -76.334 11.167 -107.001 33.5s-58 44.5 -82 66.5s-48.333 33 -73 33z" />
    <glyph glyph-name="hungarumlaut" unicode="&#x2dd;" horiz-adv-x="747" 
d="M211 1157l207 277h162l-254 -277h-115zM528 1157l205 277h164l-252 -277h-117z" />
    <glyph glyph-name="uni0401" unicode="&#x401;" horiz-adv-x="1310" 
d="M305 143h850l-29 -143h-1003l303 1434h983l-31 -144h-829l-98 -471h665l-31 -143h-665zM682 1741c0 26 10.1689 49.5 30.502 70.5s44.166 31.5 71.499 31.5c26 0 46.833 -7.5 62.5 -22.5s23.5 -34.167 23.5 -57.5c0 -28.667 -9.83301 -53.167 -29.5 -73.5
s-43.834 -30.5 -72.501 -30.5c-26 0 -46.833 7.83301 -62.5 23.5s-23.5 35.167 -23.5 58.5zM1071 1741c0 26 10.333 49.5 31 70.5s44.667 31.5 72 31.5c26 0 46.833 -7.5 62.5 -22.5s23.5 -34.167 23.5 -57.5c0 -28.667 -10 -53.167 -30 -73.5s-44.333 -30.5 -73 -30.5
c-26 0 -46.833 7.83301 -62.5 23.5s-23.5 35.167 -23.5 58.5z" />
    <glyph glyph-name="uni0402" unicode="&#x402;" horiz-adv-x="1464" 
d="M983 932c108 0 197.833 -34.1689 269.5 -102.502s107.5 -155.166 107.5 -260.499c0 -180 -56.333 -323.167 -169 -429.5s-252.334 -159.5 -419.001 -159.5l31 143c110.667 0 204.834 37.833 282.501 113.5s116.5 178.5 116.5 308.5c0 72.667 -23.5 131.334 -70.5 176.001
s-107.5 67 -181.5 67c-64 0 -128.5 -13.5 -193.5 -40.5s-113.833 -54.167 -146.5 -81.5l-49 -41l-131 -625h-154l273 1290h-369l31 144h891l-31 -144h-369l-104 -491c10.667 9.33301 26.667 21.5 48 36.5s65.5 34.833 132.5 59.5s135.167 37 204.5 37z" />
    <glyph glyph-name="uni0403" unicode="&#x403;" horiz-adv-x="1126" 
d="M823 1628l207 277h162l-252 -277h-117zM123 0l303 1434h891l-31 -144h-737l-273 -1290h-153z" />
    <glyph glyph-name="uni0404" unicode="&#x404;" horiz-adv-x="1536" 
d="M164 604c0 144.667 37.833 282.165 113.5 412.498s180.5 235.833 314.5 316.5s279.333 121 436 121c72.667 0 142 -10.167 208 -30.5s119.833 -44.833 161.5 -73.5s78.5 -57.667 110.5 -87s55 -54.333 69 -75l20 -31l-114 -88c-4 6.66699 -9.83301 15.5 -17.5 26.5
s-25.5 30.167 -53.5 57.5s-58.333 51.5 -91 72.5s-76.667 40.5 -132 58.5s-113.666 27 -174.999 27c-152.667 0 -291.5 -47.833 -416.5 -143.5s-208.833 -218.5 -251.5 -368.5h764l-29 -144h-757c-1.33301 -10.667 -2 -25.667 -2 -45c0 -136.667 47 -252 141 -346
s211.333 -141 352 -141c61.333 0 120.666 8.5 177.999 25.5s105.5 37.833 144.5 62.5s73.5 48.834 103.5 72.501s52 43.834 66 60.501l22 27l90 -95c-6.66699 -8 -15.834 -18.5 -27.501 -31.5s-37.667 -36.5 -78 -70.5s-82.666 -64.333 -126.999 -91
s-101.333 -50.5 -171 -71.5s-140.5 -31.5 -212.5 -31.5c-176 0 -326.5 62 -451.5 186s-187.5 270 -187.5 438z" />
    <glyph glyph-name="uni0405" unicode="&#x405;" horiz-adv-x="1157" 
d="M526 123c96.667 0 182.332 24.5039 256.999 73.5039s112 122.167 112 219.5c0 52 -22.167 96.333 -66.5 133s-98.666 67.334 -162.999 92.001s-128.166 50.667 -191.499 78s-117.166 65.833 -161.499 115.5s-66.5 109.5 -66.5 179.5c0 125.333 47 230 141 314
s220.333 126 379 126c52 0 101.5 -6.5 148.5 -19.5s85.833 -28.333 116.5 -46s57.667 -35.334 81 -53.001s40.333 -32.834 51 -45.501l17 -20l-115 -99c-2.66699 4 -6.83398 9.16699 -12.501 15.5s-18.334 17.333 -38.001 33s-40.334 29.667 -62.001 42
s-51 23.666 -88 33.999s-75.167 15.5 -114.5 15.5c-106.667 0 -191.167 -26.667 -253.5 -80s-93.5 -118.333 -93.5 -195c0 -52 22.667 -96.333 68 -133s99.666 -67.334 162.999 -92.001s126.833 -50.667 190.5 -78s118 -65.833 163 -115.5s67.5 -109.5 67.5 -179.5
c0 -139.333 -49.167 -250.5 -147.5 -333.5s-231.5 -124.5 -399.5 -124.5c-61.333 0 -119.333 7.5 -174 22.5s-99 32.667 -133 53s-63.667 41.166 -89 62.499s-43.666 39.333 -54.999 54l-16 23l109 100c2.66699 -4 7 -10.167 13 -18.5s20.333 -22.333 43 -42
s46.834 -37 72.501 -52s61 -28.667 106 -41s92.167 -18.5 141.5 -18.5z" />
    <glyph glyph-name="uni0406" unicode="&#x406;" horiz-adv-x="583" 
d="M123 0l303 1434h154l-304 -1434h-153z" />
    <glyph glyph-name="uni0407" unicode="&#x407;" horiz-adv-x="583" 
d="M123 0l303 1434h154l-304 -1434h-153zM270 1741c0 26 10.333 49.5 31 70.5s44.667 31.5 72 31.5c26 0 46.833 -7.5 62.5 -22.5s23.5 -34.167 23.5 -57.5c0 -28.667 -10 -53.167 -30 -73.5s-44.333 -30.5 -73 -30.5c-26 0 -46.833 7.83301 -62.5 23.5
s-23.5 35.167 -23.5 58.5zM659 1741c0 26 10.333 49.5 31 70.5s44.667 31.5 72 31.5c26 0 46.833 -7.5 62.5 -22.5s23.5 -34.167 23.5 -57.5c0 -28.667 -10 -53.167 -30 -73.5s-44.333 -30.5 -73 -30.5c-26 0 -46.833 7.83301 -62.5 23.5s-23.5 35.167 -23.5 58.5z" />
    <glyph glyph-name="uni0408" unicode="&#x408;" horiz-adv-x="1013" 
d="M866 1434l154.001 -0.000976562l-215 -1014c-27.333 -131.333 -84.666 -237.5 -171.999 -318.5s-194 -121.5 -320 -121.5c-66.667 0 -129.667 13.5 -189 40.5s-102 54.167 -128 81.5l-39 41l117 99c6.66699 -8 16.167 -19 28.5 -33s39.666 -31.833 81.999 -53.5
s88.166 -32.5 137.499 -32.5c86 0 157.667 26.333 215 79s95.333 125.334 114 218.001z" />
    <glyph glyph-name="uni0409" unicode="&#x409;" horiz-adv-x="2222" 
d="M1569 0l-545.001 0.000976562l272 1290h-583l-60 -286c-45.333 -212.667 -91.5 -388.167 -138.5 -526.5s-96 -243 -147 -314s-101.5 -119.333 -151.5 -145s-108.333 -38.5 -175 -38.5c-22 0 -43.833 1.66699 -65.5 5s-38.167 7 -49.5 11l-18 4l31 154
c35.333 -13.333 70 -20.333 104 -21c42 0 80.167 10.333 114.5 31s71 60 110 118s77.833 147 116.5 267s77.334 271.667 116.001 455l90 430h891l-113 -533h348c112 0 205.833 -37.833 281.5 -113.5s113.5 -166.167 113.5 -271.5c0 -148.667 -52.5 -271.834 -157.5 -369.501
s-233.167 -146.5 -384.5 -146.5zM1206 143.001h371c105.333 0 194.833 33.5 268.5 100.5s110.5 155.833 110.5 266.5c0 70.667 -24 129.667 -72 177s-110.667 71 -188 71h-359z" />
    <glyph glyph-name="uni040A" unicode="&#x40a;" horiz-adv-x="2211" 
d="M1196 143h373c105.333 0 194.833 33.5 268.5 100.5s110.5 155.833 110.5 266.5c0 70.667 -24 129.667 -72 177s-110.667 71 -188 71h-361zM1561 0l-547 0.000976562l160 758h-738l-160 -758h-153l303 1434h154l-113 -533h737l113 533h153l-112 -533h350
c112 0 205.833 -37.833 281.5 -113.5s113.5 -166.167 113.5 -271.5c0 -148.667 -52.5 -271.834 -157.5 -369.501s-233.167 -146.5 -384.5 -146.5z" />
    <glyph glyph-name="uni040B" unicode="&#x40b;" horiz-adv-x="1515" 
d="M180 1290l31.001 144h891l-31 -144h-369l-104 -491c10.667 9.33301 26.667 21.5 48 36.5s65.5 34.833 132.5 59.5s135.167 37 204.5 37c113.333 0 205.166 -31.5 275.499 -94.5s105.5 -146.167 105.5 -249.5c0 -27.333 -3.33301 -59.333 -10 -96l-105 -492h-153l104 492
c4 22 6 44.333 6 67c0 68 -22.5 123.167 -67.5 165.5s-105.167 63.5 -180.5 63.5c-64 0 -129 -13.5 -195 -40.5s-116.333 -54.167 -151 -81.5l-51 -41l-131 -625h-154l273 1290h-369z" />
    <glyph glyph-name="uni040C" unicode="&#x40c;" horiz-adv-x="1372" 
d="M410 637l907 797h194l-669 -598l413 -836h-172l-360 729l-358 -309l-89 -420h-153l303 1434h154zM856 1628l207 277h162l-252 -277h-117z" />
    <glyph glyph-name="uni040E" unicode="&#x40e;" horiz-adv-x="1249" 
d="M862 1731c106.667 0 171.668 58 195.001 174h112c-18 -84.667 -53.833 -152 -107.5 -202s-120.834 -75 -201.501 -75c-83.333 0 -148.833 26 -196.5 78s-63.5 118.333 -47.5 199h113c-10.667 -56 -4.16699 -99 19.5 -129s61.5 -45 113.5 -45zM688.001 594l567 840.001
h175l-771 -1117c-84.667 -122.667 -162.5 -209.5 -233.5 -260.5s-155.5 -76.5 -253.5 -76.5c-22 0 -43.833 1.66699 -65.5 5s-38.167 7 -49.5 11l-16 4l29 143c30 -13.333 68.667 -20 116 -20c61.333 0 115 15.667 161 47s95 82.666 147 153.999l90 116l-322 994h154z" />
    <glyph glyph-name="uni040F" unicode="&#x40f;" horiz-adv-x="1525" 
d="M1522 1434l-303 -1434h-471l-66 -307h-154l66 307h-471l303 1434h154l-275 -1291h789l274 1291h154z" />
    <glyph glyph-name="uni0410" unicode="&#x410;" horiz-adv-x="1433" 
d="M1020 543l-133 676l-420 -676h553zM1051 399h-676l-248 -399h-168l897 1434h143l291 -1434h-160z" />
    <glyph glyph-name="uni0411" unicode="&#x411;" horiz-adv-x="1341" 
d="M549 1290l-90.001 -430.001h379c110.667 0 203.167 -35.833 277.5 -107.5s111.5 -156.5 111.5 -254.5c0 -135.333 -52.667 -252.166 -158 -350.499s-229.666 -147.5 -372.999 -147.5h-573l303 1434h891l-31 -144h-737zM304.999 142.999h406c98 0 182.167 32.5 252.5 97.5
s105.5 145.167 105.5 240.5c0 66.667 -23.833 122.667 -71.5 168s-108.5 68 -182.5 68h-387z" />
    <glyph glyph-name="uni0412" unicode="&#x412;" horiz-adv-x="1372" 
d="M1073 762c4 -2.66699 10.166 -6.5 18.499 -11.5s22 -16.333 41 -34s36 -36.667 51 -57s28.667 -47.666 41 -81.999s18.5 -69.833 18.5 -106.5c0 -136.667 -49.167 -249.334 -147.5 -338.001s-221.166 -133 -368.499 -133h-604l303 1434h532
c100 0 183.5 -31.5 250.5 -94.5s100.5 -137.5 100.5 -223.5c-2 -165.333 -80.667 -283.333 -236 -354zM304.999 143l451 0.000976562c96.667 0 175.667 29.333 237 88s92 134.667 92 228c0 65.333 -21.5 121.166 -64.5 167.499s-100.5 69.5 -172.5 69.5h-424zM927.999 1290
l-379.001 0.00195312l-96 -459h393c86 0 158.667 24.667 218 74s89 115.666 89 198.999c0 53.333 -21.167 97.666 -63.5 132.999s-96.166 53 -161.499 53z" />
    <glyph glyph-name="uni0413" unicode="&#x413;" horiz-adv-x="1126" 
d="M123 0l303 1434h891l-31 -144h-737l-273 -1290h-153z" />
    <glyph glyph-name="uni0414" unicode="&#x414;" horiz-adv-x="1454" 
d="M-63 143h80.999c8 5.33301 19.333 14.5 34 27.5s41.834 43.833 81.501 92.5s77.167 103 112.5 163s73.5 141.5 114.5 244.5s73.833 214.167 98.5 333.5l90 430h881l-275 -1291h174l-94 -450h-154l66 307h-1086l-65 -307h-152zM611.999 1004
c-24.667 -116 -55.668 -225.333 -93.001 -328s-73.833 -185 -109.5 -247s-69.167 -115.833 -100.5 -161.5s-56.666 -77.5 -75.999 -95.5l-30 -29h798l244 1147h-573z" />
    <glyph glyph-name="uni0415" unicode="&#x415;" horiz-adv-x="1310" 
d="M305 143h850l-29 -143h-1003l303 1434h983l-31 -144h-829l-98 -471h665l-31 -143h-665z" />
    <glyph glyph-name="uni0416" unicode="&#x416;" horiz-adv-x="1976" 
d="M1327 729l-244 -209l-110 -520h-154l111 520l-150 205l-665 -725h-187l770 842l-413 592h178l508 -719l151 719h154l-150 -703l793 703h197l-670 -598l418 -836h-172z" />
    <glyph glyph-name="uni0417" unicode="&#x417;" horiz-adv-x="1218" 
d="M866 752c6.66699 -2.66699 15.165 -6.50488 25.498 -11.5049s28.5 -16.667 54.5 -35s49.333 -38.5 70 -60.5s39.167 -51.333 55.5 -88s24.5 -76.334 24.5 -119.001c0 -125.333 -53.333 -233 -160 -323s-246.667 -135 -420 -135c-62.667 0 -123 7.83301 -181 23.5
s-105.833 34.334 -143.5 56.001s-70.5 43.5 -98.5 65.5s-48 40.333 -60 55l-21 25l119 100c4 -5.33301 9.5 -12.166 16.5 -20.499s22.667 -22.666 47 -42.999s50.5 -38.666 78.5 -54.999s65.333 -31 112 -44s94.334 -19.5 143.001 -19.5c128.667 0 229.5 29 302.5 87
s109.5 129.333 109.5 214c0 70.667 -27 132 -81 184s-129.333 78 -226 78h-170l31 143h155c113.333 0 204.833 24.333 274.5 73s104.5 108.334 104.5 179.001c0 60 -28 113.333 -84 160s-127 70 -213 70c-66.667 0 -130 -13.667 -190 -41s-103.667 -54.666 -131 -81.999
l-39 -41l-86 102c4 5.33301 10.333 12.833 19 22.5s28.167 26.167 58.5 49.5s61.833 43.833 94.5 61.5s75.334 34 128.001 49s107 22.5 163 22.5c125.333 0 230 -35.167 314 -105.5s126 -150.5 126 -240.5c0 -151.333 -75.667 -260 -227 -326c-48 -20 -79.667 -30 -95 -30z
" />
    <glyph glyph-name="uni0418" unicode="&#x418;" horiz-adv-x="1597" 
d="M1290 0h-153l245 1153l-1126 -1153h-133l303 1434h154l-246 -1153l1126 1153h133z" />
    <glyph glyph-name="uni0419" unicode="&#x419;" horiz-adv-x="1597" 
d="M1042 1731c106.667 0 171.667 58 195 174h113c-18 -84.667 -54 -152 -108 -202s-121.333 -75 -202 -75c-83.333 0 -148.833 26 -196.5 78s-63.167 118.333 -46.5 199h112c-10.667 -56 -4.16699 -99 19.5 -129s61.5 -45 113.5 -45zM1290 0h-153l245 1153l-1126 -1153h-133
l303 1434h154l-246 -1153l1126 1153h133z" />
    <glyph glyph-name="uni041A" unicode="&#x41a;" horiz-adv-x="1372" 
d="M410 637l907 797h194l-669 -598l413 -836h-172l-360 729l-358 -309l-89 -420h-153l303 1434h154z" />
    <glyph glyph-name="uni041B" unicode="&#x41b;" horiz-adv-x="1515" 
d="M1511 1434l-303.003 -1434h-153l272 1290h-614l-60 -286c-36.667 -170.667 -74.167 -317.5 -112.5 -440.5s-76.166 -222 -113.499 -297s-77.833 -134 -121.5 -177s-86 -72 -127 -87s-88.167 -22.5 -141.5 -22.5c-22 0 -43.5 1.66699 -64.5 5s-37.167 7 -48.5 11l-16 4
l31 154c34 -13.333 68 -20.333 102 -21c42 0 80.167 10.333 114.5 31s71.333 60 111 118s78.834 147 117.501 267s77.334 271.667 116.001 455l90 430h921z" />
    <glyph glyph-name="uni041C" unicode="&#x41c;" horiz-adv-x="1884" 
d="M1671 1167l-735 -757l-412 757l-248 -1167h-153l303 1434h127l430 -779l758 779h139l-303 -1434h-154z" />
    <glyph glyph-name="uni041D" unicode="&#x41d;" horiz-adv-x="1536" 
d="M123 0l303 1434h154l-136 -635h799l135 635h154l-303 -1434h-154l139 655h-798l-140 -655h-153z" />
    <glyph glyph-name="uni041E" unicode="&#x41e;" horiz-adv-x="1720" 
d="M981 1313c-173.333 0 -327.002 -68.001 -461.002 -204.001s-201 -293.333 -201 -472c0 -147.333 50.333 -270.166 151 -368.499s229.334 -147.5 386.001 -147.5c172 0 325.333 66.5 460 199.5s202 292.5 202 478.5c0 146 -50.167 268.167 -150.5 366.5
s-229.166 147.5 -386.499 147.5zM1673 800.999c0 -136.667 -37.832 -268.502 -113.499 -395.502s-178 -229.667 -307 -308s-266.5 -117.5 -412.5 -117.5c-195.333 0 -356.833 63 -484.5 189s-191.5 280.667 -191.5 464c0 144.667 39.833 280.834 119.5 408.501
s183.667 228.334 312 302.001s262.166 110.5 401.499 110.5c195.333 0 356.833 -63.167 484.5 -189.5s191.5 -280.833 191.5 -463.5z" />
    <glyph glyph-name="uni041F" unicode="&#x41f;" horiz-adv-x="1536" 
d="M1532 1434l-303 -1434h-154l273 1290h-799l-273 -1290h-153l303 1434h1106z" />
    <glyph glyph-name="uni0420" unicode="&#x420;" horiz-adv-x="1331" 
d="M426 1434l524.001 -0.000976562c113.333 0 207.666 -38.667 282.999 -116s113 -168.666 113 -273.999c0 -148.667 -53.667 -271.167 -161 -367.5s-236 -144.5 -386 -144.5h-410l-113 -532h-153zM928.001 1290l-379 -0.000976562l-129 -614h397c104 0 192.167 33 264.5 99
s108.5 153.667 108.5 263c0 72.667 -24.167 132.834 -72.5 180.501s-111.5 71.5 -189.5 71.5z" />
    <glyph glyph-name="uni0421" unicode="&#x421;" horiz-adv-x="1546" 
d="M164 604c0 144.667 37.833 282.165 113.5 412.498s180.5 235.833 314.5 316.5s279.333 121 436 121c72.667 0 142 -10.167 208 -30.5s119.833 -44.833 161.5 -73.5s78.5 -57.667 110.5 -87s55 -54.333 69 -75l20 -31l-114 -88c-4 6.66699 -9.83301 15.5 -17.5 26.5
s-25.5 30.167 -53.5 57.5s-58.333 51.5 -91 72.5s-76.667 40.5 -132 58.5s-113.666 27 -174.999 27c-186 0 -347.833 -67.667 -485.5 -203s-206.5 -301.333 -206.5 -498c0 -136.667 47 -252 141 -346s211.333 -141 352 -141c61.333 0 120.666 8.5 177.999 25.5
s105.5 37.833 144.5 62.5s73.5 48.834 103.5 72.501s52 43.834 66 60.501l22 27l90 -95c-6.66699 -8 -15.834 -18.5 -27.501 -31.5s-37.667 -36.5 -78 -70.5s-82.666 -64.333 -126.999 -91s-101.333 -50.5 -171 -71.5s-140.5 -31.5 -212.5 -31.5
c-176 0 -326.5 62 -451.5 186s-187.5 270 -187.5 438z" />
    <glyph glyph-name="uni0422" unicode="&#x422;" horiz-adv-x="1136" 
d="M252 1434h1055l-31 -144h-451l-272 -1290h-154l273 1290h-451z" />
    <glyph glyph-name="uni0423" unicode="&#x423;" horiz-adv-x="1249" 
d="M688 594l567 840.001h175l-771 -1117c-84.667 -122.667 -162.5 -209.5 -233.5 -260.5s-155.5 -76.5 -253.5 -76.5c-22 0 -43.833 1.66699 -65.5 5s-38.167 7 -49.5 11l-16 4l29 143c30 -13.333 68.667 -20 116 -20c61.333 0 115 15.667 161 47s95 82.666 147 153.999
l90 116l-322 994h154z" />
    <glyph glyph-name="uni0424" unicode="&#x424;" horiz-adv-x="1730" 
d="M946 1178c-104 -4 -202 -24.833 -294 -62.5s-170.5 -96.167 -235.5 -175.5s-97.5 -173 -97.5 -281c0 -104 37.333 -189.667 112 -257s183.667 -102.333 327 -105zM911 297c76.667 2.66699 151.168 15.666 223.501 38.999s139.166 55.5 200.499 96.5
s110.5 94.5 147.5 160.5s55.5 140 55.5 222c0 104 -37.5 189.833 -112.5 257.5s-183.5 102.834 -325.5 105.501zM881.001 153.999l-40.999 -195h-154l41 195c-174.667 4 -312.167 53.667 -412.5 149s-150.5 212 -150.5 350c0 184 77.167 340 231.5 468
s348.166 194.667 581.499 200l33 154h153l-33 -154c174.667 -4 312.334 -54.167 413.001 -150.5s151 -212.833 151 -349.5c0 -186 -76.833 -342.333 -230.5 -469s-347.834 -192.667 -582.501 -198z" />
    <glyph glyph-name="uni0425" unicode="&#x425;" horiz-adv-x="1320" 
d="M737 870l518 564h195l-637 -686l375 -748h-174l-309 625l-572 -625h-194l690 748l-346 686h174z" />
    <glyph glyph-name="uni0426" unicode="&#x426;" horiz-adv-x="1546" 
d="M123 0l303 1434h154l-275 -1291h778l275 1291h153l-274 -1291h184l-94 -450h-153l65 307h-1116z" />
    <glyph glyph-name="uni0427" unicode="&#x427;" horiz-adv-x="1443" 
d="M559 1434l-90 -430c-6.66699 -28.667 -10 -60.334 -10 -95.001c0 -84.667 27.333 -149.834 82 -195.501s130.334 -68.5 227.001 -68.5c44 0 87.167 5.16699 129.5 15.5s78.166 23 107.499 38s55.5 30.333 78.5 46s40.167 28.167 51.5 37.5l16 17l135 635h154l-303 -1434
h-154l131 623c-10.667 -9.33301 -26 -20.666 -46 -33.999s-62.667 -31.166 -128 -53.499s-133 -33.5 -203 -33.5c-132.667 0 -238.5 33.333 -317.5 100s-118.5 159.667 -118.5 279c0 42 4.66699 83 14 123l91 430h153z" />
    <glyph glyph-name="uni0428" unicode="&#x428;" horiz-adv-x="2078" 
d="M123 0l303 1434h154l-275 -1291h594l275 1291h153l-274 -1291h594l274 1291h154l-303 -1434h-1649z" />
    <glyph glyph-name="uni0429" unicode="&#x429;" horiz-adv-x="2109" 
d="M123 0l303 1434h154l-275 -1291h594l275 1291h153l-274 -1291h594l274 1291h154l-275 -1291h185l-95 -450h-153l65 307h-1679z" />
    <glyph glyph-name="uni042A" unicode="&#x42a;" horiz-adv-x="1454" 
d="M438 143h369.001c105.333 0 195.166 33.5 269.499 100.5s111.5 155.833 111.5 266.5c0 70.667 -23.5 129.667 -70.5 177s-109.5 71 -187.5 71h-361zM801.001 0l-545 0.000976562l272 1290h-348l31 144h502l-113 -533h348c112 0 205.833 -37.833 281.5 -113.5
s113.5 -166.167 113.5 -271.5c0 -148.667 -52.5 -271.834 -157.5 -369.501s-233.167 -146.5 -384.5 -146.5z" />
    <glyph glyph-name="uni042B" unicode="&#x42b;" horiz-adv-x="1812" 
d="M1505 0h-153l303 1434h153zM305 143h369c105.333 0 195.166 33.5 269.499 100.5s111.5 155.833 111.5 266.5c0 70.667 -23.667 129.667 -71 177s-109.666 71 -186.999 71h-361zM668 0l-545 0.000976562l303 1434h154l-113 -533h348c112 0 205.833 -37.833 281.5 -113.5
s113.5 -166.167 113.5 -271.5c0 -148.667 -52.5 -271.834 -157.5 -369.501s-233.167 -146.5 -384.5 -146.5z" />
    <glyph glyph-name="uni042C" unicode="&#x42c;" horiz-adv-x="1341" 
d="M305 143h389.001c105.333 0 195.166 33.5 269.499 100.5s111.5 155.833 111.5 266.5c0 70.667 -23.5 129.667 -70.5 177s-109.5 71 -187.5 71h-381zM688.001 0l-565.001 0.000976562l303 1434h154l-113 -533h369c112 0 205.833 -37.833 281.5 -113.5
s113.5 -166.167 113.5 -271.5c0 -148.667 -52.667 -271.834 -158 -369.501s-233.666 -146.5 -384.999 -146.5z" />
    <glyph glyph-name="uni042D" unicode="&#x42d;" horiz-adv-x="1536" 
d="M637 123c164 0 307.999 49.834 431.999 149.501s206 227.167 246 382.5h-766l29 144h757c1.33301 6.66699 2 18.334 2 35.001c0 135.333 -48.833 248.666 -146.5 339.999s-215.834 137 -354.501 137c-61.333 0 -120.5 -8.5 -177.5 -25.5s-104.167 -37.5 -141.5 -61.5
s-70.666 -48 -99.999 -72s-51 -44.667 -65 -62l-20 -25l-86 92c5.33301 8 13.833 18.5 25.5 31.5s37 36.667 76 71s80.333 64.833 124 91.5s100.167 50.5 169.5 71.5s140.333 31.5 213 31.5c176 0 325.833 -61.833 449.5 -185.5s185.5 -270.167 185.5 -439.5
c0 -234.667 -86 -434.834 -258 -600.501s-373.333 -248.5 -604 -248.5c-72.667 0 -142.5 10.167 -209.5 30.5s-122 44.833 -165 73.5s-80.833 57.667 -113.5 87s-55.667 54.333 -69 75l-23 30l119 91c4 -6.66699 9.83301 -15.5 17.5 -26.5s25.834 -30.5 54.501 -58.5
s59.667 -52.667 93 -74s77.333 -40.833 132 -58.5s112.667 -26.5 174 -26.5z" />
    <glyph glyph-name="uni042E" unicode="&#x42e;" horiz-adv-x="2160" 
d="M1311 -20c-172 0 -319.165 61.3301 -441.498 183.997s-183.5 275 -183.5 457v34h-270l-140 -655h-153l303 1434h154l-136 -635h263c42 187.333 138.5 343.333 289.5 468s313.833 187 488.5 187c180 0 329.833 -61.167 449.5 -183.5s179.5 -274.166 179.5 -455.499
c0 -151.333 -39.333 -292.166 -118 -422.499s-179.334 -231.666 -302.001 -303.999s-250.334 -108.5 -383.001 -108.5zM1470 1311c-169.333 0 -316.667 -70.332 -442 -210.999s-188 -298.334 -188 -473.001c0 -146 46 -266.833 138 -362.5s208.333 -143.5 349 -143.5
c161.333 0 306.833 66.5 436.5 199.5s194.5 295.833 194.5 488.5c0 146 -46.167 266.167 -138.5 360.5s-208.833 141.5 -349.5 141.5z" />
    <glyph glyph-name="uni042F" unicode="&#x42f;" horiz-adv-x="1372" 
d="M774 1434l593.999 -0.00195312l-303 -1434h-154l121 573h-401l-447 -573h-174l463 594c-5.33301 2.66699 -13.166 6.66699 -23.499 12s-28.166 18.333 -53.499 39s-47.833 43.334 -67.5 68.001s-37.334 57.334 -53.001 98.001s-23.5 84.334 -23.5 131.001
c0 143.333 50.5 261.166 151.5 353.499s224.5 138.5 370.5 138.5zM1184 1290h-422c-101.333 0 -185.333 -29.667 -252 -89s-100 -141 -100 -245c0 -68 20.333 -124.833 61 -170.5s96.667 -68.5 168 -68.5h424z" />
    <glyph glyph-name="uni0430" unicode="&#x430;" horiz-adv-x="1218" 
d="M496 113c106.667 0 204.333 49.502 293 148.502s133 205.833 133 320.5c0 83.333 -28 152.166 -84 206.499s-123 81.5 -201 81.5c-95.333 0 -187.5 -45.333 -276.5 -136s-133.5 -196.667 -133.5 -318c0 -84.667 26.667 -156.334 80 -215.001s116.333 -88 189 -88z
M808.999 0.00195312l30.9971 144.997c-4 -4 -9.5 -9.66699 -16.5 -17s-22.5 -20.666 -46.5 -39.999s-48.833 -36.166 -74.5 -50.499s-58.667 -27.5 -99 -39.5s-81.833 -18 -124.5 -18c-106.667 0 -199.5 41.833 -278.5 125.5s-118.5 182.834 -118.5 297.501
c0 164 60 305.167 180 423.5s251 177.5 393 177.5c42 0 81.833 -6.16699 119.5 -18.5s68.834 -27.5 93.501 -45.5s45.834 -36.167 63.501 -54.5s30.834 -33.5 39.501 -45.5l12 -19l35 162h143l-209 -983h-143z" />
    <glyph glyph-name="uni0431" unicode="&#x431;" horiz-adv-x="1198" 
d="M1104 557c0 -151.333 -55.3311 -285.334 -165.998 -402.001s-246 -175 -406 -175c-118.667 0 -216.167 36.833 -292.5 110.5s-114.5 178.834 -114.5 315.501c0 62.667 8.33301 132 25 208c50.667 237.333 134.167 417.833 250.5 541.5s254.5 199.167 414.5 226.5
c75.333 12 143.333 27.667 204 47s102 35.333 124 48l35 18l47 -113c-62.667 -48 -201.334 -92.333 -416.001 -133c-104 -19.333 -201.333 -71.166 -292 -155.499s-152.334 -191.5 -185.001 -321.5c4 5.33301 9.66699 12.166 17 20.499s23.333 23.333 48 45
s50.667 41.167 78 58.5s62.5 32.833 105.5 46.5s87.167 20.5 132.5 20.5c109.333 0 201.833 -39.667 277.5 -119s113.5 -175 113.5 -287zM690.002 828.999c-110.667 0 -209.333 -44.3311 -296 -132.998s-130 -190.334 -130 -305.001c0 -80.667 26 -147.167 78 -199.5
s118.333 -78.5 199 -78.5c108 0 204.167 41.167 288.5 123.5s126.5 183.166 126.5 302.499c0 82 -24.833 150.833 -74.5 206.5s-113.5 83.5 -191.5 83.5z" />
    <glyph glyph-name="uni0432" unicode="&#x432;" horiz-adv-x="1064" 
d="M270 983l434.999 -0.000976562c78 0 141.5 -21.833 190.5 -65.5s73.5 -95.5 73.5 -155.5c0 -19.333 -2.16699 -38.166 -6.5 -56.499s-9.83301 -34.333 -16.5 -48s-14.167 -27 -22.5 -40s-17.166 -24.333 -26.499 -34s-18.833 -18.167 -28.5 -25.5s-19 -13.5 -28 -18.5
s-16.833 -9.5 -23.5 -13.5s-11.334 -6.66699 -14.001 -8l-6 -2c8 -4 18.833 -9.83301 32.5 -17.5s31.334 -27.5 53.001 -59.5s32.5 -69 32.5 -111c0 -102.667 -32.667 -183 -98 -241s-153.333 -87 -264 -87h-492zM624.999 460.999h-323.999l-70 -328h338
c62.667 0 112.167 16.667 148.5 50s54.5 82.333 54.5 147c0 38 -12.833 69.333 -38.5 94s-61.834 37 -108.501 37zM631 583.999c52 0 96.667 13.332 134 39.999s56 64.334 56 113.001c0 32.667 -12.167 59.667 -36.5 81s-57.833 32 -100.5 32h-299l-57 -266h303z" />
    <glyph glyph-name="uni0433" unicode="&#x433;" horiz-adv-x="901" 
d="M299 770l-73.9961 100.002c9.33301 9.33301 22.666 21.666 39.999 36.999s54.666 35.333 111.999 60s116 37 176 37c83.333 0 152.666 -25 207.999 -75s83 -107 83 -171c0 -74 -21.833 -133.5 -65.5 -178.5s-97 -76.667 -160 -95s-125.5 -35 -187.5 -50
s-114.833 -36.833 -158.5 -65.5s-65.5 -68.334 -65.5 -119.001c0 -39.333 17.333 -72 52 -98s82 -39 142 -39c49.333 0 97.166 11.5 143.499 34.5s80.5 46.167 102.5 69.5l35 35l76 -98c-4 -4 -9.5 -10.167 -16.5 -18.5s-22.5 -22.5 -46.5 -42.5
s-49.167 -37.833 -75.5 -53.5s-61 -29.5 -104 -41.5s-87.833 -18 -134.5 -18c-95.333 0 -172.5 24.833 -231.5 74.5s-88.5 109.167 -88.5 178.5c0 79.333 22 143.333 66 192s97.333 82.5 160 101.5s125 35.333 187 49s114.833 33.5 158.5 59.5s65.5 62 65.5 108
c0 34 -15.333 63.667 -46 89s-69.667 38 -117 38c-42 0 -83 -8.5 -123 -25.5s-68.667 -33.5 -86 -49.5z" />
    <glyph glyph-name="uni0434" unicode="&#x434;" horiz-adv-x="1185" 
d="M512 1567c176 -57.333 319.334 -148.172 430.001 -272.505s166 -282.166 166 -473.499c0 -258 -61.5 -462.667 -184.5 -614s-269.167 -227 -438.5 -227c-112 0 -207.167 39.5 -285.5 118.5s-117.5 174.5 -117.5 286.5c0 151.333 58.667 285.5 176 402.5
s247.666 175.5 390.999 175.5c44 0 85.333 -6.83301 124 -20.5s70 -30.167 94 -49.5s44.5 -38.833 61.5 -58.5s29.833 -36.5 38.5 -50.5l10 -20v24c0 96.667 -16 184.334 -48 263.001s-75.667 143.334 -131 194.001s-111.333 91.334 -168 122.001
s-118.667 56.334 -186 77.001zM498.001 112.994c106.667 0 200.5 44.998 281.5 134.998s121.5 189.667 121.5 299c0 80.667 -26 147.834 -78 201.501s-115.333 80.5 -190 80.5c-100 0 -192.333 -43.667 -277 -131s-127 -189.666 -127 -306.999
c0 -80.667 26 -147.167 78 -199.5s115.667 -78.5 191 -78.5z" />
    <glyph glyph-name="uni0435" unicode="&#x435;" horiz-adv-x="1136" 
d="M508 113c61.333 0 120.671 13.668 178.004 41.001s99 54.666 125 81.999l41 40l78 -92c-4 -5.33301 -10.167 -12.833 -18.5 -22.5s-26.833 -26 -55.5 -49s-58.334 -43.333 -89.001 -61s-70.334 -34 -119.001 -49s-97.334 -22.5 -146.001 -22.5
c-116 0 -215 40.833 -297 122.5s-123 180.5 -123 296.5c0 165.333 59 307.5 177 426.5s250.667 178.5 398 178.5c116 0 212.667 -35.167 290 -105.5s116 -161.5 116 -273.5c0 -69.333 -13 -131.666 -39 -186.999l-801 2v-30c0 -84.667 27.667 -155.334 83 -212.001
s122.666 -85 201.999 -85zM643.005 870.001c-82 0 -160.168 -29 -234.501 -87s-127.166 -131.333 -158.499 -220h668c1.33301 8 2 19.667 2 35c0 79.333 -26 144.5 -78 195.5s-118.333 76.5 -199 76.5z" />
    <glyph glyph-name="uni0436" unicode="&#x436;" horiz-adv-x="1495" 
d="M643 328l-111 151l-450 -479h-164l543 584l-293 399h162l350 -481l102 481h144l-99 -463l533 463h180l-469 -405l301 -578h-151l-254 483l-181 -157l-69 -326h-144z" />
    <glyph glyph-name="uni0437" unicode="&#x437;" horiz-adv-x="901" 
d="M813 754c0 -57.333 -19.499 -110.335 -58.499 -159.002s-87.167 -78.334 -144.5 -89.001c4 -1.33301 9.5 -3.33301 16.5 -6s19 -9.16699 36 -19.5s32 -22.333 45 -36s25 -32.5 36 -56.5s16.5 -50.333 16.5 -79c0 -92.667 -36.5 -170.667 -109.5 -234
s-177.167 -95 -312.5 -95c-46.667 0 -90.5 6 -131.5 18s-74.667 26.333 -101 43s-49.5 33.5 -69.5 50.5s-34.667 31.5 -44 43.5l-12 19l112 92c6.66699 -9.33301 16.5 -21.666 29.5 -36.999s42 -35.166 87 -59.499s93.5 -36.5 145.5 -36.5c87.333 0 152.5 16.333 195.5 49
s64.5 77.667 64.5 135c0 40.667 -16.333 74.667 -49 102s-82.334 41 -149.001 41h-119l29 133h110c66.667 0 122 16.5 166 49.5s66 73.167 66 120.5c0 35.333 -16.167 65.333 -48.5 90s-76.5 37 -132.5 37c-45.333 0 -89.333 -9.16699 -132 -27.5
s-73.667 -37.166 -93 -56.499l-31 -28l-79 102c9.33301 10.667 23.166 24 41.499 40s58.333 37.333 120 64s125.834 40 192.501 40c87.333 0 160.333 -25.667 219 -77s88 -109 88 -173z" />
    <glyph glyph-name="uni0438" unicode="&#x438;" 
d="M778 0l26.998 131.001c-2.66699 -4 -7.16699 -9.5 -13.5 -16.5s-19.666 -19.333 -39.999 -37s-42.166 -33 -65.499 -46s-54 -24.833 -92 -35.5s-77 -16 -117 -16c-98 0 -179.167 30.333 -243.5 91s-96.5 140.667 -96.5 240c0 36.667 3.33301 69.667 10 99l123 573h144
l-123 -573c-5.33301 -22 -8 -46 -8 -72c0 -66.667 20.5 -120.834 61.5 -162.501s94.167 -62.5 159.5 -62.5c83.333 0 160.5 32 231.5 96s116.5 144 136.5 240l115 534h143l-208 -983h-144z" />
    <glyph glyph-name="uni0439" unicode="&#x439;" 
d="M731 1260c106.667 0 171.668 58 195.001 174h112c-18 -84.667 -53.833 -152 -107.5 -202s-120.834 -75 -201.501 -75c-83.333 0 -148.833 26 -196.5 78s-63.5 118.333 -47.5 199h113c-10.667 -56 -4.16699 -99 19.5 -129s61.5 -45 113.5 -45zM778.001 0l26.998 131.001
c-2.66699 -4 -7.16699 -9.5 -13.5 -16.5s-19.666 -19.333 -39.999 -37s-42.166 -33 -65.499 -46s-54 -24.833 -92 -35.5s-77 -16 -117 -16c-98 0 -179.167 30.333 -243.5 91s-96.5 140.667 -96.5 240c0 36.667 3.33301 69.667 10 99l123 573h144l-123 -573
c-5.33301 -22 -8 -46 -8 -72c0 -66.667 20.5 -120.834 61.5 -162.501s94.167 -62.5 159.5 -62.5c83.333 0 160.5 32 231.5 96s116.5 144 136.5 240l115 534h143l-208 -983h-144z" />
    <glyph glyph-name="uni043A" unicode="&#x43a;" horiz-adv-x="1034" 
d="M264 276l-57 -276h-144l207 983h144l-111 -512l596 512h182l-465 -399l297 -584h-157l-250 483z" />
    <glyph glyph-name="uni043B" unicode="&#x43b;" horiz-adv-x="1146" 
d="M373 983l717.003 0.000976562l-209 -983h-144l181 850h-431l-32 -154c-40.667 -191.333 -85.334 -340.833 -134.001 -448.5s-97 -179.167 -145 -214.5s-105.333 -53 -172 -53c-16.667 0 -33.834 1.66699 -51.501 5s-31.167 7 -40.5 11l-14 4l28 143
c23.333 -13.333 48.666 -20 75.999 -20c42 0 77.833 12 107.5 36s62.167 79.667 97.5 167s70 210.666 104 369.999z" />
    <glyph glyph-name="uni043C" unicode="&#x43c;" horiz-adv-x="1331" 
d="M1075 727l-454 -451l-263 451l-153 -727h-144l209 983h103l284 -491l494 491h123l-209 -983h-143z" />
    <glyph glyph-name="uni043D" unicode="&#x43d;" horiz-adv-x="1177" 
d="M768 0l90 430h-563l-90 -430h-144l209 983h144l-90 -420h563l90 420h143l-209 -983h-143z" />
    <glyph glyph-name="uni043E" unicode="&#x43e;" 
d="M551 111c108 0 204 43.998 288 131.998s126 188.667 126 302c0 92.667 -30.833 170.334 -92.5 233.001s-138.834 94 -231.501 94c-104 0 -199 -42.667 -285 -128s-129 -187.333 -129 -306c0 -91.333 30.833 -168.666 92.5 -231.999s138.834 -95 231.501 -95zM82 429.998
c0 146 57 278.167 171 396.5s247.333 177.5 400 177.5c132.667 0 242 -43.833 328 -131.5s129 -194.834 129 -321.501c0 -154 -58.667 -287.667 -176 -401s-249 -170 -395 -170c-132.667 0 -242 43.333 -328 130s-129 193.334 -129 320.001z" />
    <glyph glyph-name="uni043F" unicode="&#x43f;" 
d="M414 983l-31.001 -141c2.66699 4 7.16699 9.66699 13.5 17s20 20.333 41 39s43.167 35.167 66.5 49.5s54 27.333 92 39s77 17.5 117 17.5c102.667 0 185.334 -28.833 248.001 -86.5s94 -135.5 94 -233.5c0 -38 -3.66699 -71.333 -11 -100l-122 -584h-144l123 584
c5.33301 32.667 8 55.667 8 69c0 66.667 -20.5 119.5 -61.5 158.5s-94.833 58.5 -161.5 58.5c-87.333 0 -165.5 -31.667 -234.5 -95s-113.833 -144.333 -134.5 -243l-112 -532h-144l209 983h144z" />
    <glyph glyph-name="uni0440" unicode="&#x440;" horiz-adv-x="1218" 
d="M725 870c-106.667 0 -204.333 -49.5 -293 -148.5s-133 -205.833 -133 -320.5c0 -83.333 28 -152.166 84 -206.499s123 -81.5 201 -81.5c95.333 0 187.333 45.667 276 137s133 197.666 133 318.999c0 84.667 -26.5 156 -79.5 214s-115.833 87 -188.5 87zM414.001 983
l-32.998 -144.997c4 4 9.5 9.66699 16.5 17s22.333 20.666 46 39.999s48.5 36.166 74.5 50.499s59.167 27.666 99.5 39.999s81.5 18.5 123.5 18.5c106.667 0 199.667 -42 279 -126s119 -183.333 119 -298c0 -164 -60.167 -305 -180.5 -423s-251.5 -177 -393.5 -177
c-42 0 -81.833 6 -119.5 18s-68.834 27 -93.501 45s-45.834 36.167 -63.501 54.5s-30.5 33.5 -38.5 45.5l-12 19l-125 -592h-144l301 1413h144z" />
    <glyph glyph-name="uni0441" unicode="&#x441;" horiz-adv-x="1054" 
d="M82 403c0 155.333 57.334 294.332 172.001 416.999s253.334 184 416.001 184c48 0 93.667 -6.83301 137 -20.5s79.333 -30.167 108 -49.5s53.667 -38.166 75 -56.499s36.666 -34.5 45.999 -48.5l15 -20l-111 -92c-2.66699 4 -6.66699 9.33301 -12 16s-17 19 -35 37
s-37.5 33.833 -58.5 47.5s-48.333 25.834 -82 36.501s-68.834 16 -105.501 16c-106.667 0 -203.334 -44.667 -290.001 -134s-130 -196 -130 -320c0 -84.667 27.667 -156.334 83 -215.001s122.666 -88 201.999 -88c36.667 0 72.834 5.33301 108.501 16s66.5 24 92.5 40
s48.833 32.167 68.5 48.5s34.834 29.833 45.501 40.5l15 16l88 -90c-4 -5.33301 -10.5 -12.833 -19.5 -22.5s-28.167 -26 -57.5 -49s-59.333 -43.333 -90 -61s-70 -34 -118 -49s-95.667 -22.5 -143 -22.5c-116 0 -215 41.5 -297 124.5s-123 182.5 -123 298.5z" />
    <glyph glyph-name="uni0442" unicode="&#x442;" horiz-adv-x="1781" 
d="M1372 0l123 583.999c5.33301 26 8 53.333 8 82c0 65.333 -18.333 115.666 -55 150.999s-86 53 -148 53c-74 0 -141.5 -29.667 -202.5 -89s-101.833 -138.666 -122.5 -237.999l-115 -543h-143l123 584c5.33301 26 8 53.333 8 82c0 65.333 -18.5 115.666 -55.5 150.999
s-86.167 53 -147.5 53c-74 0 -141.667 -29.667 -203 -89s-102.333 -138.666 -123 -237.999l-114 -543h-144l209 983h144l-27 -123c2.66699 4 6.5 9.16699 11.5 15.5s16.333 17.666 34 33.999s36.667 31 57 44s47.333 24.667 81 35s68.834 15.5 105.501 15.5
c44 0 84.333 -6.16699 121 -18.5s65.167 -26.666 85.5 -42.999s37.666 -33.166 51.999 -50.499s23.833 -32 28.5 -44l8 -19c2.66699 4 7 10.167 13 18.5s20.333 22.5 43 42.5s46.667 37.833 72 53.5s58.833 29.667 100.5 42s85.5 18.5 131.5 18.5
c94 0 170.833 -27 230.5 -81s89.5 -129.667 89.5 -227c0 -34 -4.33301 -71.333 -13 -112l-122 -584h-144z" />
    <glyph glyph-name="uni0443" unicode="&#x443;" horiz-adv-x="1003" 
d="M240 -143l85.999 149l-189 977h148l147 -799l488 799h159l-690 -1126c-64 -104 -123.667 -177.833 -179 -221.5s-118.666 -65.5 -189.999 -65.5c-22 0 -42.5 1.66699 -61.5 5s-32.5 7 -40.5 11l-14 4l26 129c26 -10.667 56 -16 90 -16c88 0 161.333 51.333 220 154z" />
    <glyph glyph-name="uni0444" unicode="&#x444;" horiz-adv-x="1454" 
d="M737 870c-132.667 0 -250.833 -43 -354.5 -129s-155.5 -195 -155.5 -327c0 -88.667 30.5 -161 91.5 -217s146.5 -84 256.5 -84zM719.001 113c132.667 0 250.834 42.333 354.501 127s155.5 193 155.5 325c0 88.667 -30.333 161.667 -91 219s-146.334 86 -257.001 86z
M690.001 -20l-85.999 -410.001h-143l86 410c-142 0 -255 40.833 -339 122.5s-126 182.834 -126 303.501c0 166.667 66.5 308 199.5 424s294.5 174 484.5 174l90 430h143l-90 -430c142 0 255 -41.333 339 -124s126 -185 126 -307c0 -166.667 -66.833 -307.167 -200.5 -421.5
s-294.834 -171.5 -483.501 -171.5z" />
    <glyph glyph-name="uni0445" unicode="&#x445;" horiz-adv-x="983" 
d="M481 399l-370 -399h-183l478 512l-238 471h166l178 -358l334 358h182l-438 -471l260 -512h-166z" />
    <glyph glyph-name="uni0446" unicode="&#x446;" horiz-adv-x="1202" 
d="M801 143c-2.66699 -4 -6.83105 -9.66992 -12.498 -17.0029s-18.334 -20.666 -38.001 -39.999s-40.834 -36.166 -63.501 -50.499s-52.667 -27.166 -90 -38.499s-76 -17 -116 -17c-102.667 0 -186.334 28.667 -251.001 86s-97 135 -97 233c0 32.667 4 66 12 100l125 584
h144l-125 -584c-5.33301 -22 -8 -45 -8 -69c0 -66.667 20.833 -119.5 62.5 -158.5s95.834 -58.5 162.501 -58.5c82 0 154 28.667 216 86s104 134.333 126 231l119 553h143l-166 -778c-1.33301 -5.33301 -2 -12.333 -2 -21c0 -20.667 6.83301 -37.667 20.5 -51
s31.5 -20 53.5 -20h61l-76 -359h-143l49 234c-72.667 16.667 -108.667 61.667 -108 135z" />
    <glyph glyph-name="uni0447" unicode="&#x447;" horiz-adv-x="1105" 
d="M696 0l84.0029 397c-72.667 -53.333 -163.334 -80 -272.001 -80c-98 0 -177.5 26.667 -238.5 80s-91.5 124.333 -91.5 213c0 23.333 3.33301 52 10 86l62 287h143l-61 -287c-4 -22 -6 -42.333 -6 -61c0 -56 17.333 -100.667 52 -134s82 -50 142 -50
c49.333 0 98.166 7.5 146.499 22.5s84.166 30.5 107.499 46.5l37 23l94 440h144l-209 -983h-144z" />
    <glyph glyph-name="uni0448" unicode="&#x448;" horiz-adv-x="1781" 
d="M414 983l-122.998 -584.001c-5.33301 -26 -8 -53.333 -8 -82c0 -65.333 18.333 -115.666 55 -150.999s85.667 -53 147 -53c74 0 141.667 29.667 203 89s102.333 138.666 123 237.999l115 543h143l-123 -584c-5.33301 -26 -8 -53.333 -8 -82
c0 -65.333 18.5 -115.666 55.5 -150.999s86.167 -53 147.5 -53c74 0 141.667 29.667 203 89s102 138.666 122 237.999l115 543h143l-208 -983h-144l27 123c-2.66699 -4 -6.5 -9.16699 -11.5 -15.5s-16.333 -17.666 -34 -33.999s-36.667 -31 -57 -44s-47.333 -24.5 -81 -34.5
s-68.834 -15 -105.501 -15c-44 0 -84.333 6 -121 18s-65.334 26.333 -86.001 43s-38.167 33.5 -52.5 50.5s-23.5 31.5 -27.5 43.5l-8 19c-2.66699 -4 -7 -10.167 -13 -18.5s-20.333 -22.5 -43 -42.5s-46.667 -37.833 -72 -53.5s-58.833 -29.5 -100.5 -41.5
s-85.5 -18 -131.5 -18c-94 0 -170.833 26.833 -230.5 80.5s-89.5 129.167 -89.5 226.5c0 34 4 71.333 12 112l123 584h144z" />
    </font>
</defs>
</svg>
