<?xml version="1.0" standalone="no"?>
<!DOCTYPE svg PUBLIC "-//W3C//DTD SVG 1.1//EN" "http://www.w3.org/Graphics/SVG/1.1/DTD/svg11.dtd" >
<svg xmlns="http://www.w3.org/2000/svg" xmlns:xlink="http://www.w3.org/1999/xlink" version="1.1">
<metadata>
Created by FontForge 20190801 at Tue May 30 06:17:00 2017
 By Jimmy Wärting
Copyright (c) 2017 by TypeType. Designers Ivan Gladkikh, Pavel Emelyanov. Technical designers Olexa Volochay, Nadyr Rakhimov, Dmitriy Greshnev. All rights reserved.
</metadata>
<defs>
<font id="TTNorms-Light" horiz-adv-x="1187" >
  <font-face 
    font-family="TT Norms Light"
    font-weight="300"
    font-stretch="normal"
    units-per-em="2048"
    panose-1="2 0 5 3 2 0 0 2 0 3"
    ascent="1638"
    descent="-410"
    x-height="983"
    cap-height="1434"
    bbox="-246 -451.002 2945.01 1976"
    underline-thickness="0"
    underline-position="0"
    unicode-range="U+000D-FB06"
  />
<missing-glyph horiz-adv-x="0" 
 />
    <glyph glyph-name="ij" unicode="ij" horiz-adv-x="962" 
d="M676 -164l0.000976562 195c-48 -34 -106 -51 -174 -51c-92.667 0 -170.5 32 -233.5 96s-94.5 144.333 -94.5 241v666h92v-666c0 -70.667 22.5 -129.167 67.5 -175.5s101.167 -69.5 168.5 -69.5c30 0 59.667 5 89 15s50.666 20.667 63.999 32l21 14v850h92v-1147
c0 -80.667 -22.833 -145.167 -68.5 -193.5s-104.834 -72.5 -177.501 -72.5c-22 0 -43.167 2.33301 -63.5 7s-35.166 9 -44.499 13l-15 9v94c34 -20.667 75 -31 123 -31c46.667 0 84 15 112 45s42 73 42 129zM154.001 1331c0 20.667 6.83301 37.834 20.5 51.501
s30.667 20.5 51 20.5s37.333 -6.83301 51 -20.5s20.5 -30.834 20.5 -51.501s-6.83301 -37.667 -20.5 -51s-30.667 -20 -51 -20s-37.333 6.66699 -51 20s-20.5 30.333 -20.5 51zM645.001 1331c0 20.667 6.83301 37.834 20.5 51.501s30.834 20.5 51.501 20.5
s37.667 -6.83301 51 -20.5s20 -30.834 20 -51.501s-6.66699 -37.667 -20 -51s-30.333 -20 -51 -20s-37.834 6.66699 -51.501 20s-20.5 30.333 -20.5 51z" />
    <glyph glyph-name="uniFB00" unicode="ff" 
d="M1116 983v-92.002h-246v-891h-92v891h-461v-891h-92v891h-164v92h164v164c0 86 21.5 151.833 64.5 197.5s103.5 68.5 181.5 68.5c22 0 43.833 -2.66699 65.5 -8s38.167 -10.666 49.5 -15.999l18 -7v-92c-40.667 20.667 -85 31 -133 31c-46.667 0 -84 -15 -112 -45
s-42 -73 -42 -129v-164h461v205c0 86 21.5 151.833 64.5 197.5s103.5 68.5 181.5 68.5c22 0 43.833 -2.66699 65.5 -8s38.167 -10.666 49.5 -15.999l18 -7v-92c-40.667 20.667 -85 31 -133 31c-46.667 0 -84 -15 -112 -45s-42 -73 -42 -129v-205h246z" />
    <glyph glyph-name="uniFB01" unicode="fi" horiz-adv-x="1064" 
d="M317 891v-891.001h-92v891h-164v92h164v205c0 86 21.5 151.833 64.5 197.5s103.5 68.5 181.5 68.5c22 0 43.833 -2.66699 65.5 -8s38.167 -10.666 49.5 -15.999l18 -7v-92c-40.667 20.667 -85 31 -133 31c-46.667 0 -84 -15 -112 -45s-42 -73 -42 -129v-205h553v-983h-92
v891h-461zM758 1331c0 20.667 6.83301 37.834 20.5 51.501s30.667 20.5 51 20.5s37.333 -6.83301 51 -20.5s20.5 -30.834 20.5 -51.501s-6.83301 -37.667 -20.5 -51s-30.667 -20 -51 -20s-37.333 6.66699 -51 20s-20.5 30.333 -20.5 51z" />
    <glyph glyph-name="uniFB02" unicode="fl" horiz-adv-x="1095" 
d="M809 0v1106c0 70.667 -24.167 131 -72.5 181s-106 75 -173 75s-124.833 -25 -173.5 -75s-73 -110.333 -73 -181v-123h246v-92h-246v-891h-92v891h-164v92h164v123c0 96.667 33.167 178.834 99.5 246.501s145.833 101.5 238.5 101.5s172.167 -33.833 238.5 -101.5
s99.5 -149.834 99.5 -246.501v-1106h-92z" />
    <glyph glyph-name="uniFB03" unicode="ffi" horiz-adv-x="1628" 
d="M870 891v-891.002h-92v891h-461v-891h-92v891h-164v92h164v164c0 86 21.5 151.833 64.5 197.5s103.5 68.5 181.5 68.5c22 0 43.833 -2.66699 65.5 -8s38.167 -10.666 49.5 -15.999l18 -7v-92c-40.667 20.667 -85 31 -133 31c-46.667 0 -84 -15 -112 -45s-42 -73 -42 -129
v-164h461v205c0 86 21.5 151.833 64.5 197.5s103.5 68.5 181.5 68.5c22 0 43.833 -2.66699 65.5 -8s38.167 -10.666 49.5 -15.999l18 -7v-92c-40.667 20.667 -85 31 -133 31c-46.667 0 -84 -15 -112 -45s-42 -73 -42 -129v-205h564v-983h-93v891h-471zM1321 1331
c0 20.667 6.83301 37.834 20.5 51.501s30.667 20.5 51 20.5s37.333 -6.83301 51 -20.5s20.5 -30.834 20.5 -51.501s-6.83301 -37.667 -20.5 -51s-30.667 -20 -51 -20s-37.333 6.66699 -51 20s-20.5 30.333 -20.5 51z" />
    <glyph glyph-name="uniFB06" unicode="st" horiz-adv-x="1576" 
d="M1106 983l-0.00195312 122.999c0 80.667 -22.833 145.167 -68.5 193.5s-104.834 72.5 -177.501 72.5c-76.667 0 -138.5 -22.833 -185.5 -68.5s-70.5 -104.834 -70.5 -177.501c0 -39.333 6.83301 -76.666 20.5 -111.999s27.5 -61.333 41.5 -78l20 -25l51 -51l-71 -72
c-2.66699 2.66699 -6.16699 7.16699 -10.5 13.5s-14 16.333 -29 30s-30.667 26 -47 37s-38.166 20.833 -65.499 29.5s-55.333 13 -84 13c-68 0 -122.5 -17 -163.5 -51s-61.5 -75 -61.5 -123c0 -42 19.5 -76.667 58.5 -104s86 -48.5 141 -63.5s109.833 -32.167 164.5 -51.5
s101.5 -48.666 140.5 -87.999s58.5 -90.666 58.5 -153.999c0 -84.667 -31.667 -155.167 -95 -211.5s-147.666 -84.5 -252.999 -84.5c-42 0 -82.5 5.33301 -121.5 16s-71.833 24.167 -98.5 40.5s-50 32.833 -70 49.5s-34.667 30.334 -44 41.001l-14 16l71 72
c8 -10.667 19.333 -23.834 34 -39.501s45.834 -36.834 93.501 -63.501s97.5 -40 149.5 -40c79.333 0 141.833 19.333 187.5 58s68.5 87.334 68.5 146.001c0 45.333 -19.5 82 -58.5 110s-86.167 49.833 -141.5 65.5s-110.333 32.667 -165 51s-101.334 47 -140.001 86
s-58 88.5 -58 148.5c0 69.333 30.667 131.166 92 185.499s136.333 81.5 225 81.5c18 0 36.5 -1.83301 55.5 -5.5s33.167 -7.5 42.5 -11.5l15 -4c-13.333 40.667 -20.333 88.334 -21 143.001c0 92.667 32.167 170.5 96.5 233.5s144.833 94.5 241.5 94.5
c98 0 178.833 -32.333 242.5 -97s95.5 -148.334 95.5 -251.001v-123h225v-92h-225v-645c0 -56 14 -99 42 -129s65.333 -45 112 -45c22 0 43.833 2.33301 65.5 7s37.834 9.66699 48.501 15l19 8v-92c-40.667 -20.667 -85 -30.667 -133 -30c-78 0 -138.5 22.833 -181.5 68.5
s-64.5 111.5 -64.5 197.5v645h-195v92h195z" />
    <glyph glyph-name="c_t.liga" unicode="ct" horiz-adv-x="1740" 
d="M92 492c0 142 47.8369 262.834 143.504 362.501s208.167 149.5 337.5 149.5c22 0 44 -1.83301 66 -5.5s38.333 -7.5 49 -11.5l19 -4c-13.333 34 -20.333 81.667 -21 143c0 92.667 32.167 170.5 96.5 233.5s144.833 94.5 241.5 94.5c98 0 178.833 -32.333 242.5 -97
s95.5 -148.334 95.5 -251.001v-123h225v-92h-225v-645c0 -56 14 -99 42 -129s65.333 -45 112 -45c22 0 43.833 2.33301 65.5 7s37.834 9.66699 48.501 15l19 8v-92c-40.667 -20.667 -85 -30.667 -133 -30c-78 0 -138.5 22.833 -181.5 68.5s-64.5 111.5 -64.5 197.5v645h-195
v92h195v123c0 80.667 -22.833 145.167 -68.5 193.5s-104.834 72.5 -177.501 72.5c-76.667 0 -138.5 -22.833 -185.5 -68.5s-70.5 -104.834 -70.5 -177.501c0 -42 5.83301 -80 17.5 -114s23.5 -57.333 35.5 -70l19 -20l123 -123l-72 -62
c-2.66699 4 -6.83398 10.167 -12.501 18.5s-18.334 22.333 -38.001 42s-40.834 37.334 -63.501 53.001s-52.334 29.667 -89.001 42s-75 18.5 -115 18.5c-104 0 -194.833 -40.833 -272.5 -122.5s-116.5 -180.667 -116.5 -297s39 -215.333 117 -297s168.667 -122.5 272 -122.5
c64 0 122.333 14.667 175 44s90 58.333 112 87l31 43l72 -62c-4 -5.33301 -9.5 -12.833 -16.5 -22.5s-22.833 -26 -47.5 -49s-50.667 -43.333 -78 -61s-63.5 -34 -108.5 -49s-91.5 -22.5 -139.5 -22.5c-130 0 -242.667 49.833 -338 149.5s-143 220.5 -143 362.5z" />
    <glyph glyph-name="s_p.liga" unicode="sp" horiz-adv-x="2088" 
d="M1137 195l-0.00195312 -625.003h-93v1536c0 79.333 -21 143.5 -63 192.5s-92.667 73.5 -152 73.5c-62.667 0 -115.834 -23.167 -159.501 -69.5s-65.5 -105.166 -65.5 -176.499c0 -39.333 6.83301 -76.666 20.5 -111.999s27.5 -61.333 41.5 -78l20 -25l51 -51l-71 -72
c-2.66699 2.66699 -6.16699 7.16699 -10.5 13.5s-14 16.333 -29 30s-30.667 26 -47 37s-38.166 20.833 -65.499 29.5s-55.333 13 -84 13c-68 0 -122.5 -17 -163.5 -51s-61.5 -75 -61.5 -123c0 -42 19.5 -76.667 58.5 -104s86 -48.5 141 -63.5s109.833 -32.167 164.5 -51.5
s101.5 -48.666 140.5 -87.999s58.5 -90.666 58.5 -153.999c0 -84.667 -31.667 -155.167 -95 -211.5s-147.666 -84.5 -252.999 -84.5c-42 0 -82.5 5.33301 -121.5 16s-71.833 24.167 -98.5 40.5s-50 32.833 -70 49.5s-34.667 30.334 -44 41.001l-14 16l71 72
c8 -10.667 19.333 -23.834 34 -39.501s45.834 -36.834 93.501 -63.501s97.5 -40 149.5 -40c79.333 0 141.833 19.333 187.5 58s68.5 87.334 68.5 146.001c0 45.333 -19.5 82 -58.5 110s-86.167 49.833 -141.5 65.5s-110.333 32.667 -165 51s-101.334 47 -140.001 86
s-58 88.5 -58 148.5c0 69.333 30.667 131.166 92 185.499s136.333 81.5 225 81.5c38 0 75 -5.66699 111 -17c-12 30 -18.333 76.333 -19 139c0 91.333 30.5 168.833 91.5 232.5s133 95.5 216 95.5s155 -33.167 216 -99.5s91.5 -149.166 91.5 -248.499v-318
c2.66699 5.33301 7.33398 12.833 14.001 22.5s21.667 27.167 45 52.5s48.666 47.166 75.999 65.499s62.833 35.5 106.5 51.5s89.5 24 137.5 24c120 0 226.667 -50.333 320 -151s140 -221.167 140 -361.5s-46.667 -260.666 -140 -360.999s-200 -150.5 -320 -150.5
c-48 0 -93.833 7.5 -137.5 22.5s-79.5 32.667 -107.5 53s-52.667 41.166 -74 62.499s-36.666 39.333 -45.999 54zM1137 491.497c0 -116.333 38.167 -215.333 114.5 -297s164.5 -122.5 264.5 -122.5c94 0 178.833 41.167 254.5 123.5s113.5 181 113.5 296
s-37.833 213.667 -113.5 296s-160.5 123.5 -254.5 123.5c-100 0 -188.167 -40.833 -264.5 -122.5s-114.5 -180.667 -114.5 -297z" />
    <glyph glyph-name="f_t.liga" unicode="ft" horiz-adv-x="1259" 
d="M809 1065v245.999h82v-328h225v-92h-225v-645c0 -56 14 -99 42 -129s65 -45 111 -45c22 0 44 2.33301 66 7s38.333 9.66699 49 15l19 8v-92c-40.667 -20.667 -85.334 -30.667 -134.001 -30c-78 0 -138.333 22.833 -181 68.5s-64 111.5 -64 197.5v645h-482v-891h-92v891
h-164v92h164v205c0 86 21.5 151.833 64.5 197.5s103.5 68.5 181.5 68.5c22 0 43.833 -2.66699 65.5 -8s38.167 -10.666 49.5 -15.999l18 -7v-92c-40.667 20.667 -85 31 -133 31c-46.667 0 -84 -15 -112 -45s-42 -73 -42 -129v-205h420c20.667 0 37.834 7.5 51.501 22.5
s20.5 34.833 20.5 59.5z" />
    <glyph glyph-name=".notdef" horiz-adv-x="0" 
 />
    <glyph glyph-name="glyph1" horiz-adv-x="0" 
 />
    <glyph glyph-name="glyph1" horiz-adv-x="0" 
 />
    <glyph glyph-name="uni000D" unicode="&#xd;" horiz-adv-x="0" 
 />
    <glyph glyph-name="space" unicode=" " horiz-adv-x="378" 
 />
    <glyph glyph-name="exclam" unicode="!" horiz-adv-x="614" 
d="M348 328h-82l-20 1106h123zM236 61.5c0 20.333 6.66699 37.333 20 51s30.333 20.5 51 20.5s37.834 -6.83301 51.501 -20.5s20.5 -30.667 20.5 -51s-6.83301 -37.333 -20.5 -51s-30.834 -20.5 -51.501 -20.5s-37.667 6.83301 -51 20.5s-20 30.667 -20 51z" />
    <glyph glyph-name="quotedbl" unicode="&#x22;" horiz-adv-x="686" 
d="M236 1434v-430h-93v430h93zM543 1434v-430h-92v430h92z" />
    <glyph glyph-name="numbersign" unicode="#" horiz-adv-x="1464" 
d="M1096 1434h92l-82 -441h307l-20 -92h-308l-71 -369h307l-21 -92h-307l-82 -440h-92l82 440h-450l-82 -440h-93l82 440h-307l21 92h307l72 369h-308l21 92h307l82 441h92l-82 -441h451zM543 901l-72 -369h451l71 369h-450z" />
    <glyph glyph-name="dollar" unicode="$" horiz-adv-x="1146" 
d="M932 379c0 70.667 -27.334 127.836 -82.001 171.503s-121.334 77.5 -200.001 101.5s-157.167 49.333 -235.5 76s-144.833 68.667 -199.5 126s-82 131 -82 221c0 96.667 35.5 180.667 106.5 252s165.167 112.333 282.5 123v209h103v-207
c70.667 -5.33301 136.667 -22.333 198 -51s105 -56 131 -82l39 -39l-71 -72c-2.66699 4 -7.16699 9.16699 -13.5 15.5s-20 17.666 -41 33.999s-43.5 31 -67.5 44s-55.5 24.667 -94.5 35s-79.5 15.5 -121.5 15.5c-109.333 0 -194.666 -26 -255.999 -78s-92 -118.333 -92 -199
c0 -70.667 27.167 -127.834 81.5 -171.501s120.833 -77.5 199.5 -101.5s157.167 -49.333 235.5 -76s144.833 -68.667 199.5 -126s82 -131 82 -221c0 -106.667 -36.5 -196.834 -109.5 -270.501s-172.833 -115.167 -299.5 -124.5v-209h-103v207
c-86 5.33301 -164.833 25.666 -236.5 60.999s-121.834 69.333 -150.501 102l-43 50l72 71c2.66699 -5.33301 7.33398 -12.166 14.001 -20.499s22 -23 46 -44s50.333 -39.667 79 -56s66.167 -31 112.5 -44s95.5 -19.5 147.5 -19.5c118.667 0 209.834 27 273.501 81
s95.5 126 95.5 216z" />
    <glyph glyph-name="percent" unicode="%" horiz-adv-x="1556" 
d="M276 0l902 1434h102l-901 -1434h-103zM184 1136.5c0 -65.667 20.5 -119.667 61.5 -162s92.333 -63.5 154 -63.5s112.834 21.167 153.501 63.5s61 96.333 61 162s-20.333 119.667 -61 162s-91.834 63.5 -153.501 63.5s-113 -21.167 -154 -63.5s-61.5 -96.333 -61.5 -162z
M707 1136.5c0 -91.667 -29.5 -167.5 -88.5 -227.5s-132.167 -90 -219.5 -90s-160.333 30 -219 90s-88 135.833 -88 227.5s29.333 167.5 88 227.5s131.667 90 219 90s160.5 -30 219.5 -90s88.5 -135.833 88.5 -227.5zM942 297c0 -65.333 20.5 -119.166 61.5 -161.499
s92.167 -63.5 153.5 -63.5s112.5 21.167 153.5 63.5s61.5 96.166 61.5 161.499s-20.5 119.166 -61.5 161.499s-92.167 63.5 -153.5 63.5s-112.5 -21.167 -153.5 -63.5s-61.5 -96.166 -61.5 -161.499zM1464 297c0 -91.333 -29.333 -167 -88 -227s-131.667 -90 -219 -90
s-160.333 30 -219 90s-88 135.667 -88 227s29.333 167 88 227s131.667 90 219 90s160.333 -30 219 -90s88 -135.667 88 -227z" />
    <glyph glyph-name="ampersand" unicode="&#x26;" horiz-adv-x="1259" 
d="M829 1147c0 -40.667 -9.50098 -82.332 -28.501 -124.999s-41.833 -79.667 -68.5 -111s-53.667 -60 -81 -86s-50.333 -45.667 -69 -59l-29 -18l369 -451c8 12 17.5 29 28.5 51s26 67.833 45 137.5s28.5 139.834 28.5 210.501h92c0 -84.667 -11.167 -166.167 -33.5 -244.5
s-44.5 -135.833 -66.5 -172.5l-33 -54c6.66699 -10.667 15.834 -23.834 27.501 -39.501s33.834 -36.834 66.501 -63.501s62.667 -40 90 -40l62 10v-92c-20.667 -6.66699 -41.334 -10 -62.001 -10c-42 0 -83.5 13.667 -124.5 41s-71.833 54.666 -92.5 81.999l-28 41
c-4 -4 -9.16699 -10.167 -15.5 -18.5s-21.5 -22.5 -45.5 -42.5s-49.333 -37.833 -76 -53.5s-62.167 -29.5 -106.5 -41.5s-89.5 -18 -135.5 -18c-114.667 0 -210 34.333 -286 103s-114 150.334 -114 245.001c0 48 10 95.167 30 141.5s44 85.5 72 117.5s56 60.667 84 86
s52 44 72 56l29 19c-16.667 16.667 -37.5 38.167 -62.5 64.5s-58.333 74 -100 143s-62.5 129.5 -62.5 181.5c0 87.333 31 162 93 224s136.667 93 224 93s160.333 -29.333 219 -88s88 -131.667 88 -219zM859.999 225.002l-378.998 461.001
c-6.66699 -4 -15.5 -10.167 -26.5 -18.5s-30.5 -25.333 -58.5 -51s-52.833 -51.834 -74.5 -78.501s-41.334 -59.167 -59.001 -97.5s-26.5 -75.833 -26.5 -112.5c0 -74 27.5 -135.167 82.5 -183.5s129.833 -72.5 224.5 -72.5c39.333 0 77.166 5 113.499 15
s66.333 22.5 90 37.5s44.5 30.5 62.5 46.5s31 28.667 39 38zM297.001 1137c0 -42 17.001 -90.501 51.001 -145.501s68.333 -98.833 103 -131.5l51 -51c6.66699 4 15.167 10.5 25.5 19.5s29.166 26.167 56.499 51.5s51.166 50.5 71.499 75.5s39 55.333 56 91
s25.5 69.167 25.5 100.5c0 61.333 -20.5 112.5 -61.5 153.5s-92.167 61.5 -153.5 61.5s-114.166 -22.167 -158.499 -66.5s-66.5 -97.166 -66.5 -158.499z" />
    <glyph glyph-name="quotesingle" unicode="'" horiz-adv-x="378" 
d="M236 1434v-430h-93v430h93z" />
    <glyph glyph-name="parenleft" unicode="(" horiz-adv-x="675" 
d="M256 512c0 -104 11.6699 -206.167 35.0029 -306.5s51.666 -185.333 84.999 -255s66.333 -132 99 -187s60.667 -96.167 84 -123.5l35 -39l-82 -52c-9.33301 10.667 -21.833 25.667 -37.5 45s-43.334 61.166 -83.001 125.499s-74.834 131.666 -105.501 201.999
s-58.667 159 -84 266s-38 215.167 -38 324.5s12 216.833 36 322.5s53 195.334 87 269.001s68 139.667 102 198s62.667 101.833 86 130.5l37 43l82 -52c-9.33301 -9.33301 -21.5 -23.166 -36.5 -41.499s-42 -58 -81 -119s-73.167 -124.5 -102.5 -190.5
s-56.333 -149.833 -81 -251.5s-37 -204.5 -37 -308.5z" />
    <glyph glyph-name="parenright" unicode=")" horiz-adv-x="675" 
d="M420 512c0 104 -11.6699 206.167 -35.0029 306.5s-51.666 185.333 -84.999 255s-66.333 132 -99 187s-60.667 96.167 -84 123.5l-35 39l82 52c9.33301 -10.667 21.833 -25.667 37.5 -45s43.334 -61.166 83.001 -125.499s74.834 -131.666 105.501 -201.999
s58.667 -159 84 -266s38 -215.167 38 -324.5s-12 -216.833 -36 -322.5s-53 -195.334 -87 -269.001s-68 -139.667 -102 -198s-62.667 -101.833 -86 -130.5l-37 -43l-82 52c9.33301 9.33301 21.5 23.166 36.5 41.499s42 58 81 119s73.167 124.5 102.5 190.5
s56.333 149.833 81 251.5s37 204.5 37 308.5z" />
    <glyph glyph-name="asterisk" unicode="*" horiz-adv-x="798" 
d="M399 1055l-163 -236l-62 51l174 226l-266 61l31 82l256 -82l-11 277h82l-10 -277l256 82l31 -82l-266 -61l174 -226l-62 -51z" />
    <glyph glyph-name="plus" unicode="+" horiz-adv-x="1034" 
d="M471 1044h92v-399h379v-92h-379v-399h-92v399h-379v92h379v399z" />
    <glyph glyph-name="comma" unicode="," horiz-adv-x="399" 
d="M174 143l102 -61l-215 -338l-61 31z" />
    <glyph glyph-name="hyphen" unicode="-" horiz-adv-x="860" 
d="M768 655v-92h-676v92h676z" />
    <glyph glyph-name="period" unicode="." horiz-adv-x="409" 
d="M133 61.5c0 20.333 6.83301 37.333 20.5 51s30.834 20.5 51.501 20.5s37.667 -6.83301 51 -20.5s20 -30.667 20 -51s-6.66699 -37.333 -20 -51s-30.333 -20.5 -51 -20.5s-37.834 6.83301 -51.501 20.5s-20.5 30.667 -20.5 51z" />
    <glyph glyph-name="slash" unicode="/" horiz-adv-x="870" 
d="M799 1454l-625 -1884h-102l624 1884h103z" />
    <glyph glyph-name="zero" unicode="0" horiz-adv-x="1372" 
d="M236 717c0 -194 45 -348.333 135 -463s195 -172 315 -172s225.167 57.333 315.5 172s135.5 269 135.5 463s-45.167 348.333 -135.5 463s-195.5 172 -315.5 172s-225 -57.333 -315 -172s-135 -269 -135 -463zM1239 717c0 -220 -55.667 -397.833 -167 -533.5
s-240 -203.5 -386 -203.5s-274.667 67.833 -386 203.5s-167 313.5 -167 533.5s55.667 397.833 167 533.5s240 203.5 386 203.5s274.667 -67.833 386 -203.5s167 -313.5 167 -533.5z" />
    <glyph glyph-name="one" unicode="1" horiz-adv-x="706" 
d="M389 1434h82v-1434h-102v1249c-6.66699 -8 -16.167 -18.167 -28.5 -30.5s-42.5 -29 -90.5 -50s-100.667 -31.5 -158 -31.5v82c57.333 0 111 18 161 54s85 71.667 105 107z" />
    <glyph glyph-name="two" unicode="2" horiz-adv-x="1116" 
d="M993 0l-901.002 -0.00292969c0 76.667 14.667 147.334 44 212.001s67.666 120.334 114.999 167.001s99.333 90.667 156 132s113.334 81.166 170.001 119.499s108.5 77 155.5 116s85.167 84 114.5 135s44 105.167 44 162.5c0 86 -32.167 158.833 -96.5 218.5
s-148.166 89.5 -251.499 89.5c-53.333 0 -101.166 -9 -143.499 -27s-75.166 -39.167 -98.499 -63.5s-42.833 -49.166 -58.5 -74.499s-25.5 -47 -29.5 -65l-8 -26l-92 41c1.33301 8 4.33301 19.167 9 33.5s17.667 40 39 77s46.333 69 75 96s70.167 52.167 124.5 75.5
s115.166 35 182.499 35c130 0 237.5 -40.333 322.5 -121s127.5 -177 127.5 -289c0 -62.667 -13 -121 -39 -175s-59.667 -101 -101 -141s-88 -78.833 -140 -116.5s-105 -75 -159 -112s-104.5 -74.167 -151.5 -111.5s-88.667 -80.666 -125 -129.999s-60.5 -101.333 -72.5 -156
h788v-102z" />
    <glyph glyph-name="three" unicode="3" horiz-adv-x="1105" 
d="M686 758c8 -1.33301 18.498 -4.16406 31.498 -8.49707s36.667 -15.333 71 -33s64.833 -38.834 91.5 -63.501s50.5 -60.5 71.5 -107.5s31.5 -99.167 31.5 -156.5c0 -109.333 -44.667 -204.833 -134 -286.5s-201.666 -122.5 -336.999 -122.5c-57.333 0 -112 7.5 -164 22.5
s-94.667 32.667 -128 53s-62.666 41.166 -87.999 62.499s-43.333 39.333 -54 54l-17 23l72 71c2.66699 -5.33301 7.5 -12.166 14.5 -20.499s22 -23 45 -44s48.167 -39.667 75.5 -56s62.833 -31 106.5 -44s89.5 -19.5 137.5 -19.5c109.333 0 198.166 30 266.499 90
s102.5 132.333 102.5 217s-34.167 157 -102.5 217s-157.166 90 -266.499 90h-133v103h133c95.333 0 172 27 230 81s87 122.333 87 205c0 74 -29.333 137 -88 189s-135 78 -229 78c-65.333 0 -126 -13.667 -182 -41s-96.333 -54.666 -121 -81.999l-35 -41l-72 82
c4 5.33301 9.83301 12.166 17.5 20.499s24.5 23 50.5 44s53.667 39.667 83 56s67.5 31 114.5 44s95.167 19.5 144.5 19.5c120 0 220 -36.5 300 -109.5s120 -159.5 120 -259.5c0 -49.333 -8.5 -94.333 -25.5 -135s-37.5 -72.334 -61.5 -95.001s-48 -41.834 -72 -57.501
s-44 -26.167 -60 -31.5z" />
    <glyph glyph-name="four" unicode="4" horiz-adv-x="1157" 
d="M891 430h184v-102h-184v-328h-103v328h-737v123l717 983h123v-1004zM788 430v870l-634 -870h634z" />
    <glyph glyph-name="five" unicode="5" horiz-adv-x="1214" 
d="M614 911c128.667 0 237.672 -45.333 327.005 -136s134 -202.334 134 -335.001c0 -128.667 -46 -237.5 -138 -326.5s-206.333 -133.5 -343 -133.5c-56 0 -109.333 7.5 -160 22.5s-92.334 32.667 -125.001 53s-61.334 41.166 -86.001 62.499s-42.334 39.333 -53.001 54
l-16 23l71 71c2.66699 -5.33301 7.5 -12.166 14.5 -20.499s22 -23 45 -44s47.5 -39.667 73.5 -56s60.167 -31 102.5 -44s86.833 -19.5 133.5 -19.5c112 0 203.167 33.833 273.5 101.5s105.5 153.167 105.5 256.5c0 106.667 -34.167 194.834 -102.5 264.501
s-153.833 104.5 -256.5 104.5c-66.667 0 -127.334 -14.667 -182.001 -44s-92.334 -58.333 -113.001 -87l-32 -43h-82l51 799h727v-103h-635l-31 -532c8 8 20.333 18.167 37 30.5s50.5 29 101.5 50s103.833 31.5 158.5 31.5z" />
    <glyph glyph-name="six" unicode="6" horiz-adv-x="1177" 
d="M584 901c132.667 0 244.333 -44.6689 335 -134.002s136 -198.166 136 -326.499s-45.5 -237.166 -136.5 -326.499s-202.667 -134 -335 -134s-243.833 44.667 -334.5 134s-136 198 -136 326c0 52 8.5 103.667 25.5 155s33.5 89.333 49.5 114l27 39l430 686h113l-359 -574
c48 27.333 109.667 41 185 41zM951.999 440.498c0 102.333 -34.833 187.666 -104.5 255.999s-157.667 102.5 -264 102.5s-194.333 -34.167 -264 -102.5s-104.5 -153.666 -104.5 -255.999s34.833 -187.666 104.5 -255.999s157.667 -102.5 264 -102.5
s194.333 34.167 264 102.5s104.5 153.666 104.5 255.999z" />
    <glyph glyph-name="seven" unicode="7" horiz-adv-x="972" 
d="M51 1434h881v-103l-656 -1331h-102l655 1331h-778v103z" />
    <glyph glyph-name="eight" unicode="8" 
d="M594 829c86 0 157 24.333 213 73s84 109.834 84 183.501s-28 136.5 -84 188.5s-127 78 -213 78s-157 -26 -213 -78s-84 -114.833 -84 -188.5s28 -134.834 84 -183.501s127 -73 213 -73zM594 82c105.333 0 191.333 30.667 258 92s100 136.333 100 225
s-34.5 165.5 -103.5 230.5s-154 97.5 -255 97.5s-185.833 -32.5 -254.5 -97.5s-103 -141.833 -103 -230.5s33.333 -163.667 100 -225s152.667 -92 258 -92zM594 -20c-131.333 0 -241.001 41.168 -329.001 123.501s-132 180.833 -132 295.5c0 53.333 9.5 102.833 28.5 148.5
s41.833 82.167 68.5 109.5s53.667 50.666 81 69.999s50.666 32.333 69.999 39l29 12c-5.33301 1.33301 -12.833 4.5 -22.5 9.5s-27.167 15.667 -52.5 32s-47.166 35 -65.499 56s-35.333 50.333 -51 88s-23.5 78.167 -23.5 121.5c0 98 38.833 184 116.5 258
s171.834 111 282.501 111s204.834 -36.833 282.501 -110.5s116.5 -159.834 116.5 -258.501c0 -44 -7.5 -84.667 -22.5 -122s-33 -66.833 -54 -88.5s-41.833 -40 -62.5 -55s-38.334 -26.167 -53.001 -33.5l-23 -8c6.66699 -2.66699 16.5 -6.66699 29.5 -12
s35.333 -18.333 67 -39s59.667 -44 84 -70s46.5 -62.167 66.5 -108.5s30 -96.166 30 -149.499c0 -114.667 -44 -213.167 -132 -295.5s-197.667 -123.5 -329 -123.5z" />
    <glyph glyph-name="nine" unicode="9" horiz-adv-x="1177" 
d="M594 532c-132.667 0 -244.336 44.834 -335.003 134.501s-136 198.667 -136 327s45.333 237.166 136 326.499s202.334 134 335.001 134s244.334 -44.667 335.001 -134s136 -198.333 136 -327c0 -52 -8.5 -103.5 -25.5 -154.5s-34.5 -88.833 -52.5 -113.5l-24 -39
l-431 -686h-112l358 573c-47.333 -27.333 -108.666 -41 -183.999 -41zM224.998 993.501c0 -102.333 34.833 -187.666 104.5 -255.999s157.834 -102.5 264.501 -102.5s194.834 34.167 264.501 102.5s104.5 153.666 104.5 255.999s-34.833 187.666 -104.5 255.999
s-157.834 102.5 -264.501 102.5s-194.834 -34.167 -264.501 -102.5s-104.5 -153.666 -104.5 -255.999z" />
    <glyph glyph-name="colon" unicode=":" horiz-adv-x="409" 
d="M133 61.5c0 20.333 6.83301 37.333 20.5 51s30.834 20.5 51.501 20.5s37.667 -6.83301 51 -20.5s20 -30.667 20 -51s-6.66699 -37.333 -20 -51s-30.333 -20.5 -51 -20.5s-37.834 6.83301 -51.501 20.5s-20.5 30.667 -20.5 51zM133 921.5c0 20.333 6.83301 37.333 20.5 51
s30.834 20.5 51.501 20.5s37.667 -6.83301 51 -20.5s20 -30.667 20 -51s-6.66699 -37.333 -20 -51s-30.333 -20.5 -51 -20.5s-37.834 6.83301 -51.501 20.5s-20.5 30.667 -20.5 51z" />
    <glyph glyph-name="semicolon" unicode=";" horiz-adv-x="409" 
d="M133 921.5c0 20.333 6.83301 37.333 20.5 51s30.834 20.5 51.501 20.5s37.667 -6.83301 51 -20.5s20 -30.667 20 -51s-6.66699 -37.333 -20 -51s-30.333 -20.5 -51 -20.5s-37.834 6.83301 -51.501 20.5s-20.5 30.667 -20.5 51zM174 143l102 -61l-215 -338l-61 31z" />
    <glyph glyph-name="less" unicode="&#x3c;" horiz-adv-x="1003" 
d="M102 461v82l799 420v-103l-686 -358l686 -359v-102z" />
    <glyph glyph-name="equal" unicode="=" horiz-adv-x="1024" 
d="M911 471v-92h-809v92h809zM911 829v-92h-809v92h809z" />
    <glyph glyph-name="greater" unicode="&#x3e;" horiz-adv-x="1003" 
d="M901 543v-82l-799 -420v102l686 359l-686 358v103z" />
    <glyph glyph-name="question" unicode="?" horiz-adv-x="1054" 
d="M553 328l-91.9971 -0.00292969c-6.66699 27.333 -10 58 -10 92c0 61.333 13.5 117 40.5 167s60.333 92 100 126s79 67 118 99s72.167 70.167 99.5 114.5s41 93.833 41 148.5c0 79.333 -29.667 145.333 -89 198s-139 79 -239 79c-53.333 0 -101.5 -8.66699 -144.5 -26
s-76 -37.833 -99 -61.5s-42 -47.5 -57 -71.5s-24.5 -45 -28.5 -63l-9 -24l-92 31c2.66699 8 6.5 19.167 11.5 33.5s18.333 40 40 77s47.167 69 76.5 96s70.666 52.167 123.999 75.5s112.666 35 177.999 35c125.333 0 228.333 -36.833 309 -110.5s121 -163.167 121 -268.5
c0 -69.333 -13.667 -129.666 -41 -180.999s-60.333 -93.333 -99 -126s-77.834 -64.667 -117.501 -96s-73.167 -71.666 -100.5 -120.999s-41 -106.666 -41 -171.999v-51zM430.003 61.4971c0 20.333 6.83301 37.333 20.5 51s30.667 20.5 51 20.5s37.333 -6.83301 51 -20.5
s20.5 -30.667 20.5 -51s-6.83301 -37.333 -20.5 -51s-30.667 -20.5 -51 -20.5s-37.333 6.83301 -51 20.5s-20.5 30.667 -20.5 51z" />
    <glyph glyph-name="at" unicode="@" horiz-adv-x="1822" 
d="M890.5 788c-73.667 0 -134.667 -26.167 -183 -78.5s-72.5 -121.5 -72.5 -207.5s24.167 -155.333 72.5 -208s109.333 -79 183 -79s134.834 26.333 183.501 79s73 122 73 208s-24.333 155.167 -73 207.5s-109.834 78.5 -183.501 78.5zM891 881
c34 0 66.001 -4.83203 96.001 -14.499s54.667 -21.667 74 -36s35.666 -28.666 48.999 -42.999s23 -26.166 29 -35.499l8 -15v133h92v-454c0 -134 51.333 -201 154 -201c56 0 102.333 27.667 139 83s55 140.333 55 255c0 181.333 -64.167 334.166 -192.5 458.499
s-289.5 186.5 -483.5 186.5c-184 0 -342.5 -67.167 -475.5 -201.5s-199.5 -295.833 -199.5 -484.5s66.5 -350.167 199.5 -484.5s291.5 -201.5 475.5 -201.5c76.667 0 149.167 12 217.5 36s117.5 48 147.5 72l45 35l51 -71c-4 -4 -10.5 -9.83301 -19.5 -17.5
s-28.167 -21 -57.5 -40s-60.333 -35.667 -93 -50s-75.334 -27.333 -128.001 -39s-107 -17.5 -163 -17.5c-204.667 0 -383.834 77.5 -537.501 232.5s-230.5 336.833 -230.5 545.5s76.833 390.5 230.5 545.5s332.834 232.5 537.501 232.5
c212.667 0 393.834 -72.667 543.501 -218s224.5 -318.333 224.5 -519c0 -140.667 -27.167 -247.5 -81.5 -320.5s-122.5 -109.5 -204.5 -109.5c-32.667 0 -62.667 6.16699 -90 18.5s-49 26.666 -65 42.999s-29.667 33 -41 50s-19 31.833 -23 44.5l-7 18
c-1.33301 -4 -4 -10.167 -8 -18.5s-13.833 -22.333 -29.5 -42s-33 -37.334 -52 -53.001s-45.333 -29.667 -79 -42s-69.5 -18.5 -107.5 -18.5c-94 0 -175.5 36.5 -244.5 109.5s-103.5 162.833 -103.5 269.5s34.5 196.5 103.5 269.5s150.5 109.5 244.5 109.5z" />
    <glyph glyph-name="A" unicode="A" horiz-adv-x="1392" 
d="M1014 522l-318 768l-317 -768h635zM1055 420h-717l-174 -420h-113l594 1434h103l593 -1434h-112z" />
    <glyph glyph-name="B" unicode="B" horiz-adv-x="1351" 
d="M963 768l27.5 -10.998c11.667 -4.66699 32.167 -17 61.5 -37s55.166 -42.333 77.499 -67s42.833 -59.834 61.5 -105.501s28 -95.167 28 -148.5c0 -114.667 -40.667 -209.834 -122 -285.501s-187.666 -113.5 -318.999 -113.5h-553v1434h533
c116 0 209.833 -33.833 281.5 -101.5s107.5 -153.5 107.5 -257.5c0 -44 -6.5 -84.667 -19.5 -122s-28.333 -67 -46 -89s-35.5 -40.5 -53.5 -55.5s-33 -25.167 -45 -30.5zM328 102.002l450 -0.000976562c105.333 0 188 27.333 248 82s90 126.334 90 215.001
c0 94 -29.667 168.833 -89 224.5s-142.333 83.5 -249 83.5h-450v-605zM758 1331h-430v-522h430c91.333 0 161.833 23.5 211.5 70.5s74.5 112.167 74.5 195.5c0 78 -25.167 140.167 -75.5 186.5s-120.5 69.5 -210.5 69.5z" />
    <glyph glyph-name="C" unicode="C" horiz-adv-x="1536" 
d="M123 717c0 204.667 70.998 378.664 212.998 521.997s313.333 215 514 215c72.667 0 142.334 -10.5 209.001 -31.5s121.834 -46.667 165.501 -77s82 -60.5 115 -90.5s56.833 -55 71.5 -75l23 -33l-72 -62c-4 6.66699 -10.5 16.334 -19.5 29.001
s-29.167 34.334 -60.5 65.001s-65.5 57.5 -102.5 80.5s-85.167 44.167 -144.5 63.5s-121 29 -185 29c-174.667 0 -322.5 -61.167 -443.5 -183.5s-181.5 -272.833 -181.5 -451.5s60.5 -329.167 181.5 -451.5s268.833 -183.5 443.5 -183.5
c65.333 0 127.666 9.16699 186.999 27.5s108.5 40.5 147.5 66.5s73.167 52 102.5 78s51 47.667 65 65l20 29l72 -61c-5.33301 -8 -13.5 -19 -24.5 -33s-35.333 -38.667 -73 -74s-77.667 -66.666 -120 -93.999s-97.666 -51.833 -165.999 -73.5s-138.5 -32.5 -210.5 -32.5
c-200.667 0 -372 71.667 -514 215s-213 317.333 -213 522z" />
    <glyph glyph-name="D" unicode="D" horiz-adv-x="1515" 
d="M225 1434l420 0.00195312c212.667 0 390.5 -69.333 533.5 -208s214.5 -308.334 214.5 -509.001s-71.333 -370.334 -214 -509.001s-320.667 -208 -534 -208h-420v1434zM645 1331h-317v-1229h317c188.667 0 343.334 58.5 464.001 175.5s181 263.5 181 439.5
s-60.333 322.333 -181 439s-275.334 175 -464.001 175z" />
    <glyph glyph-name="E" unicode="E" horiz-adv-x="1290" 
d="M328 102h880v-102h-983v1434h963v-103h-860v-532h696v-103h-696v-594z" />
    <glyph glyph-name="F" unicode="F" horiz-adv-x="1249" 
d="M225 1434h953v-103h-850v-553h686v-102h-686v-676h-103v1434z" />
    <glyph glyph-name="G" unicode="G" horiz-adv-x="1617" 
d="M123 717c0 204.667 70.9971 378.666 212.997 521.999s313.333 215 514 215c72.667 0 142.334 -10.5 209.001 -31.5s121.834 -46.667 165.501 -77s82 -60.5 115 -90.5s56.833 -55 71.5 -75l23 -33l-72 -62c-4 6.66699 -10.5 16.334 -19.5 29.001
s-29.167 34.334 -60.5 65.001s-65.5 57.5 -102.5 80.5s-85.167 44.167 -144.5 63.5s-121 29 -185 29c-174.667 0 -322.5 -61.167 -443.5 -183.5s-181.5 -272.833 -181.5 -451.5s60.5 -329.167 181.5 -451.5s268.833 -183.5 443.5 -183.5c61.333 0 120.333 8.16699 177 24.5
s103.834 36.166 141.501 59.499s71.167 46.166 100.5 68.499s50 41.833 62 58.5l21 24v297h-369v103h471v-430c-5.33301 -8 -13.833 -19 -25.5 -33s-36.667 -38.667 -75 -74s-79.333 -66.666 -123 -93.999s-100 -51.833 -169 -73.5s-139.5 -32.5 -211.5 -32.5
c-200.667 0 -372 71.667 -514 215s-213 317.333 -213 522z" />
    <glyph glyph-name="H" unicode="H" horiz-adv-x="1536" 
d="M225 0v1434h103v-656h870v656h102v-1434h-102v676h-870v-676h-103z" />
    <glyph glyph-name="I" unicode="I" horiz-adv-x="552" 
d="M225 0v1434h103v-1434h-103z" />
    <glyph glyph-name="J" unicode="J" horiz-adv-x="1003" 
d="M686 1434h101.999v-1014c0 -126.667 -40.833 -231.667 -122.5 -315s-184.167 -125 -307.5 -125c-64 0 -124 12.833 -180 38.5s-96.333 50.834 -121 75.501l-37 39l72 72c6.66699 -9.33301 16.834 -20.833 30.501 -34.5s43.5 -31.834 89.5 -54.501s94.667 -34 146 -34
c98 0 177.167 30.667 237.5 92s90.5 143.333 90.5 246v1014z" />
    <glyph glyph-name="K" unicode="K" horiz-adv-x="1341" 
d="M328 553l798 881h134l-543 -594l594 -840h-123l-533 768l-327 -358v-410h-103v1434h103v-881z" />
    <glyph glyph-name="L" unicode="L" horiz-adv-x="1146" 
d="M1096 0h-871v1434h103v-1332h768v-102z" />
    <glyph glyph-name="M" unicode="M" horiz-adv-x="1884" 
d="M942 420l-614 819v-1239h-103v1434h82l635 -840l635 840h82v-1434h-103v1239z" />
    <glyph glyph-name="N" unicode="N" horiz-adv-x="1587" 
d="M1260 1434h102v-1434h-82l-952 1239v-1239h-103v1434h82l953 -1239v1239z" />
    <glyph glyph-name="O" unicode="O" horiz-adv-x="1699" 
d="M1475 717c0 178.667 -60.5 329.167 -181.5 451.5s-268.833 183.5 -443.5 183.5s-322.5 -61.167 -443.5 -183.5s-181.5 -272.833 -181.5 -451.5s60.5 -329.167 181.5 -451.5s268.833 -183.5 443.5 -183.5s322.5 61.167 443.5 183.5s181.5 272.833 181.5 451.5zM1577 717
c0 -204.667 -70.667 -378.667 -212 -522s-313 -215 -515 -215c-200.667 0 -372 71.667 -514 215s-213 317.333 -213 522s71 378.667 213 522s313.333 215 514 215c202 0 373.667 -71.667 515 -215s212 -317.333 212 -522z" />
    <glyph glyph-name="P" unicode="P" horiz-adv-x="1310" 
d="M225 1434h512c132.667 0 242.667 -42.333 330 -127s131 -189.167 131 -313.5s-43.667 -228.833 -131 -313.5s-197.333 -127 -330 -127h-409v-553h-103v1434zM737 1331l-409 0.000976562v-676h409c106.667 0 193.167 31.833 259.5 95.5s99.5 144.667 99.5 243
s-33.167 179.166 -99.5 242.499s-152.833 95 -259.5 95z" />
    <glyph glyph-name="Q" unicode="Q" horiz-adv-x="1710" 
d="M1044 6c-54.667 -18 -119.335 -26.6699 -194.002 -26.0029c-200.667 0 -372 71.667 -514 215s-213 317.333 -213 522s71 378.667 213 522s313.333 215 514 215c202 0 373.667 -71.667 515 -215s212 -317.333 212 -522c0 -91.333 -14.667 -177.333 -44 -258
s-65.166 -145.167 -107.499 -193.5s-84.666 -90.666 -126.999 -126.999s-77.833 -62.166 -106.5 -77.499l-45 -20c2.66699 -5.33301 7 -13.166 13 -23.499s20 -28.5 42 -54.5s47 -48.833 75 -68.5s65.833 -37.667 113.5 -54s99.5 -24.5 155.5 -24.5
c22 0 41.5 0.666992 58.5 2s28.167 3.33301 33.5 6l11 2v-102c-20.667 -6.66699 -55 -10.334 -103 -11.001c-68 0 -132 10 -192 30s-108.167 44.667 -144.5 74s-67.5 58.333 -93.5 87s-44.333 52.334 -55 71.001zM1475 716.997c0 178.667 -60.5 329.167 -181.5 451.5
s-268.833 183.5 -443.5 183.5s-322.5 -61.167 -443.5 -183.5s-181.5 -272.833 -181.5 -451.5s60.5 -329.167 181.5 -451.5s268.833 -183.5 443.5 -183.5s322.5 61.167 443.5 183.5s181.5 272.833 181.5 451.5z" />
    <glyph glyph-name="R" unicode="R" horiz-adv-x="1351" 
d="M225 1434h543c126.667 0 231.667 -40.333 315 -121s125 -180.334 125 -299.001c0 -62.667 -10.833 -119.334 -32.5 -170.001s-48.167 -89.667 -79.5 -117s-62.5 -50.166 -93.5 -68.499s-57.167 -30.166 -78.5 -35.499l-33 -9l348 -614h-113l-338 594h-460v-594h-103v1434
zM768 1331h-440v-635h440c101.333 0 183 29.667 245 89s93 135.5 93 228.5s-31 169.167 -93 228.5s-143.667 89 -245 89z" />
    <glyph glyph-name="S" unicode="S" horiz-adv-x="1146" 
d="M932 379c0 70.667 -27.3291 127.834 -81.9961 171.501s-121.334 77.5 -200.001 101.5s-157.167 49.333 -235.5 76s-144.833 68.667 -199.5 126s-82 131 -82 221c0 105.333 41.667 194.833 125 268.5s192 110.5 326 110.5c49.333 0 97.166 -6.16699 143.499 -18.5
s84.833 -26.666 115.5 -42.999s58 -33 82 -50s41.333 -31.833 52 -44.5l16 -18l-71 -72c-2.66699 4 -7.16699 9.16699 -13.5 15.5s-20 17.666 -41 33.999s-43.5 31 -67.5 44s-55.5 24.667 -94.5 35s-79.5 15.5 -121.5 15.5c-109.333 0 -194.666 -26 -255.999 -78
s-92 -118.333 -92 -199c0 -70.667 27.167 -127.834 81.5 -171.501s120.833 -77.5 199.5 -101.5s157.167 -49.333 235.5 -76s144.833 -68.667 199.5 -126s82 -131 82 -221c0 -116 -42.333 -211.5 -127 -286.5s-199.334 -112.5 -344.001 -112.5
c-58.667 0 -115.334 7.5 -170.001 22.5s-99.334 32.667 -134.001 53s-65.334 41.166 -92.001 62.499s-45.334 39.333 -56.001 54l-19 23l72 71c2.66699 -5.33301 7.33398 -12.166 14.001 -20.499s22 -23 46 -44s50.333 -39.667 79 -56s66.167 -31 112.5 -44
s95.5 -19.5 147.5 -19.5c118.667 0 209.834 27 273.501 81s95.5 126 95.5 216z" />
    <glyph glyph-name="T" unicode="T" horiz-adv-x="1126" 
d="M41 1434h1044v-103h-471v-1331h-102v1331h-471v103z" />
    <glyph glyph-name="U" unicode="U" horiz-adv-x="1536" 
d="M768 82c128.667 0 237.667 45.333 327 136s134 202.334 134 335.001v881h102v-881c0 -158.667 -55.333 -293.834 -166 -405.501s-243 -167.5 -397 -167.5s-286.333 55.833 -397 167.5s-166 246.834 -166 405.501v881h102v-881c0 -132.667 44.667 -244.334 134 -335.001
s198.333 -136 327 -136z" />
    <glyph glyph-name="V" unicode="V" horiz-adv-x="1351" 
d="M625 0l-564 1434h113l502 -1280l502 1280h112l-563 -1434h-102z" />
    <glyph glyph-name="W" unicode="W" horiz-adv-x="2068" 
d="M1034 1270l-409 -1270h-103l-461 1434h113l399 -1270l410 1270h102l410 -1270l399 1270h113l-461 -1434h-102z" />
    <glyph glyph-name="X" unicode="X" horiz-adv-x="1290" 
d="M1198 1434l-491 -686l532 -748h-123l-471 666l-471 -666h-123l533 748l-492 686h123l430 -605l430 605h123z" />
    <glyph glyph-name="Y" unicode="Y" horiz-adv-x="1269" 
d="M174 1434l461 -820l461 820h123l-533 -932v-502h-102v502l-533 932h123z" />
    <glyph glyph-name="Z" unicode="Z" horiz-adv-x="1198" 
d="M963 1331h-840v103h962v-103l-870 -1229h891v-102h-1014v102z" />
    <glyph glyph-name="bracketleft" unicode="[" horiz-adv-x="696" 
d="M307 1352v-1680h297v-102h-399v1884h399v-102h-297z" />
    <glyph glyph-name="backslash" unicode="\" horiz-adv-x="870" 
d="M696 -430l-624 1884h102l625 -1884h-103z" />
    <glyph glyph-name="bracketright" unicode="]" horiz-adv-x="696" 
d="M389 -328v1680h-297v102h400v-1884h-400v102h297z" />
    <glyph glyph-name="asciicircum" unicode="^" horiz-adv-x="798" 
d="M358 1434h82l256 -564h-92l-205 451l-204 -451h-93z" />
    <glyph glyph-name="underscore" unicode="_" horiz-adv-x="655" 
d="M676 -236v-92h-696v92h696z" />
    <glyph glyph-name="grave" unicode="`" horiz-adv-x="389" 
d="M174 1423l154 -266h-82l-185 266h113z" />
    <glyph glyph-name="a" unicode="a" horiz-adv-x="1024" 
d="M369 553l389.004 61.001c0 84.667 -26.333 155.334 -79 212.001s-118.667 85 -198 85c-53.333 0 -103.833 -11.833 -151.5 -35.5s-82.5 -47.834 -104.5 -72.501l-30 -35l-62 61c4 4 9.16699 10.167 15.5 18.5s20.666 22.5 42.999 42.5s46.166 37.833 71.499 53.5
s57.833 29.667 97.5 42s79.834 18.5 120.501 18.5c105.333 0 193.166 -37.333 263.499 -112s105.5 -167.334 105.5 -278.001v-614h-92v164c-2.66699 -5.33301 -7.16699 -12.166 -13.5 -20.499s-20.333 -23 -42 -44s-45.167 -39.833 -70.5 -56.5
s-58.833 -31.334 -100.5 -44.001s-85.834 -19 -132.501 -19c-94 0 -172 27.5 -234 82.5s-93 119.5 -93 193.5c0 76.667 26.667 142 80 196s125.666 87.667 216.999 101zM399.004 72.001c102.667 0 188.167 34 256.5 102s102.5 153.333 102.5 256v92l-369 -61
c-150 -24.667 -225 -93 -225 -205c0 -49.333 22.167 -92.333 66.5 -129s100.5 -55 168.5 -55z" />
    <glyph glyph-name="b" unicode="b" horiz-adv-x="1218" 
d="M266 491.5c0 -116.333 38.333 -215.333 115 -297s164.667 -122.5 264 -122.5c94 0 179 41.167 255 123.5s114 181 114 296s-38 213.667 -114 296s-161 123.5 -255 123.5c-100 0 -188.167 -40.833 -264.5 -122.5s-114.5 -180.667 -114.5 -297zM266 1434v-645.999
c2.66699 5.33301 7.5 12.833 14.5 22.5s22 27.167 45 52.5s48.167 47.166 75.5 65.499s62.833 35.5 106.5 51.5s89.5 24 137.5 24c120 0 226.833 -50.333 320.5 -151s140.5 -221.167 140.5 -361.5s-46.833 -260.666 -140.5 -360.999s-200.5 -150.5 -320.5 -150.5
c-48 0 -93.833 7.5 -137.5 22.5s-79.5 32.667 -107.5 53s-52.5 41.166 -73.5 62.499s-36.167 39.333 -45.5 54l-15 23v-195h-92v1434h92z" />
    <glyph glyph-name="c" unicode="c" horiz-adv-x="1054" 
d="M92 492c0 142 47.8359 262.832 143.503 362.499s208.167 149.5 337.5 149.5c48 0 94.167 -7.16699 138.5 -21.5s80.833 -31.5 109.5 -51.5s54.334 -39.833 77.001 -59.5s38.667 -37.167 48 -52.5l17 -20l-72 -62c-2.66699 4 -6.83398 10.167 -12.501 18.5
s-18.334 22.333 -38.001 42s-40.834 37.334 -63.501 53.001s-52.334 29.667 -89.001 42s-75 18.5 -115 18.5c-104 0 -194.833 -40.833 -272.5 -122.5s-116.5 -180.667 -116.5 -297s39 -215.333 117 -297s168.667 -122.5 272 -122.5c64 0 122.333 14.667 175 44
s90 58.333 112 87l31 43l72 -62c-4 -5.33301 -9.5 -12.833 -16.5 -22.5s-22.833 -26 -47.5 -49s-50.667 -43.333 -78 -61s-63.5 -34 -108.5 -49s-91.5 -22.5 -139.5 -22.5c-130 0 -242.667 49.833 -338 149.5s-143 220.5 -143 362.5z" />
    <glyph glyph-name="d" unicode="d" horiz-adv-x="1218" 
d="M932 491.5c0 116.333 -38.333 215.333 -115 297s-164.667 122.5 -264 122.5c-94 0 -179 -41.167 -255 -123.5s-114 -181 -114 -296s38 -213.667 114 -296s161 -123.5 255 -123.5c100 0 188.167 40.833 264.5 122.5s114.5 180.667 114.5 297zM932 788v645.999h92v-1434
h-92v195c-2.66699 -5.33301 -7.5 -12.833 -14.5 -22.5s-22 -27.167 -45 -52.5s-48.167 -47.166 -75.5 -65.499s-62.833 -35.333 -106.5 -51s-89.5 -23.5 -137.5 -23.5c-120 0 -226.833 50.167 -320.5 150.5s-140.5 220.666 -140.5 360.999s46.833 260.833 140.5 361.5
s200.5 151 320.5 151c48 0 93.833 -7.66699 137.5 -23s79.5 -33.166 107.5 -53.499s52.5 -41 73.5 -62s36.5 -39.167 46.5 -54.5z" />
    <glyph glyph-name="e" unicode="e" horiz-adv-x="1126" 
d="M1014 451l-830.001 0.000976562c5.33301 -102.667 46 -191.5 122 -266.5s165 -112.5 267 -112.5c39.333 0 77.833 5.66699 115.5 17s68.834 25.666 93.501 42.999s46.167 34.5 64.5 51.5s32.5 30.833 42.5 41.5l12 19l62 -60c-4 -5.33301 -9.5 -12.833 -16.5 -22.5
s-22.833 -26 -47.5 -49s-50.667 -43.333 -78 -61s-63.5 -34 -108.5 -49s-91.5 -22.5 -139.5 -22.5c-130 0 -242.667 49.833 -338 149.5s-143 220.5 -143 362.5c0 140.667 47.167 261.167 141.5 361.5s204.333 150.5 330 150.5s232.167 -47.833 319.5 -143.5
s131 -218.5 131 -368.5v-41zM562.999 911.001c-96.667 0 -182.5 -36.833 -257.5 -110.5s-115.5 -159.5 -121.5 -257.5h738c-5.33301 106.667 -42 194.667 -110 264s-151 104 -249 104z" />
    <glyph glyph-name="f" unicode="f" horiz-adv-x="634" 
d="M563 983v-92.001h-246v-891h-92v891h-164v92h164v205c0 86 21.5 151.833 64.5 197.5s103.5 68.5 181.5 68.5c22 0 43.833 -2.66699 65.5 -8s38.167 -10.666 49.5 -15.999l18 -7v-92c-40.667 20.667 -85 31 -133 31c-46.667 0 -84 -15 -112 -45s-42 -73 -42 -129v-205h246
z" />
    <glyph glyph-name="g" unicode="g" horiz-adv-x="1198" 
d="M184 512c0 -110.667 36.167 -204.83 108.5 -282.497s155.833 -116.5 250.5 -116.5c95.333 0 180.5 39.167 255.5 117.5s112.5 172.166 112.5 281.499s-37.5 203.166 -112.5 281.499s-160.167 117.5 -255.5 117.5c-94 0 -177.333 -38.833 -250 -116.5
s-109 -171.834 -109 -282.501zM911 61.0039v163.999c-2.66699 -5.33301 -7 -12.833 -13 -22.5s-20.333 -26 -43 -49s-47 -43.333 -73 -61s-60.5 -34.167 -103.5 -49.5s-88.167 -23 -135.5 -23c-120 0 -225.167 47.833 -315.5 143.5s-135.5 211.834 -135.5 348.501
s45 252.834 135 348.501s195.333 143.5 316 143.5c48 0 93.333 -7.16699 136 -21.5s77.334 -31.5 104.001 -51.5s50.334 -39.833 71.001 -59.5s35 -37.167 43 -52.5l14 -20v184h93v-922c0 -136.667 -46.167 -252.667 -138.5 -348s-203.5 -143 -333.5 -143
c-49.333 0 -96.333 7.16699 -141 21.5s-81.334 31.333 -110.001 51s-54 39.5 -76 59.5s-37.667 37.333 -47 52l-15 21l62 61c2.66699 -4 7 -10.167 13 -18.5s19.333 -22.333 40 -42s42.5 -37.334 65.5 -53.001s53.667 -29.667 92 -42s77.166 -18.5 116.499 -18.5
c104 0 193.167 38.5 267.5 115.5s111.5 171.5 111.5 283.5z" />
    <glyph glyph-name="h" unicode="h" horiz-adv-x="1177" 
d="M266 1434l0.000976562 -624.999c2.66699 5.33301 6.5 12.5 11.5 21.5s17.333 24.333 37 46s41.167 41.167 64.5 58.5s55.166 33.166 95.499 47.499s83.5 21.5 129.5 21.5c113.333 0 208.333 -39.667 285 -119s115 -179.666 115 -300.999v-584h-93v584
c0 95.333 -29.333 173.666 -88 234.999s-131.667 92 -219 92c-92.667 0 -172.167 -34.333 -238.5 -103s-99.5 -153.667 -99.5 -255v-553h-92v1434h92z" />
    <glyph glyph-name="i" unicode="i" horiz-adv-x="460" 
d="M174 0v983h92v-983h-92zM154 1331c0 20.667 6.83301 37.834 20.5 51.501s30.667 20.5 51 20.5s37.333 -6.83301 51 -20.5s20.5 -30.834 20.5 -51.501s-6.83301 -37.667 -20.5 -51s-30.667 -20 -51 -20s-37.333 6.66699 -51 20s-20.5 30.333 -20.5 51z" />
    <glyph glyph-name="j" unicode="j" horiz-adv-x="460" 
d="M174 -164v1147h92v-1147c0 -80.667 -22.833 -145.167 -68.5 -193.5s-104.834 -72.5 -177.501 -72.5c-22 0 -43.167 2.66699 -63.5 8s-35.166 10.666 -44.499 15.999l-14 7v92c34 -20.667 74.667 -31 122 -31c46.667 0 84 15 112 45s42 73 42 129zM154 1331
c0 20.667 6.83301 37.834 20.5 51.501s30.667 20.5 51 20.5s37.333 -6.83301 51 -20.5s20.5 -30.834 20.5 -51.501s-6.83301 -37.667 -20.5 -51s-30.667 -20 -51 -20s-37.333 6.66699 -51 20s-20.5 30.333 -20.5 51z" />
    <glyph glyph-name="k" unicode="k" horiz-adv-x="1024" 
d="M266 266v-266h-92v1434h92v-1035l543 584h123l-369 -399l420 -584h-113l-368 512h-10z" />
    <glyph glyph-name="l" unicode="l" horiz-adv-x="460" 
d="M266 1434v-1434h-92v1434h92z" />
    <glyph glyph-name="m" unicode="m" horiz-adv-x="1771" 
d="M1505 0l0.00195312 584.001c0 100 -26.167 179.5 -78.5 238.5s-118.166 88.5 -197.499 88.5c-84.667 0 -155.334 -32.333 -212.001 -97s-85 -151.667 -85 -261v-553h-92v584c0 100 -26.333 179.5 -79 238.5s-118.667 88.5 -198 88.5
c-84.667 0 -155.334 -32.333 -212.001 -97s-85 -151.667 -85 -261v-553h-92v983h92v-143c2.66699 4 6.16699 9.66699 10.5 17s15 20.666 32 39.999s36 36.166 57 50.499s49.333 27.333 85 39s73.167 17.5 112.5 17.5c46.667 0 89.5 -8 128.5 -24s70.333 -34.833 94 -56.5
s43.667 -43.5 60 -65.5s28.166 -40.333 35.499 -55l10 -25c2.66699 5.33301 6 13.166 10 23.499s15.333 28.5 34 54.5s39.167 48.833 61.5 68.5s54.333 37.834 96 54.501s87.167 25 136.5 25c105.333 0 193 -37.667 263 -113s105 -177.666 105 -306.999v-584h-92z" />
    <glyph glyph-name="n" unicode="n" horiz-adv-x="1177" 
d="M266 983l0.000976562 -173.999c2.66699 5.33301 6.5 12.5 11.5 21.5s17.333 24.333 37 46s41.167 41.167 64.5 58.5s55.166 33.166 95.499 47.499s83.5 21.5 129.5 21.5c113.333 0 208.333 -39.667 285 -119s115 -179.666 115 -300.999v-584h-93v584
c0 95.333 -29.333 173.666 -88 234.999s-131.667 92 -219 92c-92.667 0 -172.167 -34.333 -238.5 -103s-99.5 -153.667 -99.5 -255v-553h-92v983h92z" />
    <glyph glyph-name="o" unicode="o" 
d="M92 492c0 142 48.5 262.833 145.5 362.5s212.333 149.5 346 149.5s249 -49.833 346 -149.5s145.5 -220.5 145.5 -362.5s-48.5 -262.833 -145.5 -362.5s-212.333 -149.5 -346 -149.5s-249 49.833 -346 149.5s-145.5 220.5 -145.5 362.5zM983 491.5
c0 116.333 -39.167 215.333 -117.5 297s-172.166 122.5 -281.499 122.5s-203.333 -40.833 -282 -122.5s-118 -180.667 -118 -297s39.333 -215.333 118 -297s172.667 -122.5 282 -122.5s203.166 40.833 281.499 122.5s117.5 180.667 117.5 297z" />
    <glyph glyph-name="p" unicode="p" horiz-adv-x="1218" 
d="M266 491.5c0 -116.333 38.333 -215.333 115 -297s164.667 -122.5 264 -122.5c94 0 179 41.167 255 123.5s114 181 114 296s-38 213.667 -114 296s-161 123.5 -255 123.5c-100 0 -188.167 -40.833 -264.5 -122.5s-114.5 -180.667 -114.5 -297zM266 195v-624.999h-92v1413
h92v-195c2.66699 5.33301 7.5 12.833 14.5 22.5s22 27.167 45 52.5s48.167 47.166 75.5 65.499s62.833 35.5 106.5 51.5s89.5 24 137.5 24c120 0 226.833 -50.333 320.5 -151s140.5 -221.167 140.5 -361.5s-46.833 -260.666 -140.5 -360.999s-200.5 -150.5 -320.5 -150.5
c-48 0 -93.833 7.5 -137.5 22.5s-79.5 32.667 -107.5 53s-52.5 41.166 -73.5 62.499s-36.167 39.333 -45.5 54z" />
    <glyph glyph-name="q" unicode="q" horiz-adv-x="1218" 
d="M932 491.5c0 116.333 -38.333 215.333 -115 297s-164.667 122.5 -264 122.5c-94 0 -179 -41.167 -255 -123.5s-114 -181 -114 -296s38 -213.667 114 -296s161 -123.5 255 -123.5c100 0 188.167 40.833 264.5 122.5s114.5 180.667 114.5 297zM932 -430v624.999
c-2.66699 -5.33301 -7.5 -12.833 -14.5 -22.5s-22 -27.167 -45 -52.5s-48.167 -47.166 -75.5 -65.499s-62.833 -35.333 -106.5 -51s-89.5 -23.5 -137.5 -23.5c-120 0 -226.833 50.167 -320.5 150.5s-140.5 220.666 -140.5 360.999s46.833 260.833 140.5 361.5
s200.5 151 320.5 151c48 0 93.833 -7.66699 137.5 -23s79.5 -33.166 107.5 -53.499s52.5 -41 73.5 -62s36.5 -39.167 46.5 -54.5l14 -23v195h92v-1413h-92z" />
    <glyph glyph-name="r" unicode="r" horiz-adv-x="696" 
d="M655 1004l-0.00292969 -92.999h-41c-95.333 0 -177.166 -33.333 -245.499 -100s-102.5 -152.667 -102.5 -258v-553h-92v983h92v-164c2.66699 5.33301 6.5 12.166 11.5 20.499s17.333 23 37 44s41.834 39.833 66.501 56.5s57.834 31.5 99.501 44.5s86.167 19.5 133.5 19.5
h41z" />
    <glyph glyph-name="s" unicode="s" horiz-adv-x="880" 
d="M737 860l-71 -72.001c-2.66699 2.66699 -6.16699 7.16699 -10.5 13.5s-14 16.333 -29 30s-30.667 26 -47 37s-38.166 20.833 -65.499 29.5s-55.333 13 -84 13c-68 0 -122.5 -17 -163.5 -51s-61.5 -75 -61.5 -123c0 -42 19.5 -76.667 58.5 -104s86 -48.5 141 -63.5
s109.833 -32.167 164.5 -51.5s101.5 -48.666 140.5 -87.999s58.5 -90.666 58.5 -153.999c0 -84.667 -31.667 -155.167 -95 -211.5s-147.666 -84.5 -252.999 -84.5c-42 0 -82.5 5.33301 -121.5 16s-71.833 24.167 -98.5 40.5s-50 32.833 -70 49.5s-34.667 30.334 -44 41.001
l-14 16l71 72c8 -10.667 19.333 -23.834 34 -39.501s45.834 -36.834 93.501 -63.501s97.5 -40 149.5 -40c79.333 0 141.833 19.333 187.5 58s68.5 87.334 68.5 146.001c0 45.333 -19.5 82 -58.5 110s-86.167 49.833 -141.5 65.5s-110.333 32.667 -165 51
s-101.334 47 -140.001 86s-58 88.5 -58 148.5c0 69.333 30.667 131.166 92 185.499s136.333 81.5 225 81.5c57.333 0 111.666 -12 162.999 -36s88.666 -47.667 111.999 -71z" />
    <glyph glyph-name="t" unicode="t" horiz-adv-x="716" 
d="M256 1065l-0.00195312 246h82v-328h225v-92h-225v-645c0 -56 14 -99 42 -129s65.333 -45 112 -45c22 0 43.833 2.33301 65.5 7s37.834 9.66699 48.501 15l19 8v-92c-40.667 -20.667 -85 -30.667 -133 -30c-78 0 -138.5 22.833 -181.5 68.5s-64.5 111.5 -64.5 197.5v645
h-195v92h133c20.667 0 37.834 7.5 51.501 22.5s20.5 34.833 20.5 59.5z" />
    <glyph glyph-name="u" unicode="u" 
d="M911 0v173.999c-2.66699 -5.33301 -6.33398 -12.5 -11.001 -21.5s-16.834 -24.333 -36.501 -46s-41.167 -41 -64.5 -58s-55.166 -32.667 -95.499 -47s-83.833 -21.5 -130.5 -21.5c-113.333 0 -208.166 39.5 -284.499 118.5s-114.5 179.167 -114.5 300.5v584h92v-584
c0 -95.333 29.333 -173.666 88 -234.999s131.667 -92 219 -92c92.667 0 172.167 34.5 238.5 103.5s99.5 153.833 99.5 254.5v553h93v-983h-93z" />
    <glyph glyph-name="v" unicode="v" horiz-adv-x="983" 
d="M532 0h-102l-399 983h102l348 -860l348 860h103z" />
    <glyph glyph-name="w" unicode="w" horiz-adv-x="1454" 
d="M676 983h82l266 -840l276 840h103l-328 -983h-92l-266 829l-266 -829h-93l-327 983h102l277 -829z" />
    <glyph glyph-name="x" unicode="x" horiz-adv-x="942" 
d="M860 983l-338 -471l369 -512h-113l-317 440l-318 -440h-112l368 512l-338 471h113l287 -399l287 399h112z" />
    <glyph glyph-name="y" unicode="y" horiz-adv-x="983" 
d="M358 -184l72 184.001l-399 983h102l348 -860l348 860h103l-471 -1167c-35.333 -88.667 -74.166 -151.834 -116.499 -189.501s-99.166 -56.5 -170.499 -56.5c-15.333 0 -30.833 1.66699 -46.5 5s-26.834 7 -33.501 11l-12 4v93c27.333 -13.333 58 -20.333 92 -21
c45.333 0 82.166 12.333 110.499 37s52.833 63.667 73.5 117z" />
    <glyph glyph-name="z" unicode="z" horiz-adv-x="911" 
d="M809 983v-92l-635 -799h655v-92h-768v92l635 799h-614v92h727z" />
    <glyph glyph-name="braceleft" unicode="{" horiz-adv-x="727" 
d="M133 471l-0.00195312 82c102.667 0 154 51.333 154 154v481c0 83.333 24.833 148.5 74.5 195.5s120.167 70.5 211.5 70.5h72v-92h-72c-130 0 -194.667 -58 -194 -174v-481c0 -49.333 -11.333 -90 -34 -122s-44.667 -52.333 -66 -61l-33 -12c4 -1.33301 8.66699 -3 14 -5
s15.833 -7.5 31.5 -16.5s29.334 -20 41.001 -33s22.334 -32.167 32.001 -57.5s14.5 -53 14.5 -83v-481c0 -116 64.667 -174 194 -174h72v-92h-72c-91.333 0 -161.833 23.5 -211.5 70.5s-74.5 112.167 -74.5 195.5v481c0 102.667 -51.333 154 -154 154z" />
    <glyph glyph-name="bar" unicode="|" horiz-adv-x="665" 
d="M379 1454v-1884h-92v1884h92z" />
    <glyph glyph-name="braceright" unicode="}" horiz-adv-x="727" 
d="M594 553l0.00195312 -82.001c-102.667 0 -154 -51.333 -154 -154v-481c0 -83.333 -24.833 -148.5 -74.5 -195.5s-120.167 -70.5 -211.5 -70.5h-72v92h72c130 0 194.667 58 194 174v481c0 30 4.5 57.333 13.5 82s20 43.834 33 57.501s26.333 25 40 34
s24.5 14.833 32.5 17.5l14 4c-4 1.33301 -8.66699 3 -14 5s-15.833 7.5 -31.5 16.5s-29.334 20 -41.001 33s-22.334 32.167 -32.001 57.5s-14.5 53 -14.5 83v481c0 116 -64.667 174 -194 174h-72v92h72c91.333 0 161.833 -23.5 211.5 -70.5s74.5 -112.167 74.5 -195.5v-481
c0 -102.667 51.333 -154 154 -154z" />
    <glyph glyph-name="asciitilde" unicode="~" horiz-adv-x="1064" 
d="M338 625c-39.333 0 -74.5 -10.333 -105.5 -31s-51.833 -41.334 -62.5 -62.001l-16 -30l-72 51c2.66699 4 6 9.83301 10 17.5s13.833 21 29.5 40s32.834 35.667 51.501 50s42.667 27.333 72 39s60.333 17.5 93 17.5c54.667 0 103.834 -12 147.501 -36
s84.334 -48 122.001 -72s77.5 -36 119.5 -36c39.333 0 74.5 10.333 105.5 31s51.833 41.334 62.5 62.001l16 30l72 -51c-2.66699 -4 -6 -9.83301 -10 -17.5s-13.833 -21 -29.5 -40s-32.834 -35.667 -51.501 -50s-42.667 -27.333 -72 -39s-60.333 -17.5 -93 -17.5
c-54.667 0 -103.834 12 -147.501 36s-84.334 48 -122.001 72s-77.5 36 -119.5 36z" />
    <glyph glyph-name="uni00A0" unicode="&#xa0;" horiz-adv-x="378" 
 />
    <glyph glyph-name="exclamdown" unicode="&#xa1;" horiz-adv-x="573" 
d="M246 655h82l20 -1085h-123zM215 921.5c0 20.333 6.83301 37.333 20.5 51s30.667 20.5 51 20.5s37.333 -6.83301 51 -20.5s20.5 -30.667 20.5 -51s-6.83301 -37.333 -20.5 -51s-30.667 -20.5 -51 -20.5s-37.333 6.83301 -51 20.5s-20.5 30.667 -20.5 51z" />
    <glyph glyph-name="cent" unicode="&#xa2;" horiz-adv-x="1054" 
d="M92 492c0 132.667 43.6709 248.332 131.004 346.999s190.333 152.667 309 162v207h93v-209c66.667 -8 128 -28.667 184 -62s95.667 -64.333 119 -93l35 -45l-72 -62c-2.66699 4 -6.83398 10.167 -12.501 18.5s-18.334 22.333 -38.001 42s-40.834 37.334 -63.501 53.001
s-52.334 29.667 -89.001 42s-75 18.5 -115 18.5c-104 0 -194.833 -40.833 -272.5 -122.5s-116.5 -180.667 -116.5 -297s39 -215.333 117 -297s168.667 -122.5 272 -122.5c64 0 122.333 14.667 175 44s90 58.333 112 87l31 43l72 -62c-2.66699 -4 -7.16699 -10 -13.5 -18
s-20 -22.667 -41 -44s-43.5 -40.5 -67.5 -57.5s-55.5 -33.333 -94.5 -49s-79.5 -26.167 -121.5 -31.5v-209h-93v207c-120 9.33301 -223.333 62.833 -310 160.5s-130 214.167 -130 349.5z" />
    <glyph glyph-name="sterling" unicode="&#xa3;" horiz-adv-x="1126" 
d="M297 1024c0 126.667 38.5 229.999 115.5 309.999s175.167 120 294.5 120c44 0 86.333 -6.16699 127 -18.5s74.334 -26.666 101.001 -42.999s50.167 -33 70.5 -50s35.5 -31.833 45.5 -44.5l14 -18l-72 -72c-8 10.667 -19.167 24 -33.5 40s-46.5 37.333 -96.5 64
s-102 40 -156 40c-87.333 0 -160.5 -30.833 -219.5 -92.5s-88.5 -140.167 -88.5 -235.5v-307h420v-103h-420v-358c0 -32.667 -7.83301 -62 -23.5 -88s-30.834 -43.667 -45.501 -53l-23 -13h758v-102h-932v102c45.333 0 84 16.5 116 49.5s48 67.833 48 104.5v358h-143v103
h143v307z" />
    <glyph glyph-name="currency" unicode="&#xa4;" horiz-adv-x="1351" 
d="M102 594l-0.00195312 102.002h174v738h512c126.667 0 231.834 -40.333 315.501 -121s125.5 -180.334 125.5 -299.001s-41.667 -218.334 -125 -299.001s-188.666 -121 -315.999 -121h-409v-205h530v-102h-530v-287h-103v287h-174v102h174v205h-174zM787.998 1331h-409
v-635h409c101.333 0 183 29.667 245 89s93 135.5 93 228.5s-31 169.167 -93 228.5s-143.667 89 -245 89z" />
    <glyph glyph-name="yen" unicode="&#xa5;" horiz-adv-x="1269" 
d="M174 1434l461 -809l461 809h123l-461 -809h266v-93h-317l-21 -30v-154h338v-92h-338v-256h-102v256h-338v92h338v154l-21 30h-317v93h266l-461 809h123z" />
    <glyph glyph-name="brokenbar" unicode="&#xa6;" horiz-adv-x="665" 
d="M287 348h92v-778h-92v778zM379 676h-92v778h92v-778z" />
    <glyph glyph-name="section" unicode="&#xa7;" horiz-adv-x="1081" 
d="M215 655c0 -36.667 9.5 -69.666 28.5 -98.999s47 -54.5 84 -75.5s70.5 -37.667 100.5 -50s68.167 -26 114.5 -41s77.166 -25.5 92.499 -31.5c5.33301 1.33301 12.833 3.5 22.5 6.5s27.167 10.667 52.5 23s47.166 26.333 65.499 42s35.333 37.167 51 64.5
s23.5 57.333 23.5 90c0 36.667 -9.5 69.667 -28.5 99s-47 54.666 -84 75.999s-70.5 38 -100.5 50s-68.167 25.5 -114.5 40.5s-77.166 25.5 -92.499 31.5c-5.33301 -1.33301 -12.833 -3.5 -22.5 -6.5s-27.167 -10.5 -52.5 -22.5s-47.166 -26 -65.499 -42
s-35.333 -37.667 -51 -65s-23.5 -57.333 -23.5 -90zM942 584.001c0 -38 -7.83105 -73.498 -23.498 -106.498s-34.5 -59.333 -56.5 -79s-43.833 -37 -65.5 -52s-40.167 -25.5 -55.5 -31.5l-24 -8c4 -1.33301 9.33301 -3.66602 16 -6.99902s19 -11.5 37 -24.5
s33.833 -27.333 47.5 -43s25.834 -37.167 36.501 -64.5s16 -56 16 -86c0 -84.667 -33.333 -157 -100 -217s-152.667 -90 -258 -90c-42 0 -82.5 6.16699 -121.5 18.5s-71.833 26.666 -98.5 42.999s-49.834 33 -69.501 50s-34.5 31.5 -44.5 43.5l-14 19l72 71
c2.66699 -4 6.66699 -9.33301 12 -16s16.833 -18.834 34.5 -36.501s36.5 -33.334 56.5 -47.001s45.667 -26 77 -37s63.333 -16.5 96 -16.5c79.333 0 143.5 21.167 192.5 63.5s73.5 92.833 73.5 151.5c0 50.667 -22.5 93 -67.5 127s-99.5 62 -163.5 84
s-128.167 45.5 -192.5 70.5s-119 61.833 -164 110.5s-67.5 109 -67.5 181c0 38 7.83301 73.5 23.5 106.5s34.5 59.667 56.5 80s43.833 37.666 65.5 51.999s40.167 24.5 55.5 30.5l24 8c-4 1.33301 -9.33301 3.66602 -16 6.99902s-19 11.5 -37 24.5s-33.833 27.333 -47.5 43
s-25.834 37.167 -36.501 64.5s-16 56 -16 86c0 84.667 31.667 155.334 95 212.001s147.666 85 252.999 85c60 0 116.667 -12 170 -36s91.333 -47.333 114 -70l33 -37l-72 -72c-6.66699 9.33301 -16.5 20.833 -29.5 34.5s-41 31.834 -84 54.501s-86.833 34 -131.5 34
c-79.333 0 -141.833 -19.5 -187.5 -58.5s-68.5 -87.833 -68.5 -146.5c0 -50.667 22.5 -93 67.5 -127s99.5 -62 163.5 -84s128.167 -45.5 192.5 -70.5s119 -61.667 164 -110s67.5 -108.833 67.5 -181.5z" />
    <glyph glyph-name="dieresis" unicode="&#xa8;" horiz-adv-x="624" 
d="M61 1300.5c0 20.333 6.83301 37.333 20.5 51s30.834 20.5 51.501 20.5s37.834 -6.83301 51.501 -20.5s20.5 -30.667 20.5 -51s-6.83301 -37.333 -20.5 -51s-30.834 -20.5 -51.501 -20.5s-37.834 6.83301 -51.501 20.5s-20.5 30.667 -20.5 51zM420 1300.5
c0 20.333 6.83301 37.333 20.5 51s30.667 20.5 51 20.5s37.333 -6.83301 51 -20.5s20.5 -30.667 20.5 -51s-6.83301 -37.333 -20.5 -51s-30.667 -20.5 -51 -20.5s-37.333 6.83301 -51 20.5s-20.5 30.667 -20.5 51z" />
    <glyph glyph-name="copyright" unicode="&#xa9;" horiz-adv-x="1781" 
d="M891 1454c204.667 0 378.667 -71.667 522 -215s215 -317.333 215 -522s-71.667 -378.667 -215 -522s-317.333 -215 -522 -215s-378.667 71.667 -522 215s-215 317.333 -215 522s71.667 378.667 215 522s317.333 215 522 215zM890.5 72c184.333 0 338 61.333 461 184
s184.5 276.167 184.5 460.5s-61.5 338 -184.5 461s-276.667 184.5 -461 184.5s-337.833 -61.5 -460.5 -184.5s-184 -276.667 -184 -461s61.333 -337.833 184 -460.5s276.167 -184 460.5 -184zM614 717c0 -86 27.3311 -156.999 81.998 -212.999s123 -84 205 -84
c46.667 0 89.834 10.167 129.501 30.5s67.5 40.833 83.5 61.5l23 31l61 -62c-2.66699 -4 -6.66699 -9.33301 -12 -16s-17.333 -19 -36 -37s-38.5 -33.833 -59.5 -47.5s-48.667 -25.834 -83 -36.501s-69.833 -16 -106.5 -16c-108 0 -198.167 36.833 -270.5 110.5
s-108.5 166.5 -108.5 278.5s36.167 204.833 108.5 278.5s162.5 110.5 270.5 110.5c57.333 0 111 -13 161 -39s85 -51.333 105 -76l31 -39l-61 -61c-2.66699 2.66699 -6.16699 7 -10.5 13s-13.666 15.833 -27.999 29.5s-30 26 -47 37s-38.833 21 -65.5 30s-55 13.5 -85 13.5
c-82 0 -150.333 -28 -205 -84s-82 -127 -82 -213z" />
    <glyph glyph-name="ordfeminine" unicode="&#xaa;" horiz-adv-x="655" 
d="M256 829c-54.667 0 -98.998 15.833 -132.998 47.5s-51 70.667 -51 117s16.667 86.166 50 119.499s78 55 134 65l215 41c0 102.667 -51.333 153.667 -154 153c-27.333 0 -52.833 -6.83301 -76.5 -20.5s-41.167 -27.167 -52.5 -40.5l-14 -21l-61 51
c5.33301 8 13.166 18.333 23.499 31s33.166 29.5 68.499 50.5s72.666 31.5 111.999 31.5c69.333 0 126 -19.833 170 -59.5s66 -88.167 66 -145.5v-399h-82v92c-4 -8 -10.833 -18.167 -20.5 -30.5s-33.167 -29.166 -70.5 -50.499s-78.666 -32 -123.999 -32zM471.002 1137
l-215 -41.002c-68 -13.333 -102 -47.666 -102 -102.999c0 -22 10.167 -41.167 30.5 -57.5s47.5 -24.5 81.5 -24.5c61.333 0 110.833 18.833 148.5 56.5s56.5 87.834 56.5 150.501v19z" />
    <glyph glyph-name="guillemotleft" unicode="&#xab;" horiz-adv-x="901" 
d="M338 164l-236 328l236 327h113l-236 -327l236 -328h-113zM686 164l-235 328l235 327h113l-236 -327l236 -328h-113z" />
    <glyph glyph-name="logicalnot" unicode="&#xac;" horiz-adv-x="931" 
d="M840 778v-379h-103v287h-645v92h748z" />
    <glyph glyph-name="uni00AD" unicode="&#xad;" horiz-adv-x="860" 
d="M768 645v-92h-676v92h676z" />
    <glyph glyph-name="registered" unicode="&#xae;" horiz-adv-x="1781" 
d="M1024 666l174 -328h-102l-164 307h-195v-307h-92v758h266c76.667 0 138.5 -21.833 185.5 -65.5s70.5 -97.167 70.5 -160.5c0 -45.333 -11.833 -85 -35.5 -119s-47.167 -56.333 -70.5 -67zM737 1004v-267h174c109.333 0 164 44.5 164 133.5s-54.667 133.5 -164 133.5h-174
zM891 1454c204.667 0 378.667 -71.667 522 -215s215 -317.333 215 -522s-71.667 -378.667 -215 -522s-317.333 -215 -522 -215s-378.667 71.667 -522 215s-215 317.333 -215 522s71.667 378.667 215 522s317.333 215 522 215zM890.5 72c184.333 0 338 61.333 461 184
s184.5 276.167 184.5 460.5s-61.5 338 -184.5 461s-276.667 184.5 -461 184.5s-337.833 -61.5 -460.5 -184.5s-184 -276.667 -184 -461s61.333 -337.833 184 -460.5s276.167 -184 460.5 -184z" />
    <glyph glyph-name="macron" unicode="&#xaf;" horiz-adv-x="675" 
d="M614 1403v-82h-553v82h553z" />
    <glyph glyph-name="degree" unicode="&#xb0;" horiz-adv-x="716" 
d="M184 1188c0 -52 16.5 -94 49.5 -126s74.667 -48 125 -48s91.833 16 124.5 48s49 74 49 126s-16.333 94 -49 126s-74.167 48 -124.5 48s-92 -16 -125 -48s-49.5 -74 -49.5 -126zM625 1188c0 -76.667 -25.333 -140.167 -76 -190.5s-114.167 -75.5 -190.5 -75.5
s-139.833 25.167 -190.5 75.5s-76 113.833 -76 190.5s25.333 140.167 76 190.5s114.167 75.5 190.5 75.5s139.833 -25.167 190.5 -75.5s76 -113.833 76 -190.5z" />
    <glyph glyph-name="plusminus" unicode="&#xb1;" horiz-adv-x="1034" 
d="M92 92v92h850v-92h-850zM471 1219h92v-400h379v-92h-379v-399h-92v399h-379v92h379v400z" />
    <glyph glyph-name="uni00B2" unicode="&#xb2;" horiz-adv-x="583" 
d="M522 922l-471 -0.000976562c0 57.333 13.333 108.5 40 153.5s59.167 81.833 97.5 110.5s76.5 55.667 114.5 81s70.333 52.666 97 81.999s40 60.333 40 93s-14 61.667 -42 87s-61.667 38 -101 38c-36.667 0 -68.667 -10.333 -96 -31s-45.333 -41 -54 -61l-14 -31l-72 31
c1.33301 4 3.5 10 6.5 18s11 22 24 42s27.333 37.833 43 53.5s38.167 29.667 67.5 42s61 18.5 95 18.5c68 0 122.5 -20.5 163.5 -61.5s61.5 -89.5 61.5 -145.5c0 -53.333 -17 -100.5 -51 -141.5s-72.5 -73.167 -115.5 -96.5s-86.333 -52.666 -130 -87.999
s-72.5 -72.666 -86.5 -111.999h383v-82z" />
    <glyph glyph-name="uni00B3" unicode="&#xb3;" horiz-adv-x="604" 
d="M420 1300c2.66699 0 6.99902 -1.00098 12.999 -3.00098s15.833 -6.66699 29.5 -14s26 -16.833 37 -28.5s21 -28.834 30 -51.501s13.5 -48.334 13.5 -77.001c0 -58.667 -23.333 -109.167 -70 -151.5s-105.334 -63.5 -176.001 -63.5c-49.333 0 -95.166 10.333 -137.499 31
s-72.166 41.334 -89.499 62.001l-29 30l61 62c5.33301 -8 13.166 -17.5 23.499 -28.5s32.333 -26.167 66 -45.5s68.834 -29 105.501 -29c50.667 0 90.667 12.333 120 37s44 56.834 44 96.501s-14 71.834 -42 96.501s-67.333 37 -118 37h-96v81h92
c88.667 0 133 37.667 133 113c0 31.333 -12.667 58 -38 80s-60.333 33 -105 33c-32.667 0 -62.667 -7.83301 -90 -23.5s-46.666 -31.167 -57.999 -46.5l-16 -22l-62 61c5.33301 8 13.833 18.167 25.5 30.5s37 29.166 76 50.499s80.5 32 124.5 32
c65.333 0 119.166 -19.167 161.499 -57.5s63.5 -84.166 63.5 -137.499c0 -36.667 -7.5 -67.667 -22.5 -93s-30.833 -42 -47.5 -50z" />
    <glyph glyph-name="acute" unicode="&#xb4;" horiz-adv-x="389" 
d="M61 1157l154 266h113l-185 -266h-82z" />
    <glyph glyph-name="mu" unicode="&#xb5;" 
d="M891 164c-2.66699 -5.33301 -6.16699 -12.168 -10.5 -20.501s-15.666 -23 -33.999 -44s-38.333 -39.833 -60 -56.5s-51.667 -31.334 -90 -44.001s-79.5 -19 -123.5 -19c-60 0 -115.5 11.833 -166.5 35.5s-86.833 47.167 -107.5 70.5l-33 37v-553h-92v1413h92v-584
c0 -95.333 29.333 -173.666 88 -234.999s131.667 -92 219 -92c91.333 0 167.166 34 227.499 102s90.5 153.333 90.5 256v553h92v-799c0 -30 9.5 -54.5 28.5 -73.5s43.5 -28.5 73.5 -28.5c12 0 23.333 1 34 3s18 3.66699 22 5l6 4v-94c-13.333 -6.66699 -34 -10 -62 -10
c-54.667 0 -100.667 17.333 -138 52s-56 75.334 -56 122.001z" />
    <glyph glyph-name="paragraph" unicode="&#xb6;" horiz-adv-x="1071" 
d="M430 -205v983c-87.333 0 -163.833 32.833 -229.5 98.5s-98.5 142.167 -98.5 229.5s32.833 163.833 98.5 229.5s142.167 98.5 229.5 98.5h420v-1639h-92v1544h-236v-1544h-92z" />
    <glyph glyph-name="periodcentered" unicode="&#xb7;" horiz-adv-x="378" 
d="M123 512c0 20.667 6.83301 37.834 20.5 51.501s30.667 20.5 51 20.5s37.333 -6.83301 51 -20.5s20.5 -30.834 20.5 -51.501s-6.83301 -37.834 -20.5 -51.501s-30.667 -20.5 -51 -20.5s-37.333 6.83301 -51 20.5s-20.5 30.834 -20.5 51.501z" />
    <glyph glyph-name="cedilla" unicode="&#xb8;" horiz-adv-x="471" 
d="M225 41h71.998l-82 -164c6.66699 6.66699 23.667 10 51 10c40.667 0 74.834 -13.667 102.501 -41s41.5 -61.333 41.5 -102c0 -42 -17.167 -78.167 -51.5 -108.5s-78.833 -45.5 -133.5 -45.5c-27.333 0 -54.666 4.83301 -81.999 14.5s-47.666 18.5 -60.999 26.5l-21 15
l31 57c40.667 -34 85 -51 133 -51c35.333 0 63 8.5 83 25.5s30 39.167 30 66.5c0 20.667 -8.16699 39.5 -24.5 56.5s-35.5 25.5 -57.5 25.5c-12 0 -23.833 -1.66699 -35.5 -5s-20.834 -6.33301 -27.501 -9l-9 -7l-51 52z" />
    <glyph glyph-name="uni00B9" unicode="&#xb9;" horiz-adv-x="409" 
d="M215 1638l72 0.00195312v-716h-82v594c-27.333 -40.667 -75.333 -61.334 -144 -62.001v72c30 0 58 9.16699 84 27.5s44.667 37.166 56 56.499z" />
    <glyph glyph-name="ordmasculine" unicode="&#xba;" horiz-adv-x="737" 
d="M368.5 901c67 0 121.333 21.5 163 64.5s62.5 100 62.5 171s-20.833 128 -62.5 171s-96 64.5 -163 64.5s-121.333 -21.5 -163 -64.5s-62.5 -100 -62.5 -171s20.833 -128 62.5 -171s96 -64.5 163 -64.5zM369 819c-87.333 0 -160.5 30 -219.5 90s-88.5 135.833 -88.5 227.5
s29.5 167.5 88.5 227.5s132.167 90 219.5 90s160.333 -30 219 -90s88 -135.833 88 -227.5s-29.333 -167.5 -88 -227.5s-131.667 -90 -219 -90z" />
    <glyph glyph-name="guillemotright" unicode="&#xbb;" horiz-adv-x="901" 
d="M799 492l-236 -328h-112l235 328l-235 327h112zM451 492l-236 -328h-113l236 328l-236 327h113z" />
    <glyph glyph-name="onequarter" unicode="&#xbc;" horiz-adv-x="1361" 
d="M143 0l891 1434h92l-890 -1434h-93zM236 1434l71 0.00195312v-717h-82v594c-27.333 -40.667 -75 -61.334 -143 -62.001v72c30 0 58 9.16699 84 27.5s44.333 37.166 55 56.499zM1178 256.002h92v-82h-92v-174h-82v174h-348v82l327 461h103v-461zM1096 256.002v358
l-256 -358h256z" />
    <glyph glyph-name="onehalf" unicode="&#xbd;" horiz-adv-x="1413" 
d="M143 0l891 1434h92l-890 -1434h-93zM236 1434l71 0.00195312v-717h-82v594c-27.333 -40.667 -75 -61.334 -143 -62.001v72c30 0 58 9.16699 84 27.5s44.333 37.166 55 56.499zM1321 0.00195312h-470.999c0 57.333 13.333 108.5 40 153.5s59 81.833 97 110.5
s76.167 55.667 114.5 81s70.833 52.666 97.5 81.999s40 60.333 40 93s-14 61.667 -42 87s-61.667 38 -101 38c-36.667 0 -68.834 -10.167 -96.501 -30.5s-45.5 -40.833 -53.5 -61.5l-14 -31l-72 31c1.33301 4 3.33301 10.167 6 18.5s10.5 22.333 23.5 42
s27.333 37.334 43 53.001s38.167 29.667 67.5 42s61.333 18.5 96 18.5c68 0 122.5 -20.5 163.5 -61.5s61.5 -89.5 61.5 -145.5c0 -53.333 -17 -100.5 -51 -141.5s-72.5 -73 -115.5 -96s-86.5 -52.333 -130.5 -88s-72.667 -73.167 -86 -112.5h383v-82z" />
    <glyph glyph-name="threequarters" unicode="&#xbe;" horiz-adv-x="1495" 
d="M276 0l891 1434h93l-891 -1434h-93zM1311 256h92v-82h-92v-174h-82v174h-348v82l327 461h103v-461zM1229 256v358l-256 -358h256zM430 1096c2.66699 0 7.16699 -1.00098 13.5 -3.00098s16.333 -6.83301 30 -14.5s25.834 -17.334 36.501 -29.001s20.5 -28.667 29.5 -51
s13.5 -47.833 13.5 -76.5c0 -60 -23.167 -110.833 -69.5 -152.5s-105.166 -62.5 -176.499 -62.5c-49.333 0 -95.166 10.167 -137.499 30.5s-72.833 40.833 -91.5 61.5l-27 30l62 62c5.33301 -8 13.166 -17.5 23.499 -28.5s32.166 -26.167 65.499 -45.5s68.333 -29 105 -29
c50.667 0 90.667 12.333 120 37s44 56.834 44 96.501s-14 71.834 -42 96.501s-67.333 37 -118 37h-96v82h92c88.667 0 133 37.333 133 112c0 31.333 -12.5 58 -37.5 80s-60.167 33 -105.5 33c-32.667 0 -62.667 -7.83301 -90 -23.5s-46.333 -31.167 -57 -46.5l-17 -22
l-61 61c5.33301 8 13.833 18.167 25.5 30.5s36.834 29.166 75.501 50.499s80 32 124 32c65.333 0 119.166 -19.167 161.499 -57.5s63.5 -84.166 63.5 -137.499c0 -36.667 -7.83301 -67.667 -23.5 -93s-30.834 -42 -45.501 -50z" />
    <glyph glyph-name="questiondown" unicode="&#xbf;" horiz-adv-x="921" 
d="M461 655l91.999 -0.00585938c6.66699 -27.333 10 -58 10 -92c0 -61.333 -13.667 -116.166 -41 -164.499s-60.333 -88.666 -99 -120.999s-77.834 -63.5 -117.501 -93.5s-73.167 -66.5 -100.5 -109.5s-41 -91.833 -41 -146.5c0 -79.333 29.667 -145.166 89 -197.499
s139 -78.5 239 -78.5c53.333 0 101.333 8.5 144 25.5s75.667 37.5 99 61.5s42.5 47.833 57.5 71.5s25.167 44.5 30.5 62.5l6 25l93 -31c-2.66699 -8 -6.5 -19.167 -11.5 -33.5s-18.333 -40 -40 -77s-47.167 -69.167 -76.5 -96.5s-70.666 -52.666 -123.999 -75.999
s-112.666 -35 -177.999 -35c-125.333 0 -228.5 37 -309.5 111s-121.5 163.333 -121.5 268c0 58.667 10 111 30 157s44.667 81.833 74 107.5s61.333 52.834 96 81.501s66.667 55.334 96 80.001s54 58.5 74 101.5s30 92.5 30 148.5v51zM583.999 921.494
c0 -20.333 -6.83301 -37.333 -20.5 -51s-30.834 -20.5 -51.501 -20.5s-37.834 6.83301 -51.501 20.5s-20.5 30.667 -20.5 51s6.83301 37.333 20.5 51s30.834 20.5 51.501 20.5s37.834 -6.83301 51.501 -20.5s20.5 -30.667 20.5 -51z" />
    <glyph glyph-name="Agrave" unicode="&#xc0;" horiz-adv-x="1392" 
d="M1014 522l-318 768l-317 -768h635zM1055 420h-717l-174 -420h-113l594 1434h103l593 -1434h-112zM584 1894l153 -266h-82l-184 266h113z" />
    <glyph glyph-name="Aacute" unicode="&#xc1;" horiz-adv-x="1392" 
d="M1014 522l-318 768l-317 -768h635zM1055 420h-717l-174 -420h-113l594 1434h103l593 -1434h-112zM676 1628l153 266h113l-184 -266h-82z" />
    <glyph glyph-name="Acircumflex" unicode="&#xc2;" horiz-adv-x="1392" 
d="M1014 522l-318 768l-317 -768h635zM1055 420h-717l-174 -420h-113l594 1434h103l593 -1434h-112zM748 1894l215 -266h-93l-174 205l-174 -205h-92l215 266h103z" />
    <glyph glyph-name="Atilde" unicode="&#xc3;" horiz-adv-x="1392" 
d="M1014 522l-318 768l-317 -768h635zM1055 420h-717l-174 -420h-113l594 1434h103l593 -1434h-112zM567 1782c-23.333 0 -42.832 -12.667 -58.499 -38s-23.5 -64 -23.5 -116h-82c0 78 15.167 136.833 45.5 176.5s69.833 59.5 118.5 59.5c38 0 71.833 -13 101.5 -39
s56.667 -51.667 81 -77s48.833 -38 73.5 -38c23.333 0 42.833 12.667 58.5 38s23.5 64 23.5 116h82c0 -78 -15 -136.833 -45 -176.5s-69.667 -59.5 -119 -59.5c-30 0 -57.667 7.83301 -83 23.5s-45.5 33.5 -60.5 53.5s-32.333 37.833 -52 53.5s-39.834 23.5 -60.501 23.5z
" />
    <glyph glyph-name="Adieresis" unicode="&#xc4;" horiz-adv-x="1392" 
d="M1014 522l-318 768l-317 -768h635zM1055 420h-717l-174 -420h-113l594 1434h103l593 -1434h-112zM451 1759.5c0 20.333 6.83301 37.333 20.5 51s30.667 20.5 51 20.5s37.333 -6.83301 51 -20.5s20.5 -30.667 20.5 -51s-6.83301 -37.333 -20.5 -51
s-30.667 -20.5 -51 -20.5s-37.333 6.83301 -51 20.5s-20.5 30.667 -20.5 51zM809 1759.5c0 20.333 6.83301 37.333 20.5 51s30.667 20.5 51 20.5s37.333 -6.83301 51 -20.5s20.5 -30.667 20.5 -51s-6.83301 -37.333 -20.5 -51s-30.667 -20.5 -51 -20.5
s-37.333 6.83301 -51 20.5s-20.5 30.667 -20.5 51z" />
    <glyph glyph-name="Aring" unicode="&#xc5;" horiz-adv-x="1392" 
d="M1014 522l-318 768l-317 -768h635zM1055 420h-717l-174 -420h-113l594 1434h103l593 -1434h-112zM584 1761.5c0 -75 37.5 -112.5 112.5 -112.5s112.5 37.5 112.5 112.5s-37.5 112.5 -112.5 112.5s-112.5 -37.5 -112.5 -112.5zM891 1761c0 -56 -18.5 -102.333 -55.5 -139
s-83.5 -55 -139.5 -55s-102.333 18.333 -139 55s-55 83 -55 139s18.333 102.5 55 139.5s83 55.5 139 55.5s102.5 -18.5 139.5 -55.5s55.5 -83.5 55.5 -139.5z" />
    <glyph glyph-name="AE" unicode="&#xc6;" horiz-adv-x="1935" 
d="M1075 102h778v-102h-880v440h-656l-245 -440h-113l799 1434h1075v-103h-758v-532h594v-103h-594v-594zM811 1331l-442 -788h604v788h-162z" />
    <glyph glyph-name="Ccedilla" unicode="&#xc7;" horiz-adv-x="1536" 
d="M123 717c0 204.667 70.9971 378.666 212.997 521.999s313.333 215 514 215c72.667 0 142.334 -10.5 209.001 -31.5s121.834 -46.667 165.501 -77s82 -60.5 115 -90.5s56.833 -55 71.5 -75l23 -33l-72 -62c-4 6.66699 -10.5 16.334 -19.5 29.001
s-29.167 34.334 -60.5 65.001s-65.5 57.5 -102.5 80.5s-85.167 44.167 -144.5 63.5s-121 29 -185 29c-174.667 0 -322.5 -61.167 -443.5 -183.5s-181.5 -272.833 -181.5 -451.5s60.5 -329.167 181.5 -451.5s268.833 -183.5 443.5 -183.5
c65.333 0 127.666 9.16699 186.999 27.5s108.5 40.5 147.5 66.5s73.167 52 102.5 78s51 47.667 65 65l20 29l72 -61c-5.33301 -8 -13.5 -19 -24.5 -33s-35 -38.333 -72 -73s-76.333 -65.334 -118 -92.001s-95.834 -51.167 -162.501 -73.5s-135.667 -34.166 -207 -35.499
l-51 -103c6.66699 6.66699 23.667 10 51 10c40.667 0 74.834 -13.667 102.501 -41s41.5 -61.333 41.5 -102c0 -42 -17.167 -78.167 -51.5 -108.5s-78.833 -45.5 -133.5 -45.5c-27.333 0 -54.666 4.83301 -81.999 14.5s-47.666 18.5 -60.999 26.5l-21 15l31 57
c40.667 -34 85 -51 133 -51c35.333 0 63 8.5 83 25.5s30 39.167 30 66.5c0 20.667 -8.16699 39.5 -24.5 56.5s-35.5 25.5 -57.5 25.5c-12 0 -23.833 -1.66699 -35.5 -5s-21.167 -6.33301 -28.5 -9l-8 -7l-51 52l61 125c-187.333 15.333 -345 93.166 -473 233.499
s-192 307.5 -192 501.5z" />
    <glyph glyph-name="Egrave" unicode="&#xc8;" horiz-adv-x="1290" 
d="M328 102h880v-102h-983v1434h963v-103h-860v-532h696v-103h-696v-594zM625 1894l153 -266h-82l-184 266h113z" />
    <glyph glyph-name="Eacute" unicode="&#xc9;" horiz-adv-x="1290" 
d="M328 102h880v-102h-983v1434h963v-103h-860v-532h696v-103h-696v-594zM655 1628l154 266h113l-185 -266h-82z" />
    <glyph glyph-name="Ecircumflex" unicode="&#xca;" horiz-adv-x="1290" 
d="M328 102h880v-102h-983v1434h963v-103h-860v-532h696v-103h-696v-594zM758 1884l215 -266h-92l-174 205l-175 -205h-92l215 266h103z" />
    <glyph glyph-name="Edieresis" unicode="&#xcb;" horiz-adv-x="1290" 
d="M328 102h880v-102h-983v1434h963v-103h-860v-532h696v-103h-696v-594zM461 1751c0 20.667 6.83301 37.834 20.5 51.501s30.667 20.5 51 20.5s37.333 -6.83301 51 -20.5s20.5 -30.834 20.5 -51.501s-6.83301 -37.834 -20.5 -51.501s-30.667 -20.5 -51 -20.5
s-37.333 6.83301 -51 20.5s-20.5 30.834 -20.5 51.501zM819 1751c0 20.667 6.83301 37.834 20.5 51.501s30.834 20.5 51.501 20.5s37.834 -6.83301 51.501 -20.5s20.5 -30.834 20.5 -51.501s-6.83301 -37.834 -20.5 -51.501s-30.834 -20.5 -51.501 -20.5
s-37.834 6.83301 -51.501 20.5s-20.5 30.834 -20.5 51.501z" />
    <glyph glyph-name="Igrave" unicode="&#xcc;" horiz-adv-x="552" 
d="M225 0v1434h103v-1434h-103zM164 1894l153 -266h-81l-185 266h113z" />
    <glyph glyph-name="Iacute" unicode="&#xcd;" horiz-adv-x="552" 
d="M225 0v1434h103v-1434h-103zM248 1628l153 266h113l-184 -266h-82z" />
    <glyph glyph-name="Icircumflex" unicode="&#xce;" horiz-adv-x="552" 
d="M225 0v1434h103v-1434h-103zM328 1884l215 -266h-92l-175 205l-174 -205h-92l215 266h103z" />
    <glyph glyph-name="Idieresis" unicode="&#xcf;" horiz-adv-x="552" 
d="M225 0v1434h103v-1434h-103zM31 1751c0 20.667 6.83301 37.834 20.5 51.501s30.667 20.5 51 20.5s37.333 -6.83301 51 -20.5s20.5 -30.834 20.5 -51.501s-6.83301 -37.834 -20.5 -51.501s-30.667 -20.5 -51 -20.5s-37.333 6.83301 -51 20.5s-20.5 30.834 -20.5 51.501z
M389 1751c0 20.667 6.83301 37.834 20.5 51.501s30.834 20.5 51.501 20.5s37.667 -6.83301 51 -20.5s20 -30.834 20 -51.501s-6.66699 -37.834 -20 -51.501s-30.333 -20.5 -51 -20.5s-37.834 6.83301 -51.501 20.5s-20.5 30.834 -20.5 51.501z" />
    <glyph glyph-name="Eth" unicode="&#xd0;" horiz-adv-x="1536" 
d="M41 666v102.002h205v666h420c212.667 0 390.334 -69.333 533.001 -208s214 -308.334 214 -509.001s-71.333 -370.334 -214 -509.001s-320.334 -208 -533.001 -208h-420v666h-205zM666 1331h-318v-563h359v-102h-359v-564h318c188.667 0 343.334 58.5 464.001 175.5
s181 263.5 181 439.5s-60.333 322.333 -181 439s-275.334 175 -464.001 175z" />
    <glyph glyph-name="Ntilde" unicode="&#xd1;" horiz-adv-x="1587" 
d="M1260 1434h102v-1434h-82l-952 1239v-1239h-103v1434h82l953 -1239v1239zM666 1782c-23.333 0 -42.833 -12.667 -58.5 -38s-23.5 -64 -23.5 -116h-82c0 78 15 136.833 45 176.5s69.667 59.5 119 59.5c38 0 71.667 -13 101 -39s56.333 -51.667 81 -77
s49.334 -38 74.001 -38c23.333 0 42.833 12.667 58.5 38s23.5 64 23.5 116h81c0 -78 -15 -136.833 -45 -176.5s-69.333 -59.5 -118 -59.5c-30 0 -57.667 7.83301 -83 23.5s-45.5 33.5 -60.5 53.5s-32.333 37.833 -52 53.5s-39.834 23.5 -60.501 23.5z" />
    <glyph glyph-name="Ograve" unicode="&#xd2;" horiz-adv-x="1699" 
d="M1475 717c0 178.667 -60.5 329.167 -181.5 451.5s-268.833 183.5 -443.5 183.5s-322.5 -61.167 -443.5 -183.5s-181.5 -272.833 -181.5 -451.5s60.5 -329.167 181.5 -451.5s268.833 -183.5 443.5 -183.5s322.5 61.167 443.5 183.5s181.5 272.833 181.5 451.5zM1577 717
c0 -204.667 -70.667 -378.667 -212 -522s-313 -215 -515 -215c-200.667 0 -372 71.667 -514 215s-213 317.333 -213 522s71 378.667 213 522s313.333 215 514 215c202 0 373.667 -71.667 515 -215s212 -317.333 212 -522zM737 1894l154 -266h-82l-184 266h112z" />
    <glyph glyph-name="Oacute" unicode="&#xd3;" horiz-adv-x="1699" 
d="M1475 717c0 178.667 -60.5 329.167 -181.5 451.5s-268.833 183.5 -443.5 183.5s-322.5 -61.167 -443.5 -183.5s-181.5 -272.833 -181.5 -451.5s60.5 -329.167 181.5 -451.5s268.833 -183.5 443.5 -183.5s322.5 61.167 443.5 183.5s181.5 272.833 181.5 451.5zM1577 717
c0 -204.667 -70.667 -378.667 -212 -522s-313 -215 -515 -215c-200.667 0 -372 71.667 -514 215s-213 317.333 -213 522s71 378.667 213 522s313.333 215 514 215c202 0 373.667 -71.667 515 -215s212 -317.333 212 -522zM819 1628l154 266h112l-184 -266h-82z" />
    <glyph glyph-name="Ocircumflex" unicode="&#xd4;" horiz-adv-x="1699" 
d="M1475 717c0 178.667 -60.5 329.167 -181.5 451.5s-268.833 183.5 -443.5 183.5s-322.5 -61.167 -443.5 -183.5s-181.5 -272.833 -181.5 -451.5s60.5 -329.167 181.5 -451.5s268.833 -183.5 443.5 -183.5s322.5 61.167 443.5 183.5s181.5 272.833 181.5 451.5zM1577 717
c0 -204.667 -70.667 -378.667 -212 -522s-313 -215 -515 -215c-200.667 0 -372 71.667 -514 215s-213 317.333 -213 522s71 378.667 213 522s313.333 215 514 215c202 0 373.667 -71.667 515 -215s212 -317.333 212 -522zM901 1884l215 -266h-92l-174 205l-174 -205h-92
l215 266h102z" />
    <glyph glyph-name="Otilde" unicode="&#xd5;" horiz-adv-x="1699" 
d="M1475 717c0 178.667 -60.5 329.167 -181.5 451.5s-268.833 183.5 -443.5 183.5s-322.5 -61.167 -443.5 -183.5s-181.5 -272.833 -181.5 -451.5s60.5 -329.167 181.5 -451.5s268.833 -183.5 443.5 -183.5s322.5 61.167 443.5 183.5s181.5 272.833 181.5 451.5zM1577 717
c0 -204.667 -70.667 -378.667 -212 -522s-313 -215 -515 -215c-200.667 0 -372 71.667 -514 215s-213 317.333 -213 522s71 378.667 213 522s313.333 215 514 215c202 0 373.667 -71.667 515 -215s212 -317.333 212 -522zM727 1782c-23.333 0 -42.833 -12.667 -58.5 -38
s-23.5 -64 -23.5 -116h-82c0 78 15 136.833 45 176.5s69.667 59.5 119 59.5c38 0 71.667 -13 101 -39s56.333 -51.667 81 -77s49.334 -38 74.001 -38c23.333 0 42.833 12.667 58.5 38s23.5 64 23.5 116h82c0 -78 -15 -136.833 -45 -176.5s-69.667 -59.5 -119 -59.5
c-30 0 -57.667 7.83301 -83 23.5s-45.5 33.5 -60.5 53.5s-32.333 37.833 -52 53.5s-39.834 23.5 -60.501 23.5z" />
    <glyph glyph-name="Odieresis" unicode="&#xd6;" horiz-adv-x="1699" 
d="M1475 717c0 178.667 -60.5 329.167 -181.5 451.5s-268.833 183.5 -443.5 183.5s-322.5 -61.167 -443.5 -183.5s-181.5 -272.833 -181.5 -451.5s60.5 -329.167 181.5 -451.5s268.833 -183.5 443.5 -183.5s322.5 61.167 443.5 183.5s181.5 272.833 181.5 451.5zM1577 717
c0 -204.667 -70.667 -378.667 -212 -522s-313 -215 -515 -215c-200.667 0 -372 71.667 -514 215s-213 317.333 -213 522s71 378.667 213 522s313.333 215 514 215c202 0 373.667 -71.667 515 -215s212 -317.333 212 -522zM604 1751c0 20.667 6.83301 37.834 20.5 51.501
s30.834 20.5 51.501 20.5s37.834 -6.83301 51.501 -20.5s20.5 -30.834 20.5 -51.501s-6.83301 -37.834 -20.5 -51.501s-30.834 -20.5 -51.501 -20.5s-37.834 6.83301 -51.501 20.5s-20.5 30.834 -20.5 51.501zM963 1751c0 20.667 6.83301 37.834 20.5 51.501
s30.667 20.5 51 20.5s37.333 -6.83301 51 -20.5s20.5 -30.834 20.5 -51.501s-6.83301 -37.834 -20.5 -51.501s-30.667 -20.5 -51 -20.5s-37.333 6.83301 -51 20.5s-20.5 30.834 -20.5 51.501z" />
    <glyph glyph-name="multiply" unicode="&#xd7;" horiz-adv-x="921" 
d="M532 635l287 -287l-71 -72l-287 287l-287 -287l-72 72l287 287l-287 287l72 71l287 -286l287 286l71 -71z" />
    <glyph glyph-name="Oslash" unicode="&#xd8;" horiz-adv-x="1699" 
d="M1475 717c0 72.667 -12 143 -36 211s-47.667 117.667 -71 149l-37 49l-891 -890c10.667 -10.667 27 -24.667 49 -42s68.5 -40.333 139.5 -69s144.833 -43 221.5 -43c174.667 0 322.5 61.167 443.5 183.5s181.5 272.833 181.5 451.5zM1260 1198
c-10.667 10.667 -27 24.666 -49 41.999s-68.5 40.333 -139.5 69s-144.833 43 -221.5 43c-174.667 0 -322.5 -61.167 -443.5 -183.5s-181.5 -272.833 -181.5 -451.5c0 -72.667 12 -143.167 36 -211.5s47.667 -118.166 71 -149.499l37 -49zM1577 716.999
c0 -204.667 -70.667 -378.66 -212 -521.993s-313 -215 -515 -215c-56 0 -110.667 6.33301 -164 19s-98.333 28 -135 46s-69.334 35.833 -98.001 53.5s-50 32.5 -64 44.5l-20 21l-185 -195l-71 72l184 195c-4 5.33301 -10.167 12.666 -18.5 21.999s-22.333 30.5 -42 63.5
s-37.334 67.167 -53.001 102.5s-29.667 79.666 -42 132.999s-18.5 106.666 -18.5 159.999c0 204.667 71 378.667 213 522s313.333 215 514 215c56 0 110.667 -6.5 164 -19.5s98.333 -28.333 135 -46s69.334 -35.334 98.001 -53.001s50 -32.834 64 -45.501l20 -20l185 194
l71 -71l-184 -195c4 -5.33301 10.167 -12.833 18.5 -22.5s22.333 -30.834 42 -63.501s37.334 -66.834 53.001 -102.501s29.667 -80 42 -133s18.5 -106.167 18.5 -159.5z" />
    <glyph glyph-name="Ugrave" unicode="&#xd9;" horiz-adv-x="1536" 
d="M768 82c128.667 0 237.667 45.333 327 136s134 202.334 134 335.001v881h102v-881c0 -158.667 -55.333 -293.834 -166 -405.501s-243 -167.5 -397 -167.5s-286.333 55.833 -397 167.5s-166 246.834 -166 405.501v881h102v-881c0 -132.667 44.667 -244.334 134 -335.001
s198.333 -136 327 -136zM686 1894l154 -266h-82l-185 266h113z" />
    <glyph glyph-name="Uacute" unicode="&#xda;" horiz-adv-x="1536" 
d="M768 82c128.667 0 237.667 45.333 327 136s134 202.334 134 335.001v881h102v-881c0 -158.667 -55.333 -293.834 -166 -405.501s-243 -167.5 -397 -167.5s-286.333 55.833 -397 167.5s-166 246.834 -166 405.501v881h102v-881c0 -132.667 44.667 -244.334 134 -335.001
s198.333 -136 327 -136zM717 1628l153 266h113l-184 -266h-82z" />
    <glyph glyph-name="Ucircumflex" unicode="&#xdb;" horiz-adv-x="1536" 
d="M768 82c128.667 0 237.667 45.333 327 136s134 202.334 134 335.001v881h102v-881c0 -158.667 -55.333 -293.834 -166 -405.501s-243 -167.5 -397 -167.5s-286.333 55.833 -397 167.5s-166 246.834 -166 405.501v881h102v-881c0 -132.667 44.667 -244.334 134 -335.001
s198.333 -136 327 -136zM819 1884l215 -266h-92l-174 205l-174 -205h-92l215 266h102z" />
    <glyph glyph-name="Udieresis" unicode="&#xdc;" horiz-adv-x="1536" 
d="M768 82c128.667 0 237.667 45.333 327 136s134 202.334 134 335.001v881h102v-881c0 -158.667 -55.333 -293.834 -166 -405.501s-243 -167.5 -397 -167.5s-286.333 55.833 -397 167.5s-166 246.834 -166 405.501v881h102v-881c0 -132.667 44.667 -244.334 134 -335.001
s198.333 -136 327 -136zM512 1751c0 20.667 6.83301 37.834 20.5 51.501s30.667 20.5 51 20.5s37.333 -6.83301 51 -20.5s20.5 -30.834 20.5 -51.501s-6.83301 -37.834 -20.5 -51.501s-30.667 -20.5 -51 -20.5s-37.333 6.83301 -51 20.5s-20.5 30.834 -20.5 51.501z
M870 1751c0 20.667 6.83301 37.834 20.5 51.501s30.834 20.5 51.501 20.5s37.834 -6.83301 51.501 -20.5s20.5 -30.834 20.5 -51.501s-6.83301 -37.834 -20.5 -51.501s-30.834 -20.5 -51.501 -20.5s-37.834 6.83301 -51.501 20.5s-20.5 30.834 -20.5 51.501z" />
    <glyph glyph-name="Yacute" unicode="&#xdd;" horiz-adv-x="1269" 
d="M174 1434l461 -820l461 820h123l-533 -932v-502h-102v502l-533 932h123zM604 1628l154 266h112l-184 -266h-82z" />
    <glyph glyph-name="Thorn" unicode="&#xde;" horiz-adv-x="1310" 
d="M328 1167v-859.999h297c136.667 0 247.5 40.667 332.5 122s127.5 184.166 127.5 308.499s-42.667 227 -128 308s-196 121.5 -332 121.5h-297zM328 1270l297 -0.00195312c162.667 0 297.167 -51.167 403.5 -153.5s159.5 -228.666 159.5 -378.999
s-53.333 -276.666 -160 -378.999s-241 -153.5 -403 -153.5h-297v-246h-103v1516h103v-205z" />
    <glyph glyph-name="germandbls" unicode="&#xdf;" horiz-adv-x="1167" 
d="M748 788c8 -1.33301 18.834 -4.33398 32.501 -9.00098s38.167 -16.5 73.5 -35.5s66.666 -41.5 93.999 -67.5s52 -62.5 74 -109.5s33 -99.167 33 -156.5c0 -113.333 -41.333 -210 -124 -290s-184.667 -120 -306 -120h-72v102h72c101.333 0 183 29 245 87
s93 131.667 93 221c0 87.333 -32.5 162 -97.5 224s-145.167 93 -240.5 93h-72v92h10c80.667 0 150.334 28 209.001 84s88 120.333 88 193c0 74 -28 136.833 -84 188.5s-127 77.5 -213 77.5s-157 -26.667 -213 -80s-84 -119 -84 -197v-1085h-92v1085
c0 104 36.833 191.5 110.5 262.5s166.5 106.5 278.5 106.5c110.667 0 203.167 -35.167 277.5 -105.5s111.5 -154.5 111.5 -252.5c0 -39.333 -7.16699 -77.166 -21.5 -113.499s-31.333 -65.833 -51 -88.5s-39.334 -42.167 -59.001 -58.5s-36.5 -28.5 -50.5 -36.5z" />
    <glyph glyph-name="agrave" unicode="&#xe0;" horiz-adv-x="1024" 
d="M369 553l389.004 61.001c0 84.667 -26.333 155.334 -79 212.001s-118.667 85 -198 85c-53.333 0 -103.833 -11.833 -151.5 -35.5s-82.5 -47.834 -104.5 -72.501l-30 -35l-62 61c4 4 9.16699 10.167 15.5 18.5s20.666 22.5 42.999 42.5s46.166 37.833 71.499 53.5
s57.833 29.667 97.5 42s79.834 18.5 120.501 18.5c105.333 0 193.166 -37.333 263.499 -112s105.5 -167.334 105.5 -278.001v-614h-92v164c-2.66699 -5.33301 -7.16699 -12.166 -13.5 -20.499s-20.333 -23 -42 -44s-45.167 -39.833 -70.5 -56.5
s-58.833 -31.334 -100.5 -44.001s-85.834 -19 -132.501 -19c-94 0 -172 27.5 -234 82.5s-93 119.5 -93 193.5c0 76.667 26.667 142 80 196s125.666 87.667 216.999 101zM399.004 72.001c102.667 0 188.167 34 256.5 102s102.5 153.333 102.5 256v92l-369 -61
c-150 -24.667 -225 -93 -225 -205c0 -49.333 22.167 -92.333 66.5 -129s100.5 -55 168.5 -55zM399.004 1423l154 -266h-82l-184 266h112z" />
    <glyph glyph-name="aacute" unicode="&#xe1;" horiz-adv-x="1024" 
d="M369 553l389.004 61.001c0 84.667 -26.333 155.334 -79 212.001s-118.667 85 -198 85c-53.333 0 -103.833 -11.833 -151.5 -35.5s-82.5 -47.834 -104.5 -72.501l-30 -35l-62 61c4 4 9.16699 10.167 15.5 18.5s20.666 22.5 42.999 42.5s46.166 37.833 71.499 53.5
s57.833 29.667 97.5 42s79.834 18.5 120.501 18.5c105.333 0 193.166 -37.333 263.499 -112s105.5 -167.334 105.5 -278.001v-614h-92v164c-2.66699 -5.33301 -7.16699 -12.166 -13.5 -20.499s-20.333 -23 -42 -44s-45.167 -39.833 -70.5 -56.5
s-58.833 -31.334 -100.5 -44.001s-85.834 -19 -132.501 -19c-94 0 -172 27.5 -234 82.5s-93 119.5 -93 193.5c0 76.667 26.667 142 80 196s125.666 87.667 216.999 101zM399.004 72.001c102.667 0 188.167 34 256.5 102s102.5 153.333 102.5 256v92l-369 -61
c-150 -24.667 -225 -93 -225 -205c0 -49.333 22.167 -92.333 66.5 -129s100.5 -55 168.5 -55zM451.004 1157l153 266h113l-185 -266h-81z" />
    <glyph glyph-name="acircumflex" unicode="&#xe2;" horiz-adv-x="1024" 
d="M369 553l389.004 61.001c0 84.667 -26.333 155.334 -79 212.001s-118.667 85 -198 85c-53.333 0 -103.833 -11.833 -151.5 -35.5s-82.5 -47.834 -104.5 -72.501l-30 -35l-62 61c4 4 9.16699 10.167 15.5 18.5s20.666 22.5 42.999 42.5s46.166 37.833 71.499 53.5
s57.833 29.667 97.5 42s79.834 18.5 120.501 18.5c105.333 0 193.166 -37.333 263.499 -112s105.5 -167.334 105.5 -278.001v-614h-92v164c-2.66699 -5.33301 -7.16699 -12.166 -13.5 -20.499s-20.333 -23 -42 -44s-45.167 -39.833 -70.5 -56.5
s-58.833 -31.334 -100.5 -44.001s-85.834 -19 -132.501 -19c-94 0 -172 27.5 -234 82.5s-93 119.5 -93 193.5c0 76.667 26.667 142 80 196s125.666 87.667 216.999 101zM399.004 72.001c102.667 0 188.167 34 256.5 102s102.5 153.333 102.5 256v92l-369 -61
c-150 -24.667 -225 -93 -225 -205c0 -49.333 22.167 -92.333 66.5 -129s100.5 -55 168.5 -55zM553.004 1423l215 -266h-92l-174 205l-174 -205h-92l215 266h102z" />
    <glyph glyph-name="atilde" unicode="&#xe3;" horiz-adv-x="1024" 
d="M369 553l389.004 61.001c0 84.667 -26.333 155.334 -79 212.001s-118.667 85 -198 85c-53.333 0 -103.833 -11.833 -151.5 -35.5s-82.5 -47.834 -104.5 -72.501l-30 -35l-62 61c4 4 9.16699 10.167 15.5 18.5s20.666 22.5 42.999 42.5s46.166 37.833 71.499 53.5
s57.833 29.667 97.5 42s79.834 18.5 120.501 18.5c105.333 0 193.166 -37.333 263.499 -112s105.5 -167.334 105.5 -278.001v-614h-92v164c-2.66699 -5.33301 -7.16699 -12.166 -13.5 -20.499s-20.333 -23 -42 -44s-45.167 -39.833 -70.5 -56.5
s-58.833 -31.334 -100.5 -44.001s-85.834 -19 -132.501 -19c-94 0 -172 27.5 -234 82.5s-93 119.5 -93 193.5c0 76.667 26.667 142 80 196s125.666 87.667 216.999 101zM399.004 72.001c102.667 0 188.167 34 256.5 102s102.5 153.333 102.5 256v92l-369 -61
c-150 -24.667 -225 -93 -225 -205c0 -49.333 22.167 -92.333 66.5 -129s100.5 -55 168.5 -55zM379.004 1311c-23.333 0 -42.833 -12.667 -58.5 -38s-23.5 -64 -23.5 -116h-82c0 78 15 136.833 45 176.5s69.667 59.5 119 59.5c38 0 71.667 -13 101 -39s56.333 -51.667 81 -77
s49.334 -38 74.001 -38c23.333 0 42.833 12.667 58.5 38s23.5 64 23.5 116h82c0 -78 -15 -136.833 -45 -176.5s-69.667 -59.5 -119 -59.5c-30 0 -57.667 7.83301 -83 23.5s-45.5 33.5 -60.5 53.5s-32.333 37.833 -52 53.5s-39.834 23.5 -60.501 23.5z" />
    <glyph glyph-name="adieresis" unicode="&#xe4;" horiz-adv-x="1024" 
d="M369 553l389.004 61.001c0 84.667 -26.333 155.334 -79 212.001s-118.667 85 -198 85c-53.333 0 -103.833 -11.833 -151.5 -35.5s-82.5 -47.834 -104.5 -72.501l-30 -35l-62 61c4 4 9.16699 10.167 15.5 18.5s20.666 22.5 42.999 42.5s46.166 37.833 71.499 53.5
s57.833 29.667 97.5 42s79.834 18.5 120.501 18.5c105.333 0 193.166 -37.333 263.499 -112s105.5 -167.334 105.5 -278.001v-614h-92v164c-2.66699 -5.33301 -7.16699 -12.166 -13.5 -20.499s-20.333 -23 -42 -44s-45.167 -39.833 -70.5 -56.5
s-58.833 -31.334 -100.5 -44.001s-85.834 -19 -132.501 -19c-94 0 -172 27.5 -234 82.5s-93 119.5 -93 193.5c0 76.667 26.667 142 80 196s125.666 87.667 216.999 101zM399.004 72.001c102.667 0 188.167 34 256.5 102s102.5 153.333 102.5 256v92l-369 -61
c-150 -24.667 -225 -93 -225 -205c0 -49.333 22.167 -92.333 66.5 -129s100.5 -55 168.5 -55zM256.004 1300.5c0 20.333 6.83301 37.333 20.5 51s30.667 20.5 51 20.5s37.333 -6.83301 51 -20.5s20.5 -30.667 20.5 -51s-6.83301 -37.333 -20.5 -51s-30.667 -20.5 -51 -20.5
s-37.333 6.83301 -51 20.5s-20.5 30.667 -20.5 51zM614.004 1300.5c0 20.333 6.83301 37.333 20.5 51s30.834 20.5 51.501 20.5s37.834 -6.83301 51.501 -20.5s20.5 -30.667 20.5 -51s-6.83301 -37.333 -20.5 -51s-30.834 -20.5 -51.501 -20.5s-37.834 6.83301 -51.501 20.5
s-20.5 30.667 -20.5 51z" />
    <glyph glyph-name="aring" unicode="&#xe5;" horiz-adv-x="1024" 
d="M369 553l389.004 61.001c0 84.667 -26.333 155.334 -79 212.001s-118.667 85 -198 85c-53.333 0 -103.833 -11.833 -151.5 -35.5s-82.5 -47.834 -104.5 -72.501l-30 -35l-62 61c4 4 9.16699 10.167 15.5 18.5s20.666 22.5 42.999 42.5s46.166 37.833 71.499 53.5
s57.833 29.667 97.5 42s79.834 18.5 120.501 18.5c105.333 0 193.166 -37.333 263.499 -112s105.5 -167.334 105.5 -278.001v-614h-92v164c-2.66699 -5.33301 -7.16699 -12.166 -13.5 -20.499s-20.333 -23 -42 -44s-45.167 -39.833 -70.5 -56.5
s-58.833 -31.334 -100.5 -44.001s-85.834 -19 -132.501 -19c-94 0 -172 27.5 -234 82.5s-93 119.5 -93 193.5c0 76.667 26.667 142 80 196s125.666 87.667 216.999 101zM399.004 72.001c102.667 0 188.167 34 256.5 102s102.5 153.333 102.5 256v92l-369 -61
c-150 -24.667 -225 -93 -225 -205c0 -49.333 22.167 -92.333 66.5 -129s100.5 -55 168.5 -55zM389.004 1310.5c0 -75 37.5 -112.5 112.5 -112.5s112.5 37.5 112.5 112.5s-37.5 112.5 -112.5 112.5s-112.5 -37.5 -112.5 -112.5zM696.004 1311
c0 -56 -18.333 -102.5 -55 -139.5s-83 -55.5 -139 -55.5s-102.5 18.5 -139.5 55.5s-55.5 83.5 -55.5 139.5s18.5 102.333 55.5 139s83.5 55 139.5 55s102.333 -18.333 139 -55s55 -83 55 -139z" />
    <glyph glyph-name="ae" unicode="&#xe6;" horiz-adv-x="1751" 
d="M1638 461h-787.998c5.33301 -106.667 44.833 -198.167 118.5 -274.5s157.167 -114.5 250.5 -114.5c64 0 122.333 14.667 175 44s89 58.333 109 87l33 43l61 -62c-2.66699 -5.33301 -7.33398 -12.833 -14.001 -22.5s-21.667 -26 -45 -49s-48.666 -43.333 -75.999 -61
s-62.833 -34 -106.5 -49s-89.167 -22.5 -136.5 -22.5c-53.333 0 -104 9.83301 -152 29.5s-87 43.5 -117 71.5s-56.167 56 -78.5 84s-38.5 52.333 -48.5 73l-14 28c-2.66699 -8 -6.33398 -18.5 -11.001 -31.5s-17.667 -35.833 -39 -68.5s-46 -61.667 -74 -87
s-67.167 -48.166 -117.5 -68.499s-106.5 -30.5 -168.5 -30.5c-94 0 -172 27.5 -234 82.5s-93 119.5 -93 193.5c0 87.333 28.667 158.666 86 213.999s134.333 83 231 83h369v61c0 84.667 -26.333 155.334 -79 212.001s-118.667 85 -198 85
c-53.333 0 -103.833 -11.833 -151.5 -35.5s-82.5 -47.834 -104.5 -72.501l-30 -35l-62 61c4 4 9.16699 10.167 15.5 18.5s20.666 22.5 42.999 42.5s46.166 37.833 71.499 53.5s57.833 29.667 97.5 42s79.834 18.5 120.501 18.5c49.333 0 94.833 -8.66699 136.5 -26
s74.5 -37.833 98.5 -61.5s44.167 -47.5 60.5 -71.5s27.833 -45 34.5 -63l8 -24c4 6.66699 9.83301 15.5 17.5 26.5s24.167 30.5 49.5 58.5s52 52.833 80 74.5s63.833 41.5 107.5 59.5s88.5 27 134.5 27c116 0 216.667 -48.167 302 -144.5s128 -218.833 128 -367.5v-31z
M1208 911c-87.333 0 -167.502 -36.5 -240.502 -109.5s-112.167 -155.833 -117.5 -248.5h696c-5.33301 101.333 -41.166 186.333 -107.499 255s-143.166 103 -230.499 103zM399 72c102.667 0 188.168 34 256.501 102s102.5 153.333 102.5 256v31h-369
c-70.667 0 -125.834 -18.833 -165.501 -56.5s-59.5 -87.167 -59.5 -148.5c0 -49.333 22.167 -92.333 66.5 -129s100.5 -55 168.5 -55z" />
    <glyph glyph-name="ccedilla" unicode="&#xe7;" horiz-adv-x="1054" 
d="M92 492c0 142 47.833 262.835 143.5 362.502s208.167 149.5 337.5 149.5c48 0 94.167 -7.16699 138.5 -21.5s80.833 -31.5 109.5 -51.5s54.334 -39.833 77.001 -59.5s38.667 -37.167 48 -52.5l17 -20l-72 -62c-2.66699 4 -6.83398 10.167 -12.501 18.5
s-18.334 22.333 -38.001 42s-40.834 37.334 -63.501 53.001s-52.334 29.667 -89.001 42s-75 18.5 -115 18.5c-104 0 -194.833 -40.833 -272.5 -122.5s-116.5 -180.667 -116.5 -297s39 -215.333 117 -297s168.667 -122.5 272 -122.5c64 0 122.333 14.667 175 44
s90 58.333 112 87l31 43l72 -62c-4 -5.33301 -9.16699 -12.333 -15.5 -21s-21.166 -24.334 -44.499 -47.001s-48.333 -42.834 -75 -60.501s-61 -34.334 -103 -50.001s-85.667 -24.167 -131 -25.5l-51 -103c6.66699 6.66699 23.667 10 51 10c40.667 0 74.667 -13.667 102 -41
s41 -61.333 41 -102c0 -42 -17 -78.167 -51 -108.5s-78.333 -45.5 -133 -45.5c-27.333 0 -54.666 4.83301 -81.999 14.5s-47.666 18.5 -60.999 26.5l-21 15l31 57c40.667 -34 85 -51 133 -51c35.333 0 63 8.5 83 25.5s30 39.167 30 66.5c0 20.667 -8.33301 39.5 -25 56.5
s-35.667 25.5 -57 25.5c-12 0 -24 -1.66699 -36 -5s-21.333 -6.33301 -28 -9l-8 -7l-51 52l63 127c-120 12 -222 66.5 -306 163.5s-126 211.833 -126 344.5z" />
    <glyph glyph-name="egrave" unicode="&#xe8;" horiz-adv-x="1126" 
d="M1014 451l-830.001 0.000976562c5.33301 -102.667 46 -191.5 122 -266.5s165 -112.5 267 -112.5c39.333 0 77.833 5.66699 115.5 17s68.834 25.666 93.501 42.999s46.167 34.5 64.5 51.5s32.5 30.833 42.5 41.5l12 19l62 -60c-4 -5.33301 -9.5 -12.833 -16.5 -22.5
s-22.833 -26 -47.5 -49s-50.667 -43.333 -78 -61s-63.5 -34 -108.5 -49s-91.5 -22.5 -139.5 -22.5c-130 0 -242.667 49.833 -338 149.5s-143 220.5 -143 362.5c0 140.667 47.167 261.167 141.5 361.5s204.333 150.5 330 150.5s232.167 -47.833 319.5 -143.5
s131 -218.5 131 -368.5v-41zM562.999 911.001c-96.667 0 -182.5 -36.833 -257.5 -110.5s-115.5 -159.5 -121.5 -257.5h738c-5.33301 106.667 -42 194.667 -110 264s-151 104 -249 104zM460.999 1423l153 -266h-82l-184 266h113z" />
    <glyph glyph-name="eacute" unicode="&#xe9;" horiz-adv-x="1126" 
d="M1014 451l-830.001 0.000976562c5.33301 -102.667 46 -191.5 122 -266.5s165 -112.5 267 -112.5c39.333 0 77.833 5.66699 115.5 17s68.834 25.666 93.501 42.999s46.167 34.5 64.5 51.5s32.5 30.833 42.5 41.5l12 19l62 -60c-4 -5.33301 -9.5 -12.833 -16.5 -22.5
s-22.833 -26 -47.5 -49s-50.667 -43.333 -78 -61s-63.5 -34 -108.5 -49s-91.5 -22.5 -139.5 -22.5c-130 0 -242.667 49.833 -338 149.5s-143 220.5 -143 362.5c0 140.667 47.167 261.167 141.5 361.5s204.333 150.5 330 150.5s232.167 -47.833 319.5 -143.5
s131 -218.5 131 -368.5v-41zM562.999 911.001c-96.667 0 -182.5 -36.833 -257.5 -110.5s-115.5 -159.5 -121.5 -257.5h738c-5.33301 106.667 -42 194.667 -110 264s-151 104 -249 104zM521.999 1157l154 266h112l-184 -266h-82z" />
    <glyph glyph-name="ecircumflex" unicode="&#xea;" horiz-adv-x="1126" 
d="M1014 451l-830.001 0.000976562c5.33301 -102.667 46 -191.5 122 -266.5s165 -112.5 267 -112.5c39.333 0 77.833 5.66699 115.5 17s68.834 25.666 93.501 42.999s46.167 34.5 64.5 51.5s32.5 30.833 42.5 41.5l12 19l62 -60c-4 -5.33301 -9.5 -12.833 -16.5 -22.5
s-22.833 -26 -47.5 -49s-50.667 -43.333 -78 -61s-63.5 -34 -108.5 -49s-91.5 -22.5 -139.5 -22.5c-130 0 -242.667 49.833 -338 149.5s-143 220.5 -143 362.5c0 140.667 47.167 261.167 141.5 361.5s204.333 150.5 330 150.5s232.167 -47.833 319.5 -143.5
s131 -218.5 131 -368.5v-41zM562.999 911.001c-96.667 0 -182.5 -36.833 -257.5 -110.5s-115.5 -159.5 -121.5 -257.5h738c-5.33301 106.667 -42 194.667 -110 264s-151 104 -249 104zM613.999 1423l215 -266h-92l-174 205l-174 -205h-92l215 266h102z" />
    <glyph glyph-name="edieresis" unicode="&#xeb;" horiz-adv-x="1126" 
d="M1014 451l-830.001 0.000976562c5.33301 -102.667 46 -191.5 122 -266.5s165 -112.5 267 -112.5c39.333 0 77.833 5.66699 115.5 17s68.834 25.666 93.501 42.999s46.167 34.5 64.5 51.5s32.5 30.833 42.5 41.5l12 19l62 -60c-4 -5.33301 -9.5 -12.833 -16.5 -22.5
s-22.833 -26 -47.5 -49s-50.667 -43.333 -78 -61s-63.5 -34 -108.5 -49s-91.5 -22.5 -139.5 -22.5c-130 0 -242.667 49.833 -338 149.5s-143 220.5 -143 362.5c0 140.667 47.167 261.167 141.5 361.5s204.333 150.5 330 150.5s232.167 -47.833 319.5 -143.5
s131 -218.5 131 -368.5v-41zM562.999 911.001c-96.667 0 -182.5 -36.833 -257.5 -110.5s-115.5 -159.5 -121.5 -257.5h738c-5.33301 106.667 -42 194.667 -110 264s-151 104 -249 104zM316.999 1300.5c0 20.333 6.83301 37.333 20.5 51s30.834 20.5 51.501 20.5
s37.834 -6.83301 51.501 -20.5s20.5 -30.667 20.5 -51s-6.83301 -37.333 -20.5 -51s-30.834 -20.5 -51.501 -20.5s-37.834 6.83301 -51.501 20.5s-20.5 30.667 -20.5 51zM675.999 1300.5c0 20.333 6.83301 37.333 20.5 51s30.667 20.5 51 20.5s37.333 -6.83301 51 -20.5
s20.5 -30.667 20.5 -51s-6.83301 -37.333 -20.5 -51s-30.667 -20.5 -51 -20.5s-37.333 6.83301 -51 20.5s-20.5 30.667 -20.5 51z" />
    <glyph glyph-name="igrave" unicode="&#xec;" horiz-adv-x="460" 
d="M174 0v983h92v-983h-92zM102 1423l154 -266h-82l-184 266h112z" />
    <glyph glyph-name="iacute" unicode="&#xed;" horiz-adv-x="460" 
d="M174 0v983h92v-983h-92zM174 1157l154 266h112l-184 -266h-82z" />
    <glyph glyph-name="icircumflex" unicode="&#xee;" horiz-adv-x="460" 
d="M174 0v983h92v-983h-92zM266 1423l215 -266h-92l-174 205l-174 -205h-92l215 266h102z" />
    <glyph glyph-name="idieresis" unicode="&#xef;" horiz-adv-x="460" 
d="M174 0v983h92v-983h-92zM-31 1300.5c0 20.333 6.83301 37.333 20.5 51s30.834 20.5 51.501 20.5s37.834 -6.83301 51.501 -20.5s20.5 -30.667 20.5 -51s-6.83301 -37.333 -20.5 -51s-30.834 -20.5 -51.501 -20.5s-37.834 6.83301 -51.501 20.5s-20.5 30.667 -20.5 51z
M328 1300.5c0 20.333 6.83301 37.333 20.5 51s30.667 20.5 51 20.5s37.333 -6.83301 51 -20.5s20.5 -30.667 20.5 -51s-6.83301 -37.333 -20.5 -51s-30.667 -20.5 -51 -20.5s-37.333 6.83301 -51 20.5s-20.5 30.667 -20.5 51z" />
    <glyph glyph-name="eth" unicode="&#xf0;" horiz-adv-x="1167" 
d="M850 1526l-215.001 -154.005c10.667 -5.33301 25 -14.166 43 -26.499s49.833 -41 95.5 -86s86.167 -94.167 121.5 -147.5s67.333 -124.666 96 -213.999s43 -184 43 -284c0 -196.667 -46.333 -351.5 -139 -464.5s-206.667 -169.5 -342 -169.5
c-124 0 -231.833 47.667 -323.5 143s-137.5 211.333 -137.5 348s45.833 252.834 137.5 348.501s199.5 143.5 323.5 143.5c48 0 93.833 -8.66699 137.5 -26s79.5 -37.833 107.5 -61.5s52.5 -47.5 73.5 -71.5s36.5 -45 46.5 -63l14 -24
c-5.33301 76.667 -21.666 149.334 -48.999 218.001s-58.833 124.834 -94.5 168.501s-70.5 82 -104.5 115s-62.667 56.833 -86 71.5l-35 21l-225 -164l-51 72l194 143c-32.667 18 -69.5 36.5 -110.5 55.5s-73.833 33.167 -98.5 42.5l-36 15l30 81
c116 -40.667 215 -85 297 -133l236 174zM921.999 470.995c0 110.667 -37 204.834 -111 282.501s-160 116.5 -258 116.5s-184 -38.833 -258 -116.5s-111 -171.834 -111 -282.501s37 -204.834 111 -282.501s160 -116.5 258 -116.5s184 38.833 258 116.5
s111 171.834 111 282.501z" />
    <glyph glyph-name="ntilde" unicode="&#xf1;" horiz-adv-x="1177" 
d="M266 983l0.000976562 -173.999c2.66699 5.33301 6.5 12.5 11.5 21.5s17.333 24.333 37 46s41.167 41.167 64.5 58.5s55.166 33.166 95.499 47.499s83.5 21.5 129.5 21.5c113.333 0 208.333 -39.667 285 -119s115 -179.666 115 -300.999v-584h-93v584
c0 95.333 -29.333 173.666 -88 234.999s-131.667 92 -219 92c-92.667 0 -172.167 -34.333 -238.5 -103s-99.5 -153.667 -99.5 -255v-553h-92v983h92zM461.001 1311c-23.333 0 -42.833 -12.667 -58.5 -38s-23.5 -64 -23.5 -116h-82c0 78 15 136.833 45 176.5
s69.667 59.5 119 59.5c38 0 71.667 -13 101 -39s56.333 -51.667 81 -77s49.334 -38 74.001 -38c23.333 0 42.833 12.667 58.5 38s23.5 64 23.5 116h82c0 -78 -15 -136.833 -45 -176.5s-69.667 -59.5 -119 -59.5c-30 0 -57.667 7.83301 -83 23.5s-45.5 33.5 -60.5 53.5
s-32.333 37.833 -52 53.5s-39.834 23.5 -60.501 23.5z" />
    <glyph glyph-name="ograve" unicode="&#xf2;" 
d="M92 492c0 142 48.5 262.833 145.5 362.5s212.333 149.5 346 149.5s249 -49.833 346 -149.5s145.5 -220.5 145.5 -362.5s-48.5 -262.833 -145.5 -362.5s-212.333 -149.5 -346 -149.5s-249 49.833 -346 149.5s-145.5 220.5 -145.5 362.5zM983 491.5
c0 116.333 -39.167 215.333 -117.5 297s-172.166 122.5 -281.499 122.5s-203.333 -40.833 -282 -122.5s-118 -180.667 -118 -297s39.333 -215.333 118 -297s172.667 -122.5 282 -122.5s203.166 40.833 281.499 122.5s117.5 180.667 117.5 297zM471 1423l154 -266h-82
l-185 266h113z" />
    <glyph glyph-name="oacute" unicode="&#xf3;" 
d="M92 492c0 142 48.5 262.833 145.5 362.5s212.333 149.5 346 149.5s249 -49.833 346 -149.5s145.5 -220.5 145.5 -362.5s-48.5 -262.833 -145.5 -362.5s-212.333 -149.5 -346 -149.5s-249 49.833 -346 149.5s-145.5 220.5 -145.5 362.5zM983 491.5
c0 116.333 -39.167 215.333 -117.5 297s-172.166 122.5 -281.499 122.5s-203.333 -40.833 -282 -122.5s-118 -180.667 -118 -297s39.333 -215.333 118 -297s172.667 -122.5 282 -122.5s203.166 40.833 281.499 122.5s117.5 180.667 117.5 297zM543 1157l153 266h113
l-184 -266h-82z" />
    <glyph glyph-name="ocircumflex" unicode="&#xf4;" 
d="M92 492c0 142 48.5 262.833 145.5 362.5s212.333 149.5 346 149.5s249 -49.833 346 -149.5s145.5 -220.5 145.5 -362.5s-48.5 -262.833 -145.5 -362.5s-212.333 -149.5 -346 -149.5s-249 49.833 -346 149.5s-145.5 220.5 -145.5 362.5zM983 491.5
c0 116.333 -39.167 215.333 -117.5 297s-172.166 122.5 -281.499 122.5s-203.333 -40.833 -282 -122.5s-118 -180.667 -118 -297s39.333 -215.333 118 -297s172.667 -122.5 282 -122.5s203.166 40.833 281.499 122.5s117.5 180.667 117.5 297zM635 1423l215 -266h-92
l-174 205l-174 -205h-93l215 266h103z" />
    <glyph glyph-name="otilde" unicode="&#xf5;" 
d="M92 492c0 142 48.5 262.833 145.5 362.5s212.333 149.5 346 149.5s249 -49.833 346 -149.5s145.5 -220.5 145.5 -362.5s-48.5 -262.833 -145.5 -362.5s-212.333 -149.5 -346 -149.5s-249 49.833 -346 149.5s-145.5 220.5 -145.5 362.5zM983 491.5
c0 116.333 -39.167 215.333 -117.5 297s-172.166 122.5 -281.499 122.5s-203.333 -40.833 -282 -122.5s-118 -180.667 -118 -297s39.333 -215.333 118 -297s172.667 -122.5 282 -122.5s203.166 40.833 281.499 122.5s117.5 180.667 117.5 297zM451 1311
c-23.333 0 -42.832 -12.667 -58.499 -38s-23.5 -64 -23.5 -116h-82c0 78 15 136.833 45 176.5s69.667 59.5 119 59.5c38 0 71.667 -13 101 -39s56.333 -51.667 81 -77s49.334 -38 74.001 -38c23.333 0 42.666 12.667 57.999 38s23 64 23 116h82
c0 -78 -15 -136.833 -45 -176.5s-69.333 -59.5 -118 -59.5c-30 0 -57.667 7.83301 -83 23.5s-45.5 33.5 -60.5 53.5s-32.333 37.833 -52 53.5s-39.834 23.5 -60.501 23.5z" />
    <glyph glyph-name="odieresis" unicode="&#xf6;" 
d="M92 492c0 142 48.5 262.833 145.5 362.5s212.333 149.5 346 149.5s249 -49.833 346 -149.5s145.5 -220.5 145.5 -362.5s-48.5 -262.833 -145.5 -362.5s-212.333 -149.5 -346 -149.5s-249 49.833 -346 149.5s-145.5 220.5 -145.5 362.5zM983 491.5
c0 116.333 -39.167 215.333 -117.5 297s-172.166 122.5 -281.499 122.5s-203.333 -40.833 -282 -122.5s-118 -180.667 -118 -297s39.333 -215.333 118 -297s172.667 -122.5 282 -122.5s203.166 40.833 281.499 122.5s117.5 180.667 117.5 297zM328 1300.5
c0 20.333 6.83301 37.333 20.5 51s30.667 20.5 51 20.5s37.333 -6.83301 51 -20.5s20.5 -30.667 20.5 -51s-6.83301 -37.333 -20.5 -51s-30.667 -20.5 -51 -20.5s-37.333 6.83301 -51 20.5s-20.5 30.667 -20.5 51zM686 1300.5c0 20.333 6.83301 37.333 20.5 51
s30.667 20.5 51 20.5s37.333 -6.83301 51 -20.5s20.5 -30.667 20.5 -51s-6.83301 -37.333 -20.5 -51s-30.667 -20.5 -51 -20.5s-37.333 6.83301 -51 20.5s-20.5 30.667 -20.5 51z" />
    <glyph glyph-name="divide" unicode="&#xf7;" horiz-adv-x="1024" 
d="M932 645v-92h-840v92h840zM440 973c0 20.667 6.83301 37.667 20.5 51s30.834 20 51.501 20s37.834 -6.66699 51.501 -20s20.5 -30.333 20.5 -51s-6.83301 -37.834 -20.5 -51.501s-30.834 -20.5 -51.501 -20.5s-37.834 6.83301 -51.501 20.5s-20.5 30.834 -20.5 51.501z
M584 225.5c0 -20.333 -6.83301 -37.333 -20.5 -51s-30.834 -20.5 -51.501 -20.5s-37.834 6.83301 -51.501 20.5s-20.5 30.667 -20.5 51s6.83301 37.333 20.5 51s30.834 20.5 51.501 20.5s37.834 -6.83301 51.501 -20.5s20.5 -30.667 20.5 -51z" />
    <glyph glyph-name="oslash" unicode="&#xf8;" 
d="M266 236l574 583c-8 6.66699 -19.667 15.167 -35 25.5s-45.5 24 -90.5 41s-88.5 25.5 -130.5 25.5c-109.333 0 -203.333 -40.833 -282 -122.5s-118 -180.5 -118 -296.5c0 -45.333 6.83301 -89.5 20.5 -132.5s27.5 -74.167 41.5 -93.5zM1075 492
c0 -142 -48.5029 -262.834 -145.503 -362.501s-212.167 -149.5 -345.5 -149.5c-57.333 0 -112.666 10.167 -165.999 30.5s-91.666 40.833 -114.999 61.5l-37 30l-133 -143l-61 61l133 144c-8 9.33301 -18.167 23.166 -30.5 41.499s-29.166 56.333 -50.499 114
s-32 115.167 -32 172.5c0 142 48.5 262.833 145.5 362.5s212.5 149.5 346.5 149.5c57.333 0 112.5 -10.333 165.5 -31s91.167 -41.334 114.5 -62.001l37 -30l133 143l62 -61l-133 -144c8 -9.33301 18.167 -23.166 30.5 -41.499s29 -56.166 50 -113.499
s31.5 -114.666 31.5 -171.999zM900.997 747.999l-572.999 -584.001c8 -6.66699 19.5 -15.167 34.5 -25.5s45 -24 90 -41s88.833 -25.5 131.5 -25.5c109.333 0 203.166 40.833 281.499 122.5s117.5 180.834 117.5 297.501c0 45.333 -6.83301 89.333 -20.5 132
s-27.167 73.667 -40.5 93z" />
    <glyph glyph-name="ugrave" unicode="&#xf9;" 
d="M911 0v173.999c-2.66699 -5.33301 -6.33398 -12.5 -11.001 -21.5s-16.834 -24.333 -36.501 -46s-41.167 -41 -64.5 -58s-55.166 -32.667 -95.499 -47s-83.833 -21.5 -130.5 -21.5c-113.333 0 -208.166 39.5 -284.499 118.5s-114.5 179.167 -114.5 300.5v584h92v-584
c0 -95.333 29.333 -173.666 88 -234.999s131.667 -92 219 -92c92.667 0 172.167 34.5 238.5 103.5s99.5 153.833 99.5 254.5v553h93v-983h-93zM492 1423l153 -266h-82l-184 266h113z" />
    <glyph glyph-name="uacute" unicode="&#xfa;" 
d="M911 0v173.999c-2.66699 -5.33301 -6.33398 -12.5 -11.001 -21.5s-16.834 -24.333 -36.501 -46s-41.167 -41 -64.5 -58s-55.166 -32.667 -95.499 -47s-83.833 -21.5 -130.5 -21.5c-113.333 0 -208.166 39.5 -284.499 118.5s-114.5 179.167 -114.5 300.5v584h92v-584
c0 -95.333 29.333 -173.666 88 -234.999s131.667 -92 219 -92c92.667 0 172.167 34.5 238.5 103.5s99.5 153.833 99.5 254.5v553h93v-983h-93zM532 1157l154 266h113l-185 -266h-82z" />
    <glyph glyph-name="ucircumflex" unicode="&#xfb;" 
d="M911 0v173.999c-2.66699 -5.33301 -6.33398 -12.5 -11.001 -21.5s-16.834 -24.333 -36.501 -46s-41.167 -41 -64.5 -58s-55.166 -32.667 -95.499 -47s-83.833 -21.5 -130.5 -21.5c-113.333 0 -208.166 39.5 -284.499 118.5s-114.5 179.167 -114.5 300.5v584h92v-584
c0 -95.333 29.333 -173.666 88 -234.999s131.667 -92 219 -92c92.667 0 172.167 34.5 238.5 103.5s99.5 153.833 99.5 254.5v553h93v-983h-93zM635 1423l215 -266h-92l-174 205l-174 -205h-93l215 266h103z" />
    <glyph glyph-name="udieresis" unicode="&#xfc;" 
d="M911 0v173.999c-2.66699 -5.33301 -6.33398 -12.5 -11.001 -21.5s-16.834 -24.333 -36.501 -46s-41.167 -41 -64.5 -58s-55.166 -32.667 -95.499 -47s-83.833 -21.5 -130.5 -21.5c-113.333 0 -208.166 39.5 -284.499 118.5s-114.5 179.167 -114.5 300.5v584h92v-584
c0 -95.333 29.333 -173.666 88 -234.999s131.667 -92 219 -92c92.667 0 172.167 34.5 238.5 103.5s99.5 153.833 99.5 254.5v553h93v-983h-93zM328 1280c0 20.667 6.83301 37.834 20.5 51.501s30.667 20.5 51 20.5s37.333 -6.83301 51 -20.5s20.5 -30.834 20.5 -51.501
s-6.83301 -37.834 -20.5 -51.501s-30.667 -20.5 -51 -20.5s-37.333 6.83301 -51 20.5s-20.5 30.834 -20.5 51.501zM686 1280c0 20.667 6.83301 37.834 20.5 51.501s30.667 20.5 51 20.5s37.333 -6.83301 51 -20.5s20.5 -30.834 20.5 -51.501s-6.83301 -37.834 -20.5 -51.501
s-30.667 -20.5 -51 -20.5s-37.333 6.83301 -51 20.5s-20.5 30.834 -20.5 51.501z" />
    <glyph glyph-name="yacute" unicode="&#xfd;" horiz-adv-x="983" 
d="M358 -184l72 184.001l-399 983h102l348 -860l348 860h103l-471 -1167c-35.333 -88.667 -74.166 -151.834 -116.499 -189.501s-99.166 -56.5 -170.499 -56.5c-15.333 0 -30.833 1.66699 -46.5 5s-26.834 7 -33.501 11l-12 4v93c27.333 -13.333 58 -20.333 92 -21
c45.333 0 82.166 12.333 110.499 37s52.833 63.667 73.5 117zM461 1157l153 266h113l-184 -266h-82z" />
    <glyph glyph-name="thorn" unicode="&#xfe;" horiz-adv-x="1218" 
d="M266 491.5c0 -116.333 38.333 -215.333 115 -297s164.667 -122.5 264 -122.5c94 0 179 41.167 255 123.5s114 181 114 296s-38 213.667 -114 296s-161 123.5 -255 123.5c-100 0 -188.167 -40.833 -264.5 -122.5s-114.5 -180.667 -114.5 -297zM266 195v-624.999h-92v1864
h92v-646c2.66699 5.33301 7.5 12.833 14.5 22.5s22 27.167 45 52.5s48.167 47.166 75.5 65.499s62.833 35.5 106.5 51.5s89.5 24 137.5 24c120 0 226.833 -50.333 320.5 -151s140.5 -221.167 140.5 -361.5s-46.833 -260.666 -140.5 -360.999s-200.5 -150.5 -320.5 -150.5
c-48 0 -93.833 7.5 -137.5 22.5s-79.5 32.667 -107.5 53s-52.5 41.166 -73.5 62.499s-36.167 39.333 -45.5 54z" />
    <glyph glyph-name="ydieresis" unicode="&#xff;" horiz-adv-x="983" 
d="M358 -184l72 184.001l-399 983h102l348 -860l348 860h103l-471 -1167c-35.333 -88.667 -74.166 -151.834 -116.499 -189.501s-99.166 -56.5 -170.499 -56.5c-15.333 0 -30.833 1.66699 -46.5 5s-26.834 7 -33.501 11l-12 4v93c27.333 -13.333 58 -20.333 92 -21
c45.333 0 82.166 12.333 110.499 37s52.833 63.667 73.5 117zM225 1300.5c0 20.333 6.83301 37.333 20.5 51s30.834 20.5 51.501 20.5s37.834 -6.83301 51.501 -20.5s20.5 -30.667 20.5 -51s-6.83301 -37.333 -20.5 -51s-30.834 -20.5 -51.501 -20.5
s-37.834 6.83301 -51.501 20.5s-20.5 30.667 -20.5 51zM584 1300.5c0 20.333 6.83301 37.333 20.5 51s30.667 20.5 51 20.5s37.333 -6.83301 51 -20.5s20.5 -30.667 20.5 -51s-6.83301 -37.333 -20.5 -51s-30.667 -20.5 -51 -20.5s-37.333 6.83301 -51 20.5
s-20.5 30.667 -20.5 51z" />
    <glyph glyph-name="Amacron" unicode="&#x100;" horiz-adv-x="1392" 
d="M1014 522l-318 768l-317 -768h635zM1055 420h-717l-174 -420h-113l594 1434h103l593 -1434h-112zM973 1802v-82h-553v82h553z" />
    <glyph glyph-name="amacron" unicode="&#x101;" horiz-adv-x="1024" 
d="M369 553l389.004 61.001c0 84.667 -26.333 155.334 -79 212.001s-118.667 85 -198 85c-53.333 0 -103.833 -11.833 -151.5 -35.5s-82.5 -47.834 -104.5 -72.501l-30 -35l-62 61c4 4 9.16699 10.167 15.5 18.5s20.666 22.5 42.999 42.5s46.166 37.833 71.499 53.5
s57.833 29.667 97.5 42s79.834 18.5 120.501 18.5c105.333 0 193.166 -37.333 263.499 -112s105.5 -167.334 105.5 -278.001v-614h-92v164c-2.66699 -5.33301 -7.16699 -12.166 -13.5 -20.499s-20.333 -23 -42 -44s-45.167 -39.833 -70.5 -56.5
s-58.833 -31.334 -100.5 -44.001s-85.834 -19 -132.501 -19c-94 0 -172 27.5 -234 82.5s-93 119.5 -93 193.5c0 76.667 26.667 142 80 196s125.666 87.667 216.999 101zM399.004 72.001c102.667 0 188.167 34 256.5 102s102.5 153.333 102.5 256v92l-369 -61
c-150 -24.667 -225 -93 -225 -205c0 -49.333 22.167 -92.333 66.5 -129s100.5 -55 168.5 -55zM778.004 1352v-82h-553v82h553z" />
    <glyph glyph-name="Abreve" unicode="&#x102;" horiz-adv-x="1392" 
d="M1014 522l-318 768l-317 -768h635zM1055 420h-717l-174 -420h-113l594 1434h103l593 -1434h-112zM696 1710c56 0 100.833 16.667 134.5 50s50.5 78 50.5 134h82c0 -76.667 -25.333 -140.167 -76 -190.5s-114.167 -75.5 -190.5 -75.5s-139.833 25.333 -190.5 76
s-76 114 -76 190h82c0 -56 16.667 -100.667 50 -134s78 -50 134 -50z" />
    <glyph glyph-name="abreve" unicode="&#x103;" horiz-adv-x="1024" 
d="M369 553l389.004 61.001c0 84.667 -26.333 155.334 -79 212.001s-118.667 85 -198 85c-53.333 0 -103.833 -11.833 -151.5 -35.5s-82.5 -47.834 -104.5 -72.501l-30 -35l-62 61c4 4 9.16699 10.167 15.5 18.5s20.666 22.5 42.999 42.5s46.166 37.833 71.499 53.5
s57.833 29.667 97.5 42s79.834 18.5 120.501 18.5c105.333 0 193.166 -37.333 263.499 -112s105.5 -167.334 105.5 -278.001v-614h-92v164c-2.66699 -5.33301 -7.16699 -12.166 -13.5 -20.499s-20.333 -23 -42 -44s-45.167 -39.833 -70.5 -56.5
s-58.833 -31.334 -100.5 -44.001s-85.834 -19 -132.501 -19c-94 0 -172 27.5 -234 82.5s-93 119.5 -93 193.5c0 76.667 26.667 142 80 196s125.666 87.667 216.999 101zM399.004 72.001c102.667 0 188.167 34 256.5 102s102.5 153.333 102.5 256v92l-369 -61
c-150 -24.667 -225 -93 -225 -205c0 -49.333 22.167 -92.333 66.5 -129s100.5 -55 168.5 -55zM502.004 1239c56 0 100.666 16.667 133.999 50s50 78 50 134h82c0 -76.667 -25.333 -140.167 -76 -190.5s-114.167 -75.5 -190.5 -75.5s-139.666 25.333 -189.999 76
s-75.5 114 -75.5 190h81c0 -56 16.833 -100.667 50.5 -134s78.5 -50 134.5 -50z" />
    <glyph glyph-name="Aogonek" unicode="&#x104;" horiz-adv-x="1392" 
d="M1341 0l-41 0.00195312c-9.33301 -9.33301 -21.5 -21.833 -36.5 -37.5s-34.833 -44.334 -59.5 -86.001s-37 -79.167 -37 -112.5c0 -31.333 10 -56.166 30 -74.499s47.667 -27.5 83 -27.5c18 0 37.167 2.33301 57.5 7s35.833 10 46.5 16l19 8v-72
c-40.667 -20.667 -81.667 -31 -123 -31c-56 0 -100.667 16.167 -134 48.5s-50 74.166 -50 125.499c0 39.333 11.167 78.666 33.5 117.999s44.5 69 66.5 89l33 29l-174 420h-717l-174 -420h-113l594 1434h103zM1014 522.002l-318 768l-317 -768h635z" />
    <glyph glyph-name="aogonek" unicode="&#x105;" horiz-adv-x="1024" 
d="M850 0l-20.9971 0.00195312c-9.33301 -9.33301 -21.5 -21.833 -36.5 -37.5s-34.833 -44.334 -59.5 -86.001s-37 -79.167 -37 -112.5c0 -31.333 10 -56.166 30 -74.499s47.667 -27.5 83 -27.5c18 0 37.167 2.33301 57.5 7s35.833 10 46.5 16l19 8v-72
c-40.667 -20.667 -81.667 -31 -123 -31c-56 0 -100.667 16.167 -134 48.5s-50 74.166 -50 125.499c0 39.333 11.167 78.666 33.5 117.999s44.5 69 66.5 89l33 29v164c-2.66699 -5.33301 -7.16699 -12.166 -13.5 -20.499s-20.333 -23 -42 -44s-45.167 -39.833 -70.5 -56.5
s-58.833 -31.334 -100.5 -44.001s-85.834 -19 -132.501 -19c-94 0 -172 27.5 -234 82.5s-93 119.5 -93 193.5c0 76.667 26.5 141.834 79.5 195.501s125.5 87.5 217.5 101.5l389 61c0 84.667 -26.333 155.334 -79 212.001s-118.667 85 -198 85
c-53.333 0 -103.833 -11.833 -151.5 -35.5s-82.5 -47.834 -104.5 -72.501l-30 -35l-62 61c4 4 9.16699 10.167 15.5 18.5s20.666 22.5 42.999 42.5s46.166 37.833 71.499 53.5s57.833 29.667 97.5 42s79.834 18.5 120.501 18.5c105.333 0 193.166 -37.333 263.499 -112
s105.5 -167.334 105.5 -278.001v-614zM399.003 72.002c102.667 0 188.167 34 256.5 102s102.5 153.333 102.5 256v92l-369 -61c-150 -24.667 -225 -93 -225 -205c0 -49.333 22.167 -92.333 66.5 -129s100.5 -55 168.5 -55z" />
    <glyph glyph-name="Cacute" unicode="&#x106;" horiz-adv-x="1536" 
d="M123 717c0 204.667 70.998 378.664 212.998 521.997s313.333 215 514 215c72.667 0 142.334 -10.5 209.001 -31.5s121.834 -46.667 165.501 -77s82 -60.5 115 -90.5s56.833 -55 71.5 -75l23 -33l-72 -62c-4 6.66699 -10.5 16.334 -19.5 29.001
s-29.167 34.334 -60.5 65.001s-65.5 57.5 -102.5 80.5s-85.167 44.167 -144.5 63.5s-121 29 -185 29c-174.667 0 -322.5 -61.167 -443.5 -183.5s-181.5 -272.833 -181.5 -451.5s60.5 -329.167 181.5 -451.5s268.833 -183.5 443.5 -183.5
c65.333 0 127.666 9.16699 186.999 27.5s108.5 40.5 147.5 66.5s73.167 52 102.5 78s51 47.667 65 65l20 29l72 -61c-5.33301 -8 -13.5 -19 -24.5 -33s-35.333 -38.667 -73 -74s-77.667 -66.666 -120 -93.999s-97.666 -51.833 -165.999 -73.5s-138.5 -32.5 -210.5 -32.5
c-200.667 0 -372 71.667 -514 215s-213 317.333 -213 522zM787.998 1628l154 266h113l-185 -266h-82z" />
    <glyph glyph-name="cacute" unicode="&#x107;" horiz-adv-x="1054" 
d="M92 492c0 142 47.8359 262.832 143.503 362.499s208.167 149.5 337.5 149.5c48 0 94.167 -7.16699 138.5 -21.5s80.833 -31.5 109.5 -51.5s54.334 -39.833 77.001 -59.5s38.667 -37.167 48 -52.5l17 -20l-72 -62c-2.66699 4 -6.83398 10.167 -12.501 18.5
s-18.334 22.333 -38.001 42s-40.834 37.334 -63.501 53.001s-52.334 29.667 -89.001 42s-75 18.5 -115 18.5c-104 0 -194.833 -40.833 -272.5 -122.5s-116.5 -180.667 -116.5 -297s39 -215.333 117 -297s168.667 -122.5 272 -122.5c64 0 122.333 14.667 175 44
s90 58.333 112 87l31 43l72 -62c-4 -5.33301 -9.5 -12.833 -16.5 -22.5s-22.833 -26 -47.5 -49s-50.667 -43.333 -78 -61s-63.5 -34 -108.5 -49s-91.5 -22.5 -139.5 -22.5c-130 0 -242.667 49.833 -338 149.5s-143 220.5 -143 362.5zM532.003 1157l154 266h113l-185 -266
h-82z" />
    <glyph glyph-name="Ccircumflex" unicode="&#x108;" horiz-adv-x="1536" 
d="M123 717c0 204.667 70.998 378.664 212.998 521.997s313.333 215 514 215c72.667 0 142.334 -10.5 209.001 -31.5s121.834 -46.667 165.501 -77s82 -60.5 115 -90.5s56.833 -55 71.5 -75l23 -33l-72 -62c-4 6.66699 -10.5 16.334 -19.5 29.001
s-29.167 34.334 -60.5 65.001s-65.5 57.5 -102.5 80.5s-85.167 44.167 -144.5 63.5s-121 29 -185 29c-174.667 0 -322.5 -61.167 -443.5 -183.5s-181.5 -272.833 -181.5 -451.5s60.5 -329.167 181.5 -451.5s268.833 -183.5 443.5 -183.5
c65.333 0 127.666 9.16699 186.999 27.5s108.5 40.5 147.5 66.5s73.167 52 102.5 78s51 47.667 65 65l20 29l72 -61c-5.33301 -8 -13.5 -19 -24.5 -33s-35.333 -38.667 -73 -74s-77.667 -66.666 -120 -93.999s-97.666 -51.833 -165.999 -73.5s-138.5 -32.5 -210.5 -32.5
c-200.667 0 -372 71.667 -514 215s-213 317.333 -213 522zM890.998 1894l215 -266h-92l-174 205l-174 -205h-93l215 266h103z" />
    <glyph glyph-name="ccircumflex" unicode="&#x109;" horiz-adv-x="1054" 
d="M92 492c0 142 47.8359 262.832 143.503 362.499s208.167 149.5 337.5 149.5c48 0 94.167 -7.16699 138.5 -21.5s80.833 -31.5 109.5 -51.5s54.334 -39.833 77.001 -59.5s38.667 -37.167 48 -52.5l17 -20l-72 -62c-2.66699 4 -6.83398 10.167 -12.501 18.5
s-18.334 22.333 -38.001 42s-40.834 37.334 -63.501 53.001s-52.334 29.667 -89.001 42s-75 18.5 -115 18.5c-104 0 -194.833 -40.833 -272.5 -122.5s-116.5 -180.667 -116.5 -297s39 -215.333 117 -297s168.667 -122.5 272 -122.5c64 0 122.333 14.667 175 44
s90 58.333 112 87l31 43l72 -62c-4 -5.33301 -9.5 -12.833 -16.5 -22.5s-22.833 -26 -47.5 -49s-50.667 -43.333 -78 -61s-63.5 -34 -108.5 -49s-91.5 -22.5 -139.5 -22.5c-130 0 -242.667 49.833 -338 149.5s-143 220.5 -143 362.5zM614.003 1423l215 -266h-92l-174 205
l-174 -205h-92l215 266h102z" />
    <glyph glyph-name="Ccaron" unicode="&#x10c;" horiz-adv-x="1536" 
d="M123 717c0 204.667 70.998 378.664 212.998 521.997s313.333 215 514 215c72.667 0 142.334 -10.5 209.001 -31.5s121.834 -46.667 165.501 -77s82 -60.5 115 -90.5s56.833 -55 71.5 -75l23 -33l-72 -62c-4 6.66699 -10.5 16.334 -19.5 29.001
s-29.167 34.334 -60.5 65.001s-65.5 57.5 -102.5 80.5s-85.167 44.167 -144.5 63.5s-121 29 -185 29c-174.667 0 -322.5 -61.167 -443.5 -183.5s-181.5 -272.833 -181.5 -451.5s60.5 -329.167 181.5 -451.5s268.833 -183.5 443.5 -183.5
c65.333 0 127.666 9.16699 186.999 27.5s108.5 40.5 147.5 66.5s73.167 52 102.5 78s51 47.667 65 65l20 29l72 -61c-5.33301 -8 -13.5 -19 -24.5 -33s-35.333 -38.667 -73 -74s-77.667 -66.666 -120 -93.999s-97.666 -51.833 -165.999 -73.5s-138.5 -32.5 -210.5 -32.5
c-200.667 0 -372 71.667 -514 215s-213 317.333 -213 522zM1096 1894l-215 -266h-103l-215 266h92l174 -204l175 204h92z" />
    <glyph glyph-name="ccaron" unicode="&#x10d;" horiz-adv-x="1054" 
d="M92 492c0 142 47.8359 262.832 143.503 362.499s208.167 149.5 337.5 149.5c48 0 94.167 -7.16699 138.5 -21.5s80.833 -31.5 109.5 -51.5s54.334 -39.833 77.001 -59.5s38.667 -37.167 48 -52.5l17 -20l-72 -62c-2.66699 4 -6.83398 10.167 -12.501 18.5
s-18.334 22.333 -38.001 42s-40.834 37.334 -63.501 53.001s-52.334 29.667 -89.001 42s-75 18.5 -115 18.5c-104 0 -194.833 -40.833 -272.5 -122.5s-116.5 -180.667 -116.5 -297s39 -215.333 117 -297s168.667 -122.5 272 -122.5c64 0 122.333 14.667 175 44
s90 58.333 112 87l31 43l72 -62c-4 -5.33301 -9.5 -12.833 -16.5 -22.5s-22.833 -26 -47.5 -49s-50.667 -43.333 -78 -61s-63.5 -34 -108.5 -49s-91.5 -22.5 -139.5 -22.5c-130 0 -242.667 49.833 -338 149.5s-143 220.5 -143 362.5zM829.003 1423l-215 -266h-102l-215 266
h92l174 -204l174 204h92z" />
    <glyph glyph-name="Dcaron" unicode="&#x10e;" horiz-adv-x="1515" 
d="M225 1434l420 0.00195312c212.667 0 390.5 -69.333 533.5 -208s214.5 -308.334 214.5 -509.001s-71.333 -370.334 -214 -509.001s-320.667 -208 -534 -208h-420v1434zM645 1331h-317v-1229h317c188.667 0 343.334 58.5 464.001 175.5s181 263.5 181 439.5
s-60.333 322.333 -181 439s-275.334 175 -464.001 175zM1004 1894l-216 -266h-102l-215 266h92l174 -204l174 204h93z" />
    <glyph glyph-name="dcaron" unicode="&#x10f;" horiz-adv-x="1290" 
d="M932 491.5c0 116.333 -38.333 215.333 -115 297s-164.667 122.5 -264 122.5c-94 0 -179 -41.167 -255 -123.5s-114 -181 -114 -296s38 -213.667 114 -296s161 -123.5 255 -123.5c100 0 188.167 40.833 264.5 122.5s114.5 180.667 114.5 297zM932 788v645.999h92v-1434
h-92v195c-2.66699 -5.33301 -7.5 -12.833 -14.5 -22.5s-22 -27.167 -45 -52.5s-48.167 -47.166 -75.5 -65.499s-62.833 -35.333 -106.5 -51s-89.5 -23.5 -137.5 -23.5c-120 0 -226.833 50.167 -320.5 150.5s-140.5 220.666 -140.5 360.999s46.833 260.833 140.5 361.5
s200.5 151 320.5 151c48 0 93.833 -7.66699 137.5 -23s79.5 -33.166 107.5 -53.499s52.5 -41 73.5 -62s36.5 -39.167 46.5 -54.5zM1178 1157l92 277h102l-123 -277h-71z" />
    <glyph glyph-name="Dcroat" unicode="&#x110;" horiz-adv-x="1536" 
d="M41 666v102.002h205v666h420c212.667 0 390.334 -69.333 533.001 -208s214 -308.334 214 -509.001s-71.333 -370.334 -214 -509.001s-320.334 -208 -533.001 -208h-420v666h-205zM666 1331h-318v-563h359v-102h-359v-564h318c188.667 0 343.334 58.5 464.001 175.5
s181 263.5 181 439.5s-60.333 322.333 -181 439s-275.334 175 -464.001 175z" />
    <glyph glyph-name="dcroat" unicode="&#x111;" horiz-adv-x="1228" 
d="M932 748v389h-297v92h297v205h92v-205h164v-92h-164v-1137h-92v195c-2.66699 -5.33301 -7.5 -12.833 -14.5 -22.5s-22 -27.167 -45 -52.5s-48.167 -47.166 -75.5 -65.499s-62.833 -35.333 -106.5 -51s-89.5 -23.5 -137.5 -23.5c-118.667 0 -225.167 49 -319.5 147
s-141.5 212.667 -141.5 344s47.167 246.166 141.5 344.499s200.833 147.5 319.5 147.5c48 0 93.833 -7.5 137.5 -22.5s79.5 -32.833 107.5 -53.5s52.5 -41.5 73.5 -62.5s36.5 -39.167 46.5 -54.5zM932 471c0 106.667 -38.667 199.834 -116 279.501s-165 119.5 -263 119.5
c-94 0 -179 -39.833 -255 -119.5s-114 -172.834 -114 -279.501s38 -199.834 114 -279.501s161 -119.5 255 -119.5c98 0 185.667 39.833 263 119.5s116 172.834 116 279.501z" />
    <glyph glyph-name="Emacron" unicode="&#x112;" horiz-adv-x="1290" 
d="M328 102h880v-102h-983v1434h963v-103h-860v-532h696v-103h-696v-594zM983 1802v-82h-553v82h553z" />
    <glyph glyph-name="emacron" unicode="&#x113;" horiz-adv-x="1126" 
d="M1014 451l-830.001 0.000976562c5.33301 -102.667 46 -191.5 122 -266.5s165 -112.5 267 -112.5c39.333 0 77.833 5.66699 115.5 17s68.834 25.666 93.501 42.999s46.167 34.5 64.5 51.5s32.5 30.833 42.5 41.5l12 19l62 -60c-4 -5.33301 -9.5 -12.833 -16.5 -22.5
s-22.833 -26 -47.5 -49s-50.667 -43.333 -78 -61s-63.5 -34 -108.5 -49s-91.5 -22.5 -139.5 -22.5c-130 0 -242.667 49.833 -338 149.5s-143 220.5 -143 362.5c0 140.667 47.167 261.167 141.5 361.5s204.333 150.5 330 150.5s232.167 -47.833 319.5 -143.5
s131 -218.5 131 -368.5v-41zM562.999 911.001c-96.667 0 -182.5 -36.833 -257.5 -110.5s-115.5 -159.5 -121.5 -257.5h738c-5.33301 106.667 -42 194.667 -110 264s-151 104 -249 104zM839.999 1331v-82h-553v82h553z" />
    <glyph glyph-name="Edotaccent" unicode="&#x116;" horiz-adv-x="1290" 
d="M328 102h880v-102h-983v1434h963v-103h-860v-532h696v-103h-696v-594zM635 1761.5c0 20.333 6.83301 37.333 20.5 51s30.667 20.5 51 20.5s37.333 -6.83301 51 -20.5s20.5 -30.667 20.5 -51s-6.83301 -37.333 -20.5 -51s-30.667 -20.5 -51 -20.5
s-37.333 6.83301 -51 20.5s-20.5 30.667 -20.5 51z" />
    <glyph glyph-name="edotaccent" unicode="&#x117;" horiz-adv-x="1126" 
d="M1014 451l-830.001 0.000976562c5.33301 -102.667 46 -191.5 122 -266.5s165 -112.5 267 -112.5c39.333 0 77.833 5.66699 115.5 17s68.834 25.666 93.501 42.999s46.167 34.5 64.5 51.5s32.5 30.833 42.5 41.5l12 19l62 -60c-4 -5.33301 -9.5 -12.833 -16.5 -22.5
s-22.833 -26 -47.5 -49s-50.667 -43.333 -78 -61s-63.5 -34 -108.5 -49s-91.5 -22.5 -139.5 -22.5c-130 0 -242.667 49.833 -338 149.5s-143 220.5 -143 362.5c0 140.667 47.167 261.167 141.5 361.5s204.333 150.5 330 150.5s232.167 -47.833 319.5 -143.5
s131 -218.5 131 -368.5v-41zM562.999 911.001c-96.667 0 -182.5 -36.833 -257.5 -110.5s-115.5 -159.5 -121.5 -257.5h738c-5.33301 106.667 -42 194.667 -110 264s-151 104 -249 104zM491.999 1290.5c0 20.333 6.66699 37.333 20 51s30.333 20.5 51 20.5
s37.834 -6.83301 51.501 -20.5s20.5 -30.667 20.5 -51s-6.83301 -37.333 -20.5 -51s-30.834 -20.5 -51.501 -20.5s-37.667 6.83301 -51 20.5s-20 30.667 -20 51z" />
    <glyph glyph-name="Eogonek" unicode="&#x118;" horiz-adv-x="1290" 
d="M1137 0l-912 0.00195312v1434h963v-103h-860v-532h696v-103h-696v-594h880v-102c-9.33301 -9.33301 -21.5 -21.833 -36.5 -37.5s-34.833 -44.334 -59.5 -86.001s-37 -79.167 -37 -112.5c0 -31.333 10 -56.166 30 -74.499s47.667 -27.5 83 -27.5
c18 0 37.167 2.33301 57.5 7s36.5 10 48.5 16l17 8v-72c-40.667 -20.667 -81.667 -31 -123 -31c-56 0 -100.667 16.167 -134 48.5s-50 74.166 -50 125.499c0 39.333 10.833 78.666 32.5 117.999s43.5 69 65.5 89z" />
    <glyph glyph-name="eogonek" unicode="&#x119;" horiz-adv-x="1126" 
d="M1014 451l-830.001 0.000976562c5.33301 -102.667 46 -191.5 122 -266.5s165 -112.5 267 -112.5c39.333 0 77.833 5.66699 115.5 17s68.834 25.666 93.501 42.999s46.167 34.5 64.5 51.5s32.5 30.833 42.5 41.5l12 19l62 -60c-2.66699 -4 -7.16699 -10 -13.5 -18
s-20.5 -22.667 -42.5 -44s-44.833 -40.5 -68.5 -57.5s-54.667 -33.667 -93 -50s-77.833 -26.5 -118.5 -30.5c-76.667 -80.667 -115 -154 -115 -220c0 -31.333 9.83301 -56.166 29.5 -74.499s47.5 -27.5 83.5 -27.5c18 0 37.167 2.33301 57.5 7s35.833 10 46.5 16l19 8v-72
c-40.667 -20.667 -81.667 -31 -123 -31c-56 0 -100.833 16.167 -134.5 48.5s-50.5 74.166 -50.5 125.499c0 75.333 36.333 147.333 109 216c-124 6.66699 -231.167 59.167 -321.5 157.5s-135.5 216.5 -135.5 354.5c0 140.667 47.167 261.167 141.5 361.5
s204.333 150.5 330 150.5s232.167 -47.833 319.5 -143.5s131 -218.5 131 -368.5v-41zM562.999 911.001c-96.667 0 -182.5 -36.833 -257.5 -110.5s-115.5 -159.5 -121.5 -257.5h738c-5.33301 106.667 -42 194.667 -110 264s-151 104 -249 104z" />
    <glyph glyph-name="Ecaron" unicode="&#x11a;" horiz-adv-x="1290" 
d="M328 102h880v-102h-983v1434h963v-103h-860v-532h696v-103h-696v-594zM973 1884l-215 -266h-103l-215 266h92l175 -205l174 205h92z" />
    <glyph glyph-name="ecaron" unicode="&#x11b;" horiz-adv-x="1126" 
d="M1014 451l-830.001 0.000976562c5.33301 -102.667 46 -191.5 122 -266.5s165 -112.5 267 -112.5c39.333 0 77.833 5.66699 115.5 17s68.834 25.666 93.501 42.999s46.167 34.5 64.5 51.5s32.5 30.833 42.5 41.5l12 19l62 -60c-4 -5.33301 -9.5 -12.833 -16.5 -22.5
s-22.833 -26 -47.5 -49s-50.667 -43.333 -78 -61s-63.5 -34 -108.5 -49s-91.5 -22.5 -139.5 -22.5c-130 0 -242.667 49.833 -338 149.5s-143 220.5 -143 362.5c0 140.667 47.167 261.167 141.5 361.5s204.333 150.5 330 150.5s232.167 -47.833 319.5 -143.5
s131 -218.5 131 -368.5v-41zM562.999 911.001c-96.667 0 -182.5 -36.833 -257.5 -110.5s-115.5 -159.5 -121.5 -257.5h738c-5.33301 106.667 -42 194.667 -110 264s-151 104 -249 104zM828.999 1423l-215 -266h-102l-215 266h92l174 -204l174 204h92z" />
    <glyph glyph-name="Gbreve" unicode="&#x11e;" horiz-adv-x="1617" 
d="M123 717c0 204.667 70.9971 378.666 212.997 521.999s313.333 215 514 215c72.667 0 142.334 -10.5 209.001 -31.5s121.834 -46.667 165.501 -77s82 -60.5 115 -90.5s56.833 -55 71.5 -75l23 -33l-72 -62c-4 6.66699 -10.5 16.334 -19.5 29.001
s-29.167 34.334 -60.5 65.001s-65.5 57.5 -102.5 80.5s-85.167 44.167 -144.5 63.5s-121 29 -185 29c-174.667 0 -322.5 -61.167 -443.5 -183.5s-181.5 -272.833 -181.5 -451.5s60.5 -329.167 181.5 -451.5s268.833 -183.5 443.5 -183.5c61.333 0 120.333 8.16699 177 24.5
s103.834 36.166 141.501 59.499s71.167 46.166 100.5 68.499s50 41.833 62 58.5l21 24v297h-369v103h471v-430c-5.33301 -8 -13.833 -19 -25.5 -33s-36.667 -38.667 -75 -74s-79.333 -66.666 -123 -93.999s-100 -51.833 -169 -73.5s-139.5 -32.5 -211.5 -32.5
c-200.667 0 -372 71.667 -514 215s-213 317.333 -213 522zM828.997 1700c56 0 100.833 16.667 134.5 50s50.5 78 50.5 134h82c0 -76.667 -25.333 -140.167 -76 -190.5s-114.167 -75.5 -190.5 -75.5s-139.833 25.167 -190.5 75.5s-76 113.833 -76 190.5h82
c0 -56 16.667 -100.667 50 -134s78 -50 134 -50z" />
    <glyph glyph-name="gbreve" unicode="&#x11f;" horiz-adv-x="1198" 
d="M184 512c0 -110.667 36.167 -204.83 108.5 -282.497s155.833 -116.5 250.5 -116.5c95.333 0 180.5 39.167 255.5 117.5s112.5 172.166 112.5 281.499s-37.5 203.166 -112.5 281.499s-160.167 117.5 -255.5 117.5c-94 0 -177.333 -38.833 -250 -116.5
s-109 -171.834 -109 -282.501zM911 61.0039v163.999c-2.66699 -5.33301 -7 -12.833 -13 -22.5s-20.333 -26 -43 -49s-47 -43.333 -73 -61s-60.5 -34.167 -103.5 -49.5s-88.167 -23 -135.5 -23c-120 0 -225.167 47.833 -315.5 143.5s-135.5 211.834 -135.5 348.501
s45 252.834 135 348.501s195.333 143.5 316 143.5c48 0 93.333 -7.16699 136 -21.5s77.334 -31.5 104.001 -51.5s50.334 -39.833 71.001 -59.5s35 -37.167 43 -52.5l14 -20v184h93v-922c0 -136.667 -46.167 -252.667 -138.5 -348s-203.5 -143 -333.5 -143
c-49.333 0 -96.333 7.16699 -141 21.5s-81.334 31.333 -110.001 51s-54 39.5 -76 59.5s-37.667 37.333 -47 52l-15 21l62 61c2.66699 -4 7 -10.167 13 -18.5s19.333 -22.333 40 -42s42.5 -37.334 65.5 -53.001s53.667 -29.667 92 -42s77.166 -18.5 116.499 -18.5
c104 0 193.167 38.5 267.5 115.5s111.5 171.5 111.5 283.5zM573 1239c56 0 100.833 16.667 134.5 50s50.5 78 50.5 134h82c0 -76.667 -25.333 -140.167 -76 -190.5s-114.167 -75.5 -190.5 -75.5s-139.833 25.333 -190.5 76s-76 114 -76 190h82
c0 -56 16.667 -100.667 50 -134s78 -50 134 -50z" />
    <glyph glyph-name="uni0122" unicode="&#x122;" horiz-adv-x="1617" 
d="M123 717c0 204.667 70.9971 378.666 212.997 521.999s313.333 215 514 215c72.667 0 142.334 -10.5 209.001 -31.5s121.834 -46.667 165.501 -77s82 -60.5 115 -90.5s56.833 -55 71.5 -75l23 -33l-72 -62c-4 6.66699 -10.5 16.334 -19.5 29.001
s-29.167 34.334 -60.5 65.001s-65.5 57.5 -102.5 80.5s-85.167 44.167 -144.5 63.5s-121 29 -185 29c-174.667 0 -322.5 -61.167 -443.5 -183.5s-181.5 -272.833 -181.5 -451.5s60.5 -329.167 181.5 -451.5s268.833 -183.5 443.5 -183.5c61.333 0 120.333 8.16699 177 24.5
s103.834 36.166 141.501 59.499s71.167 46.166 100.5 68.499s50 41.833 62 58.5l21 24v297h-369v103h471v-430c-5.33301 -8 -13.833 -19 -25.5 -33s-36.667 -38.667 -75 -74s-79.333 -66.666 -123 -93.999s-100 -51.833 -169 -73.5s-139.5 -32.5 -211.5 -32.5
c-200.667 0 -372 71.667 -514 215s-213 317.333 -213 522zM710.997 -440.001l92 276h102l-123 -276h-71z" />
    <glyph glyph-name="uni0123" unicode="&#x123;" horiz-adv-x="1198" 
d="M184 512c0 -110.667 36.167 -204.83 108.5 -282.497s155.833 -116.5 250.5 -116.5c95.333 0 180.5 39.167 255.5 117.5s112.5 172.166 112.5 281.499s-37.5 203.166 -112.5 281.499s-160.167 117.5 -255.5 117.5c-94 0 -177.333 -38.833 -250 -116.5
s-109 -171.834 -109 -282.501zM911 61.0039v163.999c-2.66699 -5.33301 -7 -12.833 -13 -22.5s-20.333 -26 -43 -49s-47 -43.333 -73 -61s-60.5 -34.167 -103.5 -49.5s-88.167 -23 -135.5 -23c-120 0 -225.167 47.833 -315.5 143.5s-135.5 211.834 -135.5 348.501
s45 252.834 135 348.501s195.333 143.5 316 143.5c48 0 93.333 -7.16699 136 -21.5s77.334 -31.5 104.001 -51.5s50.334 -39.833 71.001 -59.5s35 -37.167 43 -52.5l14 -20v184h93v-922c0 -136.667 -46.167 -252.667 -138.5 -348s-203.5 -143 -333.5 -143
c-49.333 0 -96.333 7.16699 -141 21.5s-81.334 31.333 -110.001 51s-54 39.5 -76 59.5s-37.667 37.333 -47 52l-15 21l62 61c2.66699 -4 7 -10.167 13 -18.5s19.333 -22.333 40 -42s42.5 -37.334 65.5 -53.001s53.667 -29.667 92 -42s77.166 -18.5 116.499 -18.5
c104 0 193.167 38.5 267.5 115.5s111.5 171.5 111.5 283.5zM707 1423l-93 -276h-102l123 276h72z" />
    <glyph glyph-name="Imacron" unicode="&#x12a;" horiz-adv-x="552" 
d="M225 0v1434h103v-1434h-103zM553 1802v-82h-553v82h553z" />
    <glyph glyph-name="imacron" unicode="&#x12b;" horiz-adv-x="460" 
d="M174 0v983h92v-983h-92zM492 1331v-82h-553v82h553z" />
    <glyph glyph-name="Iogonek" unicode="&#x12e;" horiz-adv-x="552" 
d="M328 0l-31.001 0.00195312c-9.33301 -9.33301 -21.5 -21.833 -36.5 -37.5s-34.833 -44.334 -59.5 -86.001s-37 -79.167 -37 -112.5c0 -31.333 9.83301 -56.166 29.5 -74.499s47.167 -27.5 82.5 -27.5c18 0 37.333 2.33301 58 7s36.334 10 47.001 16l18 8v-72
c-40.667 -20.667 -81.667 -31 -123 -31c-56 0 -100.667 16.167 -134 48.5s-50 74.166 -50 125.499c0 39.333 11.333 78.666 34 117.999s45 69 67 89l32 29v1434h103v-1434z" />
    <glyph glyph-name="iogonek" unicode="&#x12f;" horiz-adv-x="460" 
d="M266 0l-20.002 0.00195312c-9.33301 -9.33301 -21.666 -21.833 -36.999 -37.5s-35.166 -44.334 -59.499 -86.001s-36.5 -79.167 -36.5 -112.5c0 -31.333 9.83301 -56.166 29.5 -74.499s47.167 -27.5 82.5 -27.5c18 0 37.167 2.33301 57.5 7s36.833 10 49.5 16l16 8v-72
c-40.667 -20.667 -81.667 -31 -123 -31c-56 0 -100.667 16.167 -134 48.5s-50 74.166 -50 125.499c0 39.333 10.833 78.666 32.5 117.999s43.5 69 65.5 89l35 29v983h92v-983zM153.998 1331c0 20.667 6.83301 37.834 20.5 51.501s30.667 20.5 51 20.5
s37.333 -6.83301 51 -20.5s20.5 -30.834 20.5 -51.501s-6.83301 -37.667 -20.5 -51s-30.667 -20 -51 -20s-37.333 6.66699 -51 20s-20.5 30.333 -20.5 51z" />
    <glyph glyph-name="Idotaccent" unicode="&#x130;" horiz-adv-x="552" 
d="M225 0v1434h103v-1434h-103zM205 1761.5c0 20.333 6.83301 37.333 20.5 51s30.667 20.5 51 20.5s37.333 -6.83301 51 -20.5s20.5 -30.667 20.5 -51s-6.83301 -37.333 -20.5 -51s-30.667 -20.5 -51 -20.5s-37.333 6.83301 -51 20.5s-20.5 30.667 -20.5 51z" />
    <glyph glyph-name="dotlessi" unicode="&#x131;" horiz-adv-x="460" 
d="M174 0v983h92v-983h-92z" />
    <glyph glyph-name="uni0136" unicode="&#x136;" horiz-adv-x="1341" 
d="M328 553l798 881h134l-543 -594l594 -840h-123l-533 768l-327 -358v-410h-103v1434h103v-881zM584 -440l92 276h102l-123 -276h-71z" />
    <glyph glyph-name="uni0137" unicode="&#x137;" horiz-adv-x="1024" 
d="M266 266v-266h-92v1434h92v-1035l543 584h123l-369 -399l420 -584h-113l-368 512h-10zM420 -440l92 276h102l-122 -276h-72z" />
    <glyph glyph-name="Lacute" unicode="&#x139;" horiz-adv-x="1146" 
d="M1096 0h-871v1434h103v-1332h768v-102zM246 1628l153 266h113l-184 -266h-82z" />
    <glyph glyph-name="lacute" unicode="&#x13a;" horiz-adv-x="460" 
d="M266 1434v-1434h-92v1434h92zM195 1628l153 266h113l-185 -266h-81z" />
    <glyph glyph-name="uni013B" unicode="&#x13b;" horiz-adv-x="1146" 
d="M1096 0h-871v1434h103v-1332h768v-102zM543 -440l92 276h102l-123 -276h-71z" />
    <glyph glyph-name="uni013C" unicode="&#x13c;" horiz-adv-x="460" 
d="M266 1434v-1434h-92v1434h92zM72 -440l92 276h102l-123 -276h-71z" />
    <glyph glyph-name="Lcaron" unicode="&#x13d;" horiz-adv-x="1146" 
d="M1096 0h-871v1434h103v-1332h768v-102zM553 1157l92 277h103l-123 -277h-72z" />
    <glyph glyph-name="lcaron" unicode="&#x13e;" horiz-adv-x="540" 
d="M266 1434v-1434h-92v1434h92zM418 1157l92 277h102l-123 -277h-71z" />
    <glyph glyph-name="Lslash" unicode="&#x141;" horiz-adv-x="1228" 
d="M1188 0h-871v614l-245 -143l-52 82l297 174v707h103v-646l317 189l51 -86l-368 -215v-574h768v-102z" />
    <glyph glyph-name="lslash" unicode="&#x142;" horiz-adv-x="686" 
d="M379 1434v-605l266 164l41 -71l-307 -185v-737h-92v686l-267 -164l-40 72l307 184v656h92z" />
    <glyph glyph-name="Nacute" unicode="&#x143;" horiz-adv-x="1587" 
d="M1260 1434h102v-1434h-82l-952 1239v-1239h-103v1434h82l953 -1239v1239zM758 1628l153 266h113l-184 -266h-82z" />
    <glyph glyph-name="nacute" unicode="&#x144;" horiz-adv-x="1177" 
d="M266 983l0.000976562 -173.999c2.66699 5.33301 6.5 12.5 11.5 21.5s17.333 24.333 37 46s41.167 41.167 64.5 58.5s55.166 33.166 95.499 47.499s83.5 21.5 129.5 21.5c113.333 0 208.333 -39.667 285 -119s115 -179.666 115 -300.999v-584h-93v584
c0 95.333 -29.333 173.666 -88 234.999s-131.667 92 -219 92c-92.667 0 -172.167 -34.333 -238.5 -103s-99.5 -153.667 -99.5 -255v-553h-92v983h92zM553.001 1157l154 266h112l-184 -266h-82z" />
    <glyph glyph-name="uni0145" unicode="&#x145;" horiz-adv-x="1587" 
d="M1260 1434h102v-1434h-82l-952 1239v-1239h-103v1434h82l953 -1239v1239zM686 -440l92 276h103l-123 -276h-72z" />
    <glyph glyph-name="uni0146" unicode="&#x146;" horiz-adv-x="1177" 
d="M266 983l0.000976562 -173.999c2.66699 5.33301 6.5 12.5 11.5 21.5s17.333 24.333 37 46s41.167 41.167 64.5 58.5s55.166 33.166 95.499 47.499s83.5 21.5 129.5 21.5c113.333 0 208.333 -39.667 285 -119s115 -179.666 115 -300.999v-584h-93v584
c0 95.333 -29.333 173.666 -88 234.999s-131.667 92 -219 92c-92.667 0 -172.167 -34.333 -238.5 -103s-99.5 -153.667 -99.5 -255v-553h-92v983h92zM461.001 -439.999l92 276h102l-123 -276h-71z" />
    <glyph glyph-name="Ncaron" unicode="&#x147;" horiz-adv-x="1587" 
d="M1260 1434h102v-1434h-82l-952 1239v-1239h-103v1434h82l953 -1239v1239zM1055 1884l-215 -266h-103l-215 266h92l174 -205l175 205h92z" />
    <glyph glyph-name="ncaron" unicode="&#x148;" horiz-adv-x="1177" 
d="M266 983l0.000976562 -173.999c2.66699 5.33301 6.5 12.5 11.5 21.5s17.333 24.333 37 46s41.167 41.167 64.5 58.5s55.166 33.166 95.499 47.499s83.5 21.5 129.5 21.5c113.333 0 208.333 -39.667 285 -119s115 -179.666 115 -300.999v-584h-93v584
c0 95.333 -29.333 173.666 -88 234.999s-131.667 92 -219 92c-92.667 0 -172.167 -34.333 -238.5 -103s-99.5 -153.667 -99.5 -255v-553h-92v983h92zM850.001 1423l-215 -266h-103l-215 266h93l174 -204l174 204h92z" />
    <glyph glyph-name="Omacron" unicode="&#x14c;" horiz-adv-x="1699" 
d="M1475 717c0 178.667 -60.5 329.167 -181.5 451.5s-268.833 183.5 -443.5 183.5s-322.5 -61.167 -443.5 -183.5s-181.5 -272.833 -181.5 -451.5s60.5 -329.167 181.5 -451.5s268.833 -183.5 443.5 -183.5s322.5 61.167 443.5 183.5s181.5 272.833 181.5 451.5zM1577 717
c0 -204.667 -70.667 -378.667 -212 -522s-313 -215 -515 -215c-200.667 0 -372 71.667 -514 215s-213 317.333 -213 522s71 378.667 213 522s313.333 215 514 215c202 0 373.667 -71.667 515 -215s212 -317.333 212 -522zM1126 1802v-82h-553v82h553z" />
    <glyph glyph-name="omacron" unicode="&#x14d;" 
d="M92 492c0 142 48.5 262.833 145.5 362.5s212.333 149.5 346 149.5s249 -49.833 346 -149.5s145.5 -220.5 145.5 -362.5s-48.5 -262.833 -145.5 -362.5s-212.333 -149.5 -346 -149.5s-249 49.833 -346 149.5s-145.5 220.5 -145.5 362.5zM983 491.5
c0 116.333 -39.167 215.333 -117.5 297s-172.166 122.5 -281.499 122.5s-203.333 -40.833 -282 -122.5s-118 -180.667 -118 -297s39.333 -215.333 118 -297s172.667 -122.5 282 -122.5s203.166 40.833 281.499 122.5s117.5 180.667 117.5 297zM860 1331v-82h-553v82h553z
" />
    <glyph glyph-name="Ohungarumlaut" unicode="&#x150;" horiz-adv-x="1699" 
d="M1475 717c0 178.667 -60.5 329.167 -181.5 451.5s-268.833 183.5 -443.5 183.5s-322.5 -61.167 -443.5 -183.5s-181.5 -272.833 -181.5 -451.5s60.5 -329.167 181.5 -451.5s268.833 -183.5 443.5 -183.5s322.5 61.167 443.5 183.5s181.5 272.833 181.5 451.5zM1577 717
c0 -204.667 -70.667 -378.667 -212 -522s-313 -215 -515 -215c-200.667 0 -372 71.667 -514 215s-213 317.333 -213 522s71 378.667 213 522s313.333 215 514 215c202 0 373.667 -71.667 515 -215s212 -317.333 212 -522zM655 1618l154 266h113l-185 -266h-82zM952 1618
l154 266h113l-185 -266h-82z" />
    <glyph glyph-name="ohungarumlaut" unicode="&#x151;" 
d="M92 492c0 142 48.5 262.833 145.5 362.5s212.333 149.5 346 149.5s249 -49.833 346 -149.5s145.5 -220.5 145.5 -362.5s-48.5 -262.833 -145.5 -362.5s-212.333 -149.5 -346 -149.5s-249 49.833 -346 149.5s-145.5 220.5 -145.5 362.5zM983 491.5
c0 116.333 -39.167 215.333 -117.5 297s-172.166 122.5 -281.499 122.5s-203.333 -40.833 -282 -122.5s-118 -180.667 -118 -297s39.333 -215.333 118 -297s172.667 -122.5 282 -122.5s203.166 40.833 281.499 122.5s117.5 180.667 117.5 297zM389 1157l154 266h112
l-184 -266h-82zM686 1157l154 266h112l-184 -266h-82z" />
    <glyph glyph-name="OE" unicode="&#x152;" horiz-adv-x="2027" 
d="M1167 102l779 -0.00195312v-102h-1086c-208.667 0 -383.667 69.333 -525 208s-212 308.334 -212 509.001s70.667 370.334 212 509.001s316.333 208 525 208h1065v-103h-758v-532h594v-103h-594v-594zM225 716.998c0 -174.667 60.167 -320.833 180.5 -438.5
s271.833 -176.5 454.5 -176.5h205v1229h-205c-182.667 0 -334.167 -58.667 -454.5 -176s-180.5 -263.333 -180.5 -438z" />
    <glyph glyph-name="oe" unicode="&#x153;" horiz-adv-x="1925" 
d="M1812 451l-788 0.00390625c9.33301 -106.667 49.833 -196.5 121.5 -269.5s154.167 -109.5 247.5 -109.5c64 0 122.333 14.667 175 44s89.667 58.333 111 87l31 43l62 -62c-2.66699 -5.33301 -7.5 -12.833 -14.5 -22.5s-22.167 -26 -45.5 -49s-48.666 -43.333 -75.999 -61
s-62.833 -34 -106.5 -49s-89.167 -22.5 -136.5 -22.5c-56 0 -108.667 10.167 -158 30.5s-89 45.5 -119 75.5s-56.167 60 -78.5 90s-37.833 55.333 -46.5 76l-14 31c-2.66699 -8 -7.5 -19 -14.5 -33s-22.333 -38.333 -46 -73s-49.834 -65.334 -78.501 -92.001
s-67.667 -50.834 -117 -72.501s-102 -32.5 -158 -32.5c-120 0 -226.833 50.167 -320.5 150.5s-140.5 220.666 -140.5 360.999s46.833 260.833 140.5 361.5s200.5 151 320.5 151c56 0 108.333 -10.667 157 -32s87.667 -47 117 -77s54.833 -60 76.5 -90s36.5 -55.333 44.5 -76
l15 -33c2.66699 8 7 19 13 33s21 38.667 45 74s50.333 66.666 79 93.999s67.167 52 115.5 74s100.5 33 156.5 33c116 0 216.667 -48.167 302 -144.5s128 -218.833 128 -367.5v-41zM195 491.504c0 -115 37.833 -213.667 113.5 -296s160.667 -123.5 255 -123.5
s179.333 41.167 255 123.5s113.5 181 113.5 296s-37.833 213.667 -113.5 296s-160.667 123.5 -255 123.5s-179.333 -41.167 -255 -123.5s-113.5 -181 -113.5 -296zM1382 911.004c-87.333 0 -167.499 -37.167 -240.499 -111.5s-112.167 -159.833 -117.5 -256.5h696
c-5.33301 106.667 -40.833 194.667 -106.5 264s-142.834 104 -231.501 104z" />
    <glyph glyph-name="Racute" unicode="&#x154;" horiz-adv-x="1351" 
d="M225 1434h543c126.667 0 231.667 -40.333 315 -121s125 -180.334 125 -299.001c0 -62.667 -10.833 -119.334 -32.5 -170.001s-48.167 -89.667 -79.5 -117s-62.5 -50.166 -93.5 -68.499s-57.167 -30.166 -78.5 -35.499l-33 -9l348 -614h-113l-338 594h-460v-594h-103v1434
zM768 1331h-440v-635h440c101.333 0 183 29.667 245 89s93 135.5 93 228.5s-31 169.167 -93 228.5s-143.667 89 -245 89zM645 1628l154 266h112l-184 -266h-82z" />
    <glyph glyph-name="racute" unicode="&#x155;" horiz-adv-x="696" 
d="M655 1004l-0.00292969 -92.999h-41c-95.333 0 -177.166 -33.333 -245.499 -100s-102.5 -152.667 -102.5 -258v-553h-92v983h92v-164c2.66699 5.33301 6.5 12.166 11.5 20.499s17.333 23 37 44s41.834 39.833 66.501 56.5s57.834 31.5 99.501 44.5s86.167 19.5 133.5 19.5
h41zM368.997 1157l153 266h113l-184 -266h-82z" />
    <glyph glyph-name="uni0156" unicode="&#x156;" horiz-adv-x="1351" 
d="M225 1434h543c126.667 0 231.667 -40.333 315 -121s125 -180.334 125 -299.001c0 -62.667 -10.833 -119.334 -32.5 -170.001s-48.167 -89.667 -79.5 -117s-62.5 -50.166 -93.5 -68.499s-57.167 -30.166 -78.5 -35.499l-33 -9l348 -614h-113l-338 594h-460v-594h-103v1434
zM768 1331h-440v-635h440c101.333 0 183 29.667 245 89s93 135.5 93 228.5s-31 169.167 -93 228.5s-143.667 89 -245 89zM573 -440l93 276h102l-123 -276h-72z" />
    <glyph glyph-name="uni0157" unicode="&#x157;" horiz-adv-x="696" 
d="M655 1004l-0.00292969 -92.999h-41c-95.333 0 -177.166 -33.333 -245.499 -100s-102.5 -152.667 -102.5 -258v-553h-92v983h92v-164c2.66699 5.33301 6.5 12.166 11.5 20.499s17.333 23 37 44s41.834 39.833 66.501 56.5s57.834 31.5 99.501 44.5s86.167 19.5 133.5 19.5
h41zM71.9971 -439.999l92 276h102l-123 -276h-71z" />
    <glyph glyph-name="Rcaron" unicode="&#x158;" horiz-adv-x="1351" 
d="M225 1434h543c126.667 0 231.667 -40.333 315 -121s125 -180.334 125 -299.001c0 -62.667 -10.833 -119.334 -32.5 -170.001s-48.167 -89.667 -79.5 -117s-62.5 -50.166 -93.5 -68.499s-57.167 -30.166 -78.5 -35.499l-33 -9l348 -614h-113l-338 594h-460v-594h-103v1434
zM768 1331h-440v-635h440c101.333 0 183 29.667 245 89s93 135.5 93 228.5s-31 169.167 -93 228.5s-143.667 89 -245 89zM952 1884l-215 -266h-102l-215 266h92l174 -205l174 205h92z" />
    <glyph glyph-name="rcaron" unicode="&#x159;" horiz-adv-x="696" 
d="M655 1004l-0.00292969 -92.999h-41c-95.333 0 -177.166 -33.333 -245.499 -100s-102.5 -152.667 -102.5 -258v-553h-92v983h92v-164c2.66699 5.33301 6.5 12.166 11.5 20.499s17.333 23 37 44s41.834 39.833 66.501 56.5s57.834 31.5 99.501 44.5s86.167 19.5 133.5 19.5
h41zM675.997 1423l-215 -266h-103l-215 266h93l174 -204l174 204h92z" />
    <glyph glyph-name="Sacute" unicode="&#x15a;" horiz-adv-x="1146" 
d="M932 379c0 70.667 -27.3291 127.834 -81.9961 171.501s-121.334 77.5 -200.001 101.5s-157.167 49.333 -235.5 76s-144.833 68.667 -199.5 126s-82 131 -82 221c0 105.333 41.667 194.833 125 268.5s192 110.5 326 110.5c49.333 0 97.166 -6.16699 143.499 -18.5
s84.833 -26.666 115.5 -42.999s58 -33 82 -50s41.333 -31.833 52 -44.5l16 -18l-71 -72c-2.66699 4 -7.16699 9.16699 -13.5 15.5s-20 17.666 -41 33.999s-43.5 31 -67.5 44s-55.5 24.667 -94.5 35s-79.5 15.5 -121.5 15.5c-109.333 0 -194.666 -26 -255.999 -78
s-92 -118.333 -92 -199c0 -70.667 27.167 -127.834 81.5 -171.501s120.833 -77.5 199.5 -101.5s157.167 -49.333 235.5 -76s144.833 -68.667 199.5 -126s82 -131 82 -221c0 -116 -42.333 -211.5 -127 -286.5s-199.334 -112.5 -344.001 -112.5
c-58.667 0 -115.334 7.5 -170.001 22.5s-99.334 32.667 -134.001 53s-65.334 41.166 -92.001 62.499s-45.334 39.333 -56.001 54l-19 23l72 71c2.66699 -5.33301 7.33398 -12.166 14.001 -20.499s22 -23 46 -44s50.333 -39.667 79 -56s66.167 -31 112.5 -44
s95.5 -19.5 147.5 -19.5c118.667 0 209.834 27 273.501 81s95.5 126 95.5 216zM532.004 1628l154 266h113l-185 -266h-82z" />
    <glyph glyph-name="sacute" unicode="&#x15b;" horiz-adv-x="880" 
d="M737 860l-71 -72.001c-2.66699 2.66699 -6.16699 7.16699 -10.5 13.5s-14 16.333 -29 30s-30.667 26 -47 37s-38.166 20.833 -65.499 29.5s-55.333 13 -84 13c-68 0 -122.5 -17 -163.5 -51s-61.5 -75 -61.5 -123c0 -42 19.5 -76.667 58.5 -104s86 -48.5 141 -63.5
s109.833 -32.167 164.5 -51.5s101.5 -48.666 140.5 -87.999s58.5 -90.666 58.5 -153.999c0 -84.667 -31.667 -155.167 -95 -211.5s-147.666 -84.5 -252.999 -84.5c-42 0 -82.5 5.33301 -121.5 16s-71.833 24.167 -98.5 40.5s-50 32.833 -70 49.5s-34.667 30.334 -44 41.001
l-14 16l71 72c8 -10.667 19.333 -23.834 34 -39.501s45.834 -36.834 93.501 -63.501s97.5 -40 149.5 -40c79.333 0 141.833 19.333 187.5 58s68.5 87.334 68.5 146.001c0 45.333 -19.5 82 -58.5 110s-86.167 49.833 -141.5 65.5s-110.333 32.667 -165 51
s-101.334 47 -140.001 86s-58 88.5 -58 148.5c0 69.333 30.667 131.166 92 185.499s136.333 81.5 225 81.5c57.333 0 111.666 -12 162.999 -36s88.666 -47.667 111.999 -71zM379 1157l153 266h113l-184 -266h-82z" />
    <glyph glyph-name="Scedilla" unicode="&#x15e;" horiz-adv-x="1146" 
d="M932 379c0 70.667 -27.3359 127.831 -82.0029 171.498s-121.334 77.5 -200.001 101.5s-157.167 49.333 -235.5 76s-144.833 68.667 -199.5 126s-82 131 -82 221c0 105.333 41.667 194.833 125 268.5s192 110.5 326 110.5c49.333 0 97.166 -6.16699 143.499 -18.5
s84.833 -26.666 115.5 -42.999s58 -33 82 -50s41.333 -31.833 52 -44.5l16 -18l-71 -72c-2.66699 4 -7.16699 9.16699 -13.5 15.5s-20 17.666 -41 33.999s-43.5 31 -67.5 44s-55.5 24.667 -94.5 35s-79.5 15.5 -121.5 15.5c-109.333 0 -194.666 -26 -255.999 -78
s-92 -118.333 -92 -199c0 -70.667 27.167 -127.834 81.5 -171.501s120.833 -77.5 199.5 -101.5s157.167 -49.333 235.5 -76s144.833 -68.667 199.5 -126s82 -131 82 -221c0 -112 -39.167 -205.167 -117.5 -279.5s-185.833 -114.166 -322.5 -119.499l-51 -103
c6.66699 6.66699 23.667 10 51 10c40.667 0 74.667 -13.667 102 -41s41 -61.333 41 -102c0 -42 -17 -78.167 -51 -108.5s-78.333 -45.5 -133 -45.5c-27.333 0 -54.666 4.83301 -81.999 14.5s-47.666 18.5 -60.999 26.5l-21 15l31 57c40.667 -34 85 -51 133 -51
c35.333 0 63 8.5 83 25.5s30 39.167 30 66.5c0 20.667 -8.33301 39.5 -25 56.5s-35.667 25.5 -57 25.5c-12 0 -24 -1.66699 -36 -5s-21.333 -6.33301 -28 -9l-8 -7l-51 52l61 125c-53.333 2.66699 -104.833 11.834 -154.5 27.501s-90.5 33.667 -122.5 54s-60 40.5 -84 60.5
s-41.333 36.667 -52 50l-17 21l72 71c2.66699 -5.33301 7.33398 -12.166 14.001 -20.499s22 -23 46 -44s50.333 -39.667 79 -56s66.167 -31 112.5 -44s95.5 -19.5 147.5 -19.5c118.667 0 209.834 27 273.501 81s95.5 126 95.5 216z" />
    <glyph glyph-name="scedilla" unicode="&#x15f;" horiz-adv-x="880" 
d="M737 860l-71 -72c-2.66699 2.66699 -6.16699 7.16699 -10.5 13.5s-14 16.333 -29 30s-30.667 26 -47 37s-38.166 20.833 -65.499 29.5s-55.333 13 -84 13c-68 0 -122.5 -17 -163.5 -51s-61.5 -75 -61.5 -123c0 -42 19.5 -76.667 58.5 -104s86 -48.5 141 -63.5
s109.833 -32.167 164.5 -51.5s101.5 -48.666 140.5 -87.999s58.5 -90.666 58.5 -153.999c0 -79.333 -28.667 -146.833 -86 -202.5s-134.333 -86.167 -231 -91.5l-52 -105c6.66699 6.66699 24 10 52 10c40.667 0 74.667 -13.667 102 -41s41 -61.333 41 -102
c0 -42 -17 -78.167 -51 -108.5s-78.333 -45.5 -133 -45.5c-27.333 0 -54.666 4.83301 -81.999 14.5s-48 18.5 -62 26.5l-20 15l30 57c40.667 -34 85.334 -51 134.001 -51c35.333 0 62.833 8.5 82.5 25.5s29.5 39.167 29.5 66.5c0 20.667 -8.16699 39.5 -24.5 56.5
s-35.5 25.5 -57.5 25.5c-12 0 -23.833 -1.66699 -35.5 -5s-20.834 -6.33301 -27.501 -9l-8 -7l-52 52l62 125c-58.667 5.33301 -113.667 21.333 -165 48s-88 52 -110 76l-32 37l71 72c8 -10.667 19.333 -23.834 34 -39.501s45.834 -36.834 93.501 -63.501
s97.5 -40 149.5 -40c79.333 0 141.833 19.333 187.5 58s68.5 87.334 68.5 146.001c0 45.333 -19.5 82 -58.5 110s-86.167 49.833 -141.5 65.5s-110.333 32.667 -165 51s-101.334 47 -140.001 86s-58 88.5 -58 148.5c0 69.333 30.667 131.166 92 185.499
s136.333 81.5 225 81.5c57.333 0 111.666 -12 162.999 -36s88.666 -47.667 111.999 -71z" />
    <glyph glyph-name="Scaron" unicode="&#x160;" horiz-adv-x="1146" 
d="M932 379c0 70.667 -27.3291 127.834 -81.9961 171.501s-121.334 77.5 -200.001 101.5s-157.167 49.333 -235.5 76s-144.833 68.667 -199.5 126s-82 131 -82 221c0 105.333 41.667 194.833 125 268.5s192 110.5 326 110.5c49.333 0 97.166 -6.16699 143.499 -18.5
s84.833 -26.666 115.5 -42.999s58 -33 82 -50s41.333 -31.833 52 -44.5l16 -18l-71 -72c-2.66699 4 -7.16699 9.16699 -13.5 15.5s-20 17.666 -41 33.999s-43.5 31 -67.5 44s-55.5 24.667 -94.5 35s-79.5 15.5 -121.5 15.5c-109.333 0 -194.666 -26 -255.999 -78
s-92 -118.333 -92 -199c0 -70.667 27.167 -127.834 81.5 -171.501s120.833 -77.5 199.5 -101.5s157.167 -49.333 235.5 -76s144.833 -68.667 199.5 -126s82 -131 82 -221c0 -116 -42.333 -211.5 -127 -286.5s-199.334 -112.5 -344.001 -112.5
c-58.667 0 -115.334 7.5 -170.001 22.5s-99.334 32.667 -134.001 53s-65.334 41.166 -92.001 62.499s-45.334 39.333 -56.001 54l-19 23l72 71c2.66699 -5.33301 7.33398 -12.166 14.001 -20.499s22 -23 46 -44s50.333 -39.667 79 -56s66.167 -31 112.5 -44
s95.5 -19.5 147.5 -19.5c118.667 0 209.834 27 273.501 81s95.5 126 95.5 216zM840.004 1884l-215 -266h-103l-215 266h92l174 -205l175 205h92z" />
    <glyph glyph-name="scaron" unicode="&#x161;" horiz-adv-x="880" 
d="M737 860l-71 -72.001c-2.66699 2.66699 -6.16699 7.16699 -10.5 13.5s-14 16.333 -29 30s-30.667 26 -47 37s-38.166 20.833 -65.499 29.5s-55.333 13 -84 13c-68 0 -122.5 -17 -163.5 -51s-61.5 -75 -61.5 -123c0 -42 19.5 -76.667 58.5 -104s86 -48.5 141 -63.5
s109.833 -32.167 164.5 -51.5s101.5 -48.666 140.5 -87.999s58.5 -90.666 58.5 -153.999c0 -84.667 -31.667 -155.167 -95 -211.5s-147.666 -84.5 -252.999 -84.5c-42 0 -82.5 5.33301 -121.5 16s-71.833 24.167 -98.5 40.5s-50 32.833 -70 49.5s-34.667 30.334 -44 41.001
l-14 16l71 72c8 -10.667 19.333 -23.834 34 -39.501s45.834 -36.834 93.501 -63.501s97.5 -40 149.5 -40c79.333 0 141.833 19.333 187.5 58s68.5 87.334 68.5 146.001c0 45.333 -19.5 82 -58.5 110s-86.167 49.833 -141.5 65.5s-110.333 32.667 -165 51
s-101.334 47 -140.001 86s-58 88.5 -58 148.5c0 69.333 30.667 131.166 92 185.499s136.333 81.5 225 81.5c57.333 0 111.666 -12 162.999 -36s88.666 -47.667 111.999 -71zM686 1423l-215 -266h-102l-215 266h92l174 -204l174 204h92z" />
    <glyph glyph-name="uni0162" unicode="&#x162;" horiz-adv-x="1126" 
d="M41 1434h1044v-103h-471v-1331h-102v1331h-471v103zM420 -440l92 276h102l-122 -276h-72z" />
    <glyph glyph-name="uni0163" unicode="&#x163;" horiz-adv-x="716" 
d="M256 1065l-0.00195312 246h82v-328h225v-92h-225v-645c0 -56 14 -99 42 -129s65.333 -45 112 -45c22 0 43.833 2.33301 65.5 7s37.834 9.66699 48.501 15l19 8v-92c-40.667 -20.667 -85 -30.667 -133 -30c-78 0 -138.5 22.833 -181.5 68.5s-64.5 111.5 -64.5 197.5v645
h-195v92h133c20.667 0 37.834 7.5 51.501 22.5s20.5 34.833 20.5 59.5zM296.998 -440l92 276h103l-123 -276h-72z" />
    <glyph glyph-name="Tcaron" unicode="&#x164;" horiz-adv-x="1126" 
d="M41 1434h1044v-103h-471v-1331h-102v1331h-471v103zM829 1884l-215 -266h-102l-215 266h92l174 -205l174 205h92z" />
    <glyph glyph-name="tcaron" unicode="&#x165;" horiz-adv-x="733" 
d="M256 1065l-0.00195312 246h82v-328h225v-92h-225v-645c0 -56 14 -99 42 -129s65.333 -45 112 -45c22 0 43.833 2.33301 65.5 7s37.834 9.66699 48.501 15l19 8v-92c-40.667 -20.667 -85 -30.667 -133 -30c-78 0 -138.5 22.833 -181.5 68.5s-64.5 111.5 -64.5 197.5v645
h-195v92h133c20.667 0 37.834 7.5 51.501 22.5s20.5 34.833 20.5 59.5zM609.998 1157l92 277h103l-123 -277h-72z" />
    <glyph glyph-name="Umacron" unicode="&#x16a;" horiz-adv-x="1536" 
d="M768 82c128.667 0 237.667 45.333 327 136s134 202.334 134 335.001v881h102v-881c0 -158.667 -55.333 -293.834 -166 -405.501s-243 -167.5 -397 -167.5s-286.333 55.833 -397 167.5s-166 246.834 -166 405.501v881h102v-881c0 -132.667 44.667 -244.334 134 -335.001
s198.333 -136 327 -136zM1044 1802v-82h-552v82h552z" />
    <glyph glyph-name="umacron" unicode="&#x16b;" 
d="M911 0v173.999c-2.66699 -5.33301 -6.33398 -12.5 -11.001 -21.5s-16.834 -24.333 -36.501 -46s-41.167 -41 -64.5 -58s-55.166 -32.667 -95.499 -47s-83.833 -21.5 -130.5 -21.5c-113.333 0 -208.166 39.5 -284.499 118.5s-114.5 179.167 -114.5 300.5v584h92v-584
c0 -95.333 29.333 -173.666 88 -234.999s131.667 -92 219 -92c92.667 0 172.167 34.5 238.5 103.5s99.5 153.833 99.5 254.5v553h93v-983h-93zM860 1331v-82h-553v82h553z" />
    <glyph glyph-name="Uring" unicode="&#x16e;" horiz-adv-x="1536" 
d="M768 82c128.667 0 237.667 45.333 327 136s134 202.334 134 335.001v881h102v-881c0 -158.667 -55.333 -293.834 -166 -405.501s-243 -167.5 -397 -167.5s-286.333 55.833 -397 167.5s-166 246.834 -166 405.501v881h102v-881c0 -132.667 44.667 -244.334 134 -335.001
s198.333 -136 327 -136zM666 1781.5c0 -75 37.5 -112.5 112.5 -112.5s112.5 37.5 112.5 112.5s-37.5 112.5 -112.5 112.5s-112.5 -37.5 -112.5 -112.5zM973 1782c0 -56 -18.5 -102.5 -55.5 -139.5s-83.5 -55.5 -139.5 -55.5s-102.333 18.5 -139 55.5s-55 83.5 -55 139.5
s18.333 102.333 55 139s83 55 139 55s102.5 -18.333 139.5 -55s55.5 -83 55.5 -139z" />
    <glyph glyph-name="uring" unicode="&#x16f;" 
d="M911 0v173.999c-2.66699 -5.33301 -6.33398 -12.5 -11.001 -21.5s-16.834 -24.333 -36.501 -46s-41.167 -41 -64.5 -58s-55.166 -32.667 -95.499 -47s-83.833 -21.5 -130.5 -21.5c-113.333 0 -208.166 39.5 -284.499 118.5s-114.5 179.167 -114.5 300.5v584h92v-584
c0 -95.333 29.333 -173.666 88 -234.999s131.667 -92 219 -92c92.667 0 172.167 34.5 238.5 103.5s99.5 153.833 99.5 254.5v553h93v-983h-93zM471 1310.5c0 -75 37.5 -112.5 112.5 -112.5s112.5 37.5 112.5 112.5s-37.5 112.5 -112.5 112.5s-112.5 -37.5 -112.5 -112.5z
M778 1311c0 -56 -18.333 -102.5 -55 -139.5s-83 -55.5 -139 -55.5s-102.5 18.5 -139.5 55.5s-55.5 83.5 -55.5 139.5s18.5 102.333 55.5 139s83.5 55 139.5 55s102.333 -18.333 139 -55s55 -83 55 -139z" />
    <glyph glyph-name="Uhungarumlaut" unicode="&#x170;" horiz-adv-x="1536" 
d="M768 82c128.667 0 237.667 45.333 327 136s134 202.334 134 335.001v881h102v-881c0 -158.667 -55.333 -293.834 -166 -405.501s-243 -167.5 -397 -167.5s-286.333 55.833 -397 167.5s-166 246.834 -166 405.501v881h102v-881c0 -132.667 44.667 -244.334 134 -335.001
s198.333 -136 327 -136zM563 1618l154 266h112l-184 -266h-82zM860 1618l154 266h112l-184 -266h-82z" />
    <glyph glyph-name="uhungarumlaut" unicode="&#x171;" 
d="M911 0v173.999c-2.66699 -5.33301 -6.33398 -12.5 -11.001 -21.5s-16.834 -24.333 -36.501 -46s-41.167 -41 -64.5 -58s-55.166 -32.667 -95.499 -47s-83.833 -21.5 -130.5 -21.5c-113.333 0 -208.166 39.5 -284.499 118.5s-114.5 179.167 -114.5 300.5v584h92v-584
c0 -95.333 29.333 -173.666 88 -234.999s131.667 -92 219 -92c92.667 0 172.167 34.5 238.5 103.5s99.5 153.833 99.5 254.5v553h93v-983h-93zM379 1147l153 266h113l-184 -266h-82zM676 1147l153 266h113l-184 -266h-82z" />
    <glyph glyph-name="Uogonek" unicode="&#x172;" horiz-adv-x="1536" 
d="M768 82c128.667 0 237.667 45.333 327 136s134 202.334 134 335.001v881h102v-881c0 -144.667 -46.667 -270.667 -140 -378s-209 -170.333 -347 -189c-78 -78 -117 -152 -117 -222c0 -31.333 9.83301 -56.166 29.5 -74.499s47.5 -27.5 83.5 -27.5
c18 0 37.167 2.33301 57.5 7s36.5 10 48.5 16l17 8v-72c-40.667 -20.667 -81.667 -31 -123 -31c-56 0 -100.833 16.167 -134.5 48.5s-50.5 74.166 -50.5 125.499c0 75.333 36.333 147.333 109 216c-152.667 1.33301 -284 57.5 -394 168.5s-165 245.833 -165 404.5v881h102
v-881c0 -132.667 44.667 -244.334 134 -335.001s198.333 -136 327 -136z" />
    <glyph glyph-name="uogonek" unicode="&#x173;" 
d="M1004 0l-20.999 0.000976562c-9.33301 -9.33301 -21.5 -21.833 -36.5 -37.5s-34.833 -44.334 -59.5 -86.001s-37 -79.167 -37 -112.5c0 -31.333 9.83301 -56.166 29.5 -74.499s47.5 -27.5 83.5 -27.5c18 0 37.167 2.33301 57.5 7s36.5 10 48.5 16l16 8v-72
c-40.667 -20.667 -81.334 -31 -122.001 -31c-56 0 -100.833 16.167 -134.5 48.5s-50.5 74.166 -50.5 125.499c0 39.333 11 78.666 33 117.999s44 69 66 89l34 29v174c-2.66699 -5.33301 -6.33398 -12.5 -11.001 -21.5s-16.834 -24.333 -36.501 -46s-41.167 -41 -64.5 -58
s-55.166 -32.667 -95.499 -47s-83.833 -21.5 -130.5 -21.5c-113.333 0 -208.166 39.5 -284.499 118.5s-114.5 179.167 -114.5 300.5v584h92v-584c0 -95.333 29.333 -173.666 88 -234.999s131.667 -92 219 -92c92.667 0 172.167 34.5 238.5 103.5s99.5 153.833 99.5 254.5
v553h93v-983z" />
    <glyph glyph-name="Ydieresis" unicode="&#x178;" horiz-adv-x="1269" 
d="M174 1434l461 -820l461 820h123l-533 -932v-502h-102v502l-533 932h123zM389 1751c0 20.667 6.83301 37.834 20.5 51.501s30.834 20.5 51.501 20.5s37.667 -6.83301 51 -20.5s20 -30.834 20 -51.501s-6.66699 -37.834 -20 -51.501s-30.333 -20.5 -51 -20.5
s-37.834 6.83301 -51.501 20.5s-20.5 30.834 -20.5 51.501zM748 1751c0 20.667 6.66699 37.834 20 51.501s30.333 20.5 51 20.5s37.834 -6.83301 51.501 -20.5s20.5 -30.834 20.5 -51.501s-6.83301 -37.834 -20.5 -51.501s-30.834 -20.5 -51.501 -20.5
s-37.667 6.83301 -51 20.5s-20 30.834 -20 51.501z" />
    <glyph glyph-name="Zacute" unicode="&#x179;" horiz-adv-x="1198" 
d="M963 1331h-840v103h962v-103l-870 -1229h891v-102h-1014v102zM563 1628l154 266h112l-184 -266h-82z" />
    <glyph glyph-name="zacute" unicode="&#x17a;" horiz-adv-x="911" 
d="M809 983v-92l-635 -799h655v-92h-768v92l635 799h-614v92h727zM399 1157l154 266h113l-185 -266h-82z" />
    <glyph glyph-name="Zdotaccent" unicode="&#x17b;" horiz-adv-x="1198" 
d="M963 1331h-840v103h962v-103l-870 -1229h891v-102h-1014v102zM522 1761.5c0 20.333 6.83301 37.333 20.5 51s30.834 20.5 51.501 20.5s37.834 -6.83301 51.501 -20.5s20.5 -30.667 20.5 -51s-6.83301 -37.333 -20.5 -51s-30.834 -20.5 -51.501 -20.5
s-37.834 6.83301 -51.501 20.5s-20.5 30.667 -20.5 51z" />
    <glyph glyph-name="zdotaccent" unicode="&#x17c;" horiz-adv-x="911" 
d="M809 983v-92l-635 -799h655v-92h-768v92l635 799h-614v92h727zM369 1280c0 20.667 6.83301 37.834 20.5 51.501s30.667 20.5 51 20.5s37.333 -6.83301 51 -20.5s20.5 -30.834 20.5 -51.501s-6.83301 -37.834 -20.5 -51.501s-30.667 -20.5 -51 -20.5
s-37.333 6.83301 -51 20.5s-20.5 30.834 -20.5 51.501z" />
    <glyph glyph-name="Zcaron" unicode="&#x17d;" horiz-adv-x="1198" 
d="M963 1331h-840v103h962v-103l-870 -1229h891v-102h-1014v102zM870 1884l-215 -266h-102l-215 266h92l174 -205l174 205h92z" />
    <glyph glyph-name="zcaron" unicode="&#x17e;" horiz-adv-x="911" 
d="M809 983v-92l-635 -799h655v-92h-768v92l635 799h-614v92h727zM705 1423l-216 -266h-102l-215 266h92l174 -204l174 204h93z" />
    <glyph glyph-name="florin" unicode="&#x192;" horiz-adv-x="706" 
d="M399 707l-163 -881.001c-18 -92.667 -47.833 -160.167 -89.5 -202.5s-100.834 -63.5 -177.501 -63.5c-22 0 -43.833 2.33301 -65.5 7s-38.5 9.66699 -50.5 15l-17 8v93c40.667 -20.667 85 -31 133 -31c95.333 0 153.333 58 174 174l164 881h-174v92h195l71 389
c18 92.667 47.833 160.167 89.5 202.5s100.834 63.5 177.501 63.5c22 0 43.833 -2.66699 65.5 -8s38.5 -10.666 50.5 -15.999l17 -7v-92c-40.667 20.667 -85 31 -133 31c-95.333 0 -153.333 -58 -174 -174l-72 -389h235v-92h-256z" />
    <glyph glyph-name="uni0218" unicode="&#x218;" horiz-adv-x="1146" 
d="M932 379c0 70.667 -27.3291 127.834 -81.9961 171.501s-121.334 77.5 -200.001 101.5s-157.167 49.333 -235.5 76s-144.833 68.667 -199.5 126s-82 131 -82 221c0 105.333 41.667 194.833 125 268.5s192 110.5 326 110.5c49.333 0 97.166 -6.16699 143.499 -18.5
s84.833 -26.666 115.5 -42.999s58 -33 82 -50s41.333 -31.833 52 -44.5l16 -18l-71 -72c-2.66699 4 -7.16699 9.16699 -13.5 15.5s-20 17.666 -41 33.999s-43.5 31 -67.5 44s-55.5 24.667 -94.5 35s-79.5 15.5 -121.5 15.5c-109.333 0 -194.666 -26 -255.999 -78
s-92 -118.333 -92 -199c0 -70.667 27.167 -127.834 81.5 -171.501s120.833 -77.5 199.5 -101.5s157.167 -49.333 235.5 -76s144.833 -68.667 199.5 -126s82 -131 82 -221c0 -116 -42.333 -211.5 -127 -286.5s-199.334 -112.5 -344.001 -112.5
c-58.667 0 -115.334 7.5 -170.001 22.5s-99.334 32.667 -134.001 53s-65.334 41.166 -92.001 62.499s-45.334 39.333 -56.001 54l-19 23l72 71c2.66699 -5.33301 7.33398 -12.166 14.001 -20.499s22 -23 46 -44s50.333 -39.667 79 -56s66.167 -31 112.5 -44
s95.5 -19.5 147.5 -19.5c118.667 0 209.834 27 273.501 81s95.5 126 95.5 216zM440.004 -440l92 276h103l-123 -276h-72z" />
    <glyph glyph-name="uni0219" unicode="&#x219;" horiz-adv-x="880" 
d="M737 860l-71 -72.001c-2.66699 2.66699 -6.16699 7.16699 -10.5 13.5s-14 16.333 -29 30s-30.667 26 -47 37s-38.166 20.833 -65.499 29.5s-55.333 13 -84 13c-68 0 -122.5 -17 -163.5 -51s-61.5 -75 -61.5 -123c0 -42 19.5 -76.667 58.5 -104s86 -48.5 141 -63.5
s109.833 -32.167 164.5 -51.5s101.5 -48.666 140.5 -87.999s58.5 -90.666 58.5 -153.999c0 -84.667 -31.667 -155.167 -95 -211.5s-147.666 -84.5 -252.999 -84.5c-42 0 -82.5 5.33301 -121.5 16s-71.833 24.167 -98.5 40.5s-50 32.833 -70 49.5s-34.667 30.334 -44 41.001
l-14 16l71 72c8 -10.667 19.333 -23.834 34 -39.501s45.834 -36.834 93.501 -63.501s97.5 -40 149.5 -40c79.333 0 141.833 19.333 187.5 58s68.5 87.334 68.5 146.001c0 45.333 -19.5 82 -58.5 110s-86.167 49.833 -141.5 65.5s-110.333 32.667 -165 51
s-101.334 47 -140.001 86s-58 88.5 -58 148.5c0 69.333 30.667 131.166 92 185.499s136.333 81.5 225 81.5c57.333 0 111.666 -12 162.999 -36s88.666 -47.667 111.999 -71zM287 -440.001l92 276h102l-123 -276h-71z" />
    <glyph glyph-name="uni021A" unicode="&#x21a;" horiz-adv-x="1126" 
d="M41 1434h1044v-103h-471v-1331h-102v1331h-471v103zM420 -440l92 276h102l-122 -276h-72z" />
    <glyph glyph-name="uni021B" unicode="&#x21b;" horiz-adv-x="716" 
d="M256 1065l-0.00195312 246h82v-328h225v-92h-225v-645c0 -56 14 -99 42 -129s65.333 -45 112 -45c22 0 43.833 2.33301 65.5 7s37.834 9.66699 48.501 15l19 8v-92c-40.667 -20.667 -85 -30.667 -133 -30c-78 0 -138.5 22.833 -181.5 68.5s-64.5 111.5 -64.5 197.5v645
h-195v92h133c20.667 0 37.834 7.5 51.501 22.5s20.5 34.833 20.5 59.5zM296.998 -440l92 276h103l-123 -276h-72z" />
    <glyph glyph-name="uni02BC" unicode="&#x2bc;" horiz-adv-x="317" 
d="M61 1157l93 277h102l-123 -277h-72z" />
    <glyph glyph-name="circumflex" unicode="&#x2c6;" horiz-adv-x="655" 
d="M379 1423l215 -266h-92l-174 205l-174 -205h-93l215 266h103z" />
    <glyph glyph-name="caron" unicode="&#x2c7;" horiz-adv-x="655" 
d="M594 1423l-215 -266h-103l-215 266h93l174 -204l174 204h92z" />
    <glyph glyph-name="breve" unicode="&#x2d8;" horiz-adv-x="655" 
d="M328 1239c56 0 100.667 16.667 134 50s50 78 50 134h82c0 -76.667 -25.333 -140.167 -76 -190.5s-114.167 -75.5 -190.5 -75.5s-139.833 25.333 -190.5 76s-76 114 -76 190h82c0 -56 16.833 -100.667 50.5 -134s78.5 -50 134.5 -50z" />
    <glyph glyph-name="dotaccent" unicode="&#x2d9;" horiz-adv-x="266" 
d="M61 1310.5c0 20.333 6.83301 37.333 20.5 51s30.834 20.5 51.501 20.5s37.834 -6.83301 51.501 -20.5s20.5 -30.667 20.5 -51s-6.83301 -37.333 -20.5 -51s-30.834 -20.5 -51.501 -20.5s-37.834 6.83301 -51.501 20.5s-20.5 30.667 -20.5 51z" />
    <glyph glyph-name="ring" unicode="&#x2da;" horiz-adv-x="512" 
d="M143 1228.5c0 -75 37.667 -112.5 113 -112.5s113 37.5 113 112.5s-37.667 112.5 -113 112.5s-113 -37.5 -113 -112.5zM451 1229c0 -56 -18.5 -102.5 -55.5 -139.5s-83.5 -55.5 -139.5 -55.5s-102.5 18.5 -139.5 55.5s-55.5 83.5 -55.5 139.5s18.5 102.333 55.5 139
s83.5 55 139.5 55s102.5 -18.333 139.5 -55s55.5 -83 55.5 -139z" />
    <glyph glyph-name="ogonek" unicode="&#x2db;" horiz-adv-x="430" 
d="M195 0l71 0.00195312c-9.33301 -9.33301 -21.5 -21.833 -36.5 -37.5s-34.833 -44.334 -59.5 -86.001s-37 -79.167 -37 -112.5c0 -31.333 10 -56.166 30 -74.499s47.667 -27.5 83 -27.5c18 0 37.167 2.33301 57.5 7s36.5 10 48.5 16l17 8v-72
c-40.667 -20.667 -81.667 -31 -123 -31c-56 0 -100.833 16.167 -134.5 48.5s-50.5 74.166 -50.5 125.499c0 39.333 11 78.666 33 117.999s44 69 66 89z" />
    <glyph glyph-name="tilde" unicode="&#x2dc;" horiz-adv-x="706" 
d="M225 1331c-23.333 0 -42.832 -12.6699 -58.499 -38.0029s-23.5 -63.666 -23.5 -114.999h-82c0 78 15.167 136.667 45.5 176s69.833 59 118.5 59c38 0 71.833 -13 101.5 -39s56.667 -51.5 81 -76.5s48.833 -37.5 73.5 -37.5c23.333 0 42.833 12.5 58.5 37.5
s23.5 63.5 23.5 115.5h82c0 -78 -15 -136.667 -45 -176s-69.667 -59 -119 -59c-30 0 -57.667 7.83301 -83 23.5s-45.5 33.334 -60.5 53.001s-32.333 37.334 -52 53.001s-39.834 23.5 -60.501 23.5z" />
    <glyph glyph-name="hungarumlaut" unicode="&#x2dd;" horiz-adv-x="686" 
d="M61 1157l154 266h113l-185 -266h-82zM358 1157l154 266h113l-185 -266h-82z" />
    <glyph glyph-name="uni0401" unicode="&#x401;" horiz-adv-x="1290" 
d="M328 102h880v-102h-983v1434h963v-103h-860v-532h696v-103h-696v-594zM451 1751c0 20.667 6.83301 37.834 20.5 51.501s30.667 20.5 51 20.5s37.333 -6.83301 51 -20.5s20.5 -30.834 20.5 -51.501s-6.83301 -37.834 -20.5 -51.501s-30.667 -20.5 -51 -20.5
s-37.333 6.83301 -51 20.5s-20.5 30.834 -20.5 51.501zM809 1751c0 20.667 6.83301 37.834 20.5 51.501s30.667 20.5 51 20.5s37.333 -6.83301 51 -20.5s20.5 -30.834 20.5 -51.501s-6.83301 -37.834 -20.5 -51.501s-30.667 -20.5 -51 -20.5s-37.333 6.83301 -51 20.5
s-20.5 30.834 -20.5 51.501z" />
    <glyph glyph-name="uni0402" unicode="&#x402;" horiz-adv-x="1454" 
d="M0 1331l-0.00195312 102.996h860v-103h-379v-563c12 10.667 29.333 23.834 52 39.501s69.834 36.834 141.501 63.501s143.834 40 216.501 40c120 0 220 -42.667 300 -128s120 -196 120 -332c0 -147.333 -40.333 -262.666 -121 -345.999s-190.667 -125 -330 -125v102
c108 0 193 32 255 96s93 155 93 273c0 105.333 -30.667 191.333 -92 258s-136.333 100 -225 100c-72.667 0 -143 -13.667 -211 -41s-118.667 -54.666 -152 -81.999l-47 -41v-645h-102v1331h-379z" />
    <glyph glyph-name="uni0403" unicode="&#x403;" horiz-adv-x="1126" 
d="M225 0v1434h871v-103h-768v-1331h-103zM614 1628l154 266h113l-185 -266h-82z" />
    <glyph glyph-name="uni0404" unicode="&#x404;" horiz-adv-x="1536" 
d="M123 717c0 204.667 70.9971 378.663 212.997 521.996s313.333 215 514 215c72.667 0 142.334 -10.5 209.001 -31.5s121.834 -46.667 165.501 -77s82 -60.5 115 -90.5s56.833 -55 71.5 -75l23 -33l-72 -62c-4 6.66699 -10.5 16.334 -19.5 29.001
s-29.167 34.334 -60.5 65.001s-65.5 57.5 -102.5 80.5s-85.167 44.167 -144.5 63.5s-121 29 -185 29c-166.667 0 -308.667 -55.333 -426 -166s-183.666 -246.667 -198.999 -408h789v-102h-789c10.667 -165.333 75.5 -305.666 194.5 -420.999s262.5 -173 430.5 -173
c65.333 0 127.666 9.16699 186.999 27.5s108.5 40.5 147.5 66.5s73.167 52 102.5 78s51 47.667 65 65l20 29l72 -61c-5.33301 -8 -13.5 -19 -24.5 -33s-35.333 -38.667 -73 -74s-77.667 -66.666 -120 -93.999s-97.666 -51.833 -165.999 -73.5s-138.5 -32.5 -210.5 -32.5
c-200.667 0 -372 71.667 -514 215s-213 317.333 -213 522z" />
    <glyph glyph-name="uni0405" unicode="&#x405;" horiz-adv-x="1146" 
d="M932 379c0 70.667 -27.3291 127.834 -81.9961 171.501s-121.334 77.5 -200.001 101.5s-157.167 49.333 -235.5 76s-144.833 68.667 -199.5 126s-82 131 -82 221c0 105.333 41.667 194.833 125 268.5s192 110.5 326 110.5c49.333 0 97.166 -6.16699 143.499 -18.5
s84.833 -26.666 115.5 -42.999s58 -33 82 -50s41.333 -31.833 52 -44.5l16 -18l-71 -72c-2.66699 4 -7.16699 9.16699 -13.5 15.5s-20 17.666 -41 33.999s-43.5 31 -67.5 44s-55.5 24.667 -94.5 35s-79.5 15.5 -121.5 15.5c-109.333 0 -194.666 -26 -255.999 -78
s-92 -118.333 -92 -199c0 -70.667 27.167 -127.834 81.5 -171.501s120.833 -77.5 199.5 -101.5s157.167 -49.333 235.5 -76s144.833 -68.667 199.5 -126s82 -131 82 -221c0 -116 -42.333 -211.5 -127 -286.5s-199.334 -112.5 -344.001 -112.5
c-58.667 0 -115.334 7.5 -170.001 22.5s-99.334 32.667 -134.001 53s-65.334 41.166 -92.001 62.499s-45.334 39.333 -56.001 54l-19 23l72 71c2.66699 -5.33301 7.33398 -12.166 14.001 -20.499s22 -23 46 -44s50.333 -39.667 79 -56s66.167 -31 112.5 -44
s95.5 -19.5 147.5 -19.5c118.667 0 209.834 27 273.501 81s95.5 126 95.5 216z" />
    <glyph glyph-name="uni0406" unicode="&#x406;" horiz-adv-x="552" 
d="M225 0v1434h103v-1434h-103z" />
    <glyph glyph-name="uni0407" unicode="&#x407;" horiz-adv-x="552" 
d="M225 0v1434h103v-1434h-103zM31 1751c0 20.667 6.83301 37.834 20.5 51.501s30.667 20.5 51 20.5s37.333 -6.83301 51 -20.5s20.5 -30.834 20.5 -51.501s-6.83301 -37.834 -20.5 -51.501s-30.667 -20.5 -51 -20.5s-37.333 6.83301 -51 20.5s-20.5 30.834 -20.5 51.501z
M389 1751c0 20.667 6.83301 37.834 20.5 51.501s30.834 20.5 51.501 20.5s37.667 -6.83301 51 -20.5s20 -30.834 20 -51.501s-6.66699 -37.834 -20 -51.501s-30.333 -20.5 -51 -20.5s-37.834 6.83301 -51.501 20.5s-20.5 30.834 -20.5 51.501z" />
    <glyph glyph-name="uni0408" unicode="&#x408;" horiz-adv-x="1003" 
d="M686 1434h101.999v-1014c0 -126.667 -40.833 -231.667 -122.5 -315s-184.167 -125 -307.5 -125c-64 0 -124 12.833 -180 38.5s-96.333 50.834 -121 75.501l-37 39l72 72c6.66699 -9.33301 16.834 -20.833 30.501 -34.5s43.5 -31.834 89.5 -54.501s94.667 -34 146 -34
c98 0 177.167 30.667 237.5 92s90.5 143.333 90.5 246v1014z" />
    <glyph glyph-name="uni0409" unicode="&#x409;" horiz-adv-x="2191" 
d="M1608 0l-481.999 -0.00292969v1331h-645v-327c0 -207.333 -9.16699 -381.166 -27.5 -521.499s-45.333 -245.666 -81 -315.999s-73.834 -119 -114.501 -146s-89 -40.5 -145 -40.5c-18 0 -37.167 2 -57.5 6s-36.166 8 -47.499 12l-18 6v98c40.667 -13.333 78 -20 112 -20
c39.333 0 74.166 11.667 104.499 35s59.5 66 87.5 128s49.167 156.833 63.5 284.5s21.5 285.834 21.5 474.501v430h850v-553h379c132.667 0 242.5 -42.333 329.5 -127s130.5 -189.167 130.5 -313.5s-43.5 -228.833 -130.5 -313.5s-196.833 -127 -329.5 -127zM1229 101.997
l379 0.000976562c106.667 0 193 31.833 259 95.5s99 144.667 99 243s-33.167 179.166 -99.5 242.499s-152.5 95 -258.5 95h-379v-676z" />
    <glyph glyph-name="uni040A" unicode="&#x40a;" horiz-adv-x="2181" 
d="M1597 0h-481v778h-788v-778h-103v1434h103v-553h788v553h103v-553h378c132.667 0 242.667 -42.333 330 -127s131 -189.167 131 -313.5s-43.667 -228.833 -131 -313.5s-197.333 -127 -330 -127zM1219 102l378 0.000976562c106.667 0 193.167 31.833 259.5 95.5
s99.5 144.667 99.5 243s-33.167 179.166 -99.5 242.499s-152.833 95 -259.5 95h-378v-676z" />
    <glyph glyph-name="uni040B" unicode="&#x40b;" horiz-adv-x="1495" 
d="M0 1331l-0.00292969 102.997h860v-103h-379v-563c12 10.667 29.333 23.834 52 39.501s69.834 36.834 141.501 63.501s143.834 40 216.501 40c118.667 0 218.334 -41.5 299.001 -124.5s121 -188.167 121 -315.5v-471h-103v471c0 95.333 -31 175.5 -93 240.5
s-136.667 97.5 -224 97.5c-72.667 0 -143 -13.667 -211 -41s-118.667 -54.666 -152 -81.999l-47 -41v-645h-102v1331h-379z" />
    <glyph glyph-name="uni040C" unicode="&#x40c;" horiz-adv-x="1341" 
d="M328 553l798 881h134l-543 -594l594 -840h-123l-533 768l-327 -358v-410h-103v1434h103v-881zM666 1628l153 266h113l-184 -266h-82z" />
    <glyph glyph-name="uni040E" unicode="&#x40e;" horiz-adv-x="1239" 
d="M635 1628c-76.667 0 -140.167 25.334 -190.5 76.001s-75.5 114 -75.5 190h92c0 -50.667 16 -92.334 48 -125.001s74 -49 126 -49s94 16.5 126 49.5s48 74.5 48 124.5h92c0 -76.667 -25.167 -140.167 -75.5 -190.5s-113.833 -75.5 -190.5 -75.5zM655 532.001l430.001 902
h113l-543 -1137c-53.333 -112 -109.333 -192.833 -168 -242.5s-132.334 -74.5 -221.001 -74.5c-18 0 -36.5 1.66699 -55.5 5s-33.167 7 -42.5 11l-14 4v102c34 -13.333 71.333 -20 112 -20c64 0 116.5 17 157.5 51s80.833 88.667 119.5 164l61 123l-543 1014h113z" />
    <glyph glyph-name="uni040F" unicode="&#x40f;" horiz-adv-x="1515" 
d="M1290 1434v-1434h-481v-307h-102v307h-482v1434h103v-1332h860v1332h102z" />
    <glyph glyph-name="uni0410" unicode="&#x410;" horiz-adv-x="1392" 
d="M1014 522l-318 768l-317 -768h635zM1055 420h-717l-174 -420h-113l594 1434h103l593 -1434h-112z" />
    <glyph glyph-name="uni0411" unicode="&#x411;" horiz-adv-x="1320" 
d="M328 1331v-490.998h420c126.667 0 233.334 -41.333 320.001 -124s130 -181.334 130 -296.001s-43.333 -213.334 -130 -296.001s-193.334 -124 -320.001 -124h-523v1434h860v-103h-757zM328 102.002l420.002 -0.000976562c101.333 0 184.666 30.833 249.999 92.5
s98 136.834 98 225.501s-32.833 163.667 -98.5 225s-148.834 92 -249.501 92h-420v-635z" />
    <glyph glyph-name="uni0412" unicode="&#x412;" horiz-adv-x="1351" 
d="M963 768l27.5 -10.998c11.667 -4.66699 32.167 -17 61.5 -37s55.166 -42.333 77.499 -67s42.833 -59.834 61.5 -105.501s28 -95.167 28 -148.5c0 -114.667 -40.667 -209.834 -122 -285.501s-187.666 -113.5 -318.999 -113.5h-553v1434h533
c116 0 209.833 -33.833 281.5 -101.5s107.5 -153.5 107.5 -257.5c0 -44 -6.5 -84.667 -19.5 -122s-28.333 -67 -46 -89s-35.5 -40.5 -53.5 -55.5s-33 -25.167 -45 -30.5zM328 102.002l450 -0.000976562c105.333 0 188 27.333 248 82s90 126.334 90 215.001
c0 94 -29.667 168.833 -89 224.5s-142.333 83.5 -249 83.5h-450v-605zM758 1331h-430v-522h430c91.333 0 161.833 23.5 211.5 70.5s74.5 112.167 74.5 195.5c0 78 -25.167 140.167 -75.5 186.5s-120.5 69.5 -210.5 69.5z" />
    <glyph glyph-name="uni0413" unicode="&#x413;" horiz-adv-x="1126" 
d="M225 0v1434h871v-103h-768v-1331h-103z" />
    <glyph glyph-name="uni0414" unicode="&#x414;" horiz-adv-x="1443" 
d="M0 102l81.999 0.00195312c6.66699 5.33301 15.834 14.666 27.501 27.999s32.167 45.166 61.5 95.499s55.333 106.5 78 168.5s43.167 147.667 61.5 257s27.5 227 27.5 353v430h850v-1332h184v-409h-102v307h-1168v-307h-102v409zM439.999 1004
c0 -122.667 -8.16895 -237.332 -24.502 -343.999s-35.666 -192.834 -57.999 -258.501s-45.166 -122 -68.499 -169s-43.333 -80.833 -60 -101.5l-24 -29h880v1229h-645v-327z" />
    <glyph glyph-name="uni0415" unicode="&#x415;" horiz-adv-x="1290" 
d="M328 102h880v-102h-983v1434h963v-103h-860v-532h696v-103h-696v-594z" />
    <glyph glyph-name="uni0416" unicode="&#x416;" horiz-adv-x="1925" 
d="M1239 768l-225 -246v-522h-103v522l-225 246l-532 -768h-123l594 840l-543 594h133l696 -768v768h103v-768l696 768h133l-543 -594l594 -840h-122z" />
    <glyph glyph-name="uni0417" unicode="&#x417;" horiz-adv-x="1167" 
d="M727 758c8 -1.33301 18.832 -4.50098 32.499 -9.50098s38.334 -17 74.001 -36s67.167 -40.833 94.5 -65.5s51.833 -59.834 73.5 -105.501s32.5 -96.5 32.5 -152.5c0 -112 -45.667 -208.167 -137 -288.5s-209.333 -120.5 -354 -120.5
c-58.667 0 -115.334 7.5 -170.001 22.5s-99.5 32.667 -134.5 53s-65.833 41.166 -92.5 62.499s-45.334 39.333 -56.001 54l-18 23l71 71c2.66699 -5.33301 7.5 -12.166 14.5 -20.499s22.5 -23 46.5 -44s50.333 -39.667 79 -56s66.167 -31 112.5 -44s95.5 -19.5 147.5 -19.5
c118.667 0 213.167 29.667 283.5 89s105.5 132 105.5 218c0 90 -35.167 165.5 -105.5 226.5s-164.833 91.5 -283.5 91.5h-164v102h164c108 0 193 25.667 255 77s93 114.333 93 189c0 80.667 -30.667 147 -92 199s-146.666 78 -255.999 78c-44 0 -86.5 -5.5 -127.5 -16.5
s-74.833 -24.667 -101.5 -41s-50.167 -32.666 -70.5 -48.999s-35.166 -30.166 -44.499 -41.499l-15 -16l-71 72c4 5.33301 10 12.333 18 21s25.667 24 53 46s56.333 41.5 87 58.5s70.667 32.667 120 47s100 21.5 152 21.5c134 0 242.5 -36.833 325.5 -110.5
s124.5 -163.167 124.5 -268.5c0 -48 -9.16699 -91.667 -27.5 -131s-40.5 -70 -66.5 -92s-52 -40.5 -78 -55.5s-48.333 -25.167 -67 -30.5z" />
    <glyph glyph-name="uni0418" unicode="&#x418;" horiz-adv-x="1587" 
d="M1362 0h-102v1239l-953 -1239h-82v1434h103v-1239l952 1239h82v-1434z" />
    <glyph glyph-name="uni0419" unicode="&#x419;" horiz-adv-x="1587" 
d="M798.5 1628c-76.333 0 -139.833 25.334 -190.5 76.001s-76 114 -76 190h93c0 -50.667 16 -92.334 48 -125.001s74 -49 126 -49s94 16.5 126 49.5s48 74.5 48 124.5h92c0 -76.667 -25.333 -140.167 -76 -190.5s-114.167 -75.5 -190.5 -75.5zM1362 0.000976562h-102v1239
l-953 -1239h-82v1434h103v-1239l952 1239h82v-1434z" />
    <glyph glyph-name="uni041A" unicode="&#x41a;" horiz-adv-x="1341" 
d="M328 553l798 881h134l-543 -594l594 -840h-123l-533 768l-327 -358v-410h-103v1434h103v-881z" />
    <glyph glyph-name="uni041B" unicode="&#x41b;" horiz-adv-x="1495" 
d="M1270 1434l0.000976562 -1434h-103v1331h-686v-327c0 -207.333 -9.16699 -381.166 -27.5 -521.499s-45.333 -245.666 -81 -315.999s-73.834 -119 -114.501 -146s-89 -40.5 -145 -40.5c-18 0 -37.167 2 -57.5 6s-36.166 8 -47.499 12l-18 6v98
c40.667 -13.333 78 -20 112 -20c39.333 0 74.166 11.667 104.499 35s59.5 66 87.5 128s49.167 156.833 63.5 284.5s21.5 285.834 21.5 474.501v430h891z" />
    <glyph glyph-name="uni041C" unicode="&#x41c;" horiz-adv-x="1884" 
d="M942 420l-614 819v-1239h-103v1434h82l635 -840l635 840h82v-1434h-103v1239z" />
    <glyph glyph-name="uni041D" unicode="&#x41d;" horiz-adv-x="1525" 
d="M225 0v1434h103v-656h870v656h102v-1434h-102v676h-870v-676h-103z" />
    <glyph glyph-name="uni041E" unicode="&#x41e;" horiz-adv-x="1699" 
d="M1475 717c0 178.667 -60.5 329.167 -181.5 451.5s-268.833 183.5 -443.5 183.5s-322.5 -61.167 -443.5 -183.5s-181.5 -272.833 -181.5 -451.5s60.5 -329.167 181.5 -451.5s268.833 -183.5 443.5 -183.5s322.5 61.167 443.5 183.5s181.5 272.833 181.5 451.5zM1577 717
c0 -204.667 -70.667 -378.667 -212 -522s-313 -215 -515 -215c-200.667 0 -372 71.667 -514 215s-213 317.333 -213 522s71 378.667 213 522s313.333 215 514 215c202 0 373.667 -71.667 515 -215s212 -317.333 212 -522z" />
    <glyph glyph-name="uni041F" unicode="&#x41f;" horiz-adv-x="1525" 
d="M1300 1434v-1434h-102v1331h-870v-1331h-103v1434h1075z" />
    <glyph glyph-name="uni0420" unicode="&#x420;" horiz-adv-x="1310" 
d="M225 1434h512c132.667 0 242.667 -42.333 330 -127s131 -189.167 131 -313.5s-43.667 -228.833 -131 -313.5s-197.333 -127 -330 -127h-409v-553h-103v1434zM737 1331l-409 0.000976562v-676h409c106.667 0 193.167 31.833 259.5 95.5s99.5 144.667 99.5 243
s-33.167 179.166 -99.5 242.499s-152.833 95 -259.5 95z" />
    <glyph glyph-name="uni0421" unicode="&#x421;" horiz-adv-x="1536" 
d="M123 717c0 204.667 70.998 378.664 212.998 521.997s313.333 215 514 215c72.667 0 142.334 -10.5 209.001 -31.5s121.834 -46.667 165.501 -77s82 -60.5 115 -90.5s56.833 -55 71.5 -75l23 -33l-72 -62c-4 6.66699 -10.5 16.334 -19.5 29.001
s-29.167 34.334 -60.5 65.001s-65.5 57.5 -102.5 80.5s-85.167 44.167 -144.5 63.5s-121 29 -185 29c-174.667 0 -322.5 -61.167 -443.5 -183.5s-181.5 -272.833 -181.5 -451.5s60.5 -329.167 181.5 -451.5s268.833 -183.5 443.5 -183.5
c65.333 0 127.666 9.16699 186.999 27.5s108.5 40.5 147.5 66.5s73.167 52 102.5 78s51 47.667 65 65l20 29l72 -61c-5.33301 -8 -13.5 -19 -24.5 -33s-35.333 -38.667 -73 -74s-77.667 -66.666 -120 -93.999s-97.666 -51.833 -165.999 -73.5s-138.5 -32.5 -210.5 -32.5
c-200.667 0 -372 71.667 -514 215s-213 317.333 -213 522z" />
    <glyph glyph-name="uni0422" unicode="&#x422;" horiz-adv-x="1126" 
d="M41 1434h1044v-103h-471v-1331h-102v1331h-471v103z" />
    <glyph glyph-name="uni0423" unicode="&#x423;" horiz-adv-x="1239" 
d="M655 532l430.001 902h113l-543 -1137c-53.333 -112 -109.333 -192.833 -168 -242.5s-132.334 -74.5 -221.001 -74.5c-18 0 -36.5 1.66699 -55.5 5s-33.167 7 -42.5 11l-14 4v102c34 -13.333 71.333 -20 112 -20c64 0 116.5 17 157.5 51s80.833 88.667 119.5 164l61 123
l-543 1014h113z" />
    <glyph glyph-name="uni0424" unicode="&#x424;" horiz-adv-x="1720" 
d="M215 737.5c0 -132.333 53.333 -244.333 160 -336s251.334 -140.167 434.001 -145.5v963c-182.667 -5.33301 -327.334 -53.833 -434.001 -145.5s-160 -203.667 -160 -336zM911 154v-195h-102v195c-208.667 5.33301 -376.834 64.333 -504.501 177
s-191.5 248.167 -191.5 406.5s63.833 293.833 191.5 406.5s295.834 171.667 504.501 177v154h102v-154c208.667 -5.33301 377 -64.333 505 -177s192 -248.167 192 -406.5s-64 -293.833 -192 -406.5s-296.333 -171.667 -505 -177zM1505 737.5
c0 132.333 -53.1689 244.167 -159.502 335.5s-251.166 140 -434.499 146v-963c182.667 5.33301 327.334 53.833 434.001 145.5s160 203.667 160 336z" />
    <glyph glyph-name="uni0425" unicode="&#x425;" horiz-adv-x="1290" 
d="M1198 1434l-491 -686l532 -748h-123l-471 666l-471 -666h-123l533 748l-492 686h123l430 -605l430 605h123z" />
    <glyph glyph-name="uni0426" unicode="&#x426;" horiz-adv-x="1536" 
d="M225 0v1434h103v-1332h850v1332h102v-1332h184v-409h-102v307h-1137z" />
    <glyph glyph-name="uni0427" unicode="&#x427;" horiz-adv-x="1433" 
d="M307 1434l0.00292969 -429.995c0 -122.667 34.167 -218.334 102.5 -287.001s163.833 -103 286.5 -103c72.667 0 143.167 13.667 211.5 41s118.166 54.666 149.499 81.999l49 41v656h102v-1434h-102v655c-12 -10.667 -29.333 -23.834 -52 -39.501
s-69.834 -36.834 -141.501 -63.501s-143.834 -40 -216.501 -40c-148.667 0 -267.667 44.667 -357 134s-134 208.666 -134 357.999v430h102z" />
    <glyph glyph-name="uni0428" unicode="&#x428;" horiz-adv-x="2068" 
d="M225 0v1434h103v-1332h655v1332h102v-1332h656v1332h102v-1434h-1618z" />
    <glyph glyph-name="uni0429" unicode="&#x429;" horiz-adv-x="2099" 
d="M1925 0h-1700v1434h103v-1332h655v1332h102v-1332h656v1332h102v-1332h185v-409h-103v307z" />
    <glyph glyph-name="uni042A" unicode="&#x42a;" horiz-adv-x="1433" 
d="M850 0h-492v1331h-358v103h461v-553h389c132.667 0 242.667 -42.333 330 -127s131 -189.167 131 -313.5s-43.667 -228.833 -131 -313.5s-197.333 -127 -330 -127zM461 102l389 0.000976562c106.667 0 193 31.833 259 95.5s99 144.667 99 243s-33 179.166 -99 242.499
s-152.333 95 -259 95h-389v-676z" />
    <glyph glyph-name="uni042B" unicode="&#x42b;" horiz-adv-x="1771" 
d="M1546 0h-102v1434h102v-1434zM717 0h-492v1434h103v-553h389c132.667 0 242.667 -42.333 330 -127s131 -189.167 131 -313.5s-43.667 -228.833 -131 -313.5s-197.333 -127 -330 -127zM328 102l389 0.000976562c106.667 0 193 31.833 259 95.5s99 144.667 99 243
s-33 179.166 -99 242.499s-152.333 95 -259 95h-389v-676z" />
    <glyph glyph-name="uni042C" unicode="&#x42c;" horiz-adv-x="1320" 
d="M737 0h-512v1434h103v-553h409c132.667 0 242.667 -42.333 330 -127s131 -189.167 131 -313.5s-43.667 -228.833 -131 -313.5s-197.333 -127 -330 -127zM328 102l409 0.000976562c106.667 0 193.167 31.833 259.5 95.5s99.5 144.667 99.5 243
s-33.167 179.166 -99.5 242.499s-152.833 95 -259.5 95h-409v-676z" />
    <glyph glyph-name="uni042D" unicode="&#x42d;" horiz-adv-x="1525" 
d="M1403 717c0 -204.667 -70.9971 -378.666 -212.997 -521.999s-313.333 -215 -514 -215c-72.667 0 -142.667 10.5 -210 31.5s-123.333 46.5 -168 76.5s-84 60 -118 90s-58.667 55.333 -74 76l-24 33l72 61c4 -6.66699 10.667 -16.167 20 -28.5s30.5 -33.833 63.5 -64.5
s67.833 -57.667 104.5 -81s85.167 -44.5 145.5 -63.5s123.166 -28.5 188.499 -28.5c168 0 311.333 57.667 430 173s183.334 255.666 194.001 420.999h-788v102h788c-15.333 161.333 -81.5 297.333 -198.5 408s-258.833 166 -425.5 166c-64 0 -125.833 -9.33301 -185.5 -28
s-108.167 -40.834 -145.5 -66.501s-70.333 -51.5 -99 -77.5s-49.334 -48 -62.001 -66l-20 -29l-72 62c5.33301 8 13.166 18.833 23.499 32.5s33.666 38.334 69.999 74.001s75.333 67.167 117 94.5s96.167 51.833 163.5 73.5s137.333 32.5 210 32.5
c200.667 0 372 -71.667 514 -215s213 -317.333 213 -522z" />
    <glyph glyph-name="uni042E" unicode="&#x42e;" horiz-adv-x="2129" 
d="M328 1434v-656h307c10.667 184 83 342.667 217 476s290.333 200 469 200c187.333 0 348.5 -71 483.5 -213s202.5 -316.667 202.5 -524s-67.5 -382 -202.5 -524s-296.167 -213 -483.5 -213c-180 0 -337 67.5 -471 202.5s-205.667 299.5 -215 493.5h-307v-676h-103v1434
h103zM737 716.5c0 -181.667 57 -332.834 171 -453.501s251.667 -181 413 -181s299 60.333 413 181s171 271.834 171 453.501s-57 333 -171 454s-251.667 181.5 -413 181.5s-299 -60.5 -413 -181.5s-171 -272.333 -171 -454z" />
    <glyph glyph-name="uni042F" unicode="&#x42f;" horiz-adv-x="1351" 
d="M584 1434h541.998v-1434h-102v594h-461l-338 -594h-112l348 614c-8 1.33301 -19.167 4.16602 -33.5 8.49902s-40 16 -77 35s-69.167 41.833 -96.5 68.5s-52.666 65.667 -75.999 117s-35 108.333 -35 171c0 118.667 41.833 218.334 125.5 299.001s188.834 121 315.501 121
zM1024 1331h-440c-101.333 0 -183 -29.667 -245 -89s-93 -135.5 -93 -228.5s31 -169.167 93 -228.5s143.667 -89 245 -89h440v635z" />
    <glyph glyph-name="uni0430" unicode="&#x430;" horiz-adv-x="1024" 
d="M369 553l389.004 61.001c0 84.667 -26.333 155.334 -79 212.001s-118.667 85 -198 85c-53.333 0 -103.833 -11.833 -151.5 -35.5s-82.5 -47.834 -104.5 -72.501l-30 -35l-62 61c4 4 9.16699 10.167 15.5 18.5s20.666 22.5 42.999 42.5s46.166 37.833 71.499 53.5
s57.833 29.667 97.5 42s79.834 18.5 120.501 18.5c105.333 0 193.166 -37.333 263.499 -112s105.5 -167.334 105.5 -278.001v-614h-92v164c-2.66699 -5.33301 -7.16699 -12.166 -13.5 -20.499s-20.333 -23 -42 -44s-45.167 -39.833 -70.5 -56.5
s-58.833 -31.334 -100.5 -44.001s-85.834 -19 -132.501 -19c-94 0 -172 27.5 -234 82.5s-93 119.5 -93 193.5c0 76.667 26.667 142 80 196s125.666 87.667 216.999 101zM399.004 72.001c102.667 0 188.167 34 256.5 102s102.5 153.333 102.5 256v92l-369 -61
c-150 -24.667 -225 -93 -225 -205c0 -49.333 22.167 -92.333 66.5 -129s100.5 -55 168.5 -55z" />
    <glyph glyph-name="uni0431" unicode="&#x431;" horiz-adv-x="1167" 
d="M1055 471c0 -136.667 -45.832 -252.668 -137.499 -348.001s-199.5 -143 -323.5 -143c-135.333 0 -249.333 56.5 -342 169.5s-139 267.833 -139 464.5c0 452 167 708 501 768c69.333 12 131.5 27.333 186.5 46s92.5 34.334 112.5 47.001l29 20l51 -72
c-68 -54.667 -190.667 -99 -368 -133c-114.667 -22 -210.334 -81.667 -287.001 -179s-117.667 -228.666 -123 -393.999c2.66699 6.66699 7.5 15.5 14.5 26.5s22 30.5 45 58.5s48.167 52.833 75.5 74.5s62.833 41.5 106.5 59.5s89.5 27 137.5 27
c124 0 231.833 -47.833 323.5 -143.5s137.5 -211.834 137.5 -348.501zM225.001 470.999c0 -110.667 36.833 -204.834 110.5 -282.501s159.667 -116.5 258 -116.5s184.5 38.833 258.5 116.5s111 171.834 111 282.501s-37 204.834 -111 282.501s-160.167 116.5 -258.5 116.5
s-184.333 -38.833 -258 -116.5s-110.5 -171.834 -110.5 -282.501z" />
    <glyph glyph-name="uni0432" unicode="&#x432;" horiz-adv-x="1044" 
d="M174 983l430 -0.000976562c86 0 155.333 -24.167 208 -72.5s79 -109.5 79 -183.5c0 -42 -10.333 -80.167 -31 -114.5s-41 -58.166 -61 -71.499l-31 -19c4 -1.33301 9.83301 -3.33301 17.5 -6s21 -9.83398 40 -21.501s35.667 -25.667 50 -42s27.333 -40.166 39 -71.499
s17.5 -66.333 17.5 -105c0 -82 -27.333 -148.5 -82 -199.5s-129.667 -76.5 -225 -76.5h-451v983zM625 470.999h-359v-379h359c69.333 0 122.5 16.333 159.5 49s55.5 77.667 55.5 135c0 130 -71.667 195 -215 195zM799 726.999c0 109.333 -65 164 -195 164h-338v-328h338
c130 0 195 54.667 195 164z" />
    <glyph glyph-name="uni0433" unicode="&#x433;" horiz-adv-x="839" 
d="M799 983v-92h-533v-891h-92v983h625z" />
    <glyph glyph-name="uni0434" unicode="&#x434;" horiz-adv-x="1116" 
d="M1044 92v-338h-92v246h-870v-246h-92v338h82c4 5.33301 10 12.833 18 22.5s22 32.667 42 69s37.833 76 53.5 119s29.667 100 42 171s18.5 145.167 18.5 222.5v287h645v-891h153zM338 891l-0.000976562 -195c0 -118.667 -13.667 -228.167 -41 -328.5
s-54.666 -170.833 -81.999 -211.5l-41 -64h625v799h-461z" />
    <glyph glyph-name="uni0435" unicode="&#x435;" horiz-adv-x="1126" 
d="M1014 451l-830.001 0.000976562c5.33301 -102.667 46 -191.5 122 -266.5s165 -112.5 267 -112.5c39.333 0 77.833 5.66699 115.5 17s68.834 25.666 93.501 42.999s46.167 34.5 64.5 51.5s32.5 30.833 42.5 41.5l12 19l62 -60c-4 -5.33301 -9.5 -12.833 -16.5 -22.5
s-22.833 -26 -47.5 -49s-50.667 -43.333 -78 -61s-63.5 -34 -108.5 -49s-91.5 -22.5 -139.5 -22.5c-130 0 -242.667 49.833 -338 149.5s-143 220.5 -143 362.5c0 140.667 47.167 261.167 141.5 361.5s204.333 150.5 330 150.5s232.167 -47.833 319.5 -143.5
s131 -218.5 131 -368.5v-41zM562.999 911.001c-96.667 0 -182.5 -36.833 -257.5 -110.5s-115.5 -159.5 -121.5 -257.5h738c-5.33301 106.667 -42 194.667 -110 264s-151 104 -249 104z" />
    <glyph glyph-name="uni0436" unicode="&#x436;" horiz-adv-x="1464" 
d="M768 328v-328h-92v328l-164 184h-10l-369 -512h-113l420 584l-368 399h123l481 -522v522h92v-522l481 522h123l-368 -399l419 -584h-112l-369 512h-10z" />
    <glyph glyph-name="uni0437" unicode="&#x437;" horiz-adv-x="880" 
d="M727 737c0 -54.667 -14.667 -100.666 -44 -137.999s-58.333 -61 -87 -71l-43 -16c5.33301 -1.33301 12.833 -3.33301 22.5 -6s27.167 -9.83398 52.5 -21.501s47.166 -25.667 65.499 -42s35.333 -40.166 51 -71.499s23.5 -66.333 23.5 -105
c0 -80.667 -32.5 -148.5 -97.5 -203.5s-151.833 -82.5 -260.5 -82.5c-44 0 -86.167 6 -126.5 18s-73.5 26.333 -99.5 43s-48.5 33.5 -67.5 50.5s-33.167 31.5 -42.5 43.5l-13 19l62 61c8 -10.667 19.167 -23.834 33.5 -39.501s46.5 -36.834 96.5 -63.501
s102.333 -40 157 -40c83.333 0 148.5 18.667 195.5 56s70.5 83.333 70.5 138s-23.5 100.834 -70.5 138.501s-112.167 56.5 -195.5 56.5h-103v92h103c69.333 0 124.166 17.333 164.499 52s60.5 78.667 60.5 132c0 48 -20.5 89 -61.5 123s-95.5 51 -163.5 51
c-49.333 0 -95.166 -10.167 -137.499 -30.5s-73.166 -40.833 -92.499 -61.5l-26 -31l-72 72c9.33301 10.667 22.5 24 39.5 40s54.167 37.333 111.5 64s116.333 40 177 40c94 0 170.333 -26 229 -78s88 -115 88 -189z" />
    <glyph glyph-name="uni0438" unicode="&#x438;" horiz-adv-x="1198" 
d="M922 983h82v-983h-93v819l-655 -819h-82v983h92v-819z" />
    <glyph glyph-name="uni0439" unicode="&#x439;" horiz-adv-x="1198" 
d="M594 1239c56 0 100.667 16.667 134 50s50 78 50 134h82c0 -76.667 -25.167 -140.167 -75.5 -190.5s-113.833 -75.5 -190.5 -75.5s-140.167 25.333 -190.5 76s-75.5 114 -75.5 190h82c0 -56 16.667 -100.667 50 -134s78 -50 134 -50zM922 983h82v-983h-93v819l-655 -819
h-82v983h92v-819z" />
    <glyph glyph-name="uni043A" unicode="&#x43a;" horiz-adv-x="1024" 
d="M266 266v-266h-92v983h92v-584l543 584h123l-369 -399l420 -584h-113l-368 512h-10z" />
    <glyph glyph-name="uni043B" unicode="&#x43b;" horiz-adv-x="1146" 
d="M266 983l686.001 0.00195312v-983h-92v891h-502v-195c0 -143.333 -6.83301 -263.833 -20.5 -361.5s-33.667 -171.334 -60 -221.001s-55 -84.334 -86 -104.001s-67.5 -29.5 -109.5 -29.5c-15.333 0 -30.833 1.66699 -46.5 5s-27.5 7 -35.5 11l-10 4v88
c27.333 -10.667 54.666 -16 81.999 -16c38 0 70.333 14 97 42s49.5 90 68.5 186s28.5 228 28.5 396v287z" />
    <glyph glyph-name="uni043C" unicode="&#x43c;" horiz-adv-x="1351" 
d="M666 287l-400 512v-799h-92v983h72l420 -543l419 543h72v-983h-92v799z" />
    <glyph glyph-name="uni043D" unicode="&#x43d;" 
d="M901 0v451h-635v-451h-92v983h92v-440h635v440h92v-983h-92z" />
    <glyph glyph-name="uni043E" unicode="&#x43e;" 
d="M92 492c0 142 48.5 262.833 145.5 362.5s212.333 149.5 346 149.5s249 -49.833 346 -149.5s145.5 -220.5 145.5 -362.5s-48.5 -262.833 -145.5 -362.5s-212.333 -149.5 -346 -149.5s-249 49.833 -346 149.5s-145.5 220.5 -145.5 362.5zM983 491.5
c0 116.333 -39.167 215.333 -117.5 297s-172.166 122.5 -281.499 122.5s-203.333 -40.833 -282 -122.5s-118 -180.667 -118 -297s39.333 -215.333 118 -297s172.667 -122.5 282 -122.5s203.166 40.833 281.499 122.5s117.5 180.667 117.5 297z" />
    <glyph glyph-name="uni043F" unicode="&#x43f;" 
d="M901 0v891h-635v-891h-92v983h819v-983h-92z" />
    <glyph glyph-name="uni0440" unicode="&#x440;" horiz-adv-x="1218" 
d="M266 491.5c0 -116.333 38.333 -215.333 115 -297s164.667 -122.5 264 -122.5c94 0 179 41.167 255 123.5s114 181 114 296s-38 213.667 -114 296s-161 123.5 -255 123.5c-100 0 -188.167 -40.833 -264.5 -122.5s-114.5 -180.667 -114.5 -297zM266 195v-624.999h-92v1413
h92v-195c2.66699 5.33301 7.5 12.833 14.5 22.5s22 27.167 45 52.5s48.167 47.166 75.5 65.499s62.833 35.5 106.5 51.5s89.5 24 137.5 24c120 0 226.833 -50.333 320.5 -151s140.5 -221.167 140.5 -361.5s-46.833 -260.666 -140.5 -360.999s-200.5 -150.5 -320.5 -150.5
c-48 0 -93.833 7.5 -137.5 22.5s-79.5 32.667 -107.5 53s-52.5 41.166 -73.5 62.499s-36.167 39.333 -45.5 54z" />
    <glyph glyph-name="uni0441" unicode="&#x441;" horiz-adv-x="1054" 
d="M92 492c0 142 47.8359 262.832 143.503 362.499s208.167 149.5 337.5 149.5c48 0 94.167 -7.16699 138.5 -21.5s80.833 -31.5 109.5 -51.5s54.334 -39.833 77.001 -59.5s38.667 -37.167 48 -52.5l17 -20l-72 -62c-2.66699 4 -6.83398 10.167 -12.501 18.5
s-18.334 22.333 -38.001 42s-40.834 37.334 -63.501 53.001s-52.334 29.667 -89.001 42s-75 18.5 -115 18.5c-104 0 -194.833 -40.833 -272.5 -122.5s-116.5 -180.667 -116.5 -297s39 -215.333 117 -297s168.667 -122.5 272 -122.5c64 0 122.333 14.667 175 44
s90 58.333 112 87l31 43l72 -62c-4 -5.33301 -9.5 -12.833 -16.5 -22.5s-22.833 -26 -47.5 -49s-50.667 -43.333 -78 -61s-63.5 -34 -108.5 -49s-91.5 -22.5 -139.5 -22.5c-130 0 -242.667 49.833 -338 149.5s-143 220.5 -143 362.5z" />
    <glyph glyph-name="uni0442" unicode="&#x442;" horiz-adv-x="890" 
d="M20 891v92h830v-92h-369v-891h-92v891h-369z" />
    <glyph glyph-name="uni0443" unicode="&#x443;" horiz-adv-x="983" 
d="M358 -184l72 184.001l-399 983h102l348 -860l348 860h103l-471 -1167c-35.333 -88.667 -74.166 -151.834 -116.499 -189.501s-99.166 -56.5 -170.499 -56.5c-15.333 0 -30.833 1.66699 -46.5 5s-26.834 7 -33.501 11l-12 4v93c27.333 -13.333 58 -20.333 92 -21
c45.333 0 82.166 12.333 110.499 37s52.833 63.667 73.5 117z" />
    <glyph glyph-name="uni0444" unicode="&#x444;" horiz-adv-x="1423" 
d="M184 491.5c0 -120.333 43.333 -220.333 130 -300s200.334 -119.5 341.001 -119.5v839c-140.667 0 -254.334 -39.833 -341.001 -119.5s-130 -179.667 -130 -300zM1219 491.5c0 120.333 -43.501 220.333 -130.501 300s-200.5 119.5 -340.5 119.5v-839
c140.667 0 254.334 39.833 341.001 119.5s130 179.667 130 300zM747.999 -20v-410h-93v410c-166.667 0 -302.167 48.667 -406.5 146s-156.5 219.166 -156.5 365.499s52.333 268.333 157 366s240 146.5 406 146.5v430h93v-430c166.667 0 302.167 -48.833 406.5 -146.5
s156.5 -219.667 156.5 -366s-52.167 -268.166 -156.5 -365.499s-239.833 -146 -406.5 -146z" />
    <glyph glyph-name="uni0445" unicode="&#x445;" horiz-adv-x="942" 
d="M860 983l-338 -471l369 -512h-113l-317 440l-318 -440h-112l368 512l-338 471h113l287 -399l287 399h112z" />
    <glyph glyph-name="uni0446" unicode="&#x446;" horiz-adv-x="1208" 
d="M174 0v983h92v-891h615v891h92v-891h164v-338h-93v246h-870z" />
    <glyph glyph-name="uni0447" unicode="&#x447;" horiz-adv-x="1116" 
d="M829 0v420c-82 -54.667 -184.333 -82 -307 -82c-112 0 -201.333 32.833 -268 98.5s-100 152.167 -100 259.5v287h92v-287c0 -82 24.5 -146.833 73.5 -194.5s116.5 -71.5 202.5 -71.5c54.667 0 107.667 7.5 159 22.5s89.333 30.833 114 47.5l34 22v461h93v-983h-93z" />
    <glyph glyph-name="uni0448" unicode="&#x448;" horiz-adv-x="1607" 
d="M174 0v983h92v-891h482v891h92v-891h481v891h92v-983h-1239z" />
    <glyph glyph-name="uni0449" unicode="&#x449;" horiz-adv-x="1648" 
d="M174 0v983h92v-891h482v891h92v-891h481v891h92v-891h164v-338h-92v246h-1311z" />
    <glyph glyph-name="uni044A" unicode="&#x44a;" horiz-adv-x="1075" 
d="M973 317.5c0 -94.333 -31.501 -170.833 -94.501 -229.5s-147.5 -88 -253.5 -88h-359v891h-276v92h368v-348h267c106.667 0 191.334 -29.333 254.001 -88s94 -135.167 94 -229.5zM357.999 92h267c80.667 0 143.5 20.5 188.5 61.5s67.5 95.667 67.5 164
s-22.667 123 -68 164s-108 61.5 -188 61.5h-267v-451z" />
    <glyph glyph-name="uni044B" unicode="&#x44b;" horiz-adv-x="1392" 
d="M1198 983v-983h-92v983h92zM266 92h266c80.667 0 143.5 20.5 188.5 61.5s67.5 95.667 67.5 164s-22.5 123 -67.5 164s-107.833 61.5 -188.5 61.5h-266v-451zM881 317.5c0 -94.333 -31.5 -170.833 -94.5 -229.5s-147.833 -88 -254.5 -88h-358v983h92v-348h266
c106.667 0 191.5 -29.333 254.5 -88s94.5 -135.167 94.5 -229.5z" />
    <glyph glyph-name="uni044C" unicode="&#x44c;" horiz-adv-x="1003" 
d="M266 92h287c80.667 0 143.5 20.5 188.5 61.5s67.5 95.667 67.5 164s-22.5 123 -67.5 164s-107.833 61.5 -188.5 61.5h-287v-451zM901 317.5c0 -94.333 -31.333 -170.833 -94 -229.5s-147.334 -88 -254.001 -88h-379v983h92v-348h287
c106.667 0 191.334 -29.333 254.001 -88s94 -135.167 94 -229.5z" />
    <glyph glyph-name="uni044D" unicode="&#x44d;" horiz-adv-x="1054" 
d="M942 492c0 -142 -47.8398 -262.833 -143.507 -362.5s-208.167 -149.5 -337.5 -149.5c-48 0 -94.167 7.16699 -138.5 21.5s-81.166 31.333 -110.499 51s-55 39.334 -77 59.001s-38.333 37.167 -49 52.5l-14 20l71 62c2.66699 -4 6.83398 -10.167 12.501 -18.5
s18.334 -22.333 38.001 -42s40.834 -37.334 63.501 -53.001s52.334 -29.667 89.001 -42s75 -18.5 115 -18.5c98 0 186 38.167 264 114.5s119.667 167.833 125 274.5h-522v92h522c-15.333 100 -60.166 184.667 -134.499 254s-159.166 104 -254.499 104
c-64 0 -122.333 -14.667 -175 -44s-89.334 -58.333 -110.001 -87l-33 -43l-71 62c4 5.33301 9.33301 12.833 16 22.5s22.334 26 47.001 49s50.667 43.333 78 61s63.5 34.167 108.5 49.5s91.5 23 139.5 23c130 0 242.667 -49.833 338 -149.5s143 -220.5 143 -362.5z" />
    <glyph glyph-name="uni044E" unicode="&#x44e;" horiz-adv-x="1566" 
d="M1444 491.5c0 -146.333 -46.168 -268.168 -138.501 -365.501s-203.166 -146 -332.499 -146c-122.667 0 -229.5 45.333 -320.5 136s-141.167 202.334 -150.5 335.001h-236v-451h-92v983h92v-440h236c10.667 128.667 61 237.667 151 327s196.667 134 320 134
c130 0 241 -48.833 333 -146.5s138 -219.667 138 -366zM593.999 491.498c0 -120.333 37.167 -220.333 111.5 -300s163.333 -119.5 267 -119.5s192.834 39.833 267.501 119.5s112 179.667 112 300s-37.333 220.333 -112 300s-163.834 119.5 -267.501 119.5
s-192.667 -39.833 -267 -119.5s-111.5 -179.667 -111.5 -300z" />
    <glyph glyph-name="uni044F" unicode="&#x44f;" horiz-adv-x="1044" 
d="M102 676c0 88.667 31.833 162 95.5 220s148.167 87 253.5 87h399v-983h-92v358h-348l-205 -358h-113l236 379c-5.33301 1.33301 -13.166 3.66602 -23.499 6.99902s-28.5 12.166 -54.5 26.499s-48.833 31.833 -68.5 52.5s-37.834 49.334 -54.501 86.001
s-25 78.334 -25 125.001zM758 891h-307c-79.333 0 -141.833 -20.167 -187.5 -60.5s-68.5 -91.833 -68.5 -154.5c0 -68 22.5 -122.5 67.5 -163.5s107.833 -61.5 188.5 -61.5h307v440z" />
    <glyph glyph-name="uni0451" unicode="&#x451;" horiz-adv-x="1126" 
d="M1014 451l-830.001 0.000976562c5.33301 -102.667 46 -191.5 122 -266.5s165 -112.5 267 -112.5c39.333 0 77.833 5.66699 115.5 17s68.834 25.666 93.501 42.999s46.167 34.5 64.5 51.5s32.5 30.833 42.5 41.5l12 19l62 -60c-4 -5.33301 -9.5 -12.833 -16.5 -22.5
s-22.833 -26 -47.5 -49s-50.667 -43.333 -78 -61s-63.5 -34 -108.5 -49s-91.5 -22.5 -139.5 -22.5c-130 0 -242.667 49.833 -338 149.5s-143 220.5 -143 362.5c0 140.667 47.167 261.167 141.5 361.5s204.333 150.5 330 150.5s232.167 -47.833 319.5 -143.5
s131 -218.5 131 -368.5v-41zM562.999 911.001c-96.667 0 -182.5 -36.833 -257.5 -110.5s-115.5 -159.5 -121.5 -257.5h738c-5.33301 106.667 -42 194.667 -110 264s-151 104 -249 104zM306.999 1286c0 20.667 6.83301 37.834 20.5 51.501s30.834 20.5 51.501 20.5
s37.834 -6.83301 51.501 -20.5s20.5 -30.834 20.5 -51.501s-6.83301 -37.834 -20.5 -51.501s-30.834 -20.5 -51.501 -20.5s-37.834 6.83301 -51.501 20.5s-20.5 30.834 -20.5 51.501zM665.999 1286c0 20.667 6.83301 37.834 20.5 51.501s30.667 20.5 51 20.5
s37.333 -6.83301 51 -20.5s20.5 -30.834 20.5 -51.501s-6.83301 -37.834 -20.5 -51.501s-30.667 -20.5 -51 -20.5s-37.333 6.83301 -51 20.5s-20.5 30.834 -20.5 51.501z" />
    <glyph glyph-name="uni0452" unicode="&#x452;" horiz-adv-x="1177" 
d="M297 1434l-0.000976562 -204.999h307v-92h-307v-410c2.66699 5.33301 6.33398 12.5 11.001 21.5s17 24.333 37 46s41.5 41.167 64.5 58.5s54.667 33.166 95 47.499s83.833 21.5 130.5 21.5c124 0 225 -41.333 303 -124s117 -195 117 -337
c0 -140.667 -41.667 -256 -125 -346s-185 -135 -305 -135v92c94 0 173.833 36.167 239.5 108.5s98.5 165.833 98.5 280.5c0 116 -29.833 206.333 -89.5 271s-139.167 97 -238.5 97c-94 0 -173.833 -36.167 -239.5 -108.5s-98.5 -165.833 -98.5 -280.5v-440h-92v1137h-185v92
h185v205h92z" />
    <glyph glyph-name="uni0453" unicode="&#x453;" horiz-adv-x="839" 
d="M440 1157l154 266h113l-185 -266h-82zM799 983v-92h-533v-891h-92v983h625z" />
    <glyph glyph-name="uni0454" unicode="&#x454;" horiz-adv-x="1054" 
d="M92 492c0 142 47.834 262.832 143.501 362.499s208.167 149.5 337.5 149.5c48 0 94.167 -7.16699 138.5 -21.5s80.833 -31.5 109.5 -51.5s54.334 -39.833 77.001 -59.5s38.667 -37.167 48 -52.5l17 -20l-72 -62c-2.66699 4 -6.83398 10.167 -12.501 18.5
s-18.334 22.333 -38.001 42s-40.834 37.334 -63.501 53.001s-52.334 29.667 -89.001 42s-75 18.5 -115 18.5c-95.333 0 -180.166 -34.833 -254.499 -104.5s-119.166 -154.167 -134.499 -253.5h523v-92h-523c5.33301 -106.667 47 -198.167 125 -274.5s166 -114.5 264 -114.5
c64 0 122.333 14.667 175 44s90 58.333 112 87l31 43l72 -62c-4 -5.33301 -9.5 -12.833 -16.5 -22.5s-22.833 -26 -47.5 -49s-50.667 -43.333 -78 -61s-63.5 -34 -108.5 -49s-91.5 -22.5 -139.5 -22.5c-130 0 -242.667 49.833 -338 149.5s-143 220.5 -143 362.5z" />
    <glyph glyph-name="uni0455" unicode="&#x455;" horiz-adv-x="880" 
d="M737 860l-71 -72.001c-2.66699 2.66699 -6.16699 7.16699 -10.5 13.5s-14 16.333 -29 30s-30.667 26 -47 37s-38.166 20.833 -65.499 29.5s-55.333 13 -84 13c-68 0 -122.5 -17 -163.5 -51s-61.5 -75 -61.5 -123c0 -42 19.5 -76.667 58.5 -104s86 -48.5 141 -63.5
s109.833 -32.167 164.5 -51.5s101.5 -48.666 140.5 -87.999s58.5 -90.666 58.5 -153.999c0 -84.667 -31.667 -155.167 -95 -211.5s-147.666 -84.5 -252.999 -84.5c-42 0 -82.5 5.33301 -121.5 16s-71.833 24.167 -98.5 40.5s-50 32.833 -70 49.5s-34.667 30.334 -44 41.001
l-14 16l71 72c8 -10.667 19.333 -23.834 34 -39.501s45.834 -36.834 93.501 -63.501s97.5 -40 149.5 -40c79.333 0 141.833 19.333 187.5 58s68.5 87.334 68.5 146.001c0 45.333 -19.5 82 -58.5 110s-86.167 49.833 -141.5 65.5s-110.333 32.667 -165 51
s-101.334 47 -140.001 86s-58 88.5 -58 148.5c0 69.333 30.667 131.166 92 185.499s136.333 81.5 225 81.5c57.333 0 111.666 -12 162.999 -36s88.666 -47.667 111.999 -71z" />
    <glyph glyph-name="uni0456" unicode="&#x456;" horiz-adv-x="460" 
d="M174 0v983h92v-983h-92zM154 1331c0 20.667 6.83301 37.834 20.5 51.501s30.667 20.5 51 20.5s37.333 -6.83301 51 -20.5s20.5 -30.834 20.5 -51.501s-6.83301 -37.667 -20.5 -51s-30.667 -20 -51 -20s-37.333 6.66699 -51 20s-20.5 30.333 -20.5 51z" />
    <glyph glyph-name="uni0457" unicode="&#x457;" horiz-adv-x="501" 
d="M-10 1290.5c0 20.333 6.83301 37.333 20.5 51s30.667 20.5 51 20.5s37.333 -6.83301 51 -20.5s20.5 -30.667 20.5 -51s-6.83301 -37.333 -20.5 -51s-30.667 -20.5 -51 -20.5s-37.333 6.83301 -51 20.5s-20.5 30.667 -20.5 51zM348 1290.5
c0 20.333 6.83301 37.333 20.5 51s30.834 20.5 51.501 20.5s37.834 -6.83301 51.501 -20.5s20.5 -30.667 20.5 -51s-6.83301 -37.333 -20.5 -51s-30.834 -20.5 -51.501 -20.5s-37.834 6.83301 -51.501 20.5s-20.5 30.667 -20.5 51zM193 0v983h92v-983h-92z" />
    <glyph glyph-name="uni0458" unicode="&#x458;" horiz-adv-x="460" 
d="M174 -164v1147h92v-1147c0 -80.667 -22.833 -145.167 -68.5 -193.5s-104.834 -72.5 -177.501 -72.5c-22 0 -43.167 2.66699 -63.5 8s-35.166 10.666 -44.499 15.999l-14 7v92c34 -20.667 74.667 -31 122 -31c46.667 0 84 15 112 45s42 73 42 129zM154 1331
c0 20.667 6.83301 37.834 20.5 51.501s30.667 20.5 51 20.5s37.333 -6.83301 51 -20.5s20.5 -30.834 20.5 -51.501s-6.83301 -37.667 -20.5 -51s-30.667 -20 -51 -20s-37.333 6.66699 -51 20s-20.5 30.333 -20.5 51z" />
    <glyph glyph-name="uni0459" unicode="&#x459;" horiz-adv-x="1628" 
d="M1526 297c0 -88.667 -30.5 -160.33 -91.5 -214.997s-146.5 -82 -256.5 -82h-359v891h-461v-195c0 -143.333 -6.83301 -263.833 -20.5 -361.5s-33.667 -171.334 -60 -221.001s-55 -84.334 -86 -104.001s-67.5 -29.5 -109.5 -29.5c-15.333 0 -30.833 1.66699 -46.5 5
s-27.5 7 -35.5 11l-10 4v88c27.333 -10.667 54.666 -16 81.999 -16c38 0 70.333 14 97 42s49.5 90 68.5 186s28.5 228 28.5 396v287h645v-389h267c110.667 0 196.334 -27.333 257.001 -82s91 -126.334 91 -215.001zM911 92.0039h267c84.667 0 148.5 18.167 191.5 54.5
s64.5 86.5 64.5 150.5s-21.5 114.167 -64.5 150.5s-106.833 54.5 -191.5 54.5h-267v-410z" />
    <glyph glyph-name="uni045A" unicode="&#x45a;" horiz-adv-x="1648" 
d="M1546 297c0 -88.667 -30.333 -160.332 -91 -214.999s-146.334 -82 -257.001 -82h-358v502h-574v-502h-92v983h92v-389h574v389h92v-389h266c110.667 0 196.334 -27.333 257.001 -82s91 -126.334 91 -215.001zM932 92.002h266c84.667 0 148.5 18.167 191.5 54.5
s64.5 86.5 64.5 150.5s-21.5 114.167 -64.5 150.5s-106.833 54.5 -191.5 54.5h-266v-410z" />
    <glyph glyph-name="uni045B" unicode="&#x45b;" horiz-adv-x="1218" 
d="M297 1434v-204.999h307v-92h-307v-410c2.66699 5.33301 6.33398 12.5 11.001 21.5s17 24.333 37 46s41.5 41.167 64.5 58.5s54.667 33.166 95 47.499s83.833 21.5 130.5 21.5c113.333 0 208.166 -39.667 284.499 -119s114.5 -179.666 114.5 -300.999v-502h-92v502
c0 95.333 -29.333 173.666 -88 234.999s-131.667 92 -219 92c-92.667 0 -172.167 -34.333 -238.5 -103s-99.5 -153.667 -99.5 -255v-471h-92v1137h-185v92h185v205h92z" />
    <glyph glyph-name="uni045C" unicode="&#x45c;" horiz-adv-x="1024" 
d="M481 1157l154 266h113l-185 -266h-82zM266 266v-266h-92v983h92v-584l543 584h123l-369 -399l420 -584h-113l-368 512h-10z" />
    <glyph glyph-name="uni045E" unicode="&#x45e;" horiz-adv-x="983" 
d="M358 -184l72 184.001l-399 983h102l348 -860l348 860h103l-471 -1167c-35.333 -88.667 -74.166 -151.834 -116.499 -189.501s-99.166 -56.5 -170.499 -56.5c-15.333 0 -30.833 1.66699 -46.5 5s-26.834 7 -33.501 11l-12 4v93c27.333 -13.333 58 -20.333 92 -21
c45.333 0 82.166 12.333 110.499 37s52.833 63.667 73.5 117zM481 1239c56 0 100.833 16.667 134.5 50s50.5 78 50.5 134h82c0 -76.667 -25.333 -140.167 -76 -190.5s-114.167 -75.5 -190.5 -75.5s-139.833 25.333 -190.5 76s-76 114 -76 190h82
c0 -56 16.667 -100.667 50 -134s78 -50 134 -50z" />
    <glyph glyph-name="uni045F" unicode="&#x45f;" horiz-adv-x="1177" 
d="M174 0v983h92v-891h625v891h92v-983h-358v-246h-93v246h-358z" />
    <glyph glyph-name="uni0490" unicode="&#x490;" horiz-adv-x="1126" 
d="M993 1434v286h103v-389h-768v-1331h-103v1434h768z" />
    <glyph glyph-name="uni0491" unicode="&#x491;" horiz-adv-x="839" 
d="M174 0v983h533v246h92v-338h-533v-891h-92z" />
    </font>
</defs>
</svg>
