<?xml version="1.0" standalone="no"?>
<!DOCTYPE svg PUBLIC "-//W3C//DTD SVG 1.1//EN" "http://www.w3.org/Graphics/SVG/1.1/DTD/svg11.dtd" >
<svg xmlns="http://www.w3.org/2000/svg" xmlns:xlink="http://www.w3.org/1999/xlink" version="1.1">
<metadata>
Created by FontForge 20190801 at Tue May 30 06:16:01 2017
 By Jimmy Wärting
Copyright (c) 2017 by TypeType. Designers Ivan Gladkikh, Pavel Emelyanov. Technical designers Olexa Volochay, Nadyr Rakhimov, Dmitriy Greshnev. All rights reserved.
</metadata>
<defs>
<font id="TTNorms-LightItalic" horiz-adv-x="1198" >
  <font-face 
    font-family="TT Norms Light Italic"
    font-weight="300"
    font-style="italic"
    font-stretch="normal"
    units-per-em="2048"
    panose-1="2 0 5 3 3 0 0 9 0 3"
    ascent="1638"
    descent="-410"
    x-height="983"
    cap-height="1434"
    bbox="-342.003 -451.002 2945.01 1976"
    underline-thickness="0"
    underline-position="0"
    unicode-range="U+000D-FB06"
  />
<missing-glyph horiz-adv-x="0" 
 />
    <glyph glyph-name="ij" unicode="ij" horiz-adv-x="962" 
d="M547 -164l42.999 194.999c-56 -34 -118.333 -51 -187 -51c-92.667 0 -163.5 32 -212.5 96s-63.5 144.333 -43.5 241l144 666h92l-143 -666c-13.333 -70.667 -3 -129.167 31 -175.5s84.333 -69.5 151 -69.5c30 0 60.667 5 92 15s55.333 20.667 72 32l24 14l183 850h92
l-246 -1147c-18 -82 -53.5 -146.833 -106.5 -194.5s-115.833 -71.5 -188.5 -71.5c-22 0 -43.167 2.33301 -63.5 7s-35.166 9 -44.499 13l-15 9l21 94c27.333 -20.667 64.833 -31 112.5 -31s89 15.333 124 46s57.833 73.334 68.5 128.001zM335.999 1321
c0 20.667 7.5 39.5 22.5 56.5s32.833 25.5 53.5 25.5c22 0 39.333 -5.83301 52 -17.5s19 -27.167 19 -46.5c0 -22 -8.16699 -40.667 -24.5 -56s-35.5 -23 -57.5 -23c-20.667 0 -36.667 5.66699 -48 17s-17 26 -17 44zM826.999 1321c0 20.667 7.50098 39.5 22.501 56.5
s32.833 25.5 53.5 25.5c22 0 39.5 -5.83301 52.5 -17.5s19.5 -27.167 19.5 -46.5c0 -22 -8.16699 -40.667 -24.5 -56s-35.5 -23 -57.5 -23c-20.667 0 -36.834 5.66699 -48.501 17s-17.5 26 -17.5 44z" />
    <glyph glyph-name="uniFB00" unicode="ff" horiz-adv-x="1187" 
d="M1233 983l-21 -92h-245l-189 -891h-92l188 891h-460l-189 -891h-92l189 891h-164l20 92h164l35 164c18 86 53.167 151.833 105.5 197.5s117.5 68.5 195.5 68.5c22 0 43.5 -2.66699 64.5 -8s37.167 -10.666 48.5 -15.999l14 -7l-21 -92
c-35.333 20.667 -76.833 31 -124.5 31s-88.667 -15.333 -123 -46s-56.833 -73.334 -67.5 -128.001l-35 -164h461l43 205c18 86 53.167 151.833 105.5 197.5s117.5 68.5 195.5 68.5c22 0 43.5 -2.66699 64.5 -8s37.167 -10.666 48.5 -15.999l14 -7l-18 -92
c-36.667 20.667 -79 31 -127 31s-89 -15.333 -123 -46s-56.667 -73.334 -68 -128.001l-43 -205h246z" />
    <glyph glyph-name="uniFB01" unicode="fi" horiz-adv-x="1064" 
d="M414 891l-189 -891h-92l189 891h-164l20 92h164l43 205c18 86 53.167 151.833 105.5 197.5s117.5 68.5 195.5 68.5c22 0 43.5 -2.66699 64.5 -8s37.167 -10.666 48.5 -15.999l14 -7l-18 -92c-36.667 20.667 -79 31 -127 31s-89 -15.333 -123 -46
s-56.667 -73.334 -68 -128.001l-43 -205h553l-209 -983h-92l188 891h-460zM934 1321c0 20.667 7.5 39.5 22.5 56.5s32.833 25.5 53.5 25.5c22 0 39.333 -5.83301 52 -17.5s19 -27.167 19 -46.5c0 -22 -8.16699 -40.667 -24.5 -56s-35.5 -23 -57.5 -23
c-20.667 0 -36.667 5.66699 -48 17s-17 26 -17 44z" />
    <glyph glyph-name="uniFB02" unicode="fl" horiz-adv-x="1095" 
d="M717 0l233 1106c4 16.667 6 33.667 6 51c0 58.667 -20 107.5 -60 146.5s-89.333 58.5 -148 58.5c-65.333 0 -126.5 -25 -183.5 -75s-92.167 -110.333 -105.5 -181l-25 -123h246l-21 -92h-245l-189 -891h-92l189 891h-164l20 92h164l25 123c19.333 98 66 180.5 140 247.5
s156.333 100.5 247 100.5c82 0 151.667 -27 209 -81s86 -121.333 86 -202c0 -22 -2.33301 -43.667 -7 -65l-233 -1106h-92z" />
    <glyph glyph-name="uniFB03" unicode="ffi" horiz-adv-x="1628" 
d="M967 891l-189 -891h-92l188 891h-460l-189 -891h-92l189 891h-164l20 92h164l35 164c18 86 53.167 151.833 105.5 197.5s117.5 68.5 195.5 68.5c22 0 43.5 -2.66699 64.5 -8s37.167 -10.666 48.5 -15.999l14 -7l-21 -92c-35.333 20.667 -76.833 31 -124.5 31
s-88.667 -15.333 -123 -46s-56.833 -73.334 -67.5 -128.001l-35 -164h461l43 205c18 86 53.167 151.833 105.5 197.5s117.5 68.5 195.5 68.5c22 0 43.5 -2.66699 64.5 -8s37.167 -10.666 48.5 -15.999l14 -7l-18 -92c-36.667 20.667 -79 31 -127 31s-89 -15.333 -123 -46
s-56.667 -73.334 -68 -128.001l-43 -205h563l-209 -983h-92l189 891h-471zM1497 1321c0 20.667 7.50098 39.5 22.501 56.5s32.833 25.5 53.5 25.5c22 0 39.5 -5.83301 52.5 -17.5s19.5 -27.167 19.5 -46.5c0 -22 -8.33301 -40.667 -25 -56s-35.667 -23 -57 -23
c-20.667 0 -36.834 5.66699 -48.501 17s-17.5 26 -17.5 44z" />
    <glyph glyph-name="uniFB06" unicode="st" horiz-adv-x="1576" 
d="M827 860l-81.9961 -67.0059c-6.66699 8 -15.834 18.833 -27.501 32.5s-38.334 31.334 -80.001 53.001s-84.834 32.5 -129.501 32.5c-75.333 0 -134.833 -17.667 -178.5 -53s-65.5 -79 -65.5 -131c0 -40.667 25 -77.167 75 -109.5s104.333 -58 163 -77
s112.834 -49 162.501 -90s74.5 -90.833 74.5 -149.5c0 -94 -34.833 -171 -104.5 -231s-162.5 -90 -278.5 -90c-42 0 -82.5 5.33301 -121.5 16s-71.833 24.167 -98.5 40.5s-49.834 32.833 -69.501 49.5s-34.167 30.334 -43.5 41.001l-15 16l82 68
c8 -10.667 19.5 -23.5 34.5 -38.5s46.833 -35.5 95.5 -61.5s99 -39 151 -39c86 0 153.167 20.167 201.5 60.5s72.5 92.5 72.5 156.5c0 35.333 -16.333 66.333 -49 93s-72.167 49.167 -118.5 67.5s-92.833 37.833 -139.5 58.5s-86.334 48.334 -119.001 83.001
s-49 75.334 -49 122.001c0 76.667 33.167 144.334 99.5 203.001s150.5 88 252.5 88c48 0 94.667 -9 140 -27c-2.66699 10.667 -4.33398 26.334 -5.00098 47.001c0 118.667 36.667 220 110 304s167.333 126 282 126c84.667 0 156 -24.167 214 -72.5s87 -111.5 87 -189.5
c0 -23.333 -3.66699 -52 -11 -86l-24 -123h225l-20 -92h-226l-137 -645c-4 -20.667 -6 -38.334 -6 -53.001c0 -80.667 41 -121 123 -121c22 0 44.5 2.33301 67.5 7s40.833 9.66699 53.5 15l18 8l-18 -92c-46.667 -20.667 -94 -30.667 -142 -30c-64 0 -113 15.667 -147 47
s-51 76.333 -51 135c0 22 3.33301 50 10 84l137 645h-194l20 92h195l24 123c5.33301 32.667 8 56.667 8 72c0 58.667 -19.667 105.667 -59 141s-90 53 -152 53c-86 0 -157.667 -29.667 -215 -89s-86 -133.333 -86 -222c0 -27.333 3.83301 -53.666 11.5 -78.999
s14.834 -43.333 21.501 -54l10 -17l33 -41z" />
    <glyph glyph-name="c_t.liga" unicode="ct" horiz-adv-x="1740" 
d="M92 406c0 152.667 56.333 290.499 169 413.499s248.334 184.5 407.001 184.5c54.667 0 107 -10.333 157 -31c0 1.33301 -0.333008 4.33301 -1 9s-1.66699 11.167 -3 19.5s-2 15.833 -2 22.5c0 117.333 36.833 218.333 110.5 303s167.834 127 282.501 127
c84.667 0 156 -24.167 214 -72.5s87 -111.5 87 -189.5c0 -23.333 -3.33301 -52 -10 -86l-24 -123h225l-21 -92h-225l-137 -645c-4 -20.667 -6 -38.334 -6 -53.001c0 -80.667 41 -121 123 -121c22 0 44.5 2.33301 67.5 7s40.833 9.66699 53.5 15l18 8l-18 -92
c-46.667 -20.667 -94 -30.667 -142 -30c-64 0 -113 15.667 -147 47s-51 76.333 -51 135c0 22 3.33301 50 10 84l137 645h-195l21 92h194l25 123c5.33301 32.667 8 56.667 8 72c0 58.667 -19.833 105.667 -59.5 141s-90.167 53 -151.5 53c-90 0 -163 -30.667 -219 -92
s-84 -137.666 -84 -228.999c0 -27.333 3.16699 -51.666 9.5 -72.999s12.833 -36 19.5 -44l8 -12l41 -54l55 -69l-80 -58c-2.66699 4 -6 10.167 -10 18.5s-14.833 22 -32.5 41s-36.834 36 -57.501 51s-49 28.667 -85 41s-74 18.5 -114 18.5
c-118.667 0 -227.167 -49.5 -325.5 -148.5s-147.5 -215.833 -147.5 -350.5c0 -94 31.167 -174.167 93.5 -240.5s137.166 -99.5 224.499 -99.5c64 0 124.667 14.667 182 44s99 58.333 125 87l37 43l61 -62c-4 -5.33301 -10 -12.833 -18 -22.5s-25.667 -26 -53 -49
s-56 -43.333 -86 -61s-68.333 -34 -115 -49s-93.667 -22.5 -141 -22.5c-110.667 0 -205.667 42 -285 126s-119 184 -119 300z" />
    <glyph glyph-name="s_p.liga" unicode="sp" horiz-adv-x="2088" 
d="M827 860l-81.9961 -67.0068c-6.66699 8 -15.834 18.833 -27.501 32.5s-38.334 31.334 -80.001 53.001s-84.834 32.5 -129.501 32.5c-75.333 0 -134.833 -17.667 -178.5 -53s-65.5 -79 -65.5 -131c0 -40.667 25 -77.167 75 -109.5s104.333 -58 163 -77
s112.834 -49 162.501 -90s74.5 -90.833 74.5 -149.5c0 -94 -34.833 -171 -104.5 -231s-162.5 -90 -278.5 -90c-42 0 -82.5 5.33301 -121.5 16s-71.833 24.167 -98.5 40.5s-49.834 32.833 -69.501 49.5s-34.167 30.334 -43.5 41.001l-15 16l82 68
c8 -10.667 19.5 -23.5 34.5 -38.5s46.833 -35.5 95.5 -61.5s99 -39 151 -39c86 0 153.167 20.167 201.5 60.5s72.5 92.5 72.5 156.5c0 35.333 -16.333 66.333 -49 93s-72.167 49.167 -118.5 67.5s-92.833 37.833 -139.5 58.5s-86.334 48.334 -119.001 83.001
s-49 75.334 -49 122.001c0 76.667 33.167 144.334 99.5 203.001s150.5 88 252.5 88c48 0 94.667 -9 140 -27c-4 9.33301 -6.33301 23 -7 41c0 117.333 35.167 219.333 105.5 306s156.166 130 257.499 130c72.667 0 135.834 -24.5 189.501 -73.5s80.5 -111.833 80.5 -188.5
c0 -23.333 -3.33301 -52 -10 -86l-70 -318c4 5.33301 9.83301 12.833 17.5 22.5s24.5 27.167 50.5 52.5s53.667 47.166 83 65.499s66.833 35.5 112.5 51.5s92.5 24 140.5 24c104 0 194.5 -41.667 271.5 -125s115.5 -182.333 115.5 -297
c0 -162.667 -59.5 -303.667 -178.5 -423s-246.5 -179 -382.5 -179c-48 0 -92.833 7.83301 -134.5 23.5s-75.5 34.334 -101.5 56.001s-48.167 43.5 -66.5 65.5s-30.833 40.333 -37.5 55l-13 25l-135 -635h-92l328 1536c5.33301 23.333 8 48 8 74
c0 58.667 -17.833 105.334 -53.5 140.001s-77.834 52 -126.501 52c-70.667 0 -133.5 -30.333 -188.5 -91s-82.5 -134 -82.5 -220c0 -27.333 3.83301 -53.666 11.5 -78.999s14.834 -43.333 21.501 -54l10 -17zM1604 910.993c-122.667 0 -231.168 -53.5 -325.501 -160.5
s-141.5 -224.833 -141.5 -353.5c0 -92.667 30.333 -170 91 -232s133.334 -93 218.001 -93c108 0 211.5 50.167 310.5 150.5s148.5 216.5 148.5 348.5c0 94 -30 174.167 -90 240.5s-130.333 99.5 -211 99.5z" />
    <glyph glyph-name="f_t.liga" unicode="ft" horiz-adv-x="1259" 
d="M942 1065l53 246.001h82l-69 -328h225l-21 -92h-225l-137 -645c-12 -54.667 -7.16699 -97.334 14.5 -128.001s55.834 -46 102.501 -46c22 0 44.5 2.33301 67.5 7s40.5 9.66699 52.5 15l19 8l-19 -92c-46.667 -20.667 -93.667 -30.667 -141 -30
c-78 0 -133.333 22.833 -166 68.5s-40 111.5 -22 197.5l137 645h-481l-189 -891h-92l189 891h-164l20 92h164l43 205c18 86 53.167 151.833 105.5 197.5s117.5 68.5 195.5 68.5c22 0 43.5 -2.66699 64.5 -8s37.167 -10.666 48.5 -15.999l14 -7l-18 -92
c-36.667 20.667 -79 31 -127 31s-89 -15.333 -123 -46s-56.667 -73.334 -68 -128.001l-43 -205h420c20.667 0 39.167 7.5 55.5 22.5s27.166 34.833 32.499 59.5z" />
    <glyph glyph-name=".notdef" horiz-adv-x="0" 
 />
    <glyph glyph-name="glyph1" horiz-adv-x="0" 
 />
    <glyph glyph-name="glyph1" horiz-adv-x="0" 
 />
    <glyph glyph-name="uni000D" unicode="&#xd;" horiz-adv-x="0" 
 />
    <glyph glyph-name="space" unicode=" " horiz-adv-x="378" 
 />
    <glyph glyph-name="exclam" unicode="!" horiz-adv-x="614" 
d="M326 328h-82l213 1106h123zM162 51c0 20.667 7.5 39.501 22.5 56.501s32.833 25.5 53.5 25.5c22 0 39.333 -5.83301 52 -17.5s19 -26.834 19 -45.501c0 -22 -8.16699 -40.833 -24.5 -56.5s-35.5 -23.5 -57.5 -23.5c-20.667 0 -36.667 5.66699 -48 17s-17 26 -17 44z" />
    <glyph glyph-name="quotedbl" unicode="&#x22;" horiz-adv-x="686" 
d="M446 1434l-90 -430h-92l90 430h92zM754 1434l-90 -430h-93l91 430h92z" />
    <glyph glyph-name="numbersign" unicode="#" horiz-adv-x="1464" 
d="M1307 1434h92l-174 -441h307l-41 -92h-307l-150 -369h307l-41 -92h-307l-174 -440h-92l174 440h-450l-175 -440h-92l174 440h-307l41 92h307l150 369h-307l41 92h307l174 441h92l-174 -441h451zM641 901l-149 -369h450l150 369h-451z" />
    <glyph glyph-name="dollar" unicode="$" horiz-adv-x="1146" 
d="M516 82c69.333 0 134.169 10.8311 194.502 32.498s111.333 58.5 153 110.5s62.5 115 62.5 189c0 56 -23 104 -69 144s-101.667 73 -167 99s-130.833 53.667 -196.5 83s-121.334 68.666 -167.001 117.999s-68.5 108 -68.5 176c0 118.667 43.333 217.334 130 296.001
s203.667 120 351 124l43 205h103l-45 -211c62.667 -9.33301 121.667 -28 177 -56s94.666 -53.667 117.999 -77l36 -35l-84 -70c-2.66699 4 -7 9.16699 -13 15.5s-19.667 17.666 -41 33.999s-43.833 30.666 -67.5 42.999s-55 23.666 -94 33.999s-79.5 15.5 -121.5 15.5
c-120 0 -214.167 -28.333 -282.5 -85s-102.5 -130 -102.5 -220c0 -56 22.833 -104.167 68.5 -144.5s100.834 -73.5 165.501 -99.5s129.834 -53.667 195.501 -83s121.334 -68.666 167.001 -117.999s68.5 -108 68.5 -176c0 -130 -45.333 -235.833 -136 -317.5
s-213.334 -124.5 -368.001 -128.5l-43 -205h-102l43 211c-76.667 9.33301 -147 31.333 -211 66s-109 67.334 -135 98.001l-37 45l84 69c2.66699 -5.33301 7 -12.166 13 -20.499s20.667 -22.666 44 -42.999s48.666 -38.666 75.999 -54.999s64.166 -31 110.499 -44
s95.5 -19.5 147.5 -19.5z" />
    <glyph glyph-name="percent" unicode="%" horiz-adv-x="1556" 
d="M571 1362c-66.667 0 -124.167 -26.333 -172.5 -79s-72.5 -113.667 -72.5 -183c0 -56 18 -101.5 54 -136.5s83.333 -52.5 142 -52.5c64 0 121.333 25 172 75s76 112.667 76 188c0 56 -18.5 101.333 -55.5 136s-84.833 52 -143.5 52zM864 1182
c0 -91.333 -34.5 -174.666 -103.5 -249.999s-151.833 -113 -248.5 -113c-83.333 0 -151 25.667 -203 77s-78 116.666 -78 195.999c0 101.333 35.167 187 105.5 257s151.5 105 243.5 105c84.667 0 153.167 -25.5 205.5 -76.5s78.5 -116.167 78.5 -195.5zM184 0l1196 1434h111
l-1196 -1434h-111zM1149 522c-66.667 0 -124.333 -26.167 -173 -78.5s-73 -113.5 -73 -183.5c0 -56 18.167 -101.333 54.5 -136s83.833 -52 142.5 -52c64 0 121.333 24.833 172 74.5s76 112.167 76 187.5c0 56 -18.5 101.333 -55.5 136s-84.833 52 -143.5 52zM1442 342
c0 -91.333 -34.5 -174.5 -103.5 -249.5s-151.833 -112.5 -248.5 -112.5c-83.333 0 -151 25.5 -203 76.5s-78 116.167 -78 195.5c0 101.333 35.167 187 105.5 257s151.166 105 242.499 105c84.667 0 153.334 -25.5 206.001 -76.5s79 -116.167 79 -195.5z" />
    <glyph glyph-name="ampersand" unicode="&#x26;" horiz-adv-x="1259" 
d="M987 1196c0 -64 -20.833 -126.83 -62.5 -188.497s-86 -110.834 -133 -147.501s-105.5 -76.334 -175.5 -119.001l273 -442c10.667 12 24.167 28.667 40.5 50s42 66.833 77 136.5s59.833 139.834 74.5 210.501h90c-18 -84.667 -46.333 -166.167 -85 -244.5
s-73 -135.833 -103 -172.5l-45 -56c5.33301 -10.667 12.5 -23.834 21.5 -39.501s26.833 -36.5 53.5 -62.5s53 -39 79 -39l63 10l-18 -92c-23.333 -6.66699 -45.333 -10 -66 -10c-38 0 -74.833 13.667 -110.5 41s-60.834 54.666 -75.501 81.999l-25 41
c-4 -4 -9.33301 -10.167 -16 -18.5s-22.667 -22.5 -48 -42.5s-52 -37.833 -80 -53.5s-64.5 -29.5 -109.5 -41.5s-90.833 -18 -137.5 -18c-101.333 0 -186 29.667 -254 89s-102 129.333 -102 210c0 52 13.333 103.833 40 155.5s58.667 96 96 133s74.833 69.833 112.5 98.5
s70.167 49.667 97.5 63l39 23c-10.667 15.333 -24.667 35.5 -42 60.5s-40 69.167 -68 132.5s-42 119.666 -42 168.999c0 94 36.833 174.167 110.5 240.5s157.834 99.5 252.501 99.5c75.333 0 140.5 -25.667 195.5 -77s82.5 -111.666 82.5 -180.999zM817 227.003
l-280.002 461c-9.33301 -5.33301 -21.333 -12.5 -36 -21.5s-41 -28.167 -79 -57.5s-71.333 -58.666 -100 -87.999s-55 -65.833 -79 -109.5s-36 -85.834 -36 -126.501c0 -60 24.5 -110.5 73.5 -151.5s114.5 -61.5 196.5 -61.5c62.667 0 122.334 13 179.001 39
s97.334 51.667 122.001 77zM699.998 1362c-66.667 0 -126.666 -23.5 -179.999 -70.5s-80 -104.833 -80 -173.5c0 -39.333 11.667 -85 35 -137s46.666 -93.667 69.999 -125l33 -49c8 4 19.167 10.5 33.5 19.5s39.5 27.167 75.5 54.5s68 55 96 83s53.333 62 76 102
s34 79.333 34 118c0 49.333 -18.833 91.333 -56.5 126s-83.167 52 -136.5 52z" />
    <glyph glyph-name="quotesingle" unicode="'" horiz-adv-x="378" 
d="M446 1434l-90 -430h-92l90 430h92z" />
    <glyph glyph-name="parenleft" unicode="(" horiz-adv-x="675" 
d="M272 512c-20.667 -92.667 -30.6621 -188.334 -29.9951 -287.001c0 -72.667 6.16699 -143.667 18.5 -213s26.666 -127.5 42.999 -174.5s33 -89.333 50 -127s31.5 -65.5 43.5 -83.5l19 -26l-92 -52c-4 6.66699 -10.167 16.667 -18.5 30s-22.833 41.5 -43.5 84.5
s-38.5 88.333 -53.5 136s-29 108.334 -42 182.001s-19.5 148.167 -19.5 223.5c0 139.333 20.167 278.166 60.5 416.499s89.166 257 146.499 356s114.666 186.833 171.999 263.5s106.166 135.5 146.499 176.5s60.5 60.167 60.5 57.5l70 -52
c-10.667 -9.33301 -25.667 -23.166 -45 -41.499s-55 -58 -107 -119s-99.833 -124.5 -143.5 -190.5s-88.334 -149.833 -134.001 -251.5s-79.5 -204.5 -101.5 -308.5z" />
    <glyph glyph-name="parenright" unicode=")" horiz-adv-x="675" 
d="M436 512c20.667 101.333 31.001 195.002 31.001 281.002c0 72.667 -6.16699 144 -18.5 214s-27 129.167 -44 177.5s-34 91.333 -51 129s-31.833 65.5 -44.5 83.5l-18 26l94 52c4 -6.66699 10.167 -16.667 18.5 -30s22.666 -41.5 42.999 -84.5s38 -88.333 53 -136
s29 -108.334 42 -182.001s19.5 -148.834 19.5 -225.501c0 -359.333 -126.333 -704.666 -379 -1036c-79.333 -104 -148.333 -181.333 -207 -232l-69 52c10.667 9.33301 25.667 23.166 45 41.499s54.833 58 106.5 119s99 124.5 142 190.5s87.667 149.833 134 251.5
s80.5 204.5 102.5 308.5z" />
    <glyph glyph-name="asterisk" unicode="*" horiz-adv-x="798" 
d="M535 1055l-213 -238l-56 53l221 228l-251 59l47 82l239 -82l47 277h82l-67 -277l272 82l14 -82l-280 -61l127 -226l-68 -49z" />
    <glyph glyph-name="plus" unicode="+" horiz-adv-x="1034" 
d="M600 1044h92l-86 -399h379l-18 -92h-379l-86 -399h-92l86 399h-379l18 92h379z" />
    <glyph glyph-name="comma" unicode="," horiz-adv-x="399" 
d="M106 143l95 -61l-287 -338l-55 31z" />
    <glyph glyph-name="hyphen" unicode="-" horiz-adv-x="860" 
d="M815 655l-20 -92h-676l20 92h676z" />
    <glyph glyph-name="period" unicode="." horiz-adv-x="409" 
d="M51 53c0 20.667 8.16797 39.168 24.501 55.501s34.833 24.5 55.5 24.5s37.167 -5.83301 49.5 -17.5s18.5 -26.834 18.5 -45.501c0 -22 -8.16699 -40.833 -24.5 -56.5s-35.5 -23.5 -57.5 -23.5c-20.667 0 -36.834 6 -48.501 18s-17.5 27 -17.5 45z" />
    <glyph glyph-name="slash" unicode="/" horiz-adv-x="870" 
d="M1014 1454l-1022 -1884h-103l1020 1884h105z" />
    <glyph glyph-name="zero" unicode="0" horiz-adv-x="1372" 
d="M645 82c114.667 0 217.5 44.333 308.5 133s158.333 192.5 202 311.5s65.5 234.833 65.5 347.5c0 146 -36.167 262.167 -108.5 348.5s-161.166 129.5 -266.499 129.5c-114.667 0 -217.5 -44.5 -308.5 -133.5s-158.333 -192.833 -202 -311.5s-65.5 -234.667 -65.5 -348
c0 -146 36.167 -262 108.5 -348s161.166 -129 266.499 -129zM856 1452h2c130 0 240 -52.5 330 -157.5s135 -244.167 135 -417.5c0 -130 -21.167 -252 -63.5 -366s-97.333 -208.833 -165 -284.5s-142 -135.334 -223 -179.001s-160.5 -65.5 -238.5 -65.5
c-130 0 -240 52.5 -330 157.5s-135 244.167 -135 417.5c0 130 21.167 252 63.5 366s97.333 208.833 165 284.5s141.667 135.334 222 179.001s159.5 65.5 237.5 65.5z" />
    <glyph glyph-name="one" unicode="1" horiz-adv-x="706" 
d="M600 1434h82l-303 -1434h-103l265 1249c-8 -8 -19.667 -18.167 -35 -30.5s-49.166 -29 -101.499 -50s-107.166 -31.5 -164.499 -31.5l18 82c57.333 0 114.666 18 171.999 54s99.666 71.667 126.999 107z" />
    <glyph glyph-name="two" unicode="2" horiz-adv-x="1116" 
d="M901 0h-900.997c13.333 79.333 42.666 152.833 87.999 220.5s98.666 125 159.999 172s127.5 91.333 198.5 133s140.333 82 208 121s129.5 79.167 185.5 120.5s101 89.333 135 144s51 114.334 51 179.001c0 72.667 -28 134.5 -84 185.5s-129 76.5 -219 76.5
c-53.333 0 -102.5 -9 -147.5 -27s-80.833 -39.167 -107.5 -63.5s-49.834 -48.833 -69.501 -73.5s-33.834 -46 -42.501 -64l-10 -26l-86 39c2.66699 8 7.5 19.167 14.5 33.5s23.333 40 49 77s55 69 88 96s78.167 52.167 135.5 75.5s119.333 35 186 35
c113.333 0 207.833 -35.167 283.5 -105.5s113.5 -152.5 113.5 -246.5c0 -72.667 -15.333 -139.334 -46 -200.001s-71.5 -113.167 -122.5 -157.5s-108 -86 -171 -125s-128.167 -77.167 -195.5 -114.5s-131.166 -74.833 -191.499 -112.5s-115 -81.5 -164 -131.5
s-84.5 -103 -106.5 -159h789z" />
    <glyph glyph-name="three" unicode="3" horiz-adv-x="1105" 
d="M752 750c6.66699 -1.33301 15.167 -4.16992 25.5 -8.50293s28.666 -14.666 54.999 -30.999s49.833 -35 70.5 -56s39.167 -50 55.5 -87s24.5 -77.5 24.5 -121.5c0 -125.333 -50.833 -234.333 -152.5 -327s-231.167 -139 -388.5 -139c-57.333 0 -111.166 7.5 -161.499 22.5
s-91.166 32.667 -122.499 53s-59 41.166 -83 62.499s-40.667 39.333 -50 54l-15 23l84 69c2.66699 -5.33301 6.83398 -12.166 12.501 -20.499s19 -22.666 40 -42.999s43.833 -38.666 68.5 -54.999s58.167 -31 100.5 -44s87.5 -19.5 135.5 -19.5
c121.333 0 222.666 34.833 303.999 104.5s122 152.167 122 247.5c0 72.667 -27 134.5 -81 185.5s-129 76.5 -225 76.5h-137l21 103h129c105.333 0 196.5 30.667 273.5 92s115.5 138.333 115.5 231c0 62.667 -26.333 116.667 -79 162s-120.667 68 -204 68
c-40.667 0 -80.834 -5.5 -120.501 -16.5s-73.167 -24.667 -100.5 -41s-51.5 -32.666 -72.5 -48.999s-37.167 -30.166 -48.5 -41.499l-14 -16l-55 82c4 5.33301 10 12.166 18 20.499s25.333 23 52 44s55 39.667 85 56s69 31 117 44s96.333 19.5 145 19.5
c106.667 0 196.5 -32 269.5 -96s109.5 -138.333 109.5 -223c0 -162.667 -78.333 -280.334 -235 -353.001c-46.667 -21.333 -76 -32 -88 -32z" />
    <glyph glyph-name="four" unicode="4" horiz-adv-x="1157" 
d="M889 430h184l-20 -102h-185l-69 -328h-103l70 328h-737l24 123l926 983h123zM786 430l183 862l-807 -862h624z" />
    <glyph glyph-name="five" unicode="5" horiz-adv-x="1214" 
d="M698 911c110.667 0 202.828 -38.832 276.495 -116.499s110.5 -171.167 110.5 -280.5c0 -150 -54.5 -276.5 -163.5 -379.5s-242.167 -154.5 -399.5 -154.5c-56 0 -108.5 7.5 -157.5 22.5s-88.833 32.667 -119.5 53s-57.334 41.166 -80.001 62.499s-38.667 39.333 -48 54
l-15 23l86 71c2.66699 -5.33301 6.83398 -12.166 12.501 -20.499s18.334 -23 38.001 -44s41.834 -39.667 66.501 -56s57.167 -31 97.5 -44s83.5 -19.5 129.5 -19.5c126.667 0 233.167 40.667 319.5 122s129.5 182.666 129.5 303.999c0 86 -27.667 157.667 -83 215
s-126.666 86 -213.999 86c-66.667 0 -129.667 -14.667 -189 -44s-102 -58.333 -128 -87l-39 -43h-82l221 799h727l-20 -103h-631l-144 -528c8 8 20.333 18.167 37 30.5s50.834 28.333 102.501 48s104.834 29.5 159.501 29.5z" />
    <glyph glyph-name="six" unicode="6" horiz-adv-x="1177" 
d="M680 901c113.333 0 205.832 -37.832 277.499 -113.499s107.5 -167.5 107.5 -275.5c0 -148.667 -54.667 -274.5 -164 -377.5s-239 -154.5 -389 -154.5c-116 0 -213.333 35.5 -292 106.5s-118 158.833 -118 263.5c0 62.667 14.333 127.167 43 193.5
s57.334 117.166 86.001 152.499l43 52l576 686h119l-480 -574c52 27.333 115.667 41 191 41zM521.999 82.001c117.333 0 219.832 40.667 307.499 122s131.5 182 131.5 302c0 83.333 -27.667 153 -83 209s-129 84 -221 84c-120 0 -225 -43.667 -315 -131
s-135 -191.333 -135 -312c0 -82 29.333 -148.167 88 -198.5s134.334 -75.5 227.001 -75.5z" />
    <glyph glyph-name="seven" unicode="7" horiz-adv-x="972" 
d="M262 1434h881l-21 -103l-932 -1331h-120l931 1331h-759z" />
    <glyph glyph-name="eight" unicode="8" horiz-adv-x="1187" 
d="M678 829c96.667 0 180.167 28.667 250.5 86s105.5 127.666 105.5 210.999c0 61.333 -24.833 114.333 -74.5 159s-111.5 67 -185.5 67c-95.333 0 -176.833 -30.167 -244.5 -90.5s-101.5 -131.166 -101.5 -212.499c0 -61.333 22.833 -113.333 68.5 -156
s106.167 -64 181.5 -64zM532 82c117.333 0 216.333 35.833 297 107.5s121 158.167 121 259.5c0 76.667 -27.333 142.167 -82 196.5s-125.667 81.5 -213 81.5c-114.667 0 -215.667 -38.833 -303 -116.5s-131 -166.5 -131 -266.5c0 -74 28.667 -136.167 86 -186.5
s132.333 -75.5 225 -75.5zM522 -20c-114.667 0 -210.833 35.835 -288.5 107.502s-116.5 155.834 -116.5 252.501c0 173.333 87.333 306.333 262 399c16.667 9.33301 50.667 24.333 102 45c-4 2.66699 -9.66699 6.16699 -17 10.5s-20 14.333 -38 30s-33.833 32.667 -47.5 51
s-26.167 42.5 -37.5 72.5s-17 62 -17 96c0 112 44.667 208.333 134 289s197.333 121 324 121c96.667 0 180 -32.333 250 -97s105 -139.334 105 -224.001c0 -148.667 -73 -260 -219 -334c-38 -19.333 -60.667 -29 -68 -29c5.33301 -2.66699 12.833 -6.33398 22.5 -11.001
s26 -16.334 49 -35.001s43.5 -39.167 61.5 -61.5s34.5 -52 49.5 -89s22.5 -75.833 22.5 -116.5c0 -130 -51.667 -242 -155 -336s-229.333 -141 -378 -141z" />
    <glyph glyph-name="nine" unicode="9" horiz-adv-x="1177" 
d="M616 532c-113.333 0 -205.832 38 -277.499 114s-107.5 168 -107.5 276c0 148.667 54.667 274.5 164 377.5s239 154.5 389 154.5c116 0 213.333 -35.5 292 -106.5s118 -159.167 118 -264.5c0 -62.667 -14.333 -127 -43 -193s-57.334 -117 -86.001 -153l-43 -51l-576 -686
h-118l479 573c-52 -27.333 -115.667 -41 -191 -41zM774.001 1352c-117.333 0 -219.666 -40.667 -306.999 -122s-131 -182 -131 -302c0 -83.333 27.667 -153 83 -209s128.666 -84 219.999 -84c120 0 225.167 43.667 315.5 131s135.5 191 135.5 311
c0 82 -29.5 148.333 -88.5 199s-134.833 76 -227.5 76z" />
    <glyph glyph-name="colon" unicode=":" horiz-adv-x="409" 
d="M51 51c0 20.667 7.50098 39.501 22.501 56.501s32.833 25.5 53.5 25.5c22 0 39.5 -5.83301 52.5 -17.5s19.5 -26.834 19.5 -45.501c0 -22 -8.16699 -40.833 -24.5 -56.5s-35.5 -23.5 -57.5 -23.5c-20.667 0 -36.834 5.66699 -48.501 17s-17.5 26 -17.5 44z
M233.001 911.001c0 20.667 7.66797 39.501 23.001 56.501s33 25.5 53 25.5c22 0 39.5 -5.83301 52.5 -17.5s19.5 -26.834 19.5 -45.501c0 -22 -8.16699 -40.833 -24.5 -56.5s-35.5 -23.5 -57.5 -23.5c-20.667 0 -36.834 5.66699 -48.501 17s-17.5 26 -17.5 44z" />
    <glyph glyph-name="semicolon" unicode=";" horiz-adv-x="409" 
d="M106 143l95 -61l-287 -338l-53 31zM233 911c0 20.667 7.66797 39.501 23.001 56.501s33 25.5 53 25.5c22 0 39.5 -5.83301 52.5 -17.5s19.5 -26.834 19.5 -45.501c0 -22 -8.16699 -40.833 -24.5 -56.5s-35.5 -23.5 -57.5 -23.5c-20.667 0 -36.834 5.66699 -48.501 17
s-17.5 26 -17.5 44z" />
    <glyph glyph-name="less" unicode="&#x3c;" horiz-adv-x="1003" 
d="M106 461l19 82l887 420l-21 -107l-762 -358l609 -359l-21 -98z" />
    <glyph glyph-name="equal" unicode="=" horiz-adv-x="1024" 
d="M918 471l-19 -92h-809l19 92h809zM995 829l-20 -92h-809l20 92h809z" />
    <glyph glyph-name="greater" unicode="&#x3e;" horiz-adv-x="1003" 
d="M924 543l-19 -82l-887 -420l21 106l764 359l-610 358l20 99z" />
    <glyph glyph-name="question" unicode="?" horiz-adv-x="1054" 
d="M367 53c0 20.667 8.16895 39.168 24.502 55.501s34.666 24.5 54.999 24.5s36.666 -5.83301 48.999 -17.5s18.5 -26.834 18.5 -45.501c0 -22 -8.16699 -40.833 -24.5 -56.5s-35.5 -23.5 -57.5 -23.5c-20.667 0 -36.667 6 -48 18s-17 27 -17 45zM530.002 328.001
l-92.001 0.000976562c-1.33301 69.333 11.334 131.333 38.001 186s60.5 98.667 101.5 132s85.667 67.833 134 103.5s93 68.5 134 98.5s75.5 68.5 103.5 115.5s42 99.167 42 156.5c0 64 -26.667 118.667 -80 164s-123 68 -209 68c-53.333 0 -102.833 -8.66699 -148.5 -26
s-81.667 -37.833 -108 -61.5s-48.833 -47.5 -67.5 -71.5s-31.334 -45 -38.001 -63l-12 -24l-88 31c2.66699 8 7.66699 19.167 15 33.5s24.333 40 51 77s56.334 69 89.001 96s77.334 52.167 134.001 75.5s118 35 184 35c110.667 0 202.167 -32 274.5 -96
s108.5 -140 108.5 -228c0 -65.333 -12.333 -123.833 -37 -175.5s-55.5 -93.334 -92.5 -125.001s-78 -64.167 -123 -97.5s-88 -64.333 -129 -93s-77.833 -65.5 -110.5 -110.5s-54.334 -94.833 -65.001 -149.5z" />
    <glyph glyph-name="at" unicode="@" horiz-adv-x="1822" 
d="M956 788c-83.333 0 -156.668 -32.332 -220.001 -96.999s-95 -148.334 -95 -251.001c0 -65.333 20.167 -119.166 60.5 -161.499s90.5 -63.5 150.5 -63.5c83.333 0 157 34.167 221 102.5s96 154.166 96 257.499c0 64 -20.167 115.5 -60.5 154.5s-91.166 58.5 -152.499 58.5
zM966.998 881.001c34 0 65.6709 -4.83105 95.0039 -14.498s52.833 -21.667 70.5 -36s32.667 -28.666 45 -42.999s21.166 -26.166 26.499 -35.499l6 -15l29 133h92l-96 -454c-5.33301 -26 -8 -50.667 -8 -74c0 -84.667 40.333 -127 121 -127c61.333 0 114.166 27 158.499 81
s75.333 114 93 180s26.5 130 26.5 192c0 148.667 -56 274.167 -168 376.5s-252 153.5 -420 153.5c-210 0 -396.167 -78.5 -558.5 -235.5s-243.5 -344.167 -243.5 -561.5c0 -157.333 53.167 -292.5 159.5 -405.5s238.166 -169.5 395.499 -169.5c76.667 0 150 12 220 36
s121.333 48 154 72l49 35l48 -71c-5.33301 -4 -12.5 -9.83301 -21.5 -17.5s-29.667 -21 -62 -40s-65.5 -35.667 -99.5 -50s-78 -27.333 -132 -39s-109 -17.5 -165 -17.5c-176 0 -326.5 66.833 -451.5 200.5s-187.5 289.167 -187.5 466.5c0 157.333 43 305 129 443
s198.667 246.833 338 326.5s285 119.5 437 119.5c187.333 0 346 -61 476 -183s195 -267 195 -435c0 -56 -7.83301 -114.333 -23.5 -175s-38.167 -119.834 -67.5 -177.501s-69.5 -104.834 -120.5 -141.501s-108.833 -55 -173.5 -55c-32.667 0 -61.667 6.16699 -87 18.5
s-44.5 26.666 -57.5 42.999s-23.833 33 -32.5 50s-14.334 31.833 -17.001 44.5l-2 18c-2.66699 -4 -6.5 -10.167 -11.5 -18.5s-16.333 -22.333 -34 -42s-37.167 -37.334 -58.5 -53.001s-49.333 -29.667 -84 -42s-71 -18.5 -109 -18.5c-79.333 0 -148 30.667 -206 92
s-87 134.333 -87 219c0 124 43 229.5 129 316.5s183 130.5 291 130.5z" />
    <glyph glyph-name="A" unicode="A" horiz-adv-x="1392" 
d="M1034 522l-155 768l-480 -768h635zM1053 420h-717l-262 -420h-115l897 1434h102l291 -1434h-110z" />
    <glyph glyph-name="B" unicode="B" horiz-adv-x="1351" 
d="M1032 762c5.33301 -2.66699 12.166 -6.16797 20.499 -10.501s23.333 -15.333 45 -33s40.834 -36.667 57.501 -57s31.834 -48.666 45.501 -84.999s20.5 -74.166 20.5 -113.499c0 -134 -46.833 -244.667 -140.5 -332s-214.834 -131 -363.501 -131h-584l303 1434h504
c101.333 0 185 -28.333 251 -85s99 -126.667 99 -210c-1.33301 -174.667 -87.333 -300.334 -258 -377.001zM256 101.999h471c120 0 214.833 32.5 284.5 97.5s104.5 151.5 104.5 259.5c0 72.667 -25.167 132.167 -75.5 178.5s-120.833 69.5 -211.5 69.5h-444zM930 1331h-412
l-112 -522h430c101.333 0 185 29.667 251 89s99 137.666 99 234.999c0 58.667 -23.167 106.334 -69.5 143.001s-108.5 55 -186.5 55z" />
    <glyph glyph-name="C" unicode="C" horiz-adv-x="1536" 
d="M164 610c0 144.667 37.167 281.998 111.5 411.998s177.333 234.5 309 313.5s274.834 118.5 429.501 118.5c72.667 0 142 -10.5 208 -31.5s120.167 -46.667 162.5 -77s79.166 -60.5 110.499 -90.5s54.666 -55 69.999 -75l20 -33l-82 -60c-4 6.66699 -10 16.334 -18 29.001
s-27.167 34 -57.5 64s-63.166 56.5 -98.499 79.5s-82.333 44.167 -141 63.5s-120 29 -184 29c-198 0 -369.833 -70.333 -515.5 -211s-218.5 -315 -218.5 -523c0 -146 51.667 -271.833 155 -377.5s229.333 -158.5 378 -158.5c65.333 0 128.333 9.16699 189 27.5
s111.5 40.5 152.5 66.5s77.167 52 108.5 78s54.666 47.667 69.999 65l23 29l65 -61l-27.5 -33c-11.667 -14 -37.667 -38.667 -78 -74s-82.666 -66.666 -126.999 -93.999s-101.333 -51.833 -171 -73.5s-140.5 -32.5 -212.5 -32.5c-172 0 -320.167 63 -444.5 189
s-186.5 273 -186.5 441z" />
    <glyph glyph-name="D" unicode="D" horiz-adv-x="1515" 
d="M436 1434h379c184 0 338.833 -60.167 464.5 -180.5s188.5 -263.166 188.5 -428.499c0 -230.667 -85.667 -425.834 -257 -585.501s-377 -239.5 -617 -239.5h-461zM805 1331h-287l-262 -1229h348c211.333 0 390.833 68.667 538.5 206s221.5 308.333 221.5 513
c0 142 -52.833 262.5 -158.5 361.5s-239.167 148.5 -400.5 148.5z" />
    <glyph glyph-name="E" unicode="E" horiz-adv-x="1290" 
d="M256 102h881l-21 -102h-983l303 1434h963l-21 -103h-860l-115 -532h697l-21 -103h-696z" />
    <glyph glyph-name="F" unicode="F" horiz-adv-x="1249" 
d="M436 1434h953l-21 -103h-850l-119 -553h686l-20 -102h-686l-143 -676h-103z" />
    <glyph glyph-name="G" unicode="G" horiz-adv-x="1617" 
d="M164 606c0 144.667 37.5029 282.165 112.503 412.498s178.667 235.5 311 315.5s275.833 120 430.5 120c72.667 0 141.667 -10.5 207 -31.5s119.166 -46.667 161.499 -77s79.166 -60.5 110.499 -90.5s54 -55 68 -75l20 -33l-82 -60c-4 6.66699 -10 16.334 -18 29.001
s-26.833 34 -56.5 64s-61.5 56.5 -95.5 79.5s-80.333 44.167 -139 63.5s-120 29 -184 29c-198 0 -370.833 -71 -518.5 -213s-221.5 -317 -221.5 -525c0 -146 52 -271.167 156 -375.5s230.333 -156.5 379 -156.5c61.333 0 121 8.16699 179 24.5s106.833 36.166 146.5 59.499
s75.167 46.833 106.5 70.5s54.666 43.834 69.999 60.501l20 25l62 292h-369l22 103h471l-92 -430c-6.66699 -8 -16.167 -19 -28.5 -33s-39.333 -38.667 -81 -74s-85 -66.666 -130 -93.999s-103 -51.833 -174 -73.5s-142.5 -32.5 -214.5 -32.5
c-172 0 -319.833 62.333 -443.5 187s-185.5 271 -185.5 439z" />
    <glyph glyph-name="H" unicode="H" horiz-adv-x="1536" 
d="M133 0l303 1434h103l-140 -656h871l139 656h102l-303 -1434h-102l143 676h-870l-143 -676h-103z" />
    <glyph glyph-name="I" unicode="I" horiz-adv-x="552" 
d="M133 0l303 1434h103l-303 -1434h-103z" />
    <glyph glyph-name="J" unicode="J" horiz-adv-x="1003" 
d="M897 1434h102.002l-215 -1014c-28.667 -131.333 -86.334 -237.5 -173.001 -318.5s-190 -121.5 -310 -121.5c-64 0 -124.667 12.833 -182 38.5s-99 50.834 -125 75.501l-39 39l88 72c6.66699 -9.33301 16.167 -20.833 28.5 -34.5s40.666 -31.834 84.999 -54.501
s91.833 -34 142.5 -34c96.667 0 179.167 30.333 247.5 91s113.5 143 135.5 247z" />
    <glyph glyph-name="K" unicode="K" horiz-adv-x="1341" 
d="M354 561l979 873h137l-667 -594l416 -840h-113l-381 768l-403 -358l-86 -410h-103l303 1434h103z" />
    <glyph glyph-name="L" unicode="L" horiz-adv-x="1146" 
d="M1004 0h-871l303 1434h103l-283 -1332h768z" />
    <glyph glyph-name="M" unicode="M" horiz-adv-x="1884" 
d="M938 420l-440 819l-262 -1239h-103l303 1434h76l457 -840l813 840h88l-303 -1434h-103l262 1239z" />
    <glyph glyph-name="N" unicode="N" horiz-adv-x="1587" 
d="M1470 1434h103l-303 -1434h-74l-698 1239l-262 -1239h-103l303 1434h74l698 -1239z" />
    <glyph glyph-name="O" unicode="O" horiz-adv-x="1699" 
d="M842 80c186 0 350.168 73 492.501 219s213.5 314 213.5 504c0 157.333 -53.833 288.833 -161.5 394.5s-244.834 158.5 -411.501 158.5c-182.667 0 -346.167 -71 -490.5 -213s-216.5 -310.667 -216.5 -506c0 -158.667 54 -291.167 162 -397.5s245.333 -159.5 412 -159.5z
M1651 807c0 -136.667 -36.8311 -268.5 -110.498 -395.5s-174.334 -230.667 -302.001 -311s-264.167 -120.5 -409.5 -120.5c-192.667 0 -351.667 62.333 -477 187s-188 278.667 -188 462c0 222.667 84.667 416.167 254 580.5s359.666 246.5 570.999 246.5
c191.333 0 349.5 -62.833 474.5 -188.5s187.5 -279.167 187.5 -460.5z" />
    <glyph glyph-name="P" unicode="P" horiz-adv-x="1310" 
d="M436 1434l491.999 0.000976562c114.667 0 209.834 -35.833 285.501 -107.5s113.5 -158.834 113.5 -261.501c0 -142 -53.5 -262.833 -160.5 -362.5s-235.167 -149.5 -384.5 -149.5h-430l-116 -553h-103zM917.999 1331h-400l-143 -676h420
c118.667 0 219.667 38.667 303 116s125 173.333 125 288c0 79.333 -28 144.5 -84 195.5s-129.667 76.5 -221 76.5z" />
    <glyph glyph-name="Q" unicode="Q" horiz-adv-x="1710" 
d="M1651 807c0 -168 -55.333 -327.168 -166 -477.501s-249.334 -254.166 -416.001 -311.499c54.667 -135.333 169.334 -202.666 344.001 -201.999c22 0 41.5 0.666992 58.5 2s28.833 3.33301 35.5 6l11 2l-21 -102c-22 -6.66699 -56.667 -10.334 -104 -11.001
c-60 0 -115 7.83301 -165 23.5s-90 34.5 -120 56.5s-56.667 47 -80 75s-39.666 51.5 -48.999 70.5s-17 36.833 -23 53.5c-40.667 -8 -83 -12 -127 -12c-192.667 0 -351.667 62.333 -477 187s-188 278.667 -188 462c0 222.667 84.667 416.167 254 580.5
s359.666 246.5 570.999 246.5c191.333 0 349.5 -62.833 474.5 -188.5s187.5 -279.167 187.5 -460.5zM842 79.999c186 0 350.168 73 492.501 219s213.5 314 213.5 504c0 157.333 -53.833 288.833 -161.5 394.5s-244.834 158.5 -411.501 158.5
c-182.667 0 -346.167 -71 -490.5 -213s-216.5 -310.667 -216.5 -506c0 -158.667 54 -291.167 162 -397.5s245.333 -159.5 412 -159.5z" />
    <glyph glyph-name="R" unicode="R" horiz-adv-x="1351" 
d="M436 1434l522 0.000976562c110.667 0 202.167 -34.167 274.5 -102.5s108.5 -151.833 108.5 -250.5c0 -114.667 -39.5 -214.334 -118.5 -299.001s-177.167 -140.667 -294.5 -168l219 -614h-109l-211 594h-467l-124 -594h-103zM948 1331l-430.001 0.000976562l-135 -635
h434c114.667 0 213.334 36.167 296.001 108.5s124 163.166 124 272.499c0 74 -26.333 134.833 -79 182.5s-122.667 71.5 -210 71.5z" />
    <glyph glyph-name="S" unicode="S" horiz-adv-x="1146" 
d="M516 82c69.333 0 134.165 10.834 194.498 32.501s111.333 58.5 153 110.5s62.5 115 62.5 189c0 56 -23 104 -69 144s-101.667 73 -167 99s-130.833 53.667 -196.5 83s-121.334 68.666 -167.001 117.999s-68.5 108 -68.5 176c0 121.333 45 221.666 135 300.999
s211.667 119 365 119c49.333 0 97.5 -6.16699 144.5 -18.5s85.833 -26.666 116.5 -42.999s58.334 -33 83.001 -50s42.334 -31.833 53.001 -44.5l16 -18l-84 -70c-2.66699 4 -7 9.16699 -13 15.5s-19.667 17.666 -41 33.999s-43.833 30.666 -67.5 42.999
s-55 23.666 -94 33.999s-79.5 15.5 -121.5 15.5c-120 0 -214.167 -28.333 -282.5 -85s-102.5 -130 -102.5 -220c0 -56 22.833 -104.167 68.5 -144.5s100.834 -73.5 165.501 -99.5s129.834 -53.667 195.501 -83s121.334 -68.666 167.001 -117.999s68.5 -108 68.5 -176
c0 -132.667 -47.5 -240.167 -142.5 -322.5s-222.167 -123.5 -381.5 -123.5c-58.667 0 -115 7.5 -169 22.5s-98 32.667 -132 53s-64 41.166 -90 62.499s-45.333 39.333 -58 54l-16 23l84 69c2.66699 -5.33301 7 -12.166 13 -20.499s20.667 -22.666 44 -42.999
s48.666 -38.666 75.999 -54.999s64.166 -31 110.499 -44s95.5 -19.5 147.5 -19.5z" />
    <glyph glyph-name="T" unicode="T" horiz-adv-x="1126" 
d="M252 1434h1044l-20 -103h-471l-283 -1331h-102l282 1331h-471z" />
    <glyph glyph-name="U" unicode="U" horiz-adv-x="1536" 
d="M723 82c126.667 0 239.499 44.6689 338.499 134.002s162.833 201.666 191.5 336.999l187 881h102l-186 -881c-35.333 -170.667 -113.166 -308.834 -233.499 -414.501s-257.5 -158.5 -411.5 -158.5c-138 0 -254.833 44.667 -350.5 134s-143.5 200 -143.5 332
c0 34 4 69.667 12 107l187 881h102l-186 -881c-6.66699 -36.667 -10 -68 -10 -94c0 -109.333 38.5 -199.5 115.5 -270.5s172.167 -106.5 285.5 -106.5z" />
    <glyph glyph-name="V" unicode="V" horiz-adv-x="1331" 
d="M512 0l-260 1434h110l230 -1280l774 1280h115l-867 -1434h-102z" />
    <glyph glyph-name="W" unicode="W" horiz-adv-x="2048" 
d="M1190 1270l-678 -1270h-102l-158 1434h108l132 -1270l677 1270h103l141 -1270l668 1270h117l-764 -1434h-103z" />
    <glyph glyph-name="X" unicode="X" horiz-adv-x="1269" 
d="M1389 1434l-637 -686l374 -748h-116l-330 666l-612 -666h-129l690 748l-346 686h116l303 -605l558 605h129z" />
    <glyph glyph-name="Y" unicode="Y" horiz-adv-x="1249" 
d="M360 1434l287 -820l635 820h127l-729 -932l-107 -502h-102l107 502l-336 932h118z" />
    <glyph glyph-name="Z" unicode="Z" 
d="M1143 1331h-830l21 103h962l-20 -103l-1122 -1229h880l-20 -102h-1014l20 102z" />
    <glyph glyph-name="bracketleft" unicode="[" horiz-adv-x="696" 
d="M502 1352l-359 -1680h297l-20 -102h-400l400 1884h399l-20 -102h-297z" />
    <glyph glyph-name="backslash" unicode="\" horiz-adv-x="870" 
d="M514 -430l-227 1884h100l227 -1884h-100z" />
    <glyph glyph-name="bracketright" unicode="]" horiz-adv-x="696" 
d="M225 -328l359 1680h-297l20 102h400l-400 -1884h-399l20 102h297z" />
    <glyph glyph-name="asciicircum" unicode="^" horiz-adv-x="798" 
d="M569 1434h82l137 -564h-88l-108 451l-301 -451h-96z" />
    <glyph glyph-name="underscore" unicode="_" horiz-adv-x="655" 
d="M532 -236l-20 -92h-694l20 92h694z" />
    <glyph glyph-name="grave" unicode="`" horiz-adv-x="389" 
d="M379 1423l96 -266h-76l-129 266h109z" />
    <glyph glyph-name="a" unicode="a" horiz-adv-x="1218" 
d="M485 72c122.667 0 231.168 53.5 325.501 160.5s141.5 224.833 141.5 353.5c0 92.667 -30.333 170 -91 232s-133.334 93 -218.001 93c-108 0 -211.5 -50.167 -310.5 -150.5s-148.5 -216.5 -148.5 -348.5c0 -94 30 -174.167 90 -240.5s130.333 -99.5 211 -99.5zM840.001 0
l40.999 194.998c-4 -5.33301 -9.83301 -12.833 -17.5 -22.5s-24.5 -27.167 -50.5 -52.5s-53.667 -47.166 -83 -65.499s-66.833 -35.333 -112.5 -51s-92.5 -23.5 -140.5 -23.5c-104 0 -194.5 41.5 -271.5 124.5s-115.5 181.833 -115.5 296.5
c0 162.667 59.333 303.834 178 423.501s246.334 179.5 383.001 179.5c48 0 92.833 -8 134.5 -24s75.5 -34.833 101.5 -56.5s48.167 -43.5 66.5 -65.5s30.833 -40.333 37.5 -55l13 -25l45 205h92l-209 -983h-92z" />
    <glyph glyph-name="b" unicode="b" horiz-adv-x="1218" 
d="M735 911c-122.667 0 -231.167 -53.5 -325.5 -160.5s-141.5 -224.833 -141.5 -353.5c0 -92.667 30.5 -170 91.5 -232s133.833 -93 218.5 -93c108 0 211.333 50.167 310 150.5s148 216.5 148 348.5c0 94 -30 174.167 -90 240.5s-130.333 99.5 -211 99.5zM477 1434
l-137.003 -646c4 5.33301 9.83301 12.833 17.5 22.5s24.334 27.167 50.001 52.5s53.334 47.166 83.001 65.499s67.334 35.5 113.001 51.5s92.167 24 139.5 24c104 0 194.5 -41.667 271.5 -125s115.5 -182.333 115.5 -297c0 -162.667 -59.333 -303.667 -178 -423
s-246.334 -179 -383.001 -179c-48 0 -92.667 7.83301 -134 23.5s-75 34.334 -101 56.001s-48.167 43.5 -66.5 65.5s-31.166 40.333 -38.499 55l-12 25l-43 -205h-92l303 1434h92z" />
    <glyph glyph-name="c" unicode="c" horiz-adv-x="1054" 
d="M92 406c0 152.667 56.334 290.5 169.001 413.5s248.334 184.5 407.001 184.5c48 0 93.333 -7.16699 136 -21.5s77.667 -31.5 105 -51.5s51.333 -39.833 72 -59.5s35 -37.167 43 -52.5l14 -20l-80 -58c-2.66699 4 -6 10.167 -10 18.5s-14.833 22 -32.5 41
s-36.834 36 -57.501 51s-49 28.667 -85 41s-74 18.5 -114 18.5c-118.667 0 -227.167 -49.5 -325.5 -148.5s-147.5 -215.833 -147.5 -350.5c0 -94 31.167 -174.167 93.5 -240.5s137.166 -99.5 224.499 -99.5c64 0 124.667 14.667 182 44s99 58.333 125 87l37 43l61 -62
c-4 -5.33301 -10 -12.833 -18 -22.5s-25.667 -26 -53 -49s-56 -43.333 -86 -61s-68.333 -34 -115 -49s-93.667 -22.5 -141 -22.5c-110.667 0 -205.667 42 -285 126s-119 184 -119 300z" />
    <glyph glyph-name="d" unicode="d" horiz-adv-x="1218" 
d="M485 72c122.667 0 231.168 53.5 325.501 160.5s141.5 224.833 141.5 353.5c0 92.667 -30.333 170 -91 232s-133.334 93 -218.001 93c-108 0 -211.5 -50.167 -310.5 -150.5s-148.5 -216.5 -148.5 -348.5c0 -94 30 -174.167 90 -240.5s130.333 -99.5 211 -99.5zM840.001 0
l40.999 194.998c-4 -5.33301 -9.83301 -12.833 -17.5 -22.5s-24.5 -27.167 -50.5 -52.5s-53.667 -47.166 -83 -65.499s-66.833 -35.333 -112.5 -51s-92.5 -23.5 -140.5 -23.5c-104 0 -194.5 41.5 -271.5 124.5s-115.5 181.833 -115.5 296.5
c0 162.667 59.333 303.834 178 423.501s246.334 179.5 383.001 179.5c48 0 92.833 -8 134.5 -24s75.5 -34.833 101.5 -56.5s48.167 -43.5 66.5 -65.5s30.833 -40.333 37.5 -55l13 -25l139 656h92l-303 -1434h-92z" />
    <glyph glyph-name="e" unicode="e" horiz-adv-x="1126" 
d="M1016 451l-831.998 -0.000976562c-1.33301 -10.667 -2 -25.667 -2 -45c0 -90 31.5 -168.167 94.5 -234.5s140.167 -99.5 231.5 -99.5c64 0 124.667 14.333 182 43s99 57.334 125 86.001l39 43l55 -60c-4 -5.33301 -10 -12.833 -18 -22.5s-25.333 -26 -52 -49
s-54.667 -43.333 -84 -61s-67.333 -34 -114 -49s-93.667 -22.5 -141 -22.5c-110.667 0 -206.334 41.5 -287.001 124.5s-121 182.5 -121 298.5c0 164 58.667 305.167 176 423.5s247.666 177.5 390.999 177.5c108 0 198.5 -35.167 271.5 -105.5s109.5 -162.833 109.5 -277.5
c0 -44 -4.66699 -87 -14 -129zM649.002 910.999c-104 0 -196.833 -35.833 -278.5 -107.5s-137.5 -158.5 -167.5 -260.5h741c4 24.667 6 48.334 6 71.001c0 87.333 -28.333 158.666 -85 213.999s-128.667 83 -216 83z" />
    <glyph glyph-name="f" unicode="f" horiz-adv-x="634" 
d="M680 983l-21 -92h-245l-189 -891h-92l189 891h-164l20 92h164l43 205c18 86 53.167 151.833 105.5 197.5s117.5 68.5 195.5 68.5c22 0 43.5 -2.66699 64.5 -8s37.167 -10.666 48.5 -15.999l14 -7l-18 -92c-36.667 20.667 -79 31 -127 31s-89 -15.333 -123 -46
s-56.667 -73.334 -68 -128.001l-43 -205h246z" />
    <glyph glyph-name="g" unicode="g" 
d="M629 911c-117.333 0 -219.833 -48.835 -307.5 -146.502s-131.5 -207.167 -131.5 -328.5c0 -88.667 29.5 -164.667 88.5 -228s128.5 -95 208.5 -95c106.667 0 208.167 48.833 304.5 146.5s144.5 209.834 144.5 336.501c0 88.667 -30.667 163.334 -92 224.001
s-133 91 -215 91zM831 60.998l34.9961 163.998c-4 -5.33301 -9.33301 -12.833 -16 -22.5s-22 -26 -46 -49s-50 -43.333 -78 -61s-64.167 -34.167 -108.5 -49.5s-90.5 -23 -138.5 -23c-102.667 0 -192.167 40.333 -268.5 121s-114.5 176.334 -114.5 287.001
c0 158.667 56.333 294.334 169 407.001s237.334 169 374.001 169c48 0 92.833 -7.16699 134.5 -21.5s74.667 -32.166 99 -53.499s45.833 -42.5 64.5 -63.5s31.334 -39.167 38.001 -54.5l12 -20l41 192h92l-196 -922c-31.333 -148.667 -98.666 -267.667 -201.999 -357
s-219.666 -134 -348.999 -134c-49.333 0 -95.833 7.16699 -139.5 21.5s-79.167 31.333 -106.5 51s-50.833 39.5 -70.5 59.5s-33.834 37.333 -42.501 52l-12 21l74 61c2.66699 -4 6.33398 -10.167 11.001 -18.5s15.834 -22.333 33.501 -42s37.5 -37.334 59.5 -53.001
s51.167 -29.667 87.5 -42s74.166 -18.5 113.499 -18.5c101.333 0 195.5 38.5 282.5 115.5s142.833 171.5 167.5 283.5z" />
    <glyph glyph-name="h" unicode="h" horiz-adv-x="1177" 
d="M477 1434l-133.001 -624.997c2.66699 5.33301 7.16699 12.5 13.5 21.5s20.333 24.333 42 46s45.167 41.167 70.5 58.5s58.833 33.166 100.5 47.499s85.5 21.5 131.5 21.5c98 0 179.5 -30.5 244.5 -91.5s97.5 -139.833 97.5 -236.5
c0 -24.667 -3.33301 -55.334 -10 -92.001l-123 -584h-92l123 584c5.33301 23.333 8 48.333 8 75c0 75.333 -24.167 136.166 -72.5 182.499s-110.166 69.5 -185.499 69.5c-92.667 0 -177.167 -34 -253.5 -102s-125.5 -153.333 -147.5 -256l-117 -553h-92l303 1434h92z" />
    <glyph glyph-name="i" unicode="i" horiz-adv-x="460" 
d="M82 0l209 983h92l-209 -983h-92zM332 1321c0 20.667 7.5 39.5 22.5 56.5s32.833 25.5 53.5 25.5c22 0 39.333 -5.83301 52 -17.5s19 -27.167 19 -46.5c0 -22 -8.16699 -40.667 -24.5 -56s-35.5 -23 -57.5 -23c-20.667 0 -36.667 5.66699 -48 17s-17 26 -17 44z" />
    <glyph glyph-name="j" unicode="j" horiz-adv-x="460" 
d="M45 -164l245.999 1147h92l-246 -1147c-18 -82 -53.5 -146.833 -106.5 -194.5s-115.167 -71.5 -186.5 -71.5c-22 0 -43.167 2.66699 -63.5 8s-35.166 10.666 -44.499 15.999l-15 7l21 92c24.667 -20.667 60.667 -31 108 -31c46.667 0 88.167 15.333 124.5 46
s59.833 73.334 70.5 128.001zM331.999 1321c0 20.667 7.5 39.5 22.5 56.5s32.833 25.5 53.5 25.5c22 0 39.333 -5.83301 52 -17.5s19 -27.167 19 -46.5c0 -22 -8.16699 -40.667 -24.5 -56s-35.5 -23 -57.5 -23c-20.667 0 -36.667 5.66699 -48 17s-17 26 -17 44z" />
    <glyph glyph-name="k" unicode="k" horiz-adv-x="1024" 
d="M229 266l-55 -266h-92l303 1434h92l-217 -1028l660 577h129l-455 -399l297 -584h-103l-262 512h-14z" />
    <glyph glyph-name="l" unicode="l" horiz-adv-x="460" 
d="M477 1434l-303 -1434h-92l303 1434h92z" />
    <glyph glyph-name="m" unicode="m" horiz-adv-x="1771" 
d="M1413 0l122.999 584.001c6.66699 36.667 10 67.334 10 92.001c0 72.667 -21.833 130 -65.5 172s-98.834 63 -165.501 63c-83.333 0 -158.166 -32 -224.499 -96s-111.166 -151.333 -134.499 -262l-116 -553h-92l122 584c6.66699 36.667 10.334 67.334 11.001 92.001
c0 72.667 -21.833 130 -65.5 172s-99.167 63 -166.5 63c-83.333 0 -158 -32 -224 -96s-110.667 -151.333 -134 -262l-117 -553h-92l209 983h92l-31 -143c2.66699 4 6.5 9.66699 11.5 17s16.333 20.666 34 39.999s37.334 36.166 59.001 50.499s50.667 27.333 87 39
s74.166 17.5 113.499 17.5c46.667 0 88.834 -8 126.501 -24s67 -34.833 88 -56.5s39 -43.5 54 -65.5s24.5 -40.333 28.5 -55l9 -25c2.66699 5.33301 6.66699 13.166 12 23.499s18.166 28.5 38.499 54.5s43.166 48.833 68.499 68.5s59.5 37.834 102.5 54.501
s89.167 25 138.5 25c88.667 0 163.667 -27 225 -81s92 -128.333 92 -223c0 -36.667 -4 -75.334 -12 -116.001l-123 -584h-92z" />
    <glyph glyph-name="n" unicode="n" horiz-adv-x="1177" 
d="M383 983l-39.001 -173.997c2.66699 5.33301 7.16699 12.5 13.5 21.5s20.333 24.333 42 46s45.167 41.167 70.5 58.5s58.833 33.166 100.5 47.499s85.5 21.5 131.5 21.5c98 0 179.5 -30.5 244.5 -91.5s97.5 -139.833 97.5 -236.5c0 -24.667 -3.33301 -55.334 -10 -92.001
l-123 -584h-92l123 584c5.33301 23.333 8 48.333 8 75c0 75.333 -24.167 136.166 -72.5 182.499s-110.166 69.5 -185.499 69.5c-92.667 0 -177.167 -34 -253.5 -102s-125.5 -153.333 -147.5 -256l-117 -553h-92l209 983h92z" />
    <glyph glyph-name="o" unicode="o" horiz-adv-x="1187" 
d="M92 428c0 144.667 56 276.334 168 395.001s243.667 178 395 178c126.667 0 232.5 -43.333 317.5 -130s127.5 -193.334 127.5 -320.001c0 -155.333 -58.667 -289.333 -176 -402s-248 -169 -392 -169c-125.333 0 -230 43.333 -314 130s-126 192.667 -126 318zM545 70
c118.667 0 225.5 48.332 320.5 144.999s142.5 206.667 142.5 330c0 102.667 -34.5 189.334 -103.5 260.001s-154.833 106 -257.5 106c-116 0 -221.833 -47 -317.5 -141s-143.5 -205.333 -143.5 -334c0 -104 34.167 -191 102.5 -261s153.833 -105 256.5 -105z" />
    <glyph glyph-name="p" unicode="p" horiz-adv-x="1218" 
d="M735 911c-122.667 0 -231.167 -53.5 -325.5 -160.5s-141.5 -224.833 -141.5 -353.5c0 -92.667 30.5 -170 91.5 -232s133.833 -93 218.5 -93c108 0 211.333 50.167 310 150.5s148 216.5 148 348.5c0 94 -30 174.167 -90 240.5s-130.333 99.5 -211 99.5zM383 983
l-43.0029 -195c4 5.33301 9.83301 12.833 17.5 22.5s24.334 27.167 50.001 52.5s53.334 47.166 83.001 65.499s67.334 35.5 113.001 51.5s92.167 24 139.5 24c104 0 194.5 -41.667 271.5 -125s115.5 -182.333 115.5 -297c0 -162.667 -59.333 -303.667 -178 -423
s-246.334 -179 -383.001 -179c-48 0 -92.667 7.83301 -134 23.5s-75 34.334 -101 56.001s-48.167 43.5 -66.5 65.5s-31.166 40.333 -38.499 55l-12 25l-135 -635h-92l301 1413h92z" />
    <glyph glyph-name="q" unicode="q" horiz-adv-x="1218" 
d="M487 72c122.667 0 231.168 53.5 325.501 160.5s141.5 224.833 141.5 353.5c0 92.667 -30.333 170 -91 232s-133.334 93 -218.001 93c-108 0 -211.5 -50.167 -310.5 -150.5s-148.5 -216.5 -148.5 -348.5c0 -94 30 -174.167 90 -240.5s130.333 -99.5 211 -99.5z
M748.001 -430l135 624.998c-4 -5.33301 -9.83301 -12.833 -17.5 -22.5s-24.5 -27.167 -50.5 -52.5s-53.667 -47.166 -83 -65.499s-66.833 -35.333 -112.5 -51s-92.5 -23.5 -140.5 -23.5c-104 0 -194.5 41.5 -271.5 124.5s-115.5 181.833 -115.5 296.5
c0 162.667 59.5 303.834 178.5 423.501s246.5 179.5 382.5 179.5c48 0 92.833 -8 134.5 -24s75.167 -34.833 100.5 -56.5s47.5 -43.5 66.5 -65.5s32.5 -40.333 40.5 -55l11 -25l43 205h92l-301 -1413h-92z" />
    <glyph glyph-name="r" unicode="r" horiz-adv-x="696" 
d="M776 1004l-20 -92.999h-41c-95.333 0 -184.333 -33.333 -267 -100s-135 -152.667 -157 -258l-117 -553h-92l209 983h92l-35 -164c4 5.33301 9.5 12.166 16.5 20.499s22.333 23 46 44s49.5 39.833 77.5 56.5s64.333 31.5 109 44.5s90.667 19.5 138 19.5h41z" />
    <glyph glyph-name="s" unicode="s" horiz-adv-x="880" 
d="M827 860l-81.9951 -67.0049c-6.66699 8 -15.834 18.833 -27.501 32.5s-38.334 31.334 -80.001 53.001s-84.834 32.5 -129.501 32.5c-75.333 0 -134.833 -17.667 -178.5 -53s-65.5 -79 -65.5 -131c0 -40.667 25 -77.167 75 -109.5s104.333 -58 163 -77
s112.834 -49 162.501 -90s74.5 -90.833 74.5 -149.5c0 -94 -34.833 -171 -104.5 -231s-162.5 -90 -278.5 -90c-42 0 -82.5 5.33301 -121.5 16s-71.833 24.167 -98.5 40.5s-49.834 32.833 -69.501 49.5s-34.167 30.334 -43.5 41.001l-15 16l82 68
c8 -10.667 19.5 -23.5 34.5 -38.5s46.833 -35.5 95.5 -61.5s99 -39 151 -39c86 0 153.167 20.167 201.5 60.5s72.5 92.5 72.5 156.5c0 35.333 -16.333 66.333 -49 93s-72.167 49.167 -118.5 67.5s-92.833 37.833 -139.5 58.5s-86.334 48.334 -119.001 83.001
s-49 75.334 -49 122.001c0 76.667 33.167 144.334 99.5 203.001s150.5 88 252.5 88c57.333 0 111.666 -12 162.999 -36s88 -47.667 110 -71z" />
    <glyph glyph-name="t" unicode="t" horiz-adv-x="716" 
d="M389 1065l53 246.001h82l-69 -328h225l-21 -92h-225l-137 -645c-12 -54.667 -7.16699 -97.334 14.5 -128.001s55.834 -46 102.501 -46c22 0 44.5 2.33301 67.5 7s40.833 9.66699 53.5 15l18 8l-18 -92c-46.667 -20.667 -94 -30.667 -142 -30
c-78 0 -133.333 22.833 -166 68.5s-40 111.5 -22 197.5l137 645h-195l21 92h133c20.667 0 39.167 7.5 55.5 22.5s27.166 34.833 32.499 59.5z" />
    <glyph glyph-name="u" unicode="u" 
d="M819 0l37.001 171.993c-2.66699 -5.33301 -7 -12.166 -13 -20.499s-20 -23.666 -42 -45.999s-45.333 -42.166 -70 -59.499s-57.834 -32.666 -99.501 -45.999s-85.5 -20 -131.5 -20c-100 0 -182.333 30.333 -247 91s-97 139.334 -97 236.001
c0 24.667 3.33301 55.334 10 92.001l125 584h92l-125 -584c-5.33301 -23.333 -8 -48.333 -8 -75c0 -75.333 24.167 -136.166 72.5 -182.499s110.833 -69.5 187.5 -69.5c91.333 0 174.833 34 250.5 102s125.167 153.333 148.5 256l119 553h92l-209 -983h-92z" />
    <glyph glyph-name="v" unicode="v" horiz-adv-x="983" 
d="M440 0h-102l-191 983h99l164 -860l532 860h107z" />
    <glyph glyph-name="w" unicode="w" horiz-adv-x="1454" 
d="M788 983h86l91 -840l454 840h101l-537 -983h-92l-90 829l-443 -829h-92l-119 983h97l100 -829z" />
    <glyph glyph-name="x" unicode="x" horiz-adv-x="942" 
d="M977 983l-438 -471l260 -512h-107l-225 440l-410 -440h-118l477 512l-238 471h107l200 -399l373 399h119z" />
    <glyph glyph-name="y" unicode="y" horiz-adv-x="983" 
d="M219 -184l113 184.001l-185 983h99l164 -862l530 862h109l-721 -1167c-54.667 -88.667 -107 -151.834 -157 -189.501s-110.333 -56.5 -181 -56.5c-15.333 0 -30.166 1.66699 -44.499 5s-24.833 7 -31.5 11l-10 4l18 93c23.333 -13.333 52 -20.333 86 -21
c45.333 0 83.666 12.333 114.999 37s63.333 63.667 96 117z" />
    <glyph glyph-name="z" unicode="z" horiz-adv-x="911" 
d="M926 983l-21 -92l-794 -799h645l-19 -92h-768l19 92l794 799h-604l21 92h727z" />
    <glyph glyph-name="braceleft" unicode="{" horiz-adv-x="727" 
d="M139 471l18.999 82.001c102.667 0 164.667 51.333 186 154l102 481c18 83.333 56.667 148.5 116 195.5s134.666 70.5 225.999 70.5h72l-18 -92h-72c-131.333 0 -208.333 -58 -231 -174l-103 -481c-10.667 -49.333 -30.334 -90 -59.001 -122s-54.667 -52.333 -78 -61
l-37 -12c2.66699 -1.33301 6.83398 -3 12.501 -5s15.667 -7.5 30 -16.5s24.833 -20.333 31.5 -34s13.5 -32.334 20.5 -56.001s5.5 -51.5 -4.5 -83.5l-102 -481c-23.333 -116 29.334 -174 158.001 -174h71l-18 -92h-72c-91.333 0 -157.166 23.5 -197.499 70.5
s-51.5 112.167 -33.5 195.5l102 481c23.333 102.667 -17 154 -121 154z" />
    <glyph glyph-name="bar" unicode="|" horiz-adv-x="665" 
d="M594 1454l-399 -1884h-93l400 1884h92z" />
    <glyph glyph-name="braceright" unicode="}" horiz-adv-x="727" 
d="M618 553l-18 -82.001c-102.667 0 -164.667 -51.333 -186 -154l-103 -481c-18 -83.333 -56.667 -148.5 -116 -195.5s-134.666 -70.5 -225.999 -70.5h-69l16 92h72c131.333 0 208.333 58 231 174l103 481c10.667 49.333 30.667 90 60 122s56.333 52.333 81 61l35 12
c-4 1.33301 -8.5 3 -13.5 5s-14.667 7.5 -29 16.5s-25.166 20.333 -32.499 34s-14.5 32.334 -21.5 56.001s-5.5 51.5 4.5 83.5l102 481c23.333 116 -29.334 174 -158.001 174h-71l18 92h72c91.333 0 157.166 -23.5 197.499 -70.5s51.5 -112.167 33.5 -195.5l-102 -481
c-24 -102.667 16 -154 120 -154z" />
    <glyph glyph-name="asciitilde" unicode="~" horiz-adv-x="1064" 
d="M371 625c-24.667 0 -48.665 -4.16699 -71.998 -12.5s-42.5 -18.333 -57.5 -30s-28 -23.667 -39 -36s-19.167 -22.5 -24.5 -30.5l-8 -12l-64 49c2.66699 4 6.5 9.83301 11.5 17.5s16 21 33 40s35 35.667 54 50s44 27.333 75 39s62.833 17.5 95.5 17.5
c54.667 0 103.5 -12 146.5 -36s83.167 -48 120.5 -72s77.333 -36 120 -36c39.333 0 75.833 10.333 109.5 31s57.167 40.667 70.5 60l23 30l61 -49c-2.66699 -4 -6.33398 -9.83301 -11.001 -17.5s-15.667 -21 -33 -40s-35.5 -35.667 -54.5 -50s-43.833 -27.333 -74.5 -39
s-62.334 -17.5 -95.001 -17.5c-54.667 0 -103.5 12 -146.5 36s-83.333 48 -121 72s-77.5 36 -119.5 36z" />
    <glyph glyph-name="uni00A0" unicode="&#xa0;" horiz-adv-x="378" 
 />
    <glyph glyph-name="exclamdown" unicode="&#xa1;" horiz-adv-x="573" 
d="M293 655h82l-211 -1085h-123zM463 932c0 -20.667 -7.50098 -39.501 -22.501 -56.501s-32.833 -25.5 -53.5 -25.5c-22 0 -39.5 5.83301 -52.5 17.5s-19.5 26.834 -19.5 45.501c0 22 8.33301 40.833 25 56.5s35.667 23.5 57 23.5c20.667 0 36.834 -5.66699 48.501 -17
s17.5 -26 17.5 -44z" />
    <glyph glyph-name="cent" unicode="&#xa2;" horiz-adv-x="1054" 
d="M92 406c0 148.667 54.668 284.002 164.001 406.002s241 185 395 189l45 207h92l-45 -213c60 -10.667 114.667 -32.334 164 -65.001s83.666 -62.667 102.999 -90l28 -41l-80 -58c-2.66699 4 -6 10.167 -10 18.5s-14.833 22 -32.5 41s-36.834 36 -57.501 51
s-49 28.667 -85 41s-74 18.5 -114 18.5c-118.667 0 -227.167 -49.5 -325.5 -148.5s-147.5 -215.833 -147.5 -350.5c0 -94 31.167 -174.167 93.5 -240.5s137.166 -99.5 224.499 -99.5c64 0 124.667 14.667 182 44s99 58.333 125 87l37 43l61 -62
c-4 -5.33301 -9.66699 -12 -17 -20s-23.666 -23.333 -48.999 -46s-51.666 -42.5 -78.999 -59.5s-62.833 -33.333 -106.5 -49s-87.5 -24.834 -131.5 -27.501l-43 -207h-92l45 211c-96.667 15.333 -178.167 62.833 -244.5 142.5s-99.5 172.167 -99.5 277.5z" />
    <glyph glyph-name="sterling" unicode="&#xa3;" horiz-adv-x="1126" 
d="M422 1024c27.333 128.667 83.668 232.502 169.001 311.502s186.666 118.5 303.999 118.5c44 0 86 -6.16699 126 -18.5s73 -26.666 99 -42.999s48.667 -33 68 -50s33 -31.833 41 -44.5l14 -18l-82 -70c-2.66699 4 -6.33398 9.16699 -11.001 15.5
s-15.5 17.666 -32.5 33.999s-35.5 30.666 -55.5 42.999s-46 23.666 -78 33.999s-65 15.5 -99 15.5c-87.333 0 -164.166 -30.5 -230.499 -91.5s-109.833 -139.833 -130.5 -236.5l-65 -307h420l-23 -103h-420l-76 -358c-6.66699 -32.667 -20.167 -62 -40.5 -88
s-38.833 -43.667 -55.5 -53l-24 -13h753l-20 -102h-932l20 102c44 0 85.833 16.167 125.5 48.5s63.5 67.5 71.5 105.5l76 358h-144l23 103h143z" />
    <glyph glyph-name="currency" unicode="&#xa4;" horiz-adv-x="1351" 
d="M135 594l23 102h174l155 738h486c110.667 0 203.167 -35.167 277.5 -105.5s111.5 -154.833 111.5 -253.5c0 -136.667 -50.167 -251 -150.5 -343s-221.5 -138 -363.5 -138h-436l-43 -205h530l-22 -102h-531l-59 -287h-103l60 287h-174l22 102h174l43 205h-174zM965 1331
h-395.999l-135 -635h424c113.333 0 208.166 35.5 284.499 106.5s114.5 161.167 114.5 270.5c0 74 -26.833 135.5 -80.5 184.5s-124.167 73.5 -211.5 73.5z" />
    <glyph glyph-name="yen" unicode="&#xa5;" horiz-adv-x="1249" 
d="M358 1434l289 -809l633 809h129l-633 -809h266l-18 -93h-317l-27 -30l-33 -154h338l-20 -92h-338l-54 -256h-102l53 256h-338l21 92h338l33 154l-15 30h-317l18 93h266l-288 809h116z" />
    <glyph glyph-name="brokenbar" unicode="&#xa6;" horiz-adv-x="665" 
d="M268 348h92l-165 -778h-93zM430 676h-92l164 778h92z" />
    <glyph glyph-name="section" unicode="&#xa7;" horiz-adv-x="1081" 
d="M526 881c-61.333 -12 -121.335 -41.333 -180.002 -88s-88 -103.334 -88 -170.001c0 -26 6.5 -50.667 19.5 -74s28.667 -42.5 47 -57.5s41.833 -30 70.5 -45s54 -26.667 76 -35s48.667 -17.833 80 -28.5s53 -19 65 -25l15 4c8 2.66699 20.167 6.83398 36.5 12.501
s33.833 13 52.5 22s37.834 20.667 57.501 35s37.334 30 53.001 47s28.667 37.833 39 62.5s15.5 50.334 15.5 77.001c0 31.333 -8.16699 59.666 -24.5 84.999s-40.333 47.333 -72 66s-60 33.667 -85 45s-57.833 24 -98.5 38s-67 23.667 -79 29zM978.998 631
c0 -78 -27.3359 -144.331 -82.0029 -198.998s-123.667 -96.334 -207 -125.001c8 -5.33301 18.167 -13.166 30.5 -23.499s28.833 -32.833 49.5 -67.5s31 -71.334 31 -110.001c0 -92.667 -36.833 -171 -110.5 -235s-167.167 -96 -280.5 -96c-42 0 -83 6.16699 -123 18.5
s-72.833 26.666 -98.5 42.999s-48.834 33 -69.501 50s-35.667 31.5 -45 43.5l-15 19l82 65c6.66699 -10.667 17 -24.167 31 -40.5s44.167 -38.166 90.5 -65.499s94.833 -41 145.5 -41c86 0 157.333 23.5 214 70.5s85 102.5 85 166.5c0 62.667 -37 114.667 -111 156
c-24.667 13.333 -59.5 29.666 -104.5 48.999s-84.5 36.5 -118.5 51.5s-68.167 33.833 -102.5 56.5s-61 49.667 -80 81s-28.5 67.333 -28.5 108c0 46.667 9.83301 90.167 29.5 130.5s43.834 71.666 72.501 93.999s57 41.666 85 57.999s52.333 27.5 73 33.5l29 10
c-8 5.33301 -18.333 13.166 -31 23.499s-28.834 32.5 -48.501 66.5s-29.5 69.333 -29.5 106c0 94 34.833 171.833 104.5 233.5s161.834 92.5 276.501 92.5c60 0 117 -12 171 -36s93.333 -47.333 118 -70l35 -37l-80 -66c-6.66699 8 -16.5 18.5 -29.5 31.5
s-40.667 30.5 -83 52.5s-86.166 33 -131.499 33c-86 0 -155.333 -22.167 -208 -66.5s-79 -99.5 -79 -165.5c0 -64 43 -117 129 -159c20.667 -9.33301 54.834 -24 102.501 -44s85.834 -37.167 114.501 -51.5s60.167 -33.166 94.5 -56.499s60 -50.666 77 -81.999
s25.5 -66.666 25.5 -105.999z" />
    <glyph glyph-name="dieresis" unicode="&#xa8;" horiz-adv-x="624" 
d="M242 1292c0 20.667 7.5 39.501 22.5 56.501s32.5 25.5 52.5 25.5c22 0 39.5 -5.83301 52.5 -17.5s19.5 -26.834 19.5 -45.501c0 -22 -8.16699 -40.833 -24.5 -56.5s-35.5 -23.5 -57.5 -23.5c-20.667 0 -36.667 5.66699 -48 17s-17 26 -17 44zM600 1292
c0 20.667 7.50098 39.501 22.501 56.501s32.833 25.5 53.5 25.5c22 0 39.5 -5.83301 52.5 -17.5s19.5 -26.834 19.5 -45.501c0 -22 -8.33301 -40.833 -25 -56.5s-35.667 -23.5 -57 -23.5c-20.667 0 -36.834 5.66699 -48.501 17s-17.5 26 -17.5 44z" />
    <glyph glyph-name="copyright" unicode="&#xa9;" horiz-adv-x="1781" 
d="M1065 1454c176 0 326.501 -61.833 451.501 -185.5s187.5 -270.167 187.5 -439.5c0 -154 -41 -296.833 -123 -428.5s-189.5 -234.667 -322.5 -309s-274.5 -111.5 -424.5 -111.5c-176 0 -326.5 61.333 -451.5 184s-187.5 268 -187.5 436c0 155.333 40.5 299 121.5 431
s188.167 235.5 321.5 310.5s275.666 112.5 426.999 112.5zM840.001 72c208.667 0 389.5 72.001 542.5 216.001s229.5 323 229.5 537c0 147.333 -54 273.666 -162 378.999s-240.333 158 -397 158c-208.667 0 -388.167 -71.667 -538.5 -215s-225.5 -323 -225.5 -539
c0 -148.667 52.167 -275.167 156.5 -379.5s235.833 -156.5 394.5 -156.5zM1014 1014c-92.667 0 -173.835 -35.833 -243.502 -107.5s-104.5 -155.5 -104.5 -251.5c0 -68 22.5 -124.167 67.5 -168.5s102.833 -66.5 173.5 -66.5c46.667 0 90.5 10.167 131.5 30.5
s70.167 40.833 87.5 61.5l25 31l55 -62c-2.66699 -4 -7 -9.33301 -13 -16s-19 -19 -39 -37s-40.833 -33.833 -62.5 -47.5s-50 -25.834 -85 -36.501s-70.833 -16 -107.5 -16c-92.667 0 -170.5 30.667 -233.5 92s-94.5 137 -94.5 227c0 132.667 44.833 242.334 134.5 329.001
s195.834 130 318.501 130c57.333 0 109.5 -13 156.5 -39s79.5 -51.333 97.5 -76l29 -39l-72 -57c-1.33301 2.66699 -3.66602 6.66699 -6.99902 12s-11.5 14.833 -24.5 28.5s-27.333 25.667 -43 36s-36.5 20 -62.5 29s-54 13.5 -84 13.5z" />
    <glyph glyph-name="ordfeminine" unicode="&#xaa;" horiz-adv-x="675" 
d="M627 1137l-224.001 -41.002c-83.333 -15.333 -124.666 -53 -123.999 -113c0 -19.333 8.83301 -36.166 26.5 -50.499s41.5 -21.5 71.5 -21.5c61.333 0 114.5 18.833 159.5 56.5s74.5 87.834 88.5 150.501zM347.999 828.998c-44 0 -80.499 13.666 -109.499 40.999
s-43.5 62.333 -43.5 105c0 52 21.5 95.667 64.5 131s97.167 59.333 162.5 72l223 41c4 18 6 34.333 6 49c0 69.333 -44.333 104 -133 104c-27.333 0 -54 -6.83301 -80 -20.5s-45 -27.167 -57 -40.5l-19 -21l-49 51c6.66699 8 16.167 18.333 28.5 31s37.666 29.5 75.999 50.5
s77.5 31.5 117.5 31.5c61.333 0 110.333 -15.333 147 -46s55 -70 55 -118c0 -8 -1.33301 -21.667 -4 -41l-84 -399h-82l19 92c-5.33301 -8 -13.5 -18.167 -24.5 -30.5s-37 -29.166 -78 -50.499s-86.167 -32 -135.5 -32z" />
    <glyph glyph-name="guillemotleft" unicode="&#xab;" horiz-adv-x="901" 
d="M281 164l-166 328l305 327h117l-312 -336l162 -319h-106zM629 164l-166 328l305 327h117l-312 -336l162 -319h-106z" />
    <glyph glyph-name="logicalnot" unicode="&#xac;" horiz-adv-x="931" 
d="M911 778l-80 -379h-102l62 287h-646l19 92h747z" />
    <glyph glyph-name="uni00AD" unicode="&#xad;" horiz-adv-x="860" 
d="M811 645l-18 -92h-676l18 92h676z" />
    <glyph glyph-name="registered" unicode="&#xae;" horiz-adv-x="1781" 
d="M1073 666l105.001 -328h-101l-98 307h-199l-63 -307h-92l159 758h256c65.333 0 119 -19.5 161 -58.5s63 -85.167 63 -138.5c-0.666992 -110 -64.334 -187.667 -191.001 -233zM858.001 1004l-57 -267h174c61.333 0 109.333 13.667 144 41s52 65.666 52 114.999
c0 32.667 -12.167 59.334 -36.5 80.001s-59.833 31 -106.5 31h-170zM1065 1454c176 0 326.501 -61.833 451.501 -185.5s187.5 -270.167 187.5 -439.5c0 -154 -41 -296.833 -123 -428.5s-189.5 -234.667 -322.5 -309s-274.5 -111.5 -424.5 -111.5
c-176 0 -326.5 61.333 -451.5 184s-187.5 268 -187.5 436c0 155.333 40.5 299 121.5 431s188.167 235.5 321.5 310.5s275.666 112.5 426.999 112.5zM840.002 72c208.667 0 389.5 72.001 542.5 216.001s229.5 323 229.5 537c0 147.333 -54 273.666 -162 378.999
s-240.333 158 -397 158c-208.667 0 -388.167 -71.667 -538.5 -215s-225.5 -323 -225.5 -539c0 -148.667 52.167 -275.167 156.5 -379.5s235.833 -156.5 394.5 -156.5z" />
    <glyph glyph-name="macron" unicode="&#xaf;" horiz-adv-x="675" 
d="M819 1403l-16 -82h-553l16 82h553z" />
    <glyph glyph-name="degree" unicode="&#xb0;" horiz-adv-x="716" 
d="M535 1362c-50.667 0 -96.167 -19.833 -136.5 -59.5s-60.5 -85.5 -60.5 -137.5c0 -44 15 -80.5 45 -109.5s69.667 -43.5 119 -43.5c52 0 97.667 19.333 137 58s59 86.667 59 144c0 42 -14.833 77.167 -44.5 105.5s-69.167 42.5 -118.5 42.5zM791 1223
c0 -79.333 -29.1689 -149.332 -87.502 -209.999s-128.166 -91 -209.499 -91c-74 0 -133.833 22.167 -179.5 66.5s-68.5 99.833 -68.5 166.5c0 83.333 30 154 90 212s129.667 87 209 87c72.667 0 131.834 -21.833 177.501 -65.5s68.5 -98.834 68.5 -165.501z" />
    <glyph glyph-name="plusminus" unicode="&#xb1;" horiz-adv-x="1034" 
d="M18 92l21 92h850l-21 -92h-850zM637 1219h92l-84 -400h379l-20 -92h-379l-84 -399h-92l83 399h-378l20 92h379z" />
    <glyph glyph-name="uni00B2" unicode="&#xb2;" horiz-adv-x="583" 
d="M625 922l-471.003 -0.000976562c12 57.333 37.833 109.5 77.5 156.5s82.667 84.833 129 113.5s92 56 137 82s82.5 54.333 112.5 85s45 64.334 45 101.001c0 27.333 -11.833 52 -35.5 74s-52.834 33 -87.501 33c-36.667 0 -70.334 -10.333 -101.001 -31s-52 -41 -64 -61
l-19 -31l-65 31c1.33301 4 4 10 8 18s13.833 22 29.5 42s32.334 37.833 50.001 53.5s41.834 29.667 72.501 42s63.334 18.5 98.001 18.5c58.667 0 106.334 -18.167 143.001 -54.5s55 -77.833 55 -124.5c0 -48 -12.5 -91 -37.5 -129s-57.667 -70 -98 -96
s-81.333 -49.833 -123 -71.5s-82.667 -47.167 -123 -76.5s-70.166 -60.333 -89.499 -93h375z" />
    <glyph glyph-name="uni00B3" unicode="&#xb3;" horiz-adv-x="604" 
d="M602 1296c6.66699 -1.33301 15.166 -4.66797 25.499 -10.001s24 -19.333 41 -42s25.5 -50.334 25.5 -83.001c0 -69.333 -26.5 -128.333 -79.5 -177s-120.5 -73 -202.5 -73c-49.333 0 -94.166 10.333 -134.499 31s-68.5 41.334 -84.5 62.001l-25 30l74 62
c4 -8 10.333 -17.5 19 -28.5s28.5 -26.167 59.5 -45.5s64.833 -29 101.5 -29c56 0 101 14.333 135 43s51 66.334 51 113.001c0 32.667 -11.5 59.334 -34.5 80.001s-55.833 31 -98.5 31h-96l18 81h92c49.333 0 88 11 116 33s42 54 42 96c0 27.333 -11.5 50.333 -34.5 69
s-53.833 28 -92.5 28c-32.667 0 -63.667 -7.83301 -93 -23.5s-50 -31.167 -62 -46.5l-21 -22l-49 61c6.66699 8 16.167 18.167 28.5 30.5s39 29.166 80 50.499s83.167 32 126.5 32c56 0 103.5 -17.5 142.5 -52.5s58.5 -74.833 58.5 -119.5c0 -39.333 -12 -76 -36 -110
s-55 -57.667 -93 -71z" />
    <glyph glyph-name="acute" unicode="&#xb4;" horiz-adv-x="389" 
d="M213 1157l205 266h119l-240 -266h-84z" />
    <glyph glyph-name="mu" unicode="&#xb5;" horiz-adv-x="1187" 
d="M834 164c-2.66699 -5.33301 -6.8291 -12.167 -12.4961 -20.5s-18.334 -23 -38.001 -44s-41.167 -39.833 -64.5 -56.5s-54.833 -31.334 -94.5 -44.001s-81.167 -19 -124.5 -19c-60 0 -115.333 11.833 -166 35.5s-85.667 47.167 -105 70.5l-30 37l-117 -553h-92l301 1413
h92l-125 -584c-20.667 -95.333 -6 -173.666 44 -234.999s119.333 -92 208 -92c91.333 0 171.833 33.667 241.5 101s115.5 153 137.5 257l119 553h92l-170 -799c-6.66699 -30 -2.83398 -54.5 11.499 -73.5s37.166 -28.5 68.499 -28.5c12 0 23.167 1 33.5 3
s17.5 3.66699 21.5 5l8 4l-18 -94c-16.667 -6.66699 -38.667 -10 -66 -10c-54.667 0 -96.834 17 -126.501 51s-39.167 75 -28.5 123z" />
    <glyph glyph-name="paragraph" unicode="&#xb6;" horiz-adv-x="1071" 
d="M293 -205l209 983.001c-74 0 -136.5 31.833 -187.5 95.5s-76.5 133.5 -76.5 209.5c0 95.333 41.833 177.666 125.5 246.999s176.167 104 277.5 104h420l-348 -1639h-92l329 1544h-235l-330 -1544h-92z" />
    <glyph glyph-name="periodcentered" unicode="&#xb7;" horiz-adv-x="378" 
d="M137 504c0 20.667 8.16797 39.167 24.501 55.5s34.833 24.5 55.5 24.5s37.167 -5.83301 49.5 -17.5s18.5 -27.167 18.5 -46.5c0 -22 -8.16699 -40.833 -24.5 -56.5s-35.5 -23.5 -57.5 -23.5c-20.667 0 -36.834 6.16699 -48.501 18.5s-17.5 27.5 -17.5 45.5z" />
    <glyph glyph-name="cedilla" unicode="&#xb8;" horiz-adv-x="471" 
d="M141 41h71.999l-117 -164c9.33301 6.66699 28 10 56 10c34 0 61.167 -12.5 81.5 -37.5s30.5 -54.833 30.5 -89.5c0 -49.333 -18.333 -90 -55 -122s-86 -48 -148 -48c-27.333 0 -54.5 4.83301 -81.5 14.5s-47.5 18.5 -61.5 26.5l-22 15l41 55
c39.333 -32.667 83 -49 131 -49c38 0 68.333 9.83301 91 29.5s34 44.5 34 74.5c0 19.333 -7.16699 35.833 -21.5 49.5s-31.166 20.5 -50.499 20.5c-12 0 -23.833 -1.66699 -35.5 -5s-21.167 -6.33301 -28.5 -9l-8 -7l-39 52z" />
    <glyph glyph-name="uni00B9" unicode="&#xb9;" horiz-adv-x="409" 
d="M471 1638l72.001 0.00195312l-154 -716h-82l127 594c-36.667 -40.667 -89.334 -61.334 -158.001 -62.001l17 72c30 0 60 9.16699 90 27.5s52.667 37.166 68 56.499z" />
    <glyph glyph-name="ordmasculine" unicode="&#xba;" horiz-adv-x="737" 
d="M285 1094c0 -56 20.167 -102.167 60.5 -138.5s90.5 -54.5 150.5 -54.5c68 0 127 26 177 78s75 117.667 75 197c0 58.667 -19.167 106 -57.5 142s-89.5 54 -153.5 54c-68 0 -127 -26.167 -177 -78.5s-75 -118.833 -75 -199.5zM483 819
c-75.333 0 -140.834 25.6689 -196.501 77.002s-83.5 116.666 -83.5 195.999c0 101.333 34.5 186.666 103.5 255.999s149.167 104 240.5 104c84.667 0 153.167 -25.667 205.5 -77s78.5 -116.333 78.5 -195c0 -101.333 -35.167 -186.833 -105.5 -256.5
s-151.166 -104.5 -242.499 -104.5z" />
    <glyph glyph-name="guillemotright" unicode="&#xbb;" horiz-adv-x="901" 
d="M645 819l166 -327l-305 -328h-117l311 336l-161 319h106zM297 819l166 -327l-305 -328h-117l311 336l-162 319h107z" />
    <glyph glyph-name="onequarter" unicode="&#xbc;" horiz-adv-x="1361" 
d="M51 0l1180 1434h106l-1179 -1434h-107zM446 1432l72.001 0.000976562l-153 -717h-82l127 594c-36.667 -40.667 -89.334 -61.334 -158.001 -62.001l16 72c30 0 60 9.5 90 28.5s52.667 38.167 68 57.5zM1141 256.001h92l-19 -82h-92l-37 -174h-81l36 174h-348l19 82
l426 461h102zM1059 256.001l76 356l-328 -356h252z" />
    <glyph glyph-name="onehalf" unicode="&#xbd;" horiz-adv-x="1413" 
d="M51 0l1180 1434h106l-1179 -1434h-107zM449 1434l71.002 0.00195312l-153 -717h-82l127 594c-36.667 -40.667 -89.334 -61.334 -158.001 -62.001l16 72c30 0 60.167 9.16699 90.5 27.5s52.166 37.166 65.499 56.499zM1229 0.00195312l-471.003 -0.000976562
c12 57.333 37.833 109.5 77.5 156.5s82.667 84.833 129 113.5s92 56 137 82s82.667 54.333 113 85s45.5 64.667 45.5 102c0 27.333 -12 51.833 -36 73.5s-53 32.5 -87 32.5c-36.667 0 -70.5 -10.167 -101.5 -30.5s-52.5 -40.833 -64.5 -61.5l-19 -31l-65 31
c1.33301 4 4 10.167 8 18.5s13.833 22.333 29.5 42s32.334 37.334 50.001 53.001s42 29.667 73 42s63.5 18.5 97.5 18.5c58.667 0 106.334 -18.167 143.001 -54.5s55 -77.5 55 -123.5c0 -48 -12.5 -91.167 -37.5 -129.5s-57.667 -70.333 -98 -96s-81.333 -49.5 -123 -71.5
s-82.667 -47.667 -123 -77s-70.166 -60.333 -89.499 -93h375z" />
    <glyph glyph-name="threequarters" unicode="&#xbe;" horiz-adv-x="1495" 
d="M184 0l1180 1434h106l-1179 -1434h-107zM1272 256h92l-18 -82h-93l-36 -174h-82l36 174h-348l19 82l426 461h102zM1190 256l76 356l-328 -356h252zM569 1092c6.66699 -1.33301 15.166 -4.83594 25.499 -10.5029s24.166 -19.667 41.499 -42s26 -50.166 26 -83.499
c0 -69.333 -26.667 -128.166 -80 -176.499s-121 -72.5 -203 -72.5c-49.333 0 -94.166 10.167 -134.499 30.5s-68.5 40.833 -84.5 61.5l-25 30l74 62c4 -8 10.5 -17.5 19.5 -28.5s28.833 -26.167 59.5 -45.5s64.334 -29 101.001 -29c56 0 101 14.333 135 43
s51 66.334 51 113.001c0 32.667 -11.5 59.334 -34.5 80.001s-55.833 31 -98.5 31h-96l19 82h92c49.333 0 87.833 10.833 115.5 32.5s41.5 53.834 41.5 96.501c0 27.333 -11.5 50.166 -34.5 68.499s-53.833 27.5 -92.5 27.5c-32.667 0 -63.667 -7.83301 -93 -23.5
s-50 -31.167 -62 -46.5l-21 -22l-49 61c6.66699 8 16.167 18.167 28.5 30.5s39 29.166 80 50.499s83.5 32 127.5 32c56 0 103.333 -17.5 142 -52.5s58 -74.833 58 -119.5c0 -39.333 -12 -75.833 -36 -109.5s-55 -57.167 -93 -70.5z" />
    <glyph glyph-name="questiondown" unicode="&#xbf;" horiz-adv-x="901" 
d="M674 930c0 -20.667 -8.16797 -39.168 -24.501 -55.501s-34.833 -24.5 -55.5 -24.5s-37.167 5.83301 -49.5 17.5s-18.5 26.834 -18.5 45.501c0 22 8.16699 40.833 24.5 56.5s35.5 23.5 57.5 23.5c20.667 0 36.834 -6 48.501 -18s17.5 -27 17.5 -45zM509.999 654.999
l92.0029 -0.00195312c1.33301 -69.333 -11.334 -131 -38.001 -185s-60.5 -97 -101.5 -129s-85.667 -64.667 -134 -98s-93 -64 -134 -92s-75.5 -65.333 -103.5 -112s-42 -98.667 -42 -156c0 -64 26.667 -118.5 80 -163.5s123 -67.5 209 -67.5
c53.333 0 102.833 8.5 148.5 25.5s81.834 37.5 108.501 61.5s49.167 47.833 67.5 71.5s30.833 44.5 37.5 62.5l13 25l88 -31c-2.66699 -8 -7.83398 -19.167 -15.501 -33.5s-24.834 -40 -51.501 -77s-56.334 -69.167 -89.001 -96.5s-77.334 -52.666 -134.001 -75.999
s-117.667 -35 -183 -35c-110.667 0 -202.167 32.167 -274.5 96.5s-108.5 140.166 -108.5 227.499c0 56 8.83301 106.5 26.5 151.5s41.5 82.833 71.5 113.5s62.833 59 98.5 85s72.5 51.333 110.5 76s73.833 50.334 107.5 77.001s63.334 59.334 89.001 98.001
s43.5 82 53.5 130z" />
    <glyph glyph-name="Agrave" unicode="&#xc0;" horiz-adv-x="1392" 
d="M1034 522l-155 768l-480 -768h635zM1053 420h-717l-262 -420h-115l897 1434h102l291 -1434h-110zM846 1894l96 -266h-76l-129 266h109z" />
    <glyph glyph-name="Aacute" unicode="&#xc1;" horiz-adv-x="1392" 
d="M1034 522l-155 768l-480 -768h635zM1053 420h-717l-262 -420h-115l897 1434h102l291 -1434h-110zM926 1628l204 266h119l-239 -266h-84z" />
    <glyph glyph-name="Acircumflex" unicode="&#xc2;" horiz-adv-x="1392" 
d="M1034 522l-155 768l-480 -768h635zM1053 420h-717l-262 -420h-115l897 1434h102l291 -1434h-110zM1032 1894l160 -266h-88l-131 205l-217 -205h-97l271 266h102z" />
    <glyph glyph-name="Atilde" unicode="&#xc3;" horiz-adv-x="1392" 
d="M1034 522l-155 768l-480 -768h635zM1053 420h-717l-262 -420h-115l897 1434h102l291 -1434h-110zM829 1782c-52 0 -88 -51.333 -108 -154h-82c32.667 157.333 99.667 236 201 236c30 0 56.833 -7.83301 80.5 -23.5s42 -33.5 55 -53.5s28.833 -37.833 47.5 -53.5
s38 -23.5 58 -23.5c50.667 0 87 51.333 109 154h82c-32.667 -157.333 -99.667 -236 -201 -236c-30 0 -57 7.83301 -81 23.5s-42.5 33.5 -55.5 53.5s-28.667 37.833 -47 53.5s-37.833 23.5 -58.5 23.5z" />
    <glyph glyph-name="Adieresis" unicode="&#xc4;" horiz-adv-x="1392" 
d="M1034 522l-155 768l-480 -768h635zM1053 420h-717l-262 -420h-115l897 1434h102l291 -1434h-110zM711 1751c0 20.667 7.5 39.5 22.5 56.5s32.5 25.5 52.5 25.5c22 0 39.5 -5.83301 52.5 -17.5s19.5 -27.167 19.5 -46.5c0 -22 -8.16699 -40.667 -24.5 -56
s-35.5 -23 -57.5 -23c-20.667 0 -36.667 5.66699 -48 17s-17 26 -17 44zM1069 1751c0 20.667 7.50098 39.5 22.501 56.5s32.833 25.5 53.5 25.5c22 0 39.5 -5.83301 52.5 -17.5s19.5 -27.167 19.5 -46.5c0 -22 -8.33301 -40.667 -25 -56s-35.667 -23 -57 -23
c-20.667 0 -36.834 5.66699 -48.501 17s-17.5 26 -17.5 44z" />
    <glyph glyph-name="Aring" unicode="&#xc5;" horiz-adv-x="1392" 
d="M1034 522l-155 768l-480 -768h635zM1053 420h-717l-262 -420h-115l897 1434h102l291 -1434h-110zM977 1874c-34 0 -63 -13.332 -87 -39.999s-36 -58.334 -36 -95.001c0 -28.667 9.5 -51.167 28.5 -67.5s46.5 -24.5 82.5 -24.5c34 0 63.333 12.167 88 36.5
s37 56.5 37 96.5c0 62.667 -37.667 94 -113 94zM1171 1788c0 -58.667 -20.668 -110.168 -62.001 -154.501s-93 -66.5 -155 -66.5c-54.667 0 -98.667 15.333 -132 46s-50 70.667 -50 120c0 62.667 21.5 115.5 64.5 158.5s94.5 64.5 154.5 64.5
c54.667 0 98.334 -15.667 131.001 -47s49 -71.666 49 -120.999z" />
    <glyph glyph-name="AE" unicode="&#xc6;" horiz-adv-x="1935" 
d="M1004 102h778l-21 -102h-880l92 440h-649l-338 -440h-119l1102 1434h1075l-21 -103h-757l-115 -532h594l-21 -103h-594zM1008 1331l-611 -788h598l168 788h-155z" />
    <glyph glyph-name="Ccedilla" unicode="&#xc7;" horiz-adv-x="1536" 
d="M164 610c0 144.667 37.1641 281.999 111.497 411.999s177.333 234.5 309 313.5s274.834 118.5 429.501 118.5c72.667 0 142 -10.5 208 -31.5s120.167 -46.667 162.5 -77s79.166 -60.5 110.499 -90.5s54.666 -55 69.999 -75l20 -33l-82 -60
c-4 6.66699 -10 16.334 -18 29.001s-27.167 34 -57.5 64s-63.166 56.5 -98.499 79.5s-82.333 44.167 -141 63.5s-120 29 -184 29c-198 0 -369.833 -70.333 -515.5 -211s-218.5 -315 -218.5 -523c0 -146 51.667 -271.833 155 -377.5s229.333 -158.5 378 -158.5
c65.333 0 128.333 9.16699 189 27.5s111.5 40.5 152.5 66.5s77.167 52 108.5 78s54.666 47.667 69.999 65l23 29l65 -61l-27.5 -33c-11.667 -14 -37.667 -38.667 -78 -74s-82.666 -66.666 -126.999 -93.999s-101.333 -51.833 -171 -73.5s-140.5 -32.5 -212.5 -32.5
c-13.333 0 -23.666 0.666992 -30.999 2l-74 -103c10.667 5.33301 29 8 55 8c34 0 61.333 -12.5 82 -37.5s31 -54.833 31 -89.5c0 -49.333 -18.333 -90 -55 -122s-86 -48 -148 -48c-27.333 0 -54.666 4.83301 -81.999 14.5s-47.666 18.5 -60.999 26.5l-23 15l41 55
c39.333 -32.667 83.333 -49 132 -49c38 0 68.167 9.83301 90.5 29.5s33.5 44.5 33.5 74.5c0 19.333 -7.16699 35.833 -21.5 49.5s-30.833 20.5 -49.5 20.5c-12 0 -23.833 -1.66699 -35.5 -5s-21.167 -6.33301 -28.5 -9l-8 -7l-39 52l92 131
c-150 24.667 -276.167 96.667 -378.5 216s-153.5 254.666 -153.5 405.999z" />
    <glyph glyph-name="Egrave" unicode="&#xc8;" horiz-adv-x="1290" 
d="M256 102h881l-21 -102h-983l303 1434h963l-21 -103h-860l-115 -532h697l-21 -103h-696zM854 1894l96 -266h-76l-129 266h109z" />
    <glyph glyph-name="Eacute" unicode="&#xc9;" horiz-adv-x="1290" 
d="M256 102h881l-21 -102h-983l303 1434h963l-21 -103h-860l-115 -532h697l-21 -103h-696zM866 1628l205 266h119l-240 -266h-84z" />
    <glyph glyph-name="Ecircumflex" unicode="&#xca;" horiz-adv-x="1290" 
d="M256 102h881l-21 -102h-983l303 1434h963l-21 -103h-860l-115 -532h697l-21 -103h-696zM1053 1884l159 -266h-88l-131 205l-217 -205h-96l270 266h103z" />
    <glyph glyph-name="Edieresis" unicode="&#xcb;" horiz-adv-x="1290" 
d="M256 102h881l-21 -102h-983l303 1434h963l-21 -103h-860l-115 -532h697l-21 -103h-696zM707 1743c0 20.667 7.5 39.5 22.5 56.5s32.5 25.5 52.5 25.5c22 0 39.5 -5.83301 52.5 -17.5s19.5 -27.167 19.5 -46.5c0 -22 -8.16699 -40.833 -24.5 -56.5
s-35.5 -23.5 -57.5 -23.5c-20.667 0 -36.667 5.83301 -48 17.5s-17 26.5 -17 44.5zM1065 1743c0 20.667 7.5 39.5 22.5 56.5s32.833 25.5 53.5 25.5c22 0 39.333 -5.83301 52 -17.5s19 -27.167 19 -46.5c0 -22 -8.16699 -40.833 -24.5 -56.5s-35.5 -23.5 -57.5 -23.5
c-20.667 0 -36.667 5.83301 -48 17.5s-17 26.5 -17 44.5z" />
    <glyph glyph-name="Igrave" unicode="&#xcc;" horiz-adv-x="552" 
d="M133 0l303 1434h103l-303 -1434h-103zM434 1894l96 -266h-75l-129 266h108z" />
    <glyph glyph-name="Iacute" unicode="&#xcd;" horiz-adv-x="552" 
d="M133 0l303 1434h103l-303 -1434h-103zM498 1628l204 266h119l-239 -266h-84z" />
    <glyph glyph-name="Icircumflex" unicode="&#xce;" horiz-adv-x="552" 
d="M133 0l303 1434h103l-303 -1434h-103zM608 1884l160 -266h-88l-131 205l-217 -205h-96l270 266h102z" />
    <glyph glyph-name="Idieresis" unicode="&#xcf;" horiz-adv-x="552" 
d="M133 0l303 1434h103l-303 -1434h-103zM291 1743c0 20.667 7.5 39.5 22.5 56.5s32.833 25.5 53.5 25.5c22 0 39.333 -5.83301 52 -17.5s19 -27.167 19 -46.5c0 -22 -8.16699 -40.833 -24.5 -56.5s-35.5 -23.5 -57.5 -23.5c-20.667 0 -36.667 5.83301 -48 17.5
s-17 26.5 -17 44.5zM649 1743c0 20.667 7.50098 39.5 22.501 56.5s32.833 25.5 53.5 25.5c22 0 39.5 -5.83301 52.5 -17.5s19.5 -27.167 19.5 -46.5c0 -22 -8.16699 -40.833 -24.5 -56.5s-35.5 -23.5 -57.5 -23.5c-20.667 0 -36.834 5.83301 -48.501 17.5
s-17.5 26.5 -17.5 44.5z" />
    <glyph glyph-name="Eth" unicode="&#xd0;" horiz-adv-x="1536" 
d="M457 1434h379c184 0 338.833 -60.167 464.5 -180.5s188.5 -263.166 188.5 -428.499c0 -230.667 -85.667 -425.834 -257 -585.501s-377.333 -239.5 -618 -239.5h-460l139 666h-203l21 102h204zM825 1331h-285.999l-121 -563h358l-20 -102h-359l-121 -564h349
c211.333 0 390.666 68.667 537.999 206s221 308.333 221 513c0 142 -52.833 262.5 -158.5 361.5s-239.167 148.5 -400.5 148.5z" />
    <glyph glyph-name="Ntilde" unicode="&#xd1;" horiz-adv-x="1587" 
d="M1470 1434h103l-303 -1434h-74l-698 1239l-262 -1239h-103l303 1434h74l698 -1239zM928 1782c-52 0 -88.333 -51.333 -109 -154h-82c32.667 157.333 99.667 236 201 236c30 0 57 -7.83301 81 -23.5s42.5 -33.5 55.5 -53.5s28.667 -37.833 47 -53.5
s37.833 -23.5 58.5 -23.5c50.667 0 86.667 51.333 108 154h82c-32.667 -157.333 -99.667 -236 -201 -236c-30 0 -56.833 7.83301 -80.5 23.5s-42 33.5 -55 53.5s-28.667 37.833 -47 53.5s-37.833 23.5 -58.5 23.5z" />
    <glyph glyph-name="Ograve" unicode="&#xd2;" horiz-adv-x="1699" 
d="M842 80c186 0 350.168 73 492.501 219s213.5 314 213.5 504c0 157.333 -53.833 288.833 -161.5 394.5s-244.834 158.5 -411.501 158.5c-182.667 0 -346.167 -71 -490.5 -213s-216.5 -310.667 -216.5 -506c0 -158.667 54 -291.167 162 -397.5s245.333 -159.5 412 -159.5z
M1651 807c0 -136.667 -36.8311 -268.5 -110.498 -395.5s-174.334 -230.667 -302.001 -311s-264.167 -120.5 -409.5 -120.5c-192.667 0 -351.667 62.333 -477 187s-188 278.667 -188 462c0 222.667 84.667 416.167 254 580.5s359.666 246.5 570.999 246.5
c191.333 0 349.5 -62.833 474.5 -188.5s187.5 -279.167 187.5 -460.5zM993.003 1894l97 -266h-76l-129 266h108z" />
    <glyph glyph-name="Oacute" unicode="&#xd3;" horiz-adv-x="1699" 
d="M842 80c186 0 350.168 73 492.501 219s213.5 314 213.5 504c0 157.333 -53.833 288.833 -161.5 394.5s-244.834 158.5 -411.501 158.5c-182.667 0 -346.167 -71 -490.5 -213s-216.5 -310.667 -216.5 -506c0 -158.667 54 -291.167 162 -397.5s245.333 -159.5 412 -159.5z
M1651 807c0 -136.667 -36.8311 -268.5 -110.498 -395.5s-174.334 -230.667 -302.001 -311s-264.167 -120.5 -409.5 -120.5c-192.667 0 -351.667 62.333 -477 187s-188 278.667 -188 462c0 222.667 84.667 416.167 254 580.5s359.666 246.5 570.999 246.5
c191.333 0 349.5 -62.833 474.5 -188.5s187.5 -279.167 187.5 -460.5zM1022 1628l205 266h119l-240 -266h-84z" />
    <glyph glyph-name="Ocircumflex" unicode="&#xd4;" horiz-adv-x="1699" 
d="M842 80c186 0 350.168 73 492.501 219s213.5 314 213.5 504c0 157.333 -53.833 288.833 -161.5 394.5s-244.834 158.5 -411.501 158.5c-182.667 0 -346.167 -71 -490.5 -213s-216.5 -310.667 -216.5 -506c0 -158.667 54 -291.167 162 -397.5s245.333 -159.5 412 -159.5z
M1651 807c0 -136.667 -36.8311 -268.5 -110.498 -395.5s-174.334 -230.667 -302.001 -311s-264.167 -120.5 -409.5 -120.5c-192.667 0 -351.667 62.333 -477 187s-188 278.667 -188 462c0 222.667 84.667 416.167 254 580.5s359.666 246.5 570.999 246.5
c191.333 0 349.5 -62.833 474.5 -188.5s187.5 -279.167 187.5 -460.5zM1161 1884l160 -266h-88l-131 205l-217 -205h-97l271 266h102z" />
    <glyph glyph-name="Otilde" unicode="&#xd5;" horiz-adv-x="1699" 
d="M842 80c186 0 350.168 73 492.501 219s213.5 314 213.5 504c0 157.333 -53.833 288.833 -161.5 394.5s-244.834 158.5 -411.501 158.5c-182.667 0 -346.167 -71 -490.5 -213s-216.5 -310.667 -216.5 -506c0 -158.667 54 -291.167 162 -397.5s245.333 -159.5 412 -159.5z
M1651 807c0 -136.667 -36.8311 -268.5 -110.498 -395.5s-174.334 -230.667 -302.001 -311s-264.167 -120.5 -409.5 -120.5c-192.667 0 -351.667 62.333 -477 187s-188 278.667 -188 462c0 222.667 84.667 416.167 254 580.5s359.666 246.5 570.999 246.5
c191.333 0 349.5 -62.833 474.5 -188.5s187.5 -279.167 187.5 -460.5zM963.003 1782c-52 0 -88.334 -51.333 -109.001 -154h-82c32.667 157.333 99.667 236 201 236c30 0 57 -7.83301 81 -23.5s42.333 -33.5 55 -53.5s28.334 -37.833 47.001 -53.5s38 -23.5 58 -23.5
c50.667 0 87 51.333 109 154h82c-32.667 -157.333 -99.667 -236 -201 -236c-30 0 -57 7.83301 -81 23.5s-42.333 33.5 -55 53.5s-28.167 37.833 -46.5 53.5s-37.833 23.5 -58.5 23.5z" />
    <glyph glyph-name="Odieresis" unicode="&#xd6;" horiz-adv-x="1699" 
d="M842 80c186 0 350.168 73 492.501 219s213.5 314 213.5 504c0 157.333 -53.833 288.833 -161.5 394.5s-244.834 158.5 -411.501 158.5c-182.667 0 -346.167 -71 -490.5 -213s-216.5 -310.667 -216.5 -506c0 -158.667 54 -291.167 162 -397.5s245.333 -159.5 412 -159.5z
M1651 807c0 -136.667 -36.8311 -268.5 -110.498 -395.5s-174.334 -230.667 -302.001 -311s-264.167 -120.5 -409.5 -120.5c-192.667 0 -351.667 62.333 -477 187s-188 278.667 -188 462c0 222.667 84.667 416.167 254 580.5s359.666 246.5 570.999 246.5
c191.333 0 349.5 -62.833 474.5 -188.5s187.5 -279.167 187.5 -460.5zM801.003 1743c0 20.667 7.5 39.5 22.5 56.5s32.833 25.5 53.5 25.5c22 0 39.333 -5.83301 52 -17.5s19 -27.167 19 -46.5c0 -22 -8.16699 -40.833 -24.5 -56.5s-35.5 -23.5 -57.5 -23.5
c-20.667 0 -36.667 5.83301 -48 17.5s-17 26.5 -17 44.5zM1159 1743c0 20.667 7.50098 39.5 22.501 56.5s32.833 25.5 53.5 25.5c22 0 39.5 -5.83301 52.5 -17.5s19.5 -27.167 19.5 -46.5c0 -22 -8.33301 -40.833 -25 -56.5s-35.667 -23.5 -57 -23.5
c-20.667 0 -36.834 5.83301 -48.501 17.5s-17.5 26.5 -17.5 44.5z" />
    <glyph glyph-name="multiply" unicode="&#xd7;" horiz-adv-x="921" 
d="M573 635l228 -287l-82 -69l-223 284l-351 -289l-61 74l346 287l-225 287l82 67l223 -282l350 290l62 -75z" />
    <glyph glyph-name="Oslash" unicode="&#xd8;" horiz-adv-x="1699" 
d="M1651 807c0 -136.667 -36.8311 -268.5 -110.498 -395.5s-174.334 -230.667 -302.001 -311s-264.167 -120.5 -409.5 -120.5c-198 0 -361.667 66.667 -491 200l-254 -211l-55 74l252 209c-78 109.333 -117 235 -117 377c0 222.667 84.667 416.167 254 580.5
s359.666 246.5 570.999 246.5c196.667 0 360 -68.333 490 -205l254 213l57 -73l-254 -211c76.667 -110.667 115 -235 115 -373zM268.002 637c0 -118.667 30.667 -224.667 92 -318l1037 865c-108 114.667 -248.667 172 -422 172c-182.667 0 -346.167 -71 -490.5 -213
s-216.5 -310.667 -216.5 -506zM842.002 80c186 0 350.167 73 492.5 219s213.5 314 213.5 504c0 112 -30.667 215 -92 309l-1036 -864c108 -112 248.667 -168 422 -168z" />
    <glyph glyph-name="Ugrave" unicode="&#xd9;" horiz-adv-x="1536" 
d="M723 82c126.667 0 239.499 44.6689 338.499 134.002s162.833 201.666 191.5 336.999l187 881h102l-186 -881c-35.333 -170.667 -113.166 -308.834 -233.499 -414.501s-257.5 -158.5 -411.5 -158.5c-138 0 -254.833 44.667 -350.5 134s-143.5 200 -143.5 332
c0 34 4 69.667 12 107l187 881h102l-186 -881c-6.66699 -36.667 -10 -68 -10 -94c0 -109.333 38.5 -199.5 115.5 -270.5s172.167 -106.5 285.5 -106.5zM955.999 1894l97 -266h-76l-129 266h108z" />
    <glyph glyph-name="Uacute" unicode="&#xda;" horiz-adv-x="1536" 
d="M723 82c126.667 0 239.499 44.6689 338.499 134.002s162.833 201.666 191.5 336.999l187 881h102l-186 -881c-35.333 -170.667 -113.166 -308.834 -233.499 -414.501s-257.5 -158.5 -411.5 -158.5c-138 0 -254.833 44.667 -350.5 134s-143.5 200 -143.5 332
c0 34 4 69.667 12 107l187 881h102l-186 -881c-6.66699 -36.667 -10 -68 -10 -94c0 -109.333 38.5 -199.5 115.5 -270.5s172.167 -106.5 285.5 -106.5zM970.999 1628l205 266h118l-239 -266h-84z" />
    <glyph glyph-name="Ucircumflex" unicode="&#xdb;" horiz-adv-x="1536" 
d="M723 82c126.667 0 239.499 44.6689 338.499 134.002s162.833 201.666 191.5 336.999l187 881h102l-186 -881c-35.333 -170.667 -113.166 -308.834 -233.499 -414.501s-257.5 -158.5 -411.5 -158.5c-138 0 -254.833 44.667 -350.5 134s-143.5 200 -143.5 332
c0 34 4 69.667 12 107l187 881h102l-186 -881c-6.66699 -36.667 -10 -68 -10 -94c0 -109.333 38.5 -199.5 115.5 -270.5s172.167 -106.5 285.5 -106.5zM1122 1884l160 -266h-88l-131 205l-217 -205h-96l270 266h102z" />
    <glyph glyph-name="Udieresis" unicode="&#xdc;" horiz-adv-x="1536" 
d="M723 82c126.667 0 239.499 44.6689 338.499 134.002s162.833 201.666 191.5 336.999l187 881h102l-186 -881c-35.333 -170.667 -113.166 -308.834 -233.499 -414.501s-257.5 -158.5 -411.5 -158.5c-138 0 -254.833 44.667 -350.5 134s-143.5 200 -143.5 332
c0 34 4 69.667 12 107l187 881h102l-186 -881c-6.66699 -36.667 -10 -68 -10 -94c0 -109.333 38.5 -199.5 115.5 -270.5s172.167 -106.5 285.5 -106.5zM771.999 1743c0 20.667 7.50098 39.5 22.501 56.5s32.833 25.5 53.5 25.5c22 0 39.5 -5.83301 52.5 -17.5
s19.5 -27.167 19.5 -46.5c0 -22 -8.33301 -40.833 -25 -56.5s-35.667 -23.5 -57 -23.5c-20.667 0 -36.834 5.83301 -48.501 17.5s-17.5 26.5 -17.5 44.5zM1130 1743c0 20.667 7.66797 39.5 23.001 56.5s33 25.5 53 25.5c22 0 39.5 -5.83301 52.5 -17.5
s19.5 -27.167 19.5 -46.5c0 -22 -8.16699 -40.833 -24.5 -56.5s-35.5 -23.5 -57.5 -23.5c-20.667 0 -36.834 5.83301 -48.501 17.5s-17.5 26.5 -17.5 44.5z" />
    <glyph glyph-name="Yacute" unicode="&#xdd;" horiz-adv-x="1249" 
d="M360 1434l287 -820l635 820h127l-729 -932l-107 -502h-102l107 502l-336 932h118zM797 1628l204 266h119l-239 -266h-84z" />
    <glyph glyph-name="Thorn" unicode="&#xde;" horiz-adv-x="1310" 
d="M483 1167l-184 -860h315c154 0 283.333 47.5 388 142.5s157 214.833 157 359.5c0 100 -37.5 184.667 -112.5 254s-171.167 104 -288.5 104h-275zM504 1270h264c139.333 0 256.833 -45.5 352.5 -136.5s143.5 -197.833 143.5 -320.5c0 -173.333 -63.5 -318 -190.5 -434
s-282.833 -174 -467.5 -174h-327l-54 -246h-102l323 1516h103z" />
    <glyph glyph-name="germandbls" unicode="&#xdf;" horiz-adv-x="1167" 
d="M821 784c6.66699 -2.66699 15.1719 -6.33008 25.5049 -10.9971s29.166 -16.167 56.499 -34.5s51.666 -38.5 72.999 -60.5s40.5 -52.167 57.5 -90.5s25.5 -79.166 25.5 -122.499c0 -130 -49.5 -240 -148.5 -330s-217.5 -135 -355.5 -135h-94l20 102h84
c113.333 0 208 34.167 284 102.5s114 153.166 114 254.499c0 74 -26 137.167 -78 189.5s-119.667 78.5 -203 78.5h-68l21 92h14c91.333 0 173.666 33.167 246.999 99.5s110 140.5 110 222.5c0 61.333 -24.333 113.5 -73 156.5s-110.334 64.5 -185.001 64.5
c-84.667 0 -159.167 -26.333 -223.5 -79s-104.833 -118.667 -121.5 -198l-229 -1085h-92l229 1085c22 105.333 74 193.166 156 263.499s178.333 105.5 289 105.5c96.667 0 178.167 -30.667 244.5 -92s99.5 -133 99.5 -215c0 -28.667 -3.16699 -56 -9.5 -82
s-14.833 -49.5 -25.5 -70.5s-23.167 -40.833 -37.5 -59.5s-29 -34.834 -44 -48.501s-30.5 -26.334 -46.5 -38.001s-30.833 -21.5 -44.5 -29.5s-25.834 -14.333 -36.501 -19s-19 -8.66699 -25 -12z" />
    <glyph glyph-name="agrave" unicode="&#xe0;" horiz-adv-x="1218" 
d="M485 72c122.667 0 231.168 53.5 325.501 160.5s141.5 224.833 141.5 353.5c0 92.667 -30.333 170 -91 232s-133.334 93 -218.001 93c-108 0 -211.5 -50.167 -310.5 -150.5s-148.5 -216.5 -148.5 -348.5c0 -94 30 -174.167 90 -240.5s130.333 -99.5 211 -99.5zM840.001 0
l40.999 194.998c-4 -5.33301 -9.83301 -12.833 -17.5 -22.5s-24.5 -27.167 -50.5 -52.5s-53.667 -47.166 -83 -65.499s-66.833 -35.333 -112.5 -51s-92.5 -23.5 -140.5 -23.5c-104 0 -194.5 41.5 -271.5 124.5s-115.5 181.833 -115.5 296.5
c0 162.667 59.333 303.834 178 423.501s246.334 179.5 383.001 179.5c48 0 92.833 -8 134.5 -24s75.5 -34.833 101.5 -56.5s48.167 -43.5 66.5 -65.5s30.833 -40.333 37.5 -55l13 -25l45 205h92l-209 -983h-92zM645 1423l96 -266h-75l-129 266h108z" />
    <glyph glyph-name="aacute" unicode="&#xe1;" horiz-adv-x="1218" 
d="M485 72c122.667 0 231.168 53.5 325.501 160.5s141.5 224.833 141.5 353.5c0 92.667 -30.333 170 -91 232s-133.334 93 -218.001 93c-108 0 -211.5 -50.167 -310.5 -150.5s-148.5 -216.5 -148.5 -348.5c0 -94 30 -174.167 90 -240.5s130.333 -99.5 211 -99.5zM840.001 0
l40.999 194.998c-4 -5.33301 -9.83301 -12.833 -17.5 -22.5s-24.5 -27.167 -50.5 -52.5s-53.667 -47.166 -83 -65.499s-66.833 -35.333 -112.5 -51s-92.5 -23.5 -140.5 -23.5c-104 0 -194.5 41.5 -271.5 124.5s-115.5 181.833 -115.5 296.5
c0 162.667 59.333 303.834 178 423.501s246.334 179.5 383.001 179.5c48 0 92.833 -8 134.5 -24s75.5 -34.833 101.5 -56.5s48.167 -43.5 66.5 -65.5s30.833 -40.333 37.5 -55l13 -25l45 205h92l-209 -983h-92zM664 1157l204 266h119l-239 -266h-84z" />
    <glyph glyph-name="acircumflex" unicode="&#xe2;" horiz-adv-x="1218" 
d="M485 72c122.667 0 231.168 53.5 325.501 160.5s141.5 224.833 141.5 353.5c0 92.667 -30.333 170 -91 232s-133.334 93 -218.001 93c-108 0 -211.5 -50.167 -310.5 -150.5s-148.5 -216.5 -148.5 -348.5c0 -94 30 -174.167 90 -240.5s130.333 -99.5 211 -99.5zM840.001 0
l40.999 194.998c-4 -5.33301 -9.83301 -12.833 -17.5 -22.5s-24.5 -27.167 -50.5 -52.5s-53.667 -47.166 -83 -65.499s-66.833 -35.333 -112.5 -51s-92.5 -23.5 -140.5 -23.5c-104 0 -194.5 41.5 -271.5 124.5s-115.5 181.833 -115.5 296.5
c0 162.667 59.333 303.834 178 423.501s246.334 179.5 383.001 179.5c48 0 92.833 -8 134.5 -24s75.5 -34.833 101.5 -56.5s48.167 -43.5 66.5 -65.5s30.833 -40.333 37.5 -55l13 -25l45 205h92l-209 -983h-92zM809 1423l160 -266h-88l-131 205l-218 -205h-96l271 266h102z
" />
    <glyph glyph-name="atilde" unicode="&#xe3;" horiz-adv-x="1218" 
d="M485 72c122.667 0 231.168 53.5 325.501 160.5s141.5 224.833 141.5 353.5c0 92.667 -30.333 170 -91 232s-133.334 93 -218.001 93c-108 0 -211.5 -50.167 -310.5 -150.5s-148.5 -216.5 -148.5 -348.5c0 -94 30 -174.167 90 -240.5s130.333 -99.5 211 -99.5zM840.001 0
l40.999 194.998c-4 -5.33301 -9.83301 -12.833 -17.5 -22.5s-24.5 -27.167 -50.5 -52.5s-53.667 -47.166 -83 -65.499s-66.833 -35.333 -112.5 -51s-92.5 -23.5 -140.5 -23.5c-104 0 -194.5 41.5 -271.5 124.5s-115.5 181.833 -115.5 296.5
c0 162.667 59.333 303.834 178 423.501s246.334 179.5 383.001 179.5c48 0 92.833 -8 134.5 -24s75.5 -34.833 101.5 -56.5s48.167 -43.5 66.5 -65.5s30.833 -40.333 37.5 -55l13 -25l45 205h92l-209 -983h-92zM608 1311c-52 0 -88.001 -51.333 -108.001 -154h-82
c32.667 157.333 99.334 236 200.001 236c30 0 57 -7.83301 81 -23.5s42.5 -33.5 55.5 -53.5s28.667 -37.833 47 -53.5s37.833 -23.5 58.5 -23.5c50.667 0 87 51.333 109 154h82c-32.667 -157.333 -99.667 -236 -201 -236c-30 0 -57 7.83301 -81 23.5s-42.5 33.5 -55.5 53.5
s-28.667 37.833 -47 53.5s-37.833 23.5 -58.5 23.5z" />
    <glyph glyph-name="adieresis" unicode="&#xe4;" horiz-adv-x="1218" 
d="M485 72c122.667 0 231.168 53.5 325.501 160.5s141.5 224.833 141.5 353.5c0 92.667 -30.333 170 -91 232s-133.334 93 -218.001 93c-108 0 -211.5 -50.167 -310.5 -150.5s-148.5 -216.5 -148.5 -348.5c0 -94 30 -174.167 90 -240.5s130.333 -99.5 211 -99.5zM840.001 0
l40.999 194.998c-4 -5.33301 -9.83301 -12.833 -17.5 -22.5s-24.5 -27.167 -50.5 -52.5s-53.667 -47.166 -83 -65.499s-66.833 -35.333 -112.5 -51s-92.5 -23.5 -140.5 -23.5c-104 0 -194.5 41.5 -271.5 124.5s-115.5 181.833 -115.5 296.5
c0 162.667 59.333 303.834 178 423.501s246.334 179.5 383.001 179.5c48 0 92.833 -8 134.5 -24s75.5 -34.833 101.5 -56.5s48.167 -43.5 66.5 -65.5s30.833 -40.333 37.5 -55l13 -25l45 205h92l-209 -983h-92zM508 1292c0 20.667 7.5 39.501 22.5 56.501
s32.833 25.5 53.5 25.5c22 0 39.333 -5.83301 52 -17.5s19 -26.834 19 -45.501c0 -22 -8.16699 -40.833 -24.5 -56.5s-35.5 -23.5 -57.5 -23.5c-20.667 0 -36.667 5.66699 -48 17s-17 26 -17 44zM866 1292c0 20.667 7.50098 39.501 22.501 56.501s32.833 25.5 53.5 25.5
c22 0 39.5 -5.83301 52.5 -17.5s19.5 -26.834 19.5 -45.501c0 -22 -8.16699 -40.833 -24.5 -56.5s-35.5 -23.5 -57.5 -23.5c-20.667 0 -36.834 5.66699 -48.501 17s-17.5 26 -17.5 44z" />
    <glyph glyph-name="aring" unicode="&#xe5;" horiz-adv-x="1218" 
d="M485 72c122.667 0 231.168 53.5 325.501 160.5s141.5 224.833 141.5 353.5c0 92.667 -30.333 170 -91 232s-133.334 93 -218.001 93c-108 0 -211.5 -50.167 -310.5 -150.5s-148.5 -216.5 -148.5 -348.5c0 -94 30 -174.167 90 -240.5s130.333 -99.5 211 -99.5zM840.001 0
l40.999 194.998c-4 -5.33301 -9.83301 -12.833 -17.5 -22.5s-24.5 -27.167 -50.5 -52.5s-53.667 -47.166 -83 -65.499s-66.833 -35.333 -112.5 -51s-92.5 -23.5 -140.5 -23.5c-104 0 -194.5 41.5 -271.5 124.5s-115.5 181.833 -115.5 296.5
c0 162.667 59.333 303.834 178 423.501s246.334 179.5 383.001 179.5c48 0 92.833 -8 134.5 -24s75.5 -34.833 101.5 -56.5s48.167 -43.5 66.5 -65.5s30.833 -40.333 37.5 -55l13 -25l45 205h92l-209 -983h-92zM737 1423c-34 0 -62.999 -13.332 -86.999 -39.999
s-36 -58.334 -36 -95.001c0 -28.667 9.66699 -51.167 29 -67.5s46.666 -24.5 81.999 -24.5c34 0 63.333 12.333 88 37s37 56.667 37 96c0 62.667 -37.667 94 -113 94zM932.001 1337c0 -58.667 -20.833 -110.168 -62.5 -154.501s-93.167 -66.5 -154.5 -66.5
c-54.667 0 -98.834 15.333 -132.501 46s-50.5 70.667 -50.5 120c0 62.667 21.667 115.5 65 158.5s95 64.5 155 64.5c54.667 0 98.334 -15.667 131.001 -47s49 -71.666 49 -120.999z" />
    <glyph glyph-name="ae" unicode="&#xe6;" horiz-adv-x="1751" 
d="M1642 461l-788.002 0.000976562c-2.66699 -13.333 -4 -33.333 -4 -60c0 -92.667 29.667 -170.667 89 -234s131.333 -95 216 -95c64 0 123.667 14.667 179 44s95.333 58.333 120 87l35 43l55 -62c-4 -5.33301 -9.33301 -12.833 -16 -22.5s-22.667 -26 -48 -49
s-52.333 -43.333 -81 -61s-65.5 -34 -110.5 -49s-91.5 -22.5 -139.5 -22.5c-53.333 0 -102.5 9.83301 -147.5 29.5s-80.5 43.5 -106.5 71.5s-48.167 56 -66.5 84s-30.833 52.333 -37.5 73l-11 28c-4 -8 -9.33301 -18.5 -16 -31.5s-23.667 -35.833 -51 -68.5
s-56.666 -61.667 -87.999 -87s-74.333 -48.166 -129 -68.499s-112.667 -30.5 -174 -30.5c-84.667 0 -154.667 25.5 -210 76.5s-83 109.833 -83 176.5c0 95.333 36.5 172.5 109.5 231.5s160.5 88.5 262.5 88.5h381l13 61c4 23.333 6 44.666 6 63.999
c0 68 -21.833 123.833 -65.5 167.5s-99.834 65.5 -168.501 65.5c-53.333 0 -104.833 -11.833 -154.5 -35.5s-86.167 -47.834 -109.5 -72.501l-33 -35l-53 61c4 4 9.5 10.167 16.5 18.5s22.333 22.5 46 42.5s48.834 37.833 75.501 53.5s60.167 29.667 100.5 42
s81.166 18.5 122.499 18.5c49.333 0 93.666 -8.66699 132.999 -26s69.166 -37.833 89.499 -61.5s37.333 -47.5 51 -71.5s22.167 -45 25.5 -63l6 -24c4 6.66699 10.333 15.5 19 26.5s27.834 30.5 57.501 58.5s59.834 52.833 90.501 74.5s68.834 41.5 114.501 59.5
s91.834 27 138.501 27c100 0 185 -36.333 255 -109s105 -167 105 -283c0 -48 -4 -88 -12 -120zM1294 911.001c-87.333 0 -173 -36.167 -257 -108.5s-138.333 -155.5 -163 -249.5h697c2.66699 27.333 4 47 4 59c0 86 -27 157.333 -81 214s-120.667 85 -200 85z
M325.998 72.001c102.667 0 194.5 33.999 275.5 101.999s132.5 153.333 154.5 256l6 31h-367c-74 0 -137.833 -19.833 -191.5 -59.5s-80.5 -91.5 -80.5 -155.5c0 -45.333 18.5 -85.666 55.5 -120.999s86.167 -53 147.5 -53z" />
    <glyph glyph-name="ccedilla" unicode="&#xe7;" horiz-adv-x="1054" 
d="M92 406c0 152.667 56.332 290.499 168.999 413.499s248.334 184.5 407.001 184.5c48 0 93.333 -7.16699 136 -21.5s77.667 -31.5 105 -51.5s51.333 -39.833 72 -59.5s35 -37.167 43 -52.5l14 -20l-80 -58c-2.66699 4 -6 10.167 -10 18.5s-14.833 22 -32.5 41
s-36.834 36 -57.501 51s-49 28.667 -85 41s-74 18.5 -114 18.5c-118.667 0 -227.167 -49.5 -325.5 -148.5s-147.5 -215.833 -147.5 -350.5c0 -94 31.167 -174.167 93.5 -240.5s137.166 -99.5 224.499 -99.5c64 0 124.667 14.667 182 44s99 58.333 125 87l37 43l61 -62
c-4 -5.33301 -10 -12.333 -18 -21s-25.667 -25 -53 -49s-56 -44.833 -86 -62.5s-68.333 -34 -115 -49s-93.667 -22.5 -141 -22.5l-72 -101c10.667 5.33301 29 8 55 8c34 0 61.333 -12.5 82 -37.5s31 -54.833 31 -89.5c0 -49.333 -18.5 -90 -55.5 -122
s-86.167 -48 -147.5 -48c-27.333 0 -54.666 4.83301 -81.999 14.5s-47.666 18.5 -60.999 26.5l-23 15l41 55c39.333 -32.667 83 -49 131 -49c38 0 68.333 9.83301 91 29.5s34 44.5 34 74.5c0 19.333 -7.16699 35.833 -21.5 49.5s-30.833 20.5 -49.5 20.5
c-12 0 -24 -1.66699 -36 -5s-21.333 -6.33301 -28 -9l-8 -7l-39 52l92 129c-95.333 16.667 -175.5 64.834 -240.5 144.501s-97.5 171.5 -97.5 275.5z" />
    <glyph glyph-name="egrave" unicode="&#xe8;" horiz-adv-x="1126" 
d="M1016 451l-831.998 -0.000976562c-1.33301 -10.667 -2 -25.667 -2 -45c0 -90 31.5 -168.167 94.5 -234.5s140.167 -99.5 231.5 -99.5c64 0 124.667 14.333 182 43s99 57.334 125 86.001l39 43l55 -60c-4 -5.33301 -10 -12.833 -18 -22.5s-25.333 -26 -52 -49
s-54.667 -43.333 -84 -61s-67.333 -34 -114 -49s-93.667 -22.5 -141 -22.5c-110.667 0 -206.334 41.5 -287.001 124.5s-121 182.5 -121 298.5c0 164 58.667 305.167 176 423.5s247.666 177.5 390.999 177.5c108 0 198.5 -35.167 271.5 -105.5s109.5 -162.833 109.5 -277.5
c0 -44 -4.66699 -87 -14 -129zM649.002 910.999c-104 0 -196.833 -35.833 -278.5 -107.5s-137.5 -158.5 -167.5 -260.5h741c4 24.667 6 48.334 6 71.001c0 87.333 -28.333 158.666 -85 213.999s-128.667 83 -216 83zM645.002 1423l96 -266h-75l-129 266h108z" />
    <glyph glyph-name="eacute" unicode="&#xe9;" horiz-adv-x="1126" 
d="M1016 451l-831.998 -0.000976562c-1.33301 -10.667 -2 -25.667 -2 -45c0 -90 31.5 -168.167 94.5 -234.5s140.167 -99.5 231.5 -99.5c64 0 124.667 14.333 182 43s99 57.334 125 86.001l39 43l55 -60c-4 -5.33301 -10 -12.833 -18 -22.5s-25.333 -26 -52 -49
s-54.667 -43.333 -84 -61s-67.333 -34 -114 -49s-93.667 -22.5 -141 -22.5c-110.667 0 -206.334 41.5 -287.001 124.5s-121 182.5 -121 298.5c0 164 58.667 305.167 176 423.5s247.666 177.5 390.999 177.5c108 0 198.5 -35.167 271.5 -105.5s109.5 -162.833 109.5 -277.5
c0 -44 -4.66699 -87 -14 -129zM649.002 910.999c-104 0 -196.833 -35.833 -278.5 -107.5s-137.5 -158.5 -167.5 -260.5h741c4 24.667 6 48.334 6 71.001c0 87.333 -28.333 158.666 -85 213.999s-128.667 83 -216 83zM655.002 1157l205 266h119l-240 -266h-84z" />
    <glyph glyph-name="ecircumflex" unicode="&#xea;" horiz-adv-x="1126" 
d="M1016 451l-831.998 -0.000976562c-1.33301 -10.667 -2 -25.667 -2 -45c0 -90 31.5 -168.167 94.5 -234.5s140.167 -99.5 231.5 -99.5c64 0 124.667 14.333 182 43s99 57.334 125 86.001l39 43l55 -60c-4 -5.33301 -10 -12.833 -18 -22.5s-25.333 -26 -52 -49
s-54.667 -43.333 -84 -61s-67.333 -34 -114 -49s-93.667 -22.5 -141 -22.5c-110.667 0 -206.334 41.5 -287.001 124.5s-121 182.5 -121 298.5c0 164 58.667 305.167 176 423.5s247.666 177.5 390.999 177.5c108 0 198.5 -35.167 271.5 -105.5s109.5 -162.833 109.5 -277.5
c0 -44 -4.66699 -87 -14 -129zM649.002 910.999c-104 0 -196.833 -35.833 -278.5 -107.5s-137.5 -158.5 -167.5 -260.5h741c4 24.667 6 48.334 6 71.001c0 87.333 -28.333 158.666 -85 213.999s-128.667 83 -216 83zM809.002 1423l160 -266h-88l-131 205l-218 -205h-96
l271 266h102z" />
    <glyph glyph-name="edieresis" unicode="&#xeb;" horiz-adv-x="1126" 
d="M1016 451l-831.998 -0.000976562c-1.33301 -10.667 -2 -25.667 -2 -45c0 -90 31.5 -168.167 94.5 -234.5s140.167 -99.5 231.5 -99.5c64 0 124.667 14.333 182 43s99 57.334 125 86.001l39 43l55 -60c-4 -5.33301 -10 -12.833 -18 -22.5s-25.333 -26 -52 -49
s-54.667 -43.333 -84 -61s-67.333 -34 -114 -49s-93.667 -22.5 -141 -22.5c-110.667 0 -206.334 41.5 -287.001 124.5s-121 182.5 -121 298.5c0 164 58.667 305.167 176 423.5s247.666 177.5 390.999 177.5c108 0 198.5 -35.167 271.5 -105.5s109.5 -162.833 109.5 -277.5
c0 -44 -4.66699 -87 -14 -129zM649.002 910.999c-104 0 -196.833 -35.833 -278.5 -107.5s-137.5 -158.5 -167.5 -260.5h741c4 24.667 6 48.334 6 71.001c0 87.333 -28.333 158.666 -85 213.999s-128.667 83 -216 83zM477.002 1292c0 20.667 7.50098 39.501 22.501 56.501
s32.833 25.5 53.5 25.5c22 0 39.5 -5.83301 52.5 -17.5s19.5 -26.834 19.5 -45.501c0 -22 -8.33301 -40.833 -25 -56.5s-35.667 -23.5 -57 -23.5c-20.667 0 -36.834 5.66699 -48.501 17s-17.5 26 -17.5 44zM836.003 1292c0 20.667 7.5 39.501 22.5 56.501
s32.5 25.5 52.5 25.5c22 0 39.5 -5.83301 52.5 -17.5s19.5 -26.834 19.5 -45.501c0 -22 -8.16699 -40.833 -24.5 -56.5s-35.5 -23.5 -57.5 -23.5c-20.667 0 -36.667 5.66699 -48 17s-17 26 -17 44z" />
    <glyph glyph-name="igrave" unicode="&#xec;" horiz-adv-x="460" 
d="M82 0l209 983h92l-209 -983h-92zM287 1423l96 -266h-76l-129 266h109z" />
    <glyph glyph-name="iacute" unicode="&#xed;" horiz-adv-x="460" 
d="M82 0l209 983h92l-209 -983h-92zM332 1157l205 266h118l-239 -266h-84z" />
    <glyph glyph-name="icircumflex" unicode="&#xee;" horiz-adv-x="460" 
d="M82 0l209 983h92l-209 -983h-92zM465 1423l160 -266h-88l-131 205l-218 -205h-96l270 266h103z" />
    <glyph glyph-name="idieresis" unicode="&#xef;" horiz-adv-x="460" 
d="M82 0l209 983h92l-209 -983h-92zM139 1292c0 20.667 7.50098 39.501 22.501 56.501s32.833 25.5 53.5 25.5c22 0 39.5 -5.83301 52.5 -17.5s19.5 -26.834 19.5 -45.501c0 -22 -8.16699 -40.833 -24.5 -56.5s-35.5 -23.5 -57.5 -23.5
c-20.667 0 -36.834 5.66699 -48.501 17s-17.5 26 -17.5 44zM498.001 1292c0 20.667 7.5 39.501 22.5 56.501s32.5 25.5 52.5 25.5c22 0 39.5 -5.83301 52.5 -17.5s19.5 -26.834 19.5 -45.501c0 -22 -8.16699 -40.833 -24.5 -56.5s-35.5 -23.5 -57.5 -23.5
c-20.667 0 -36.667 5.66699 -48 17s-17 26 -17 44z" />
    <glyph glyph-name="eth" unicode="&#xf0;" horiz-adv-x="1167" 
d="M1085 1524l-247.002 -153.997c6.66699 -4 15.834 -10.5 27.501 -19.5s32.167 -29.833 61.5 -62.5s55.166 -68.5 77.499 -107.5s42.833 -90.833 61.5 -155.5s28 -133.334 28 -206.001c0 -255.333 -61.167 -459 -183.5 -611s-266.166 -228 -431.499 -228
c-106.667 0 -198.834 40.167 -276.501 120.5s-116.5 176.5 -116.5 288.5c0 158.667 57.333 294 172 406s242.334 168 383.001 168c48 0 92.833 -8.66699 134.5 -26s75 -37.833 100 -61.5s46.833 -47.167 65.5 -70.5s31.334 -43.333 38.001 -60l12 -26c4 35.333 6 68 6 98
c0 62.667 -8.5 122.667 -25.5 180s-37 104.166 -60 140.499s-46.5 68.166 -70.5 95.499s-45 46.333 -63 57l-24 19l-260 -164l-41 74l225 143c-30 18 -63.5 36.5 -100.5 55.5s-66.5 33.167 -88.5 42.5l-32 15l47 81c108 -40.667 197.333 -85 268 -133l272 174z
M482.998 72.0029c120 0 225.834 48.832 317.501 146.499s137.5 207.834 137.5 330.501c0 90 -30 166 -90 228s-132.333 93 -217 93c-113.333 0 -216.833 -46.667 -310.5 -140s-140.5 -204.333 -140.5 -333c0 -90 29.667 -166.667 89 -230s130.666 -95 213.999 -95z" />
    <glyph glyph-name="ntilde" unicode="&#xf1;" horiz-adv-x="1177" 
d="M383 983l-39.001 -173.997c2.66699 5.33301 7.16699 12.5 13.5 21.5s20.333 24.333 42 46s45.167 41.167 70.5 58.5s58.833 33.166 100.5 47.499s85.5 21.5 131.5 21.5c98 0 179.5 -30.5 244.5 -91.5s97.5 -139.833 97.5 -236.5c0 -24.667 -3.33301 -55.334 -10 -92.001
l-123 -584h-92l123 584c5.33301 23.333 8 48.333 8 75c0 75.333 -24.167 136.166 -72.5 182.499s-110.166 69.5 -185.499 69.5c-92.667 0 -177.167 -34 -253.5 -102s-125.5 -153.333 -147.5 -256l-117 -553h-92l209 983h92zM611.999 1311c-52 0 -88 -51.333 -108 -154h-82
c32.667 157.333 99.667 236 201 236c30 0 56.833 -7.83301 80.5 -23.5s42 -33.5 55 -53.5s28.833 -37.833 47.5 -53.5s38 -23.5 58 -23.5c50.667 0 87 51.333 109 154h82c-32.667 -157.333 -99.667 -236 -201 -236c-30 0 -57 7.83301 -81 23.5s-42.5 33.5 -55.5 53.5
s-28.667 37.833 -47 53.5s-37.833 23.5 -58.5 23.5z" />
    <glyph glyph-name="ograve" unicode="&#xf2;" horiz-adv-x="1187" 
d="M92 428c0 144.667 56 276.334 168 395.001s243.667 178 395 178c126.667 0 232.5 -43.333 317.5 -130s127.5 -193.334 127.5 -320.001c0 -155.333 -58.667 -289.333 -176 -402s-248 -169 -392 -169c-125.333 0 -230 43.333 -314 130s-126 192.667 -126 318zM545 70
c118.667 0 225.5 48.332 320.5 144.999s142.5 206.667 142.5 330c0 102.667 -34.5 189.334 -103.5 260.001s-154.833 106 -257.5 106c-116 0 -221.833 -47 -317.5 -141s-143.5 -205.333 -143.5 -334c0 -104 34.167 -191 102.5 -261s153.833 -105 256.5 -105zM651 1423
l97 -266h-76l-129 266h108z" />
    <glyph glyph-name="oacute" unicode="&#xf3;" horiz-adv-x="1187" 
d="M92 428c0 144.667 56 276.334 168 395.001s243.667 178 395 178c126.667 0 232.5 -43.333 317.5 -130s127.5 -193.334 127.5 -320.001c0 -155.333 -58.667 -289.333 -176 -402s-248 -169 -392 -169c-125.333 0 -230 43.333 -314 130s-126 192.667 -126 318zM545 70
c118.667 0 225.5 48.332 320.5 144.999s142.5 206.667 142.5 330c0 102.667 -34.5 189.334 -103.5 260.001s-154.833 106 -257.5 106c-116 0 -221.833 -47 -317.5 -141s-143.5 -205.333 -143.5 -334c0 -104 34.167 -191 102.5 -261s153.833 -105 256.5 -105zM668 1157
l204 266h119l-239 -266h-84z" />
    <glyph glyph-name="ocircumflex" unicode="&#xf4;" horiz-adv-x="1187" 
d="M92 428c0 144.667 56 276.334 168 395.001s243.667 178 395 178c126.667 0 232.5 -43.333 317.5 -130s127.5 -193.334 127.5 -320.001c0 -155.333 -58.667 -289.333 -176 -402s-248 -169 -392 -169c-125.333 0 -230 43.333 -314 130s-126 192.667 -126 318zM545 70
c118.667 0 225.5 48.332 320.5 144.999s142.5 206.667 142.5 330c0 102.667 -34.5 189.334 -103.5 260.001s-154.833 106 -257.5 106c-116 0 -221.833 -47 -317.5 -141s-143.5 -205.333 -143.5 -334c0 -104 34.167 -191 102.5 -261s153.833 -105 256.5 -105zM805 1423
l160 -266h-88l-132 205l-217 -205h-96l270 266h103z" />
    <glyph glyph-name="otilde" unicode="&#xf5;" horiz-adv-x="1187" 
d="M92 428c0 144.667 56 276.334 168 395.001s243.667 178 395 178c126.667 0 232.5 -43.333 317.5 -130s127.5 -193.334 127.5 -320.001c0 -155.333 -58.667 -289.333 -176 -402s-248 -169 -392 -169c-125.333 0 -230 43.333 -314 130s-126 192.667 -126 318zM545 70
c118.667 0 225.5 48.332 320.5 144.999s142.5 206.667 142.5 330c0 102.667 -34.5 189.334 -103.5 260.001s-154.833 106 -257.5 106c-116 0 -221.833 -47 -317.5 -141s-143.5 -205.333 -143.5 -334c0 -104 34.167 -191 102.5 -261s153.833 -105 256.5 -105zM600 1311
c-52 0 -88 -51.333 -108 -154h-82c32.667 157.333 99.334 236 200.001 236c30 0 57 -7.83301 81 -23.5s42.5 -33.5 55.5 -53.5s28.667 -37.833 47 -53.5s37.833 -23.5 58.5 -23.5c50.667 0 87 51.333 109 154h81c-32.667 -157.333 -99.334 -236 -200.001 -236
c-30 0 -57 7.83301 -81 23.5s-42.5 33.5 -55.5 53.5s-28.667 37.833 -47 53.5s-37.833 23.5 -58.5 23.5z" />
    <glyph glyph-name="odieresis" unicode="&#xf6;" horiz-adv-x="1187" 
d="M92 428c0 144.667 56 276.334 168 395.001s243.667 178 395 178c126.667 0 232.5 -43.333 317.5 -130s127.5 -193.334 127.5 -320.001c0 -155.333 -58.667 -289.333 -176 -402s-248 -169 -392 -169c-125.333 0 -230 43.333 -314 130s-126 192.667 -126 318zM545 70
c118.667 0 225.5 48.332 320.5 144.999s142.5 206.667 142.5 330c0 102.667 -34.5 189.334 -103.5 260.001s-154.833 106 -257.5 106c-116 0 -221.833 -47 -317.5 -141s-143.5 -205.333 -143.5 -334c0 -104 34.167 -191 102.5 -261s153.833 -105 256.5 -105zM473 1292
c0 20.667 7.50098 39.501 22.501 56.501s32.833 25.5 53.5 25.5c22 0 39.5 -5.83301 52.5 -17.5s19.5 -26.834 19.5 -45.501c0 -22 -8.33301 -40.833 -25 -56.5s-35.667 -23.5 -57 -23.5c-20.667 0 -36.834 5.66699 -48.501 17s-17.5 26 -17.5 44zM831.001 1292
c0 20.667 7.66797 39.501 23.001 56.501s33 25.5 53 25.5c22 0 39.5 -5.83301 52.5 -17.5s19.5 -26.834 19.5 -45.501c0 -22 -8.16699 -40.833 -24.5 -56.5s-35.5 -23.5 -57.5 -23.5c-20.667 0 -36.834 5.66699 -48.501 17s-17.5 26 -17.5 44z" />
    <glyph glyph-name="divide" unicode="&#xf7;" horiz-adv-x="1024" 
d="M975 645l-19 -92h-839l18 92h840zM393 215c0 20.667 7.83203 39.5 23.499 56.5s33.834 25.5 54.501 25.5c22 0 39.167 -5.83301 51.5 -17.5s18.5 -27.167 18.5 -46.5c0 -22 -7.83301 -40.667 -23.5 -56s-34.5 -23 -56.5 -23c-20.667 0 -37.167 5.66699 -49.5 17
s-18.5 26 -18.5 44zM550.999 963c0 20.667 7.83203 39.332 23.499 55.999s33.834 25 54.501 25c22 0 39 -5.66699 51 -17s18 -26.666 18 -45.999c0 -22 -7.83301 -40.833 -23.5 -56.5s-34.5 -23.5 -56.5 -23.5c-20.667 0 -37 5.83301 -49 17.5s-18 26.5 -18 44.5z" />
    <glyph glyph-name="oslash" unicode="&#xf8;" horiz-adv-x="1187" 
d="M92 428c0 144.667 56.001 276.333 168.001 395s243.667 178 395 178c126.667 0 232.667 -43.667 318 -131l184 158l49 -67l-180 -156c49.333 -75.333 74 -160 74 -254c0 -155.333 -58.667 -289.333 -176 -402s-248 -169 -392 -169
c-126.667 0 -232.334 43.667 -317.001 131l-182 -156l-49 68l180 153c-48 72.667 -72 156.667 -72 252zM545.001 69.999c118.667 0 225.5 48.333 320.5 145s142.5 206.667 142.5 330c0 70.667 -18.667 136 -56 196l-663 -567c66.667 -69.333 152 -104 256 -104z
M186.001 435.999c0 -70.667 17.333 -136 52 -196l663 567c-69.333 69.333 -154 104 -254 104c-116 0 -221.833 -47 -317.5 -141s-143.5 -205.333 -143.5 -334z" />
    <glyph glyph-name="ugrave" unicode="&#xf9;" 
d="M819 0l37.001 171.993c-2.66699 -5.33301 -7 -12.166 -13 -20.499s-20 -23.666 -42 -45.999s-45.333 -42.166 -70 -59.499s-57.834 -32.666 -99.501 -45.999s-85.5 -20 -131.5 -20c-100 0 -182.333 30.333 -247 91s-97 139.334 -97 236.001
c0 24.667 3.33301 55.334 10 92.001l125 584h92l-125 -584c-5.33301 -23.333 -8 -48.333 -8 -75c0 -75.333 24.167 -136.166 72.5 -182.499s110.833 -69.5 187.5 -69.5c91.333 0 174.833 34 250.5 102s125.167 153.333 148.5 256l119 553h92l-209 -983h-92zM672.001 1422.99
l96 -266h-76l-129 266h109z" />
    <glyph glyph-name="uacute" unicode="&#xfa;" 
d="M819 0l37.001 171.993c-2.66699 -5.33301 -7 -12.166 -13 -20.499s-20 -23.666 -42 -45.999s-45.333 -42.166 -70 -59.499s-57.834 -32.666 -99.501 -45.999s-85.5 -20 -131.5 -20c-100 0 -182.333 30.333 -247 91s-97 139.334 -97 236.001
c0 24.667 3.33301 55.334 10 92.001l125 584h92l-125 -584c-5.33301 -23.333 -8 -48.333 -8 -75c0 -75.333 24.167 -136.166 72.5 -182.499s110.833 -69.5 187.5 -69.5c91.333 0 174.833 34 250.5 102s125.167 153.333 148.5 256l119 553h92l-209 -983h-92zM664.001 1156.99
l204 266h119l-239 -266h-84z" />
    <glyph glyph-name="ucircumflex" unicode="&#xfb;" 
d="M819 0l37.001 171.993c-2.66699 -5.33301 -7 -12.166 -13 -20.499s-20 -23.666 -42 -45.999s-45.333 -42.166 -70 -59.499s-57.834 -32.666 -99.501 -45.999s-85.5 -20 -131.5 -20c-100 0 -182.333 30.333 -247 91s-97 139.334 -97 236.001
c0 24.667 3.33301 55.334 10 92.001l125 584h92l-125 -584c-5.33301 -23.333 -8 -48.333 -8 -75c0 -75.333 24.167 -136.166 72.5 -182.499s110.833 -69.5 187.5 -69.5c91.333 0 174.833 34 250.5 102s125.167 153.333 148.5 256l119 553h92l-209 -983h-92zM834.001 1422.99
l159 -266h-88l-131 205l-217 -205h-96l270 266h103z" />
    <glyph glyph-name="udieresis" unicode="&#xfc;" 
d="M819 0l37.001 171.993c-2.66699 -5.33301 -7 -12.166 -13 -20.499s-20 -23.666 -42 -45.999s-45.333 -42.166 -70 -59.499s-57.834 -32.666 -99.501 -45.999s-85.5 -20 -131.5 -20c-100 0 -182.333 30.333 -247 91s-97 139.334 -97 236.001
c0 24.667 3.33301 55.334 10 92.001l125 584h92l-125 -584c-5.33301 -23.333 -8 -48.333 -8 -75c0 -75.333 24.167 -136.166 72.5 -182.499s110.833 -69.5 187.5 -69.5c91.333 0 174.833 34 250.5 102s125.167 153.333 148.5 256l119 553h92l-209 -983h-92zM498.001 1271.99
c0 20.667 7.5 39.5 22.5 56.5s32.5 25.5 52.5 25.5c22 0 39.5 -5.83301 52.5 -17.5s19.5 -27.167 19.5 -46.5c0 -22 -8.16699 -40.833 -24.5 -56.5s-35.5 -23.5 -57.5 -23.5c-20.667 0 -36.667 5.83301 -48 17.5s-17 26.5 -17 44.5zM856.001 1271.99
c0 20.667 7.50098 39.5 22.501 56.5s32.833 25.5 53.5 25.5c22 0 39.5 -5.83301 52.5 -17.5s19.5 -27.167 19.5 -46.5c0 -22 -8.33301 -40.833 -25 -56.5s-35.667 -23.5 -57 -23.5c-20.667 0 -36.834 5.83301 -48.501 17.5s-17.5 26.5 -17.5 44.5z" />
    <glyph glyph-name="yacute" unicode="&#xfd;" horiz-adv-x="983" 
d="M219 -184l113 184.001l-185 983h99l164 -862l530 862h109l-721 -1167c-54.667 -88.667 -107 -151.834 -157 -189.501s-110.333 -56.5 -181 -56.5c-15.333 0 -30.166 1.66699 -44.499 5s-24.833 7 -31.5 11l-10 4l18 93c23.333 -13.333 52 -20.333 86 -21
c45.333 0 83.666 12.333 114.999 37s63.333 63.667 96 117zM539 1157l204 266h119l-239 -266h-84z" />
    <glyph glyph-name="thorn" unicode="&#xfe;" horiz-adv-x="1218" 
d="M735 911c-122.667 0 -231.167 -53.5 -325.5 -160.5s-141.5 -224.833 -141.5 -353.5c0 -92.667 30.5 -170 91.5 -232s133.833 -93 218.5 -93c108 0 211.333 50.167 310 150.5s148 216.5 148 348.5c0 94 -30 174.167 -90 240.5s-130.333 99.5 -211 99.5zM477 1434
l-137.003 -646c4 5.33301 9.83301 12.833 17.5 22.5s24.334 27.167 50.001 52.5s53.334 47.166 83.001 65.499s67.334 35.5 113.001 51.5s92.167 24 139.5 24c104 0 194.5 -41.667 271.5 -125s115.5 -182.333 115.5 -297c0 -162.667 -59.333 -303.667 -178 -423
s-246.334 -179 -383.001 -179c-48 0 -92.667 7.83301 -134 23.5s-75 34.334 -101 56.001s-48.167 43.5 -66.5 65.5s-31.166 40.333 -38.499 55l-12 25l-135 -635h-92l395 1864h92z" />
    <glyph glyph-name="ydieresis" unicode="&#xff;" horiz-adv-x="983" 
d="M219 -184l113 184.001l-185 983h99l164 -862l530 862h109l-721 -1167c-54.667 -88.667 -107 -151.834 -157 -189.501s-110.333 -56.5 -181 -56.5c-15.333 0 -30.166 1.66699 -44.499 5s-24.833 7 -31.5 11l-10 4l18 93c23.333 -13.333 52 -20.333 86 -21
c45.333 0 83.666 12.333 114.999 37s63.333 63.667 96 117zM391 1292c0 20.667 7.50098 39.501 22.501 56.501s32.833 25.5 53.5 25.5c22 0 39.5 -5.83301 52.5 -17.5s19.5 -26.834 19.5 -45.501c0 -22 -8.33301 -40.833 -25 -56.5s-35.667 -23.5 -57 -23.5
c-20.667 0 -36.834 5.66699 -48.501 17s-17.5 26 -17.5 44zM750.001 1292c0 20.667 7.5 39.501 22.5 56.501s32.5 25.5 52.5 25.5c22 0 39.5 -5.83301 52.5 -17.5s19.5 -26.834 19.5 -45.501c0 -22 -8.16699 -40.833 -24.5 -56.5s-35.5 -23.5 -57.5 -23.5
c-20.667 0 -36.667 5.66699 -48 17s-17 26 -17 44z" />
    <glyph glyph-name="Amacron" unicode="&#x100;" horiz-adv-x="1392" 
d="M1034 522l-155 768l-480 -768h635zM1053 420h-717l-262 -420h-115l897 1434h102l291 -1434h-110zM1239 1802l-16 -82h-553l16 82h553z" />
    <glyph glyph-name="amacron" unicode="&#x101;" horiz-adv-x="1218" 
d="M485 72c122.667 0 231.168 53.5 325.501 160.5s141.5 224.833 141.5 353.5c0 92.667 -30.333 170 -91 232s-133.334 93 -218.001 93c-108 0 -211.5 -50.167 -310.5 -150.5s-148.5 -216.5 -148.5 -348.5c0 -94 30 -174.167 90 -240.5s130.333 -99.5 211 -99.5zM840.001 0
l40.999 194.998c-4 -5.33301 -9.83301 -12.833 -17.5 -22.5s-24.5 -27.167 -50.5 -52.5s-53.667 -47.166 -83 -65.499s-66.833 -35.333 -112.5 -51s-92.5 -23.5 -140.5 -23.5c-104 0 -194.5 41.5 -271.5 124.5s-115.5 181.833 -115.5 296.5
c0 162.667 59.333 303.834 178 423.501s246.334 179.5 383.001 179.5c48 0 92.833 -8 134.5 -24s75.5 -34.833 101.5 -56.5s48.167 -43.5 66.5 -65.5s30.833 -40.333 37.5 -55l13 -25l45 205h92l-209 -983h-92zM1024 1352l-16 -82h-553l16 82h553z" />
    <glyph glyph-name="Abreve" unicode="&#x102;" horiz-adv-x="1392" 
d="M1034 522l-155 768l-480 -768h635zM1053 420h-717l-262 -420h-115l897 1434h102l291 -1434h-110zM954 1710c56 0 103.5 16.667 142.5 50s63.833 78 74.5 134h82c-16.667 -78 -52.5 -141.833 -107.5 -191.5s-120.167 -74.5 -195.5 -74.5c-78 0 -139.833 25.667 -185.5 77
s-60.167 114.333 -43.5 189h82c-10.667 -56 -2.16699 -100.667 25.5 -134s69.5 -50 125.5 -50z" />
    <glyph glyph-name="abreve" unicode="&#x103;" horiz-adv-x="1218" 
d="M485 72c122.667 0 231.168 53.5 325.501 160.5s141.5 224.833 141.5 353.5c0 92.667 -30.333 170 -91 232s-133.334 93 -218.001 93c-108 0 -211.5 -50.167 -310.5 -150.5s-148.5 -216.5 -148.5 -348.5c0 -94 30 -174.167 90 -240.5s130.333 -99.5 211 -99.5zM840.001 0
l40.999 194.998c-4 -5.33301 -9.83301 -12.833 -17.5 -22.5s-24.5 -27.167 -50.5 -52.5s-53.667 -47.166 -83 -65.499s-66.833 -35.333 -112.5 -51s-92.5 -23.5 -140.5 -23.5c-104 0 -194.5 41.5 -271.5 124.5s-115.5 181.833 -115.5 296.5
c0 162.667 59.333 303.834 178 423.501s246.334 179.5 383.001 179.5c48 0 92.833 -8 134.5 -24s75.5 -34.833 101.5 -56.5s48.167 -43.5 66.5 -65.5s30.833 -40.333 37.5 -55l13 -25l45 205h92l-209 -983h-92zM723 1239c56 0 103.5 16.667 142.5 50s63.833 78 74.5 134h82
c-16.667 -78 -52.667 -141.833 -108 -191.5s-120.333 -74.5 -195 -74.5c-78 0 -139.833 25.667 -185.5 77s-60.5 114.333 -44.5 189h82c-10.667 -56 -2 -100.667 26 -134s70 -50 126 -50z" />
    <glyph glyph-name="Aogonek" unicode="&#x104;" horiz-adv-x="1392" 
d="M1139 0l-86 419.999h-717l-262 -420h-115l897 1434h102l291 -1434h-39l-18 -14c-12 -9.33301 -27.333 -23 -46 -41s-37.167 -37.167 -55.5 -57.5s-34 -43.166 -47 -68.499s-19.5 -49 -19.5 -71c0 -24.667 7.83301 -45.167 23.5 -61.5s38.5 -24.5 68.5 -24.5
c18 0 37.833 2.33301 59.5 7s39.5 10 53.5 16l18 8l-16 -72c-42 -20.667 -83.667 -31 -125 -31c-48 0 -86 14.333 -114 43s-42 63.667 -42 105c0 45.333 15.667 89.833 47 133.5s63 75.5 95 95.5zM1034 521.999l-155 768l-480 -768h635z" />
    <glyph glyph-name="aogonek" unicode="&#x105;" horiz-adv-x="1218" 
d="M840 0l41 194.997c-4 -5.33301 -9.83301 -12.833 -17.5 -22.5s-24.5 -27.167 -50.5 -52.5s-53.667 -47.166 -83 -65.499s-66.833 -35.333 -112.5 -51s-92.5 -23.5 -140.5 -23.5c-104 0 -194.5 41.5 -271.5 124.5s-115.5 181.833 -115.5 296.5
c0 162.667 59.333 303.834 178 423.501s246.334 179.5 383.001 179.5c48 0 92.833 -8 134.5 -24s75.5 -34.833 101.5 -56.5s48.167 -43.5 66.5 -65.5s30.833 -40.333 37.5 -55l13 -25l45 205h92l-209 -983h-21c-13.333 -9.33301 -30.333 -22.666 -51 -39.999
s-48.334 -48.5 -83.001 -93.5s-52 -84.5 -52 -118.5c0 -24.667 7.83301 -45.167 23.5 -61.5s38.5 -24.5 68.5 -24.5c18 0 37.833 2.33301 59.5 7s39.5 10 53.5 16l18 8l-16 -72c-42 -20.667 -83.667 -31 -125 -31c-48 0 -86 14.333 -114 43s-42 63.667 -42 105
c0 45.333 15.667 89.833 47 133.5s63 75.5 95 95.5zM485 71.9971c122.667 0 231.168 53.5 325.501 160.5s141.5 224.833 141.5 353.5c0 92.667 -30.333 170 -91 232s-133.334 93 -218.001 93c-108 0 -211.5 -50.167 -310.5 -150.5s-148.5 -216.5 -148.5 -348.5
c0 -94 30 -174.167 90 -240.5s130.333 -99.5 211 -99.5z" />
    <glyph glyph-name="Cacute" unicode="&#x106;" horiz-adv-x="1536" 
d="M164 610c0 144.667 37.167 281.998 111.5 411.998s177.333 234.5 309 313.5s274.834 118.5 429.501 118.5c72.667 0 142 -10.5 208 -31.5s120.167 -46.667 162.5 -77s79.166 -60.5 110.499 -90.5s54.666 -55 69.999 -75l20 -33l-82 -60c-4 6.66699 -10 16.334 -18 29.001
s-27.167 34 -57.5 64s-63.166 56.5 -98.499 79.5s-82.333 44.167 -141 63.5s-120 29 -184 29c-198 0 -369.833 -70.333 -515.5 -211s-218.5 -315 -218.5 -523c0 -146 51.667 -271.833 155 -377.5s229.333 -158.5 378 -158.5c65.333 0 128.333 9.16699 189 27.5
s111.5 40.5 152.5 66.5s77.167 52 108.5 78s54.666 47.667 69.999 65l23 29l65 -61l-27.5 -33c-11.667 -14 -37.667 -38.667 -78 -74s-82.666 -66.666 -126.999 -93.999s-101.333 -51.833 -171 -73.5s-140.5 -32.5 -212.5 -32.5c-172 0 -320.167 63 -444.5 189
s-186.5 273 -186.5 441zM1001 1628l205 266h119l-240 -266h-84z" />
    <glyph glyph-name="cacute" unicode="&#x107;" horiz-adv-x="1054" 
d="M92 406c0 152.667 56.334 290.5 169.001 413.5s248.334 184.5 407.001 184.5c48 0 93.333 -7.16699 136 -21.5s77.667 -31.5 105 -51.5s51.333 -39.833 72 -59.5s35 -37.167 43 -52.5l14 -20l-80 -58c-2.66699 4 -6 10.167 -10 18.5s-14.833 22 -32.5 41
s-36.834 36 -57.501 51s-49 28.667 -85 41s-74 18.5 -114 18.5c-118.667 0 -227.167 -49.5 -325.5 -148.5s-147.5 -215.833 -147.5 -350.5c0 -94 31.167 -174.167 93.5 -240.5s137.166 -99.5 224.499 -99.5c64 0 124.667 14.667 182 44s99 58.333 125 87l37 43l61 -62
c-4 -5.33301 -10 -12.833 -18 -22.5s-25.667 -26 -53 -49s-56 -43.333 -86 -61s-68.333 -34 -115 -49s-93.667 -22.5 -141 -22.5c-110.667 0 -205.667 42 -285 126s-119 184 -119 300zM664.001 1157l204 266h119l-239 -266h-84z" />
    <glyph glyph-name="Ccircumflex" unicode="&#x108;" horiz-adv-x="1536" 
d="M164 610c0 144.667 37.167 281.998 111.5 411.998s177.333 234.5 309 313.5s274.834 118.5 429.501 118.5c72.667 0 142 -10.5 208 -31.5s120.167 -46.667 162.5 -77s79.166 -60.5 110.499 -90.5s54.666 -55 69.999 -75l20 -33l-82 -60c-4 6.66699 -10 16.334 -18 29.001
s-27.167 34 -57.5 64s-63.166 56.5 -98.499 79.5s-82.333 44.167 -141 63.5s-120 29 -184 29c-198 0 -369.833 -70.333 -515.5 -211s-218.5 -315 -218.5 -523c0 -146 51.667 -271.833 155 -377.5s229.333 -158.5 378 -158.5c65.333 0 128.333 9.16699 189 27.5
s111.5 40.5 152.5 66.5s77.167 52 108.5 78s54.666 47.667 69.999 65l23 29l65 -61l-27.5 -33c-11.667 -14 -37.667 -38.667 -78 -74s-82.666 -66.666 -126.999 -93.999s-101.333 -51.833 -171 -73.5s-140.5 -32.5 -212.5 -32.5c-172 0 -320.167 63 -444.5 189
s-186.5 273 -186.5 441zM1157 1894l160 -266h-88l-131 205l-217 -205h-97l271 266h102z" />
    <glyph glyph-name="ccircumflex" unicode="&#x109;" horiz-adv-x="1054" 
d="M92 406c0 152.667 56.334 290.5 169.001 413.5s248.334 184.5 407.001 184.5c48 0 93.333 -7.16699 136 -21.5s77.667 -31.5 105 -51.5s51.333 -39.833 72 -59.5s35 -37.167 43 -52.5l14 -20l-80 -58c-2.66699 4 -6 10.167 -10 18.5s-14.833 22 -32.5 41
s-36.834 36 -57.501 51s-49 28.667 -85 41s-74 18.5 -114 18.5c-118.667 0 -227.167 -49.5 -325.5 -148.5s-147.5 -215.833 -147.5 -350.5c0 -94 31.167 -174.167 93.5 -240.5s137.166 -99.5 224.499 -99.5c64 0 124.667 14.667 182 44s99 58.333 125 87l37 43l61 -62
c-4 -5.33301 -10 -12.833 -18 -22.5s-25.667 -26 -53 -49s-56 -43.333 -86 -61s-68.333 -34 -115 -49s-93.667 -22.5 -141 -22.5c-110.667 0 -205.667 42 -285 126s-119 184 -119 300zM811.001 1423l160 -266h-88l-131 205l-217 -205h-97l271 266h102z" />
    <glyph glyph-name="Ccaron" unicode="&#x10c;" horiz-adv-x="1536" 
d="M164 610c0 144.667 37.167 281.998 111.5 411.998s177.333 234.5 309 313.5s274.834 118.5 429.501 118.5c72.667 0 142 -10.5 208 -31.5s120.167 -46.667 162.5 -77s79.166 -60.5 110.499 -90.5s54.666 -55 69.999 -75l20 -33l-82 -60c-4 6.66699 -10 16.334 -18 29.001
s-27.167 34 -57.5 64s-63.166 56.5 -98.499 79.5s-82.333 44.167 -141 63.5s-120 29 -184 29c-198 0 -369.833 -70.333 -515.5 -211s-218.5 -315 -218.5 -523c0 -146 51.667 -271.833 155 -377.5s229.333 -158.5 378 -158.5c65.333 0 128.333 9.16699 189 27.5
s111.5 40.5 152.5 66.5s77.167 52 108.5 78s54.666 47.667 69.999 65l23 29l65 -61l-27.5 -33c-11.667 -14 -37.667 -38.667 -78 -74s-82.666 -66.666 -126.999 -93.999s-101.333 -51.833 -171 -73.5s-140.5 -32.5 -212.5 -32.5c-172 0 -320.167 63 -444.5 189
s-186.5 273 -186.5 441zM1364 1894l-270 -266h-103l-160 266h89l131 -204l217 204h96z" />
    <glyph glyph-name="ccaron" unicode="&#x10d;" horiz-adv-x="1054" 
d="M92 406c0 152.667 56.334 290.5 169.001 413.5s248.334 184.5 407.001 184.5c48 0 93.333 -7.16699 136 -21.5s77.667 -31.5 105 -51.5s51.333 -39.833 72 -59.5s35 -37.167 43 -52.5l14 -20l-80 -58c-2.66699 4 -6 10.167 -10 18.5s-14.833 22 -32.5 41
s-36.834 36 -57.501 51s-49 28.667 -85 41s-74 18.5 -114 18.5c-118.667 0 -227.167 -49.5 -325.5 -148.5s-147.5 -215.833 -147.5 -350.5c0 -94 31.167 -174.167 93.5 -240.5s137.166 -99.5 224.499 -99.5c64 0 124.667 14.667 182 44s99 58.333 125 87l37 43l61 -62
c-4 -5.33301 -10 -12.833 -18 -22.5s-25.667 -26 -53 -49s-56 -43.333 -86 -61s-68.333 -34 -115 -49s-93.667 -22.5 -141 -22.5c-110.667 0 -205.667 42 -285 126s-119 184 -119 300zM1018 1423l-270 -266h-103l-160 266h88l132 -204l217 204h96z" />
    <glyph glyph-name="Dcaron" unicode="&#x10e;" horiz-adv-x="1515" 
d="M436 1434h379c184 0 338.833 -60.167 464.5 -180.5s188.5 -263.166 188.5 -428.499c0 -230.667 -85.667 -425.834 -257 -585.501s-377 -239.5 -617 -239.5h-461zM805 1331h-287l-262 -1229h348c211.333 0 390.833 68.667 538.5 206s221.5 308.333 221.5 513
c0 142 -52.833 262.5 -158.5 361.5s-239.167 148.5 -400.5 148.5zM1223 1894l-271 -266h-102l-160 266h88l131 -204l217 204h97z" />
    <glyph glyph-name="dcaron" unicode="&#x10f;" horiz-adv-x="1290" 
d="M485 72c122.667 0 231.168 53.5 325.501 160.5s141.5 224.833 141.5 353.5c0 92.667 -30.333 170 -91 232s-133.334 93 -218.001 93c-108 0 -211.5 -50.167 -310.5 -150.5s-148.5 -216.5 -148.5 -348.5c0 -94 30 -174.167 90 -240.5s130.333 -99.5 211 -99.5zM840.001 0
l40.999 194.998c-4 -5.33301 -9.83301 -12.833 -17.5 -22.5s-24.5 -27.167 -50.5 -52.5s-53.667 -47.166 -83 -65.499s-66.833 -35.333 -112.5 -51s-92.5 -23.5 -140.5 -23.5c-104 0 -194.5 41.5 -271.5 124.5s-115.5 181.833 -115.5 296.5
c0 162.667 59.333 303.834 178 423.501s246.334 179.5 383.001 179.5c48 0 92.833 -8 134.5 -24s75.5 -34.833 101.5 -56.5s48.167 -43.5 66.5 -65.5s30.833 -40.333 37.5 -55l13 -25l139 656h92l-303 -1434h-92zM1329 1157l146 277h108l-180 -277h-74z" />
    <glyph glyph-name="Dcroat" unicode="&#x110;" horiz-adv-x="1536" 
d="M457 1434h379c184 0 338.833 -60.167 464.5 -180.5s188.5 -263.166 188.5 -428.499c0 -230.667 -85.667 -425.834 -257 -585.501s-377.333 -239.5 -618 -239.5h-460l139 666h-203l21 102h204zM825 1331h-285.999l-121 -563h358l-20 -102h-359l-121 -564h349
c211.333 0 390.666 68.667 537.999 206s221 308.333 221 513c0 142 -52.833 262.5 -158.5 361.5s-239.167 148.5 -400.5 148.5z" />
    <glyph glyph-name="dcroat" unicode="&#x111;" horiz-adv-x="1228" 
d="M993 737l85.998 399.999h-297l21 92h297l43 205h92l-43 -205h164l-21 -92h-164l-239 -1137h-92l41 195c-4 -5.33301 -9.83301 -12.833 -17.5 -22.5s-24.5 -27.167 -50.5 -52.5s-53.667 -47.166 -83 -65.499s-66.833 -35.333 -112.5 -51s-92.5 -23.5 -140.5 -23.5
c-104 0 -194.833 41.5 -272.5 124.5s-116.5 179.833 -116.5 290.5c0 150 57.333 282.167 172 396.5s240.334 171.5 377.001 171.5c48 0 93.167 -8 135.5 -24s76.333 -34.833 102 -56.5s47.834 -43.5 66.501 -65.5s32 -40.333 40 -55zM486.998 71.999
c112 0 216.5 50.167 313.5 150.5s145.5 208.5 145.5 324.5c0 84.667 -30 159.667 -90 225s-135 98 -225 98c-106.667 0 -208.167 -47.667 -304.5 -143s-144.5 -203.333 -144.5 -324c0 -90 30.333 -167.667 91 -233s132 -98 214 -98z" />
    <glyph glyph-name="Emacron" unicode="&#x112;" horiz-adv-x="1290" 
d="M256 102h881l-21 -102h-983l303 1434h963l-21 -103h-860l-115 -532h697l-21 -103h-696zM1257 1802l-16 -82h-553l17 82h552z" />
    <glyph glyph-name="emacron" unicode="&#x113;" horiz-adv-x="1126" 
d="M1016 451l-831.998 -0.000976562c-1.33301 -10.667 -2 -25.667 -2 -45c0 -90 31.5 -168.167 94.5 -234.5s140.167 -99.5 231.5 -99.5c64 0 124.667 14.333 182 43s99 57.334 125 86.001l39 43l55 -60c-4 -5.33301 -10 -12.833 -18 -22.5s-25.333 -26 -52 -49
s-54.667 -43.333 -84 -61s-67.333 -34 -114 -49s-93.667 -22.5 -141 -22.5c-110.667 0 -206.334 41.5 -287.001 124.5s-121 182.5 -121 298.5c0 164 58.667 305.167 176 423.5s247.666 177.5 390.999 177.5c108 0 198.5 -35.167 271.5 -105.5s109.5 -162.833 109.5 -277.5
c0 -44 -4.66699 -87 -14 -129zM649.002 910.999c-104 0 -196.833 -35.833 -278.5 -107.5s-137.5 -158.5 -167.5 -260.5h741c4 24.667 6 48.334 6 71.001c0 87.333 -28.333 158.666 -85 213.999s-128.667 83 -216 83zM1004 1331l-17 -82h-553l17 82h553z" />
    <glyph glyph-name="Edotaccent" unicode="&#x116;" horiz-adv-x="1290" 
d="M256 102h881l-21 -102h-983l303 1434h963l-21 -103h-860l-115 -532h697l-21 -103h-696zM868 1751c0 20.667 7.50098 39.5 22.501 56.5s32.833 25.5 53.5 25.5c22 0 39.5 -5.83301 52.5 -17.5s19.5 -27.167 19.5 -46.5c0 -22 -8.16699 -40.667 -24.5 -56
s-35.5 -23 -57.5 -23c-20.667 0 -36.834 5.66699 -48.501 17s-17.5 26 -17.5 44z" />
    <glyph glyph-name="edotaccent" unicode="&#x117;" horiz-adv-x="1126" 
d="M1016 451l-831.998 -0.000976562c-1.33301 -10.667 -2 -25.667 -2 -45c0 -90 31.5 -168.167 94.5 -234.5s140.167 -99.5 231.5 -99.5c64 0 124.667 14.333 182 43s99 57.334 125 86.001l39 43l55 -60c-4 -5.33301 -10 -12.833 -18 -22.5s-25.333 -26 -52 -49
s-54.667 -43.333 -84 -61s-67.333 -34 -114 -49s-93.667 -22.5 -141 -22.5c-110.667 0 -206.334 41.5 -287.001 124.5s-121 182.5 -121 298.5c0 164 58.667 305.167 176 423.5s247.666 177.5 390.999 177.5c108 0 198.5 -35.167 271.5 -105.5s109.5 -162.833 109.5 -277.5
c0 -44 -4.66699 -87 -14 -129zM649.002 910.999c-104 0 -196.833 -35.833 -278.5 -107.5s-137.5 -158.5 -167.5 -260.5h741c4 24.667 6 48.334 6 71.001c0 87.333 -28.333 158.666 -85 213.999s-128.667 83 -216 83zM655.002 1280c0 20.667 7.50098 39.5 22.501 56.5
s32.833 25.5 53.5 25.5c22 0 39.5 -5.83301 52.5 -17.5s19.5 -27.167 19.5 -46.5c0 -22 -8.16699 -40.667 -24.5 -56s-35.5 -23 -57.5 -23c-20.667 0 -36.834 5.66699 -48.501 17s-17.5 26 -17.5 44z" />
    <glyph glyph-name="Eogonek" unicode="&#x118;" horiz-adv-x="1290" 
d="M1044 0l-910.998 -0.000976562l303 1434h963l-21 -103h-860l-115 -532h697l-21 -103h-696l-127 -594h881l-21 -102c-13.333 -9.33301 -30.333 -22.666 -51 -39.999s-48.334 -48.5 -83.001 -93.5s-52 -84.5 -52 -118.5c0 -24.667 7.83301 -45.167 23.5 -61.5
s38.5 -24.5 68.5 -24.5c18 0 37.833 2.33301 59.5 7s39.5 10 53.5 16l18 8l-16 -72c-42 -20.667 -83.667 -31 -125 -31c-48 0 -86 14.333 -114 43s-42 63.667 -42 105c0 45.333 15.667 89.833 47 133.5s62.666 75.5 93.999 95.5z" />
    <glyph glyph-name="eogonek" unicode="&#x119;" horiz-adv-x="1126" 
d="M1016 451l-831.999 0.00195312c-1.33301 -10.667 -2 -25.667 -2 -45c0 -90 31.5 -168.167 94.5 -234.5s140.167 -99.5 231.5 -99.5c64 0 124.667 14.333 182 43s99 57.334 125 86.001l39 43l55 -60c-4 -5.33301 -9.66699 -12 -17 -20s-23.333 -23.333 -48 -46
s-51 -42.834 -79 -60.501s-63.5 -34.334 -106.5 -50.001s-87.167 -24.834 -132.5 -27.501c-106.667 -84.667 -159.667 -162 -159 -232c0 -24.667 7.83301 -45.167 23.5 -61.5s38.5 -24.5 68.5 -24.5c18 0 37.833 2.33301 59.5 7s38.5 10 50.5 16l21 8l-17 -72
c-42 -20.667 -83.333 -31 -124 -31c-48 0 -86 14.333 -114 43s-42 63.667 -42 105c0 87.333 53.333 169.333 160 246c-101.333 10.667 -186.833 56.667 -256.5 138s-104.5 175 -104.5 281c0 164 58.667 305.167 176 423.5s247.666 177.5 390.999 177.5
c108 0 198.5 -35.167 271.5 -105.5s109.5 -162.833 109.5 -277.5c0 -44 -4.66699 -87 -14 -129zM649.001 911.002c-104 0 -196.833 -35.833 -278.5 -107.5s-137.5 -158.5 -167.5 -260.5h741c4 24.667 6 48.334 6 71.001c0 87.333 -28.333 158.666 -85 213.999
s-128.667 83 -216 83z" />
    <glyph glyph-name="Ecaron" unicode="&#x11a;" horiz-adv-x="1290" 
d="M256 102h881l-21 -102h-983l303 1434h963l-21 -103h-860l-115 -532h697l-21 -103h-696zM1262 1884l-271 -266h-102l-160 266h88l131 -205l217 205h97z" />
    <glyph glyph-name="ecaron" unicode="&#x11b;" horiz-adv-x="1126" 
d="M1016 451l-831.998 -0.000976562c-1.33301 -10.667 -2 -25.667 -2 -45c0 -90 31.5 -168.167 94.5 -234.5s140.167 -99.5 231.5 -99.5c64 0 124.667 14.333 182 43s99 57.334 125 86.001l39 43l55 -60c-4 -5.33301 -10 -12.833 -18 -22.5s-25.333 -26 -52 -49
s-54.667 -43.333 -84 -61s-67.333 -34 -114 -49s-93.667 -22.5 -141 -22.5c-110.667 0 -206.334 41.5 -287.001 124.5s-121 182.5 -121 298.5c0 164 58.667 305.167 176 423.5s247.666 177.5 390.999 177.5c108 0 198.5 -35.167 271.5 -105.5s109.5 -162.833 109.5 -277.5
c0 -44 -4.66699 -87 -14 -129zM649.002 910.999c-104 0 -196.833 -35.833 -278.5 -107.5s-137.5 -158.5 -167.5 -260.5h741c4 24.667 6 48.334 6 71.001c0 87.333 -28.333 158.666 -85 213.999s-128.667 83 -216 83zM1022 1423l-270 -266h-103l-160 266h89l131 -204l217 204
h96z" />
    <glyph glyph-name="Gbreve" unicode="&#x11e;" horiz-adv-x="1617" 
d="M164 606c0 144.667 37.5029 282.165 112.503 412.498s178.667 235.5 311 315.5s275.833 120 430.5 120c72.667 0 141.667 -10.5 207 -31.5s119.166 -46.667 161.499 -77s79.166 -60.5 110.499 -90.5s54 -55 68 -75l20 -33l-82 -60c-4 6.66699 -10 16.334 -18 29.001
s-26.833 34 -56.5 64s-61.5 56.5 -95.5 79.5s-80.333 44.167 -139 63.5s-120 29 -184 29c-198 0 -370.833 -71 -518.5 -213s-221.5 -317 -221.5 -525c0 -146 52 -271.167 156 -375.5s230.333 -156.5 379 -156.5c61.333 0 121 8.16699 179 24.5s106.833 36.166 146.5 59.499
s75.167 46.833 106.5 70.5s54.666 43.834 69.999 60.501l20 25l62 292h-369l22 103h471l-92 -430c-6.66699 -8 -16.167 -19 -28.5 -33s-39.333 -38.667 -81 -74s-85 -66.666 -130 -93.999s-103 -51.833 -174 -73.5s-142.5 -32.5 -214.5 -32.5
c-172 0 -319.833 62.333 -443.5 187s-185.5 271 -185.5 439zM1067 1700c56 0 103.5 16.667 142.5 50s63.833 78 74.5 134h82c-16.667 -78 -52.5 -141.833 -107.5 -191.5s-120.167 -74.5 -195.5 -74.5c-78 0 -139.833 25.667 -185.5 77s-60.167 114.333 -43.5 189h81
c-10.667 -56 -2 -100.667 26 -134s70 -50 126 -50z" />
    <glyph glyph-name="gbreve" unicode="&#x11f;" 
d="M629 911c-117.333 0 -219.833 -48.835 -307.5 -146.502s-131.5 -207.167 -131.5 -328.5c0 -88.667 29.5 -164.667 88.5 -228s128.5 -95 208.5 -95c106.667 0 208.167 48.833 304.5 146.5s144.5 209.834 144.5 336.501c0 88.667 -30.667 163.334 -92 224.001
s-133 91 -215 91zM831 60.998l34.9961 163.998c-4 -5.33301 -9.33301 -12.833 -16 -22.5s-22 -26 -46 -49s-50 -43.333 -78 -61s-64.167 -34.167 -108.5 -49.5s-90.5 -23 -138.5 -23c-102.667 0 -192.167 40.333 -268.5 121s-114.5 176.334 -114.5 287.001
c0 158.667 56.333 294.334 169 407.001s237.334 169 374.001 169c48 0 92.833 -7.16699 134.5 -21.5s74.667 -32.166 99 -53.499s45.833 -42.5 64.5 -63.5s31.334 -39.167 38.001 -54.5l12 -20l41 192h92l-196 -922c-31.333 -148.667 -98.666 -267.667 -201.999 -357
s-219.666 -134 -348.999 -134c-49.333 0 -95.833 7.16699 -139.5 21.5s-79.167 31.333 -106.5 51s-50.833 39.5 -70.5 59.5s-33.834 37.333 -42.501 52l-12 21l74 61c2.66699 -4 6.33398 -10.167 11.001 -18.5s15.834 -22.333 33.501 -42s37.5 -37.334 59.5 -53.001
s51.167 -29.667 87.5 -42s74.166 -18.5 113.499 -18.5c101.333 0 195.5 38.5 282.5 115.5s142.833 171.5 167.5 283.5zM708.996 1239c56 0 103.333 16.667 142 50s63.667 78 75 134h82c-16.667 -78 -52.667 -141.833 -108 -191.5s-120.333 -74.5 -195 -74.5
c-78 0 -139.833 25.667 -185.5 77s-60.5 114.333 -44.5 189h82c-10.667 -56 -2 -100.667 26 -134s70 -50 126 -50z" />
    <glyph glyph-name="uni0122" unicode="&#x122;" horiz-adv-x="1617" 
d="M164 606c0 144.667 37.5029 282.165 112.503 412.498s178.667 235.5 311 315.5s275.833 120 430.5 120c72.667 0 141.667 -10.5 207 -31.5s119.166 -46.667 161.499 -77s79.166 -60.5 110.499 -90.5s54 -55 68 -75l20 -33l-82 -60c-4 6.66699 -10 16.334 -18 29.001
s-26.833 34 -56.5 64s-61.5 56.5 -95.5 79.5s-80.333 44.167 -139 63.5s-120 29 -184 29c-198 0 -370.833 -71 -518.5 -213s-221.5 -317 -221.5 -525c0 -146 52 -271.167 156 -375.5s230.333 -156.5 379 -156.5c61.333 0 121 8.16699 179 24.5s106.833 36.166 146.5 59.499
s75.167 46.833 106.5 70.5s54.666 43.834 69.999 60.501l20 25l62 292h-369l22 103h471l-92 -430c-6.66699 -8 -16.167 -19 -28.5 -33s-39.333 -38.667 -81 -74s-85 -66.666 -130 -93.999s-103 -51.833 -174 -73.5s-142.5 -32.5 -214.5 -32.5
c-172 0 -319.833 62.333 -443.5 187s-185.5 271 -185.5 439zM549.003 -440.002l143 276h109l-180 -276h-72z" />
    <glyph glyph-name="uni0123" unicode="&#x123;" 
d="M889 1423l-146 -276h-108l180 276h74zM629 911c-117.333 0 -219.833 -48.835 -307.5 -146.502s-131.5 -207.167 -131.5 -328.5c0 -88.667 29.5 -164.667 88.5 -228s128.5 -95 208.5 -95c106.667 0 208.167 48.833 304.5 146.5s144.5 209.834 144.5 336.501
c0 88.667 -30.667 163.334 -92 224.001s-133 91 -215 91zM831 60.998l34.998 163.998c-4 -5.33301 -9.33301 -12.833 -16 -22.5s-22 -26 -46 -49s-50 -43.333 -78 -61s-64.167 -34.167 -108.5 -49.5s-90.5 -23 -138.5 -23c-102.667 0 -192.167 40.333 -268.5 121
s-114.5 176.334 -114.5 287.001c0 158.667 56.333 294.334 169 407.001s237.334 169 374.001 169c48 0 92.5 -7.66699 133.5 -23s73.667 -33.166 98 -53.499s45.833 -41 64.5 -62s31.334 -39.167 38.001 -54.5l10 -23l45 195h92l-196 -922
c-30 -139.333 -97.667 -256 -203 -350s-221.333 -141 -348 -141c-49.333 0 -95.833 7.16699 -139.5 21.5s-79.167 31.333 -106.5 51s-50.833 39.5 -70.5 59.5s-33.834 37.333 -42.501 52l-12 21l74 61c2.66699 -4 6.33398 -10.167 11.001 -18.5s15.834 -22.333 33.501 -42
s37.5 -37.334 59.5 -53.001s51.167 -29.667 87.5 -42s74.166 -18.5 113.499 -18.5c101.333 0 195.5 38.5 282.5 115.5s142.833 171.5 167.5 283.5z" />
    <glyph glyph-name="Imacron" unicode="&#x12a;" horiz-adv-x="552" 
d="M133 0l303 1434h103l-303 -1434h-103zM831 1802l-16 -82h-553l17 82h552z" />
    <glyph glyph-name="imacron" unicode="&#x12b;" horiz-adv-x="460" 
d="M82 0l209 983h92l-209 -983h-92zM674 1331l-17 -82h-553l17 82h553z" />
    <glyph glyph-name="Iogonek" unicode="&#x12e;" horiz-adv-x="552" 
d="M133 0l303.001 1434h103l-303 -1434h-31c-13.333 -9.33301 -30.333 -22.666 -51 -39.999s-48.5 -48.5 -83.5 -93.5s-52.5 -84.5 -52.5 -118.5c0 -24.667 8 -45.167 24 -61.5s39 -24.5 69 -24.5c18 0 37.833 2.33301 59.5 7s38.5 10 50.5 16l21 8l-17 -72
c-42 -20.667 -83.667 -31 -125 -31c-48 0 -85.833 14.333 -113.5 43s-41.5 63.667 -41.5 105c0 45.333 15.667 89.833 47 133.5s62.666 75.5 93.999 95.5z" />
    <glyph glyph-name="iogonek" unicode="&#x12f;" horiz-adv-x="460" 
d="M82 0l209.001 982.999h92l-209 -983h-20c-13.333 -9.33301 -30.333 -22.666 -51 -39.999s-48.5 -48.5 -83.5 -93.5s-52.5 -84.5 -52.5 -118.5c0 -24.667 7.83301 -45.167 23.5 -61.5s38.5 -24.5 68.5 -24.5c18 0 38 2.33301 60 7s39.667 10 53 16l18 8l-16 -72
c-42 -20.667 -83.667 -31 -125 -31c-48 0 -85.833 14.333 -113.5 43s-41.5 63.667 -41.5 105c0 45.333 15.667 89.833 47 133.5s62.666 75.5 93.999 95.5zM332.001 1321c0 20.667 7.5 39.5 22.5 56.5s32.833 25.5 53.5 25.5c22 0 39.333 -5.83301 52 -17.5
s19 -27.167 19 -46.5c0 -22 -8.16699 -40.667 -24.5 -56s-35.5 -23 -57.5 -23c-20.667 0 -36.667 5.66699 -48 17s-17 26 -17 44z" />
    <glyph glyph-name="Idotaccent" unicode="&#x130;" horiz-adv-x="552" 
d="M133 0l303 1434h103l-303 -1434h-103zM469 1751c0 20.667 7.5 39.5 22.5 56.5s32.833 25.5 53.5 25.5c22 0 39.333 -5.83301 52 -17.5s19 -27.167 19 -46.5c0 -22 -8.16699 -40.667 -24.5 -56s-35.166 -23 -56.499 -23c-20.667 0 -36.834 5.66699 -48.501 17
s-17.5 26 -17.5 44z" />
    <glyph glyph-name="dotlessi" unicode="&#x131;" horiz-adv-x="460" 
d="M82 0l209 983h92l-209 -983h-92z" />
    <glyph glyph-name="uni0136" unicode="&#x136;" horiz-adv-x="1341" 
d="M354 561l979 873h137l-667 -594l416 -840h-113l-381 768l-403 -358l-86 -410h-103l303 1434h103zM418 -440l143 276h109l-181 -276h-71z" />
    <glyph glyph-name="uni0137" unicode="&#x137;" horiz-adv-x="1024" 
d="M229 266l-55 -266h-92l303 1434h92l-217 -1028l660 577h129l-455 -399l297 -584h-103l-262 512h-14zM254 -440l143 276h109l-180 -276h-72z" />
    <glyph glyph-name="Lacute" unicode="&#x139;" horiz-adv-x="1146" 
d="M1004 0h-871l303 1434h103l-283 -1332h768zM483 1628l205 266h119l-240 -266h-84z" />
    <glyph glyph-name="lacute" unicode="&#x13a;" horiz-adv-x="460" 
d="M477 1434l-303 -1434h-92l303 1434h92zM428 1628l205 266h119l-240 -266h-84z" />
    <glyph glyph-name="uni013B" unicode="&#x13b;" horiz-adv-x="1146" 
d="M1004 0h-871l303 1434h103l-283 -1332h768zM375 -440l143 276h109l-181 -276h-71z" />
    <glyph glyph-name="uni013C" unicode="&#x13c;" horiz-adv-x="460" 
d="M477 1434l-303 -1434h-92l303 1434h92zM-92 -440l143 276h109l-180 -276h-72z" />
    <glyph glyph-name="Lcaron" unicode="&#x13d;" horiz-adv-x="1146" 
d="M1004 0h-871l303 1434h103l-283 -1332h768zM705 1157l145 277h108l-180 -277h-73z" />
    <glyph glyph-name="lcaron" unicode="&#x13e;" horiz-adv-x="540" 
d="M477 1434l-303 -1434h-92l303 1434h92zM569 1157l146 277h108l-180 -277h-74z" />
    <glyph glyph-name="Lslash" unicode="&#x141;" horiz-adv-x="1228" 
d="M1096 0h-871l129 614l-276 -143l-33 84l334 174l149 705h103l-137 -643l358 188l33 -88l-414 -215l-123 -574h768z" />
    <glyph glyph-name="lslash" unicode="&#x142;" horiz-adv-x="686" 
d="M590 1434l-127 -600l301 163l24 -77l-346 -185l-155 -735h-92l145 684l-301 -164l-27 78l346 184l140 652h92z" />
    <glyph glyph-name="Nacute" unicode="&#x143;" horiz-adv-x="1587" 
d="M1470 1434h103l-303 -1434h-74l-698 1239l-262 -1239h-103l303 1434h74l698 -1239zM973 1628l205 266h118l-239 -266h-84z" />
    <glyph glyph-name="nacute" unicode="&#x144;" horiz-adv-x="1177" 
d="M383 983l-39.001 -173.997c2.66699 5.33301 7.16699 12.5 13.5 21.5s20.333 24.333 42 46s45.167 41.167 70.5 58.5s58.833 33.166 100.5 47.499s85.5 21.5 131.5 21.5c98 0 179.5 -30.5 244.5 -91.5s97.5 -139.833 97.5 -236.5c0 -24.667 -3.33301 -55.334 -10 -92.001
l-123 -584h-92l123 584c5.33301 23.333 8 48.333 8 75c0 75.333 -24.167 136.166 -72.5 182.499s-110.166 69.5 -185.499 69.5c-92.667 0 -177.167 -34 -253.5 -102s-125.5 -153.333 -147.5 -256l-117 -553h-92l209 983h92zM667.999 1157l204 266h119l-239 -266h-84z" />
    <glyph glyph-name="uni0145" unicode="&#x145;" horiz-adv-x="1587" 
d="M1470 1434h103l-303 -1434h-74l-698 1239l-262 -1239h-103l303 1434h74l698 -1239zM496 -440l143 276h109l-181 -276h-71z" />
    <glyph glyph-name="uni0146" unicode="&#x146;" horiz-adv-x="1177" 
d="M383 983l-39.001 -173.997c2.66699 5.33301 7.16699 12.5 13.5 21.5s20.333 24.333 42 46s45.167 41.167 70.5 58.5s58.833 33.166 100.5 47.499s85.5 21.5 131.5 21.5c98 0 179.5 -30.5 244.5 -91.5s97.5 -139.833 97.5 -236.5c0 -24.667 -3.33301 -55.334 -10 -92.001
l-123 -584h-92l123 584c5.33301 23.333 8 48.333 8 75c0 75.333 -24.167 136.166 -72.5 182.499s-110.166 69.5 -185.499 69.5c-92.667 0 -177.167 -34 -253.5 -102s-125.5 -153.333 -147.5 -256l-117 -553h-92l209 983h92zM290.999 -439.997l143 276h109l-181 -276h-71z
" />
    <glyph glyph-name="Ncaron" unicode="&#x147;" horiz-adv-x="1587" 
d="M1470 1434h103l-303 -1434h-74l-698 1239l-262 -1239h-103l303 1434h74l698 -1239zM1346 1884l-271 -266h-102l-160 266h88l131 -205l217 205h97z" />
    <glyph glyph-name="ncaron" unicode="&#x148;" horiz-adv-x="1177" 
d="M383 983l-39.001 -173.997c2.66699 5.33301 7.16699 12.5 13.5 21.5s20.333 24.333 42 46s45.167 41.167 70.5 58.5s58.833 33.166 100.5 47.499s85.5 21.5 131.5 21.5c98 0 179.5 -30.5 244.5 -91.5s97.5 -139.833 97.5 -236.5c0 -24.667 -3.33301 -55.334 -10 -92.001
l-123 -584h-92l123 584c5.33301 23.333 8 48.333 8 75c0 75.333 -24.167 136.166 -72.5 182.499s-110.166 69.5 -185.499 69.5c-92.667 0 -177.167 -34 -253.5 -102s-125.5 -153.333 -147.5 -256l-117 -553h-92l209 983h92zM1038 1423l-270 -266h-102l-160 266h88l131 -204
l217 204h96z" />
    <glyph glyph-name="Omacron" unicode="&#x14c;" horiz-adv-x="1699" 
d="M842 80c186 0 350.168 73 492.501 219s213.5 314 213.5 504c0 157.333 -53.833 288.833 -161.5 394.5s-244.834 158.5 -411.501 158.5c-182.667 0 -346.167 -71 -490.5 -213s-216.5 -310.667 -216.5 -506c0 -158.667 54 -291.167 162 -397.5s245.333 -159.5 412 -159.5z
M1651 807c0 -136.667 -36.8311 -268.5 -110.498 -395.5s-174.334 -230.667 -302.001 -311s-264.167 -120.5 -409.5 -120.5c-192.667 0 -351.667 62.333 -477 187s-188 278.667 -188 462c0 222.667 84.667 416.167 254 580.5s359.666 246.5 570.999 246.5
c191.333 0 349.5 -62.833 474.5 -188.5s187.5 -279.167 187.5 -460.5zM1372 1802l-16 -82h-553l16 82h553z" />
    <glyph glyph-name="omacron" unicode="&#x14d;" horiz-adv-x="1187" 
d="M92 428c0 144.667 56 276.334 168 395.001s243.667 178 395 178c126.667 0 232.5 -43.333 317.5 -130s127.5 -193.334 127.5 -320.001c0 -155.333 -58.667 -289.333 -176 -402s-248 -169 -392 -169c-125.333 0 -230 43.333 -314 130s-126 192.667 -126 318zM545 70
c118.667 0 225.5 48.332 320.5 144.999s142.5 206.667 142.5 330c0 102.667 -34.5 189.334 -103.5 260.001s-154.833 106 -257.5 106c-116 0 -221.833 -47 -317.5 -141s-143.5 -205.333 -143.5 -334c0 -104 34.167 -191 102.5 -261s153.833 -105 256.5 -105zM1026 1331
l-16 -82h-553l16 82h553z" />
    <glyph glyph-name="Ohungarumlaut" unicode="&#x150;" horiz-adv-x="1699" 
d="M842 80c186 0 350.168 73 492.501 219s213.5 314 213.5 504c0 157.333 -53.833 288.833 -161.5 394.5s-244.834 158.5 -411.501 158.5c-182.667 0 -346.167 -71 -490.5 -213s-216.5 -310.667 -216.5 -506c0 -158.667 54 -291.167 162 -397.5s245.333 -159.5 412 -159.5z
M1651 807c0 -136.667 -36.8311 -268.5 -110.498 -395.5s-174.334 -230.667 -302.001 -311s-264.167 -120.5 -409.5 -120.5c-192.667 0 -351.667 62.333 -477 187s-188 278.667 -188 462c0 222.667 84.667 416.167 254 580.5s359.666 246.5 570.999 246.5
c191.333 0 349.5 -62.833 474.5 -188.5s187.5 -279.167 187.5 -460.5zM866.003 1618l205 266h119l-240 -266h-84zM1163 1618l205 266h119l-240 -266h-84z" />
    <glyph glyph-name="ohungarumlaut" unicode="&#x151;" horiz-adv-x="1187" 
d="M92 428c0 144.667 56 276.334 168 395.001s243.667 178 395 178c126.667 0 232.5 -43.333 317.5 -130s127.5 -193.334 127.5 -320.001c0 -155.333 -58.667 -289.333 -176 -402s-248 -169 -392 -169c-125.333 0 -230 43.333 -314 130s-126 192.667 -126 318zM545 70
c118.667 0 225.5 48.332 320.5 144.999s142.5 206.667 142.5 330c0 102.667 -34.5 189.334 -103.5 260.001s-154.833 106 -257.5 106c-116 0 -221.833 -47 -317.5 -141s-143.5 -205.333 -143.5 -334c0 -104 34.167 -191 102.5 -261s153.833 -105 256.5 -105zM498 1157
l204 266h119l-239 -266h-84zM795 1157l204 266h119l-239 -266h-84z" />
    <glyph glyph-name="OE" unicode="&#x152;" horiz-adv-x="2027" 
d="M1096 102h778.001l-21 -102h-1054c-178.667 0 -328.834 59.333 -450.501 178s-182.5 260.667 -182.5 426c0 230.667 86.333 426.667 259 588s377.667 242 615 242h1096l-20 -103h-758l-115 -532h594l-20 -103h-594zM1030 1331
c-203.333 0 -380.833 -68.834 -532.5 -206.501s-227.5 -308.5 -227.5 -512.5c0 -143.333 50.5 -264.166 151.5 -362.499s230.167 -147.5 387.5 -147.5h184l262 1229h-225z" />
    <glyph glyph-name="oe" unicode="&#x153;" horiz-adv-x="1925" 
d="M1329 72c64 0 123.671 14.6631 179.004 43.9961s94.666 58.333 117.999 87l37 43l55 -62c-4 -5.33301 -9.66699 -12.833 -17 -22.5s-23.666 -26 -48.999 -49s-52.333 -43.333 -81 -61s-65.834 -34 -111.501 -49s-92.5 -22.5 -140.5 -22.5
c-83.333 0 -158.833 28.333 -226.5 85s-113.834 129.334 -138.501 218.001c-50.667 -91.333 -118.5 -164.666 -203.5 -219.999s-172.167 -83 -261.5 -83c-102.667 0 -192.834 41.833 -270.501 125.5s-116.5 182.834 -116.5 297.501c0 164 58.167 305.167 174.5 423.5
s243.833 177.5 382.5 177.5c83.333 0 158.5 -28.833 225.5 -86.5s111.5 -131.5 133.5 -221.5c50.667 92.667 119 167.167 205 223.5s171.333 84.5 256 84.5c100 0 184.667 -36.333 254 -109s104 -167 104 -283c0 -48 -4 -88 -12 -120l-10 -41h-789v-25
c0 -87.333 28.667 -168.166 86 -242.499s129.666 -111.5 216.999 -111.5zM651.004 910.996c-116 0 -220.667 -52.501 -314 -157.501s-140 -217.5 -140 -337.5c0 -87.333 28.333 -166.5 85 -237.5s129.334 -106.5 218.001 -106.5c108 0 210.667 48.333 308 145
s146 211.334 146 344.001c0 94 -30.333 175.833 -91 245.5s-131.334 104.5 -212.001 104.5zM1468 910.995c-96.667 0 -185.334 -36.167 -266.001 -108.5s-134.667 -158.833 -162 -259.5h703c2.66699 15.333 4 36.333 4 63c0 90 -26.667 163.333 -80 220
s-119.666 85 -198.999 85z" />
    <glyph glyph-name="Racute" unicode="&#x154;" horiz-adv-x="1351" 
d="M436 1434l522 0.000976562c110.667 0 202.167 -34.167 274.5 -102.5s108.5 -151.833 108.5 -250.5c0 -114.667 -39.5 -214.334 -118.5 -299.001s-177.167 -140.667 -294.5 -168l219 -614h-109l-211 594h-467l-124 -594h-103zM948 1331l-430.001 0.000976562l-135 -635
h434c114.667 0 213.334 36.167 296.001 108.5s124 163.166 124 272.499c0 74 -26.333 134.833 -79 182.5s-122.667 71.5 -210 71.5zM857.999 1628l205 266h119l-240 -266h-84z" />
    <glyph glyph-name="racute" unicode="&#x155;" horiz-adv-x="696" 
d="M776 1004l-20 -92.999h-41c-95.333 0 -184.333 -33.333 -267 -100s-135 -152.667 -157 -258l-117 -553h-92l209 983h92l-35 -164c4 5.33301 9.5 12.166 16.5 20.499s22.333 23 46 44s49.5 39.833 77.5 56.5s64.333 31.5 109 44.5s90.667 19.5 138 19.5h41zM504 1157
l205 266h118l-239 -266h-84z" />
    <glyph glyph-name="uni0156" unicode="&#x156;" horiz-adv-x="1351" 
d="M436 1434l522 0.000976562c110.667 0 202.167 -34.167 274.5 -102.5s108.5 -151.833 108.5 -250.5c0 -114.667 -39.5 -214.334 -118.5 -299.001s-177.167 -140.667 -294.5 -168l219 -614h-109l-211 594h-467l-124 -594h-103zM948 1331l-430.001 0.000976562l-135 -635
h434c114.667 0 213.334 36.167 296.001 108.5s124 163.166 124 272.499c0 74 -26.333 134.833 -79 182.5s-122.667 71.5 -210 71.5zM437.999 -439.998l144 276h108l-180 -276h-72z" />
    <glyph glyph-name="uni0157" unicode="&#x157;" horiz-adv-x="696" 
d="M776 1004l-20 -92.999h-41c-95.333 0 -184.333 -33.333 -267 -100s-135 -152.667 -157 -258l-117 -553h-92l209 983h92l-35 -164c4 5.33301 9.5 12.166 16.5 20.499s22.333 23 46 44s49.5 39.833 77.5 56.5s64.333 31.5 109 44.5s90.667 19.5 138 19.5h41zM-92 -439.999
l143 276h109l-180 -276h-72z" />
    <glyph glyph-name="Rcaron" unicode="&#x158;" horiz-adv-x="1351" 
d="M436 1434l522 0.000976562c110.667 0 202.167 -34.167 274.5 -102.5s108.5 -151.833 108.5 -250.5c0 -114.667 -39.5 -214.334 -118.5 -299.001s-177.167 -140.667 -294.5 -168l219 -614h-109l-211 594h-467l-124 -594h-103zM948 1331l-430.001 0.000976562l-135 -635
h434c114.667 0 213.334 36.167 296.001 108.5s124 163.166 124 272.499c0 74 -26.333 134.833 -79 182.5s-122.667 71.5 -210 71.5zM1217 1884l-271 -266h-102l-160 266h88l131 -205l217 205h97z" />
    <glyph glyph-name="rcaron" unicode="&#x159;" horiz-adv-x="696" 
d="M776 1004l-20 -92.999h-41c-95.333 0 -184.333 -33.333 -267 -100s-135 -152.667 -157 -258l-117 -553h-92l209 983h92l-35 -164c4 5.33301 9.5 12.166 16.5 20.499s22.333 23 46 44s49.5 39.833 77.5 56.5s64.333 31.5 109 44.5s90.667 19.5 138 19.5h41zM887 1423
l-271 -266h-102l-160 266h88l131 -204l218 204h96z" />
    <glyph glyph-name="Sacute" unicode="&#x15a;" horiz-adv-x="1146" 
d="M516 82c69.333 0 134.165 10.834 194.498 32.501s111.333 58.5 153 110.5s62.5 115 62.5 189c0 56 -23 104 -69 144s-101.667 73 -167 99s-130.833 53.667 -196.5 83s-121.334 68.666 -167.001 117.999s-68.5 108 -68.5 176c0 121.333 45 221.666 135 300.999
s211.667 119 365 119c49.333 0 97.5 -6.16699 144.5 -18.5s85.833 -26.666 116.5 -42.999s58.334 -33 83.001 -50s42.334 -31.833 53.001 -44.5l16 -18l-84 -70c-2.66699 4 -7 9.16699 -13 15.5s-19.667 17.666 -41 33.999s-43.833 30.666 -67.5 42.999
s-55 23.666 -94 33.999s-79.5 15.5 -121.5 15.5c-120 0 -214.167 -28.333 -282.5 -85s-102.5 -130 -102.5 -220c0 -56 22.833 -104.167 68.5 -144.5s100.834 -73.5 165.501 -99.5s129.834 -53.667 195.501 -83s121.334 -68.666 167.001 -117.999s68.5 -108 68.5 -176
c0 -132.667 -47.5 -240.167 -142.5 -322.5s-222.167 -123.5 -381.5 -123.5c-58.667 0 -115 7.5 -169 22.5s-98 32.667 -132 53s-64 41.166 -90 62.499s-45.333 39.333 -58 54l-16 23l84 69c2.66699 -5.33301 7 -12.166 13 -20.499s20.667 -22.666 44 -42.999
s48.666 -38.666 75.999 -54.999s64.166 -31 110.499 -44s95.5 -19.5 147.5 -19.5zM744.999 1628l205 266h119l-240 -266h-84z" />
    <glyph glyph-name="sacute" unicode="&#x15b;" horiz-adv-x="880" 
d="M827 860l-81.9951 -67.0049c-6.66699 8 -15.834 18.833 -27.501 32.5s-38.334 31.334 -80.001 53.001s-84.834 32.5 -129.501 32.5c-75.333 0 -134.833 -17.667 -178.5 -53s-65.5 -79 -65.5 -131c0 -40.667 25 -77.167 75 -109.5s104.333 -58 163 -77
s112.834 -49 162.501 -90s74.5 -90.833 74.5 -149.5c0 -94 -34.833 -171 -104.5 -231s-162.5 -90 -278.5 -90c-42 0 -82.5 5.33301 -121.5 16s-71.833 24.167 -98.5 40.5s-49.834 32.833 -69.501 49.5s-34.167 30.334 -43.5 41.001l-15 16l82 68
c8 -10.667 19.5 -23.5 34.5 -38.5s46.833 -35.5 95.5 -61.5s99 -39 151 -39c86 0 153.167 20.167 201.5 60.5s72.5 92.5 72.5 156.5c0 35.333 -16.333 66.333 -49 93s-72.167 49.167 -118.5 67.5s-92.833 37.833 -139.5 58.5s-86.334 48.334 -119.001 83.001
s-49 75.334 -49 122.001c0 76.667 33.167 144.334 99.5 203.001s150.5 88 252.5 88c57.333 0 111.666 -12 162.999 -36s88 -47.667 110 -71zM492.005 1157l204 266h119l-240 -266h-83z" />
    <glyph glyph-name="Scedilla" unicode="&#x15e;" horiz-adv-x="1146" 
d="M516 82c69.333 0 134.163 10.833 194.496 32.5s111.333 58.5 153 110.5s62.5 115 62.5 189c0 56 -23 104 -69 144s-101.667 73 -167 99s-130.833 53.667 -196.5 83s-121.334 68.666 -167.001 117.999s-68.5 108 -68.5 176c0 121.333 45 221.666 135 300.999
s211.667 119 365 119c49.333 0 97.5 -6.16699 144.5 -18.5s85.833 -26.666 116.5 -42.999s58.334 -33 83.001 -50s42.334 -31.833 53.001 -44.5l16 -18l-84 -70c-2.66699 4 -7 9.16699 -13 15.5s-19.667 17.666 -41 33.999s-43.833 30.666 -67.5 42.999
s-55 23.666 -94 33.999s-79.5 15.5 -121.5 15.5c-120 0 -214.167 -28.333 -282.5 -85s-102.5 -130 -102.5 -220c0 -56 22.833 -104.167 68.5 -144.5s100.834 -73.5 165.501 -99.5s129.834 -53.667 195.501 -83s121.334 -68.666 167.001 -117.999s68.5 -108 68.5 -176
c0 -132.667 -47.5 -240.167 -142.5 -322.5s-222.167 -123.5 -381.5 -123.5h-10l-72 -101c10.667 5.33301 29 8 55 8c34 0 61.333 -12.5 82 -37.5s31 -54.833 31 -89.5c0 -49.333 -18.5 -90 -55.5 -122s-86.167 -48 -147.5 -48c-27.333 0 -54.666 4.83301 -81.999 14.5
s-47.666 18.5 -60.999 26.5l-23 15l41 55c39.333 -32.667 83 -49 131 -49c38 0 68.333 9.83301 91 29.5s34 44.5 34 74.5c0 19.333 -7.16699 35.833 -21.5 49.5s-30.833 20.5 -49.5 20.5c-12 0 -24 -1.66699 -36 -5s-21.333 -6.33301 -28 -9l-8 -7l-39 52l90 127
c-49.333 5.33301 -96.5 16.5 -141.5 33.5s-81.833 35 -110.5 54s-53.5 38.167 -74.5 57.5s-36.5 35 -46.5 47l-14 19l84 69c2.66699 -5.33301 7 -12.166 13 -20.499s20.667 -22.666 44 -42.999s48.666 -38.666 75.999 -54.999s64.166 -31 110.499 -44
s95.5 -19.5 147.5 -19.5z" />
    <glyph glyph-name="scedilla" unicode="&#x15f;" horiz-adv-x="880" 
d="M827 860l-81.998 -67.0039c-6.66699 8 -15.834 18.833 -27.501 32.5s-38.334 31.334 -80.001 53.001s-84.834 32.5 -129.501 32.5c-75.333 0 -134.833 -17.667 -178.5 -53s-65.5 -79 -65.5 -131c0 -40.667 25 -77.167 75 -109.5s104.333 -58 163 -77
s112.834 -49 162.501 -90s74.5 -90.833 74.5 -149.5c0 -94 -34.833 -171 -104.5 -231s-162.5 -90 -278.5 -90h-4l-71 -101c10.667 5.33301 29 8 55 8c34 0 61.333 -12.5 82 -37.5s31 -54.833 31 -89.5c0 -49.333 -18.5 -90 -55.5 -122s-86.167 -48 -147.5 -48
c-27.333 0 -55 4.83301 -83 14.5s-49 18.5 -63 26.5l-20 15l41 55c39.333 -32.667 83 -49 131 -49c38 0 68.333 9.83301 91 29.5s34 44.5 34 74.5c0 19.333 -7.16699 35.833 -21.5 49.5s-31.166 20.5 -50.499 20.5c-12 0 -23.833 -1.66699 -35.5 -5
s-20.834 -6.33301 -27.501 -9l-9 -7l-38 52l90 129c-53.333 8 -103.166 25 -149.499 51s-79.166 50.667 -98.499 74l-29 32l82 68c8 -10.667 19.5 -23.5 34.5 -38.5s46.833 -35.5 95.5 -61.5s99 -39 151 -39c86 0 153.167 20.167 201.5 60.5s72.5 92.5 72.5 156.5
c0 35.333 -16.333 66.333 -49 93s-72.167 49.167 -118.5 67.5s-92.833 37.833 -139.5 58.5s-86.334 48.334 -119.001 83.001s-49 75.334 -49 122.001c0 76.667 33.167 144.334 99.5 203.001s150.5 88 252.5 88c57.333 0 111.666 -12 162.999 -36s88 -47.667 110 -71z" />
    <glyph glyph-name="Scaron" unicode="&#x160;" horiz-adv-x="1146" 
d="M516 82c69.333 0 134.165 10.834 194.498 32.501s111.333 58.5 153 110.5s62.5 115 62.5 189c0 56 -23 104 -69 144s-101.667 73 -167 99s-130.833 53.667 -196.5 83s-121.334 68.666 -167.001 117.999s-68.5 108 -68.5 176c0 121.333 45 221.666 135 300.999
s211.667 119 365 119c49.333 0 97.5 -6.16699 144.5 -18.5s85.833 -26.666 116.5 -42.999s58.334 -33 83.001 -50s42.334 -31.833 53.001 -44.5l16 -18l-84 -70c-2.66699 4 -7 9.16699 -13 15.5s-19.667 17.666 -41 33.999s-43.833 30.666 -67.5 42.999
s-55 23.666 -94 33.999s-79.5 15.5 -121.5 15.5c-120 0 -214.167 -28.333 -282.5 -85s-102.5 -130 -102.5 -220c0 -56 22.833 -104.167 68.5 -144.5s100.834 -73.5 165.501 -99.5s129.834 -53.667 195.501 -83s121.334 -68.666 167.001 -117.999s68.5 -108 68.5 -176
c0 -132.667 -47.5 -240.167 -142.5 -322.5s-222.167 -123.5 -381.5 -123.5c-58.667 0 -115 7.5 -169 22.5s-98 32.667 -132 53s-64 41.166 -90 62.499s-45.333 39.333 -58 54l-16 23l84 69c2.66699 -5.33301 7 -12.166 13 -20.499s20.667 -22.666 44 -42.999
s48.666 -38.666 75.999 -54.999s64.166 -31 110.499 -44s95.5 -19.5 147.5 -19.5zM1114 1884l-270 -266h-103l-159 266h88l131 -205l217 205h96z" />
    <glyph glyph-name="scaron" unicode="&#x161;" horiz-adv-x="880" 
d="M827 860l-81.9951 -67.0049c-6.66699 8 -15.834 18.833 -27.501 32.5s-38.334 31.334 -80.001 53.001s-84.834 32.5 -129.501 32.5c-75.333 0 -134.833 -17.667 -178.5 -53s-65.5 -79 -65.5 -131c0 -40.667 25 -77.167 75 -109.5s104.333 -58 163 -77
s112.834 -49 162.501 -90s74.5 -90.833 74.5 -149.5c0 -94 -34.833 -171 -104.5 -231s-162.5 -90 -278.5 -90c-42 0 -82.5 5.33301 -121.5 16s-71.833 24.167 -98.5 40.5s-49.834 32.833 -69.501 49.5s-34.167 30.334 -43.5 41.001l-15 16l82 68
c8 -10.667 19.5 -23.5 34.5 -38.5s46.833 -35.5 95.5 -61.5s99 -39 151 -39c86 0 153.167 20.167 201.5 60.5s72.5 92.5 72.5 156.5c0 35.333 -16.333 66.333 -49 93s-72.167 49.167 -118.5 67.5s-92.833 37.833 -139.5 58.5s-86.334 48.334 -119.001 83.001
s-49 75.334 -49 122.001c0 76.667 33.167 144.334 99.5 203.001s150.5 88 252.5 88c57.333 0 111.666 -12 162.999 -36s88 -47.667 110 -71zM864.005 1423l-270 -266h-102l-160 266h88l131 -204l217 204h96z" />
    <glyph glyph-name="uni0162" unicode="&#x162;" horiz-adv-x="1126" 
d="M252 1434h1044l-20 -103h-471l-283 -1331h-102l282 1331h-471zM238 -440l143 276h108l-180 -276h-71z" />
    <glyph glyph-name="uni0163" unicode="&#x163;" horiz-adv-x="716" 
d="M389 1065l53 246.001h82l-69 -328h225l-21 -92h-225l-137 -645c-12 -54.667 -7.16699 -97.334 14.5 -128.001s55.834 -46 102.501 -46c22 0 44.5 2.33301 67.5 7s40.833 9.66699 53.5 15l18 8l-18 -92c-46.667 -20.667 -94 -30.667 -142 -30
c-78 0 -133.333 22.833 -166 68.5s-40 111.5 -22 197.5l137 645h-195l21 92h133c20.667 0 39.167 7.5 55.5 22.5s27.166 34.833 32.499 59.5zM109 -439.999l143 276h108l-180 -276h-71z" />
    <glyph glyph-name="Tcaron" unicode="&#x164;" horiz-adv-x="1126" 
d="M252 1434h1044l-20 -103h-471l-283 -1331h-102l282 1331h-471zM1120 1884l-270 -266h-102l-160 266h88l131 -205l217 205h96z" />
    <glyph glyph-name="tcaron" unicode="&#x165;" horiz-adv-x="733" 
d="M389 1065l53 246.001h82l-69 -328h225l-21 -92h-225l-137 -645c-12 -54.667 -7.16699 -97.334 14.5 -128.001s55.834 -46 102.501 -46c22 0 44.5 2.33301 67.5 7s40.833 9.66699 53.5 15l18 8l-18 -92c-46.667 -20.667 -94 -30.667 -142 -30
c-78 0 -133.333 22.833 -166 68.5s-40 111.5 -22 197.5l137 645h-195l21 92h133c20.667 0 39.167 7.5 55.5 22.5s27.166 34.833 32.499 59.5zM762 1157l145 277h109l-180 -277h-74z" />
    <glyph glyph-name="Umacron" unicode="&#x16a;" horiz-adv-x="1536" 
d="M723 82c126.667 0 239.499 44.6689 338.499 134.002s162.833 201.666 191.5 336.999l187 881h102l-186 -881c-35.333 -170.667 -113.166 -308.834 -233.499 -414.501s-257.5 -158.5 -411.5 -158.5c-138 0 -254.833 44.667 -350.5 134s-143.5 200 -143.5 332
c0 34 4 69.667 12 107l187 881h102l-186 -881c-6.66699 -36.667 -10 -68 -10 -94c0 -109.333 38.5 -199.5 115.5 -270.5s172.167 -106.5 285.5 -106.5zM1317 1802l-17 -82h-552l16 82h553z" />
    <glyph glyph-name="umacron" unicode="&#x16b;" 
d="M819 0l37.001 171.993c-2.66699 -5.33301 -7 -12.166 -13 -20.499s-20 -23.666 -42 -45.999s-45.333 -42.166 -70 -59.499s-57.834 -32.666 -99.501 -45.999s-85.5 -20 -131.5 -20c-100 0 -182.333 30.333 -247 91s-97 139.334 -97 236.001
c0 24.667 3.33301 55.334 10 92.001l125 584h92l-125 -584c-5.33301 -23.333 -8 -48.333 -8 -75c0 -75.333 24.167 -136.166 72.5 -182.499s110.833 -69.5 187.5 -69.5c91.333 0 174.833 34 250.5 102s125.167 153.333 148.5 256l119 553h92l-209 -983h-92zM1016 1330.99
l-17 -82h-553l17 82h553z" />
    <glyph glyph-name="Uring" unicode="&#x16e;" horiz-adv-x="1536" 
d="M723 82c126.667 0 239.499 44.6689 338.499 134.002s162.833 201.666 191.5 336.999l187 881h102l-186 -881c-35.333 -170.667 -113.166 -308.834 -233.499 -414.501s-257.5 -158.5 -411.5 -158.5c-138 0 -254.833 44.667 -350.5 134s-143.5 200 -143.5 332
c0 34 4 69.667 12 107l187 881h102l-186 -881c-6.66699 -36.667 -10 -68 -10 -94c0 -109.333 38.5 -199.5 115.5 -270.5s172.167 -106.5 285.5 -106.5zM1034 1894c-34 0 -62.999 -13.168 -86.999 -39.501s-36 -58.166 -36 -95.499c0 -28.667 9.66699 -51.167 29 -67.5
s46.666 -24.5 81.999 -24.5c34 0 63.333 12.333 88 37s37 56.667 37 96c0 62.667 -37.667 94 -113 94zM1229 1808c0 -58.667 -20.833 -110.168 -62.5 -154.501s-93.167 -66.5 -154.5 -66.5c-54.667 0 -98.834 15.333 -132.501 46s-50.5 70.667 -50.5 120
c0 62.667 21.5 115.5 64.5 158.5s94.833 64.5 155.5 64.5c54.667 0 98.334 -15.667 131.001 -47s49 -71.666 49 -120.999z" />
    <glyph glyph-name="uring" unicode="&#x16f;" 
d="M819 0l37.001 171.993c-2.66699 -5.33301 -7 -12.166 -13 -20.499s-20 -23.666 -42 -45.999s-45.333 -42.166 -70 -59.499s-57.834 -32.666 -99.501 -45.999s-85.5 -20 -131.5 -20c-100 0 -182.333 30.333 -247 91s-97 139.334 -97 236.001
c0 24.667 3.33301 55.334 10 92.001l125 584h92l-125 -584c-5.33301 -23.333 -8 -48.333 -8 -75c0 -75.333 24.167 -136.166 72.5 -182.499s110.833 -69.5 187.5 -69.5c91.333 0 174.833 34 250.5 102s125.167 153.333 148.5 256l119 553h92l-209 -983h-92zM748.001 1422.99
c-34 0 -63.001 -13.332 -87.001 -39.999s-36 -58.334 -36 -95.001c0 -28.667 9.5 -51.167 28.5 -67.5s46.167 -24.5 81.5 -24.5c34 0 63.333 12.333 88 37s37 56.667 37 96c0.666992 62.667 -36.666 94 -111.999 94zM942 1336.99
c0 -58.667 -20.834 -110.168 -62.501 -154.501s-93.167 -66.5 -154.5 -66.5c-54.667 0 -98.667 15.333 -132 46s-50 70.667 -50 120c0 62.667 21.5 115.5 64.5 158.5s94.5 64.5 154.5 64.5c54.667 0 98.334 -15.667 131.001 -47s49 -71.666 49 -120.999z" />
    <glyph glyph-name="Uhungarumlaut" unicode="&#x170;" horiz-adv-x="1536" 
d="M723 82c126.667 0 239.499 44.6689 338.499 134.002s162.833 201.666 191.5 336.999l187 881h102l-186 -881c-35.333 -170.667 -113.166 -308.834 -233.499 -414.501s-257.5 -158.5 -411.5 -158.5c-138 0 -254.833 44.667 -350.5 134s-143.5 200 -143.5 332
c0 34 4 69.667 12 107l187 881h102l-186 -881c-6.66699 -36.667 -10 -68 -10 -94c0 -109.333 38.5 -199.5 115.5 -270.5s172.167 -106.5 285.5 -106.5zM792.999 1618l204 266h119l-239 -266h-84zM1090 1618l204 266h119l-239 -266h-84z" />
    <glyph glyph-name="uhungarumlaut" unicode="&#x171;" 
d="M819 0l37.001 171.993c-2.66699 -5.33301 -7 -12.166 -13 -20.499s-20 -23.666 -42 -45.999s-45.333 -42.166 -70 -59.499s-57.834 -32.666 -99.501 -45.999s-85.5 -20 -131.5 -20c-100 0 -182.333 30.333 -247 91s-97 139.334 -97 236.001
c0 24.667 3.33301 55.334 10 92.001l125 584h92l-125 -584c-5.33301 -23.333 -8 -48.333 -8 -75c0 -75.333 24.167 -136.166 72.5 -182.499s110.833 -69.5 187.5 -69.5c91.333 0 174.833 34 250.5 102s125.167 153.333 148.5 256l119 553h92l-209 -983h-92zM508.001 1146.99
l205 266h118l-239 -266h-84zM805.001 1146.99l205 266h118l-239 -266h-84z" />
    <glyph glyph-name="Uogonek" unicode="&#x172;" horiz-adv-x="1536" 
d="M723 82c126.667 0 239.499 44.668 338.499 134.001s162.833 201.666 191.5 336.999l187 881h102l-186 -881c-32.667 -155.333 -106.667 -287.333 -222 -396s-245.666 -167 -390.999 -175c-108 -90 -161.667 -168 -161 -234c0 -24.667 7.83301 -45.167 23.5 -61.5
s38.5 -24.5 68.5 -24.5c18 0 37.833 2.33301 59.5 7s39.167 10 52.5 16l19 8l-17 -72c-42 -20.667 -83.333 -31 -124 -31c-48 0 -86 14.333 -114 43s-42 63.667 -42 105c0 86 52.667 167.333 158 244c-126.667 9.33301 -233.167 58 -319.5 146s-129.5 194 -129.5 318
c0 34 4 69.667 12 107l187 881h102l-186 -881c-6.66699 -36.667 -10 -68 -10 -94c0 -109.333 38.5 -199.5 115.5 -270.5s172.167 -106.5 285.5 -106.5z" />
    <glyph glyph-name="uogonek" unicode="&#x173;" 
d="M819 0l37.0029 171.992c-2.66699 -5.33301 -7 -12.166 -13 -20.499s-20 -23.666 -42 -45.999s-45.333 -42.166 -70 -59.499s-57.834 -32.666 -99.501 -45.999s-85.5 -20 -131.5 -20c-100 0 -182.333 30.333 -247 91s-97 139.334 -97 236.001
c0 24.667 3.33301 55.334 10 92.001l125 584h92l-125 -584c-5.33301 -23.333 -8 -48.333 -8 -75c0 -75.333 24.167 -136.166 72.5 -182.499s110.833 -69.5 187.5 -69.5c91.333 0 174.833 34 250.5 102s125.167 153.333 148.5 256l119 553h92l-209 -983h-20
c-13.333 -9.33301 -30.333 -22.666 -51 -39.999s-48.334 -48.5 -83.001 -93.5s-52 -84.5 -52 -118.5c0 -24.667 7.83301 -45.167 23.5 -61.5s38.5 -24.5 68.5 -24.5c18 0 37.833 2.33301 59.5 7s39.167 10 52.5 16l19 8l-17 -72c-42 -20.667 -83.667 -31 -125 -31
c-48 0 -85.833 14.333 -113.5 43s-41.5 63.667 -41.5 105c0 45.333 15.667 89.833 47 133.5s62.666 75.5 93.999 95.5z" />
    <glyph glyph-name="Ydieresis" unicode="&#x178;" horiz-adv-x="1249" 
d="M360 1434l287 -820l635 820h127l-729 -932l-107 -502h-102l107 502l-336 932h118zM610 1743c0 20.667 7.50098 39.5 22.501 56.5s32.833 25.5 53.5 25.5c22 0 39.5 -5.83301 52.5 -17.5s19.5 -27.167 19.5 -46.5c0 -22 -8.16699 -40.833 -24.5 -56.5
s-35.5 -23.5 -57.5 -23.5c-20.667 0 -36.834 5.83301 -48.501 17.5s-17.5 26.5 -17.5 44.5zM969.001 1743c0 20.667 7.5 39.5 22.5 56.5s32.5 25.5 52.5 25.5c22 0 39.5 -5.83301 52.5 -17.5s19.5 -27.167 19.5 -46.5c0 -22 -8.16699 -40.833 -24.5 -56.5
s-35.5 -23.5 -57.5 -23.5c-20.667 0 -36.667 5.83301 -48 17.5s-17 26.5 -17 44.5z" />
    <glyph glyph-name="Zacute" unicode="&#x179;" 
d="M1143 1331h-830l21 103h962l-20 -103l-1122 -1229h880l-20 -102h-1014l20 102zM756 1628l205 266h118l-239 -266h-84z" />
    <glyph glyph-name="zacute" unicode="&#x17a;" horiz-adv-x="911" 
d="M926 983l-21 -92l-794 -799h645l-19 -92h-768l19 92l794 799h-604l21 92h727zM510 1157l205 266h119l-240 -266h-84z" />
    <glyph glyph-name="Zdotaccent" unicode="&#x17b;" 
d="M1143 1331h-830l21 103h962l-20 -103l-1122 -1229h880l-20 -102h-1014l20 102zM766 1751c0 20.667 7.5 39.5 22.5 56.5s32.833 25.5 53.5 25.5c22 0 39.333 -5.83301 52 -17.5s19 -27.167 19 -46.5c0 -22 -8.16699 -40.667 -24.5 -56s-35.5 -23 -57.5 -23
c-20.667 0 -36.667 5.66699 -48 17s-17 26 -17 44z" />
    <glyph glyph-name="zdotaccent" unicode="&#x17c;" horiz-adv-x="911" 
d="M926 983l-21 -92l-794 -799h645l-19 -92h-768l19 92l794 799h-604l21 92h727zM516 1270c0 20.667 7.50098 39.5 22.501 56.5s32.833 25.5 53.5 25.5c22 0 39.5 -5.83301 52.5 -17.5s19.5 -27.167 19.5 -46.5c0 -22 -8.33301 -40.833 -25 -56.5s-35.667 -23.5 -57 -23.5
c-20.667 0 -36.834 5.83301 -48.501 17.5s-17.5 26.5 -17.5 44.5z" />
    <glyph glyph-name="Zcaron" unicode="&#x17d;" 
d="M1143 1331h-830l21 103h962l-20 -103l-1122 -1229h880l-20 -102h-1014l20 102zM1141 1884l-271 -266h-102l-160 266h88l131 -205l217 205h97z" />
    <glyph glyph-name="zcaron" unicode="&#x17e;" horiz-adv-x="911" 
d="M926 983l-21 -92l-794 -799h645l-19 -92h-768l19 92l794 799h-604l21 92h727zM895 1423l-270 -266h-103l-160 266h89l131 -204l217 204h96z" />
    <glyph glyph-name="florin" unicode="&#x192;" horiz-adv-x="706" 
d="M459 707l-353.003 -881.001c-36.667 -92.667 -80.5 -160.167 -131.5 -202.5s-114.167 -63.5 -189.5 -63.5c-22 0 -43.5 2.33301 -64.5 7s-37.167 9.66699 -48.5 15l-14 8l20 93c32.667 -20.667 73 -31 121 -31c95.333 0 165 58 209 174l352 881h-170l19 92h190l156 389
c36.667 92.667 80.334 160.167 131.001 202.5s114.334 63.5 191.001 63.5c22 0 43.833 -2.66699 65.5 -8s37.834 -10.666 48.501 -15.999l17 -7l-19 -92c-36.667 20.667 -79 31 -127 31c-95.333 0 -165 -58 -209 -174l-155 -389h233l-18 -92h-254z" />
    <glyph glyph-name="uni0218" unicode="&#x218;" horiz-adv-x="1146" 
d="M516 82c69.333 0 134.165 10.834 194.498 32.501s111.333 58.5 153 110.5s62.5 115 62.5 189c0 56 -23 104 -69 144s-101.667 73 -167 99s-130.833 53.667 -196.5 83s-121.334 68.666 -167.001 117.999s-68.5 108 -68.5 176c0 121.333 45 221.666 135 300.999
s211.667 119 365 119c49.333 0 97.5 -6.16699 144.5 -18.5s85.833 -26.666 116.5 -42.999s58.334 -33 83.001 -50s42.334 -31.833 53.001 -44.5l16 -18l-84 -70c-2.66699 4 -7 9.16699 -13 15.5s-19.667 17.666 -41 33.999s-43.833 30.666 -67.5 42.999
s-55 23.666 -94 33.999s-79.5 15.5 -121.5 15.5c-120 0 -214.167 -28.333 -282.5 -85s-102.5 -130 -102.5 -220c0 -56 22.833 -104.167 68.5 -144.5s100.834 -73.5 165.501 -99.5s129.834 -53.667 195.501 -83s121.334 -68.666 167.001 -117.999s68.5 -108 68.5 -176
c0 -132.667 -47.5 -240.167 -142.5 -322.5s-222.167 -123.5 -381.5 -123.5c-58.667 0 -115 7.5 -169 22.5s-98 32.667 -132 53s-64 41.166 -90 62.499s-45.333 39.333 -58 54l-16 23l84 69c2.66699 -5.33301 7 -12.166 13 -20.499s20.667 -22.666 44 -42.999
s48.666 -38.666 75.999 -54.999s64.166 -31 110.499 -44s95.5 -19.5 147.5 -19.5zM314.999 -439.999l144 276h108l-180 -276h-72z" />
    <glyph glyph-name="uni0219" unicode="&#x219;" horiz-adv-x="880" 
d="M827 860l-81.9951 -67.0049c-6.66699 8 -15.834 18.833 -27.501 32.5s-38.334 31.334 -80.001 53.001s-84.834 32.5 -129.501 32.5c-75.333 0 -134.833 -17.667 -178.5 -53s-65.5 -79 -65.5 -131c0 -40.667 25 -77.167 75 -109.5s104.333 -58 163 -77
s112.834 -49 162.501 -90s74.5 -90.833 74.5 -149.5c0 -94 -34.833 -171 -104.5 -231s-162.5 -90 -278.5 -90c-42 0 -82.5 5.33301 -121.5 16s-71.833 24.167 -98.5 40.5s-49.834 32.833 -69.501 49.5s-34.167 30.334 -43.5 41.001l-15 16l82 68
c8 -10.667 19.5 -23.5 34.5 -38.5s46.833 -35.5 95.5 -61.5s99 -39 151 -39c86 0 153.167 20.167 201.5 60.5s72.5 92.5 72.5 156.5c0 35.333 -16.333 66.333 -49 93s-72.167 49.167 -118.5 67.5s-92.833 37.833 -139.5 58.5s-86.334 48.334 -119.001 83.001
s-49 75.334 -49 122.001c0 76.667 33.167 144.334 99.5 203.001s150.5 88 252.5 88c57.333 0 111.666 -12 162.999 -36s88 -47.667 110 -71zM141.005 -440.005l144 276h108l-180 -276h-72z" />
    <glyph glyph-name="uni021A" unicode="&#x21a;" horiz-adv-x="1126" 
d="M252 1434h1044l-20 -103h-471l-283 -1331h-102l282 1331h-471zM238 -440l143 276h108l-180 -276h-71z" />
    <glyph glyph-name="uni021B" unicode="&#x21b;" horiz-adv-x="716" 
d="M389 1065l53 246.001h82l-69 -328h225l-21 -92h-225l-137 -645c-12 -54.667 -7.16699 -97.334 14.5 -128.001s55.834 -46 102.501 -46c22 0 44.5 2.33301 67.5 7s40.833 9.66699 53.5 15l18 8l-18 -92c-46.667 -20.667 -94 -30.667 -142 -30
c-78 0 -133.333 22.833 -166 68.5s-40 111.5 -22 197.5l137 645h-195l21 92h133c20.667 0 39.167 7.5 55.5 22.5s27.166 34.833 32.499 59.5zM109 -439.999l143 276h108l-180 -276h-71z" />
    <glyph glyph-name="uni02BC" unicode="&#x2bc;" horiz-adv-x="317" 
d="M213 1157l145 277h109l-180 -277h-74z" />
    <glyph glyph-name="circumflex" unicode="&#x2c6;" horiz-adv-x="655" 
d="M588 1423l160 -266h-89l-131 205l-217 -205h-96l270 266h103z" />
    <glyph glyph-name="caron" unicode="&#x2c7;" horiz-adv-x="655" 
d="M803 1423l-271 -266h-102l-160 266h88l131 -204l218 204h96z" />
    <glyph glyph-name="breve" unicode="&#x2d8;" horiz-adv-x="655" 
d="M504 1239c56 0 103.5 16.667 142.5 50s63.833 78 74.5 134h82c-16.667 -78 -52.667 -141.833 -108 -191.5s-120.333 -74.5 -195 -74.5c-78 0 -139.833 25.667 -185.5 77s-60.5 114.333 -44.5 189h82c-10.667 -56 -2 -100.667 26 -134s70 -50 126 -50z" />
    <glyph glyph-name="dotaccent" unicode="&#x2d9;" horiz-adv-x="266" 
d="M246 1300c0 20.667 7.5 39.499 22.5 56.499s32.833 25.5 53.5 25.5c22 0 39.333 -5.66699 52 -17s19 -26.666 19 -45.999c0 -22 -8.16699 -40.833 -24.5 -56.5s-35.5 -23.5 -57.5 -23.5c-20.667 0 -36.667 5.66699 -48 17s-17 26 -17 44z" />
    <glyph glyph-name="ring" unicode="&#x2da;" horiz-adv-x="512" 
d="M430 1341c-34 0 -62.999 -13.168 -86.999 -39.501s-36 -58.166 -36 -95.499c0 -28.667 9.66699 -51.167 29 -67.5s46.666 -24.5 81.999 -24.5c34 0 63.333 12.333 88 37s37 56.667 37 96c0 62.667 -37.667 94 -113 94zM625.001 1255
c0 -58.667 -20.832 -110.168 -62.499 -154.501s-93.167 -66.5 -154.5 -66.5c-54.667 0 -98.834 15.333 -132.501 46s-50.5 70.667 -50.5 120c0 62.667 21.5 115.5 64.5 158.5s94.5 64.5 154.5 64.5c54.667 0 98.5 -15.667 131.5 -47s49.5 -71.666 49.5 -120.999z" />
    <glyph glyph-name="ogonek" unicode="&#x2db;" horiz-adv-x="430" 
d="M102 0l72.002 -0.000976562c-13.333 -9.33301 -30.333 -22.666 -51 -39.999s-48.334 -48.5 -83.001 -93.5s-52 -84.5 -52 -118.5c0 -24.667 7.83301 -45.167 23.5 -61.5s38.5 -24.5 68.5 -24.5c18 0 37.833 2.33301 59.5 7s39.5 10 53.5 16l18 8l-16 -72
c-42 -20.667 -83.667 -31 -125 -31c-48 0 -86 14.333 -114 43s-42 63.667 -42 105c0 45.333 15.667 89.833 47 133.5s62.666 75.5 93.999 95.5z" />
    <glyph glyph-name="tilde" unicode="&#x2dc;" horiz-adv-x="706" 
d="M410 1331c-52 0 -88.335 -51 -109.002 -153h-82c32.667 157.333 99.667 235.666 201 234.999c30 0 57 -7.83301 81 -23.5s42.333 -33.334 55 -53.001s28.334 -37.334 47.001 -53.001s38.334 -23.5 59.001 -23.5c50.667 0 86.667 51 108 153h82
c-32.667 -157.333 -99.667 -235.666 -201 -234.999c-30 0 -56.833 7.83301 -80.5 23.5s-42 33.334 -55 53.001s-28.667 37.334 -47 53.001s-37.833 23.5 -58.5 23.5z" />
    <glyph glyph-name="hungarumlaut" unicode="&#x2dd;" horiz-adv-x="686" 
d="M213 1157l205 266h119l-240 -266h-84zM510 1157l205 266h119l-240 -266h-84z" />
    <glyph glyph-name="uni0401" unicode="&#x401;" horiz-adv-x="1290" 
d="M256 102h881l-21 -102h-983l303 1434h963l-21 -103h-860l-115 -532h697l-21 -103h-696zM707 1743c0 20.667 7.5 39.5 22.5 56.5s32.5 25.5 52.5 25.5c22 0 39.5 -5.83301 52.5 -17.5s19.5 -27.167 19.5 -46.5c0 -22 -8.16699 -40.833 -24.5 -56.5
s-35.5 -23.5 -57.5 -23.5c-20.667 0 -36.667 5.83301 -48 17.5s-17 26.5 -17 44.5zM1065 1743c0 20.667 7.5 39.5 22.5 56.5s32.833 25.5 53.5 25.5c22 0 39.333 -5.83301 52 -17.5s19 -27.167 19 -46.5c0 -22 -8.16699 -40.833 -24.5 -56.5s-35.5 -23.5 -57.5 -23.5
c-20.667 0 -36.667 5.83301 -48 17.5s-17 26.5 -17 44.5z" />
    <glyph glyph-name="uni0402" unicode="&#x402;" horiz-adv-x="1454" 
d="M190 1331l20.9971 102.998h860l-20 -103h-379l-121 -563c12 10.667 29.667 23.834 53 39.501s70.833 36.834 142.5 63.501s143.834 40 216.501 40c100 0 185.333 -35.5 256 -106.5s106 -158.167 106 -261.5c0 -174.667 -55 -312.167 -165 -412.5
s-242.667 -150.5 -398 -150.5l20 102c120 0 223.167 40.667 309.5 122s129.5 191.666 129.5 330.999c0 80.667 -25.667 146.5 -77 197.5s-114.666 76.5 -189.999 76.5c-72.667 0 -144.667 -13.667 -216 -41s-124.666 -54.666 -159.999 -81.999l-54 -41l-135 -645h-102
l282 1331h-379z" />
    <glyph glyph-name="uni0403" unicode="&#x403;" horiz-adv-x="1126" 
d="M133 0l303 1434h871l-21 -103h-768l-282 -1331h-103zM827 1628l205 266h119l-240 -266h-84z" />
    <glyph glyph-name="uni0404" unicode="&#x404;" horiz-adv-x="1536" 
d="M164 610c0 144.667 37.167 281.998 111.5 411.998s177.333 234.5 309 313.5s274.834 118.5 429.501 118.5c72.667 0 142 -10.5 208 -31.5s120.167 -46.667 162.5 -77s79.166 -60.5 110.499 -90.5s54.666 -55 69.999 -75l20 -33l-82 -60c-4 6.66699 -10 16.334 -18 29.001
s-27.167 34 -57.5 64s-63.166 56.5 -98.499 79.5s-82.333 44.167 -141 63.5s-120 29 -184 29c-170.667 0 -323.667 -53.667 -459 -161s-221.333 -245 -258 -413h798l-20 -102h-793c-1.33301 -12 -2 -31.333 -2 -58c0 -146 51.667 -271.833 155 -377.5
s229.333 -158.5 378 -158.5c65.333 0 128.333 9.16699 189 27.5s111.5 40.5 152.5 66.5s77.167 52 108.5 78s54.666 47.667 69.999 65l23 29l65 -61l-27.5 -33c-11.667 -14 -37.667 -38.667 -78 -74s-82.666 -66.666 -126.999 -93.999s-101.333 -51.833 -171 -73.5
s-140.5 -32.5 -212.5 -32.5c-172 0 -320.167 63 -444.5 189s-186.5 273 -186.5 441z" />
    <glyph glyph-name="uni0405" unicode="&#x405;" horiz-adv-x="1146" 
d="M516 82c69.333 0 134.165 10.834 194.498 32.501s111.333 58.5 153 110.5s62.5 115 62.5 189c0 56 -23 104 -69 144s-101.667 73 -167 99s-130.833 53.667 -196.5 83s-121.334 68.666 -167.001 117.999s-68.5 108 -68.5 176c0 121.333 45 221.666 135 300.999
s211.667 119 365 119c49.333 0 97.5 -6.16699 144.5 -18.5s85.833 -26.666 116.5 -42.999s58.334 -33 83.001 -50s42.334 -31.833 53.001 -44.5l16 -18l-84 -70c-2.66699 4 -7 9.16699 -13 15.5s-19.667 17.666 -41 33.999s-43.833 30.666 -67.5 42.999
s-55 23.666 -94 33.999s-79.5 15.5 -121.5 15.5c-120 0 -214.167 -28.333 -282.5 -85s-102.5 -130 -102.5 -220c0 -56 22.833 -104.167 68.5 -144.5s100.834 -73.5 165.501 -99.5s129.834 -53.667 195.501 -83s121.334 -68.666 167.001 -117.999s68.5 -108 68.5 -176
c0 -132.667 -47.5 -240.167 -142.5 -322.5s-222.167 -123.5 -381.5 -123.5c-58.667 0 -115 7.5 -169 22.5s-98 32.667 -132 53s-64 41.166 -90 62.499s-45.333 39.333 -58 54l-16 23l84 69c2.66699 -5.33301 7 -12.166 13 -20.499s20.667 -22.666 44 -42.999
s48.666 -38.666 75.999 -54.999s64.166 -31 110.499 -44s95.5 -19.5 147.5 -19.5z" />
    <glyph glyph-name="uni0406" unicode="&#x406;" horiz-adv-x="552" 
d="M133 0l303 1434h103l-303 -1434h-103z" />
    <glyph glyph-name="uni0407" unicode="&#x407;" horiz-adv-x="552" 
d="M133 0l303 1434h103l-303 -1434h-103zM291 1743c0 20.667 7.5 39.5 22.5 56.5s32.833 25.5 53.5 25.5c22 0 39.333 -5.83301 52 -17.5s19 -27.167 19 -46.5c0 -22 -8.16699 -40.833 -24.5 -56.5s-35.5 -23.5 -57.5 -23.5c-20.667 0 -36.667 5.83301 -48 17.5
s-17 26.5 -17 44.5zM649 1743c0 20.667 7.50098 39.5 22.501 56.5s32.833 25.5 53.5 25.5c22 0 39.5 -5.83301 52.5 -17.5s19.5 -27.167 19.5 -46.5c0 -22 -8.16699 -40.833 -24.5 -56.5s-35.5 -23.5 -57.5 -23.5c-20.667 0 -36.834 5.83301 -48.501 17.5
s-17.5 26.5 -17.5 44.5z" />
    <glyph glyph-name="uni0408" unicode="&#x408;" horiz-adv-x="1003" 
d="M897 1434h102.002l-215 -1014c-28.667 -131.333 -86.334 -237.5 -173.001 -318.5s-190 -121.5 -310 -121.5c-64 0 -124.667 12.833 -182 38.5s-99 50.834 -125 75.501l-39 39l88 72c6.66699 -9.33301 16.167 -20.833 28.5 -34.5s40.666 -31.834 84.999 -54.501
s91.833 -34 142.5 -34c96.667 0 179.167 30.333 247.5 91s113.5 143 135.5 247z" />
    <glyph glyph-name="uni0409" unicode="&#x409;" horiz-adv-x="2201" 
d="M1552 0l-507.997 -0.00390625l283 1331h-645l-70 -327c-44 -207.333 -89.833 -381.166 -137.5 -521.499s-96.334 -245.666 -146.001 -315.999s-97.334 -119 -143.001 -146s-96.5 -40.5 -152.5 -40.5c-18 0 -37.5 2 -58.5 6s-37.167 8 -48.5 12l-18 6l20 98
c36.667 -13.333 72.334 -20 107.001 -20c39.333 0 76.5 11.667 111.5 35s73.333 66 115 128s83.667 156.833 126 284.5s83.166 285.834 122.499 474.501l90 430h850l-117 -553h353c114.667 0 210.5 -36.167 287.5 -108.5s115.5 -159.166 115.5 -260.499
c0 -143.333 -52.333 -264.5 -157 -363.5s-231.334 -148.5 -380.001 -148.5zM1167 101.996h394c118.667 0 219 38.667 301 116s123 173.333 123 288c0 79.333 -28.833 144.5 -86.5 195.5s-132.167 76.5 -223.5 76.5h-364z" />
    <glyph glyph-name="uni040A" unicode="&#x40a;" horiz-adv-x="2181" 
d="M1147 102h392.999c118.667 0 219 38.667 301 116s123 173.333 123 288c0 79.333 -28.667 144.5 -86 195.5s-131.666 76.5 -222.999 76.5h-365zM1532 0l-508 -0.000976562l164 778h-789l-163 -778h-103l303 1434h103l-117 -553h788l117 553h103l-117 -553h352
c114.667 0 210.5 -36.167 287.5 -108.5s115.5 -159.166 115.5 -260.499c0 -143.333 -52.167 -264.5 -156.5 -363.5s-230.833 -148.5 -379.5 -148.5z" />
    <glyph glyph-name="uni040B" unicode="&#x40b;" horiz-adv-x="1495" 
d="M190 1331l21 102.997h860l-20 -103h-379l-121 -563c12 10.667 29 23.834 51 39.501s68.167 36.834 138.5 63.501s141.5 40 213.5 40c105.333 0 193.833 -32.667 265.5 -98s107.5 -149.333 107.5 -252c0 -26 -3.33301 -56 -10 -90l-98 -471h-103l98 471
c5.33301 32.667 8.33301 56 9 70c0 78 -27 142.167 -81 192.5s-120 75.5 -198 75.5c-72.667 0 -144 -13.667 -214 -41s-122.333 -54.666 -157 -81.999l-49 -41l-135 -645h-102l282 1331h-379z" />
    <glyph glyph-name="uni040C" unicode="&#x40c;" horiz-adv-x="1341" 
d="M354 561l979 873h137l-667 -594l416 -840h-113l-381 768l-403 -358l-86 -410h-103l303 1434h103zM840 1628l204 266h119l-239 -266h-84z" />
    <glyph glyph-name="uni040E" unicode="&#x40e;" horiz-adv-x="1239" 
d="M862 1628c-78 0 -139.169 25.335 -183.502 76.002s-58.166 114 -41.499 190h92c-10.667 -50.667 -3 -92.334 23 -125.001s64.667 -49 116 -49c50.667 0 95.5 16.167 134.5 48.5s63.833 74.166 74.5 125.499h92c-16.667 -78 -53.167 -141.833 -109.5 -191.5
s-122.166 -74.5 -197.499 -74.5zM669.998 532.002l619.998 902h119l-784 -1137c-76.667 -112 -149.167 -192.833 -217.5 -242.5s-146.833 -74.5 -235.5 -74.5c-18 0 -36.167 1.66699 -54.5 5s-32.166 7 -41.499 11l-15 4l21 102c28.667 -13.333 63.334 -20 104.001 -20
c64 0 120.333 17 169 51s99.667 88.667 153 164l92 129l-328 1008h107z" />
    <glyph glyph-name="uni040F" unicode="&#x40f;" horiz-adv-x="1515" 
d="M1501 1434l-303 -1434h-481l-66 -307h-102l65 307h-481l303 1434h103l-283 -1332h860l283 1332h102z" />
    <glyph glyph-name="uni0410" unicode="&#x410;" horiz-adv-x="1392" 
d="M1034 522l-155 768l-480 -768h635zM1053 420h-717l-262 -420h-115l897 1434h102l291 -1434h-110z" />
    <glyph glyph-name="uni0411" unicode="&#x411;" horiz-adv-x="1320" 
d="M518 1331l-104 -491h399c110.667 0 203.167 -35.833 277.5 -107.5s111.5 -156.167 111.5 -253.5c0 -128.667 -52.167 -240.667 -156.5 -336s-227.5 -143 -369.5 -143h-543l303 1434h860l-20 -103h-758zM256 102h428.001c113.333 0 210.666 37 291.999 111
s122 161.333 122 262c0 74 -27.333 136.167 -82 186.5s-125.667 75.5 -213 75.5h-412z" />
    <glyph glyph-name="uni0412" unicode="&#x412;" horiz-adv-x="1351" 
d="M1032 762c5.33301 -2.66699 12.166 -6.16797 20.499 -10.501s23.333 -15.333 45 -33s40.834 -36.667 57.501 -57s31.834 -48.666 45.501 -84.999s20.5 -74.166 20.5 -113.499c0 -134 -46.833 -244.667 -140.5 -332s-214.834 -131 -363.501 -131h-584l303 1434h504
c101.333 0 185 -28.333 251 -85s99 -126.667 99 -210c-1.33301 -174.667 -87.333 -300.334 -258 -377.001zM256 101.999h471c120 0 214.833 32.5 284.5 97.5s104.5 151.5 104.5 259.5c0 72.667 -25.167 132.167 -75.5 178.5s-120.833 69.5 -211.5 69.5h-444zM930 1331h-412
l-112 -522h430c101.333 0 185 29.667 251 89s99 137.666 99 234.999c0 58.667 -23.167 106.334 -69.5 143.001s-108.5 55 -186.5 55z" />
    <glyph glyph-name="uni0413" unicode="&#x413;" horiz-adv-x="1126" 
d="M133 0l303 1434h871l-21 -103h-768l-282 -1331h-103z" />
    <glyph glyph-name="uni0414" unicode="&#x414;" horiz-adv-x="1443" 
d="M-72 102l81.999 0.00195312c8 5.33301 19.333 14.666 34 27.999s42 45.166 82 95.499s77.833 106.5 113.5 168.5s74.334 147.667 116.001 257s76.167 227 103.5 353l90 430h850l-283 -1332h184l-86 -409h-102l66 307h-1168l-65 -307h-101zM560.999 1004
c-26 -122.667 -58 -237.332 -96 -343.999s-75.167 -192.834 -111.5 -258.501s-70.833 -122 -103.5 -169s-58.667 -80.833 -78 -101.5l-31 -29h873l262 1229h-645z" />
    <glyph glyph-name="uni0415" unicode="&#x415;" horiz-adv-x="1290" 
d="M256 102h881l-21 -102h-983l303 1434h963l-21 -103h-860l-115 -532h697l-21 -103h-696z" />
    <glyph glyph-name="uni0416" unicode="&#x416;" horiz-adv-x="1904" 
d="M1288 768l-276 -246l-111 -522h-102l110 522l-170 240l-698 -762h-123l770 844l-416 590h121l545 -779l164 779h102l-160 -764l854 764h136l-666 -594l410 -840h-117z" />
    <glyph glyph-name="uni0417" unicode="&#x417;" horiz-adv-x="1167" 
d="M795 754c6.66699 -2.66699 15.1689 -6.50195 25.502 -11.502s29.166 -16.333 56.499 -34s51.5 -37.5 72.5 -59.5s40 -51.667 57 -89s25.5 -77.333 25.5 -120c0 -125.333 -51.833 -233.333 -155.5 -324s-237.5 -136 -401.5 -136c-58.667 0 -114.667 7.5 -168 22.5
s-96.666 32.667 -129.999 53s-62.333 41.166 -87 62.499s-42.334 39.333 -53.001 54l-17 23l86 71c2.66699 -5.33301 7.16699 -12.166 13.5 -20.499s20.5 -23 42.5 -44s46.167 -39.667 72.5 -56s62.166 -31 107.499 -44s93.666 -19.5 144.999 -19.5
c134 0 241 32.833 321 98.5s120 146.834 120 243.501c0 76.667 -29 143 -87 199s-138.333 84 -241 84h-164l21 102h166c124 0 223.167 29.333 297.5 88s111.5 130.334 111.5 215.001c0 65.333 -29 121.666 -87 168.999s-134 71 -228 71
c-69.333 0 -135.166 -13.667 -197.499 -41s-107.166 -54.666 -134.499 -81.999l-41 -41l-57 72c4 5.33301 10.333 12.333 19 21s27.5 24 56.5 46s59.167 41.5 90.5 58.5s71.833 32.667 121.5 47s100.5 21.5 152.5 21.5c118.667 0 216.667 -32.333 294 -97
s116 -141.667 116 -231c0 -34 -4.16699 -66 -12.5 -96s-19 -55.833 -32 -77.5s-28.333 -42.5 -46 -62.5s-35.667 -36.5 -54 -49.5s-37.5 -25 -57.5 -36s-38.167 -19.5 -54.5 -25.5s-31.333 -11 -45 -15s-23.834 -6.66699 -30.501 -8z" />
    <glyph glyph-name="uni0418" unicode="&#x418;" horiz-adv-x="1587" 
d="M1270 0h-103l263 1239l-1211 -1239h-86l303 1434h103l-263 -1239l1211 1239h86z" />
    <glyph glyph-name="uni0419" unicode="&#x419;" horiz-adv-x="1587" 
d="M1028 1628c-78 0 -139.169 25.335 -183.502 76.002s-58.166 114 -41.499 190h92c-10.667 -50.667 -3.16699 -92.334 22.5 -125.001s64.5 -49 116.5 -49c50.667 0 95.5 16.167 134.5 48.5s63.833 74.166 74.5 125.499h92c-16.667 -78 -53.167 -141.833 -109.5 -191.5
s-122.166 -74.5 -197.499 -74.5zM1270 0.00195312h-103l263 1239l-1211 -1239h-86l303 1434h103l-263 -1239l1211 1239h86z" />
    <glyph glyph-name="uni041A" unicode="&#x41a;" horiz-adv-x="1341" 
d="M354 561l979 873h137l-667 -594l416 -840h-113l-381 768l-403 -358l-86 -410h-103l303 1434h103z" />
    <glyph glyph-name="uni041B" unicode="&#x41b;" horiz-adv-x="1505" 
d="M1491 1434l-303.001 -1434h-103l283 1331h-686l-70 -327c-35.333 -168 -72.5 -313.5 -111.5 -436.5s-76.833 -221.667 -113.5 -296s-75.5 -133.666 -116.5 -177.999s-80.333 -74.333 -118 -90s-78.167 -23.5 -121.5 -23.5c-18 0 -37.167 2 -57.5 6s-36.166 8 -47.499 12
l-18 6l20 98c36.667 -13.333 72.334 -20 107.001 -20c39.333 0 76.833 11.667 112.5 35s74 66 115 128s82.667 156.833 125 284.5s83.166 285.834 122.499 474.501l90 430h891z" />
    <glyph glyph-name="uni041C" unicode="&#x41c;" horiz-adv-x="1884" 
d="M938 420l-440 819l-262 -1239h-103l303 1434h76l457 -840l813 840h88l-303 -1434h-103l262 1239z" />
    <glyph glyph-name="uni041D" unicode="&#x41d;" horiz-adv-x="1525" 
d="M133 0l303 1434h103l-140 -656h871l139 656h102l-303 -1434h-102l143 676h-870l-143 -676h-103z" />
    <glyph glyph-name="uni041E" unicode="&#x41e;" horiz-adv-x="1699" 
d="M842 80c186 0 350.168 73 492.501 219s213.5 314 213.5 504c0 157.333 -53.833 288.833 -161.5 394.5s-244.834 158.5 -411.501 158.5c-182.667 0 -346.167 -71 -490.5 -213s-216.5 -310.667 -216.5 -506c0 -158.667 54 -291.167 162 -397.5s245.333 -159.5 412 -159.5z
M1651 807c0 -136.667 -36.8311 -268.5 -110.498 -395.5s-174.334 -230.667 -302.001 -311s-264.167 -120.5 -409.5 -120.5c-192.667 0 -351.667 62.333 -477 187s-188 278.667 -188 462c0 222.667 84.667 416.167 254 580.5s359.666 246.5 570.999 246.5
c191.333 0 349.5 -62.833 474.5 -188.5s187.5 -279.167 187.5 -460.5z" />
    <glyph glyph-name="uni041F" unicode="&#x41f;" horiz-adv-x="1525" 
d="M1511 1434l-303 -1434h-102l283 1331h-871l-282 -1331h-103l303 1434h1075z" />
    <glyph glyph-name="uni0420" unicode="&#x420;" horiz-adv-x="1310" 
d="M436 1434l491.999 0.000976562c114.667 0 209.834 -35.833 285.501 -107.5s113.5 -158.834 113.5 -261.501c0 -142 -53.5 -262.833 -160.5 -362.5s-235.167 -149.5 -384.5 -149.5h-430l-116 -553h-103zM917.999 1331h-400l-143 -676h420
c118.667 0 219.667 38.667 303 116s125 173.333 125 288c0 79.333 -28 144.5 -84 195.5s-129.667 76.5 -221 76.5z" />
    <glyph glyph-name="uni0421" unicode="&#x421;" horiz-adv-x="1536" 
d="M164 610c0 144.667 37.167 281.998 111.5 411.998s177.333 234.5 309 313.5s274.834 118.5 429.501 118.5c72.667 0 142 -10.5 208 -31.5s120.167 -46.667 162.5 -77s79.166 -60.5 110.499 -90.5s54.666 -55 69.999 -75l20 -33l-82 -60c-4 6.66699 -10 16.334 -18 29.001
s-27.167 34 -57.5 64s-63.166 56.5 -98.499 79.5s-82.333 44.167 -141 63.5s-120 29 -184 29c-198 0 -369.833 -70.333 -515.5 -211s-218.5 -315 -218.5 -523c0 -146 51.667 -271.833 155 -377.5s229.333 -158.5 378 -158.5c65.333 0 128.333 9.16699 189 27.5
s111.5 40.5 152.5 66.5s77.167 52 108.5 78s54.666 47.667 69.999 65l23 29l65 -61l-27.5 -33c-11.667 -14 -37.667 -38.667 -78 -74s-82.666 -66.666 -126.999 -93.999s-101.333 -51.833 -171 -73.5s-140.5 -32.5 -212.5 -32.5c-172 0 -320.167 63 -444.5 189
s-186.5 273 -186.5 441z" />
    <glyph glyph-name="uni0422" unicode="&#x422;" horiz-adv-x="1126" 
d="M252 1434h1044l-20 -103h-471l-283 -1331h-102l282 1331h-471z" />
    <glyph glyph-name="uni0423" unicode="&#x423;" horiz-adv-x="1239" 
d="M670 532l619.998 902h119l-784 -1137c-76.667 -112 -149.167 -192.833 -217.5 -242.5s-146.833 -74.5 -235.5 -74.5c-18 0 -36.167 1.66699 -54.5 5s-32.166 7 -41.499 11l-15 4l21 102c28.667 -13.333 63.334 -20 104.001 -20c64 0 120.333 17 169 51
s99.667 88.667 153 164l92 129l-328 1008h107z" />
    <glyph glyph-name="uni0424" unicode="&#x424;" horiz-adv-x="1720" 
d="M975 1219c-82 -1.33301 -163.333 -13.666 -244 -36.999s-156.167 -56.166 -226.5 -98.499s-127.333 -99 -171 -170s-65.5 -150.833 -65.5 -239.5c0 -114.667 44.5 -212.334 133.5 -293.001s211.833 -122.334 368.5 -125.001zM850 154l-41 -194.999h-102l41 195
c-178.667 4 -320.667 55.833 -426 155.5s-158 218.5 -158 356.5c0 180 75.667 332.833 227 458.5s353.333 191.167 606 196.5l33 154h103l-33 -154c180 -5.33301 322.167 -57.833 426.5 -157.5s156.5 -217.834 156.5 -354.501c0 -181.333 -75.333 -334.5 -226 -459.5
s-353 -190.167 -607 -195.5zM872 256.001c82 1.33301 163.333 13.333 244 36s156.167 55.167 226.5 97.5s127.333 99 171 170s65.5 150.833 65.5 239.5c0 113.333 -44.333 210.5 -133 291.5s-211.667 123.833 -369 128.5z" />
    <glyph glyph-name="uni0425" unicode="&#x425;" horiz-adv-x="1269" 
d="M1389 1434l-637 -686l374 -748h-116l-330 666l-612 -666h-129l690 748l-346 686h116l303 -605l558 605h129z" />
    <glyph glyph-name="uni0426" unicode="&#x426;" horiz-adv-x="1536" 
d="M133 0l303 1434h103l-283 -1332h850l283 1332h102l-283 -1332h185l-86 -409h-103l66 307h-1137z" />
    <glyph glyph-name="uni0427" unicode="&#x427;" horiz-adv-x="1413" 
d="M498 1434l-90.002 -429.996c-8 -36.667 -12.333 -71.667 -13 -105c0 -90 29 -160 87 -210s139.667 -75 245 -75c72.667 0 144.834 13.667 216.501 41s125.167 54.666 160.5 81.999l53 41l139 656h103l-303 -1434h-103l140 655c-12 -10.667 -30.167 -23.834 -54.5 -39.501
s-72.666 -36.834 -144.999 -63.501s-144.5 -40 -216.5 -40c-128.667 0 -231.5 34.167 -308.5 102.5s-115.5 159.833 -115.5 274.5c0 35.333 4 73.666 12 114.999l90 430h103z" />
    <glyph glyph-name="uni0428" unicode="&#x428;" horiz-adv-x="2068" 
d="M133 0l303 1434h103l-283 -1332h655l283 1332h102l-282 -1332h655l283 1332h102l-303 -1434h-1618z" />
    <glyph glyph-name="uni0429" unicode="&#x429;" horiz-adv-x="2099" 
d="M1833 0h-1700l303 1434h103l-283 -1332h655l283 1332h102l-282 -1332h655l283 1332h102l-282 -1332h184l-86 -409h-103z" />
    <glyph glyph-name="uni042A" unicode="&#x42a;" horiz-adv-x="1433" 
d="M389 102l399 -0.000976562c120 0 221.5 37.333 304.5 112s124.5 169.334 124.5 284.001c0 79.333 -27.667 145.833 -83 199.5s-129 80.5 -221 80.5h-381zM778 -0.000976562h-512l283 1331h-359l21 103h461l-117 -553h371c113.333 0 207.5 -37 282.5 -111
s112.5 -162 112.5 -264c0 -143.333 -53 -263.5 -159 -360.5s-234 -145.5 -384 -145.5z" />
    <glyph glyph-name="uni042B" unicode="&#x42b;" horiz-adv-x="1771" 
d="M1454 0h-102l303 1434h102zM645 0h-512l303 1434h103l-117 -553h371c113.333 0 207.5 -37 282.5 -111s112.5 -162 112.5 -264c0 -143.333 -53 -263.5 -159 -360.5s-234 -145.5 -384 -145.5zM256 102l399 -0.000976562c120 0 221.333 37.333 304 112
s124 169.334 124 284.001c0 79.333 -27.5 145.833 -82.5 199.5s-128.5 80.5 -220.5 80.5h-381z" />
    <glyph glyph-name="uni042C" unicode="&#x42c;" horiz-adv-x="1320" 
d="M666 0h-533l303 1434h103l-117 -553h391c113.333 0 207.5 -37 282.5 -111s112.5 -162 112.5 -264c0 -143.333 -52.833 -263.5 -158.5 -360.5s-233.5 -145.5 -383.5 -145.5zM256 102l419.999 -0.000976562c120 0 221.333 37.333 304 112s124 169.334 124 284.001
c0 79.333 -27.667 145.833 -83 199.5s-128.666 80.5 -219.999 80.5h-402z" />
    <glyph glyph-name="uni042D" unicode="&#x42d;" horiz-adv-x="1525" 
d="M635 82c170.667 0 325.33 56.667 463.997 170s225.667 254.666 261 423.999h-797l21 102h790c1.33301 19.333 2 34.333 2 45c0 143.333 -51.5 267.333 -154.5 372s-230.833 157 -383.5 157c-64 0 -126.167 -9.33301 -186.5 -28s-110.666 -40.5 -150.999 -65.5
s-75.5 -50.5 -105.5 -76.5s-52.333 -48.667 -67 -68l-21 -27l-63 60c5.33301 8 13.833 18.833 25.5 32.5s36.834 38.334 75.501 74.001s80 67.167 124 94.5s100.333 51.833 169 73.5s139.334 32.5 212.001 32.5c173.333 0 321.5 -61.833 444.5 -185.5
s184.5 -269.5 184.5 -437.5c0 -155.333 -40.667 -298.833 -122 -430.5s-187.833 -234.667 -319.5 -309s-271.5 -111.5 -419.5 -111.5c-72.667 0 -142 10.5 -208 31.5s-119.833 46.5 -161.5 76.5s-78.5 60 -110.5 90s-54.667 55.333 -68 76l-21 33l82 59
c4 -6.66699 10.167 -16.167 18.5 -28.5s27.833 -33.5 58.5 -63.5s63.667 -56.667 99 -80s82.5 -44.5 141.5 -63.5s121.167 -28.5 186.5 -28.5z" />
    <glyph glyph-name="uni042E" unicode="&#x42e;" horiz-adv-x="2129" 
d="M2085 842c0 -161.333 -40 -308.833 -120 -442.5s-182.833 -236.667 -308.5 -309s-256.5 -109.166 -392.5 -110.499c-160 1.33301 -298 62 -414 182s-174 263.333 -174 430c0 36.667 1.33301 64.667 4 84h-301l-143 -676h-103l303 1434h103l-140 -656h295
c44 196.667 143.5 358.5 298.5 485.5s322.5 190.5 502.5 190.5c160 0 298.333 -60.333 415 -181s175 -264.334 175 -431.001zM1276 82c117.333 0 229.669 31.334 337.002 94.001s195.333 152.834 264 270.501s103 247.5 103 389.5c0 143.333 -48.333 265.166 -145 365.499
s-213.334 150.5 -350.001 150.5c-182.667 0 -345.834 -72.333 -489.501 -217s-215.5 -324.334 -215.5 -539.001c0 -143.333 48.5 -264.833 145.5 -364.5s213.833 -149.5 350.5 -149.5z" />
    <glyph glyph-name="uni042F" unicode="&#x42f;" horiz-adv-x="1351" 
d="M770 1434h566.999l-303 -1434h-102l125 594h-455l-463 -594h-119l476 614c-6.66699 1.33301 -15.5 4.5 -26.5 9.5s-30.167 16 -57.5 33s-51.666 36.833 -72.999 59.5s-40.5 54 -57.5 94s-25.5 83.333 -25.5 130c0 140.667 49.167 258.167 147.5 352.5
s220.5 141.5 366.5 141.5zM1214 1331l-454 -0.000976562c-114.667 0 -210 -35.5 -286 -106.5s-114 -161.167 -114 -270.5c0 -75.333 25 -137.166 75 -185.499s118 -72.5 204 -72.5h440z" />
    <glyph glyph-name="uni0430" unicode="&#x430;" horiz-adv-x="1218" 
d="M485 72c122.667 0 231.168 53.5 325.501 160.5s141.5 224.833 141.5 353.5c0 92.667 -30.333 170 -91 232s-133.334 93 -218.001 93c-108 0 -211.5 -50.167 -310.5 -150.5s-148.5 -216.5 -148.5 -348.5c0 -94 30 -174.167 90 -240.5s130.333 -99.5 211 -99.5zM840.001 0
l40.999 194.998c-4 -5.33301 -9.83301 -12.833 -17.5 -22.5s-24.5 -27.167 -50.5 -52.5s-53.667 -47.166 -83 -65.499s-66.833 -35.333 -112.5 -51s-92.5 -23.5 -140.5 -23.5c-104 0 -194.5 41.5 -271.5 124.5s-115.5 181.833 -115.5 296.5
c0 162.667 59.333 303.834 178 423.501s246.334 179.5 383.001 179.5c48 0 92.833 -8 134.5 -24s75.5 -34.833 101.5 -56.5s48.167 -43.5 66.5 -65.5s30.833 -40.333 37.5 -55l13 -25l45 205h92l-209 -983h-92z" />
    <glyph glyph-name="uni0431" unicode="&#x431;" horiz-adv-x="1167" 
d="M1073 557c0 -146 -54.168 -278.668 -162.501 -398.001s-238.5 -179 -390.5 -179c-110.667 0 -203.834 38.833 -279.501 116.5s-113.5 184.167 -113.5 319.5c0 66.667 7.66699 132.667 23 198c50.667 237.333 134.167 417.833 250.5 541.5s254.5 199.167 414.5 226.5
c72.667 12 138.334 27.333 197.001 46s99.667 34.334 123 47.001l32 20l35 -72c-79.333 -54.667 -211.666 -99 -396.999 -133c-121.333 -22 -231.5 -81.667 -330.5 -179s-168.5 -228 -208.5 -392c4 6.66699 10.167 15.5 18.5 26.5s26.5 30.5 54.5 58.5s57 52.5 87 73.5
s68.167 40.5 114.5 58.5s93.5 27 141.5 27c106.667 0 198.5 -40 275.5 -120s115.5 -175.333 115.5 -286zM673.999 869.999c-118.667 0 -223.834 -50.5 -315.501 -151.5s-137.5 -212.833 -137.5 -335.5c0 -88.667 30.333 -162.667 91 -222s133.334 -89 218.001 -89
c112 0 214.833 47 308.5 141s140.5 206 140.5 336c0 90 -29.667 166 -89 228s-131.333 93 -216 93z" />
    <glyph glyph-name="uni0432" unicode="&#x432;" horiz-adv-x="1044" 
d="M291 983l408.998 -0.00195312c74 0 135.5 -22.167 184.5 -66.5s73.5 -95.833 73.5 -154.5c0 -19.333 -2 -38.166 -6 -56.499s-9.33301 -34.666 -16 -48.999s-14.167 -27.666 -22.5 -39.999s-17.333 -23.333 -27 -33s-19.167 -18.5 -28.5 -26.5s-18.5 -14.5 -27.5 -19.5
s-16.833 -9.5 -23.5 -13.5s-12 -6.66699 -16 -8l-5 -2c2.66699 -1.33301 6.83398 -3.33301 12.501 -6s15.334 -9.16699 29.001 -19.5s25.667 -22 36 -35s19.833 -31 28.5 -54s13 -48.167 13 -75.5c0 -96.667 -31.667 -174.834 -95 -234.501s-149 -89.5 -257 -89.5h-471z
M628.998 470.998l-357.001 -0.000976562l-79 -379h372c80.667 0 141.834 19.5 183.501 58.5s62.5 93.833 62.5 164.5c0 46.667 -15.667 84.334 -47 113.001s-76.333 43 -135 43zM624.997 562.997c65.333 0 121.5 16 168.5 48s70.5 81 70.5 147c0 38 -16 69.667 -48 95
s-75.333 38 -130 38h-324l-69 -328h332z" />
    <glyph glyph-name="uni0433" unicode="&#x433;" horiz-adv-x="901" 
d="M289 793l-55.9971 67.002c9.33301 10.667 22.666 24 39.999 40s53.666 37.333 108.999 64s111.666 40 168.999 40c79.333 0 146.666 -24.667 201.999 -74s83 -104.666 83 -165.999c0 -70.667 -23 -128 -69 -172s-102 -74.833 -168 -92.5s-131.833 -34 -197.5 -49
s-121.334 -38.833 -167.001 -71.5s-68.5 -76.334 -68.5 -131.001c0 -49.333 20.5 -91 61.5 -125s96.167 -51 165.5 -51c52 0 102.5 11.5 151.5 34.5s85.833 46.167 110.5 69.5l35 35l55 -68c-10.667 -12 -25.5 -27.167 -44.5 -45.5s-60 -42.5 -123 -72.5
s-127.833 -45 -194.5 -45c-91.333 0 -166 25.167 -224 75.5s-87 110.5 -87 180.5c0 65.333 16.333 120.166 49 164.499s73.834 75.666 123.501 93.999s103.667 35.666 162 51.999s112.333 30.333 162 42s90.834 31.5 123.501 59.5s49 64.667 49 110
c0 40.667 -17.667 76.334 -53 107.001s-83 46 -143 46c-45.333 0 -89.5 -9.83301 -132.5 -29.5s-74.167 -39.167 -93.5 -58.5z" />
    <glyph glyph-name="uni0434" unicode="&#x434;" horiz-adv-x="1187" 
d="M510 1556c57.333 -23.333 108.5 -46.5 153.5 -69.5s96.5 -56 154.5 -99s105.833 -89 143.5 -138s70.167 -111.167 97.5 -186.5s41 -156.666 41 -243.999c0 -255.333 -61.167 -459 -183.5 -611s-266.166 -228 -431.499 -228c-106.667 0 -198.834 40.167 -276.501 120.5
s-116.5 176.5 -116.5 288.5c0 158.667 57.333 294 172 406s242.334 168 383.001 168c48 0 92.833 -8.66699 134.5 -26s75.167 -37.833 100.5 -61.5s47.166 -47.167 65.499 -70.5s31.5 -43.333 39.5 -60l10 -26c4 35.333 6.33301 68 7 98
c0 311.333 -180.333 530.666 -541 657.999zM489 72c120 0 225.834 48.832 317.501 146.499s137.5 207.834 137.5 330.501c0 90 -30 166 -90 228s-132.333 93 -217 93c-113.333 0 -216.833 -46.667 -310.5 -140s-140.5 -204.333 -140.5 -333c0 -90 29.667 -166.667 89 -230
s130.666 -95 213.999 -95z" />
    <glyph glyph-name="uni0435" unicode="&#x435;" horiz-adv-x="1126" 
d="M1016 451l-831.998 -0.000976562c-1.33301 -10.667 -2 -25.667 -2 -45c0 -90 31.5 -168.167 94.5 -234.5s140.167 -99.5 231.5 -99.5c64 0 124.667 14.333 182 43s99 57.334 125 86.001l39 43l55 -60c-4 -5.33301 -10 -12.833 -18 -22.5s-25.333 -26 -52 -49
s-54.667 -43.333 -84 -61s-67.333 -34 -114 -49s-93.667 -22.5 -141 -22.5c-110.667 0 -206.334 41.5 -287.001 124.5s-121 182.5 -121 298.5c0 164 58.667 305.167 176 423.5s247.666 177.5 390.999 177.5c108 0 198.5 -35.167 271.5 -105.5s109.5 -162.833 109.5 -277.5
c0 -44 -4.66699 -87 -14 -129zM649.002 910.999c-104 0 -196.833 -35.833 -278.5 -107.5s-137.5 -158.5 -167.5 -260.5h741c4 24.667 6 48.334 6 71.001c0 87.333 -28.333 158.666 -85 213.999s-128.667 83 -216 83z" />
    <glyph glyph-name="uni0436" unicode="&#x436;" horiz-adv-x="1464" 
d="M745 328l-69 -328h-92l69 328l-121 184h-8l-479 -512h-117l543 584l-283 399h115l375 -530l115 530h92l-113 -518l590 518h127l-455 -399l293 -584h-106l-252 512h-13z" />
    <glyph glyph-name="uni0437" unicode="&#x437;" horiz-adv-x="880" 
d="M797 764c0 -62.667 -21.501 -116.5 -64.501 -161.5s-97.5 -76.5 -163.5 -94.5c4 -1.33301 9.83301 -3.33301 17.5 -6s21.334 -10.167 41.001 -22.5s36.667 -25.666 51 -39.999s27.666 -34.5 39.999 -60.5s18.5 -54 18.5 -84c0 -90 -36.5 -165 -109.5 -225
s-170.167 -90 -291.5 -90c-44 0 -85.667 6 -125 18s-71.333 26.333 -96 43s-46.167 33.5 -64.5 50.5s-31.166 31.5 -38.499 43.5l-12 19l76 61c2.66699 -4 6 -9.16699 10 -15.5s14.5 -17.666 31.5 -33.999s35.167 -31 54.5 -44s44.666 -24.5 75.999 -34.5s64 -15 98 -15
c92.667 0 165.334 20.833 218.001 62.5s79 92.5 79 152.5c0 48 -20.167 89 -60.5 123s-96.5 51 -168.5 51h-103l21 92h102c76.667 0 140.5 19.167 191.5 57.5s76.5 86.833 76.5 145.5c0 40.667 -19.333 76.667 -58 108s-88 47 -148 47
c-49.333 0 -96.166 -10.167 -140.499 -30.5s-76.833 -40.833 -97.5 -61.5l-31 -31l-55 72l15.5 15.5c6.33301 6.33301 20.666 17.666 42.999 33.999s45.5 31 69.5 44s54.833 24.667 92.5 35s75.5 15.5 113.5 15.5c82 0 151 -24.333 207 -73s84 -104.334 84 -167.001z" />
    <glyph glyph-name="uni0438" unicode="&#x438;" 
d="M819 0l37.001 171.993c-2.66699 -5.33301 -7 -12.166 -13 -20.499s-20 -23.666 -42 -45.999s-45.333 -42.166 -70 -59.499s-57.834 -32.666 -99.501 -45.999s-85.5 -20 -131.5 -20c-100 0 -182.333 30.333 -247 91s-97 139.334 -97 236.001
c0 24.667 3.33301 55.334 10 92.001l125 584h92l-125 -584c-5.33301 -23.333 -8 -48.333 -8 -75c0 -75.333 24.167 -136.166 72.5 -182.499s110.833 -69.5 187.5 -69.5c91.333 0 174.833 34 250.5 102s125.167 153.333 148.5 256l119 553h92l-209 -983h-92z" />
    <glyph glyph-name="uni0439" unicode="&#x439;" 
d="M727 1239c56 0 103.5 16.667 142.5 50s63.833 78 74.5 134h82c-16.667 -78 -52.5 -141.833 -107.5 -191.5s-120.167 -74.5 -195.5 -74.5c-78 0 -139.833 25.667 -185.5 77s-60.167 114.333 -43.5 189h81c-10.667 -56 -2 -100.667 26 -134s70 -50 126 -50zM819 0
l37.001 171.993c-2.66699 -5.33301 -7 -12.166 -13 -20.499s-20 -23.666 -42 -45.999s-45.333 -42.166 -70 -59.499s-57.834 -32.666 -99.501 -45.999s-85.5 -20 -131.5 -20c-100 0 -182.333 30.333 -247 91s-97 139.334 -97 236.001c0 24.667 3.33301 55.334 10 92.001
l125 584h92l-125 -584c-5.33301 -23.333 -8 -48.333 -8 -75c0 -75.333 24.167 -136.166 72.5 -182.499s110.833 -69.5 187.5 -69.5c91.333 0 174.833 34 250.5 102s125.167 153.333 148.5 256l119 553h92l-209 -983h-92z" />
    <glyph glyph-name="uni043A" unicode="&#x43a;" horiz-adv-x="1024" 
d="M229 266l-55 -266h-92l209 983h92l-123 -577l660 577h129l-455 -399l297 -584h-103l-262 512h-14z" />
    <glyph glyph-name="uni043B" unicode="&#x43b;" horiz-adv-x="1146" 
d="M383 983l686 -0.00195312l-209 -983h-92l188 891h-501l-41 -195c-30 -146 -62.167 -268.167 -96.5 -366.5s-69.833 -172 -106.5 -221s-72.167 -82.667 -106.5 -101s-72.5 -27.5 -114.5 -27.5c-15.333 0 -30.833 1.66699 -46.5 5s-26.834 7 -33.501 11l-12 4l18 88
c22 -10.667 46.667 -16 74 -16c28.667 0 55.167 8.16699 79.5 24.5s51.333 45.333 81 87s58.834 105.834 87.501 192.501s56.667 193.334 84 320.001z" />
    <glyph glyph-name="uni043C" unicode="&#x43c;" horiz-adv-x="1351" 
d="M633 287l-291 512l-168 -799h-92l209 983h63l303 -543l537 543h80l-209 -983h-92l168 799z" />
    <glyph glyph-name="uni043D" unicode="&#x43d;" horiz-adv-x="1187" 
d="M809 0l94 451h-635l-94 -451h-92l209 983h92l-94 -440h635l94 440h92l-209 -983h-92z" />
    <glyph glyph-name="uni043E" unicode="&#x43e;" horiz-adv-x="1187" 
d="M92 428c0 144.667 56 276.334 168 395.001s243.667 178 395 178c126.667 0 232.5 -43.333 317.5 -130s127.5 -193.334 127.5 -320.001c0 -155.333 -58.667 -289.333 -176 -402s-248 -169 -392 -169c-125.333 0 -230 43.333 -314 130s-126 192.667 -126 318zM545 70
c118.667 0 225.5 48.332 320.5 144.999s142.5 206.667 142.5 330c0 102.667 -34.5 189.334 -103.5 260.001s-154.833 106 -257.5 106c-116 0 -221.833 -47 -317.5 -141s-143.5 -205.333 -143.5 -334c0 -104 34.167 -191 102.5 -261s153.833 -105 256.5 -105z" />
    <glyph glyph-name="uni043F" unicode="&#x43f;" horiz-adv-x="1177" 
d="M383 983l-39.001 -173.997c2.66699 5.33301 7.16699 12.5 13.5 21.5s20.333 24.333 42 46s45.167 41.167 70.5 58.5s58.833 33.166 100.5 47.499s85.5 21.5 131.5 21.5c98 0 179.5 -30.5 244.5 -91.5s97.5 -139.833 97.5 -236.5c0 -24.667 -3.33301 -55.334 -10 -92.001
l-123 -584h-92l123 584c5.33301 23.333 8 48.333 8 75c0 75.333 -24.167 136.166 -72.5 182.499s-110.166 69.5 -185.499 69.5c-92.667 0 -177.167 -34 -253.5 -102s-125.5 -153.333 -147.5 -256l-117 -553h-92l209 983h92z" />
    <glyph glyph-name="uni0440" unicode="&#x440;" horiz-adv-x="1218" 
d="M735 911c-122.667 0 -231.167 -53.5 -325.5 -160.5s-141.5 -224.833 -141.5 -353.5c0 -92.667 30.5 -170 91.5 -232s133.833 -93 218.5 -93c108 0 211.333 50.167 310 150.5s148 216.5 148 348.5c0 94 -30 174.167 -90 240.5s-130.333 99.5 -211 99.5zM383 983
l-43.0029 -195c4 5.33301 9.83301 12.833 17.5 22.5s24.334 27.167 50.001 52.5s53.334 47.166 83.001 65.499s67.334 35.5 113.001 51.5s92.167 24 139.5 24c104 0 194.5 -41.667 271.5 -125s115.5 -182.333 115.5 -297c0 -162.667 -59.333 -303.667 -178 -423
s-246.334 -179 -383.001 -179c-48 0 -92.667 7.83301 -134 23.5s-75 34.334 -101 56.001s-48.167 43.5 -66.5 65.5s-31.166 40.333 -38.499 55l-12 25l-135 -635h-92l301 1413h92z" />
    <glyph glyph-name="uni0441" unicode="&#x441;" horiz-adv-x="1054" 
d="M92 406c0 152.667 56.334 290.5 169.001 413.5s248.334 184.5 407.001 184.5c48 0 93.333 -7.16699 136 -21.5s77.667 -31.5 105 -51.5s51.333 -39.833 72 -59.5s35 -37.167 43 -52.5l14 -20l-80 -58c-2.66699 4 -6 10.167 -10 18.5s-14.833 22 -32.5 41
s-36.834 36 -57.501 51s-49 28.667 -85 41s-74 18.5 -114 18.5c-118.667 0 -227.167 -49.5 -325.5 -148.5s-147.5 -215.833 -147.5 -350.5c0 -94 31.167 -174.167 93.5 -240.5s137.166 -99.5 224.499 -99.5c64 0 124.667 14.667 182 44s99 58.333 125 87l37 43l61 -62
c-4 -5.33301 -10 -12.833 -18 -22.5s-25.667 -26 -53 -49s-56 -43.333 -86 -61s-68.333 -34 -115 -49s-93.667 -22.5 -141 -22.5c-110.667 0 -205.667 42 -285 126s-119 184 -119 300z" />
    <glyph glyph-name="uni0442" unicode="&#x442;" horiz-adv-x="1771" 
d="M1413 0l122.999 584.001c6.66699 36.667 10 67.334 10 92.001c0 72.667 -21.833 130 -65.5 172s-98.834 63 -165.501 63c-83.333 0 -158.166 -32 -224.499 -96s-111.166 -151.333 -134.499 -262l-116 -553h-92l122 584c6.66699 36.667 10.334 67.334 11.001 92.001
c0 72.667 -21.833 130 -65.5 172s-99.167 63 -166.5 63c-83.333 0 -158 -32 -224 -96s-110.667 -151.333 -134 -262l-117 -553h-92l209 983h92l-31 -143c2.66699 4 6.5 9.66699 11.5 17s16.333 20.666 34 39.999s37.334 36.166 59.001 50.499s50.667 27.333 87 39
s74.166 17.5 113.499 17.5c46.667 0 88.834 -8 126.501 -24s67 -34.833 88 -56.5s39 -43.5 54 -65.5s24.5 -40.333 28.5 -55l9 -25c2.66699 5.33301 6.66699 13.166 12 23.499s18.166 28.5 38.499 54.5s43.166 48.833 68.499 68.5s59.5 37.834 102.5 54.501
s89.167 25 138.5 25c88.667 0 163.667 -27 225 -81s92 -128.333 92 -223c0 -36.667 -4 -75.334 -12 -116.001l-123 -584h-92z" />
    <glyph glyph-name="uni0443" unicode="&#x443;" horiz-adv-x="983" 
d="M219 -184l113 184.001l-185 983h99l164 -862l530 862h109l-721 -1167c-54.667 -88.667 -107 -151.834 -157 -189.501s-110.333 -56.5 -181 -56.5c-15.333 0 -30.166 1.66699 -44.499 5s-24.833 7 -31.5 11l-10 4l18 93c23.333 -13.333 52 -20.333 86 -21
c45.333 0 83.666 12.333 114.999 37s63.333 63.667 96 117z" />
    <glyph glyph-name="uni0444" unicode="&#x444;" horiz-adv-x="1423" 
d="M756 911c-94 0 -183.833 -19.001 -269.5 -57.001s-157.167 -95.667 -214.5 -173s-86 -165.166 -86 -263.499s34.833 -180.5 104.5 -246.5s165.5 -99 287.5 -99zM670 71.999c146 0 277.333 45.333 394 136s175 209 175 355c0 100 -34.833 183 -104.5 249
s-165.167 99 -286.5 99zM649 -20.001l-85.998 -409.999h-92l86 410c-142 0 -255 41.167 -339 123.5s-126 183.833 -126 304.5c0 166.667 66.667 307.667 200 423s294.666 173 483.999 173l90 430h92l-90 -430c142 0 255 -41.667 339 -125s126 -186 126 -308
c0 -166.667 -66.833 -306.834 -200.5 -420.501s-294.834 -170.5 -483.501 -170.5z" />
    <glyph glyph-name="uni0445" unicode="&#x445;" horiz-adv-x="942" 
d="M977 983l-438 -471l260 -512h-107l-225 440l-410 -440h-118l477 512l-238 471h107l200 -399l373 399h119z" />
    </font>
</defs>
</svg>
