<?xml version="1.0" standalone="no"?>
<!DOCTYPE svg PUBLIC "-//W3C//DTD SVG 1.1//EN" "http://www.w3.org/Graphics/SVG/1.1/DTD/svg11.dtd" >
<svg xmlns="http://www.w3.org/2000/svg" xmlns:xlink="http://www.w3.org/1999/xlink" version="1.1">
<metadata>
Created by FontForge 20190801 at Tue May 30 06:15:02 2017
 By Jimmy Wärting
Copyright (c) 2017 by TypeType. Designers Ivan Gladkikh, Pavel Emelyanov. Technical designers Olexa Volochay, Nadyr Rakhimov, Dmitriy Greshnev. All rights reserved.
</metadata>
<defs>
<font id="TTNorms-Medium" horiz-adv-x="1187" >
  <font-face 
    font-family="TT Norms Medium"
    font-weight="500"
    font-stretch="normal"
    units-per-em="2048"
    panose-1="2 0 8 3 3 0 0 2 0 3"
    ascent="1638"
    descent="-410"
    x-height="983"
    cap-height="1434"
    bbox="-348 -461.002 2945.01 1987"
    underline-thickness="0"
    underline-position="0"
    unicode-range="U+000D-FB06"
  />
<missing-glyph horiz-adv-x="0" 
 />
    <glyph glyph-name="ij" unicode="ij" horiz-adv-x="1064" 
d="M696 205l0.00292969 777.999h205v-1106c0 -204.667 -95.667 -307 -287 -307c-24.667 0 -48.834 1.66699 -72.501 5s-41.834 7 -54.501 11l-16 4v185c34 -13.333 68 -20.333 102 -21c35.333 0 64.666 11.667 87.999 35s35 53.333 35 90v141
c-40.667 -27.333 -102 -40.666 -184 -39.999c-104 0 -191.5 36.833 -262.5 110.5s-106.5 166.5 -106.5 278.5v614h205v-614c0 -61.333 18.833 -110.833 56.5 -148.5s87.167 -56.5 148.5 -56.5c24.667 0 49 3.33301 73 10s42 13.667 54 21zM922.003 1290
c0 -35.333 -11.667 -64.666 -35 -87.999s-52.833 -35 -88.5 -35s-65 11.667 -88 35s-34.5 52.666 -34.5 87.999s11.5 64.666 34.5 87.999s52.333 35 88 35s65.167 -11.667 88.5 -35s35 -52.666 35 -87.999zM369.003 1290c0 -35.333 -11.667 -64.666 -35 -87.999
s-52.666 -35 -87.999 -35s-64.666 11.667 -87.999 35s-35 52.666 -35 87.999s11.667 64.666 35 87.999s52.666 35 87.999 35s64.666 -11.667 87.999 -35s35 -52.666 35 -87.999z" />
    <glyph glyph-name="uniFB00" unicode="ff" horiz-adv-x="1310" 
d="M1239 983l-0.00292969 -184h-225v-799h-205v799h-410v-799h-204v799h-144v184h144v123c0 204.667 95.333 307 286 307c24.667 0 49 -1.66699 73 -5s41.333 -7 52 -11l19 -4v-185c-34 13.333 -68.333 20.333 -103 21c-35.333 0 -64.666 -11.667 -87.999 -35
s-35 -53.333 -35 -90v-121h410v164c0 204.667 95.667 307 287 307c24.667 0 48.834 -1.66699 72.501 -5s41.167 -7 52.5 -11l18 -4v-185c-34 13.333 -68 20.333 -102 21c-35.333 0 -64.666 -11.667 -87.999 -35s-35 -53.333 -35 -90v-162h225z" />
    <glyph glyph-name="uniFB01" unicode="fi" horiz-adv-x="1177" 
d="M1014 983l-0.00195312 -983h-205v799h-410v-799h-204v799h-144v184h144v164c0 204.667 95.333 307 286 307c24.667 0 47.334 -1.66699 68.001 -5s35 -7 43 -11l12 -4v-185c-20.667 13.333 -48 20.333 -82 21c-35.333 0 -64.666 -11.667 -87.999 -35s-35 -53.333 -35 -90
v-162h615zM1034 1290c0 -35.333 -11.5 -64.666 -34.5 -87.999s-52.333 -35 -88 -35s-65.167 11.667 -88.5 35s-35 52.666 -35 87.999s11.667 64.666 35 87.999s52.833 35 88.5 35s65 -11.667 88 -35s34.5 -52.666 34.5 -87.999z" />
    <glyph glyph-name="uniFB02" unicode="fl" 
d="M809 1065c0 61.333 -18.833 110.833 -56.5 148.5s-87.167 56.5 -148.5 56.5s-110.833 -18.833 -148.5 -56.5s-56.5 -87.167 -56.5 -148.5v-82h226v-184h-226v-799h-204v799h-144v184h144v82c0 113.333 37.833 206.5 113.5 279.5s174.167 109.5 295.5 109.5
s220 -36.5 296 -109.5s114 -166.167 114 -279.5v-1065h-205v1065z" />
    <glyph glyph-name="uniFB03" unicode="ffi" horiz-adv-x="1792" 
d="M809 983l-0.00292969 164c0 204.667 95.667 307 287 307c24.667 0 48.834 -1.66699 72.501 -5s41.167 -7 52.5 -11l18 -4v-185c-34 13.333 -68 20.333 -102 21c-35.333 0 -64.666 -11.667 -87.999 -35s-35 -53.333 -35 -90v-162h614v-983h-205v799h-409v-799h-205v799
h-410v-799h-204v799h-144v184h144v123c0 204.667 95.333 307 286 307c24.667 0 49 -1.66699 73 -5s41.333 -7 52 -11l19 -4v-185c-34 13.333 -68.333 20.333 -103 21c-35.333 0 -64.666 -11.667 -87.999 -35s-35 -53.333 -35 -90v-121h410zM1649 1290
c0 -35.333 -11.667 -64.666 -35 -87.999s-52.666 -35 -87.999 -35s-64.666 11.667 -87.999 35s-35 52.666 -35 87.999s11.667 64.666 35 87.999s52.666 35 87.999 35s64.666 -11.667 87.999 -35s35 -52.666 35 -87.999z" />
    <glyph glyph-name="uniFB06" unicode="st" horiz-adv-x="1638" 
d="M758 870l-133.001 -132.999c-5.33301 5.33301 -13.166 12.833 -23.499 22.5s-31.666 22 -63.999 37s-64.833 22.5 -97.5 22.5c-44 0 -78.833 -10.167 -104.5 -30.5s-38.5 -44.166 -38.5 -71.499c0 -28.667 12.333 -52.667 37 -72s55.667 -34 93 -44
s77.5 -22.5 120.5 -37.5s83.333 -31.833 121 -50.5s68.834 -47.334 93.501 -86.001s37 -85.334 37 -140.001c0 -84.667 -34.167 -157 -102.5 -217s-157.166 -90 -266.499 -90c-48 0 -93.833 6 -137.5 18s-79.5 26.333 -107.5 43s-52.5 33.5 -73.5 50.5
s-36.167 31.5 -45.5 43.5l-15 19l133 133c6.66699 -9.33301 16.5 -21 29.5 -35s41 -32.167 84 -54.5s87.167 -33.5 132.5 -33.5c54.667 0 95.667 11.167 123 33.5s41 52.166 41 89.499c0 28.667 -12.333 52.5 -37 71.5s-55.667 33.667 -93 44s-77.5 23 -120.5 38
s-83.333 31.667 -121 50s-68.834 47 -93.501 86s-37 85.833 -37 140.5c0 75.333 33.167 142 99.5 200s149.166 87 248.499 87l72 -11c-13.333 20.667 -20 58.334 -20 113.001c0 90 39.167 170.5 117.5 241.5s172.166 106.5 281.499 106.5
c116 0 213.167 -37.833 291.5 -113.5s117.5 -167.5 117.5 -275.5v-82h205v-184h-205v-510c0 -36.667 11.667 -66.667 35 -90s52.666 -35 87.999 -35c15.333 0 31.5 1.66699 48.5 5s30.167 7 39.5 11l15 4v-184c-40.667 -13.333 -88.667 -20 -144 -20
c-191.333 0 -286.666 102.333 -285.999 307v512h-185v184h185v82c0 61.333 -18.833 110.833 -56.5 148.5s-87.167 56.5 -148.5 56.5s-110.833 -19.5 -148.5 -58.5s-56.5 -91.167 -56.5 -156.5c0 -32.667 5.83301 -64.5 17.5 -95.5s23.5 -53.167 35.5 -66.5z" />
    <glyph glyph-name="c_t.liga" unicode="ct" horiz-adv-x="1822" 
d="M983 809l-132.996 -133.003c-6.66699 10.667 -16.834 23.834 -30.501 39.501s-43.334 36.834 -89.001 63.501s-94.5 40 -146.5 40c-83.333 0 -155.5 -31.667 -216.5 -95s-91.5 -140.833 -91.5 -232.5s30.5 -169.167 91.5 -232.5s133.167 -95 216.5 -95
c52 0 100.833 13 146.5 39s78.5 51.333 98.5 76l31 38l133 -133c-4 -5.33301 -10 -12.833 -18 -22.5s-25.333 -26 -52 -49s-54.667 -43.333 -84 -61s-67.333 -34 -114 -49s-93.667 -22.5 -141 -22.5c-138 0 -257.833 50.833 -359.5 152.5s-152.5 221.334 -152.5 359.001
s50.833 257.5 152.5 359.5s221.5 153 359.5 153l92 -11c-13.333 20.667 -20.333 58.334 -21 113.001c0 90 39.667 170.5 119 241.5s176.333 106.5 291 106.5c121.333 0 221.666 -37.5 300.999 -112.5s119 -167.167 119 -276.5v-82h205v-184h-205v-510
c0 -36.667 11.5 -66.667 34.5 -90s52.5 -35 88.5 -35c15.333 0 31.333 1.66699 48 5s30 7 40 11l14 4v-184c-40.667 -13.333 -88.334 -20 -143.001 -20c-191.333 0 -287 102.333 -287 307v512h-184v184h184v82c0 61.333 -19.5 110.833 -58.5 148.5s-91.167 56.5 -156.5 56.5
c-66.667 0 -119.167 -19.167 -157.5 -57.5s-57.5 -90.833 -57.5 -157.5c0 -46.667 11.167 -88.334 33.5 -125.001s55.5 -77 99.5 -121z" />
    <glyph glyph-name="s_p.liga" unicode="sp" horiz-adv-x="2129" 
d="M1556 -20c-36.667 0 -72.333 4.33301 -107 13s-64.334 19.5 -89.001 32.5s-46.5 26.333 -65.5 40s-32.833 24.5 -41.5 32.5l-14 15v-543h-205v1495c0 65.333 -16 115.833 -48 151.5s-74 53.5 -126 53.5s-94 -17.5 -126 -52.5s-48 -82.5 -48 -142.5
c0 -39.333 5.83301 -76.166 17.5 -110.499s23.5 -58.166 35.5 -71.499l19 -23l-133 -133c-5.33301 5.33301 -13.166 12.833 -23.499 22.5s-31.666 22 -63.999 37s-64.833 22.5 -97.5 22.5c-44 0 -78.833 -10.167 -104.5 -30.5s-38.5 -44.166 -38.5 -71.499
c0 -28.667 12.333 -52.667 37 -72s55.667 -34 93 -44s77.5 -22.5 120.5 -37.5s83.333 -31.833 121 -50.5s68.834 -47.334 93.501 -86.001s37 -85.334 37 -140.001c0 -84.667 -34.167 -157 -102.5 -217s-157.166 -90 -266.499 -90c-48 0 -93.833 6 -137.5 18
s-79.5 26.333 -107.5 43s-52.5 33.5 -73.5 50.5s-36.167 31.5 -45.5 43.5l-15 19l133 133c6.66699 -9.33301 16.5 -21 29.5 -35s41 -32.167 84 -54.5s87.167 -33.5 132.5 -33.5c54.667 0 95.667 11.167 123 33.5s41 52.166 41 89.499c0 28.667 -12.333 52.5 -37 71.5
s-55.667 33.667 -93 44s-77.5 23 -120.5 38s-83.333 31.667 -121 50s-68.834 47 -93.501 86s-37 85.833 -37 140.5c0 75.333 33.167 142 99.5 200s149.166 87 248.499 87l72 -11c-13.333 20.667 -20 58.334 -20 113.001c0 98 34.667 180.5 104 247.5
s157.333 100.5 264 100.5c113.333 0 204.833 -35.5 274.5 -106.5s104.5 -165.167 104.5 -282.5v-195c9.33301 9.33301 22.666 21.666 39.999 36.999s53.5 35.333 108.5 60s111.167 37 168.5 37c130 0 242.833 -49.833 338.5 -149.5s143.5 -220.5 143.5 -362.5
s-47.833 -262.833 -143.5 -362.5s-208.5 -149.5 -338.5 -149.5zM1536 819c-78 0 -147 -32 -207 -96s-90 -141.167 -90 -231.5s30 -167.5 90 -231.5s129 -96 207 -96s147 32 207 96s90 141.167 90 231.5s-30 167.5 -90 231.5s-129 96 -207 96z" />
    <glyph glyph-name="f_t.liga" unicode="ft" horiz-adv-x="1372" 
d="M850 1106v205h184v-328h205v-184h-205v-510c0 -36.667 11.667 -66.667 35 -90s52.666 -35 87.999 -35c15.333 0 31.5 1.66699 48.5 5s30.167 7 39.5 11l15 4v-184c-40.667 -13.333 -88.667 -20 -144 -20c-191.333 0 -287 102.333 -287 307v512h-430v-799h-204v799h-144
v184h144v164c0 204.667 95.333 307 286 307c24.667 0 49 -1.66699 73 -5s41.333 -7 52 -11l19 -4v-185c-34 13.333 -68.333 20.333 -103 21c-35.333 0 -64.666 -11.667 -87.999 -35s-35 -53.333 -35 -90v-162h349c68 0 102 41 102 123z" />
    <glyph glyph-name=".notdef" horiz-adv-x="0" 
 />
    <glyph glyph-name="glyph1" horiz-adv-x="0" 
 />
    <glyph glyph-name="glyph1" horiz-adv-x="0" 
 />
    <glyph glyph-name="uni000D" unicode="&#xd;" horiz-adv-x="0" 
 />
    <glyph glyph-name="space" unicode=" " horiz-adv-x="409" 
 />
    <glyph glyph-name="exclam" unicode="!" horiz-adv-x="675" 
d="M420 379h-164l-41 1055h246zM205 112.5c0 35.667 13.333 66.834 40 93.501s57.667 40 93 40s66.333 -13.333 93 -40s40 -57.834 40 -93.501s-13.333 -66.667 -40 -93s-57.667 -39.5 -93 -39.5s-66.333 13.167 -93 39.5s-40 57.333 -40 93z" />
    <glyph glyph-name="quotedbl" unicode="&#x22;" horiz-adv-x="757" 
d="M307 1434v-430h-184v430h184zM635 1434v-430h-184v430h184z" />
    <glyph glyph-name="numbersign" unicode="#" horiz-adv-x="1525" 
d="M174 1024h307l72 410h174l-72 -410h338l72 410h174l-72 -410h318l-31 -154h-317l-62 -307h307l-30 -153h-308l-71 -410h-174l71 410h-338l-71 -410h-174l71 410h-317l31 153h315l64 307h-308zM625 870l-62 -307h338l62 307h-338z" />
    <glyph glyph-name="dollar" unicode="$" horiz-adv-x="1208" 
d="M492 1659l203.998 -0.000976562v-215c60 -9.33301 117.333 -28.5 172 -57.5s94.334 -55.5 119.001 -79.5l37 -37l-143 -144c-2.66699 2.66699 -6.5 7.16699 -11.5 13.5s-16.333 16.333 -34 30s-36.667 26 -57 37s-47 20.833 -80 29.5s-67.833 13 -104.5 13
c-74 0 -133.5 -18.333 -178.5 -55s-67.5 -79.667 -67.5 -129c0 -44 14 -81 42 -111s64.167 -53.5 108.5 -70.5s93.5 -32.333 147.5 -46s108 -30.334 162 -50.001s103.167 -43.5 147.5 -71.5s80.5 -68 108.5 -120s42 -114 42 -186c0 -53.333 -7.5 -101.833 -22.5 -145.5
s-34.5 -79.5 -58.5 -107.5s-50.667 -53 -80 -75s-58.666 -38.5 -87.999 -49.5s-56 -20.167 -80 -27.5s-43.333 -11.666 -58 -12.999l-23 -2v-215h-204v215c-49.333 5.33301 -97.166 16.5 -143.499 33.5s-85 35.5 -116 55.5s-58.333 39.5 -82 58.5s-41.167 34.5 -52.5 46.5
l-16 21l143 143c2.66699 -4 7.16699 -9.83301 13.5 -17.5s20.666 -21 42.999 -40s46.5 -35.667 72.5 -50s60.5 -27.333 103.5 -39s88.5 -17.5 136.5 -17.5c88.667 0 158.667 21.5 210 64.5s77 96.833 77 161.5c0 44 -14 80.833 -42 110.5s-64.167 53 -108.5 70
s-93.5 32.333 -147.5 46s-108 30.5 -162 50.5s-103.167 44 -147.5 72s-80.5 67.833 -108.5 119.5s-42 113.834 -42 186.501c0 62.667 12.667 118.667 38 168s56 86.5 92 111.5s72.167 45.833 108.5 62.5s67.5 27 93.5 31l37 6v215z" />
    <glyph glyph-name="percent" unicode="%" horiz-adv-x="1576" 
d="M737 1137c0 -87.333 -31.667 -162.166 -95 -224.499s-140.833 -93.5 -232.5 -93.5s-169.167 31.167 -232.5 93.5s-95 137.166 -95 224.499s31.667 162 95 224s140.833 93 232.5 93s169.167 -31 232.5 -93s95 -136.667 95 -224zM246 1136.5
c0 -46.333 15.667 -85.166 47 -116.499s70.166 -47 116.499 -47s85.166 15.667 116.499 47s47 70.166 47 116.499s-15.667 85.166 -47 116.499s-70.166 47 -116.499 47s-85.166 -15.667 -116.499 -47s-47 -70.166 -47 -116.499zM246 0l901 1434h184l-901 -1434h-184z
M840 297c0 87.333 31.667 162 95 224s140.833 93 232.5 93s169.167 -31 232.5 -93s95 -136.667 95 -224s-31.667 -162 -95 -224s-140.833 -93 -232.5 -93s-169.167 31 -232.5 93s-95 136.667 -95 224zM1331 297c0 46.667 -15.667 85.667 -47 117s-70.166 47 -116.499 47
s-85.166 -15.667 -116.499 -47s-47 -70.333 -47 -117s15.667 -85.667 47 -117s70.166 -47 116.499 -47s85.166 15.667 116.499 47s47 70.333 47 117z" />
    <glyph glyph-name="ampersand" unicode="&#x26;" horiz-adv-x="1310" 
d="M1065 266c4 -8 10.498 -17.5 19.498 -28.5s25.667 -26 50 -45s48.833 -28.5 73.5 -28.5c6.66699 0 13.167 1 19.5 3s11.5 3.66699 15.5 5s6 2.66602 6 3.99902v-186c-27.333 -6.66699 -54.666 -10 -81.999 -10c-42 0 -82.833 11.833 -122.5 35.5s-68.5 47.167 -86.5 70.5
l-26 37c-9.33301 -10.667 -23.666 -24 -42.999 -40s-60 -37.167 -122 -63.5s-126.667 -39.5 -194 -39.5c-128.667 0 -232.5 34 -311.5 102s-118.5 150 -118.5 246c0 49.333 9.33301 97.833 28 145.5s40.834 87.834 66.501 120.501s51.5 62 77.5 88s48 45 66 57l29 19
c-15.333 15.333 -34.333 35.833 -57 61.5s-53 71 -91 136s-57 121.833 -57 170.5c0 92.667 32.667 170.5 98 233.5s148.666 94.5 249.999 94.5c100 0 183 -30.333 249 -91s99 -132.667 99 -216c0 -60 -20.5 -122.5 -61.5 -187.5s-81.833 -114.5 -122.5 -148.5l-62 -53
l277 -338c48 75.333 72 167.333 72 276h184c0 -72.667 -10.333 -144.667 -31 -216s-41 -125 -61 -161zM572.998 164c42 0 83.667 7.5 125 22.5s72.333 30.5 93 46.5l28 23l-297 369c-13.333 -9.33301 -29.666 -23 -48.999 -41s-45 -51.167 -77 -99.5s-48 -93.833 -48 -136.5
c0 -57.333 18.667 -102.333 56 -135s93.666 -49 168.999 -49zM706.998 1126c0 40.667 -14.333 74.832 -43 102.499s-65.667 41.5 -111 41.5s-82.333 -13.667 -111 -41s-43 -61.666 -43 -102.999c0 -30 12.667 -64.667 38 -104s51 -71.333 77 -96l39 -35
c10.667 9.33301 24.667 22.5 42 39.5s40.333 46.333 69 88s43 77.5 43 107.5z" />
    <glyph glyph-name="quotesingle" unicode="'" horiz-adv-x="430" 
d="M307 1434v-430h-184v430h184z" />
    <glyph glyph-name="parenleft" unicode="(" horiz-adv-x="696" 
d="M348 512c0 -95.333 9.99707 -190.835 29.9971 -286.502s44 -177.667 72 -246s55.833 -129.833 83.5 -184.5s51.834 -95.667 72.501 -123l29 -41l-154 -92c-8 10.667 -19.167 25.667 -33.5 45s-40 61.333 -77 126s-69.167 132.167 -96.5 202.5
s-52.5 160.166 -75.5 269.499s-34.5 219.333 -34.5 330s10.833 219.834 32.5 327.501s48.334 198.834 80.001 273.501s62.834 141 93.501 199s57 101.333 79 130l32 43l154 -92c-8 -9.33301 -18.5 -23.666 -31.5 -42.999s-36 -59.333 -69 -120s-62 -123.167 -87 -187.5
s-47.833 -145 -68.5 -242s-31 -193.167 -31 -288.5z" />
    <glyph glyph-name="parenright" unicode=")" horiz-adv-x="696" 
d="M348 512c0 95.333 -9.83203 190.835 -29.499 286.502s-43.5 177.667 -71.5 246s-56 129.833 -84 184.5s-52.333 95.667 -73 123l-29 41l154 92c8 -10.667 19.167 -25.667 33.5 -45s40 -61.333 77 -126s69.167 -132.167 96.5 -202.5s52.5 -160.166 75.5 -269.499
s34.5 -219.333 34.5 -330s-10.833 -219.834 -32.5 -327.501s-48.167 -198.834 -79.5 -273.501s-62.333 -141 -93 -199s-57 -101.333 -79 -130l-33 -43l-154 92c8 9.33301 18.667 23.666 32 42.999s36.333 59.333 69 120s61.667 123.167 87 187.5s48.166 145 68.499 242
s30.5 193.167 30.5 288.5z" />
    <glyph glyph-name="asterisk" unicode="*" horiz-adv-x="819" 
d="M492 1434l-21 -256l236 92l51 -154l-246 -61l164 -205l-123 -102l-143 225l-144 -225l-123 102l164 205l-246 61l52 154l235 -92l-20 256h164z" />
    <glyph glyph-name="plus" unicode="+" horiz-adv-x="1075" 
d="M625 143h-174v369h-369v184h369v369h174v-369h368v-184h-368v-369z" />
    <glyph glyph-name="comma" unicode="," horiz-adv-x="491" 
d="M205 246l184 -103l-256 -409l-133 71z" />
    <glyph glyph-name="hyphen" unicode="-" horiz-adv-x="880" 
d="M799 696v-184h-717v184h717z" />
    <glyph glyph-name="period" unicode="." horiz-adv-x="471" 
d="M369 112.5c0 -35.667 -13.333 -66.667 -40 -93s-57.834 -39.5 -93.501 -39.5s-66.834 13.167 -93.501 39.5s-40 57.333 -40 93s13.333 66.834 40 93.501s57.834 40 93.501 40s66.834 -13.333 93.501 -40s40 -57.834 40 -93.501z" />
    <glyph glyph-name="slash" unicode="/" horiz-adv-x="921" 
d="M860 1454l-614 -1884h-185l615 1884h184z" />
    <glyph glyph-name="zero" unicode="0" horiz-adv-x="1454" 
d="M123 717c0 224 58.333 402.833 175 536.5s259.667 200.5 429 200.5s312.333 -66.833 429 -200.5s175 -312.5 175 -536.5s-58.333 -402.833 -175 -536.5s-259.667 -200.5 -429 -200.5s-312.333 66.833 -429 200.5s-175 312.5 -175 536.5zM1106 717
c0 165.333 -37.167 295.333 -111.5 390s-163.5 142 -267.5 142s-193.167 -47.333 -267.5 -142s-111.5 -224.667 -111.5 -390s37.167 -295.5 111.5 -390.5s163.5 -142.5 267.5 -142.5s193.167 47.5 267.5 142.5s111.5 225.167 111.5 390.5z" />
    <glyph glyph-name="one" unicode="1" horiz-adv-x="788" 
d="M389 1434h174v-1434h-225v1085h-256v154c86 9.33301 151.5 29.833 196.5 61.5s81.833 76.167 110.5 133.5z" />
    <glyph glyph-name="two" unicode="2" horiz-adv-x="1157" 
d="M1034 0l-952.002 0.00390625c0 88.667 13.333 169.167 40 241.5s61.5 132.5 104.5 180.5s90.333 92 142 132s103.167 76.5 154.5 109.5s98.5 65.5 141.5 97.5s77.833 69.5 104.5 112.5s40 89.833 40 140.5c0 72.667 -22.5 130 -67.5 172s-107.833 63 -188.5 63
c-39.333 0 -76.166 -7.16699 -110.499 -21.5s-61 -31.333 -80 -51s-35.667 -39.5 -50 -59.5s-24.166 -37.333 -29.499 -52l-7 -21l-184 82c2.66699 9.33301 6.5 21.333 11.5 36s19 40.667 42 78s49.833 70.333 80.5 99s75 55 133 79s122.667 36 194 36
c140.667 0 256 -42.333 346 -127s135 -189 135 -313c0 -65.333 -13.333 -126 -40 -182s-60.5 -102.833 -101.5 -140.5s-88 -76.334 -141 -116.001s-104.5 -75.834 -154.5 -108.501s-99.167 -71.834 -147.5 -117.501s-85.5 -93.834 -111.5 -144.501h696v-205z" />
    <glyph glyph-name="three" unicode="3" horiz-adv-x="1167" 
d="M809 758c6.66699 -2.66699 15.832 -6.5 27.499 -11.5s32.167 -17 61.5 -36s55.333 -40.833 78 -65.5s43.167 -58.834 61.5 -102.501s27.5 -91.5 27.5 -143.5c0 -117.333 -46.833 -216.5 -140.5 -297.5s-217.5 -121.5 -371.5 -121.5c-65.333 0 -127.333 7.83301 -186 23.5
s-107.167 34.334 -145.5 56.001s-71.5 43.5 -99.5 65.5s-48.333 40.333 -61 55l-20 25l143 143c2.66699 -4 7.5 -9.83301 14.5 -17.5s22.167 -21 45.5 -40s47.833 -35.667 73.5 -50s59.667 -27.333 102 -39s86.833 -17.5 133.5 -17.5c88.667 0 158.667 21.5 210 64.5
s77 96.667 77 161s-25.667 118 -77 161s-121.333 64.5 -210 64.5h-143v205h143c70.667 0 125.834 18.333 165.501 55s59.5 86.5 59.5 149.5s-19.833 112.833 -59.5 149.5s-94.834 55 -165.501 55c-60 0 -116.667 -13 -170 -39s-91 -51 -113 -75l-34 -39l-144 143
c4 5.33301 10.167 12.833 18.5 22.5s26.833 27.167 55.5 52.5s59.334 47.166 92.001 65.499s75.667 35.333 129 51s108.666 23.5 165.999 23.5c140.667 0 251 -36.167 331 -108.5s120 -165.833 120 -280.5c0 -39.333 -6.83301 -77.166 -20.5 -113.499
s-30.167 -65.833 -49.5 -88.5s-38.166 -42.167 -56.499 -58.5s-34.5 -27.833 -48.5 -34.5z" />
    <glyph glyph-name="four" unicode="4" horiz-adv-x="1249" 
d="M1004 492h184v-205h-184v-287h-226v287h-696v245l635 902h287v-942zM778 492v686l-481 -686h481z" />
    <glyph glyph-name="five" unicode="5" horiz-adv-x="1290" 
d="M676 952c143.333 0 260.999 -45.334 352.999 -136.001s138 -205.667 138 -345c0 -144.667 -47 -262.667 -141 -354s-217.667 -137 -371 -137c-65.333 0 -127.333 7.83301 -186 23.5s-107.167 34.334 -145.5 56.001s-71.5 43.5 -99.5 65.5s-48 40.333 -60 55l-21 25
l144 143c2.66699 -4 7.33398 -9.83301 14.001 -17.5s21.667 -21 45 -40s48 -35.667 74 -50s60.167 -27.333 102.5 -39s86.5 -17.5 132.5 -17.5c82 0 150.333 27.333 205 82s82 123 82 205s-27.333 150.333 -82 205s-123 82 -205 82c-60 0 -113.833 -11 -161.5 -33
s-80.5 -44 -98.5 -66l-26 -34h-164l41 809h829v-205h-624l-21 -338c54.667 40.667 136.667 61 246 61z" />
    <glyph glyph-name="six" unicode="6" horiz-adv-x="1249" 
d="M655 963c124 0 233.5 -48.833 328.5 -146.5s142.5 -212.834 142.5 -345.501c0 -134 -49.833 -249.333 -149.5 -346s-220.5 -145 -362.5 -145s-262.833 48.333 -362.5 145s-149.5 212 -149.5 346c0 54.667 9.66699 109.334 29 164.001s38.333 95.667 57 123l27 41l410 635
h225l-318 -492c34 14 75 21 123 21zM922 471c0 82 -29.833 152 -89.5 210s-132.5 87 -218.5 87s-158.667 -29 -218 -87s-89 -128 -89 -210s29.667 -152 89 -210s132 -87 218 -87s158.833 29 218.5 87s89.5 128 89.5 210z" />
    <glyph glyph-name="seven" unicode="7" horiz-adv-x="1075" 
d="M61 1434h953v-185l-604 -1249h-226l594 1229h-717v205z" />
    <glyph glyph-name="eight" unicode="8" horiz-adv-x="1228" 
d="M614.5 686c-80.333 0 -148.166 -25.667 -203.499 -77s-83 -111 -83 -179s27.667 -127.667 83 -179s123.166 -77 203.499 -77s148.166 25.667 203.499 77s83 111 83 179s-27.667 127.667 -83 179s-123.166 77 -203.499 77zM614.5 1270
c-65.667 0 -119.667 -19.833 -162 -59.5s-63.5 -88.167 -63.5 -145.5s21.167 -105.833 63.5 -145.5s96.333 -59.5 162 -59.5s119.667 19.833 162 59.5s63.5 88.167 63.5 145.5s-21.167 105.833 -63.5 145.5s-96.333 59.5 -162 59.5zM614.5 1454
c120.333 0 222 -38.833 305 -116.5s124.5 -168.5 124.5 -272.5c0 -34 -4.66699 -67 -14 -99s-21.166 -58.333 -35.499 -79s-28.666 -38.834 -42.999 -54.501s-26.5 -26.834 -36.5 -33.501l-14 -11c5.33301 -4 12.833 -9.33301 22.5 -16s26.167 -21.667 49.5 -45
s43.833 -48 61.5 -74s34 -59 49 -99s22.5 -81.333 22.5 -124c0 -124 -46.833 -230 -140.5 -318s-210.834 -132 -351.501 -132s-257.667 44 -351 132s-140 194 -140 318c0 66.667 17 129.834 51 189.501s68 103.167 102 130.5l52 38c-10.667 6.66699 -24 17 -40 31
s-37.333 44.833 -64 92.5s-40 98.834 -40 153.501c0 104 41.667 194.833 125 272.5s185.166 116.5 305.499 116.5z" />
    <glyph glyph-name="nine" unicode="9" horiz-adv-x="1249" 
d="M594 471c-124 0 -233.5 48.833 -328.5 146.5s-142.5 212.834 -142.5 345.501c0 134 49.833 249.333 149.5 346s220.5 145 362.5 145s262.833 -48.5 362.5 -145.5s149.5 -212.167 149.5 -345.5c0 -54.667 -9.5 -109.334 -28.5 -164.001s-38.167 -95.667 -57.5 -123
l-27 -41l-409 -635h-226l318 492c-34 -14 -75 -21 -123 -21zM328 962.5c0 -81.667 29.667 -151.5 89 -209.5s132 -87 218 -87s158.667 29 218 87s89 127.833 89 209.5s-29.667 151.667 -89 210s-132 87.5 -218 87.5s-158.667 -29.167 -218 -87.5s-89 -128.333 -89 -210z" />
    <glyph glyph-name="colon" unicode=":" horiz-adv-x="471" 
d="M102 112.5c0 35.667 13.333 66.834 40 93.501s57.834 40 93.501 40s66.834 -13.333 93.501 -40s40 -57.834 40 -93.501s-13.333 -66.667 -40 -93s-57.834 -39.5 -93.501 -39.5s-66.834 13.167 -93.501 39.5s-40 57.333 -40 93zM102 870.5
c0 35.667 13.333 66.834 40 93.501s57.834 40 93.501 40s66.834 -13.333 93.501 -40s40 -57.834 40 -93.501s-13.333 -66.834 -40 -93.501s-57.834 -40 -93.501 -40s-66.834 13.333 -93.501 40s-40 57.834 -40 93.501z" />
    <glyph glyph-name="semicolon" unicode=";" horiz-adv-x="501" 
d="M205 246l184 -103l-256 -409l-133 71zM133 870.5c0 35.667 13.333 66.834 40 93.501s57.667 40 93 40s66.333 -13.333 93 -40s40 -57.834 40 -93.501s-13.333 -66.834 -40 -93.501s-57.667 -40 -93 -40s-66.333 13.333 -93 40s-40 57.834 -40 93.501z" />
    <glyph glyph-name="less" unicode="&#x3c;" horiz-adv-x="1024" 
d="M82 451v102l860 451v-205l-573 -297l573 -297v-205z" />
    <glyph glyph-name="equal" unicode="=" horiz-adv-x="1003" 
d="M922 512v-184h-840v184h840zM922 881v-185h-840v185h840z" />
    <glyph glyph-name="greater" unicode="&#x3e;" horiz-adv-x="1024" 
d="M942 553v-102l-860 -451v205l573 297l-573 297v205z" />
    <glyph glyph-name="question" unicode="?" horiz-adv-x="1095" 
d="M420 471c0 56 12.668 106.834 38.001 152.501s56 83.167 92 112.5s72.167 58.333 108.5 87s67 61.5 92 98.5s37.5 77.833 37.5 122.5c0 57.333 -21.833 105.833 -65.5 145.5s-100.167 59.5 -169.5 59.5c-44 0 -84 -7.16699 -120 -21.5s-64 -31.333 -84 -51
s-36.333 -39.5 -49 -59.5s-21.334 -37.333 -26.001 -52l-8 -21l-184 72c2.66699 9.33301 6.33398 21.666 11.001 36.999s19 42.333 43 81s51.667 72.667 83 102s76.666 56.333 135.999 81s125.333 37 198 37c134 0 244.333 -38.167 331 -114.5s130 -167.833 130 -274.5
c0 -75.333 -13.667 -139.833 -41 -193.5s-60.5 -96.334 -99.5 -128.001s-78.333 -61.5 -118 -89.5s-73.167 -63.167 -100.5 -105.5s-41 -92.166 -41 -149.499v-20h-184c-6.66699 34 -10 64.667 -10 92zM389.001 112.501c0 35.667 13.333 66.834 40 93.501s57.667 40 93 40
s66.333 -13.333 93 -40s40 -57.834 40 -93.501s-13.333 -66.667 -40 -93s-57.667 -39.5 -93 -39.5s-66.333 13.167 -93 39.5s-40 57.333 -40 93z" />
    <glyph glyph-name="at" unicode="@" horiz-adv-x="1863" 
d="M922 737c-61.333 0 -114.333 -22.833 -159 -68.5s-67 -101.334 -67 -167.001s22.167 -121.334 66.5 -167.001s97.5 -68.5 159.5 -68.5c57.333 0 105.666 21.833 144.999 65.5s59 100.334 59 170.001s-19.667 126.334 -59 170.001s-87.666 65.5 -144.999 65.5zM901 881
c45.333 0 86.668 -7.5 124.001 -22.5s63.666 -30.833 78.999 -47.5l22 -23v82h144v-481c0 -35.333 10.833 -64.666 32.5 -87.999s48.167 -35 79.5 -35c50.667 0 92.334 23.667 125.001 71s49 119.333 49 216c0 165.333 -59.667 305.666 -179 420.999
s-267.666 173 -444.999 173c-169.333 0 -315.833 -62.5 -439.5 -187.5s-185.5 -274.167 -185.5 -447.5s61.833 -322.5 185.5 -447.5s270.167 -187.5 439.5 -187.5c69.333 0 134.833 11 196.5 33s106.167 43.667 133.5 65l38 35l93 -112c-4 -4 -10.5 -9.83301 -19.5 -17.5
s-28.167 -21 -57.5 -40s-60.333 -35.667 -93 -50s-75.334 -27.333 -128.001 -39s-107 -17.5 -163 -17.5c-214.667 0 -399.834 77.167 -555.501 231.5s-233.5 336.5 -233.5 546.5s77.833 392.167 233.5 546.5s340.834 231.5 555.501 231.5
c222.667 0 409.667 -72.333 561 -217s227 -318 227 -520c0 -139.333 -31 -245.833 -93 -319.5s-143.667 -110.5 -245 -110.5c-45.333 0 -86.666 10.167 -123.999 30.5s-63.333 40.833 -78 61.5l-23 31c-5.33301 -9.33301 -13.833 -21 -25.5 -35
s-39.334 -32.167 -83.001 -54.5s-92.834 -33.5 -147.501 -33.5c-98 0 -182.167 36.5 -252.5 109.5s-105.5 162.833 -105.5 269.5s35.167 196.5 105.5 269.5s154.5 109.5 252.5 109.5z" />
    <glyph glyph-name="A" unicode="A" horiz-adv-x="1495" 
d="M41 0l594 1434h225l594 -1434h-235l-154 379h-635l-154 -379h-235zM748 1178l-236 -594h471z" />
    <glyph glyph-name="B" unicode="B" horiz-adv-x="1402" 
d="M819 0l-613.999 -0.000976562v1434h583c116 0 215 -38.333 297 -115s123 -164.667 123 -264c0 -57.333 -11.833 -110 -35.5 -158s-47.167 -81.333 -70.5 -100l-37 -29c5.33301 -2.66699 12.833 -7.16699 22.5 -13.5s27.167 -20 52.5 -41s47.166 -44.167 65.499 -69.5
s35.333 -58.166 51 -98.499s23.5 -82.166 23.5 -125.499c0 -114.667 -44 -213.334 -132 -296.001s-197.667 -124 -329 -124zM430.001 194.999h389c66.667 0 122.667 22.5 168 67.5s68 100.833 68 167.5s-22.5 122.667 -67.5 168s-101.167 68 -168.5 68h-389v-471z
M788.001 1239h-358v-389h358c56 0 102.5 18.5 139.5 55.5s55.5 83.333 55.5 139s-18.5 102 -55.5 139s-83.5 55.5 -139.5 55.5z" />
    <glyph glyph-name="C" unicode="C" horiz-adv-x="1556" 
d="M881 1454c72.667 0 142.326 -9.5 208.993 -28.5s121.834 -42.167 165.501 -69.5s81.834 -54.333 114.501 -81s56.667 -49.667 72 -69l22 -28l-143 -144c-4 5.33301 -9.83301 12.833 -17.5 22.5s-25.167 27.167 -52.5 52.5s-56.666 47.166 -87.999 65.499
s-72.166 35.333 -122.499 51s-103.5 23.5 -159.5 23.5c-148.667 0 -274.667 -51.5 -378 -154.5s-155 -228.833 -155 -377.5s51.5 -274.667 154.5 -378s229.167 -155 378.5 -155c56 0 109.5 7.83301 160.5 23.5s93.333 34.5 127 56.5s63.334 43.833 89.001 65.5
s44.834 40.167 57.501 55.5l16 25l144 -144c-5.33301 -8 -13.5 -18.5 -24.5 -31.5s-35.333 -35.833 -73 -68.5s-77.667 -61.667 -120 -87s-97.666 -48.166 -165.999 -68.499s-138.5 -30.5 -210.5 -30.5c-214.667 0 -394.667 71.333 -540 214s-218 317 -218 523
s72.667 380.333 218 523s325.333 214 540 214z" />
    <glyph glyph-name="D" unicode="D" horiz-adv-x="1556" 
d="M205 1434l502 -0.00195312c199.333 0 370.333 -70.667 513 -212s214 -309.666 214 -504.999s-71.333 -363.666 -214 -504.999s-313.667 -212 -513 -212h-502v1434zM707 1229h-277v-1024h277c139.333 0 257.666 49.5 354.999 148.5s146 220.167 146 363.5
s-48.667 264.5 -146 363.5s-215.666 148.5 -354.999 148.5z" />
    <glyph glyph-name="E" unicode="E" horiz-adv-x="1341" 
d="M430 205h809v-205h-1034v1434h1014v-205h-789v-379h625v-205h-625v-440z" />
    <glyph glyph-name="F" unicode="F" horiz-adv-x="1290" 
d="M205 1434h1003v-205h-778v-400h614v-204h-614v-625h-225v1434z" />
    <glyph glyph-name="G" unicode="G" horiz-adv-x="1658" 
d="M993 758l501.994 0.00292969v-512c-5.33301 -6.66699 -13.5 -16.167 -24.5 -28.5s-35.667 -34 -74 -65s-79.333 -58 -123 -81s-101 -44 -172 -63s-144.5 -28.5 -220.5 -28.5c-214.667 0 -394.667 71.333 -540 214s-218 317 -218 523s72.667 380.333 218 523
s325.333 214 540 214c72.667 0 142.334 -9.5 209.001 -28.5s121.834 -42.167 165.501 -69.5s81.834 -54.333 114.501 -81s56.667 -49.667 72 -69l22 -28l-143 -144c-4 5.33301 -9.83301 12.833 -17.5 22.5s-25.167 27.167 -52.5 52.5s-56.666 47.166 -87.999 65.499
s-72.166 35.333 -122.499 51s-103.5 23.5 -159.5 23.5c-148.667 0 -274.667 -51.5 -378 -154.5s-155 -228.833 -155 -377.5s51.5 -274.667 154.5 -378s229.167 -155 378.5 -155c49.333 0 96.5 4.83301 141.5 14.5s81.833 21.667 110.5 36s53.834 28.666 75.501 42.999
s37.167 26.166 46.5 35.499l15 15v225h-277v205z" />
    <glyph glyph-name="H" unicode="H" horiz-adv-x="1566" 
d="M1362 1434v-1434h-225v625h-707v-625h-225v1434h225v-605h707v605h225z" />
    <glyph glyph-name="I" unicode="I" horiz-adv-x="634" 
d="M205 0v1434h225v-1434h-225z" />
    <glyph glyph-name="J" unicode="J" horiz-adv-x="1044" 
d="M614 1434l225.999 -0.00195312v-1004c0 -134 -43 -242.5 -129 -325.5s-200 -124.5 -342 -124.5c-42 0 -82.667 5.33301 -122 16s-72.166 24.167 -98.499 40.5s-49.5 32.833 -69.5 49.5s-34.667 30.334 -44 41.001l-15 16l144 144c4 -8 10.833 -17.5 20.5 -28.5
s32.167 -26.167 67.5 -45.5s74.333 -29 117 -29c76.667 0 136.667 21.833 180 65.5s65 103.834 65 180.501v1004z" />
    <glyph glyph-name="K" unicode="K" horiz-adv-x="1423" 
d="M430 1434v-697l645 697h287l-553 -594l594 -840h-277l-471 676l-225 -246v-430h-225v1434h225z" />
    <glyph glyph-name="L" unicode="L" 
d="M1126 0h-921v1434h225v-1229h696v-205z" />
    <glyph glyph-name="M" unicode="M" horiz-adv-x="1904" 
d="M952 737l553 697h195v-1434h-225v1044l-523 -655l-522 655v-1044h-225v1434h194z" />
    <glyph glyph-name="N" unicode="N" horiz-adv-x="1628" 
d="M1198 1434h225v-1434h-194l-799 1034v-1034h-225v1434h194l799 -1035v1035z" />
    <glyph glyph-name="O" unicode="O" horiz-adv-x="1761" 
d="M348 717c0 -148.667 51.5 -274.667 154.5 -378s229 -155 378 -155s275 51.667 378 155s154.5 229.333 154.5 378s-51.5 274.5 -154.5 377.5s-229 154.5 -378 154.5s-275 -51.5 -378 -154.5s-154.5 -228.833 -154.5 -377.5zM123 717c0 206 72.667 380.333 218 523
s325.166 214 539.499 214s394.166 -71.333 539.499 -214s218 -317 218 -523s-72.667 -380.333 -218 -523s-325.166 -214 -539.499 -214s-394.166 71.333 -539.499 214s-218 317 -218 523z" />
    <glyph glyph-name="P" unicode="P" horiz-adv-x="1382" 
d="M205 1434l573 -0.000976562c136.667 0 251.167 -44.833 343.5 -134.5s138.5 -198.667 138.5 -327s-46.167 -237.166 -138.5 -326.499s-206.833 -134 -343.5 -134h-348v-512h-225v1434zM778 1229l-348 0.000976562v-512h348c70.667 0 131 24.5 181 73.5s75 109.667 75 182
s-25 133.166 -75 182.499s-110.333 74 -181 74z" />
    <glyph glyph-name="Q" unicode="Q" horiz-adv-x="1781" 
d="M123 717c0 206 72.668 380.334 218.001 523.001s325.166 214 539.499 214s394.166 -71.333 539.499 -214s218 -317 218 -523c0 -90 -14 -174 -42 -252s-62 -140.833 -102 -188.5s-80.167 -88.667 -120.5 -123s-74.833 -58.166 -103.5 -71.499l-41 -23
c2.66699 -5.33301 7 -12.333 13 -21s20.667 -24.334 44 -47.001s49.666 -41.834 78.999 -57.501s70.333 -28.667 123 -39s109.667 -12.833 171 -7.5v-184c-84.667 -9.33301 -164.5 -5.83301 -239.5 10.5s-136.167 39.5 -183.5 69.5s-88.666 60.333 -123.999 91
s-60.666 57.667 -75.999 81l-22 35c-48 -6.66699 -92.333 -10 -133 -10c-214.667 0 -394.667 71.333 -540 214s-218 317 -218 523zM348.001 717.001c0 -148.667 51.5 -274.667 154.5 -378s229 -155 378 -155s275 51.667 378 155s154.5 229.333 154.5 378
s-51.5 274.5 -154.5 377.5s-229 154.5 -378 154.5s-275 -51.5 -378 -154.5s-154.5 -228.833 -154.5 -377.5z" />
    <glyph glyph-name="R" unicode="R" horiz-adv-x="1433" 
d="M205 0v1434h604c132.667 0 242.667 -42.333 330 -127s131 -189.334 131 -314.001c0 -58.667 -10 -113.5 -30 -164.5s-44 -91.167 -72 -120.5s-56 -55 -84 -77s-52 -37 -72 -45l-29 -13l328 -573h-246l-307 553h-328v-553h-225zM1044 993.501c0 67 -22.5 123 -67.5 168
s-100.833 67.5 -167.5 67.5h-379v-471h379c66.667 0 122.5 22.5 167.5 67.5s67.5 101 67.5 168z" />
    <glyph glyph-name="S" unicode="S" horiz-adv-x="1208" 
d="M881 410c0 44 -13.998 80.834 -41.998 110.501s-64.167 53 -108.5 70s-93.5 32.333 -147.5 46s-108 30.5 -162 50.5s-103.167 44 -147.5 72s-80.5 67.833 -108.5 119.5s-42 113.834 -42 186.501c0 110.667 42.333 203.167 127 277.5s199.334 111.5 344.001 111.5
c53.333 0 104.5 -6.5 153.5 -19.5s89.667 -28.333 122 -46s60.666 -35.334 84.999 -53.001s42.166 -32.834 53.499 -45.501l16 -20l-143 -144c-2.66699 2.66699 -6.5 7.16699 -11.5 13.5s-16.333 16.333 -34 30s-36.667 26 -57 37s-47 20.833 -80 29.5s-67.833 13 -104.5 13
c-74 0 -133.5 -18.333 -178.5 -55s-67.5 -79.667 -67.5 -129c0 -44 14 -81 42 -111s64.167 -53.5 108.5 -70.5s93.5 -32.333 147.5 -46s108 -30.334 162 -50.001s103.167 -43.5 147.5 -71.5s80.5 -68 108.5 -120s42 -114 42 -186c0 -126.667 -45.333 -230 -136 -310
s-216 -120 -376 -120c-65.333 0 -127.5 7.83301 -186.5 23.5s-107.5 34.334 -145.5 56.001s-71 43.5 -99 65.5s-48.333 40.333 -61 55l-20 25l143 143c2.66699 -4 7.16699 -9.83301 13.5 -17.5s20.666 -21 42.999 -40s46.5 -35.667 72.5 -50s60.5 -27.333 103.5 -39
s88.5 -17.5 136.5 -17.5c88.667 0 158.667 21.667 210 65s77 97 77 161z" />
    <glyph glyph-name="T" unicode="T" horiz-adv-x="1167" 
d="M41 1434h1085v-205h-430v-1229h-225v1229h-430v205z" />
    <glyph glyph-name="U" unicode="U" horiz-adv-x="1576" 
d="M788.5 184c102.333 0 191.002 38.333 266.002 115s112.5 168 112.5 274v861h226v-861c0 -164 -58.833 -303.833 -176.5 -419.5s-260.334 -173.5 -428.001 -173.5s-310.334 58 -428.001 174s-176.5 255.667 -176.5 419v861h226v-861
c0 -106.667 37.5 -198.167 112.5 -274.5s163.667 -114.5 266 -114.5z" />
    <glyph glyph-name="V" unicode="V" horiz-adv-x="1474" 
d="M625 0l-564 1434h236l440 -1147l441 1147h235l-563 -1434h-225z" />
    <glyph glyph-name="W" unicode="W" horiz-adv-x="2211" 
d="M1219 1434l348 -1096l348 1096h235l-471 -1434h-225l-348 1085l-348 -1085h-226l-471 1434h236l348 -1096l348 1096h226z" />
    <glyph glyph-name="X" unicode="X" horiz-adv-x="1413" 
d="M707 932l358 502h266l-491 -686l532 -748h-266l-399 563l-400 -563h-266l532 748l-491 686h266z" />
    <glyph glyph-name="Y" unicode="Y" horiz-adv-x="1351" 
d="M287 1434l389 -686l389 686h246l-523 -922v-512h-225v512l-522 922h246z" />
    <glyph glyph-name="Z" unicode="Z" horiz-adv-x="1290" 
d="M901 1229h-768v205h1034v-205l-798 -1024h819v-205h-1086v205z" />
    <glyph glyph-name="bracketleft" unicode="[" horiz-adv-x="675" 
d="M348 1290v-1556h266v-164h-450v1884h450v-164h-266z" />
    <glyph glyph-name="backslash" unicode="\" horiz-adv-x="921" 
d="M676 -430l-615 1884h185l614 -1884h-184z" />
    <glyph glyph-name="bracketright" unicode="]" horiz-adv-x="675" 
d="M328 -266v1556h-267v164h451v-1884h-451v164h267z" />
    <glyph glyph-name="asciicircum" unicode="^" horiz-adv-x="839" 
d="M348 1434h144l266 -594h-185l-153 358l-154 -358h-184z" />
    <glyph glyph-name="underscore" unicode="_" horiz-adv-x="696" 
d="M717 -184v-185h-737v185h737z" />
    <glyph glyph-name="grave" unicode="`" horiz-adv-x="491" 
d="M276 1434l154 -287h-154l-215 287h215z" />
    <glyph glyph-name="a" unicode="a" horiz-adv-x="1075" 
d="M922 0l-204.999 -0.000976562v102c-2.66699 -2.66699 -7.16699 -7 -13.5 -13s-19 -15.833 -38 -29.5s-39.5 -26 -61.5 -37s-49.667 -20.833 -83 -29.5s-67 -13 -101 -13c-100 0 -183 29 -249 87s-99 124.333 -99 199c0 80.667 25.5 148.334 76.5 203.001
s120.833 89.334 209.5 104.001l359 62c0 52 -19.167 95.667 -57.5 131s-87.5 53 -147.5 53c-52 0 -99.167 -10.833 -141.5 -32.5s-71.5 -43.5 -87.5 -65.5l-27 -35l-133 133c4 5.33301 9.5 12.166 16.5 20.499s22.667 23 47 44s50.166 39.833 77.499 56.5
s63.5 31.5 108.5 44.5s91.5 19.5 139.5 19.5c120 0 218.333 -35.5 295 -106.5s115 -158.5 115 -262.5v-635zM451.001 163.999c83.333 0 148.501 24.833 195.501 74.5s70.5 120.5 70.5 212.5v20l-318 -51c-36.667 -6.66699 -66.334 -21.667 -89.001 -45
s-34 -52.666 -34 -87.999c0 -32.667 15.833 -61.334 47.5 -86.001s74.167 -37 127.5 -37z" />
    <glyph glyph-name="b" unicode="b" horiz-adv-x="1249" 
d="M676 1004c130 0 242.67 -49.832 338.003 -149.499s143 -220.5 143 -362.5s-47.833 -262.833 -143.5 -362.5s-208.167 -149.5 -337.5 -149.5c-36.667 0 -72.5 4.33301 -107.5 13s-64.833 19.5 -89.5 32.5s-46.5 26.333 -65.5 40s-32.5 24.5 -40.5 32.5l-15 15v-113h-204
v1434h204v-564c9.33301 9.33301 22.666 21.666 39.999 36.999s53.666 35.333 108.999 60s111.666 37 168.999 37zM655.503 164.001c77.667 0 146.5 32 206.5 96s90 141.167 90 231.5s-30 167.5 -90 231.5s-128.833 96 -206.5 96s-146.667 -32 -207 -96
s-90.5 -141.167 -90.5 -231.5s30.167 -167.5 90.5 -231.5s129.333 -96 207 -96z" />
    <glyph glyph-name="c" unicode="c" horiz-adv-x="1064" 
d="M72 491.5c0 137.667 50.835 257.497 152.502 359.497s221.5 153 359.5 153c76.667 0 148 -16.5 214 -49.5s113.333 -65.833 142 -98.5l43 -47l-133 -133c-6.66699 10.667 -16.834 23.834 -30.501 39.501s-43.334 36.834 -89.001 63.501s-94.5 40 -146.5 40
c-83.333 0 -155.5 -31.667 -216.5 -95s-91.5 -140.833 -91.5 -232.5s30.5 -169.167 91.5 -232.5s133.167 -95 216.5 -95c52 0 100.833 13 146.5 39s78.5 51.333 98.5 76l31 38l133 -133c-4 -5.33301 -10 -12.833 -18 -22.5s-25.333 -26 -52 -49s-54.667 -43.333 -84 -61
s-67.333 -34 -114 -49s-93.667 -22.5 -141 -22.5c-138 0 -257.833 50.833 -359.5 152.5s-152.5 221.334 -152.5 359.001z" />
    <glyph glyph-name="d" unicode="d" horiz-adv-x="1249" 
d="M553 1004c36.667 0 72.5 -4.50195 107.5 -13.502s64.667 -20 89 -33s46.166 -26.333 65.499 -40s33 -24.5 41 -32.5l14 -15v564h205v-1434h-205v113c-9.33301 -9.33301 -22.5 -21.666 -39.5 -36.999s-53.167 -35.166 -108.5 -59.499s-111.666 -36.5 -168.999 -36.5
c-130 0 -242.667 49.833 -338 149.5s-143 220.5 -143 362.5s47.667 262.833 143 362.5s208 149.5 338 149.5zM573.5 163.998c77.667 0 146.5 32 206.5 96s90 141.167 90 231.5s-30 167.5 -90 231.5s-128.833 96 -206.5 96s-146.667 -32 -207 -96
s-90.5 -141.167 -90.5 -231.5s30.167 -167.5 90.5 -231.5s129.333 -96 207 -96z" />
    <glyph glyph-name="e" unicode="e" horiz-adv-x="1146" 
d="M1044 420l-768.004 0.000976562c10.667 -69.333 44.834 -129.333 102.501 -180s126.167 -76 205.5 -76c57.333 0 110.833 13 160.5 39s84.834 51.333 105.501 76l31 38l133 -133c-4 -5.33301 -10.167 -12.833 -18.5 -22.5s-26.166 -26 -53.499 -49
s-56.333 -43.333 -87 -61s-70.5 -34 -119.5 -49s-99.5 -22.5 -151.5 -22.5c-139.333 0 -259.5 51.167 -360.5 153.5s-151.5 225.166 -151.5 368.499c0 138 49.167 256.167 147.5 354.5s216.333 147.5 354 147.5s252.334 -45.833 344.001 -137.5s137.5 -206.5 137.5 -344.5z
M572.996 829.001c-74 0 -136.168 -21.833 -186.501 -65.5s-84.166 -100.167 -101.499 -169.5h569c-12 69.333 -43 125.833 -93 169.5s-112.667 65.5 -188 65.5z" />
    <glyph glyph-name="f" unicode="f" horiz-adv-x="696" 
d="M625 983l-0.000976562 -184h-226v-799h-204v799h-144v184h144v164c0 204.667 95.333 307 286 307c24.667 0 49 -1.66699 73 -5s41.333 -7 52 -11l19 -4v-185c-34 13.333 -68.333 20.333 -103 21c-35.333 0 -64.666 -11.667 -87.999 -35s-35 -53.333 -35 -90v-162h226z
" />
    <glyph glyph-name="g" unicode="g" 
d="M829 59l0.00292969 84l-13 -13c-6 -6 -18.5 -15.833 -37.5 -29.5s-39.5 -26 -61.5 -37s-49.667 -21 -83 -30s-67.333 -13.5 -102 -13.5c-124 0 -231.667 47.833 -323 143.5s-137 211.834 -137 348.501s45.667 252.834 137 348.501s199 143.5 323 143.5
c54.667 0 106.667 -10.333 156 -31s85 -41.334 107 -62.001l34 -30v102h205v-922c0 -138 -47.333 -254.333 -142 -349s-211 -142 -349 -142c-56 0 -109.333 7.16699 -160 21.5s-92.334 31.333 -125.001 51s-61.334 39.5 -86.001 59.5s-42.334 37.333 -53.001 52l-17 21
l134 133c2.66699 -4 7 -9.5 13 -16.5s18.833 -19.333 38.5 -37s40.5 -33.334 62.5 -47.001s50.333 -26 85 -37s70.667 -16.5 108 -16.5c83.333 0 151.833 28.333 205.5 85s80.5 130 80.5 220zM276.003 512c0 -86 27.667 -158.667 83 -218s120 -89 194 -89
s138.5 29.667 193.5 89s82.5 132 82.5 218s-27.5 158.667 -82.5 218s-119.5 89 -193.5 89s-138.667 -29.667 -194 -89s-83 -132 -83 -218z" />
    <glyph glyph-name="h" unicode="h" horiz-adv-x="1208" 
d="M358 1434v-553.001c2.66699 2.66699 7.16699 7 13.5 13s19 15.833 38 29.5s39.5 26 61.5 37s49.667 21 83 30s67 13.5 101 13.5c118.667 0 215 -39 289 -117s111 -182.667 111 -314v-573h-205v573c0 70.667 -22.5 129.334 -67.5 176.001s-101.167 70 -168.5 70
c-78 0 -140.167 -25.167 -186.5 -75.5s-69.5 -120.833 -69.5 -211.5v-532h-204v1434h204z" />
    <glyph glyph-name="i" unicode="i" horiz-adv-x="512" 
d="M348 983v-983h-205v983h205zM369 1290c0 -35.333 -11.667 -64.666 -35 -87.999s-52.666 -35 -87.999 -35s-64.666 11.667 -87.999 35s-35 52.666 -35 87.999s11.667 64.666 35 87.999s52.666 35 87.999 35s64.666 -11.667 87.999 -35s35 -52.666 35 -87.999z" />
    <glyph glyph-name="j" unicode="j" horiz-adv-x="512" 
d="M143 -121l0.00292969 1104h205v-1106c0 -204.667 -95.667 -307 -287 -307c-24.667 0 -48.834 1.66699 -72.501 5s-41.834 7 -54.501 11l-16 4v185c34 -13.333 68 -20.333 102 -21c35.333 0 64.666 11.667 87.999 35s35 53.333 35 90zM369.003 1290
c0 -35.333 -11.667 -64.666 -35 -87.999s-52.666 -35 -87.999 -35s-64.666 11.667 -87.999 35s-35 52.666 -35 87.999s11.667 64.666 35 87.999s52.666 35 87.999 35s64.666 -11.667 87.999 -35s35 -52.666 35 -87.999z" />
    <glyph glyph-name="k" unicode="k" horiz-adv-x="1085" 
d="M1024 983l-379 -410l410 -573h-226l-317 440l-154 -164v-276h-204v1434h204v-891l420 440h246z" />
    <glyph glyph-name="l" unicode="l" horiz-adv-x="532" 
d="M358 1434v-1434h-204v1434h204z" />
    <glyph glyph-name="m" unicode="m" horiz-adv-x="1761" 
d="M1403 0l-0.00195312 573c0 80.667 -18.5 141.834 -55.5 183.501s-86.833 62.5 -149.5 62.5c-64 0 -117.5 -25.5 -160.5 -76.5s-64.5 -121.167 -64.5 -210.5v-532h-205v573c0 80.667 -18.5 141.834 -55.5 183.501s-86.833 62.5 -149.5 62.5
c-64 0 -117.5 -25.5 -160.5 -76.5s-64.5 -121.167 -64.5 -210.5v-532h-205v983h205v-102c8 9.33301 19.167 20.833 33.5 34.5s44.333 31.834 90 54.501s93.167 34 142.5 34c39.333 0 76.833 -5.5 112.5 -16.5s64.167 -24.667 85.5 -41s39.833 -32.833 55.5 -49.5
s26.834 -30.334 33.501 -41.001l10 -16c2.66699 4 7.16699 9.66699 13.5 17s20 20.666 41 39.999s43.5 36.166 67.5 50.499s55.5 27.333 94.5 39s79.5 17.5 121.5 17.5c114.667 0 204.834 -36.667 270.501 -110s98.5 -180.333 98.5 -321v-573h-205z" />
    <glyph glyph-name="n" unicode="n" 
d="M338 983l-0.00195312 -102.001l13 13c6 6 18.667 15.833 38 29.5s39.833 26 61.5 37s49.334 21 83.001 30s67.5 13.5 101.5 13.5c118.667 0 214.834 -39 288.501 -117s110.5 -182.667 110.5 -314v-573h-205v573c0 70.667 -22.5 129.334 -67.5 176.001
s-100.833 70 -167.5 70c-78 0 -140.167 -25.167 -186.5 -75.5s-69.5 -120.833 -69.5 -211.5v-532h-205v983h205z" />
    <glyph glyph-name="o" unicode="o" 
d="M891 491.5c0 91.667 -30.333 169.167 -91 232.5s-132.667 95 -216 95s-155.5 -31.667 -216.5 -95s-91.5 -140.833 -91.5 -232.5s30.5 -169.167 91.5 -232.5s133.167 -95 216.5 -95s155.333 31.667 216 95s91 140.833 91 232.5zM72 491.5
c0 137.667 50.833 257.5 152.5 359.5s221.5 153 359.5 153s257.833 -51 359.5 -153s152.5 -221.833 152.5 -359.5s-50.833 -257.334 -152.5 -359.001s-221.5 -152.5 -359.5 -152.5s-257.833 50.833 -359.5 152.5s-152.5 221.334 -152.5 359.001z" />
    <glyph glyph-name="p" unicode="p" horiz-adv-x="1228" 
d="M655 -20c-36.667 0 -72.3311 4.33398 -106.998 13.001s-64.334 19.5 -89.001 32.5s-46.5 26.333 -65.5 40s-32.833 24.5 -41.5 32.5l-14 15v-543h-205v1413h205v-113c9.33301 9.33301 22.5 21.666 39.5 36.999s53.167 35.333 108.5 60s111.666 37 168.999 37
c130 0 242.833 -49.833 338.5 -149.5s143.5 -220.5 143.5 -362.5s-47.833 -262.833 -143.5 -362.5s-208.5 -149.5 -338.5 -149.5zM635.003 819.001c-78 0 -147 -32 -207 -96s-90 -141.167 -90 -231.5s30 -167.5 90 -231.5s129 -96 207 -96s147 32 207 96
s90 141.167 90 231.5s-30 167.5 -90 231.5s-129 96 -207 96z" />
    <glyph glyph-name="q" unicode="q" horiz-adv-x="1228" 
d="M553 -20c-130 0 -242.667 49.8311 -338 149.498s-143 220.5 -143 362.5s47.667 262.833 143 362.5s208 149.5 338 149.5c36.667 0 72.5 -4.5 107.5 -13.5s64.667 -20 89 -33s46.166 -26.333 65.499 -40s33 -24.5 41 -32.5l14 -15v113h205v-1413h-205v543
c-9.33301 -9.33301 -22.5 -21.666 -39.5 -36.999s-53.167 -35.166 -108.5 -59.499s-111.666 -36.5 -168.999 -36.5zM573.5 818.998c-77.667 0 -146.667 -32 -207 -96s-90.5 -141.167 -90.5 -231.5s30.167 -167.5 90.5 -231.5s129.333 -96 207 -96s146.5 32 206.5 96
s90 141.167 90 231.5s-30 167.5 -90 231.5s-128.833 96 -206.5 96z" />
    <glyph glyph-name="r" unicode="r" horiz-adv-x="716" 
d="M686 809c-27.333 6.66699 -58.001 10 -92.001 10c-78 0 -140.167 -25.167 -186.5 -75.5s-69.5 -120.833 -69.5 -211.5v-532h-205v983h205v-102l13 13c6 6 18.667 15.833 38 29.5s39.833 26 61.5 37s49.334 21 83.001 30s67.5 13.5 101.5 13.5h51v-195z" />
    <glyph glyph-name="s" unicode="s" horiz-adv-x="890" 
d="M758 870l-133.002 -132.998c-5.33301 5.33301 -13.166 12.833 -23.499 22.5s-31.666 22 -63.999 37s-64.833 22.5 -97.5 22.5c-44 0 -78.833 -10.167 -104.5 -30.5s-38.5 -44.166 -38.5 -71.499c0 -28.667 12.333 -52.667 37 -72s55.667 -34 93 -44
s77.5 -22.5 120.5 -37.5s83.333 -31.833 121 -50.5s68.834 -47.334 93.501 -86.001s37 -85.334 37 -140.001c0 -84.667 -34.167 -157 -102.5 -217s-157.166 -90 -266.499 -90c-48 0 -93.833 6 -137.5 18s-79.5 26.333 -107.5 43s-52.5 33.5 -73.5 50.5
s-36.167 31.5 -45.5 43.5l-15 19l133 133c6.66699 -9.33301 16.5 -21 29.5 -35s41 -32.167 84 -54.5s87.167 -33.5 132.5 -33.5c54.667 0 95.667 11.167 123 33.5s41 52.166 41 89.499c0 28.667 -12.333 52.5 -37 71.5s-55.667 33.667 -93 44s-77.5 23 -120.5 38
s-83.333 31.667 -121 50s-68.834 47 -93.501 86s-37 85.833 -37 140.5c0 75.333 33.167 142 99.5 200s149.166 87 248.499 87c39.333 0 77.5 -4.5 114.5 -13.5s67.167 -20 90.5 -33s43.833 -26.333 61.5 -40s30.5 -24.5 38.5 -32.5z" />
    <glyph glyph-name="t" unicode="t" horiz-adv-x="778" 
d="M256 1106v205h184v-328h205v-184h-205v-510c0 -36.667 11.667 -66.667 35 -90s52.666 -35 87.999 -35c15.333 0 31.5 1.66699 48.5 5s30.167 7 39.5 11l15 4v-184c-40.667 -13.333 -88.667 -20 -144 -20c-191.333 0 -286.666 102.333 -285.999 307v512h-185v184h103
c68 0 102 41 102 123z" />
    <glyph glyph-name="u" unicode="u" horiz-adv-x="1198" 
d="M829 0l0.000976562 102.001l-13 -13c-6 -6 -18.5 -15.833 -37.5 -29.5s-39.5 -26 -61.5 -37s-49.667 -20.833 -83 -29.5s-67.333 -13 -102 -13c-118.667 0 -214.834 38.833 -288.501 116.5s-110.5 182.167 -110.5 313.5v573h205v-573
c0 -70.667 22.5 -129.334 67.5 -176.001s100.833 -70 167.5 -70c78 0 140.167 25.167 186.5 75.5s69.5 120.833 69.5 211.5v532h205v-983h-205z" />
    <glyph glyph-name="v" unicode="v" horiz-adv-x="1044" 
d="M614 0h-204l-400 983h215l287 -717l287 717h215z" />
    <glyph glyph-name="w" unicode="w" horiz-adv-x="1556" 
d="M676 983h184l225 -676l226 676h215l-338 -983h-195l-225 655l-225 -655h-195l-338 983h215l226 -676z" />
    <glyph glyph-name="x" unicode="x" horiz-adv-x="1024" 
d="M625 512l368 -512h-235l-256 358l-256 -358h-236l369 512l-338 471h235l226 -317l225 317h236z" />
    <glyph glyph-name="y" unicode="y" horiz-adv-x="1044" 
d="M369 -102l41.002 102l-400 983h215l287 -717l287 717h215l-441 -1085c-50.667 -121.333 -100.834 -206.333 -150.501 -255s-111.834 -73 -186.501 -73c-27.333 0 -53 1.66699 -77 5s-41.667 7 -53 11l-14 4v185c34 -13.333 68.333 -20.333 103 -21
c78 0.666992 136 48.667 174 144z" />
    <glyph glyph-name="z" unicode="z" horiz-adv-x="983" 
d="M870 983v-184l-542 -615h563v-184h-819v184l542 615h-522v184h778z" />
    <glyph glyph-name="braceleft" unicode="{" horiz-adv-x="737" 
d="M123 430v164.002c82 0 123 41 123 123v440c0 92.667 27.667 165.334 83 218.001s133.333 79 234 79h113v-164h-113c-40.667 0 -73 -11.833 -97 -35.5s-36 -56.167 -36 -97.5v-440c0 -24.667 -2 -47.667 -6 -69s-9.5 -38.833 -16.5 -52.5s-14.5 -25.834 -22.5 -36.501
s-15.833 -18.834 -23.5 -24.501s-14.834 -10.5 -21.501 -14.5s-12 -6.66699 -16 -8h-5h5c4 -1.33301 9.33301 -4 16 -8s13.834 -8.83301 21.501 -14.5s15.5 -13.834 23.5 -24.501s15.5 -22.834 22.5 -36.501s12.5 -31.167 16.5 -52.5s6 -44.333 6 -69v-440
c0 -40.667 12 -73 36 -97s56.333 -36 97 -36h113v-164h-113c-101.333 0 -179.5 26.333 -234.5 79s-82.5 125.334 -82.5 218.001v440c0 82 -41 123 -123 123z" />
    <glyph glyph-name="bar" unicode="|" horiz-adv-x="716" 
d="M451 1454v-1884h-185v1884h185z" />
    <glyph glyph-name="braceright" unicode="}" horiz-adv-x="737" 
d="M614 594v-164.002c-82 0 -122.667 -41 -122 -123v-440c0 -92.667 -27.667 -165.334 -83 -218.001s-133.666 -79 -234.999 -79h-113v164h113c40.667 0 73 11.833 97 35.5s36 56.167 36 97.5v440c0 24.667 2 47.667 6 69s9.5 38.833 16.5 52.5s14.667 25.834 23 36.501
s16.166 18.834 23.499 24.501s14.5 10.5 21.5 14.5s12.5 6.66699 16.5 8h4h-4c-4 1.33301 -9.5 4 -16.5 8s-14.167 8.83301 -21.5 14.5s-15.166 13.834 -23.499 24.501s-16 22.834 -23 36.501s-12.5 31.167 -16.5 52.5s-6 44.333 -6 69v440c0 40.667 -11.833 73 -35.5 97
s-56.167 36 -97.5 36h-113v164h113c101.333 0 179.666 -26.333 234.999 -79s83 -125.334 83 -218.001v-440c-0.666992 -82 40 -123 122 -123z" />
    <glyph glyph-name="asciitilde" unicode="~" horiz-adv-x="1126" 
d="M758 614c36.667 0 70.333 10.332 101 30.999s52.334 41.334 65.001 62.001l18 30l123 -92c-2.66699 -5.33301 -6.83398 -12.166 -12.501 -20.499s-18 -23 -37 -44s-39.333 -39.667 -61 -56s-50.334 -31 -86.001 -44s-72.5 -19.5 -110.5 -19.5
c-57.333 0 -108.5 11.167 -153.5 33.5s-86 44.5 -123 66.5s-74.5 33 -112.5 33c-36.667 0 -70.5 -10.333 -101.5 -31s-52.5 -41 -64.5 -61l-19 -31l-123 92c2.66699 5.33301 6.83398 12.166 12.501 20.499s18 23 37 44s39.5 39.833 61.5 56.5s50.667 31.5 86 44.5
s72.333 19.5 111 19.5c58.667 0 110.167 -11.333 154.5 -34s85 -45 122 -67s74.5 -33 112.5 -33z" />
    <glyph glyph-name="uni00A0" unicode="&#xa0;" horiz-adv-x="409" 
 />
    <glyph glyph-name="exclamdown" unicode="&#xa1;" horiz-adv-x="593" 
d="M215 604h164l41 -1034h-246zM164 870.5c0 35.667 13.333 66.834 40 93.501s57.667 40 93 40s66.333 -13.333 93 -40s40 -57.834 40 -93.501s-13.333 -66.834 -40 -93.501s-57.667 -40 -93 -40s-66.333 13.333 -93 40s-40 57.834 -40 93.501z" />
    <glyph glyph-name="cent" unicode="&#xa2;" horiz-adv-x="1013" 
d="M276 491.5c0 -90.333 30.167 -167.497 90.5 -231.497s129.166 -96 206.499 -96c45.333 0 87.833 10.167 127.5 30.5s67.5 40.833 83.5 61.5l25 31l133 -133c-8 -9.33301 -19.833 -22 -35.5 -38s-48.5 -38.667 -98.5 -68s-101 -48.666 -153 -57.999v-215h-184v215
c-113.333 27.333 -208.166 85.666 -284.499 174.999s-114.5 198.166 -114.5 326.499s38.167 237.166 114.5 326.499s171.166 147.666 284.499 174.999v215h184v-215c52 -9.33301 100.833 -27 146.5 -53s78.834 -50 99.501 -72l31 -30l-133 -133
c-5.33301 8 -13.5 18.5 -24.5 31.5s-36 30 -75 51s-81.167 31.5 -126.5 31.5c-78 0 -147 -32 -207 -96s-90 -141.167 -90 -231.5z" />
    <glyph glyph-name="sterling" unicode="&#xa3;" 
d="M266 983c0 143.333 42.6699 257.67 128.003 343.003s199.666 128 342.999 128c48 0 94.167 -6.5 138.5 -19.5s81.166 -28.333 110.499 -46s55 -35.334 77 -53.001s37.667 -32.834 47 -45.501l16 -20l-143 -144c-2.66699 2.66699 -6 7.16699 -10 13.5
s-13.5 16.333 -28.5 30s-31.5 26 -49.5 37s-41.333 20.833 -70 29.5s-58 13 -88 13c-76.667 0 -140.167 -25.167 -190.5 -75.5s-75.5 -113.833 -75.5 -190.5v-225h399v-185h-399v-266c0 -24.667 -3.33301 -47.167 -10 -67.5s-13.667 -34.5 -21 -42.5l-10 -13h696v-184h-983
v184c35.333 0 64.666 11.667 87.999 35s35 52.666 35 87.999v266h-123v185h123v225z" />
    <glyph glyph-name="currency" unicode="&#xa4;" horiz-adv-x="1413" 
d="M492 758h337c66.667 0 122.667 22.5 168 67.5s68 101 68 168s-22.5 123 -67.5 168s-101.167 67.5 -168.5 67.5h-337v-471zM829 553h-337v-143h460v-205h-460v-205h-226v205h-164v205h164v143h-164v205h164v676h563c132.667 0 242.667 -42.333 330 -127
s131 -189.167 131 -313.5s-43.667 -228.833 -131 -313.5s-197.333 -127 -330 -127z" />
    <glyph glyph-name="yen" unicode="&#xa5;" horiz-adv-x="1351" 
d="M676 748l389 686h246l-430 -748h225v-174h-318v-123h318v-174h-318v-215h-225v215h-317v174h317v123h-317v174h225l-430 748h246z" />
    <glyph glyph-name="brokenbar" unicode="&#xa6;" horiz-adv-x="716" 
d="M266 348h185v-778h-185v778zM451 676h-185v778h185v-778z" />
    <glyph glyph-name="section" unicode="&#xa7;" horiz-adv-x="1095" 
d="M891 1321l-133.003 -133.002c-61.333 54.667 -129.666 82 -204.999 82c-122.667 0 -184 -41 -184 -123c0 -36.667 20.833 -68.334 62.5 -95.001s92.167 -50.334 151.5 -71.001s118.333 -43.667 177 -69s108.834 -63.166 150.501 -113.499s62.5 -111.833 62.5 -184.5
c0 -34 -6.5 -66.667 -19.5 -98s-28.333 -56.5 -46 -75.5s-35.5 -36 -53.5 -51s-33.667 -26.167 -47 -33.5l-19 -8c4 -2.66699 9.16699 -6 15.5 -10s17.666 -13.167 33.999 -27.5s31 -29.666 44 -45.999s24.667 -37.166 35 -62.499s15.5 -51.666 15.5 -78.999
c0 -95.333 -39.667 -177.166 -119 -245.499s-183 -102.5 -311 -102.5c-82 0 -156.167 16.333 -222.5 49s-112.5 65.334 -138.5 98.001l-39 47l134 133c6.66699 -10.667 16.834 -23.834 30.501 -39.501s43.334 -36.834 89.001 -63.501s94.5 -40 146.5 -40c74 0 130 15 168 45
s57 69.667 57 119c0 36.667 -21.5 68.334 -64.5 95.001s-95.167 50.167 -156.5 70.5s-122.5 43.166 -183.5 68.499s-113 63.333 -156 114s-64.5 112 -64.5 184c0 34 6.5 66.833 19.5 98.5s28.5 57 46.5 76s35.833 36 53.5 51s32.5 25.833 44.5 32.5l21 9
c-9.33301 5.33301 -21 14.166 -35 26.499s-32.167 37.833 -54.5 76.5s-33.5 79.334 -33.5 122.001c0 86 35.167 158.667 105.5 218s164.833 89 283.5 89c64 0 124 -10.833 180 -32.5s96.333 -43.5 121 -65.5zM767.997 613.998c0 49.333 -26.334 91.8311 -79.001 127.498
s-105.667 58.834 -159 69.501l-79 18c-4 -1.33301 -9.16699 -2.66602 -15.5 -3.99902s-17.666 -6.33301 -33.999 -15s-31 -18.834 -44 -30.501s-24.667 -28.5 -35 -50.5s-15.5 -46.667 -15.5 -74c0 -49.333 26.667 -91.666 80 -126.999s106 -58.333 158 -69l80 -19
c4 1.33301 9 2.66602 15 3.99902s17.167 6.5 33.5 15.5s31 19.333 44 31s24.667 28.334 35 50.001s15.5 46.167 15.5 73.5z" />
    <glyph glyph-name="dieresis" unicode="&#xa8;" horiz-adv-x="798" 
d="M307 1290c0 -35.333 -11.5 -64.666 -34.5 -87.999s-52.333 -35 -88 -35s-65.167 11.667 -88.5 35s-35 52.666 -35 87.999s11.667 64.666 35 87.999s52.833 35 88.5 35s65 -11.667 88 -35s34.5 -52.666 34.5 -87.999zM737 1290c0 -35.333 -11.5 -64.666 -34.5 -87.999
s-52.333 -35 -88 -35s-65 11.667 -88 35s-34.5 52.666 -34.5 87.999s11.5 64.666 34.5 87.999s52.333 35 88 35s65 -11.667 88 -35s34.5 -52.666 34.5 -87.999z" />
    <glyph glyph-name="copyright" unicode="&#xa9;" horiz-adv-x="1843" 
d="M1516 717c0 164 -58.167 304 -174.5 420s-256.333 174 -420 174s-303.5 -58 -419.5 -174s-174 -256 -174 -420s58 -304 174 -420s255.833 -174 419.5 -174s303.667 58 420 174s174.5 256 174.5 420zM1679 717c0 -206 -72.667 -380.333 -218 -523
s-325.166 -214 -539.499 -214s-394.166 71.333 -539.499 214s-218 317 -218 523s72.667 380.333 218 523s325.166 214 539.499 214s394.166 -71.333 539.499 -214s218 -317 218 -523zM686 716.5c0 -67 24.1699 -124.666 72.5029 -172.999s106.166 -72.5 173.499 -72.5
c42 0 81.167 10.167 117.5 30.5s61.833 40.833 76.5 61.5l21 31l102 -102c-2.66699 -4 -6.66699 -9.83301 -12 -17.5s-18 -21 -38 -40s-41.167 -35.833 -63.5 -50.5s-52 -27.667 -89 -39s-75.167 -17 -114.5 -17c-112 0 -206.667 37.833 -284 113.5s-116 167.5 -116 275.5
s38.667 199.833 116 275.5s172 113.5 284 113.5c64 0 121.667 -13 173 -39s86.333 -51.333 105 -76l29 -39l-102 -102c-4 8 -10.833 18.167 -20.5 30.5s-32.334 29.166 -68.001 50.499s-74.5 32 -116.5 32c-66.667 0 -124.334 -24.333 -173.001 -73s-73 -106.5 -73 -173.5z
" />
    <glyph glyph-name="ordfeminine" unicode="&#xaa;" horiz-adv-x="696" 
d="M276 829c-65.333 0 -115.668 16.166 -151.001 48.499s-53 74.5 -53 126.5c0 46.667 17.333 86.667 52 120s82 54.666 142 63.999l205 31c0 31.333 -11.667 57.833 -35 79.5s-52.666 32.5 -87.999 32.5c-30 0 -58 -6.83301 -84 -20.5s-44.333 -27.167 -55 -40.5l-14 -21
l-93 82c1.33301 2.66699 4.16602 7.16699 8.49902 13.5s13.666 16.333 27.999 30s30.333 25.834 48 36.501s40.834 20.5 69.501 29.5s59.334 13.5 92.001 13.5c76.667 0 136.834 -21.167 180.501 -63.5s65.5 -99.5 65.5 -171.5v-369h-123v72
c-4 -6.66699 -10.833 -15.167 -20.5 -25.5s-31.334 -24.166 -65.001 -41.499s-70.167 -26 -109.5 -26zM470.998 1116l-184 -31c-24.667 -5.33301 -44.5 -14.833 -59.5 -28.5s-22.5 -28.5 -22.5 -44.5c0 -46.667 34 -70 102 -70c40.667 0 78.167 17 112.5 51
s51.5 71.667 51.5 113v10z" />
    <glyph glyph-name="guillemotleft" unicode="&#xab;" horiz-adv-x="1024" 
d="M532 840l-245 -348l245 -349h-204l-246 349l246 348h204zM942 840l-246 -348l246 -349h-205l-245 349l245 348h205z" />
    <glyph glyph-name="logicalnot" unicode="&#xac;" horiz-adv-x="962" 
d="M881 819v-471h-205v287h-594v184h799z" />
    <glyph glyph-name="uni00AD" unicode="&#xad;" horiz-adv-x="880" 
d="M799 696v-184h-717v184h717z" />
    <glyph glyph-name="registered" unicode="&#xae;" horiz-adv-x="1843" 
d="M1085 655l175 -316.999h-164l-154 287h-133v-287h-154v758h318c70.667 0 131 -24.333 181 -73s75 -106.334 75 -173.001c0 -42 -12 -79.5 -36 -112.5s-47.667 -54.833 -71 -65.5zM809 952.001v-184h164c30 0 54.5 8.83301 73.5 26.5s28.5 39.5 28.5 65.5
s-9.5 47.833 -28.5 65.5s-43.5 26.5 -73.5 26.5h-164zM1516 717.001c0 164 -58.167 304 -174.5 420s-256.333 174 -420 174s-303.5 -58 -419.5 -174s-174 -256 -174 -420s58 -304 174 -420s255.833 -174 419.5 -174s303.667 58 420 174s174.5 256 174.5 420zM1679 717.001
c0 -206 -72.667 -380.333 -218 -523s-325.166 -214 -539.499 -214s-394.166 71.333 -539.499 214s-218 317 -218 523s72.667 380.333 218 523s325.166 214 539.499 214s394.166 -71.333 539.499 -214s218 -317 218 -523z" />
    <glyph glyph-name="macron" unicode="&#xaf;" horiz-adv-x="757" 
d="M696 1434v-144h-635v144h635z" />
    <glyph glyph-name="degree" unicode="&#xb0;" horiz-adv-x="757" 
d="M676 1167.5c0 -77.667 -29 -144.834 -87 -201.501s-128 -85 -210 -85s-152 28.333 -210 85s-87 123.834 -87 201.501s29 144.834 87 201.501s128 85 210 85s152 -28.333 210 -85s87 -123.834 87 -201.501zM236 1167.5c0 -45 13.5 -81.833 40.5 -110.5s61 -43 102 -43
s75.167 14.333 102.5 43s41 65.5 41 110.5s-13.667 81.833 -41 110.5s-61.5 43 -102.5 43s-75 -14.333 -102 -43s-40.5 -65.5 -40.5 -110.5z" />
    <glyph glyph-name="plusminus" unicode="&#xb1;" horiz-adv-x="1075" 
d="M625 317h-174v369h-369v184h369v369h174v-369h368v-184h-368v-369zM82 0v184h911v-184h-911z" />
    <glyph glyph-name="uni00B2" unicode="&#xb2;" horiz-adv-x="655" 
d="M573 1423c0 -57.333 -18.666 -107.168 -55.999 -149.501s-85.333 -82.166 -144 -119.499s-97.667 -67 -117 -89h317v-143h-491v20c0 57.333 12 107.833 36 151.5s53 78.5 87 104.5s68 50 102 72s63 45.5 87 70.5s36 52.5 36 82.5c0 26 -9.5 48 -28.5 66
s-43.5 27 -73.5 27c-24.667 0 -47.334 -8.66699 -68.001 -26s-35 -34.666 -43 -51.999l-12 -25l-123 41c1.33301 5.33301 3.33301 12.5 6 21.5s9.83398 24.333 21.501 46s25.667 41.167 42 58.5s40.166 33.166 71.499 47.499s66.333 21.5 105 21.5
c76.667 0 136.667 -21 180 -63s65 -96.333 65 -163z" />
    <glyph glyph-name="uni00B3" unicode="&#xb3;" horiz-adv-x="675" 
d="M481 1311c8 -4 18.1699 -9.83301 30.5029 -17.5s29.166 -26.5 50.499 -56.5s32 -63.333 32 -100c0 -62.667 -24.667 -116 -74 -160s-113.333 -66 -192 -66c-57.333 0 -108.166 11.333 -152.499 34s-74.166 45 -89.499 67l-25 32l93 93
c4 -6.66699 10.333 -15.167 19 -25.5s28.5 -24.166 59.5 -41.499s62.833 -26 95.5 -26c39.333 0 69.666 8.66699 90.999 26s32 39.666 32 66.999s-10.667 49.5 -32 66.5s-51.666 25.5 -90.999 25.5h-82v143h71c68 0 102.167 24 102.5 72s-33.834 72 -102.501 72
c-24.667 0 -48.834 -6.83301 -72.501 -20.5s-40.834 -27.5 -51.501 -41.5l-19 -20l-92 92c2.66699 2.66699 6 7 10 13s13.5 15.833 28.5 29.5s30.833 26 47.5 37s38.5 21 65.5 30s54.833 13.5 83.5 13.5c75.333 0 135.166 -19.5 179.499 -58.5s66.5 -87.833 66.5 -146.5
c0 -27.333 -6.83301 -52.333 -20.5 -75s-27.167 -38 -40.5 -46z" />
    <glyph glyph-name="acute" unicode="&#xb4;" horiz-adv-x="491" 
d="M61 1147l154 287h215l-215 -287h-154z" />
    <glyph glyph-name="mu" unicode="&#xb5;" 
d="M133 -430v1413h205v-573c0 -70.667 21.833 -129.334 65.5 -176.001s96.834 -70 159.501 -70c74 0 133.5 25.167 178.5 75.5s67.5 120.833 67.5 211.5v532h205v-758c0 -54.667 27.333 -82 82 -82l41 11v-164c-20.667 -6.66699 -44.667 -10 -72 -10
c-57.333 0 -104.833 12.833 -142.5 38.5s-61.167 50.834 -70.5 75.501l-12 39c-2.66699 -4 -6.5 -9.5 -11.5 -16.5s-17 -19.333 -36 -37s-39.5 -33.334 -61.5 -47.001s-51.667 -25.834 -89 -36.501s-77.333 -16 -120 -16c-30 0 -60.333 5 -91 15s-54.334 20 -71.001 30
l-22 16v-471h-205z" />
    <glyph glyph-name="paragraph" unicode="&#xb6;" horiz-adv-x="1167" 
d="M430 -205v942c-92.667 0 -173.834 34.833 -243.501 104.5s-104.5 151 -104.5 244s34.833 174.333 104.5 244s150.834 104.5 243.501 104.5h574v-1639h-185v1454h-205v-1454h-184z" />
    <glyph glyph-name="periodcentered" unicode="&#xb7;" horiz-adv-x="409" 
d="M338 512c0 -35.333 -13.333 -66.333 -40 -93s-57.667 -40 -93 -40s-66.333 13.333 -93 40s-40 57.667 -40 93s13.333 66.333 40 93s57.667 40 93 40s66.333 -13.333 93 -40s40 -57.667 40 -93z" />
    <glyph glyph-name="cedilla" unicode="&#xb8;" horiz-adv-x="522" 
d="M246 41h122.997l-82 -154c4 0 10 -0.333008 18 -1s22 -3.66699 42 -9s37.833 -12.833 53.5 -22.5s29.667 -25 42 -46s18.5 -45.833 18.5 -74.5c0 -48 -18.167 -87.333 -54.5 -118s-86.5 -46 -150.5 -46c-36.667 0 -71.167 6.83301 -103.5 20.5s-55.833 27.167 -70.5 40.5
l-21 21l52 82c40.667 -34 88.334 -51 143.001 -51c24.667 0 44.5 6 59.5 18s22.5 26.333 22.5 43s-7.5 31 -22.5 43s-34.833 18 -59.5 18c-9.33301 0 -19.166 -1.66699 -29.499 -5s-18.166 -6.33301 -23.499 -9l-8 -6l-41 51z" />
    <glyph glyph-name="uni00B9" unicode="&#xb9;" horiz-adv-x="450" 
d="M215 1638h113.001v-716h-144v512h-123v112h21c32.667 0 61.667 9.5 87 28.5s40.666 40.167 45.999 63.5z" />
    <glyph glyph-name="ordmasculine" unicode="&#xba;" horiz-adv-x="757" 
d="M696 1137c0 -87.333 -31 -162.166 -93 -224.499s-136.667 -93.5 -224 -93.5s-162.166 31.167 -224.499 93.5s-93.5 137.166 -93.5 224.499s31.167 162 93.5 224s137.166 93 224.499 93s162 -31 224 -93s93 -136.667 93 -224zM553 1136.5
c0 50.333 -17.333 93.666 -52 129.999s-75.334 54.5 -122.001 54.5s-87.334 -18.167 -122.001 -54.5s-52 -79.666 -52 -129.999s17.333 -93.666 52 -129.999s75.334 -54.5 122.001 -54.5s87.334 18.167 122.001 54.5s52 79.666 52 129.999z" />
    <glyph glyph-name="guillemotright" unicode="&#xbb;" horiz-adv-x="1024" 
d="M737 492l-245 348h204l246 -348l-246 -349h-204zM328 492l-246 348h205l245 -348l-245 -349h-205z" />
    <glyph glyph-name="onequarter" unicode="&#xbc;" horiz-adv-x="1361" 
d="M236 1434l111.999 0.000976562v-717h-143v512h-123v112h20c32.667 0 61.834 9.66699 87.501 29s41.167 40.666 46.5 63.999zM122.999 0.000976562l881 1434h184l-881 -1434h-184zM1219 717.001v-430h81v-144h-81v-143h-144v143h-327v144l307 430h164zM900.999 287.001
h174v245z" />
    <glyph glyph-name="onehalf" unicode="&#xbd;" horiz-adv-x="1433" 
d="M236 1434l111.999 0.000976562v-717h-143v512h-123v112h20c32.667 0 61.834 9.66699 87.501 29s41.167 40.666 46.5 63.999zM122.999 0.000976562l881 1434h184l-881 -1434h-184zM1352 502.001c0 -57.333 -18.834 -107.166 -56.501 -149.499
s-85.834 -82.333 -144.501 -120s-97.667 -67.5 -117 -89.5h318v-143h-492v20c0 57.333 12 108 36 152s53 78.833 87 104.5s68.167 49.5 102.5 71.5s63.333 45.667 87 71s35.5 53 35.5 83c0 26 -9.5 47.833 -28.5 65.5s-43.5 26.5 -73.5 26.5
c-24.667 0 -47.167 -8.5 -67.5 -25.5s-34.833 -34.5 -43.5 -52.5l-12 -24l-123 40c1.33301 5.33301 3.33301 12.5 6 21.5s9.83398 24.5 21.501 46.5s25.667 41.5 42 58.5s40.333 32.667 72 47s66.5 21.5 104.5 21.5c76.667 0 136.834 -20.833 180.501 -62.5
s65.5 -95.834 65.5 -162.501z" />
    <glyph glyph-name="threequarters" unicode="&#xbe;" horiz-adv-x="1495" 
d="M481 1106c8 -4 18.1699 -9.83203 30.5029 -17.499s29.166 -26.5 50.499 -56.5s32 -63.333 32 -100c0 -62.667 -24.667 -115.834 -74 -159.501s-113.333 -65.5 -192 -65.5c-57.333 0 -108.166 11.167 -152.499 33.5s-74.166 44.5 -89.499 66.5l-25 33l93 92
c4 -6.66699 10.333 -15.167 19 -25.5s28.5 -24 59.5 -41s62.833 -25.5 95.5 -25.5c39.333 0 69.666 8.5 90.999 25.5s32 39.167 32 66.5s-10.667 49.5 -32 66.5s-51.666 25.5 -90.999 25.5h-82v143h71c68 0 102.167 24 102.5 72s-33.834 72 -102.501 72
c-24.667 0 -48.834 -6.83301 -72.501 -20.5s-40.834 -27.5 -51.501 -41.5l-19 -20l-92 92c2.66699 2.66699 6 7 10 13s13.5 15.833 28.5 29.5s30.833 26 47.5 37s38.5 21 65.5 30s54.833 13.5 83.5 13.5c75.333 0 135.166 -19.5 179.499 -58.5s66.5 -87.833 66.5 -146.5
c0 -27.333 -6.83301 -52.333 -20.5 -75s-27.167 -38 -40.5 -46zM256.003 0.000976562l881 1434h184l-881 -1434h-184zM1352 717.001v-430h82v-144h-82v-143h-144v143h-327v144l307 430h164zM1034 287.001h174v245z" />
    <glyph glyph-name="questiondown" unicode="&#xbf;" horiz-adv-x="931" 
d="M655 512c0 -56 -12.501 -106.168 -37.501 -150.501s-55.667 -80.166 -92 -107.499s-72.666 -54.333 -108.999 -81s-67 -57.667 -92 -93s-37.5 -75.666 -37.5 -120.999c0 -57.333 21.833 -105.833 65.5 -145.5s100.167 -59.5 169.5 -59.5c44 0 84 7.16699 120 21.5
s64 31.5 84 51.5s36.5 39.833 49.5 59.5s22.167 37.167 27.5 52.5l6 20l184 -72c-2.66699 -9.33301 -6.33398 -21.5 -11.001 -36.5s-19 -42 -43 -81s-51.667 -73.167 -83 -102.5s-76.666 -56.333 -135.999 -81s-125.333 -37 -198 -37c-134 0 -244.333 38.333 -331 115
s-130 168.334 -130 275.001c0 60 10 113.5 30 160.5s44.667 83.5 74 109.5s61.333 52.333 96 79s66.667 51.167 96 73.5s54 52.666 74 90.999s30 82.166 30 131.499v20h184c6.66699 -34 10 -64.667 10 -92zM685.999 870.499c0 -35.667 -13.333 -66.834 -40 -93.501
s-57.667 -40 -93 -40s-66.333 13.333 -93 40s-40 57.834 -40 93.501s13.333 66.834 40 93.501s57.667 40 93 40s66.333 -13.333 93 -40s40 -57.834 40 -93.501z" />
    <glyph glyph-name="Agrave" unicode="&#xc0;" horiz-adv-x="1495" 
d="M41 0l594 1434h225l594 -1434h-235l-154 379h-635l-154 -379h-235zM748 1178l-236 -594h471zM666 1905l153 -287h-153l-215 287h215z" />
    <glyph glyph-name="Aacute" unicode="&#xc1;" horiz-adv-x="1495" 
d="M41 0l594 1434h225l594 -1434h-235l-154 379h-635l-154 -379h-235zM748 1178l-236 -594h471zM676 1618l153 287h215l-215 -287h-153z" />
    <glyph glyph-name="Acircumflex" unicode="&#xc2;" horiz-adv-x="1495" 
d="M41 0l594 1434h225l594 -1434h-235l-154 379h-635l-154 -379h-235zM748 1178l-236 -594h471zM850 1905l225 -287h-184l-143 184l-144 -184h-184l225 287h205z" />
    <glyph glyph-name="Atilde" unicode="&#xc3;" horiz-adv-x="1495" 
d="M41 0l594 1434h225l594 -1434h-235l-154 379h-635l-154 -379h-235zM748 1178l-236 -594h471zM885 1618c-40.667 0 -77.5 10.167 -110.5 30.5s-62.833 40.833 -89.5 61.5s-52.334 31 -77.001 31c-54.667 0 -82 -41 -82 -123h-133c0 177.333 71.667 266 215 266
c40.667 0 77.5 -10.167 110.5 -30.5s62.833 -40.833 89.5 -61.5s52.334 -31 77.001 -31c54.667 0 82 41 82 123h133c0 -177.333 -71.667 -266 -215 -266z" />
    <glyph glyph-name="Adieresis" unicode="&#xc4;" horiz-adv-x="1495" 
d="M41 0l594 1434h225l594 -1434h-235l-154 379h-635l-154 -379h-235zM748 1178l-236 -594h471zM655 1741c0 -35.333 -11.5 -64.666 -34.5 -87.999s-52.333 -35 -88 -35s-65 11.667 -88 35s-34.5 52.666 -34.5 87.999s11.5 64.666 34.5 87.999s52.333 35 88 35
s65 -11.667 88 -35s34.5 -52.666 34.5 -87.999zM1085 1741c0 -35.333 -11.5 -64.666 -34.5 -87.999s-52.333 -35 -88 -35s-65 11.667 -88 35s-34.5 52.666 -34.5 87.999s11.5 64.666 34.5 87.999s52.333 35 88 35s65 -11.667 88 -35s34.5 -52.666 34.5 -87.999z" />
    <glyph glyph-name="Aring" unicode="&#xc5;" horiz-adv-x="1495" 
d="M41 0l594 1434h225l594 -1434h-235l-154 379h-635l-154 -379h-235zM748 1178l-236 -594h471zM952 1761c0 -56 -20.167 -104.167 -60.5 -144.5s-88.333 -60.5 -144 -60.5s-103.667 20.167 -144 60.5s-60.5 88.5 -60.5 144.5s20.167 104.167 60.5 144.5
s88.333 60.5 144 60.5s103.667 -20.167 144 -60.5s60.5 -88.5 60.5 -144.5zM829 1761c0 24.667 -8.5 46.167 -25.5 64.5s-35.667 27.5 -56 27.5s-39 -9.16699 -56 -27.5s-25.5 -39.833 -25.5 -64.5s8.5 -46.167 25.5 -64.5s35.667 -27.5 56 -27.5s39 9.16699 56 27.5
s25.5 39.833 25.5 64.5z" />
    <glyph glyph-name="AE" unicode="&#xc6;" horiz-adv-x="2017" 
d="M-41 0l799 1434h1136v-205h-706v-379h543v-205h-543v-440h727v-205h-952v389h-543l-215 -389h-246zM881 1229l-349 -635h431v635h-82z" />
    <glyph glyph-name="Ccedilla" unicode="&#xc7;" horiz-adv-x="1556" 
d="M881 1454c72.667 0 142.322 -9.49805 208.989 -28.498s121.834 -42.167 165.501 -69.5s81.834 -54.333 114.501 -81s56.667 -49.667 72 -69l22 -28l-143 -144c-4 5.33301 -9.83301 12.833 -17.5 22.5s-25.167 27.167 -52.5 52.5s-56.666 47.166 -87.999 65.499
s-72.166 35.333 -122.499 51s-103.5 23.5 -159.5 23.5c-148.667 0 -274.667 -51.5 -378 -154.5s-155 -228.833 -155 -377.5s51.5 -274.667 154.5 -378s229.167 -155 378.5 -155c56 0 109.5 7.83301 160.5 23.5s93.333 34.5 127 56.5s63.334 43.833 89.001 65.5
s44.834 40.167 57.501 55.5l16 25l144 -144c-5.33301 -6.66699 -13.166 -16.167 -23.499 -28.5s-33.333 -34.5 -69 -66.5s-73.667 -60.333 -114 -85s-92.833 -47.5 -157.5 -68.5s-132 -32.833 -202 -35.5l-49 -95c4 0 10.167 -0.333008 18.5 -1s22.333 -3.66699 42 -9
s37.334 -12.833 53.001 -22.5s29.667 -25 42 -46s18.5 -45.833 18.5 -74.5c0 -48 -18 -87.333 -54 -118s-86.333 -46 -151 -46c-36.667 0 -71 6.83301 -103 20.5s-55.667 27.167 -71 40.5l-20 21l51 82c40.667 -34 88.334 -51 143.001 -51c24.667 0 44.5 6 59.5 18
s22.5 26.333 22.5 43s-7.5 31 -22.5 43s-34.833 18 -59.5 18c-9.33301 0 -19.166 -1.66699 -29.499 -5s-18.166 -6.33301 -23.499 -9l-8 -6l-41 51l66 148c-192.667 20.667 -352.5 100.167 -479.5 238.5s-190.5 303.166 -190.5 494.499c0 206 72.667 380.333 218 523
s325.333 214 540 214z" />
    <glyph glyph-name="Egrave" unicode="&#xc8;" horiz-adv-x="1341" 
d="M430 205h809v-205h-1034v1434h1014v-205h-789v-379h625v-205h-625v-440zM666 1905l153 -287h-153l-215 287h215z" />
    <glyph glyph-name="Eacute" unicode="&#xc9;" horiz-adv-x="1341" 
d="M430 205h809v-205h-1034v1434h1014v-205h-789v-379h625v-205h-625v-440zM635 1618l153 287h216l-216 -287h-153z" />
    <glyph glyph-name="Ecircumflex" unicode="&#xca;" horiz-adv-x="1341" 
d="M430 205h809v-205h-1034v1434h1014v-205h-789v-379h625v-205h-625v-440zM819 1905l225 -287h-184l-143 184l-144 -184h-184l225 287h205z" />
    <glyph glyph-name="Edieresis" unicode="&#xcb;" horiz-adv-x="1341" 
d="M430 205h809v-205h-1034v1434h1014v-205h-789v-379h625v-205h-625v-440zM635 1741c0 -35.333 -11.667 -64.666 -35 -87.999s-52.666 -35 -87.999 -35s-64.666 11.667 -87.999 35s-35 52.666 -35 87.999s11.667 64.666 35 87.999s52.666 35 87.999 35
s64.666 -11.667 87.999 -35s35 -52.666 35 -87.999zM1065 1741c0 -35.333 -11.667 -64.666 -35 -87.999s-52.666 -35 -87.999 -35s-64.666 11.667 -87.999 35s-35 52.666 -35 87.999s11.667 64.666 35 87.999s52.666 35 87.999 35s64.666 -11.667 87.999 -35
s35 -52.666 35 -87.999z" />
    <glyph glyph-name="Igrave" unicode="&#xcc;" horiz-adv-x="634" 
d="M205 0v1434h225v-1434h-225zM236 1905l153 -287h-153l-216 287h216z" />
    <glyph glyph-name="Iacute" unicode="&#xcd;" horiz-adv-x="634" 
d="M205 0v1434h225v-1434h-225zM246 1618l153 287h215l-215 -287h-153z" />
    <glyph glyph-name="Icircumflex" unicode="&#xce;" horiz-adv-x="634" 
d="M205 0v1434h225v-1434h-225zM420 1905l225 -287h-184l-144 184l-143 -184h-184l225 287h205z" />
    <glyph glyph-name="Idieresis" unicode="&#xcf;" horiz-adv-x="634" 
d="M205 0v1434h225v-1434h-225zM225 1741c0 -35.333 -11.5 -64.666 -34.5 -87.999s-52.333 -35 -88 -35s-65 11.667 -88 35s-34.5 52.666 -34.5 87.999s11.5 64.666 34.5 87.999s52.333 35 88 35s65 -11.667 88 -35s34.5 -52.666 34.5 -87.999zM655 1741
c0 -35.333 -11.5 -64.666 -34.5 -87.999s-52.333 -35 -88 -35s-65 11.667 -88 35s-34.5 52.666 -34.5 87.999s11.5 64.666 34.5 87.999s52.333 35 88 35s65 -11.667 88 -35s34.5 -52.666 34.5 -87.999z" />
    <glyph glyph-name="Eth" unicode="&#xd0;" horiz-adv-x="1607" 
d="M61 614v204.998h195v615h502c199.333 0 370.333 -70.667 513 -212s214 -309.666 214 -504.999s-71.333 -363.666 -214 -504.999s-313.667 -212 -513 -212h-502v614h-195zM758 1229h-277v-410h318v-205h-318v-409h277c139.333 0 257.833 49.5 355.5 148.5
s146.5 220.167 146.5 363.5s-48.833 264.5 -146.5 363.5s-216.167 148.5 -355.5 148.5z" />
    <glyph glyph-name="Ntilde" unicode="&#xd1;" horiz-adv-x="1628" 
d="M1198 1434h225v-1434h-194l-799 1034v-1034h-225v1434h194l799 -1035v1035zM952 1618c-40.667 0 -77.3311 10.167 -109.998 30.5s-62.334 40.833 -89.001 61.5s-52.334 31 -77.001 31c-54.667 0 -82 -41 -82 -123h-133c0 177.333 71.667 266 215 266
c40.667 0 77.5 -10.167 110.5 -30.5s62.667 -40.833 89 -61.5s51.833 -31 76.5 -31c54.667 0 82 41 82 123h133c0 -177.333 -71.667 -266 -215 -266z" />
    <glyph glyph-name="Ograve" unicode="&#xd2;" horiz-adv-x="1761" 
d="M348 717c0 -148.667 51.5 -274.667 154.5 -378s229 -155 378 -155s275 51.667 378 155s154.5 229.333 154.5 378s-51.5 274.5 -154.5 377.5s-229 154.5 -378 154.5s-275 -51.5 -378 -154.5s-154.5 -228.833 -154.5 -377.5zM123 717c0 206 72.667 380.333 218 523
s325.166 214 539.499 214s394.166 -71.333 539.499 -214s218 -317 218 -523s-72.667 -380.333 -218 -523s-325.166 -214 -539.499 -214s-394.166 71.333 -539.499 214s-218 317 -218 523zM819 1905l154 -287h-154l-215 287h215z" />
    <glyph glyph-name="Oacute" unicode="&#xd3;" horiz-adv-x="1761" 
d="M348 717c0 -148.667 51.5 -274.667 154.5 -378s229 -155 378 -155s275 51.667 378 155s154.5 229.333 154.5 378s-51.5 274.5 -154.5 377.5s-229 154.5 -378 154.5s-275 -51.5 -378 -154.5s-154.5 -228.833 -154.5 -377.5zM123 717c0 206 72.667 380.333 218 523
s325.166 214 539.499 214s394.166 -71.333 539.499 -214s218 -317 218 -523s-72.667 -380.333 -218 -523s-325.166 -214 -539.499 -214s-394.166 71.333 -539.499 214s-218 317 -218 523zM827 1618l154 287h215l-215 -287h-154z" />
    <glyph glyph-name="Ocircumflex" unicode="&#xd4;" horiz-adv-x="1761" 
d="M348 717c0 -148.667 51.5 -274.667 154.5 -378s229 -155 378 -155s275 51.667 378 155s154.5 229.333 154.5 378s-51.5 274.5 -154.5 377.5s-229 154.5 -378 154.5s-275 -51.5 -378 -154.5s-154.5 -228.833 -154.5 -377.5zM123 717c0 206 72.667 380.333 218 523
s325.166 214 539.499 214s394.166 -71.333 539.499 -214s218 -317 218 -523s-72.667 -380.333 -218 -523s-325.166 -214 -539.499 -214s-394.166 71.333 -539.499 214s-218 317 -218 523zM983 1905l225 -287h-184l-143 184l-144 -184h-184l225 287h205z" />
    <glyph glyph-name="Otilde" unicode="&#xd5;" horiz-adv-x="1761" 
d="M348 717c0 -148.667 51.5 -274.667 154.5 -378s229 -155 378 -155s275 51.667 378 155s154.5 229.333 154.5 378s-51.5 274.5 -154.5 377.5s-229 154.5 -378 154.5s-275 -51.5 -378 -154.5s-154.5 -228.833 -154.5 -377.5zM123 717c0 206 72.667 380.333 218 523
s325.166 214 539.499 214s394.166 -71.333 539.499 -214s218 -317 218 -523s-72.667 -380.333 -218 -523s-325.166 -214 -539.499 -214s-394.166 71.333 -539.499 214s-218 317 -218 523zM1034 1618c-40.667 0 -77.5 10.167 -110.5 30.5s-62.667 40.833 -89 61.5
s-51.833 31 -76.5 31c-54.667 0 -82 -41 -82 -123h-133c0 177.333 71.667 266 215 266c40.667 0 77.5 -10.167 110.5 -30.5s62.667 -40.833 89 -61.5s51.833 -31 76.5 -31c54.667 0 82 41 82 123h133c0 -177.333 -71.667 -266 -215 -266z" />
    <glyph glyph-name="Odieresis" unicode="&#xd6;" horiz-adv-x="1761" 
d="M348 717c0 -148.667 51.5 -274.667 154.5 -378s229 -155 378 -155s275 51.667 378 155s154.5 229.333 154.5 378s-51.5 274.5 -154.5 377.5s-229 154.5 -378 154.5s-275 -51.5 -378 -154.5s-154.5 -228.833 -154.5 -377.5zM123 717c0 206 72.667 380.333 218 523
s325.166 214 539.499 214s394.166 -71.333 539.499 -214s218 -317 218 -523s-72.667 -380.333 -218 -523s-325.166 -214 -539.499 -214s-394.166 71.333 -539.499 214s-218 317 -218 523zM788 1741c0 -35.333 -11.5 -64.666 -34.5 -87.999s-52.333 -35 -88 -35
s-65 11.667 -88 35s-34.5 52.666 -34.5 87.999s11.5 64.666 34.5 87.999s52.333 35 88 35s65 -11.667 88 -35s34.5 -52.666 34.5 -87.999zM1219 1741c0 -35.333 -11.667 -64.666 -35 -87.999s-52.833 -35 -88.5 -35s-65 11.667 -88 35s-34.5 52.666 -34.5 87.999
s11.5 64.666 34.5 87.999s52.333 35 88 35s65.167 -11.667 88.5 -35s35 -52.666 35 -87.999z" />
    <glyph glyph-name="multiply" unicode="&#xd7;" horiz-adv-x="962" 
d="M369 635l-287 287l113 112l286 -286l287 286l113 -112l-287 -287l287 -287l-113 -112l-287 286l-286 -286l-113 112z" />
    <glyph glyph-name="Oslash" unicode="&#xd8;" horiz-adv-x="1761" 
d="M123 717c0 206 72.667 380.334 218 523.001s325.333 214 540 214c170.667 0 322.667 -48.333 456 -145l189 186l133 -143l-180 -178c106.667 -132.667 159.667 -285 159 -457c0 -206 -72.667 -380.333 -218 -523s-325 -214 -539 -214c-172 0 -325 48.333 -459 145
l-186 -186l-134 143l179 178c-105.333 131.333 -158 283.666 -158 456.999zM1413 717.001c0 109.333 -30.667 209 -92 299l-746 -740c88.667 -61.333 190.667 -92 306 -92c148.667 0 274.5 51.667 377.5 155s154.5 229.333 154.5 378zM348 717.001
c0 -110.667 30 -211 90 -301l746 739c-91.333 62.667 -192.333 94 -303 94c-148.667 0 -274.667 -51.5 -378 -154.5s-155 -228.833 -155 -377.5z" />
    <glyph glyph-name="Ugrave" unicode="&#xd9;" horiz-adv-x="1576" 
d="M788.5 184c102.333 0 191.002 38.333 266.002 115s112.5 168 112.5 274v861h226v-861c0 -164 -58.833 -303.833 -176.5 -419.5s-260.334 -173.5 -428.001 -173.5s-310.334 58 -428.001 174s-176.5 255.667 -176.5 419v861h226v-861
c0 -106.667 37.5 -198.167 112.5 -274.5s163.667 -114.5 266 -114.5zM748.002 1905l153 -287h-153l-216 287h216z" />
    <glyph glyph-name="Uacute" unicode="&#xda;" horiz-adv-x="1576" 
d="M788.5 184c102.333 0 191.002 38.333 266.002 115s112.5 168 112.5 274v861h226v-861c0 -164 -58.833 -303.833 -176.5 -419.5s-260.334 -173.5 -428.001 -173.5s-310.334 58 -428.001 174s-176.5 255.667 -176.5 419v861h226v-861
c0 -106.667 37.5 -198.167 112.5 -274.5s163.667 -114.5 266 -114.5zM696.002 1618l154 287h215l-215 -287h-154z" />
    <glyph glyph-name="Ucircumflex" unicode="&#xdb;" horiz-adv-x="1576" 
d="M788.5 184c102.333 0 191.002 38.333 266.002 115s112.5 168 112.5 274v861h226v-861c0 -164 -58.833 -303.833 -176.5 -419.5s-260.334 -173.5 -428.001 -173.5s-310.334 58 -428.001 174s-176.5 255.667 -176.5 419v861h226v-861
c0 -106.667 37.5 -198.167 112.5 -274.5s163.667 -114.5 266 -114.5zM891.002 1905l225 -287h-184l-144 184l-143 -184h-184l225 287h205z" />
    <glyph glyph-name="Udieresis" unicode="&#xdc;" horiz-adv-x="1576" 
d="M788.5 184c102.333 0 191.002 38.333 266.002 115s112.5 168 112.5 274v861h226v-861c0 -164 -58.833 -303.833 -176.5 -419.5s-260.334 -173.5 -428.001 -173.5s-310.334 58 -428.001 174s-176.5 255.667 -176.5 419v861h226v-861
c0 -106.667 37.5 -198.167 112.5 -274.5s163.667 -114.5 266 -114.5zM696.002 1741c0 -35.333 -11.5 -64.666 -34.5 -87.999s-52.333 -35 -88 -35s-65 11.667 -88 35s-34.5 52.666 -34.5 87.999s11.5 64.666 34.5 87.999s52.333 35 88 35s65 -11.667 88 -35
s34.5 -52.666 34.5 -87.999zM1126 1741c0 -35.333 -11.5 -64.666 -34.5 -87.999s-52.333 -35 -88 -35s-65 11.667 -88 35s-34.5 52.666 -34.5 87.999s11.5 64.666 34.5 87.999s52.333 35 88 35s65 -11.667 88 -35s34.5 -52.666 34.5 -87.999z" />
    <glyph glyph-name="Yacute" unicode="&#xdd;" horiz-adv-x="1351" 
d="M287 1434l389 -686l389 686h246l-523 -922v-512h-225v512l-522 922h246zM604 1618l154 287h215l-215 -287h-154z" />
    <glyph glyph-name="Thorn" unicode="&#xde;" horiz-adv-x="1361" 
d="M430 1116v-758h164c131.333 0 234.166 34.5 308.499 103.5s111.5 160.833 111.5 275.5s-37.167 206.5 -111.5 275.5s-177.166 103.5 -308.499 103.5h-164zM430 1321h163.999c186 0 340 -57 462 -171s183 -251.5 183 -412.5s-61.167 -298.5 -183.5 -412.5
s-276.166 -171 -461.499 -171h-164v-195h-225v1516h225v-154z" />
    <glyph glyph-name="germandbls" unicode="&#xdf;" horiz-adv-x="1228" 
d="M870 799c6.66699 -2.66699 15.5 -6.83594 26.5 -12.5029s30.5 -19.334 58.5 -41.001s53 -45.167 75 -70.5s41.833 -60.166 59.5 -104.499s26.5 -91.166 26.5 -140.499c0 -124 -42 -226.667 -126 -308s-192 -122 -324 -122h-103v205h103
c70.667 0 129.167 21.833 175.5 65.5s69.5 96.834 69.5 159.501s-23.167 115.834 -69.5 159.501s-104.833 65.5 -175.5 65.5h-103v205h21c65.333 0 119.166 19.833 161.499 59.5s63.5 88.167 63.5 145.5s-21.167 105.833 -63.5 145.5s-96.166 59.5 -161.499 59.5
c-66.667 0 -121 -20.833 -163 -62.5s-63 -96.167 -63 -163.5v-1044h-204v1044c0 118.667 39.833 216.667 119.5 294s183.167 116 310.5 116c125.333 0 228.333 -37.5 309 -112.5s121 -167.167 121 -276.5c0 -54.667 -12 -104.167 -36 -148.5s-48.333 -75.5 -73 -93.5z" />
    <glyph glyph-name="agrave" unicode="&#xe0;" horiz-adv-x="1075" 
d="M922 0l-204.999 -0.000976562v102c-2.66699 -2.66699 -7.16699 -7 -13.5 -13s-19 -15.833 -38 -29.5s-39.5 -26 -61.5 -37s-49.667 -20.833 -83 -29.5s-67 -13 -101 -13c-100 0 -183 29 -249 87s-99 124.333 -99 199c0 80.667 25.5 148.334 76.5 203.001
s120.833 89.334 209.5 104.001l359 62c0 52 -19.167 95.667 -57.5 131s-87.5 53 -147.5 53c-52 0 -99.167 -10.833 -141.5 -32.5s-71.5 -43.5 -87.5 -65.5l-27 -35l-133 133c4 5.33301 9.5 12.166 16.5 20.499s22.667 23 47 44s50.166 39.833 77.499 56.5
s63.5 31.5 108.5 44.5s91.5 19.5 139.5 19.5c120 0 218.333 -35.5 295 -106.5s115 -158.5 115 -262.5v-635zM451.001 163.999c83.333 0 148.501 24.833 195.501 74.5s70.5 120.5 70.5 212.5v20l-318 -51c-36.667 -6.66699 -66.334 -21.667 -89.001 -45
s-34 -52.666 -34 -87.999c0 -32.667 15.833 -61.334 47.5 -86.001s74.167 -37 127.5 -37zM471.002 1434l154 -287h-154l-215 287h215z" />
    <glyph glyph-name="aacute" unicode="&#xe1;" horiz-adv-x="1075" 
d="M922 0l-204.999 -0.000976562v102c-2.66699 -2.66699 -7.16699 -7 -13.5 -13s-19 -15.833 -38 -29.5s-39.5 -26 -61.5 -37s-49.667 -20.833 -83 -29.5s-67 -13 -101 -13c-100 0 -183 29 -249 87s-99 124.333 -99 199c0 80.667 25.5 148.334 76.5 203.001
s120.833 89.334 209.5 104.001l359 62c0 52 -19.167 95.667 -57.5 131s-87.5 53 -147.5 53c-52 0 -99.167 -10.833 -141.5 -32.5s-71.5 -43.5 -87.5 -65.5l-27 -35l-133 133c4 5.33301 9.5 12.166 16.5 20.499s22.667 23 47 44s50.166 39.833 77.499 56.5
s63.5 31.5 108.5 44.5s91.5 19.5 139.5 19.5c120 0 218.333 -35.5 295 -106.5s115 -158.5 115 -262.5v-635zM451.001 163.999c83.333 0 148.501 24.833 195.501 74.5s70.5 120.5 70.5 212.5v20l-318 -51c-36.667 -6.66699 -66.334 -21.667 -89.001 -45
s-34 -52.666 -34 -87.999c0 -32.667 15.833 -61.334 47.5 -86.001s74.167 -37 127.5 -37zM471.002 1147l154 287h215l-215 -287h-154z" />
    <glyph glyph-name="acircumflex" unicode="&#xe2;" horiz-adv-x="1075" 
d="M922 0l-204.999 -0.000976562v102c-2.66699 -2.66699 -7.16699 -7 -13.5 -13s-19 -15.833 -38 -29.5s-39.5 -26 -61.5 -37s-49.667 -20.833 -83 -29.5s-67 -13 -101 -13c-100 0 -183 29 -249 87s-99 124.333 -99 199c0 80.667 25.5 148.334 76.5 203.001
s120.833 89.334 209.5 104.001l359 62c0 52 -19.167 95.667 -57.5 131s-87.5 53 -147.5 53c-52 0 -99.167 -10.833 -141.5 -32.5s-71.5 -43.5 -87.5 -65.5l-27 -35l-133 133c4 5.33301 9.5 12.166 16.5 20.499s22.667 23 47 44s50.166 39.833 77.499 56.5
s63.5 31.5 108.5 44.5s91.5 19.5 139.5 19.5c120 0 218.333 -35.5 295 -106.5s115 -158.5 115 -262.5v-635zM451.001 163.999c83.333 0 148.501 24.833 195.501 74.5s70.5 120.5 70.5 212.5v20l-318 -51c-36.667 -6.66699 -66.334 -21.667 -89.001 -45
s-34 -52.666 -34 -87.999c0 -32.667 15.833 -61.334 47.5 -86.001s74.167 -37 127.5 -37zM666.002 1434l225 -287h-184l-144 184l-143 -184h-184l225 287h205z" />
    <glyph glyph-name="atilde" unicode="&#xe3;" horiz-adv-x="1075" 
d="M922 0l-204.999 -0.000976562v102c-2.66699 -2.66699 -7.16699 -7 -13.5 -13s-19 -15.833 -38 -29.5s-39.5 -26 -61.5 -37s-49.667 -20.833 -83 -29.5s-67 -13 -101 -13c-100 0 -183 29 -249 87s-99 124.333 -99 199c0 80.667 25.5 148.334 76.5 203.001
s120.833 89.334 209.5 104.001l359 62c0 52 -19.167 95.667 -57.5 131s-87.5 53 -147.5 53c-52 0 -99.167 -10.833 -141.5 -32.5s-71.5 -43.5 -87.5 -65.5l-27 -35l-133 133c4 5.33301 9.5 12.166 16.5 20.499s22.667 23 47 44s50.166 39.833 77.499 56.5
s63.5 31.5 108.5 44.5s91.5 19.5 139.5 19.5c120 0 218.333 -35.5 295 -106.5s115 -158.5 115 -262.5v-635zM451.001 163.999c83.333 0 148.501 24.833 195.501 74.5s70.5 120.5 70.5 212.5v20l-318 -51c-36.667 -6.66699 -66.334 -21.667 -89.001 -45
s-34 -52.666 -34 -87.999c0 -32.667 15.833 -61.334 47.5 -86.001s74.167 -37 127.5 -37zM696.002 1147c-40.667 0 -77.3311 10.167 -109.998 30.5s-62.334 40.833 -89.001 61.5s-52.334 31 -77.001 31c-54.667 0 -82 -41 -82 -123h-133c0 177.333 71.667 266 215 266
c40.667 0 77.5 -10.167 110.5 -30.5s62.667 -40.833 89 -61.5s51.833 -31 76.5 -31c54.667 0 82 41 82 123h133c0 -177.333 -71.667 -266 -215 -266z" />
    <glyph glyph-name="adieresis" unicode="&#xe4;" horiz-adv-x="1075" 
d="M922 0l-204.999 -0.000976562v102c-2.66699 -2.66699 -7.16699 -7 -13.5 -13s-19 -15.833 -38 -29.5s-39.5 -26 -61.5 -37s-49.667 -20.833 -83 -29.5s-67 -13 -101 -13c-100 0 -183 29 -249 87s-99 124.333 -99 199c0 80.667 25.5 148.334 76.5 203.001
s120.833 89.334 209.5 104.001l359 62c0 52 -19.167 95.667 -57.5 131s-87.5 53 -147.5 53c-52 0 -99.167 -10.833 -141.5 -32.5s-71.5 -43.5 -87.5 -65.5l-27 -35l-133 133c4 5.33301 9.5 12.166 16.5 20.499s22.667 23 47 44s50.166 39.833 77.499 56.5
s63.5 31.5 108.5 44.5s91.5 19.5 139.5 19.5c120 0 218.333 -35.5 295 -106.5s115 -158.5 115 -262.5v-635zM451.001 163.999c83.333 0 148.501 24.833 195.501 74.5s70.5 120.5 70.5 212.5v20l-318 -51c-36.667 -6.66699 -66.334 -21.667 -89.001 -45
s-34 -52.666 -34 -87.999c0 -32.667 15.833 -61.334 47.5 -86.001s74.167 -37 127.5 -37zM471.002 1270c0 -35.333 -11.667 -64.666 -35 -87.999s-52.666 -35 -87.999 -35s-64.666 11.667 -87.999 35s-35 52.666 -35 87.999s11.667 64.666 35 87.999s52.666 35 87.999 35
s64.666 -11.667 87.999 -35s35 -52.666 35 -87.999zM901.002 1270c0 -35.333 -11.667 -64.666 -35 -87.999s-52.666 -35 -87.999 -35s-64.666 11.667 -87.999 35s-35 52.666 -35 87.999s11.667 64.666 35 87.999s52.666 35 87.999 35s64.666 -11.667 87.999 -35
s35 -52.666 35 -87.999z" />
    <glyph glyph-name="aring" unicode="&#xe5;" horiz-adv-x="1075" 
d="M922 0l-204.999 -0.000976562v102c-2.66699 -2.66699 -7.16699 -7 -13.5 -13s-19 -15.833 -38 -29.5s-39.5 -26 -61.5 -37s-49.667 -20.833 -83 -29.5s-67 -13 -101 -13c-100 0 -183 29 -249 87s-99 124.333 -99 199c0 80.667 25.5 148.334 76.5 203.001
s120.833 89.334 209.5 104.001l359 62c0 52 -19.167 95.667 -57.5 131s-87.5 53 -147.5 53c-52 0 -99.167 -10.833 -141.5 -32.5s-71.5 -43.5 -87.5 -65.5l-27 -35l-133 133c4 5.33301 9.5 12.166 16.5 20.499s22.667 23 47 44s50.166 39.833 77.499 56.5
s63.5 31.5 108.5 44.5s91.5 19.5 139.5 19.5c120 0 218.333 -35.5 295 -106.5s115 -158.5 115 -262.5v-635zM451.001 163.999c83.333 0 148.501 24.833 195.501 74.5s70.5 120.5 70.5 212.5v20l-318 -51c-36.667 -6.66699 -66.334 -21.667 -89.001 -45
s-34 -52.666 -34 -87.999c0 -32.667 15.833 -61.334 47.5 -86.001s74.167 -37 127.5 -37zM748.002 1311c0 -56 -20.167 -104.167 -60.5 -144.5s-88.5 -60.5 -144.5 -60.5s-104.167 20.167 -144.5 60.5s-60.5 88.5 -60.5 144.5s20.167 104.167 60.5 144.5
s88.5 60.5 144.5 60.5s104.167 -20.167 144.5 -60.5s60.5 -88.5 60.5 -144.5zM625.002 1311c0 24.667 -8.66699 46.167 -26 64.5s-36.166 27.5 -56.499 27.5s-39 -9.16699 -56 -27.5s-25.5 -39.833 -25.5 -64.5s8.5 -46.167 25.5 -64.5s35.667 -27.5 56 -27.5
s39.166 9.16699 56.499 27.5s26 39.833 26 64.5z" />
    <glyph glyph-name="ae" unicode="&#xe6;" horiz-adv-x="1812" 
d="M532 1004c39.333 0 77.999 -5.49805 115.999 -16.498s69.167 -24.667 93.5 -41s45.833 -32.833 64.5 -49.5s32.667 -30.334 42 -41.001l12 -16c4 4 9.5 9.66699 16.5 17s22.333 20.666 46 39.999s49.167 36.166 76.5 50.499s62.5 27.333 105.5 39s87.833 17.5 134.5 17.5
c138 0 252.667 -45.833 344 -137.5s137 -206.5 137 -344.5l-10 -102h-768c10.667 -69.333 44.667 -129.333 102 -180s125.666 -76 204.999 -76c57.333 0 111 13 161 39s85.333 51.333 106 76l30 38l133 -133c-4 -5.33301 -10 -12.833 -18 -22.5s-25.667 -26 -53 -49
s-56.333 -43.333 -87 -61s-70.667 -34 -120 -49s-100 -22.5 -152 -22.5c-49.333 0 -97.166 7.16699 -143.499 21.5s-84.833 31.333 -115.5 51s-58 39.334 -82 59.001s-41.333 37.167 -52 52.5l-16 20c-4 -5.33301 -9.5 -12.833 -16.5 -22.5s-23.167 -26 -48.5 -49
s-52.666 -43.333 -81.999 -61s-67.5 -34 -114.5 -49s-96.5 -22.5 -148.5 -22.5c-105.333 0 -191.333 30 -258 90s-100 132.333 -100 217c0 87.333 37.5 160.333 112.5 219s180.833 88 317.5 88h235c0 70.667 -18.333 125.834 -55 165.501s-86.667 59.5 -150 59.5
c-52 0 -99 -10.833 -141 -32.5s-71.333 -43.5 -88 -65.5l-27 -35l-133 133c4 5.33301 9.5 12.166 16.5 20.499s22.833 23 47.5 44s50.667 39.833 78 56.5s63.333 31.5 108 44.5s91 19.5 139 19.5zM1239 829.002c-74 0 -136.167 -21.833 -186.5 -65.5
s-84.5 -100.167 -102.5 -169.5h570c-12 69.333 -43 125.833 -93 169.5s-112.667 65.5 -188 65.5zM450.999 164.002c80.667 0 148.5 26.334 203.5 79.001s82.5 115 82.5 187h-235c-72.667 0 -128.5 -14 -167.5 -42s-58.5 -61.667 -58.5 -101
c0 -32.667 15.833 -61.334 47.5 -86.001s74.167 -37 127.5 -37z" />
    <glyph glyph-name="ccedilla" unicode="&#xe7;" horiz-adv-x="1064" 
d="M72 492c0 138 50.8369 257.833 152.504 359.5s221.5 152.5 359.5 152.5c76.667 0 148 -16.5 214 -49.5s113.333 -65.833 142 -98.5l43 -47l-133 -133c-6.66699 10.667 -16.834 23.834 -30.501 39.501s-43.334 36.834 -89.001 63.501s-94.5 40 -146.5 40
c-83.333 0 -155.5 -31.667 -216.5 -95s-91.5 -140.833 -91.5 -232.5s30.5 -169.167 91.5 -232.5s133.167 -95 216.5 -95c52 0 100.833 13 146.5 39s78.5 51.333 98.5 76l31 38l133 -133c-4 -5.33301 -9.33301 -12 -16 -20s-22.334 -23 -47.001 -45
s-50.334 -41.5 -77.001 -58.5s-60.834 -33.333 -102.501 -49s-84.167 -25.5 -127.5 -29.5l-50 -95c4 0 10.167 -0.333008 18.5 -1s22.5 -3.66699 42.5 -9s37.833 -12.833 53.5 -22.5s29.667 -25 42 -46s18.5 -45.833 18.5 -74.5c0 -48 -18.167 -87.333 -54.5 -118
s-86.5 -46 -150.5 -46c-36.667 0 -71.167 6.83301 -103.5 20.5s-55.833 27.167 -70.5 40.5l-21 21l51 82c40.667 -34 88.667 -51 144 -51c24.667 0 44.5 6 59.5 18s22.5 26.333 22.5 43s-7.5 31 -22.5 43s-34.833 18 -59.5 18c-9.33301 0 -19.166 -1.66699 -29.499 -5
s-18.5 -6.33301 -24.5 -9l-8 -6l-41 51l68 150c-122.667 19.333 -226 77.166 -310 173.499s-126 207.166 -126 332.499z" />
    <glyph glyph-name="egrave" unicode="&#xe8;" horiz-adv-x="1146" 
d="M1044 420l-768.004 0.000976562c10.667 -69.333 44.834 -129.333 102.501 -180s126.167 -76 205.5 -76c57.333 0 110.833 13 160.5 39s84.834 51.333 105.501 76l31 38l133 -133c-4 -5.33301 -10.167 -12.833 -18.5 -22.5s-26.166 -26 -53.499 -49
s-56.333 -43.333 -87 -61s-70.5 -34 -119.5 -49s-99.5 -22.5 -151.5 -22.5c-139.333 0 -259.5 51.167 -360.5 153.5s-151.5 225.166 -151.5 368.499c0 138 49.167 256.167 147.5 354.5s216.333 147.5 354 147.5s252.334 -45.833 344.001 -137.5s137.5 -206.5 137.5 -344.5z
M572.996 829.001c-74 0 -136.168 -21.833 -186.501 -65.5s-84.166 -100.167 -101.499 -169.5h569c-12 69.333 -43 125.833 -93 169.5s-112.667 65.5 -188 65.5zM531.995 1434l154 -287h-154l-215 287h215z" />
    <glyph glyph-name="eacute" unicode="&#xe9;" horiz-adv-x="1146" 
d="M1044 420l-768.004 0.000976562c10.667 -69.333 44.834 -129.333 102.501 -180s126.167 -76 205.5 -76c57.333 0 110.833 13 160.5 39s84.834 51.333 105.501 76l31 38l133 -133c-4 -5.33301 -10.167 -12.833 -18.5 -22.5s-26.166 -26 -53.499 -49
s-56.333 -43.333 -87 -61s-70.5 -34 -119.5 -49s-99.5 -22.5 -151.5 -22.5c-139.333 0 -259.5 51.167 -360.5 153.5s-151.5 225.166 -151.5 368.499c0 138 49.167 256.167 147.5 354.5s216.333 147.5 354 147.5s252.334 -45.833 344.001 -137.5s137.5 -206.5 137.5 -344.5z
M572.996 829.001c-74 0 -136.168 -21.833 -186.501 -65.5s-84.166 -100.167 -101.499 -169.5h569c-12 69.333 -43 125.833 -93 169.5s-112.667 65.5 -188 65.5zM511.995 1147l154 287h215l-215 -287h-154z" />
    <glyph glyph-name="ecircumflex" unicode="&#xea;" horiz-adv-x="1146" 
d="M1044 420l-768.004 0.000976562c10.667 -69.333 44.834 -129.333 102.501 -180s126.167 -76 205.5 -76c57.333 0 110.833 13 160.5 39s84.834 51.333 105.501 76l31 38l133 -133c-4 -5.33301 -10.167 -12.833 -18.5 -22.5s-26.166 -26 -53.499 -49
s-56.333 -43.333 -87 -61s-70.5 -34 -119.5 -49s-99.5 -22.5 -151.5 -22.5c-139.333 0 -259.5 51.167 -360.5 153.5s-151.5 225.166 -151.5 368.499c0 138 49.167 256.167 147.5 354.5s216.333 147.5 354 147.5s252.334 -45.833 344.001 -137.5s137.5 -206.5 137.5 -344.5z
M572.996 829.001c-74 0 -136.168 -21.833 -186.501 -65.5s-84.166 -100.167 -101.499 -169.5h569c-12 69.333 -43 125.833 -93 169.5s-112.667 65.5 -188 65.5zM685.995 1434l225 -287h-184l-143 184l-144 -184h-184l225 287h205z" />
    <glyph glyph-name="edieresis" unicode="&#xeb;" horiz-adv-x="1146" 
d="M1044 420l-768.004 0.000976562c10.667 -69.333 44.834 -129.333 102.501 -180s126.167 -76 205.5 -76c57.333 0 110.833 13 160.5 39s84.834 51.333 105.501 76l31 38l133 -133c-4 -5.33301 -10.167 -12.833 -18.5 -22.5s-26.166 -26 -53.499 -49
s-56.333 -43.333 -87 -61s-70.5 -34 -119.5 -49s-99.5 -22.5 -151.5 -22.5c-139.333 0 -259.5 51.167 -360.5 153.5s-151.5 225.166 -151.5 368.499c0 138 49.167 256.167 147.5 354.5s216.333 147.5 354 147.5s252.334 -45.833 344.001 -137.5s137.5 -206.5 137.5 -344.5z
M572.996 829.001c-74 0 -136.168 -21.833 -186.501 -65.5s-84.166 -100.167 -101.499 -169.5h569c-12 69.333 -43 125.833 -93 169.5s-112.667 65.5 -188 65.5zM491.995 1270c0 -35.333 -11.667 -64.666 -35 -87.999s-52.833 -35 -88.5 -35s-65 11.667 -88 35
s-34.5 52.666 -34.5 87.999s11.5 64.666 34.5 87.999s52.333 35 88 35s65.167 -11.667 88.5 -35s35 -52.666 35 -87.999zM921.995 1270c0 -35.333 -11.667 -64.666 -35 -87.999s-52.833 -35 -88.5 -35s-65 11.667 -88 35s-34.5 52.666 -34.5 87.999s11.5 64.666 34.5 87.999
s52.333 35 88 35s65.167 -11.667 88.5 -35s35 -52.666 35 -87.999z" />
    <glyph glyph-name="igrave" unicode="&#xec;" horiz-adv-x="491" 
d="M338 983v-983h-205v983h205zM164 1434l153 -287h-153l-215 287h215z" />
    <glyph glyph-name="iacute" unicode="&#xed;" horiz-adv-x="491" 
d="M338 983v-983h-205v983h205zM154 1147l153 287h215l-215 -287h-153z" />
    <glyph glyph-name="icircumflex" unicode="&#xee;" horiz-adv-x="491" 
d="M338 983v-983h-205v983h205zM338 1434l225 -287h-184l-143 184l-144 -184h-184l225 287h205z" />
    <glyph glyph-name="idieresis" unicode="&#xef;" horiz-adv-x="491" 
d="M338 983v-983h-205v983h205zM143 1270c0 -35.333 -11.5 -64.666 -34.5 -87.999s-52.333 -35 -88 -35s-65 11.667 -88 35s-34.5 52.666 -34.5 87.999s11.5 64.666 34.5 87.999s52.333 35 88 35s65 -11.667 88 -35s34.5 -52.666 34.5 -87.999zM573 1270
c0 -35.333 -11.5 -64.666 -34.5 -87.999s-52.333 -35 -88 -35s-65 11.667 -88 35s-34.5 52.666 -34.5 87.999s11.5 64.666 34.5 87.999s52.333 35 88 35s65 -11.667 88 -35s34.5 -52.666 34.5 -87.999z" />
    <glyph glyph-name="eth" unicode="&#xf0;" horiz-adv-x="1208" 
d="M870 829c-24.667 76.667 -59.1699 147.499 -103.503 212.499s-82.833 111.167 -115.5 138.5l-47 39l-246 -175l-102 144l184 123c-68 40.667 -146.333 71.334 -235 92.001l51 164c60 -15.333 118.333 -34.833 175 -58.5s98 -43.834 124 -60.501l39 -25l246 174l102 -143
l-194 -133c9.33301 -6.66699 21.166 -16.167 35.499 -28.5s40.333 -41.333 78 -87s70.834 -95.5 99.501 -149.5s54.834 -125.333 78.501 -214s35.5 -181.667 35.5 -279c0 -180 -47.333 -322.167 -142 -426.5s-218 -156.5 -370 -156.5c-132.667 0 -247.667 48.333 -345 145
s-146 212 -146 346c0 132.667 47.333 247.834 142 345.501s204.334 146.5 329.001 146.5c60 0 117.333 -11 172 -33s94.334 -44 119.001 -66zM849.997 470.999c0 86 -28.333 158.667 -85 218s-124 89 -202 89s-145.333 -29.667 -202 -89s-85 -132 -85 -218
s28.333 -158.667 85 -218s124 -89 202 -89s145.333 29.667 202 89s85 132 85 218z" />
    <glyph glyph-name="ntilde" unicode="&#xf1;" 
d="M338 983l-0.00195312 -102.001l13 13c6 6 18.667 15.833 38 29.5s39.833 26 61.5 37s49.334 21 83.001 30s67.5 13.5 101.5 13.5c118.667 0 214.834 -39 288.501 -117s110.5 -182.667 110.5 -314v-573h-205v573c0 70.667 -22.5 129.334 -67.5 176.001
s-100.833 70 -167.5 70c-78 0 -140.167 -25.167 -186.5 -75.5s-69.5 -120.833 -69.5 -211.5v-532h-205v983h205zM736.998 1147c-40.667 0 -77.3311 10.167 -109.998 30.5s-62.334 40.833 -89.001 61.5s-52.334 31 -77.001 31c-54.667 0 -82 -41 -82 -123h-133
c0 177.333 71.667 266 215 266c40.667 0 77.5 -10.167 110.5 -30.5s62.667 -40.833 89 -61.5s51.833 -31 76.5 -31c54.667 0 82 41 82 123h133c0 -177.333 -71.667 -266 -215 -266z" />
    <glyph glyph-name="ograve" unicode="&#xf2;" 
d="M891 491.5c0 91.667 -30.333 169.167 -91 232.5s-132.667 95 -216 95s-155.5 -31.667 -216.5 -95s-91.5 -140.833 -91.5 -232.5s30.5 -169.167 91.5 -232.5s133.167 -95 216.5 -95s155.333 31.667 216 95s91 140.833 91 232.5zM72 491.5
c0 137.667 50.833 257.5 152.5 359.5s221.5 153 359.5 153s257.833 -51 359.5 -153s152.5 -221.833 152.5 -359.5s-50.833 -257.334 -152.5 -359.001s-221.5 -152.5 -359.5 -152.5s-257.833 50.833 -359.5 152.5s-152.5 221.334 -152.5 359.001zM512 1434l154 -287h-154
l-215 287h215z" />
    <glyph glyph-name="oacute" unicode="&#xf3;" 
d="M891 491.5c0 91.667 -30.333 169.167 -91 232.5s-132.667 95 -216 95s-155.5 -31.667 -216.5 -95s-91.5 -140.833 -91.5 -232.5s30.5 -169.167 91.5 -232.5s133.167 -95 216.5 -95s155.333 31.667 216 95s91 140.833 91 232.5zM72 491.5
c0 137.667 50.833 257.5 152.5 359.5s221.5 153 359.5 153s257.833 -51 359.5 -153s152.5 -221.833 152.5 -359.5s-50.833 -257.334 -152.5 -359.001s-221.5 -152.5 -359.5 -152.5s-257.833 50.833 -359.5 152.5s-152.5 221.334 -152.5 359.001zM512 1147l154 287h215
l-215 -287h-154z" />
    <glyph glyph-name="ocircumflex" unicode="&#xf4;" 
d="M891 491.5c0 91.667 -30.333 169.167 -91 232.5s-132.667 95 -216 95s-155.5 -31.667 -216.5 -95s-91.5 -140.833 -91.5 -232.5s30.5 -169.167 91.5 -232.5s133.167 -95 216.5 -95s155.333 31.667 216 95s91 140.833 91 232.5zM72 491.5
c0 137.667 50.833 257.5 152.5 359.5s221.5 153 359.5 153s257.833 -51 359.5 -153s152.5 -221.833 152.5 -359.5s-50.833 -257.334 -152.5 -359.001s-221.5 -152.5 -359.5 -152.5s-257.833 50.833 -359.5 152.5s-152.5 221.334 -152.5 359.001zM686 1434l225 -287h-184
l-143 184l-144 -184h-184l225 287h205z" />
    <glyph glyph-name="otilde" unicode="&#xf5;" 
d="M891 491.5c0 91.667 -30.333 169.167 -91 232.5s-132.667 95 -216 95s-155.5 -31.667 -216.5 -95s-91.5 -140.833 -91.5 -232.5s30.5 -169.167 91.5 -232.5s133.167 -95 216.5 -95s155.333 31.667 216 95s91 140.833 91 232.5zM72 491.5
c0 137.667 50.833 257.5 152.5 359.5s221.5 153 359.5 153s257.833 -51 359.5 -153s152.5 -221.833 152.5 -359.5s-50.833 -257.334 -152.5 -359.001s-221.5 -152.5 -359.5 -152.5s-257.833 50.833 -359.5 152.5s-152.5 221.334 -152.5 359.001zM727 1147
c-40.667 0 -77.5029 10.167 -110.503 30.5s-62.833 40.833 -89.5 61.5s-52 31 -76 31c-54.667 0 -82 -41 -82 -123h-133c0 177.333 71.667 266 215 266c40.667 0 77.334 -10.167 110.001 -30.5s62.334 -40.833 89.001 -61.5s52.334 -31 77.001 -31c54.667 0 82 41 82 123
h133c0 -177.333 -71.667 -266 -215 -266z" />
    <glyph glyph-name="odieresis" unicode="&#xf6;" 
d="M891 491.5c0 91.667 -30.333 169.167 -91 232.5s-132.667 95 -216 95s-155.5 -31.667 -216.5 -95s-91.5 -140.833 -91.5 -232.5s30.5 -169.167 91.5 -232.5s133.167 -95 216.5 -95s155.333 31.667 216 95s91 140.833 91 232.5zM72 491.5
c0 137.667 50.833 257.5 152.5 359.5s221.5 153 359.5 153s257.833 -51 359.5 -153s152.5 -221.833 152.5 -359.5s-50.833 -257.334 -152.5 -359.001s-221.5 -152.5 -359.5 -152.5s-257.833 50.833 -359.5 152.5s-152.5 221.334 -152.5 359.001zM492 1270
c0 -35.333 -11.667 -64.666 -35 -87.999s-52.833 -35 -88.5 -35s-65 11.667 -88 35s-34.5 52.666 -34.5 87.999s11.5 64.666 34.5 87.999s52.333 35 88 35s65.167 -11.667 88.5 -35s35 -52.666 35 -87.999zM922 1270c0 -35.333 -11.667 -64.666 -35 -87.999
s-52.833 -35 -88.5 -35s-65 11.667 -88 35s-34.5 52.666 -34.5 87.999s11.5 64.666 34.5 87.999s52.333 35 88 35s65.167 -11.667 88.5 -35s35 -52.666 35 -87.999z" />
    <glyph glyph-name="divide" unicode="&#xf7;" horiz-adv-x="1064" 
d="M666 246c0 -35.333 -13.333 -66.333 -40 -93s-57.834 -40 -93.501 -40s-66.834 13.333 -93.501 40s-40 57.667 -40 93s13.333 66.333 40 93s57.834 40 93.501 40s66.834 -13.333 93.501 -40s40 -57.667 40 -93zM983 696v-184h-901v184h901zM666 962.5
c0 -35.667 -13.333 -66.834 -40 -93.501s-57.834 -40 -93.501 -40s-66.834 13.333 -93.501 40s-40 57.834 -40 93.501s13.333 66.834 40 93.501s57.834 40 93.501 40s66.834 -13.333 93.501 -40s40 -57.834 40 -93.501z" />
    <glyph glyph-name="oslash" unicode="&#xf8;" horiz-adv-x="1208" 
d="M82 492c0 138 50.832 257.833 152.499 359.5s221.5 152.5 359.5 152.5c102.667 0 199 -31 289 -93l131 133l123 -122l-129 -134c65.333 -90 98 -188.667 98 -296c0 -138 -50.833 -257.833 -152.5 -359.5s-221.5 -152.5 -359.5 -152.5
c-105.333 0 -201.666 30.667 -288.999 92l-131 -133l-123 122l129 132c-65.333 91.333 -98 191 -98 299zM286.999 492c0 -56 11.667 -107.334 35 -154.001l426 436c-48 30 -99.333 45 -154 45c-83.333 0 -155.333 -31.667 -216 -95s-91 -140.666 -91 -231.999z
M900.999 491.999c0 52 -12.333 102.333 -37 151l-426 -434c49.333 -30 101.333 -45 156 -45c83.333 0 155.333 31.833 216 95.5s91 141.167 91 232.5z" />
    <glyph glyph-name="ugrave" unicode="&#xf9;" horiz-adv-x="1198" 
d="M829 0l0.000976562 102.001l-13 -13c-6 -6 -18.5 -15.833 -37.5 -29.5s-39.5 -26 -61.5 -37s-49.667 -20.833 -83 -29.5s-67.333 -13 -102 -13c-118.667 0 -214.834 38.833 -288.501 116.5s-110.5 182.167 -110.5 313.5v573h205v-573
c0 -70.667 22.5 -129.334 67.5 -176.001s100.833 -70 167.5 -70c78 0 140.167 25.167 186.5 75.5s69.5 120.833 69.5 211.5v532h205v-983h-205zM502.001 1434l153 -287h-153l-215 287h215z" />
    <glyph glyph-name="uacute" unicode="&#xfa;" horiz-adv-x="1198" 
d="M829 0l0.000976562 102.001l-13 -13c-6 -6 -18.5 -15.833 -37.5 -29.5s-39.5 -26 -61.5 -37s-49.667 -20.833 -83 -29.5s-67.333 -13 -102 -13c-118.667 0 -214.834 38.833 -288.501 116.5s-110.5 182.167 -110.5 313.5v573h205v-573
c0 -70.667 22.5 -129.334 67.5 -176.001s100.833 -70 167.5 -70c78 0 140.167 25.167 186.5 75.5s69.5 120.833 69.5 211.5v532h205v-983h-205zM492.001 1147l153 287h215l-215 -287h-153z" />
    <glyph glyph-name="ucircumflex" unicode="&#xfb;" horiz-adv-x="1198" 
d="M829 0l0.000976562 102.001l-13 -13c-6 -6 -18.5 -15.833 -37.5 -29.5s-39.5 -26 -61.5 -37s-49.667 -20.833 -83 -29.5s-67.333 -13 -102 -13c-118.667 0 -214.834 38.833 -288.501 116.5s-110.5 182.167 -110.5 313.5v573h205v-573
c0 -70.667 22.5 -129.334 67.5 -176.001s100.833 -70 167.5 -70c78 0 140.167 25.167 186.5 75.5s69.5 120.833 69.5 211.5v532h205v-983h-205zM686.001 1434l225 -287h-184l-143 184l-144 -184h-184l225 287h205z" />
    <glyph glyph-name="udieresis" unicode="&#xfc;" horiz-adv-x="1198" 
d="M829 0l0.000976562 102.001l-13 -13c-6 -6 -18.5 -15.833 -37.5 -29.5s-39.5 -26 -61.5 -37s-49.667 -20.833 -83 -29.5s-67.333 -13 -102 -13c-118.667 0 -214.834 38.833 -288.501 116.5s-110.5 182.167 -110.5 313.5v573h205v-573
c0 -70.667 22.5 -129.334 67.5 -176.001s100.833 -70 167.5 -70c78 0 140.167 25.167 186.5 75.5s69.5 120.833 69.5 211.5v532h205v-983h-205zM492.001 1270c0 -35.333 -11.667 -64.666 -35 -87.999s-52.833 -35 -88.5 -35s-65 11.667 -88 35s-34.5 52.666 -34.5 87.999
s11.5 64.666 34.5 87.999s52.333 35 88 35s65.167 -11.667 88.5 -35s35 -52.666 35 -87.999zM922.001 1270c0 -35.333 -11.667 -64.666 -35 -87.999s-52.833 -35 -88.5 -35s-65 11.667 -88 35s-34.5 52.666 -34.5 87.999s11.5 64.666 34.5 87.999s52.333 35 88 35
s65.167 -11.667 88.5 -35s35 -52.666 35 -87.999z" />
    <glyph glyph-name="yacute" unicode="&#xfd;" horiz-adv-x="1044" 
d="M369 -102l41.002 102l-400 983h215l287 -717l287 717h215l-441 -1085c-50.667 -121.333 -100.834 -206.333 -150.501 -255s-111.834 -73 -186.501 -73c-27.333 0 -53 1.66699 -77 5s-41.667 7 -53 11l-14 4v185c34 -13.333 68.333 -20.333 103 -21
c78 0.666992 136 48.667 174 144zM451.002 1147l153 287h215l-215 -287h-153z" />
    <glyph glyph-name="thorn" unicode="&#xfe;" horiz-adv-x="1249" 
d="M676 -20c-36.667 0 -72.4971 4.33398 -107.497 13.001s-64.833 19.5 -89.5 32.5s-46.5 26.333 -65.5 40s-32.5 24.5 -40.5 32.5l-15 15v-543h-204v1864h204v-564c9.33301 9.33301 22.666 21.666 39.999 36.999s53.666 35.333 108.999 60s111.666 37 168.999 37
c130 0 242.667 -49.833 338 -149.5s143 -220.5 143 -362.5s-47.667 -262.833 -143 -362.5s-208 -149.5 -338 -149.5zM655.503 819.001c-77.667 0 -146.667 -32 -207 -96s-90.5 -141.167 -90.5 -231.5s30.167 -167.5 90.5 -231.5s129.333 -96 207 -96s146.5 32 206.5 96
s90 141.167 90 231.5s-30 167.5 -90 231.5s-128.833 96 -206.5 96z" />
    <glyph glyph-name="ydieresis" unicode="&#xff;" horiz-adv-x="1044" 
d="M369 -102l41.002 102l-400 983h215l287 -717l287 717h215l-441 -1085c-50.667 -121.333 -100.834 -206.333 -150.501 -255s-111.834 -73 -186.501 -73c-27.333 0 -53 1.66699 -77 5s-41.667 7 -53 11l-14 4v185c34 -13.333 68.333 -20.333 103 -21
c78 0.666992 136 48.667 174 144zM420.002 1270c0 -35.333 -11.667 -64.666 -35 -87.999s-52.666 -35 -87.999 -35s-64.666 11.667 -87.999 35s-35 52.666 -35 87.999s11.667 64.666 35 87.999s52.666 35 87.999 35s64.666 -11.667 87.999 -35s35 -52.666 35 -87.999z
M850.002 1270c0 -35.333 -11.667 -64.666 -35 -87.999s-52.666 -35 -87.999 -35s-64.666 11.667 -87.999 35s-35 52.666 -35 87.999s11.667 64.666 35 87.999s52.666 35 87.999 35s64.666 -11.667 87.999 -35s35 -52.666 35 -87.999z" />
    <glyph glyph-name="Amacron" unicode="&#x100;" horiz-adv-x="1495" 
d="M41 0l594 1434h225l594 -1434h-235l-154 379h-635l-154 -379h-235zM748 1178l-236 -594h471zM1065 1843v-143h-635v143h635z" />
    <glyph glyph-name="amacron" unicode="&#x101;" horiz-adv-x="1075" 
d="M922 0l-204.999 -0.000976562v102c-2.66699 -2.66699 -7.16699 -7 -13.5 -13s-19 -15.833 -38 -29.5s-39.5 -26 -61.5 -37s-49.667 -20.833 -83 -29.5s-67 -13 -101 -13c-100 0 -183 29 -249 87s-99 124.333 -99 199c0 80.667 25.5 148.334 76.5 203.001
s120.833 89.334 209.5 104.001l359 62c0 52 -19.167 95.667 -57.5 131s-87.5 53 -147.5 53c-52 0 -99.167 -10.833 -141.5 -32.5s-71.5 -43.5 -87.5 -65.5l-27 -35l-133 133c4 5.33301 9.5 12.166 16.5 20.499s22.667 23 47 44s50.166 39.833 77.499 56.5
s63.5 31.5 108.5 44.5s91.5 19.5 139.5 19.5c120 0 218.333 -35.5 295 -106.5s115 -158.5 115 -262.5v-635zM451.001 163.999c83.333 0 148.501 24.833 195.501 74.5s70.5 120.5 70.5 212.5v20l-318 -51c-36.667 -6.66699 -66.334 -21.667 -89.001 -45
s-34 -52.666 -34 -87.999c0 -32.667 15.833 -61.334 47.5 -86.001s74.167 -37 127.5 -37zM870.002 1393v-144h-634v144h634z" />
    <glyph glyph-name="Abreve" unicode="&#x102;" horiz-adv-x="1495" 
d="M41 0l594 1434h225l594 -1434h-235l-154 379h-635l-154 -379h-235zM748 1178l-236 -594h471zM747.5 1761c41 0 75.167 13.6689 102.5 41.002s41 61.666 41 102.999h153c0 -82 -27.833 -150.333 -83.5 -205s-126.667 -82 -213 -82s-157.333 27.333 -213 82
s-83.5 123 -83.5 205h153c0 -40.667 13.667 -74.834 41 -102.501s61.5 -41.5 102.5 -41.5z" />
    <glyph glyph-name="abreve" unicode="&#x103;" horiz-adv-x="1075" 
d="M922 0l-204.999 -0.000976562v102c-2.66699 -2.66699 -7.16699 -7 -13.5 -13s-19 -15.833 -38 -29.5s-39.5 -26 -61.5 -37s-49.667 -20.833 -83 -29.5s-67 -13 -101 -13c-100 0 -183 29 -249 87s-99 124.333 -99 199c0 80.667 25.5 148.334 76.5 203.001
s120.833 89.334 209.5 104.001l359 62c0 52 -19.167 95.667 -57.5 131s-87.5 53 -147.5 53c-52 0 -99.167 -10.833 -141.5 -32.5s-71.5 -43.5 -87.5 -65.5l-27 -35l-133 133c4 5.33301 9.5 12.166 16.5 20.499s22.667 23 47 44s50.166 39.833 77.499 56.5
s63.5 31.5 108.5 44.5s91.5 19.5 139.5 19.5c120 0 218.333 -35.5 295 -106.5s115 -158.5 115 -262.5v-635zM451.001 163.999c83.333 0 148.501 24.833 195.501 74.5s70.5 120.5 70.5 212.5v20l-318 -51c-36.667 -6.66699 -66.334 -21.667 -89.001 -45
s-34 -52.666 -34 -87.999c0 -32.667 15.833 -61.334 47.5 -86.001s74.167 -37 127.5 -37zM542.502 1290c41 0 75.167 13.6689 102.5 41.002s41 61.666 41 102.999h154c0 -82 -28 -150.333 -84 -205s-127 -82 -213 -82s-157 27.333 -213 82s-84 123 -84 205h153
c0 -40.667 13.667 -74.834 41 -102.501s61.5 -41.5 102.5 -41.5z" />
    <glyph glyph-name="Aogonek" unicode="&#x104;" horiz-adv-x="1495" 
d="M1219 0l-154 379h-635l-154 -379h-235l594 1434h225l594 -1434h-102c-54.667 -68 -82 -133.667 -82 -197c0 -24.667 9.5 -45.834 28.5 -63.501s43.5 -26.5 73.5 -26.5c18 0 36.5 1.83301 55.5 5.5s33.167 7.5 42.5 11.5l15 4v-123c-48 -20.667 -99.333 -31 -154 -31
c-61.333 0 -110.833 18.167 -148.5 54.5s-56.5 83.166 -56.5 140.499c0 36.667 7.5 73.834 22.5 111.501s30.833 65.834 47.5 84.501zM748 1178l-236 -594h471z" />
    <glyph glyph-name="aogonek" unicode="&#x105;" horiz-adv-x="1075" 
d="M717 0l-0.000976562 101.999c-2.66699 -2.66699 -7.16699 -7 -13.5 -13s-19 -15.833 -38 -29.5s-39.5 -26 -61.5 -37s-49.667 -20.833 -83 -29.5s-67 -13 -101 -13c-100 0 -183 29 -249 87s-99 124.333 -99 199c0 80.667 25.5 148.334 76.5 203.001
s120.833 89.334 209.5 104.001l359 62c0 52 -19.167 95.667 -57.5 131s-87.5 53 -147.5 53c-52 0 -99.167 -10.833 -141.5 -32.5s-71.5 -43.5 -87.5 -65.5l-27 -35l-133 133c4 5.33301 9.5 12.166 16.5 20.499s22.667 23 47 44s50.166 39.833 77.499 56.5
s63.5 31.5 108.5 44.5s91.5 19.5 139.5 19.5c120 0 218.333 -35.5 295 -106.5s115 -158.5 115 -262.5v-635h-72c-54.667 -68 -82 -133.667 -82 -197c0 -24.667 9.5 -45.834 28.5 -63.501s43.5 -26.5 73.5 -26.5c18 0 36.5 1.83301 55.5 5.5s33.5 7.5 43.5 11.5l14 4v-123
c-48 -20.667 -99.333 -31 -154 -31c-61.333 0 -110.666 18.167 -147.999 54.5s-56 83.166 -56 140.499c0 36.667 7.83301 73.834 23.5 111.501s30.834 65.834 45.501 84.501zM450.999 163.999c83.333 0 148.501 24.833 195.501 74.5s70.5 120.5 70.5 212.5v20l-318 -51
c-36.667 -6.66699 -66.334 -21.667 -89.001 -45s-34 -52.666 -34 -87.999c0 -32.667 15.833 -61.334 47.5 -86.001s74.167 -37 127.5 -37z" />
    <glyph glyph-name="Cacute" unicode="&#x106;" horiz-adv-x="1556" 
d="M881 1454c72.667 0 142.326 -9.5 208.993 -28.5s121.834 -42.167 165.501 -69.5s81.834 -54.333 114.501 -81s56.667 -49.667 72 -69l22 -28l-143 -144c-4 5.33301 -9.83301 12.833 -17.5 22.5s-25.167 27.167 -52.5 52.5s-56.666 47.166 -87.999 65.499
s-72.166 35.333 -122.499 51s-103.5 23.5 -159.5 23.5c-148.667 0 -274.667 -51.5 -378 -154.5s-155 -228.833 -155 -377.5s51.5 -274.667 154.5 -378s229.167 -155 378.5 -155c56 0 109.5 7.83301 160.5 23.5s93.333 34.5 127 56.5s63.334 43.833 89.001 65.5
s44.834 40.167 57.501 55.5l16 25l144 -144c-5.33301 -8 -13.5 -18.5 -24.5 -31.5s-35.333 -35.833 -73 -68.5s-77.667 -61.667 -120 -87s-97.666 -48.166 -165.999 -68.499s-138.5 -30.5 -210.5 -30.5c-214.667 0 -394.667 71.333 -540 214s-218 317 -218 523
s72.667 380.333 218 523s325.333 214 540 214zM767.992 1618l154 287h215l-215 -287h-154z" />
    <glyph glyph-name="cacute" unicode="&#x107;" horiz-adv-x="1064" 
d="M72 491.5c0 137.667 50.835 257.497 152.502 359.497s221.5 153 359.5 153c76.667 0 148 -16.5 214 -49.5s113.333 -65.833 142 -98.5l43 -47l-133 -133c-6.66699 10.667 -16.834 23.834 -30.501 39.501s-43.334 36.834 -89.001 63.501s-94.5 40 -146.5 40
c-83.333 0 -155.5 -31.667 -216.5 -95s-91.5 -140.833 -91.5 -232.5s30.5 -169.167 91.5 -232.5s133.167 -95 216.5 -95c52 0 100.833 13 146.5 39s78.5 51.333 98.5 76l31 38l133 -133c-4 -5.33301 -10 -12.833 -18 -22.5s-25.333 -26 -52 -49s-54.667 -43.333 -84 -61
s-67.333 -34 -114 -49s-93.667 -22.5 -141 -22.5c-138 0 -257.833 50.833 -359.5 152.5s-152.5 221.334 -152.5 359.001zM492.002 1147l153 287h215l-215 -287h-153z" />
    <glyph glyph-name="Ccircumflex" unicode="&#x108;" horiz-adv-x="1556" 
d="M881 1454c72.667 0 142.326 -9.5 208.993 -28.5s121.834 -42.167 165.501 -69.5s81.834 -54.333 114.501 -81s56.667 -49.667 72 -69l22 -28l-143 -144c-4 5.33301 -9.83301 12.833 -17.5 22.5s-25.167 27.167 -52.5 52.5s-56.666 47.166 -87.999 65.499
s-72.166 35.333 -122.499 51s-103.5 23.5 -159.5 23.5c-148.667 0 -274.667 -51.5 -378 -154.5s-155 -228.833 -155 -377.5s51.5 -274.667 154.5 -378s229.167 -155 378.5 -155c56 0 109.5 7.83301 160.5 23.5s93.333 34.5 127 56.5s63.334 43.833 89.001 65.5
s44.834 40.167 57.501 55.5l16 25l144 -144c-5.33301 -8 -13.5 -18.5 -24.5 -31.5s-35.333 -35.833 -73 -68.5s-77.667 -61.667 -120 -87s-97.666 -48.166 -165.999 -68.499s-138.5 -30.5 -210.5 -30.5c-214.667 0 -394.667 71.333 -540 214s-218 317 -218 523
s72.667 380.333 218 523s325.333 214 540 214zM962.992 1905l225 -287h-184l-144 184l-143 -184h-185l226 287h205z" />
    <glyph glyph-name="ccircumflex" unicode="&#x109;" horiz-adv-x="1064" 
d="M72 491.5c0 137.667 50.835 257.497 152.502 359.497s221.5 153 359.5 153c76.667 0 148 -16.5 214 -49.5s113.333 -65.833 142 -98.5l43 -47l-133 -133c-6.66699 10.667 -16.834 23.834 -30.501 39.501s-43.334 36.834 -89.001 63.501s-94.5 40 -146.5 40
c-83.333 0 -155.5 -31.667 -216.5 -95s-91.5 -140.833 -91.5 -232.5s30.5 -169.167 91.5 -232.5s133.167 -95 216.5 -95c52 0 100.833 13 146.5 39s78.5 51.333 98.5 76l31 38l133 -133c-4 -5.33301 -10 -12.833 -18 -22.5s-25.333 -26 -52 -49s-54.667 -43.333 -84 -61
s-67.333 -34 -114 -49s-93.667 -22.5 -141 -22.5c-138 0 -257.833 50.833 -359.5 152.5s-152.5 221.334 -152.5 359.001zM666.002 1434l225 -287h-184l-144 184l-143 -184h-184l225 287h205z" />
    <glyph glyph-name="Ccaron" unicode="&#x10c;" horiz-adv-x="1556" 
d="M881 1454c72.667 0 142.326 -9.5 208.993 -28.5s121.834 -42.167 165.501 -69.5s81.834 -54.333 114.501 -81s56.667 -49.667 72 -69l22 -28l-143 -144c-4 5.33301 -9.83301 12.833 -17.5 22.5s-25.167 27.167 -52.5 52.5s-56.666 47.166 -87.999 65.499
s-72.166 35.333 -122.499 51s-103.5 23.5 -159.5 23.5c-148.667 0 -274.667 -51.5 -378 -154.5s-155 -228.833 -155 -377.5s51.5 -274.667 154.5 -378s229.167 -155 378.5 -155c56 0 109.5 7.83301 160.5 23.5s93.333 34.5 127 56.5s63.334 43.833 89.001 65.5
s44.834 40.167 57.501 55.5l16 25l144 -144c-5.33301 -8 -13.5 -18.5 -24.5 -31.5s-35.333 -35.833 -73 -68.5s-77.667 -61.667 -120 -87s-97.666 -48.166 -165.999 -68.499s-138.5 -30.5 -210.5 -30.5c-214.667 0 -394.667 71.333 -540 214s-218 317 -218 523
s72.667 380.333 218 523s325.333 214 540 214zM1187.99 1905l-225 -287h-205l-226 287h185l143 -185l144 185h184z" />
    <glyph glyph-name="ccaron" unicode="&#x10d;" horiz-adv-x="1064" 
d="M72 491.5c0 137.667 50.835 257.497 152.502 359.497s221.5 153 359.5 153c76.667 0 148 -16.5 214 -49.5s113.333 -65.833 142 -98.5l43 -47l-133 -133c-6.66699 10.667 -16.834 23.834 -30.501 39.501s-43.334 36.834 -89.001 63.501s-94.5 40 -146.5 40
c-83.333 0 -155.5 -31.667 -216.5 -95s-91.5 -140.833 -91.5 -232.5s30.5 -169.167 91.5 -232.5s133.167 -95 216.5 -95c52 0 100.833 13 146.5 39s78.5 51.333 98.5 76l31 38l133 -133c-4 -5.33301 -10 -12.833 -18 -22.5s-25.333 -26 -52 -49s-54.667 -43.333 -84 -61
s-67.333 -34 -114 -49s-93.667 -22.5 -141 -22.5c-138 0 -257.833 50.833 -359.5 152.5s-152.5 221.334 -152.5 359.001zM891.002 1434l-225 -287h-205l-225 287h184l143 -185l144 185h184z" />
    <glyph glyph-name="Dcaron" unicode="&#x10e;" horiz-adv-x="1556" 
d="M205 1434l502 -0.00195312c199.333 0 370.333 -70.667 513 -212s214 -309.666 214 -504.999s-71.333 -363.666 -214 -504.999s-313.667 -212 -513 -212h-502v1434zM707 1229h-277v-1024h277c139.333 0 257.666 49.5 354.999 148.5s146 220.167 146 363.5
s-48.667 264.5 -146 363.5s-215.666 148.5 -354.999 148.5zM1106 1905l-225 -287h-205l-225 287h184l143 -185l144 185h184z" />
    <glyph glyph-name="dcaron" unicode="&#x10f;" horiz-adv-x="1361" 
d="M553 1004c36.667 0 72.5 -4.50195 107.5 -13.502s64.667 -20 89 -33s46.166 -26.333 65.499 -40s33 -24.5 41 -32.5l14 -15v564h205v-1434h-205v113c-9.33301 -9.33301 -22.5 -21.666 -39.5 -36.999s-53.167 -35.166 -108.5 -59.499s-111.666 -36.5 -168.999 -36.5
c-130 0 -242.667 49.833 -338 149.5s-143 220.5 -143 362.5s47.667 262.833 143 362.5s208 149.5 338 149.5zM573.5 163.998c77.667 0 146.5 32 206.5 96s90 141.167 90 231.5s-30 167.5 -90 231.5s-128.833 96 -206.5 96s-146.667 -32 -207 -96
s-90.5 -141.167 -90.5 -231.5s30.167 -167.5 90.5 -231.5s129.333 -96 207 -96zM1178 1147l92 287h184l-133 -287h-143z" />
    <glyph glyph-name="Dcroat" unicode="&#x110;" horiz-adv-x="1607" 
d="M61 614v204.998h195v615h502c199.333 0 370.333 -70.667 513 -212s214 -309.666 214 -504.999s-71.333 -363.666 -214 -504.999s-313.667 -212 -513 -212h-502v614h-195zM758 1229h-277v-410h318v-205h-318v-409h277c139.333 0 257.833 49.5 355.5 148.5
s146.5 220.167 146.5 363.5s-48.833 264.5 -146.5 363.5s-216.167 148.5 -355.5 148.5z" />
    <glyph glyph-name="dcroat" unicode="&#x111;" horiz-adv-x="1228" 
d="M604 1085v184.997h246v164h205v-164h164v-185h-164v-1085h-205v113c-8 -9.33301 -20.333 -21.666 -37 -36.999s-51.5 -35.166 -104.5 -59.499s-108.167 -36.5 -165.5 -36.5c-130 0 -241 47.667 -333 143s-138 211.333 -138 348s46 252.834 138 348.501
s203 143.5 333 143.5c57.333 0 111.5 -11 162.5 -33s87.5 -44 109.5 -66l35 -35v256h-246zM563 163.997c78 0 145.333 29.667 202 89s85 132 85 218s-28.333 158.667 -85 218s-124 89 -202 89s-145.333 -29.667 -202 -89s-85 -132 -85 -218s28.333 -158.667 85 -218
s124 -89 202 -89z" />
    <glyph glyph-name="Emacron" unicode="&#x112;" horiz-adv-x="1341" 
d="M430 205h809v-205h-1034v1434h1014v-205h-789v-379h625v-205h-625v-440zM1044 1843v-143h-634v143h634z" />
    <glyph glyph-name="emacron" unicode="&#x113;" horiz-adv-x="1146" 
d="M1044 420l-768.004 0.000976562c10.667 -69.333 44.834 -129.333 102.501 -180s126.167 -76 205.5 -76c57.333 0 110.833 13 160.5 39s84.834 51.333 105.501 76l31 38l133 -133c-4 -5.33301 -10.167 -12.833 -18.5 -22.5s-26.166 -26 -53.499 -49
s-56.333 -43.333 -87 -61s-70.5 -34 -119.5 -49s-99.5 -22.5 -151.5 -22.5c-139.333 0 -259.5 51.167 -360.5 153.5s-151.5 225.166 -151.5 368.499c0 138 49.167 256.167 147.5 354.5s216.333 147.5 354 147.5s252.334 -45.833 344.001 -137.5s137.5 -206.5 137.5 -344.5z
M572.996 829.001c-74 0 -136.168 -21.833 -186.501 -65.5s-84.166 -100.167 -101.499 -169.5h569c-12 69.333 -43 125.833 -93 169.5s-112.667 65.5 -188 65.5zM900.995 1372v-143h-635v143h635z" />
    <glyph glyph-name="Edotaccent" unicode="&#x116;" horiz-adv-x="1341" 
d="M430 205h809v-205h-1034v1434h1014v-205h-789v-379h625v-205h-625v-440zM860 1761.5c0 -35.667 -11.5 -65.167 -34.5 -88.5s-52.333 -35 -88 -35s-65.167 11.667 -88.5 35s-35 52.833 -35 88.5s11.667 65 35 88s52.833 34.5 88.5 34.5s65 -11.5 88 -34.5
s34.5 -52.333 34.5 -88z" />
    <glyph glyph-name="edotaccent" unicode="&#x117;" horiz-adv-x="1146" 
d="M1044 420l-768.004 0.000976562c10.667 -69.333 44.834 -129.333 102.501 -180s126.167 -76 205.5 -76c57.333 0 110.833 13 160.5 39s84.834 51.333 105.501 76l31 38l133 -133c-4 -5.33301 -10.167 -12.833 -18.5 -22.5s-26.166 -26 -53.499 -49
s-56.333 -43.333 -87 -61s-70.5 -34 -119.5 -49s-99.5 -22.5 -151.5 -22.5c-139.333 0 -259.5 51.167 -360.5 153.5s-151.5 225.166 -151.5 368.499c0 138 49.167 256.167 147.5 354.5s216.333 147.5 354 147.5s252.334 -45.833 344.001 -137.5s137.5 -206.5 137.5 -344.5z
M572.996 829.001c-74 0 -136.168 -21.833 -186.501 -65.5s-84.166 -100.167 -101.499 -169.5h569c-12 69.333 -43 125.833 -93 169.5s-112.667 65.5 -188 65.5zM706.995 1290c0 -35.333 -11.667 -64.666 -35 -87.999s-52.833 -35 -88.5 -35s-65 11.667 -88 35
s-34.5 52.666 -34.5 87.999s11.5 64.666 34.5 87.999s52.333 35 88 35s65.167 -11.667 88.5 -35s35 -52.666 35 -87.999z" />
    <glyph glyph-name="Eogonek" unicode="&#x118;" horiz-adv-x="1341" 
d="M1106 0h-901.001v1434h1014v-205h-789v-379h625v-205h-625v-440h809v-205c-54.667 -68 -82 -133.667 -82 -197c0 -24.667 9.5 -45.834 28.5 -63.501s43.833 -26.5 74.5 -26.5c18 0 36.333 1.83301 55 5.5s33 7.5 43 11.5l14 4v-123c-48 -20.667 -99 -31 -153 -31
c-61.333 0 -110.833 18.167 -148.5 54.5s-56.5 83.166 -56.5 140.499c0 36.667 7.83301 73.834 23.5 111.501s30.834 65.834 45.501 84.501z" />
    <glyph glyph-name="eogonek" unicode="&#x119;" horiz-adv-x="1146" 
d="M1044 420l-768.004 0.00292969c10.667 -69.333 44.834 -129.333 102.501 -180s126.167 -76 205.5 -76c57.333 0 110.833 13 160.5 39s84.834 51.333 105.501 76l31 38l133 -133c-4 -4 -9.5 -10 -16.5 -18s-22.5 -22.667 -46.5 -44s-49.167 -40.5 -75.5 -57.5
s-60.666 -33.667 -102.999 -50s-86.166 -26.5 -131.499 -30.5c-45.333 -65.333 -68 -125.666 -68 -180.999c0 -24.667 9.66699 -45.834 29 -63.501s44 -26.5 74 -26.5c18 0 36.5 1.83301 55.5 5.5s33.167 7.5 42.5 11.5l14 4v-123c-48 -20.667 -99 -31 -153 -31
c-61.333 0 -110.833 18.167 -148.5 54.5s-56.5 83.166 -56.5 140.499c0 69.333 26.667 139.666 80 210.999c-122.667 19.333 -226.334 77.666 -311.001 174.999s-127 211 -127 341c0 138 49.167 256.167 147.5 354.5s216.333 147.5 354 147.5
s252.334 -45.833 344.001 -137.5s137.5 -206.5 137.5 -344.5zM572.996 829.003c-74 0 -136.168 -21.833 -186.501 -65.5s-84.166 -100.167 -101.499 -169.5h569c-12 69.333 -43 125.833 -93 169.5s-112.667 65.5 -188 65.5z" />
    <glyph glyph-name="Ecaron" unicode="&#x11a;" horiz-adv-x="1341" 
d="M430 205h809v-205h-1034v1434h1014v-205h-789v-379h625v-205h-625v-440zM1065 1905l-225 -287h-205l-225 287h184l143 -185l144 185h184z" />
    <glyph glyph-name="ecaron" unicode="&#x11b;" horiz-adv-x="1146" 
d="M1044 420l-768.004 0.000976562c10.667 -69.333 44.834 -129.333 102.501 -180s126.167 -76 205.5 -76c57.333 0 110.833 13 160.5 39s84.834 51.333 105.501 76l31 38l133 -133c-4 -5.33301 -10.167 -12.833 -18.5 -22.5s-26.166 -26 -53.499 -49
s-56.333 -43.333 -87 -61s-70.5 -34 -119.5 -49s-99.5 -22.5 -151.5 -22.5c-139.333 0 -259.5 51.167 -360.5 153.5s-151.5 225.166 -151.5 368.499c0 138 49.167 256.167 147.5 354.5s216.333 147.5 354 147.5s252.334 -45.833 344.001 -137.5s137.5 -206.5 137.5 -344.5z
M572.996 829.001c-74 0 -136.168 -21.833 -186.501 -65.5s-84.166 -100.167 -101.499 -169.5h569c-12 69.333 -43 125.833 -93 169.5s-112.667 65.5 -188 65.5zM910.995 1434l-225 -287h-205l-225 287h184l144 -185l143 185h184z" />
    <glyph glyph-name="Gbreve" unicode="&#x11e;" horiz-adv-x="1658" 
d="M993 758l501.994 0.00292969v-512c-5.33301 -6.66699 -13.5 -16.167 -24.5 -28.5s-35.667 -34 -74 -65s-79.333 -58 -123 -81s-101 -44 -172 -63s-144.5 -28.5 -220.5 -28.5c-214.667 0 -394.667 71.333 -540 214s-218 317 -218 523s72.667 380.333 218 523
s325.333 214 540 214c72.667 0 142.334 -9.5 209.001 -28.5s121.834 -42.167 165.501 -69.5s81.834 -54.333 114.501 -81s56.667 -49.667 72 -69l22 -28l-143 -144c-4 5.33301 -9.83301 12.833 -17.5 22.5s-25.167 27.167 -52.5 52.5s-56.666 47.166 -87.999 65.499
s-72.166 35.333 -122.499 51s-103.5 23.5 -159.5 23.5c-148.667 0 -274.667 -51.5 -378 -154.5s-155 -228.833 -155 -377.5s51.5 -274.667 154.5 -378s229.167 -155 378.5 -155c49.333 0 96.5 4.83301 141.5 14.5s81.833 21.667 110.5 36s53.834 28.666 75.501 42.999
s37.167 26.166 46.5 35.499l15 15v225h-277v205zM860.494 1761c41 0 75.167 13.6689 102.5 41.002s41 61.666 41 102.999h153c0 -82 -28 -150.333 -84 -205s-127 -82 -213 -82s-157 27.333 -213 82s-84 123 -84 205h154c0 -40.667 13.667 -74.834 41 -102.501
s61.5 -41.5 102.5 -41.5z" />
    <glyph glyph-name="gbreve" unicode="&#x11f;" 
d="M829 59l0.00292969 84l-13 -13c-6 -6 -18.5 -15.833 -37.5 -29.5s-39.5 -26 -61.5 -37s-49.667 -21 -83 -30s-67.333 -13.5 -102 -13.5c-124 0 -231.667 47.833 -323 143.5s-137 211.834 -137 348.501s45.667 252.834 137 348.501s199 143.5 323 143.5
c54.667 0 106.667 -10.333 156 -31s85 -41.334 107 -62.001l34 -30v102h205v-922c0 -138 -47.333 -254.333 -142 -349s-211 -142 -349 -142c-56 0 -109.333 7.16699 -160 21.5s-92.334 31.333 -125.001 51s-61.334 39.5 -86.001 59.5s-42.334 37.333 -53.001 52l-17 21
l134 133c2.66699 -4 7 -9.5 13 -16.5s18.833 -19.333 38.5 -37s40.5 -33.334 62.5 -47.001s50.333 -26 85 -37s70.667 -16.5 108 -16.5c83.333 0 151.833 28.333 205.5 85s80.5 130 80.5 220zM276.003 512c0 -86 27.667 -158.667 83 -218s120 -89 194 -89
s138.5 29.667 193.5 89s82.5 132 82.5 218s-27.5 158.667 -82.5 218s-119.5 89 -193.5 89s-138.667 -29.667 -194 -89s-83 -132 -83 -218zM583.503 1290c41 0 75.167 13.6689 102.5 41.002s41 61.666 41 102.999h154c0 -82 -28 -150.333 -84 -205s-127 -82 -213 -82
s-157 27.333 -213 82s-84 123 -84 205h153c0 -40.667 13.667 -74.834 41 -102.501s61.5 -41.5 102.5 -41.5z" />
    <glyph glyph-name="uni0122" unicode="&#x122;" horiz-adv-x="1658" 
d="M993 758l501.994 0.00292969v-512c-5.33301 -6.66699 -13.5 -16.167 -24.5 -28.5s-35.667 -34 -74 -65s-79.333 -58 -123 -81s-101 -44 -172 -63s-144.5 -28.5 -220.5 -28.5c-214.667 0 -394.667 71.333 -540 214s-218 317 -218 523s72.667 380.333 218 523
s325.333 214 540 214c72.667 0 142.334 -9.5 209.001 -28.5s121.834 -42.167 165.501 -69.5s81.834 -54.333 114.501 -81s56.667 -49.667 72 -69l22 -28l-143 -144c-4 5.33301 -9.83301 12.833 -17.5 22.5s-25.167 27.167 -52.5 52.5s-56.666 47.166 -87.999 65.499
s-72.166 35.333 -122.499 51s-103.5 23.5 -159.5 23.5c-148.667 0 -274.667 -51.5 -378 -154.5s-155 -228.833 -155 -377.5s51.5 -274.667 154.5 -378s229.167 -155 378.5 -155c49.333 0 96.5 4.83301 141.5 14.5s81.833 21.667 110.5 36s53.834 28.666 75.501 42.999
s37.167 26.166 46.5 35.499l15 15v225h-277v205zM685.994 -450.997l92 287h185l-134 -287h-143z" />
    <glyph glyph-name="uni0123" unicode="&#x123;" 
d="M737 1434l-92 -287h-184l133 287h143zM829 59l0.00292969 84l-13 -13c-6 -6 -18.5 -15.833 -37.5 -29.5s-39.5 -26 -61.5 -37s-49.667 -21 -83 -30s-67.333 -13.5 -102 -13.5c-124 0 -231.667 47.833 -323 143.5s-137 211.834 -137 348.501s45.667 252.834 137 348.501
s199 143.5 323 143.5c54.667 0 106.667 -10.333 156 -31s85 -41.334 107 -62.001l34 -30v102h205v-922c0 -138 -47.333 -254.333 -142 -349s-211 -142 -349 -142c-56 0 -109.333 7.16699 -160 21.5s-92.334 31.333 -125.001 51s-61.334 39.5 -86.001 59.5
s-42.334 37.333 -53.001 52l-17 21l134 133c2.66699 -4 7 -9.5 13 -16.5s18.833 -19.333 38.5 -37s40.5 -33.334 62.5 -47.001s50.333 -26 85 -37s70.667 -16.5 108 -16.5c83.333 0 151.833 28.333 205.5 85s80.5 130 80.5 220zM276.003 512c0 -86 27.667 -158.667 83 -218
s120 -89 194 -89s138.5 29.667 193.5 89s82.5 132 82.5 218s-27.5 158.667 -82.5 218s-119.5 89 -193.5 89s-138.667 -29.667 -194 -89s-83 -132 -83 -218z" />
    <glyph glyph-name="Imacron" unicode="&#x12a;" horiz-adv-x="634" 
d="M205 0v1434h225v-1434h-225zM635 1843v-143h-635v143h635z" />
    <glyph glyph-name="imacron" unicode="&#x12b;" horiz-adv-x="491" 
d="M338 983v-983h-205v983h205zM553 1372v-143h-635v143h635z" />
    <glyph glyph-name="Iogonek" unicode="&#x12e;" horiz-adv-x="634" 
d="M205 0l-0.00195312 1434h225v-1434h-92c-54.667 -68 -82 -133.667 -82 -197c0 -24.667 9.5 -45.834 28.5 -63.501s43.5 -26.5 73.5 -26.5c18 0 36.5 1.83301 55.5 5.5s33.5 7.5 43.5 11.5l14 4v-123c-48 -20.667 -99.333 -31 -154 -31
c-61.333 0 -110.666 18.167 -147.999 54.5s-56 83.166 -56 140.499c0 36.667 7.83301 73.834 23.5 111.501s30.834 65.834 45.501 84.501z" />
    <glyph glyph-name="iogonek" unicode="&#x12f;" horiz-adv-x="491" 
d="M133 0v983h205v-983h-72c-54.667 -68 -82 -133.667 -82 -197c0 -24.667 9.66699 -45.834 29 -63.501s44 -26.5 74 -26.5c18 0 36.5 1.83301 55.5 5.5s33.167 7.5 42.5 11.5l14 4v-123c-48 -20.667 -99 -31 -153 -31c-61.333 0 -110.833 18.167 -148.5 54.5
s-56.5 83.166 -56.5 140.499c0 36.667 7.5 73.834 22.5 111.501s30.833 65.834 47.5 84.501zM358 1290c0 -35.333 -11.5 -64.666 -34.5 -87.999s-52.333 -35 -88 -35s-65 11.667 -88 35s-34.5 52.666 -34.5 87.999s11.5 64.666 34.5 87.999s52.333 35 88 35
s65 -11.667 88 -35s34.5 -52.666 34.5 -87.999z" />
    <glyph glyph-name="Idotaccent" unicode="&#x130;" horiz-adv-x="634" 
d="M205 0v1434h225v-1434h-225zM440 1761.5c0 -35.667 -11.5 -65.167 -34.5 -88.5s-52.333 -35 -88 -35s-65 11.667 -88 35s-34.5 52.833 -34.5 88.5s11.5 65 34.5 88s52.333 34.5 88 34.5s65 -11.5 88 -34.5s34.5 -52.333 34.5 -88z" />
    <glyph glyph-name="dotlessi" unicode="&#x131;" horiz-adv-x="491" 
d="M338 983v-983h-205v983h205z" />
    <glyph glyph-name="uni0136" unicode="&#x136;" horiz-adv-x="1423" 
d="M430 1434v-697l645 697h287l-553 -594l594 -840h-277l-471 676l-225 -246v-430h-225v1434h225zM563 -451l92 287h185l-133 -287h-144z" />
    <glyph glyph-name="uni0137" unicode="&#x137;" horiz-adv-x="1085" 
d="M1024 983l-379 -410l410 -573h-226l-317 440l-154 -164v-276h-204v1434h204v-891l420 440h246zM410 -451l92 287h184l-133 -287h-143z" />
    <glyph glyph-name="Lacute" unicode="&#x139;" 
d="M1126 0h-921v1434h225v-1229h696v-205zM246 1618l153 287h215l-215 -287h-153z" />
    <glyph glyph-name="lacute" unicode="&#x13a;" horiz-adv-x="532" 
d="M358 1434v-1434h-204v1434h204zM184 1618l154 287h215l-215 -287h-154z" />
    <glyph glyph-name="uni013B" unicode="&#x13b;" 
d="M1126 0h-921v1434h225v-1229h696v-205zM481 -451l92 287h185l-133 -287h-144z" />
    <glyph glyph-name="uni013C" unicode="&#x13c;" horiz-adv-x="532" 
d="M358 1434v-1434h-204v1434h204zM72 -451l92 287h184l-133 -287h-143z" />
    <glyph glyph-name="Lcaron" unicode="&#x13d;" 
d="M1126 0h-921v1434h225v-1229h696v-205zM543 1147l92 287h184l-133 -287h-143z" />
    <glyph glyph-name="lcaron" unicode="&#x13e;" horiz-adv-x="645" 
d="M358 1434v-1434h-204v1434h204zM461 1147l92 287h184l-133 -287h-143z" />
    <glyph glyph-name="Lslash" unicode="&#x141;" horiz-adv-x="1320" 
d="M1260 0h-922v543l-246 -144l-92 164l338 195v676h225v-553l256 153l92 -164l-348 -204v-461h697v-205z" />
    <glyph glyph-name="lslash" unicode="&#x142;" horiz-adv-x="757" 
d="M809 891l-338 -205v-686h-205v573l-256 -153l-82 143l338 205v666h205v-553l256 153z" />
    <glyph glyph-name="Nacute" unicode="&#x143;" horiz-adv-x="1628" 
d="M1198 1434h225v-1434h-194l-799 1034v-1034h-225v1434h194l799 -1035v1035zM748 1618l153 287h215l-215 -287h-153z" />
    <glyph glyph-name="nacute" unicode="&#x144;" 
d="M338 983l-0.00195312 -102.001l13 13c6 6 18.667 15.833 38 29.5s39.833 26 61.5 37s49.334 21 83.001 30s67.5 13.5 101.5 13.5c118.667 0 214.834 -39 288.501 -117s110.5 -182.667 110.5 -314v-573h-205v573c0 70.667 -22.5 129.334 -67.5 176.001
s-100.833 70 -167.5 70c-78 0 -140.167 -25.167 -186.5 -75.5s-69.5 -120.833 -69.5 -211.5v-532h-205v983h205zM531.998 1147l154 287h215l-215 -287h-154z" />
    <glyph glyph-name="uni0145" unicode="&#x145;" horiz-adv-x="1628" 
d="M1198 1434h225v-1434h-194l-799 1034v-1034h-225v1434h194l799 -1035v1035zM666 -451l92 287h184l-133 -287h-143z" />
    <glyph glyph-name="uni0146" unicode="&#x146;" 
d="M338 983l-0.00195312 -102.001l13 13c6 6 18.667 15.833 38 29.5s39.833 26 61.5 37s49.334 21 83.001 30s67.5 13.5 101.5 13.5c118.667 0 214.834 -39 288.501 -117s110.5 -182.667 110.5 -314v-573h-205v573c0 70.667 -22.5 129.334 -67.5 176.001
s-100.833 70 -167.5 70c-78 0 -140.167 -25.167 -186.5 -75.5s-69.5 -120.833 -69.5 -211.5v-532h-205v983h205zM409.998 -451.001l92 287h184l-133 -287h-143z" />
    <glyph glyph-name="Ncaron" unicode="&#x147;" horiz-adv-x="1628" 
d="M1198 1434h225v-1434h-194l-799 1034v-1034h-225v1434h194l799 -1035v1035zM1147 1905l-225 -287h-205l-225 287h184l143 -185l144 185h184z" />
    <glyph glyph-name="ncaron" unicode="&#x148;" 
d="M338 983l-0.00195312 -102.001l13 13c6 6 18.667 15.833 38 29.5s39.833 26 61.5 37s49.334 21 83.001 30s67.5 13.5 101.5 13.5c118.667 0 214.834 -39 288.501 -117s110.5 -182.667 110.5 -314v-573h-205v573c0 70.667 -22.5 129.334 -67.5 176.001
s-100.833 70 -167.5 70c-78 0 -140.167 -25.167 -186.5 -75.5s-69.5 -120.833 -69.5 -211.5v-532h-205v983h205zM931.998 1434l-225 -287h-205l-226 287h185l143 -185l144 185h184z" />
    <glyph glyph-name="Omacron" unicode="&#x14c;" horiz-adv-x="1761" 
d="M348 717c0 -148.667 51.5 -274.667 154.5 -378s229 -155 378 -155s275 51.667 378 155s154.5 229.333 154.5 378s-51.5 274.5 -154.5 377.5s-229 154.5 -378 154.5s-275 -51.5 -378 -154.5s-154.5 -228.833 -154.5 -377.5zM123 717c0 206 72.667 380.333 218 523
s325.166 214 539.499 214s394.166 -71.333 539.499 -214s218 -317 218 -523s-72.667 -380.333 -218 -523s-325.166 -214 -539.499 -214s-394.166 71.333 -539.499 214s-218 317 -218 523zM1198 1843v-143h-635v143h635z" />
    <glyph glyph-name="omacron" unicode="&#x14d;" 
d="M891 491.5c0 91.667 -30.333 169.167 -91 232.5s-132.667 95 -216 95s-155.5 -31.667 -216.5 -95s-91.5 -140.833 -91.5 -232.5s30.5 -169.167 91.5 -232.5s133.167 -95 216.5 -95s155.333 31.667 216 95s91 140.833 91 232.5zM72 491.5
c0 137.667 50.833 257.5 152.5 359.5s221.5 153 359.5 153s257.833 -51 359.5 -153s152.5 -221.833 152.5 -359.5s-50.833 -257.334 -152.5 -359.001s-221.5 -152.5 -359.5 -152.5s-257.833 50.833 -359.5 152.5s-152.5 221.334 -152.5 359.001zM901 1372v-143h-635v143h635
z" />
    <glyph glyph-name="Ohungarumlaut" unicode="&#x150;" horiz-adv-x="1761" 
d="M348 717c0 -148.667 51.5 -274.667 154.5 -378s229 -155 378 -155s275 51.667 378 155s154.5 229.333 154.5 378s-51.5 274.5 -154.5 377.5s-229 154.5 -378 154.5s-275 -51.5 -378 -154.5s-154.5 -228.833 -154.5 -377.5zM123 717c0 206 72.667 380.333 218 523
s325.166 214 539.499 214s394.166 -71.333 539.499 -214s218 -317 218 -523s-72.667 -380.333 -218 -523s-325.166 -214 -539.499 -214s-394.166 71.333 -539.499 214s-218 317 -218 523zM635 1618l153 287h216l-216 -287h-153zM993 1618l154 287h215l-215 -287h-154z" />
    <glyph glyph-name="ohungarumlaut" unicode="&#x151;" 
d="M891 491.5c0 91.667 -30.333 169.167 -91 232.5s-132.667 95 -216 95s-155.5 -31.667 -216.5 -95s-91.5 -140.833 -91.5 -232.5s30.5 -169.167 91.5 -232.5s133.167 -95 216.5 -95s155.333 31.667 216 95s91 140.833 91 232.5zM72 491.5
c0 137.667 50.833 257.5 152.5 359.5s221.5 153 359.5 153s257.833 -51 359.5 -153s152.5 -221.833 152.5 -359.5s-50.833 -257.334 -152.5 -359.001s-221.5 -152.5 -359.5 -152.5s-257.833 50.833 -359.5 152.5s-152.5 221.334 -152.5 359.001zM338 1147l154 287h215
l-215 -287h-154zM696 1147l154 287h215l-215 -287h-154z" />
    <glyph glyph-name="OE" unicode="&#x152;" horiz-adv-x="2099" 
d="M850 1434l1126 0.00195312v-205h-706v-379h542v-205h-542v-440h727v-205h-1147c-199.333 0 -370.333 70.667 -513 212s-214 309.666 -214 504.999s71.333 363.666 214 504.999s313.667 212 513 212zM1044 1229h-194c-139.333 0 -257.833 -49.5 -355.5 -148.5
s-146.5 -220.167 -146.5 -363.5s48.833 -264.5 146.5 -363.5s216.167 -148.5 355.5 -148.5h194v1024z" />
    <glyph glyph-name="oe" unicode="&#x153;" horiz-adv-x="1945" 
d="M1843 420l-768.003 -0.00195312c10.667 -69.333 44.834 -129.333 102.501 -180s125.834 -76 204.501 -76c57.333 0 111 13 161 39s85.333 51.333 106 76l30 38l133 -133c-4 -5.33301 -10 -12.833 -18 -22.5s-25.667 -26 -53 -49s-56.333 -43.333 -87 -61
s-70.667 -34 -120 -49s-100 -22.5 -152 -22.5c-49.333 0 -97.166 7.16699 -143.499 21.5s-84.833 31.333 -115.5 51s-57.834 39.334 -81.501 59.001s-41.167 37.167 -52.5 52.5l-16 20c-4 -5.33301 -9.83301 -12.833 -17.5 -22.5s-24.167 -26 -49.5 -49
s-52.333 -43.333 -81 -61s-65.834 -34 -111.501 -49s-92.5 -22.5 -140.5 -22.5c-139.333 0 -257.666 49.333 -354.999 148s-146 219.834 -146 363.501s48.833 265 146.5 364s215.834 148.5 354.501 148.5c48 0 94.5 -7.16699 139.5 -21.5s82.5 -31.5 112.5 -51.5
s56.667 -39.833 80 -59.5s40.333 -37.167 51 -52.5l17 -20c4 5.33301 9.66699 12.833 17 22.5s23.666 26 48.999 49s52.333 43.333 81 61s65.834 34.167 111.501 49.5s92.5 23 140.5 23c138 0 252.667 -45.833 344 -137.5s137 -206.5 137 -344.5zM869.997 491.498
c0 90.333 -30 167.5 -90 231.5s-128.833 96 -206.5 96s-146.667 -32 -207 -96s-90.5 -141.167 -90.5 -231.5s30.167 -167.5 90.5 -231.5s129.333 -96 207 -96s146.5 32 206.5 96s90 141.167 90 231.5zM1372 828.998c-74 0 -136.167 -21.833 -186.5 -65.5
s-84.5 -100.167 -102.5 -169.5h570c-12 69.333 -43 125.833 -93 169.5s-112.667 65.5 -188 65.5z" />
    <glyph glyph-name="Racute" unicode="&#x154;" horiz-adv-x="1433" 
d="M205 0v1434h604c132.667 0 242.667 -42.333 330 -127s131 -189.334 131 -314.001c0 -58.667 -10 -113.5 -30 -164.5s-44 -91.167 -72 -120.5s-56 -55 -84 -77s-52 -37 -72 -45l-29 -13l328 -573h-246l-307 553h-328v-553h-225zM1044 993.501c0 67 -22.5 123 -67.5 168
s-100.833 67.5 -167.5 67.5h-379v-471h379c66.667 0 122.5 22.5 167.5 67.5s67.5 101 67.5 168zM625 1618l153 287h215l-215 -287h-153z" />
    <glyph glyph-name="racute" unicode="&#x155;" horiz-adv-x="716" 
d="M686 809c-27.333 6.66699 -58.001 10 -92.001 10c-78 0 -140.167 -25.167 -186.5 -75.5s-69.5 -120.833 -69.5 -211.5v-532h-205v983h205v-102l13 13c6 6 18.667 15.833 38 29.5s39.833 26 61.5 37s49.334 21 83.001 30s67.5 13.5 101.5 13.5h51v-195zM327.999 1147
l153 287h215l-215 -287h-153z" />
    <glyph glyph-name="uni0156" unicode="&#x156;" horiz-adv-x="1433" 
d="M205 0v1434h604c132.667 0 242.667 -42.333 330 -127s131 -189.334 131 -314.001c0 -58.667 -10 -113.5 -30 -164.5s-44 -91.167 -72 -120.5s-56 -55 -84 -77s-52 -37 -72 -45l-29 -13l328 -573h-246l-307 553h-328v-553h-225zM1044 993.501c0 67 -22.5 123 -67.5 168
s-100.833 67.5 -167.5 67.5h-379v-471h379c66.667 0 122.5 22.5 167.5 67.5s67.5 101 67.5 168zM543 -450.999l92 287h184l-133 -287h-143z" />
    <glyph glyph-name="uni0157" unicode="&#x157;" horiz-adv-x="716" 
d="M686 809c-27.333 6.66699 -58.001 10 -92.001 10c-78 0 -140.167 -25.167 -186.5 -75.5s-69.5 -120.833 -69.5 -211.5v-532h-205v983h205v-102l13 13c6 6 18.667 15.833 38 29.5s39.833 26 61.5 37s49.334 21 83.001 30s67.5 13.5 101.5 13.5h51v-195zM60.999 -451
l93 287h184l-133 -287h-144z" />
    <glyph glyph-name="Rcaron" unicode="&#x158;" horiz-adv-x="1433" 
d="M205 0v1434h604c132.667 0 242.667 -42.333 330 -127s131 -189.334 131 -314.001c0 -58.667 -10 -113.5 -30 -164.5s-44 -91.167 -72 -120.5s-56 -55 -84 -77s-52 -37 -72 -45l-29 -13l328 -573h-246l-307 553h-328v-553h-225zM1044 993.501c0 67 -22.5 123 -67.5 168
s-100.833 67.5 -167.5 67.5h-379v-471h379c66.667 0 122.5 22.5 167.5 67.5s67.5 101 67.5 168zM1044 1905l-225 -287h-205l-225 287h184l144 -185l143 185h184z" />
    <glyph glyph-name="rcaron" unicode="&#x159;" horiz-adv-x="716" 
d="M686 809c-27.333 6.66699 -58.001 10 -92.001 10c-78 0 -140.167 -25.167 -186.5 -75.5s-69.5 -120.833 -69.5 -211.5v-532h-205v983h205v-102l13 13c6 6 18.667 15.833 38 29.5s39.833 26 61.5 37s49.334 21 83.001 30s67.5 13.5 101.5 13.5h51v-195zM726.999 1434
l-225 -287h-205l-225 287h184l143 -185l144 185h184z" />
    <glyph glyph-name="Sacute" unicode="&#x15a;" horiz-adv-x="1208" 
d="M881 410c0 44 -13.998 80.834 -41.998 110.501s-64.167 53 -108.5 70s-93.5 32.333 -147.5 46s-108 30.5 -162 50.5s-103.167 44 -147.5 72s-80.5 67.833 -108.5 119.5s-42 113.834 -42 186.501c0 110.667 42.333 203.167 127 277.5s199.334 111.5 344.001 111.5
c53.333 0 104.5 -6.5 153.5 -19.5s89.667 -28.333 122 -46s60.666 -35.334 84.999 -53.001s42.166 -32.834 53.499 -45.501l16 -20l-143 -144c-2.66699 2.66699 -6.5 7.16699 -11.5 13.5s-16.333 16.333 -34 30s-36.667 26 -57 37s-47 20.833 -80 29.5s-67.833 13 -104.5 13
c-74 0 -133.5 -18.333 -178.5 -55s-67.5 -79.667 -67.5 -129c0 -44 14 -81 42 -111s64.167 -53.5 108.5 -70.5s93.5 -32.333 147.5 -46s108 -30.334 162 -50.001s103.167 -43.5 147.5 -71.5s80.5 -68 108.5 -120s42 -114 42 -186c0 -126.667 -45.333 -230 -136 -310
s-216 -120 -376 -120c-65.333 0 -127.5 7.83301 -186.5 23.5s-107.5 34.334 -145.5 56.001s-71 43.5 -99 65.5s-48.333 40.333 -61 55l-20 25l143 143c2.66699 -4 7.16699 -9.83301 13.5 -17.5s20.666 -21 42.999 -40s46.5 -35.667 72.5 -50s60.5 -27.333 103.5 -39
s88.5 -17.5 136.5 -17.5c88.667 0 158.667 21.667 210 65s77 97 77 161zM502.002 1618l153 287h215l-215 -287h-153z" />
    <glyph glyph-name="sacute" unicode="&#x15b;" horiz-adv-x="890" 
d="M758 870l-133.002 -132.998c-5.33301 5.33301 -13.166 12.833 -23.499 22.5s-31.666 22 -63.999 37s-64.833 22.5 -97.5 22.5c-44 0 -78.833 -10.167 -104.5 -30.5s-38.5 -44.166 -38.5 -71.499c0 -28.667 12.333 -52.667 37 -72s55.667 -34 93 -44
s77.5 -22.5 120.5 -37.5s83.333 -31.833 121 -50.5s68.834 -47.334 93.501 -86.001s37 -85.334 37 -140.001c0 -84.667 -34.167 -157 -102.5 -217s-157.166 -90 -266.499 -90c-48 0 -93.833 6 -137.5 18s-79.5 26.333 -107.5 43s-52.5 33.5 -73.5 50.5
s-36.167 31.5 -45.5 43.5l-15 19l133 133c6.66699 -9.33301 16.5 -21 29.5 -35s41 -32.167 84 -54.5s87.167 -33.5 132.5 -33.5c54.667 0 95.667 11.167 123 33.5s41 52.166 41 89.499c0 28.667 -12.333 52.5 -37 71.5s-55.667 33.667 -93 44s-77.5 23 -120.5 38
s-83.333 31.667 -121 50s-68.834 47 -93.501 86s-37 85.833 -37 140.5c0 75.333 33.167 142 99.5 200s149.166 87 248.499 87c39.333 0 77.5 -4.5 114.5 -13.5s67.167 -20 90.5 -33s43.833 -26.333 61.5 -40s30.5 -24.5 38.5 -32.5zM347.998 1147l154 287h215l-215 -287
h-154z" />
    <glyph glyph-name="Scedilla" unicode="&#x15e;" horiz-adv-x="1208" 
d="M881 410c0 44 -14.0029 80.835 -42.0029 110.502s-64.167 53 -108.5 70s-93.5 32.333 -147.5 46s-108 30.5 -162 50.5s-103.167 44 -147.5 72s-80.5 67.833 -108.5 119.5s-42 113.834 -42 186.501c0 110.667 42.333 203.167 127 277.5s199.334 111.5 344.001 111.5
c53.333 0 104.5 -6.5 153.5 -19.5s89.667 -28.333 122 -46s60.666 -35.334 84.999 -53.001s42.166 -32.834 53.499 -45.501l16 -20l-143 -144c-2.66699 2.66699 -6.5 7.16699 -11.5 13.5s-16.333 16.333 -34 30s-36.667 26 -57 37s-47 20.833 -80 29.5s-67.833 13 -104.5 13
c-74 0 -133.5 -18.333 -178.5 -55s-67.5 -79.667 -67.5 -129c0 -44 14 -81 42 -111s64.167 -53.5 108.5 -70.5s93.5 -32.333 147.5 -46s108 -30.334 162 -50.001s103.167 -43.5 147.5 -71.5s80.5 -68 108.5 -120s42 -114 42 -186c0 -120 -41 -219.333 -123 -298
s-195.333 -122 -340 -130l-49 -95c4 0 10.167 -0.333008 18.5 -1s22.333 -3.66699 42 -9s37.334 -12.833 53.001 -22.5s29.667 -25 42 -46s18.5 -45.833 18.5 -74.5c0 -48 -18.167 -87.333 -54.5 -118s-86.5 -46 -150.5 -46c-36.667 0 -71 6.83301 -103 20.5
s-55.667 27.167 -71 40.5l-20 21l51 82c40.667 -34 88.334 -51 143.001 -51c24.667 0 44.5 6 59.5 18s22.5 26.333 22.5 43s-7.5 31 -22.5 43s-34.833 18 -59.5 18c-9.33301 0 -19.166 -1.66699 -29.499 -5s-18.166 -6.33301 -23.499 -9l-8 -6l-41 51l65 148
c-56 4 -109.833 14.5 -161.5 31.5s-94 36 -127 57s-61.667 41.5 -86 61.5s-42.166 36.667 -53.499 50l-16 21l143 143c2.66699 -4 7.16699 -9.83301 13.5 -17.5s20.666 -21 42.999 -40s46.5 -35.667 72.5 -50s60.5 -27.333 103.5 -39s88.5 -17.5 136.5 -17.5
c88.667 0 158.667 21.667 210 65s77 97 77 161z" />
    <glyph glyph-name="scedilla" unicode="&#x15f;" horiz-adv-x="890" 
d="M758 870l-133.006 -132.998c-5.33301 5.33301 -13.166 12.833 -23.499 22.5s-31.666 22 -63.999 37s-64.833 22.5 -97.5 22.5c-44 0 -78.833 -10.167 -104.5 -30.5s-38.5 -44.166 -38.5 -71.499c0 -28.667 12.333 -52.667 37 -72s55.667 -34 93 -44
s77.5 -22.5 120.5 -37.5s83.333 -31.833 121 -50.5s68.834 -47.334 93.501 -86.001s37 -85.334 37 -140.001c0 -78 -29.333 -146 -88 -204s-136 -91.667 -232 -101l-49 -95c4 0 10.167 -0.333008 18.5 -1s22.333 -3.66699 42 -9s37.334 -12.833 53.001 -22.5
s29.667 -25 42 -46s18.5 -45.833 18.5 -74.5c0 -48 -18 -87.333 -54 -118s-86.333 -46 -151 -46c-36.667 0 -71 6.83301 -103 20.5s-55.667 27.167 -71 40.5l-20 21l51 82c40.667 -34 88.334 -51 143.001 -51c24.667 0 44.5 6 59.5 18s22.5 26.333 22.5 43s-7.5 31 -22.5 43
s-34.833 18 -59.5 18c-9.33301 0 -19.166 -1.66699 -29.499 -5s-18.166 -6.33301 -23.499 -9l-8 -6l-41 51l65 148c-39.333 5.33301 -76.666 14.5 -111.999 27.5s-64.666 27.333 -87.999 43s-43.833 31 -61.5 46s-30.834 27.833 -39.501 38.5l-10 15l133 133
c6.66699 -9.33301 16.5 -21 29.5 -35s41 -32.167 84 -54.5s87.167 -33.5 132.5 -33.5c54.667 0 95.667 11.167 123 33.5s41 52.166 41 89.499c0 28.667 -12.333 52.5 -37 71.5s-55.667 33.667 -93 44s-77.5 23 -120.5 38s-83.333 31.667 -121 50s-68.834 47 -93.501 86
s-37 85.833 -37 140.5c0 75.333 33.167 142 99.5 200s149.166 87 248.499 87c39.333 0 77.5 -4.5 114.5 -13.5s67.167 -20 90.5 -33s43.833 -26.333 61.5 -40s30.5 -24.5 38.5 -32.5z" />
    <glyph glyph-name="Scaron" unicode="&#x160;" horiz-adv-x="1208" 
d="M881 410c0 44 -13.998 80.834 -41.998 110.501s-64.167 53 -108.5 70s-93.5 32.333 -147.5 46s-108 30.5 -162 50.5s-103.167 44 -147.5 72s-80.5 67.833 -108.5 119.5s-42 113.834 -42 186.501c0 110.667 42.333 203.167 127 277.5s199.334 111.5 344.001 111.5
c53.333 0 104.5 -6.5 153.5 -19.5s89.667 -28.333 122 -46s60.666 -35.334 84.999 -53.001s42.166 -32.834 53.499 -45.501l16 -20l-143 -144c-2.66699 2.66699 -6.5 7.16699 -11.5 13.5s-16.333 16.333 -34 30s-36.667 26 -57 37s-47 20.833 -80 29.5s-67.833 13 -104.5 13
c-74 0 -133.5 -18.333 -178.5 -55s-67.5 -79.667 -67.5 -129c0 -44 14 -81 42 -111s64.167 -53.5 108.5 -70.5s93.5 -32.333 147.5 -46s108 -30.334 162 -50.001s103.167 -43.5 147.5 -71.5s80.5 -68 108.5 -120s42 -114 42 -186c0 -126.667 -45.333 -230 -136 -310
s-216 -120 -376 -120c-65.333 0 -127.5 7.83301 -186.5 23.5s-107.5 34.334 -145.5 56.001s-71 43.5 -99 65.5s-48.333 40.333 -61 55l-20 25l143 143c2.66699 -4 7.16699 -9.83301 13.5 -17.5s20.666 -21 42.999 -40s46.5 -35.667 72.5 -50s60.5 -27.333 103.5 -39
s88.5 -17.5 136.5 -17.5c88.667 0 158.667 21.667 210 65s77 97 77 161zM922.002 1905l-226 -287h-204l-226 287h185l143 -185l143 185h185z" />
    <glyph glyph-name="scaron" unicode="&#x161;" horiz-adv-x="890" 
d="M758 870l-133.002 -132.998c-5.33301 5.33301 -13.166 12.833 -23.499 22.5s-31.666 22 -63.999 37s-64.833 22.5 -97.5 22.5c-44 0 -78.833 -10.167 -104.5 -30.5s-38.5 -44.166 -38.5 -71.499c0 -28.667 12.333 -52.667 37 -72s55.667 -34 93 -44
s77.5 -22.5 120.5 -37.5s83.333 -31.833 121 -50.5s68.834 -47.334 93.501 -86.001s37 -85.334 37 -140.001c0 -84.667 -34.167 -157 -102.5 -217s-157.166 -90 -266.499 -90c-48 0 -93.833 6 -137.5 18s-79.5 26.333 -107.5 43s-52.5 33.5 -73.5 50.5
s-36.167 31.5 -45.5 43.5l-15 19l133 133c6.66699 -9.33301 16.5 -21 29.5 -35s41 -32.167 84 -54.5s87.167 -33.5 132.5 -33.5c54.667 0 95.667 11.167 123 33.5s41 52.166 41 89.499c0 28.667 -12.333 52.5 -37 71.5s-55.667 33.667 -93 44s-77.5 23 -120.5 38
s-83.333 31.667 -121 50s-68.834 47 -93.501 86s-37 85.833 -37 140.5c0 75.333 33.167 142 99.5 200s149.166 87 248.499 87c39.333 0 77.5 -4.5 114.5 -13.5s67.167 -20 90.5 -33s43.833 -26.333 61.5 -40s30.5 -24.5 38.5 -32.5zM767.998 1434l-225 -287h-205l-225 287
h184l143 -185l144 185h184z" />
    <glyph glyph-name="uni0162" unicode="&#x162;" horiz-adv-x="1167" 
d="M41 1434h1085v-205h-430v-1229h-225v1229h-430v205zM399 -451l93 287h184l-133 -287h-144z" />
    <glyph glyph-name="uni0163" unicode="&#x163;" horiz-adv-x="778" 
d="M256 1106v205h184v-328h205v-184h-205v-510c0 -36.667 11.667 -66.667 35 -90s52.666 -35 87.999 -35c15.333 0 31.5 1.66699 48.5 5s30.167 7 39.5 11l15 4v-184c-40.667 -13.333 -88.667 -20 -144 -20c-191.333 0 -286.666 102.333 -285.999 307v512h-185v184h103
c68 0 102 41 102 123zM287 -451l92 287h184l-133 -287h-143z" />
    <glyph glyph-name="Tcaron" unicode="&#x164;" horiz-adv-x="1167" 
d="M41 1434h1085v-205h-430v-1229h-225v1229h-430v205zM911 1905l-225 -287h-205l-225 287h184l144 -185l143 185h184z" />
    <glyph glyph-name="tcaron" unicode="&#x165;" horiz-adv-x="808" 
d="M256 1106v205h184v-328h205v-184h-205v-510c0 -36.667 11.667 -66.667 35 -90s52.666 -35 87.999 -35c15.333 0 31.5 1.66699 48.5 5s30.167 7 39.5 11l15 4v-184c-40.667 -13.333 -88.667 -20 -144 -20c-191.333 0 -286.666 102.333 -285.999 307v512h-185v184h103
c68 0 102 41 102 123zM625 1147l92 287h184l-133 -287h-143z" />
    <glyph glyph-name="Umacron" unicode="&#x16a;" horiz-adv-x="1576" 
d="M788.5 184c102.333 0 191.002 38.333 266.002 115s112.5 168 112.5 274v861h226v-861c0 -164 -58.833 -303.833 -176.5 -419.5s-260.334 -173.5 -428.001 -173.5s-310.334 58 -428.001 174s-176.5 255.667 -176.5 419v861h226v-861
c0 -106.667 37.5 -198.167 112.5 -274.5s163.667 -114.5 266 -114.5zM1106 1843v-143h-635v143h635z" />
    <glyph glyph-name="umacron" unicode="&#x16b;" horiz-adv-x="1198" 
d="M829 0l0.000976562 102.001l-13 -13c-6 -6 -18.5 -15.833 -37.5 -29.5s-39.5 -26 -61.5 -37s-49.667 -20.833 -83 -29.5s-67.333 -13 -102 -13c-118.667 0 -214.834 38.833 -288.501 116.5s-110.5 182.167 -110.5 313.5v573h205v-573
c0 -70.667 22.5 -129.334 67.5 -176.001s100.833 -70 167.5 -70c78 0 140.167 25.167 186.5 75.5s69.5 120.833 69.5 211.5v532h205v-983h-205zM901.001 1372v-143h-635v143h635z" />
    <glyph glyph-name="Uring" unicode="&#x16e;" horiz-adv-x="1576" 
d="M788.5 184c102.333 0 191.002 38.333 266.002 115s112.5 168 112.5 274v861h226v-861c0 -164 -58.833 -303.833 -176.5 -419.5s-260.334 -173.5 -428.001 -173.5s-310.334 58 -428.001 174s-176.5 255.667 -176.5 419v861h226v-861
c0 -106.667 37.5 -198.167 112.5 -274.5s163.667 -114.5 266 -114.5zM993.002 1782c0 -56 -20.167 -104.167 -60.5 -144.5s-88.333 -60.5 -144 -60.5s-103.667 20.167 -144 60.5s-60.5 88.5 -60.5 144.5s20.167 104.167 60.5 144.5s88.333 60.5 144 60.5
s103.667 -20.167 144 -60.5s60.5 -88.5 60.5 -144.5zM870.002 1782c0 24.667 -8.5 46.167 -25.5 64.5s-35.667 27.5 -56 27.5s-39 -9.16699 -56 -27.5s-25.5 -39.833 -25.5 -64.5s8.5 -46.167 25.5 -64.5s35.667 -27.5 56 -27.5s39 9.16699 56 27.5s25.5 39.833 25.5 64.5z
" />
    <glyph glyph-name="uring" unicode="&#x16f;" horiz-adv-x="1198" 
d="M829 0l0.000976562 102.001l-13 -13c-6 -6 -18.5 -15.833 -37.5 -29.5s-39.5 -26 -61.5 -37s-49.667 -20.833 -83 -29.5s-67.333 -13 -102 -13c-118.667 0 -214.834 38.833 -288.501 116.5s-110.5 182.167 -110.5 313.5v573h205v-573
c0 -70.667 22.5 -129.334 67.5 -176.001s100.833 -70 167.5 -70c78 0 140.167 25.167 186.5 75.5s69.5 120.833 69.5 211.5v532h205v-983h-205zM788.001 1311c0 -56 -20 -104.167 -60 -144.5s-88 -60.5 -144 -60.5s-104.167 20.167 -144.5 60.5s-60.5 88.5 -60.5 144.5
s20.167 104.167 60.5 144.5s88.5 60.5 144.5 60.5s104 -20.167 144 -60.5s60 -88.5 60 -144.5zM666.001 1311c0 24.667 -8.66699 46.167 -26 64.5s-36.166 27.5 -56.499 27.5s-39 -9.16699 -56 -27.5s-25.5 -39.833 -25.5 -64.5s8.5 -46.167 25.5 -64.5
s35.667 -27.5 56 -27.5s39.166 9.16699 56.499 27.5s26 39.833 26 64.5z" />
    <glyph glyph-name="Uhungarumlaut" unicode="&#x170;" horiz-adv-x="1576" 
d="M788.5 184c102.333 0 191.002 38.333 266.002 115s112.5 168 112.5 274v861h226v-861c0 -164 -58.833 -303.833 -176.5 -419.5s-260.334 -173.5 -428.001 -173.5s-310.334 58 -428.001 174s-176.5 255.667 -176.5 419v861h226v-861
c0 -106.667 37.5 -198.167 112.5 -274.5s163.667 -114.5 266 -114.5zM522.002 1618l154 287h215l-215 -287h-154zM881.002 1618l153 287h215l-215 -287h-153z" />
    <glyph glyph-name="uhungarumlaut" unicode="&#x171;" horiz-adv-x="1198" 
d="M829 0l0.000976562 102.001l-13 -13c-6 -6 -18.5 -15.833 -37.5 -29.5s-39.5 -26 -61.5 -37s-49.667 -20.833 -83 -29.5s-67.333 -13 -102 -13c-118.667 0 -214.834 38.833 -288.501 116.5s-110.5 182.167 -110.5 313.5v573h205v-573
c0 -70.667 22.5 -129.334 67.5 -176.001s100.833 -70 167.5 -70c78 0 140.167 25.167 186.5 75.5s69.5 120.833 69.5 211.5v532h205v-983h-205zM307.001 1147l154 287h215l-215 -287h-154zM666.001 1147l153 287h215l-215 -287h-153z" />
    <glyph glyph-name="Uogonek" unicode="&#x172;" horiz-adv-x="1576" 
d="M788.5 184c102.333 0 191.001 38.3359 266.001 115.003s112.5 168 112.5 274v861h226v-861c0 -150 -49.833 -280.667 -149.5 -392s-224.834 -176.333 -375.501 -195c-46.667 -69.333 -69.667 -130.333 -69 -183c0 -24.667 9.5 -45.834 28.5 -63.501
s43.5 -26.5 73.5 -26.5c18 0 36.5 1.83301 55.5 5.5s33.167 7.5 42.5 11.5l15 4v-123c-48 -20.667 -99.333 -31 -154 -31c-61.333 0 -110.833 18.167 -148.5 54.5s-56.5 83.166 -56.5 140.499c0 66.667 25.333 135.667 76 207c-154 13.333 -283.667 76.666 -389 189.999
s-158 247 -158 401v861h226v-861c0 -106.667 37.5 -198.167 112.5 -274.5s163.667 -114.5 266 -114.5z" />
    <glyph glyph-name="uogonek" unicode="&#x173;" horiz-adv-x="1198" 
d="M829 0l0.000976562 102.001l-13 -13c-6 -6 -18.5 -15.833 -37.5 -29.5s-39.5 -26 -61.5 -37s-49.667 -20.833 -83 -29.5s-67.333 -13 -102 -13c-118.667 0 -214.834 38.833 -288.501 116.5s-110.5 182.167 -110.5 313.5v573h205v-573
c0 -70.667 22.5 -129.334 67.5 -176.001s100.833 -70 167.5 -70c78 0 140.167 25.167 186.5 75.5s69.5 120.833 69.5 211.5v532h205v-983h-71c-54.667 -68 -82 -133.667 -82 -197c0 -24.667 9.5 -45.834 28.5 -63.501s43.5 -26.5 73.5 -26.5c18 0 36.5 1.83301 55.5 5.5
s33.167 7.5 42.5 11.5l15 4v-123c-48 -20.667 -99.333 -31 -154 -31c-61.333 0 -110.833 18.167 -148.5 54.5s-56.5 83.166 -56.5 140.499c0 36.667 7.5 73.834 22.5 111.501s30.833 65.834 47.5 84.501z" />
    <glyph glyph-name="Ydieresis" unicode="&#x178;" horiz-adv-x="1351" 
d="M287 1434l389 -686l389 686h246l-523 -922v-512h-225v512l-522 922h246zM584 1741c0 -35.333 -11.667 -64.666 -35 -87.999s-52.666 -35 -87.999 -35s-64.666 11.667 -87.999 35s-35 52.666 -35 87.999s11.667 64.666 35 87.999s52.666 35 87.999 35
s64.666 -11.667 87.999 -35s35 -52.666 35 -87.999zM1014 1741c0 -35.333 -11.667 -64.666 -35 -87.999s-52.666 -35 -87.999 -35s-64.666 11.667 -87.999 35s-35 52.666 -35 87.999s11.667 64.666 35 87.999s52.666 35 87.999 35s64.666 -11.667 87.999 -35
s35 -52.666 35 -87.999z" />
    <glyph glyph-name="Zacute" unicode="&#x179;" horiz-adv-x="1290" 
d="M901 1229h-768v205h1034v-205l-798 -1024h819v-205h-1086v205zM563 1618l154 287h215l-215 -287h-154z" />
    <glyph glyph-name="zacute" unicode="&#x17a;" horiz-adv-x="983" 
d="M870 983v-184l-542 -615h563v-184h-819v184l542 615h-522v184h778zM408 1147l153 287h215l-215 -287h-153z" />
    <glyph glyph-name="Zdotaccent" unicode="&#x17b;" horiz-adv-x="1290" 
d="M901 1229h-768v205h1034v-205l-798 -1024h819v-205h-1086v205zM778 1761.5c0 -35.667 -11.5 -65.167 -34.5 -88.5s-52.333 -35 -88 -35s-65.167 11.667 -88.5 35s-35 52.833 -35 88.5s11.667 65 35 88s52.833 34.5 88.5 34.5s65 -11.5 88 -34.5s34.5 -52.333 34.5 -88z
" />
    <glyph glyph-name="zdotaccent" unicode="&#x17c;" horiz-adv-x="983" 
d="M870 983v-184l-542 -615h563v-184h-819v184l542 615h-522v184h778zM604 1290c0 -35.333 -11.5 -64.666 -34.5 -87.999s-52.333 -35 -88 -35s-65.167 11.667 -88.5 35s-35 52.666 -35 87.999s11.667 64.666 35 87.999s52.833 35 88.5 35s65 -11.667 88 -35
s34.5 -52.666 34.5 -87.999z" />
    <glyph glyph-name="Zcaron" unicode="&#x17d;" horiz-adv-x="1290" 
d="M901 1229h-768v205h1034v-205l-798 -1024h819v-205h-1086v205zM973 1905l-225 -287h-205l-226 287h185l143 -185l143 185h185z" />
    <glyph glyph-name="zcaron" unicode="&#x17e;" horiz-adv-x="983" 
d="M870 983v-184l-542 -615h563v-184h-819v184l542 615h-522v184h778zM809 1434l-225 -287h-205l-225 287h184l143 -185l144 185h184z" />
    <glyph glyph-name="florin" unicode="&#x192;" horiz-adv-x="737" 
d="M522 1147l-50.999 -307h215v-185h-246l-143 -778c-18 -94 -57 -168.667 -117 -224s-137 -83 -231 -83c-22 0 -43.167 1.66699 -63.5 5s-35.5 7 -45.5 11l-14 4v174c34 -13.333 68 -20 102 -20c94 0 148.667 44.333 164 133l144 778h-144v185h174l51 307
c16.667 94 55 168.667 115 224s138 83 234 83c22 0 43.167 -1.66699 63.5 -5s35.166 -7 44.499 -11l14 -4v-174c-34 13.333 -68 20 -102 20c-94 0 -148.667 -44.333 -164 -133z" />
    <glyph glyph-name="uni0218" unicode="&#x218;" horiz-adv-x="1208" 
d="M881 410c0 44 -13.998 80.834 -41.998 110.501s-64.167 53 -108.5 70s-93.5 32.333 -147.5 46s-108 30.5 -162 50.5s-103.167 44 -147.5 72s-80.5 67.833 -108.5 119.5s-42 113.834 -42 186.501c0 110.667 42.333 203.167 127 277.5s199.334 111.5 344.001 111.5
c53.333 0 104.5 -6.5 153.5 -19.5s89.667 -28.333 122 -46s60.666 -35.334 84.999 -53.001s42.166 -32.834 53.499 -45.501l16 -20l-143 -144c-2.66699 2.66699 -6.5 7.16699 -11.5 13.5s-16.333 16.333 -34 30s-36.667 26 -57 37s-47 20.833 -80 29.5s-67.833 13 -104.5 13
c-74 0 -133.5 -18.333 -178.5 -55s-67.5 -79.667 -67.5 -129c0 -44 14 -81 42 -111s64.167 -53.5 108.5 -70.5s93.5 -32.333 147.5 -46s108 -30.334 162 -50.001s103.167 -43.5 147.5 -71.5s80.5 -68 108.5 -120s42 -114 42 -186c0 -126.667 -45.333 -230 -136 -310
s-216 -120 -376 -120c-65.333 0 -127.5 7.83301 -186.5 23.5s-107.5 34.334 -145.5 56.001s-71 43.5 -99 65.5s-48.333 40.333 -61 55l-20 25l143 143c2.66699 -4 7.16699 -9.83301 13.5 -17.5s20.666 -21 42.999 -40s46.5 -35.667 72.5 -50s60.5 -27.333 103.5 -39
s88.5 -17.5 136.5 -17.5c88.667 0 158.667 21.667 210 65s77 97 77 161zM420.002 -450.999l92 287h184l-133 -287h-143z" />
    <glyph glyph-name="uni0219" unicode="&#x219;" horiz-adv-x="890" 
d="M758 870l-133.002 -132.998c-5.33301 5.33301 -13.166 12.833 -23.499 22.5s-31.666 22 -63.999 37s-64.833 22.5 -97.5 22.5c-44 0 -78.833 -10.167 -104.5 -30.5s-38.5 -44.166 -38.5 -71.499c0 -28.667 12.333 -52.667 37 -72s55.667 -34 93 -44
s77.5 -22.5 120.5 -37.5s83.333 -31.833 121 -50.5s68.834 -47.334 93.501 -86.001s37 -85.334 37 -140.001c0 -84.667 -34.167 -157 -102.5 -217s-157.166 -90 -266.499 -90c-48 0 -93.833 6 -137.5 18s-79.5 26.333 -107.5 43s-52.5 33.5 -73.5 50.5
s-36.167 31.5 -45.5 43.5l-15 19l133 133c6.66699 -9.33301 16.5 -21 29.5 -35s41 -32.167 84 -54.5s87.167 -33.5 132.5 -33.5c54.667 0 95.667 11.167 123 33.5s41 52.166 41 89.499c0 28.667 -12.333 52.5 -37 71.5s-55.667 33.667 -93 44s-77.5 23 -120.5 38
s-83.333 31.667 -121 50s-68.834 47 -93.501 86s-37 85.833 -37 140.5c0 75.333 33.167 142 99.5 200s149.166 87 248.499 87c39.333 0 77.5 -4.5 114.5 -13.5s67.167 -20 90.5 -33s43.833 -26.333 61.5 -40s30.5 -24.5 38.5 -32.5zM255.998 -450.998l92 287h184l-133 -287
h-143z" />
    <glyph glyph-name="uni021A" unicode="&#x21a;" horiz-adv-x="1167" 
d="M41 1434h1085v-205h-430v-1229h-225v1229h-430v205zM399 -451l93 287h184l-133 -287h-144z" />
    <glyph glyph-name="uni021B" unicode="&#x21b;" horiz-adv-x="778" 
d="M256 1106v205h184v-328h205v-184h-205v-510c0 -36.667 11.667 -66.667 35 -90s52.666 -35 87.999 -35c15.333 0 31.5 1.66699 48.5 5s30.167 7 39.5 11l15 4v-184c-40.667 -13.333 -88.667 -20 -144 -20c-191.333 0 -286.666 102.333 -285.999 307v512h-185v184h103
c68 0 102 41 102 123zM287 -451l92 287h184l-133 -287h-143z" />
    <glyph glyph-name="uni02BC" unicode="&#x2bc;" horiz-adv-x="399" 
d="M61 1147l93 287h184l-133 -287h-144z" />
    <glyph glyph-name="circumflex" unicode="&#x2c6;" horiz-adv-x="778" 
d="M492 1434l225 -287h-185l-143 184l-143 -184h-185l226 287h205z" />
    <glyph glyph-name="caron" unicode="&#x2c7;" horiz-adv-x="778" 
d="M717 1434l-225 -287h-205l-226 287h185l143 -185l143 185h185z" />
    <glyph glyph-name="breve" unicode="&#x2d8;" horiz-adv-x="716" 
d="M358.5 1290c41 0 75.167 13.6689 102.5 41.002s41 61.666 41 102.999h153c0 -82 -28 -150.333 -84 -205s-127 -82 -213 -82s-157 27.333 -213 82s-84 123 -84 205h154c0 -40.667 13.667 -74.834 41 -102.501s61.5 -41.5 102.5 -41.5z" />
    <glyph glyph-name="dotaccent" unicode="&#x2d9;" horiz-adv-x="368" 
d="M307 1310.5c0 -35.667 -11.5 -65 -34.5 -88s-52.333 -34.5 -88 -34.5s-65.167 11.5 -88.5 34.5s-35 52.333 -35 88s11.667 65.167 35 88.5s52.833 35 88.5 35s65 -11.667 88 -35s34.5 -52.833 34.5 -88.5z" />
    <glyph glyph-name="ring" unicode="&#x2da;" horiz-adv-x="532" 
d="M471 1229c0 -56 -20.167 -104.167 -60.5 -144.5s-88.5 -60.5 -144.5 -60.5s-104.167 20.167 -144.5 60.5s-60.5 88.5 -60.5 144.5s20.167 104.167 60.5 144.5s88.5 60.5 144.5 60.5s104.167 -20.167 144.5 -60.5s60.5 -88.5 60.5 -144.5zM348 1229
c0 24.667 -8.5 46.167 -25.5 64.5s-35.667 27.5 -56 27.5s-39.166 -9.16699 -56.499 -27.5s-26 -39.833 -26 -64.5s8.66699 -46.167 26 -64.5s36.166 -27.5 56.499 -27.5s39 9.16699 56 27.5s25.5 39.833 25.5 64.5z" />
    <glyph glyph-name="ogonek" unicode="&#x2db;" horiz-adv-x="481" 
d="M154 0h133c-54.667 -68 -82 -133.667 -82 -197c0 -24.667 9.5 -45.834 28.5 -63.501s43.5 -26.5 73.5 -26.5c18 0 36.5 1.83301 55.5 5.5s33.5 7.5 43.5 11.5l14 4v-123c-48 -20.667 -99.333 -31 -154 -31c-61.333 0 -110.833 18.167 -148.5 54.5
s-56.5 83.166 -56.5 140.499c0 36.667 7.5 73.834 22.5 111.501s30.833 65.834 47.5 84.501z" />
    <glyph glyph-name="tilde" unicode="&#x2dc;" horiz-adv-x="829" 
d="M553 1167c-40.667 0 -77.5 10.333 -110.5 31s-62.833 41.167 -89.5 61.5s-52.334 30.5 -77.001 30.5c-54.667 0 -81.667 -41 -81 -123h-134c0 177.333 71.667 266.333 215 267c40.667 0 77.5 -10.333 110.5 -31s62.833 -41.167 89.5 -61.5s52.334 -30.5 77.001 -30.5
c54.667 0 82 41 82 123h133c0 -178 -71.667 -267 -215 -267z" />
    <glyph glyph-name="hungarumlaut" unicode="&#x2dd;" horiz-adv-x="849" 
d="M61 1147l154 287h215l-215 -287h-154zM420 1147l153 287h215l-215 -287h-153z" />
    <glyph glyph-name="uni0401" unicode="&#x401;" horiz-adv-x="1341" 
d="M430 205h809v-205h-1034v1434h1014v-205h-789v-379h625v-205h-625v-440zM625 1741c0 -35.333 -11.667 -64.666 -35 -87.999s-52.666 -35 -87.999 -35s-64.666 11.667 -87.999 35s-35 52.666 -35 87.999s11.667 64.666 35 87.999s52.666 35 87.999 35
s64.666 -11.667 87.999 -35s35 -52.666 35 -87.999zM1055 1741c0 -35.333 -11.667 -64.666 -35 -87.999s-52.666 -35 -87.999 -35s-64.666 11.667 -87.999 35s-35 52.666 -35 87.999s11.667 64.666 35 87.999s52.666 35 87.999 35s64.666 -11.667 87.999 -35
s35 -52.666 35 -87.999z" />
    <glyph glyph-name="uni0402" unicode="&#x402;" horiz-adv-x="1474" 
d="M922 963c135.333 0 244.168 -44.167 326.501 -132.5s123.5 -208.166 123.5 -359.499s-41.333 -271 -124 -359s-191.334 -132 -326.001 -132h-41v204c83.333 0 148.5 25 195.5 75s70.5 120.667 70.5 212s-23.5 162 -70.5 212s-112.167 75 -195.5 75
c-91.333 0 -165.5 -27 -222.5 -81s-85.5 -122.667 -85.5 -206v-471h-225v1229h-348v205h922v-205h-349v-400c9.33301 9.33301 23 21.666 41 36.999s57.167 35.333 117.5 60s123.833 37 190.5 37z" />
    <glyph glyph-name="uni0403" unicode="&#x403;" horiz-adv-x="1146" 
d="M205 0v1434h921v-205h-696v-1229h-225zM584 1618l153 287h215l-215 -287h-153z" />
    <glyph glyph-name="uni0404" unicode="&#x404;" horiz-adv-x="1556" 
d="M881 1454c72.667 0 142.325 -9.5 208.992 -28.5s121.834 -42.167 165.501 -69.5s81.834 -54.333 114.501 -81s56.667 -49.667 72 -69l22 -28l-143 -144c-4 5.33301 -9.83301 12.833 -17.5 22.5s-25.167 27.167 -52.5 52.5s-56.666 47.166 -87.999 65.499
s-72.166 35.333 -122.499 51s-103.5 23.5 -159.5 23.5c-132.667 0 -244.667 -39.167 -336 -117.5s-153.666 -179.166 -186.999 -302.499h707v-204h-707c26 -132.667 84.833 -239.334 176.5 -320.001s207.167 -121 346.5 -121c56 0 109.5 7.83301 160.5 23.5
s93.333 34.5 127 56.5s63.334 43.833 89.001 65.5s44.834 40.167 57.501 55.5l16 25l144 -144c-5.33301 -8 -13.5 -18.5 -24.5 -31.5s-35.333 -35.833 -73 -68.5s-77.667 -61.667 -120 -87s-97.666 -48.166 -165.999 -68.499s-138.5 -30.5 -210.5 -30.5
c-214.667 0 -394.667 71.333 -540 214s-218 317 -218 523s72.667 380.333 218 523s325.333 214 540 214z" />
    <glyph glyph-name="uni0405" unicode="&#x405;" horiz-adv-x="1208" 
d="M881 410c0 44 -13.998 80.834 -41.998 110.501s-64.167 53 -108.5 70s-93.5 32.333 -147.5 46s-108 30.5 -162 50.5s-103.167 44 -147.5 72s-80.5 67.833 -108.5 119.5s-42 113.834 -42 186.501c0 110.667 42.333 203.167 127 277.5s199.334 111.5 344.001 111.5
c53.333 0 104.5 -6.5 153.5 -19.5s89.667 -28.333 122 -46s60.666 -35.334 84.999 -53.001s42.166 -32.834 53.499 -45.501l16 -20l-143 -144c-2.66699 2.66699 -6.5 7.16699 -11.5 13.5s-16.333 16.333 -34 30s-36.667 26 -57 37s-47 20.833 -80 29.5s-67.833 13 -104.5 13
c-74 0 -133.5 -18.333 -178.5 -55s-67.5 -79.667 -67.5 -129c0 -44 14 -81 42 -111s64.167 -53.5 108.5 -70.5s93.5 -32.333 147.5 -46s108 -30.334 162 -50.001s103.167 -43.5 147.5 -71.5s80.5 -68 108.5 -120s42 -114 42 -186c0 -126.667 -45.333 -230 -136 -310
s-216 -120 -376 -120c-65.333 0 -127.5 7.83301 -186.5 23.5s-107.5 34.334 -145.5 56.001s-71 43.5 -99 65.5s-48.333 40.333 -61 55l-20 25l143 143c2.66699 -4 7.16699 -9.83301 13.5 -17.5s20.666 -21 42.999 -40s46.5 -35.667 72.5 -50s60.5 -27.333 103.5 -39
s88.5 -17.5 136.5 -17.5c88.667 0 158.667 21.667 210 65s77 97 77 161z" />
    <glyph glyph-name="uni0406" unicode="&#x406;" horiz-adv-x="634" 
d="M205 0v1434h225v-1434h-225z" />
    <glyph glyph-name="uni0407" unicode="&#x407;" horiz-adv-x="634" 
d="M225 1741c0 -35.333 -11.5 -64.666 -34.5 -87.999s-52.333 -35 -88 -35s-65 11.667 -88 35s-34.5 52.666 -34.5 87.999s11.5 64.666 34.5 87.999s52.333 35 88 35s65 -11.667 88 -35s34.5 -52.666 34.5 -87.999zM655 1741c0 -35.333 -11.5 -64.666 -34.5 -87.999
s-52.333 -35 -88 -35s-65 11.667 -88 35s-34.5 52.666 -34.5 87.999s11.5 64.666 34.5 87.999s52.333 35 88 35s65 -11.667 88 -35s34.5 -52.666 34.5 -87.999zM205 0v1434h225v-1434h-225z" />
    <glyph glyph-name="uni0408" unicode="&#x408;" horiz-adv-x="1044" 
d="M614 1434l225.999 -0.00195312v-1004c0 -134 -43 -242.5 -129 -325.5s-200 -124.5 -342 -124.5c-42 0 -82.667 5.33301 -122 16s-72.166 24.167 -98.499 40.5s-49.5 32.833 -69.5 49.5s-34.667 30.334 -44 41.001l-15 16l144 144c4 -8 10.833 -17.5 20.5 -28.5
s32.167 -26.167 67.5 -45.5s74.333 -29 117 -29c76.667 0 136.667 21.833 180 65.5s65 103.834 65 180.501v1004z" />
    <glyph glyph-name="uni0409" unicode="&#x409;" horiz-adv-x="2252" 
d="M1649 0h-564.001v1229h-501v-225c0 -206 -10 -378.333 -30 -517s-50.167 -244 -90.5 -316s-84.666 -121.833 -132.999 -149.5s-107.166 -41.5 -176.499 -41.5c-24.667 0 -50.667 2.66699 -78 8s-48.666 10.666 -63.999 15.999l-22 6v215c40.667 -13.333 78 -20 112 -20
c39.333 0 73.166 9.83301 101.499 29.5s55.166 56.5 80.499 110.5s44 136 56 246s18 247.667 18 413v430h953v-512h338c136.667 0 251 -44.833 343 -134.5s138 -198.667 138 -327s-46 -237.166 -138 -326.499s-206.333 -134 -343 -134zM1311 205l338 0.000976562
c72.667 0 133.5 24.5 182.5 73.5s73.5 109.667 73.5 182s-24.667 133.166 -74 182.499s-110 74 -182 74h-338v-512z" />
    <glyph glyph-name="uni040A" unicode="&#x40a;" horiz-adv-x="2263" 
d="M1659 0l-563 -0.000976562v717h-666v-717h-225v1434h225v-512h666v512h225v-512h338c136.667 0 251 -44.833 343 -134.5s138 -198.667 138 -327s-46 -237.166 -138 -326.499s-206.333 -134 -343 -134zM1321 204.999l338 0.000976562c70.667 0 131 24.5 181 73.5
s75 109.667 75 182s-25 133.166 -75 182.499s-110.333 74 -181 74h-338v-512z" />
    <glyph glyph-name="uni040B" unicode="&#x40b;" horiz-adv-x="1536" 
d="M1147 512c0 72.667 -24.332 131.834 -72.999 177.501s-113 68.5 -193 68.5c-91.333 0 -165.5 -27 -222.5 -81s-85.5 -122.667 -85.5 -206v-471h-225v1229h-348v205h922v-205h-349v-400c9.33301 9.33301 23 21.666 41 36.999s57 35.333 117 60s123.667 37 191 37
c143.333 0 254.166 -39.333 332.499 -118s117.5 -189.667 117.5 -333v-512h-225v512z" />
    <glyph glyph-name="uni040C" unicode="&#x40c;" horiz-adv-x="1423" 
d="M666 1618l153 287h215l-215 -287h-153zM430 1434v-697l645 697h287l-553 -594l594 -840h-277l-471 676l-225 -246v-430h-225v1434h225z" />
    <glyph glyph-name="uni040E" unicode="&#x40e;" horiz-adv-x="1290" 
d="M297 1434l389 -747.999l348 748h236l-512 -1086c-60 -128.667 -125.167 -222.167 -195.5 -280.5s-162.166 -87.5 -275.499 -87.5c-24.667 0 -49 2.66699 -73 8s-42 10.666 -54 15.999l-17 6v195c27.333 -13.333 68.333 -20.333 123 -21c66.667 0 119.167 13.333 157.5 40
s71.166 68 98.499 124l51 103l-512 983h236zM675.5 1761c41 0 75.167 13.6689 102.5 41.002s41 61.666 41 102.999h154c0 -82 -28 -150.333 -84 -205s-127 -82 -213 -82s-157 27.333 -213 82s-84 123 -84 205h153c0 -40.667 13.667 -74.834 41 -102.501
s61.5 -41.5 102.5 -41.5z" />
    <glyph glyph-name="uni040F" unicode="&#x40f;" horiz-adv-x="1556" 
d="M1352 1434v-1434h-461v-307h-225v307h-461v1434h225v-1229h696v1229h226z" />
    <glyph glyph-name="uni0410" unicode="&#x410;" horiz-adv-x="1495" 
d="M41 0l594 1434h225l594 -1434h-235l-154 379h-635l-154 -379h-235zM748 1178l-236 -594h471z" />
    <glyph glyph-name="uni0411" unicode="&#x411;" horiz-adv-x="1382" 
d="M430 205h369c66.667 0 122.5 22.5 167.5 67.5s67.5 101 67.5 168s-22.5 123 -67.5 168s-100.833 67.5 -167.5 67.5h-369v-471zM799 0h-594v1434h942v-205h-717v-348h369c132.667 0 242.667 -42.333 330 -127s131 -189.167 131 -313.5s-43.667 -228.833 -131 -313.5
s-197.333 -127 -330 -127z" />
    <glyph glyph-name="uni0412" unicode="&#x412;" horiz-adv-x="1402" 
d="M819 0l-613.999 -0.000976562v1434h583c116 0 215 -38.333 297 -115s123 -164.667 123 -264c0 -57.333 -11.833 -110 -35.5 -158s-47.167 -81.333 -70.5 -100l-37 -29c5.33301 -2.66699 12.833 -7.16699 22.5 -13.5s27.167 -20 52.5 -41s47.166 -44.167 65.499 -69.5
s35.333 -58.166 51 -98.499s23.5 -82.166 23.5 -125.499c0 -114.667 -44 -213.334 -132 -296.001s-197.667 -124 -329 -124zM430.001 194.999h389c66.667 0 122.667 22.5 168 67.5s68 100.833 68 167.5s-22.5 122.667 -67.5 168s-101.167 68 -168.5 68h-389v-471z
M788.001 1239h-358v-389h358c56 0 102.5 18.5 139.5 55.5s55.5 83.333 55.5 139s-18.5 102 -55.5 139s-83.5 55.5 -139.5 55.5z" />
    <glyph glyph-name="uni0413" unicode="&#x413;" horiz-adv-x="1146" 
d="M205 0v1434h921v-205h-696v-1229h-225z" />
    <glyph glyph-name="uni0414" unicode="&#x414;" horiz-adv-x="1495" 
d="M0 205h82c6.66699 5.33301 15.5 14.5 26.5 27.5s30.5 42.667 58.5 89s52.833 97.166 74.5 152.499s41.5 130.833 59.5 226.5s27 196.834 27 303.501v430h932v-1229h174v-512h-226v307h-983v-307h-225v512zM553 1004c0 -106.667 -8.5 -207.167 -25.5 -301.5
s-37.5 -170.5 -61.5 -228.5s-48 -108.5 -72 -151.5s-44.667 -73.5 -62 -91.5l-25 -26h727v1024h-481v-225z" />
    <glyph glyph-name="uni0415" unicode="&#x415;" horiz-adv-x="1341" 
d="M430 205h809v-205h-1034v1434h1014v-205h-789v-379h625v-205h-625v-440z" />
    <glyph glyph-name="uni0416" unicode="&#x416;" horiz-adv-x="2048" 
d="M911 0v522l-143 154l-471 -676h-277l594 840l-553 594h287l563 -605v605h226v-605l563 605h287l-553 -594l594 -840h-277l-471 676l-143 -154v-522h-226z" />
    <glyph glyph-name="uni0417" unicode="&#x417;" horiz-adv-x="1290" 
d="M901 758c6.66699 -2.66699 16.167 -6.49609 28.5 -11.4961s33.833 -16.667 64.5 -35s57.667 -39.5 81 -63.5s44.5 -57.5 63.5 -100.5s28.5 -88.833 28.5 -137.5c0 -118.667 -50.167 -220 -150.5 -304s-234.5 -126 -402.5 -126c-68 0 -133.667 8.16699 -197 24.5
s-115.5 35.666 -156.5 57.999s-77.333 45.166 -109 68.499s-54.834 43 -69.501 59l-21 25l144 143c4 -4 10.167 -10 18.5 -18s25.666 -22 51.999 -42s54.166 -37.833 83.499 -53.5s67.333 -29.667 114 -42s93.667 -18.5 141 -18.5c102.667 0 183 23 241 69
s87 101.667 87 167s-29 120.833 -87 166.5s-138.333 68.5 -241 68.5h-174v205h174c83.333 0 148.666 19.167 195.999 57.5s71 84.833 71 139.5c0 53.333 -23.667 98.666 -71 135.999s-112.666 56 -195.999 56c-60 0 -119 -13 -177 -39s-101.333 -51 -130 -75l-41 -39
l-143 143c4 5.33301 10.833 12.833 20.5 22.5s30.167 27.167 61.5 52.5s64.333 47.166 99 65.499s80.334 35.333 137.001 51s114.334 23.5 173.001 23.5c152.667 0 272.834 -36.167 360.501 -108.5s131.5 -162.5 131.5 -270.5c0 -44 -7.16699 -85 -21.5 -123
s-31.333 -68.333 -51 -91s-39.5 -42.167 -59.5 -58.5s-37.333 -27.833 -52 -34.5z" />
    <glyph glyph-name="uni0418" unicode="&#x418;" horiz-adv-x="1628" 
d="M1423 0h-225v1034l-799 -1034h-194v1434h225v-1035l799 1035h194v-1434z" />
    <glyph glyph-name="uni0419" unicode="&#x419;" horiz-adv-x="1628" 
d="M1423 0h-225v1034l-799 -1034h-194v1434h225v-1035l799 1035h194v-1434zM819.5 1761c41 0 75.167 13.6689 102.5 41.002s41 61.666 41 102.999h153c0 -82 -28 -150.333 -84 -205s-127 -82 -213 -82s-157 27.333 -213 82s-84 123 -84 205h154
c0 -40.667 13.667 -74.834 41 -102.501s61.5 -41.5 102.5 -41.5z" />
    <glyph glyph-name="uni041A" unicode="&#x41a;" horiz-adv-x="1423" 
d="M430 1434v-697l645 697h287l-553 -594l594 -840h-277l-471 676l-225 -246v-430h-225v1434h225z" />
    <glyph glyph-name="uni041B" unicode="&#x41b;" horiz-adv-x="1536" 
d="M1331 1434l-0.000976562 -1434h-225v1229h-522v-225c0 -206 -10 -378.333 -30 -517s-50.167 -244 -90.5 -316s-84.666 -121.833 -132.999 -149.5s-107.166 -41.5 -176.499 -41.5c-24.667 0 -50.667 2.66699 -78 8s-48.666 10.666 -63.999 15.999l-22 6v215
c40.667 -13.333 78 -20 112 -20c39.333 0 73.166 9.83301 101.499 29.5s55.166 56.5 80.499 110.5s44 136 56 246s18 247.667 18 413v430h973z" />
    <glyph glyph-name="uni041C" unicode="&#x41c;" horiz-adv-x="1904" 
d="M952 737l553 697h195v-1434h-225v1044l-523 -655l-522 655v-1044h-225v1434h194z" />
    <glyph glyph-name="uni041D" unicode="&#x41d;" horiz-adv-x="1566" 
d="M1362 1434v-1434h-225v625h-707v-625h-225v1434h225v-605h707v605h225z" />
    <glyph glyph-name="uni041E" unicode="&#x41e;" horiz-adv-x="1761" 
d="M348 717c0 -148.667 51.5 -274.667 154.5 -378s229 -155 378 -155s275 51.667 378 155s154.5 229.333 154.5 378s-51.5 274.5 -154.5 377.5s-229 154.5 -378 154.5s-275 -51.5 -378 -154.5s-154.5 -228.833 -154.5 -377.5zM123 717c0 206 72.667 380.333 218 523
s325.166 214 539.499 214s394.166 -71.333 539.499 -214s218 -317 218 -523s-72.667 -380.333 -218 -523s-325.166 -214 -539.499 -214s-394.166 71.333 -539.499 214s-218 317 -218 523z" />
    <glyph glyph-name="uni041F" unicode="&#x41f;" horiz-adv-x="1566" 
d="M1362 1434v-1434h-225v1229h-707v-1229h-225v1434h1157z" />
    <glyph glyph-name="uni0420" unicode="&#x420;" horiz-adv-x="1382" 
d="M205 1434l573 -0.000976562c136.667 0 251.167 -44.833 343.5 -134.5s138.5 -198.667 138.5 -327s-46.167 -237.166 -138.5 -326.499s-206.833 -134 -343.5 -134h-348v-512h-225v1434zM778 1229l-348 0.000976562v-512h348c70.667 0 131 24.5 181 73.5s75 109.667 75 182
s-25 133.166 -75 182.499s-110.333 74 -181 74z" />
    <glyph glyph-name="uni0421" unicode="&#x421;" horiz-adv-x="1556" 
d="M881 1454c72.667 0 142.326 -9.5 208.993 -28.5s121.834 -42.167 165.501 -69.5s81.834 -54.333 114.501 -81s56.667 -49.667 72 -69l22 -28l-143 -144c-4 5.33301 -9.83301 12.833 -17.5 22.5s-25.167 27.167 -52.5 52.5s-56.666 47.166 -87.999 65.499
s-72.166 35.333 -122.499 51s-103.5 23.5 -159.5 23.5c-148.667 0 -274.667 -51.5 -378 -154.5s-155 -228.833 -155 -377.5s51.5 -274.667 154.5 -378s229.167 -155 378.5 -155c56 0 109.5 7.83301 160.5 23.5s93.333 34.5 127 56.5s63.334 43.833 89.001 65.5
s44.834 40.167 57.501 55.5l16 25l144 -144c-5.33301 -8 -13.5 -18.5 -24.5 -31.5s-35.333 -35.833 -73 -68.5s-77.667 -61.667 -120 -87s-97.666 -48.166 -165.999 -68.499s-138.5 -30.5 -210.5 -30.5c-214.667 0 -394.667 71.333 -540 214s-218 317 -218 523
s72.667 380.333 218 523s325.333 214 540 214z" />
    <glyph glyph-name="uni0422" unicode="&#x422;" horiz-adv-x="1167" 
d="M41 1434h1085v-205h-430v-1229h-225v1229h-430v205z" />
    <glyph glyph-name="uni0423" unicode="&#x423;" horiz-adv-x="1290" 
d="M297 1434l389 -747.999l348 748h236l-512 -1086c-60 -128.667 -125.167 -222.167 -195.5 -280.5s-162.166 -87.5 -275.499 -87.5c-24.667 0 -49 2.66699 -73 8s-42 10.666 -54 15.999l-17 6v195c27.333 -13.333 68.333 -20.333 123 -21c66.667 0 119.167 13.333 157.5 40
s71.166 68 98.499 124l51 103l-512 983h236z" />
    <glyph glyph-name="uni0424" unicode="&#x424;" horiz-adv-x="1740" 
d="M1638 737.5c0 -162.333 -60 -298.833 -180 -409.5s-278.333 -168.667 -475 -174v-195h-225v195c-196.667 5.33301 -355.167 63.333 -475.5 174s-180.5 247.167 -180.5 409.5s60.167 298.833 180.5 409.5s278.833 168.667 475.5 174v154h225v-154
c196.667 -5.33301 355 -63.333 475 -174s180 -247.167 180 -409.5zM1413 737c0 114.667 -37.5 206.832 -112.5 276.499s-180.833 107.167 -317.5 112.5v-778c136.667 5.33301 242.5 42.833 317.5 112.5s112.5 161.834 112.5 276.501zM328 736.998
c0 -114.667 37.5 -206.832 112.5 -276.499s180.833 -107.167 317.5 -112.5v778c-136.667 -5.33301 -242.5 -42.833 -317.5 -112.5s-112.5 -161.834 -112.5 -276.501z" />
    <glyph glyph-name="uni0425" unicode="&#x425;" horiz-adv-x="1413" 
d="M707 932l358 502h266l-491 -686l532 -748h-266l-399 563l-400 -563h-266l532 748l-491 686h266z" />
    <glyph glyph-name="uni0426" unicode="&#x426;" horiz-adv-x="1576" 
d="M205 0v1434h225v-1229h686v1229h225v-1229h175v-512h-226v307h-1085z" />
    <glyph glyph-name="uni0427" unicode="&#x427;" horiz-adv-x="1474" 
d="M410 1434v-429.999c0 -102.667 26.5 -181.334 79.5 -236.001s128.833 -82 227.5 -82c60 0 117.333 11.333 172 34s94.334 44.667 119.001 66l36 33v615h226v-1434h-226v584c-10.667 -8 -25.834 -17.5 -45.501 -28.5s-61.667 -26.167 -126 -45.5s-129.833 -29 -196.5 -29
c-154 0 -274.5 45.167 -361.5 135.5s-130.5 219.5 -130.5 387.5v430h226z" />
    <glyph glyph-name="uni0428" unicode="&#x428;" horiz-adv-x="2129" 
d="M1925 1434v-1434h-1720v1434h225v-1229h522v1229h226v-1229h522v1229h225z" />
    <glyph glyph-name="uni0429" unicode="&#x429;" horiz-adv-x="2160" 
d="M1925 1434v-1229h174v-512h-225v307h-1669v1434h225v-1229h522v1229h226v-1229h522v1229h225z" />
    <glyph glyph-name="uni042A" unicode="&#x42a;" horiz-adv-x="1525" 
d="M922 0l-574 -0.000976562v1229h-348v205h573v-512h349c136.667 0 251 -44.833 343 -134.5s138 -198.667 138 -327s-46 -237.166 -138 -326.499s-206.333 -134 -343 -134zM573 204.999l349 0.000976562c70.667 0 131 24.5 181 73.5s75 109.667 75 182
s-25 133.166 -75 182.499s-110.333 74 -181 74h-349v-512z" />
    <glyph glyph-name="uni042B" unicode="&#x42b;" horiz-adv-x="1853" 
d="M1649 1434v-1434h-226v1434h226zM758 0l-553 -0.000976562v1434h225v-512h328c136.667 0 251 -44.833 343 -134.5s138 -198.667 138 -327s-46 -237.166 -138 -326.499s-206.333 -134 -343 -134zM430 204.999l328 0.000976562c70.667 0 131 24.5 181 73.5
s75 109.667 75 182s-25 133.166 -75 182.499s-110.333 74 -181 74h-328v-512z" />
    <glyph glyph-name="uni042C" unicode="&#x42c;" horiz-adv-x="1382" 
d="M778 0l-573 -0.000976562v1434h225v-512h348c136.667 0 251.167 -44.833 343.5 -134.5s138.5 -198.667 138.5 -327s-46.167 -237.166 -138.5 -326.499s-206.833 -134 -343.5 -134zM430 204.999l348 0.000976562c70.667 0 131 24.5 181 73.5s75 109.667 75 182
s-24.833 133.166 -74.5 182.499s-110.167 74 -181.5 74h-348v-512z" />
    <glyph glyph-name="uni042D" unicode="&#x42d;" horiz-adv-x="1556" 
d="M676 1454c214.667 0 394.674 -71.3379 540.007 -214.005s218 -317 218 -523s-72.833 -380.333 -218.5 -523s-325.5 -214 -539.5 -214c-72.667 0 -142.667 9.83301 -210 29.5s-123.333 43.5 -168 71.5s-84 56 -118 84s-58.667 52.333 -74 73l-24 28l143 144
c4 -5.33301 10.167 -13.166 18.5 -23.499s26.5 -28.5 54.5 -54.5s58 -49 90 -69s74 -38.167 126 -54.5s106 -24.5 162 -24.5c139.333 0 254.666 40.333 345.999 121s150 187.334 176 320.001h-706v204h706c-32.667 122.667 -94.834 223.334 -186.501 302.001
s-203.5 118 -335.5 118c-56 0 -109.333 -7.5 -160 -22.5s-92.334 -32.667 -125.001 -53s-61.334 -41.166 -86.001 -62.499s-42.334 -39.333 -53.001 -54l-16 -23l-144 144c5.33301 6.66699 13.166 16.5 23.499 29.5s33.666 35.167 69.999 66.5s75.333 59.333 117 84
s96.167 46.834 163.5 66.501s137.333 29.5 210 29.5z" />
    <glyph glyph-name="uni042E" unicode="&#x42e;" horiz-adv-x="2211" 
d="M2089 717c0 -203.333 -70.667 -376.999 -212 -520.999s-309.666 -216 -504.999 -216c-181.333 0 -337.833 61.667 -469.5 185s-210.5 276.666 -236.5 459.999h-236v-625h-225v1434h225v-605h236c26 173.333 105.167 320.833 237.5 442.5s288.5 182.5 468.5 182.5
c195.333 0 363.666 -72 504.999 -216s212 -317.667 212 -521zM1864 716.501c0 151.667 -48.167 278.334 -144.5 380.001s-212.166 152.5 -347.499 152.5s-251 -50.833 -347 -152.5s-144 -228.334 -144 -380.001s48 -278.334 144 -380.001s211.667 -152.5 347 -152.5
s251.166 50.833 347.499 152.5s144.5 228.334 144.5 380.001z" />
    <glyph glyph-name="uni042F" unicode="&#x42f;" horiz-adv-x="1413" 
d="M1208 1434v-1434h-225v553h-328l-307 -553h-246l328 573c-8 2.66699 -18.5 7.16699 -31.5 13.5s-35.833 21.166 -68.5 44.499s-61.667 49.333 -87 78s-48.333 68.5 -69 119.5s-31 105.833 -31 164.5c0 124 43.833 228.5 131.5 313.5s197.5 127.5 329.5 127.5h604z
M369 993.501c0 -67 22.5 -123 67.5 -168s100.833 -67.5 167.5 -67.5h379v471h-379c-66.667 0 -122.5 -22.5 -167.5 -67.5s-67.5 -101 -67.5 -168z" />
    <glyph glyph-name="uni0430" unicode="&#x430;" horiz-adv-x="1075" 
d="M922 0l-204.999 -0.000976562v102c-2.66699 -2.66699 -7.16699 -7 -13.5 -13s-19 -15.833 -38 -29.5s-39.5 -26 -61.5 -37s-49.667 -20.833 -83 -29.5s-67 -13 -101 -13c-100 0 -183 29 -249 87s-99 124.333 -99 199c0 80.667 25.5 148.334 76.5 203.001
s120.833 89.334 209.5 104.001l359 62c0 52 -19.167 95.667 -57.5 131s-87.5 53 -147.5 53c-52 0 -99.167 -10.833 -141.5 -32.5s-71.5 -43.5 -87.5 -65.5l-27 -35l-133 133c4 5.33301 9.5 12.166 16.5 20.499s22.667 23 47 44s50.166 39.833 77.499 56.5
s63.5 31.5 108.5 44.5s91.5 19.5 139.5 19.5c120 0 218.333 -35.5 295 -106.5s115 -158.5 115 -262.5v-635zM451.001 163.999c83.333 0 148.501 24.833 195.501 74.5s70.5 120.5 70.5 212.5v20l-318 -51c-36.667 -6.66699 -66.334 -21.667 -89.001 -45
s-34 -52.666 -34 -87.999c0 -32.667 15.833 -61.334 47.5 -86.001s74.167 -37 127.5 -37z" />
    <glyph glyph-name="uni0431" unicode="&#x431;" horiz-adv-x="1228" 
d="M1116 481c0 -138 -48.501 -256 -145.501 -354s-212.167 -147 -345.5 -147c-154 0 -277.833 55.167 -371.5 165.5s-140.5 270.166 -140.5 479.499c0 238.667 44.333 417.667 133 537s215 192.666 379 219.999c72.667 12 137.834 27.333 195.501 46
s97.5 34.334 119.5 47.001l33 20l92 -154c-4 -5.33301 -12.167 -13 -24.5 -23s-54 -28 -125 -54s-161.167 -48 -270.5 -66c-94 -15.333 -169.667 -54.333 -227 -117s-91 -146.667 -101 -252c2.66699 4 7.5 9.5 14.5 16.5s21.167 19.333 42.5 37s43.833 33.334 67.5 47.001
s54 26 91 37s74.5 16.5 112.5 16.5c124 0 233.5 -49.5 328.5 -148.5s142.5 -216.833 142.5 -353.5zM337.999 481c0 -90 28.333 -165.333 85 -226s123.834 -91 201.501 -91s144.834 30.333 201.501 91s85 136 85 226s-28.333 165.5 -85 226.5s-123.834 91.5 -201.501 91.5
s-144.834 -30.5 -201.501 -91.5s-85 -136.5 -85 -226.5z" />
    <glyph glyph-name="uni0432" unicode="&#x432;" horiz-adv-x="1054" 
d="M133 983l471.001 -0.00195312c94 0 168.667 -24.167 224 -72.5s83 -109.5 83 -183.5c0 -42 -9.16699 -80.167 -27.5 -114.5s-37.166 -58.166 -56.499 -71.499l-28 -19c4 -1.33301 9.66699 -3.66602 17 -6.99902s20.666 -11.833 39.999 -25.5s36.166 -28.667 50.499 -45
s27.333 -38.5 39 -66.5s17.5 -58.333 17.5 -91c0 -84.667 -30.167 -153.667 -90.5 -207s-142.833 -80 -247.5 -80h-492v983zM625.001 439.998h-287v-266h287c40.667 0 73 12 97 36s36 56.333 36 97c0 36.667 -12.333 68 -37 94s-56.667 39 -96 39zM707.001 706.498
c0 31.667 -9.33301 56.667 -28 75s-43.667 27.5 -75 27.5h-266v-205h266c31.333 0 56.333 9.16699 75 27.5s28 43.333 28 75z" />
    <glyph glyph-name="uni0433" unicode="&#x433;" horiz-adv-x="849" 
d="M819 983v-184h-481v-799h-205v983h686z" />
    <glyph glyph-name="uni0434" unicode="&#x434;" horiz-adv-x="1157" 
d="M-10 184l71 0.00292969c4 4 9.83301 10.5 17.5 19.5s21 29.167 40 60.5s35.667 65.166 50 101.499s27.333 84.166 39 143.499s17.5 121.666 17.5 186.999v287h717v-799h143v-430h-204v246h-686v-246h-205v430zM430 799.003l-0.000976562 -103
c0 -65.333 -5.5 -127.333 -16.5 -186s-24.667 -107.167 -41 -145.5s-32.666 -71.5 -48.999 -99.5s-29.833 -48 -40.5 -60l-17 -21h471v615h-307z" />
    <glyph glyph-name="uni0435" unicode="&#x435;" horiz-adv-x="1146" 
d="M1044 420l-768.004 0.000976562c10.667 -69.333 44.834 -129.333 102.501 -180s126.167 -76 205.5 -76c57.333 0 110.833 13 160.5 39s84.834 51.333 105.501 76l31 38l133 -133c-4 -5.33301 -10.167 -12.833 -18.5 -22.5s-26.166 -26 -53.499 -49
s-56.333 -43.333 -87 -61s-70.5 -34 -119.5 -49s-99.5 -22.5 -151.5 -22.5c-139.333 0 -259.5 51.167 -360.5 153.5s-151.5 225.166 -151.5 368.499c0 138 49.167 256.167 147.5 354.5s216.333 147.5 354 147.5s252.334 -45.833 344.001 -137.5s137.5 -206.5 137.5 -344.5z
M572.996 829.001c-74 0 -136.168 -21.833 -186.501 -65.5s-84.166 -100.167 -101.499 -169.5h569c-12 69.333 -43 125.833 -93 169.5s-112.667 65.5 -188 65.5z" />
    <glyph glyph-name="uni0436" unicode="&#x436;" horiz-adv-x="1556" 
d="M870 584l379 399h246l-379 -410l410 -573h-226l-317 440l-113 -123v-317h-204v317l-113 123l-317 -440h-226l410 573l-379 410h246l379 -399v399h204v-399z" />
    <glyph glyph-name="uni0437" unicode="&#x437;" horiz-adv-x="921" 
d="M788 727c0 -45.333 -12.501 -85.002 -37.501 -119.002s-50.5 -56.333 -76.5 -67l-39 -19c5.33301 -1.33301 12.5 -3.66602 21.5 -6.99902s24.333 -11.166 46 -23.499s41 -27 58 -44s32.667 -40.5 47 -70.5s21.5 -63.667 21.5 -101c0 -82 -36.5 -151.833 -109.5 -209.5
s-172.833 -86.5 -299.5 -86.5c-48 0 -94.167 6 -138.5 18s-81.166 26.333 -110.499 43s-55 33.5 -77 50.5s-38.333 31.5 -49 43.5l-14 19l133 133c8 -9.33301 18.833 -21 32.5 -35s43 -32.167 88 -54.5s90.167 -33.5 135.5 -33.5c68 0 119.167 12.667 153.5 38
s51.5 57 51.5 95s-17.167 69.667 -51.5 95s-85.5 38 -153.5 38h-113v164h113c53.333 0 94 10.5 122 31.5s42 48 42 81s-14 60 -42 81s-68.667 31.5 -122 31.5c-39.333 0 -77.833 -7.5 -115.5 -22.5s-65.5 -30.5 -83.5 -46.5l-26 -23l-134 133c9.33301 10.667 23 24 41 40
s58 37.333 120 64s128 40 198 40c113.333 0 203 -27.333 269 -82s99 -119.667 99 -195z" />
    <glyph glyph-name="uni0438" unicode="&#x438;" 
d="M850 983h184v-983h-205v645l-512 -645h-184v983h205v-645z" />
    <glyph glyph-name="uni0439" unicode="&#x439;" 
d="M850 983h184v-983h-205v645l-512 -645h-184v983h205v-645zM583.5 1290c41 0 75.167 13.6689 102.5 41.002s41 61.666 41 102.999h154c0 -82 -28 -150.333 -84 -205s-127 -82 -213 -82s-157 27.333 -213 82s-84 123 -84 205h153c0 -40.667 13.667 -74.834 41 -102.501
s61.5 -41.5 102.5 -41.5z" />
    <glyph glyph-name="uni043A" unicode="&#x43a;" horiz-adv-x="1064" 
d="M1004 983l-379 -410l409 -573h-225l-317 440l-154 -164v-276h-205v983h205v-440l420 440h246z" />
    <glyph glyph-name="uni043B" unicode="&#x43b;" horiz-adv-x="1157" 
d="M246 983l757.999 -0.00195312v-983h-205v799h-348v-103c0 -187.333 -14.833 -335.166 -44.5 -443.499s-67.667 -180.833 -114 -217.5s-106.166 -55 -179.499 -55c-18 0 -37.167 1.66699 -57.5 5s-36.166 7 -47.499 11l-18 4v195c27.333 -6.66699 51 -10.334 71 -11.001
c42 0 75.167 11.333 99.5 34s44.666 72.834 60.999 150.501s24.5 186.834 24.5 327.501v287z" />
    <glyph glyph-name="uni043C" unicode="&#x43c;" horiz-adv-x="1331" 
d="M655 553l359 430h164v-983h-205v645l-318 -379l-317 379v-645h-205v983h164z" />
    <glyph glyph-name="uni043D" unicode="&#x43d;" horiz-adv-x="1177" 
d="M338 410v-410h-205v983h205v-389h481v389h205v-983h-205v410h-481z" />
    <glyph glyph-name="uni043E" unicode="&#x43e;" 
d="M891 491.5c0 91.667 -30.333 169.167 -91 232.5s-132.667 95 -216 95s-155.5 -31.667 -216.5 -95s-91.5 -140.833 -91.5 -232.5s30.5 -169.167 91.5 -232.5s133.167 -95 216.5 -95s155.333 31.667 216 95s91 140.833 91 232.5zM72 491.5
c0 137.667 50.833 257.5 152.5 359.5s221.5 153 359.5 153s257.833 -51 359.5 -153s152.5 -221.833 152.5 -359.5s-50.833 -257.334 -152.5 -359.001s-221.5 -152.5 -359.5 -152.5s-257.833 50.833 -359.5 152.5s-152.5 221.334 -152.5 359.001z" />
    <glyph glyph-name="uni043F" unicode="&#x43f;" horiz-adv-x="1177" 
d="M338 799v-799h-205v983h891v-983h-205v799h-481z" />
    <glyph glyph-name="uni0440" unicode="&#x440;" horiz-adv-x="1228" 
d="M655 -20c-36.667 0 -72.3311 4.33398 -106.998 13.001s-64.334 19.5 -89.001 32.5s-46.5 26.333 -65.5 40s-32.833 24.5 -41.5 32.5l-14 15v-543h-205v1413h205v-113c9.33301 9.33301 22.5 21.666 39.5 36.999s53.167 35.333 108.5 60s111.666 37 168.999 37
c130 0 242.833 -49.833 338.5 -149.5s143.5 -220.5 143.5 -362.5s-47.833 -262.833 -143.5 -362.5s-208.5 -149.5 -338.5 -149.5zM635.003 819.001c-78 0 -147 -32 -207 -96s-90 -141.167 -90 -231.5s30 -167.5 90 -231.5s129 -96 207 -96s147 32 207 96
s90 141.167 90 231.5s-30 167.5 -90 231.5s-129 96 -207 96z" />
    <glyph glyph-name="uni0441" unicode="&#x441;" horiz-adv-x="1064" 
d="M72 491.5c0 137.667 50.835 257.497 152.502 359.497s221.5 153 359.5 153c76.667 0 148 -16.5 214 -49.5s113.333 -65.833 142 -98.5l43 -47l-133 -133c-6.66699 10.667 -16.834 23.834 -30.501 39.501s-43.334 36.834 -89.001 63.501s-94.5 40 -146.5 40
c-83.333 0 -155.5 -31.667 -216.5 -95s-91.5 -140.833 -91.5 -232.5s30.5 -169.167 91.5 -232.5s133.167 -95 216.5 -95c52 0 100.833 13 146.5 39s78.5 51.333 98.5 76l31 38l133 -133c-4 -5.33301 -10 -12.833 -18 -22.5s-25.333 -26 -52 -49s-54.667 -43.333 -84 -61
s-67.333 -34 -114 -49s-93.667 -22.5 -141 -22.5c-138 0 -257.833 50.833 -359.5 152.5s-152.5 221.334 -152.5 359.001z" />
    <glyph glyph-name="uni0442" unicode="&#x442;" horiz-adv-x="962" 
d="M31 799v184h880v-184h-338v-799h-204v799h-338z" />
    <glyph glyph-name="uni0443" unicode="&#x443;" horiz-adv-x="1044" 
d="M369 -102l41.002 102l-400 983h215l287 -717l287 717h215l-441 -1085c-50.667 -121.333 -100.834 -206.333 -150.501 -255s-111.834 -73 -186.501 -73c-27.333 0 -53 1.66699 -77 5s-41.667 7 -53 11l-14 4v185c34 -13.333 68.333 -20.333 103 -21
c78 0.666992 136 48.667 174 144z" />
    <glyph glyph-name="uni0444" unicode="&#x444;" horiz-adv-x="1515" 
d="M645 -430v410c-170.667 0 -308.834 48.667 -414.501 146s-158.5 219.166 -158.5 365.499s52.833 268.333 158.5 366s243.834 146.5 414.501 146.5v430h205v-430c170.667 0 308.834 -48.833 414.501 -146.5s158.5 -219.667 158.5 -366s-52.833 -268.166 -158.5 -365.499
s-243.834 -146 -414.501 -146v-410h-205zM645 164v655c-116 0 -206.5 -29.667 -271.5 -89s-97.5 -138.833 -97.5 -238.5s32.5 -179.167 97.5 -238.5s155.5 -89 271.5 -89zM850 819v-655c116 0 206.5 29.667 271.5 89s97.5 138.833 97.5 238.5s-32.5 179.167 -97.5 238.5
s-155.5 89 -271.5 89z" />
    <glyph glyph-name="uni0445" unicode="&#x445;" horiz-adv-x="1024" 
d="M625 512l368 -512h-235l-256 358l-256 -358h-236l369 512l-338 471h235l226 -317l225 317h236z" />
    <glyph glyph-name="uni0446" unicode="&#x446;" horiz-adv-x="1218" 
d="M133 0v983h205v-799h461v799h205v-799h143v-430h-205v246h-809z" />
    <glyph glyph-name="uni0447" unicode="&#x447;" horiz-adv-x="1105" 
d="M748 0l-0.000976562 368.999c-68 -48 -150 -72 -246 -72c-118.667 0 -213.167 35.833 -283.5 107.5s-105.5 168.834 -105.5 291.501v287h204v-287c0 -61.333 19.833 -112.5 59.5 -153.5s88.167 -61.5 145.5 -61.5c42 0 81.833 6.83301 119.5 20.5
s64.834 27.5 81.501 41.5l25 20v420h204v-983h-204z" />
    <glyph glyph-name="uni0448" unicode="&#x448;" horiz-adv-x="1617" 
d="M133 0v983h205v-799h358v799h205v-799h359v799h204v-983h-1331z" />
    <glyph glyph-name="uni0449" unicode="&#x449;" horiz-adv-x="1679" 
d="M133 0v983h205v-799h358v799h205v-799h359v799h204v-799h144v-430h-205v246h-1270z" />
    <glyph glyph-name="uni044A" unicode="&#x44a;" horiz-adv-x="1116" 
d="M1024 337.5c0 -98.333 -33.833 -179.167 -101.5 -242.5s-156.834 -95 -267.501 -95h-419v799h-246v184h450v-307h215c110.667 0 199.834 -31.833 267.501 -95.5s101.5 -144.667 101.5 -243zM440 173.999h215c46.667 0 85.667 15.667 117 47s47 70.333 47 117
s-15.667 85.667 -47 117s-70.333 47 -117 47h-215v-328z" />
    <glyph glyph-name="uni044B" unicode="&#x44b;" horiz-adv-x="1423" 
d="M338 174h215c46.667 0 85.667 15.667 117 47s47 70.333 47 117s-15.667 85.667 -47 117s-70.333 47 -117 47h-215v-328zM922 337.5c0 -98.333 -33.833 -179.167 -101.5 -242.5s-156.834 -95 -267.501 -95h-420v983h205v-307h215c110.667 0 199.834 -31.833 267.501 -95.5
s101.5 -144.667 101.5 -243zM1270 982.999v-983h-205v983h205z" />
    <glyph glyph-name="uni044C" unicode="&#x44c;" horiz-adv-x="1024" 
d="M338 174h225c46.667 0 85.667 15.667 117 47s47 70.333 47 117s-15.667 85.667 -47 117s-70.333 47 -117 47h-225v-328zM932 337.5c0 -98.333 -33.833 -179.167 -101.5 -242.5s-156.834 -95 -267.501 -95h-430v983h205v-307h225c110.667 0 199.834 -31.833 267.501 -95.5
s101.5 -144.667 101.5 -243z" />
    <glyph glyph-name="uni044D" unicode="&#x44d;" horiz-adv-x="1064" 
d="M973 491.5c0 -137.667 -50.8398 -257.33 -152.507 -358.997s-221.5 -152.5 -359.5 -152.5c-48 0 -94.833 7.16699 -140.5 21.5s-83.834 31.333 -114.501 51s-58.334 39.334 -83.001 59.001s-42.334 37.167 -53.001 52.5l-19 20l133 133
c2.66699 -4 6.83398 -9.33301 12.501 -16s17.334 -18.834 35.001 -36.501s36.334 -33.334 56.001 -47.001s45.334 -26 77.001 -37s63.834 -16.5 96.501 -16.5c46.667 0 88.334 8.83301 125.001 26.5s65.167 38.834 85.5 63.501s37.333 49.667 51 75
s22.834 46.666 27.501 63.999l8 27h-451v174h441c-1.33301 5.33301 -4.16602 13.166 -8.49902 23.499s-14 28.5 -29 54.5s-32 48.833 -51 68.5s-46.333 37.667 -82 54s-74.5 24.5 -116.5 24.5c-52 0 -100.167 -11.833 -144.5 -35.5s-76.166 -47.167 -95.499 -70.5l-26 -37
l-134 133c4 5.33301 9.83301 12.5 17.5 21.5s24.167 24.333 49.5 46s52.333 41.167 81 58.5s65.834 33.166 111.501 47.499s92.5 21.5 140.5 21.5c138 0 257.833 -51 359.5 -153s152.5 -221.833 152.5 -359.5z" />
    <glyph glyph-name="uni044E" unicode="&#x44e;" horiz-adv-x="1638" 
d="M1546 491.5c0 -137.667 -50.833 -257.333 -152.5 -359s-221.5 -152.5 -359.5 -152.5c-130 0 -242 42.667 -336 128s-149.333 186 -166 302h-194v-410h-205v983h205v-389h194c22 108 80.5 203.333 175.5 286s203.833 124 326.5 124c138 0 257.833 -51 359.5 -153
s152.5 -221.833 152.5 -359.5zM1341 491.501c0 91.667 -30.333 169.167 -91 232.5s-132.667 95 -216 95s-155.333 -31.667 -216 -95s-91 -140.833 -91 -232.5s30.333 -169.167 91 -232.5s132.667 -95 216 -95s155.333 31.667 216 95s91 140.833 91 232.5z" />
    <glyph glyph-name="uni044F" unicode="&#x44f;" horiz-adv-x="1064" 
d="M461 983l449.999 0.000976562v-983h-204v307h-215l-195 -307h-225l215 338c-5.33301 1.33301 -12.5 4.33301 -21.5 9s-24.5 15.167 -46.5 31.5s-41.5 35.166 -58.5 56.499s-32.667 50.833 -47 88.5s-21.5 78.167 -21.5 121.5c0 98 33.833 178.833 101.5 242.5
s156.834 95.5 267.501 95.5zM706.999 809.001h-246c-46.667 0 -85.667 -15.667 -117 -47s-47 -70.333 -47 -117s15.667 -85.667 47 -117s70.333 -47 117 -47h246v328z" />
    <glyph glyph-name="uni0451" unicode="&#x451;" horiz-adv-x="1146" 
d="M1044 420l-768.004 0.000976562c10.667 -69.333 44.834 -129.333 102.501 -180s126.167 -76 205.5 -76c57.333 0 110.833 13 160.5 39s84.834 51.333 105.501 76l31 38l133 -133c-4 -5.33301 -10.167 -12.833 -18.5 -22.5s-26.166 -26 -53.499 -49
s-56.333 -43.333 -87 -61s-70.5 -34 -119.5 -49s-99.5 -22.5 -151.5 -22.5c-139.333 0 -259.5 51.167 -360.5 153.5s-151.5 225.166 -151.5 368.499c0 138 49.167 256.167 147.5 354.5s216.333 147.5 354 147.5s252.334 -45.833 344.001 -137.5s137.5 -206.5 137.5 -344.5z
M572.996 829.001c-74 0 -136.168 -21.833 -186.501 -65.5s-84.166 -100.167 -101.499 -169.5h569c-12 69.333 -43 125.833 -93 169.5s-112.667 65.5 -188 65.5zM480.995 1290c0 -35.333 -11.5 -64.666 -34.5 -87.999s-52.333 -35 -88 -35s-65 11.667 -88 35
s-34.5 52.666 -34.5 87.999s11.5 64.666 34.5 87.999s52.333 35 88 35s65 -11.667 88 -35s34.5 -52.666 34.5 -87.999zM910.995 1290c0 -35.333 -11.5 -64.666 -34.5 -87.999s-52.333 -35 -88 -35s-65 11.667 -88 35s-34.5 52.666 -34.5 87.999s11.5 64.666 34.5 87.999
s52.333 35 88 35s65 -11.667 88 -35s34.5 -52.666 34.5 -87.999z" />
    <glyph glyph-name="uni0452" unicode="&#x452;" horiz-adv-x="1198" 
d="M666 963c125.333 0 226.499 -42.668 303.499 -128.001s115.5 -203.333 115.5 -354c0 -147.333 -45.333 -267.666 -136 -360.999s-205.667 -140 -345 -140v184c79.333 0 145.333 29 198 87s79 134.833 79 230.5s-23 169 -69 220s-108.333 76.5 -187 76.5
c-78 0 -140.167 -25.167 -186.5 -75.5s-69.5 -120.5 -69.5 -210.5v-492h-205v1085h-174v185h174v164h205v-164h256v-185h-256v-245l13 13c6 6 18.667 15.833 38 29.5s39.833 26 61.5 37s49.334 21 83.001 30s67.5 13.5 101.5 13.5z" />
    <glyph glyph-name="uni0453" unicode="&#x453;" horiz-adv-x="849" 
d="M819 983v-184h-481v-799h-205v983h686zM389 1147l154 287h215l-215 -287h-154z" />
    <glyph glyph-name="uni0454" unicode="&#x454;" horiz-adv-x="1064" 
d="M72 491.5c0 137.667 50.8369 257.499 152.504 359.499s221.5 153 359.5 153c76.667 0 148 -16.5 214 -49.5s113.333 -65.833 142 -98.5l43 -47l-133 -133c-6.66699 10.667 -16.834 23.834 -30.501 39.501s-43.334 36.834 -89.001 63.501s-94.5 40 -146.5 40
c-42 0 -80.5 -7.83301 -115.5 -23.5s-62.833 -34.334 -83.5 -56.001s-38.167 -43.5 -52.5 -65.5s-24.166 -40.667 -29.499 -56l-6 -24h440v-174h-450c1.33301 -6.66699 3.66602 -15.834 6.99902 -27.501s12.166 -32.167 26.499 -61.5s31.666 -55.333 51.999 -78
s49 -43.167 86 -61.5s78.833 -27.5 125.5 -27.5c52 0 100.833 13 146.5 39s78.5 51.333 98.5 76l31 38l133 -133c-4 -5.33301 -10 -12.833 -18 -22.5s-25.333 -26 -52 -49s-54.667 -43.333 -84 -61s-67.333 -34 -114 -49s-93.667 -22.5 -141 -22.5
c-138 0 -257.833 50.833 -359.5 152.5s-152.5 221.334 -152.5 359.001z" />
    <glyph glyph-name="uni0455" unicode="&#x455;" horiz-adv-x="890" 
d="M758 870l-133.002 -132.998c-5.33301 5.33301 -13.166 12.833 -23.499 22.5s-31.666 22 -63.999 37s-64.833 22.5 -97.5 22.5c-44 0 -78.833 -10.167 -104.5 -30.5s-38.5 -44.166 -38.5 -71.499c0 -28.667 12.333 -52.667 37 -72s55.667 -34 93 -44
s77.5 -22.5 120.5 -37.5s83.333 -31.833 121 -50.5s68.834 -47.334 93.501 -86.001s37 -85.334 37 -140.001c0 -84.667 -34.167 -157 -102.5 -217s-157.166 -90 -266.499 -90c-48 0 -93.833 6 -137.5 18s-79.5 26.333 -107.5 43s-52.5 33.5 -73.5 50.5
s-36.167 31.5 -45.5 43.5l-15 19l133 133c6.66699 -9.33301 16.5 -21 29.5 -35s41 -32.167 84 -54.5s87.167 -33.5 132.5 -33.5c54.667 0 95.667 11.167 123 33.5s41 52.166 41 89.499c0 28.667 -12.333 52.5 -37 71.5s-55.667 33.667 -93 44s-77.5 23 -120.5 38
s-83.333 31.667 -121 50s-68.834 47 -93.501 86s-37 85.833 -37 140.5c0 75.333 33.167 142 99.5 200s149.166 87 248.499 87c39.333 0 77.5 -4.5 114.5 -13.5s67.167 -20 90.5 -33s43.833 -26.333 61.5 -40s30.5 -24.5 38.5 -32.5z" />
    <glyph glyph-name="uni0456" unicode="&#x456;" horiz-adv-x="512" 
d="M348 983v-983h-205v983h205zM369 1290c0 -35.333 -11.667 -64.666 -35 -87.999s-52.666 -35 -87.999 -35s-64.666 11.667 -87.999 35s-35 52.666 -35 87.999s11.667 64.666 35 87.999s52.666 35 87.999 35s64.666 -11.667 87.999 -35s35 -52.666 35 -87.999z" />
    <glyph glyph-name="uni0457" unicode="&#x457;" horiz-adv-x="532" 
d="M164 1290c0 -35.333 -11.667 -64.666 -35 -87.999s-52.666 -35 -87.999 -35s-64.666 11.667 -87.999 35s-35 52.666 -35 87.999s11.667 64.666 35 87.999s52.666 35 87.999 35s64.666 -11.667 87.999 -35s35 -52.666 35 -87.999zM594 1290
c0 -35.333 -11.667 -64.666 -35 -87.999s-52.666 -35 -87.999 -35s-64.666 11.667 -87.999 35s-35 52.666 -35 87.999s11.667 64.666 35 87.999s52.666 35 87.999 35s64.666 -11.667 87.999 -35s35 -52.666 35 -87.999zM358 983v-983h-204v983h204z" />
    <glyph glyph-name="uni0458" unicode="&#x458;" horiz-adv-x="512" 
d="M143 -121l0.00292969 1104h205v-1106c0 -204.667 -95.667 -307 -287 -307c-24.667 0 -48.834 1.66699 -72.501 5s-41.834 7 -54.501 11l-16 4v185c34 -13.333 68 -20.333 102 -21c35.333 0 64.666 11.667 87.999 35s35 53.333 35 90zM369.003 1290
c0 -35.333 -11.667 -64.666 -35 -87.999s-52.666 -35 -87.999 -35s-64.666 11.667 -87.999 35s-35 52.666 -35 87.999s11.667 64.666 35 87.999s52.666 35 87.999 35s64.666 -11.667 87.999 -35s35 -52.666 35 -87.999z" />
    <glyph glyph-name="uni0459" unicode="&#x459;" horiz-adv-x="1669" 
d="M1577 317.5c0 -94.333 -32.834 -170.835 -98.501 -229.502s-155.834 -88 -270.501 -88h-430v799h-327v-103c0 -187.333 -14.833 -335.166 -44.5 -443.499s-67.667 -180.833 -114 -217.5s-106.166 -55 -179.499 -55c-18 0 -37.167 1.66699 -57.5 5s-36.166 7 -47.499 11
l-18 4v195c27.333 -6.66699 51 -10.334 71 -11.001c42 0 75.167 11.333 99.5 34s44.666 72.834 60.999 150.501s24.5 186.834 24.5 327.501v287h737v-348h225c114.667 0 204.834 -29.333 270.501 -88s98.5 -135.167 98.5 -229.5zM1372 317.498
c0 42.333 -14.667 76.833 -44 103.5s-69.333 40 -120 40h-225v-287h225c50.667 0 90.667 13.333 120 40s44 61.167 44 103.5z" />
    <glyph glyph-name="uni045A" unicode="&#x45a;" horiz-adv-x="1689" 
d="M1597 317.5c0 -94.333 -32.667 -170.833 -98 -229.5s-155.333 -88 -270 -88h-430v451h-461v-451h-205v983h205v-348h461v348h205v-348h225c114.667 0 204.667 -29.333 270 -88s98 -135.167 98 -229.5zM1393 317.5c0 42.333 -14.667 76.833 -44 103.5s-69.333 40 -120 40
h-225v-287h225c50.667 0 90.667 13.333 120 40s44 61.167 44 103.5z" />
    <glyph glyph-name="uni045B" unicode="&#x45b;" horiz-adv-x="1218" 
d="M369 1434l-0.000976562 -164.001h256v-185h-256v-245l13 13c6 6 18.667 15.833 38 29.5s39.833 26 61.5 37s49.167 21 82.5 30s67.333 13.5 102 13.5c118.667 0 214.834 -39 288.501 -117s110.5 -182.667 110.5 -314v-532h-205v532c0 70.667 -22.5 129.334 -67.5 176.001
s-100.833 70 -167.5 70c-78 0 -140.167 -25.167 -186.5 -75.5s-69.5 -120.5 -69.5 -210.5v-492h-205v1085h-174v185h174v164h205z" />
    <glyph glyph-name="uni045C" unicode="&#x45c;" horiz-adv-x="1064" 
d="M1004 983l-379 -410l409 -573h-225l-317 440l-154 -164v-276h-205v983h205v-440l420 440h246zM471 1147l154 287h215l-215 -287h-154z" />
    <glyph glyph-name="uni045E" unicode="&#x45e;" horiz-adv-x="1044" 
d="M369 -102l41.002 102l-400 983h215l287 -717l287 717h215l-441 -1085c-50.667 -121.333 -100.834 -206.333 -150.501 -255s-111.834 -73 -186.501 -73c-27.333 0 -53 1.66699 -77 5s-41.667 7 -53 11l-14 4v185c34 -13.333 68.333 -20.333 103 -21
c78 0.666992 136 48.667 174 144zM512.002 1290c40.667 0 74.667 13.6689 102 41.002s41 61.666 41 102.999h154c0 -82 -28 -150.333 -84 -205s-127 -82 -213 -82s-157 27.333 -213 82s-84 123 -84 205h154c0 -40.667 13.667 -74.834 41 -102.501s61.333 -41.5 102 -41.5z
" />
    <glyph glyph-name="uni045F" unicode="&#x45f;" horiz-adv-x="1167" 
d="M133 0v983h205v-799h471v799h205v-983h-338v-246h-205v246h-338z" />
    <glyph glyph-name="uni0490" unicode="&#x490;" horiz-adv-x="1126" 
d="M922 1434v286h204v-491h-696v-1229h-225v1434h717z" />
    <glyph glyph-name="uni0491" unicode="&#x491;" horiz-adv-x="849" 
d="M133 0v983h502v246h184v-430h-481v-799h-205z" />
    <glyph glyph-name="uni1E9E" unicode="&#x1e9e;" horiz-adv-x="1351" 
d="M872 860l13 -4.00098c6.66699 -1.33301 17.167 -4.66602 31.5 -9.99902s30 -11.833 47 -19.5s35.833 -17.667 56.5 -30s40.5 -26.333 59.5 -42s37.667 -34 56 -55s34.333 -44.167 48 -69.5s24.667 -54.333 33 -87s12.5 -67 12.5 -103
c0 -120 -46.167 -223.333 -138.5 -310s-206.5 -130 -342.5 -130h-113v205h113c75.333 0 136.833 22.5 184.5 67.5s71.5 101 71.5 168s-24 123 -72 168s-109.333 67.5 -184 67.5h-113v194l266 359h-246c-70.667 0 -129.167 -22.833 -175.5 -68.5s-69.5 -104.167 -69.5 -175.5
v-985h-226v985c0 122.667 45.5 228.167 136.5 316.5s202.5 132.5 334.5 132.5h492v-195z" />
    <glyph glyph-name="endash" unicode="&#x2013;" horiz-adv-x="942" 
d="M881 696v-184h-820v184h820z" />
    <glyph glyph-name="emdash" unicode="&#x2014;" horiz-adv-x="1433" 
d="M1372 696v-184h-1311v184h1311z" />
    <glyph glyph-name="quoteleft" unicode="&#x2018;" horiz-adv-x="471" 
d="M225 963l-184 102l256 410l133 -72z" />
    <glyph glyph-name="quoteright" unicode="&#x2019;" horiz-adv-x="471" 
d="M246 1475l184 -103l-256 -409l-133 71z" />
    <glyph glyph-name="quotesinglbase" unicode="&#x201a;" horiz-adv-x="491" 
d="M205 246l184 -103l-256 -409l-133 71z" />
    <glyph glyph-name="quotedblleft" unicode="&#x201c;" horiz-adv-x="839" 
d="M594 963l-184 102l256 410l133 -72zM225 963l-184 102l256 410l133 -72z" />
    <glyph glyph-name="quotedblright" unicode="&#x201d;" horiz-adv-x="839" 
d="M246 1475l184 -103l-256 -409l-133 71zM614 1475l185 -103l-256 -409l-133 71z" />
    <glyph glyph-name="quotedblbase" unicode="&#x201e;" horiz-adv-x="860" 
d="M205 246l184 -103l-256 -409l-133 71zM573 246l185 -103l-256 -409l-133 71z" />
    <glyph glyph-name="dagger" unicode="&#x2020;" horiz-adv-x="880" 
d="M358 1178v256h164v-256h236v-154h-236v-614h-164v614h-235v154h235z" />
    <glyph glyph-name="daggerdbl" unicode="&#x2021;" horiz-adv-x="880" 
d="M522 1434v-256h236v-154h-236v-205h236v-153h-236v-256h-164v256h-235v153h235v205h-235v154h235v256h164z" />
    <glyph glyph-name="bullet" unicode="&#x2022;" horiz-adv-x="860" 
d="M655 491.5c0 -61.667 -22.167 -114.667 -66.5 -159s-97.166 -66.5 -158.499 -66.5s-114.166 22.167 -158.499 66.5s-66.5 97.333 -66.5 159s22.167 114.667 66.5 159s97.166 66.5 158.499 66.5s114.166 -22.167 158.499 -66.5s66.5 -97.333 66.5 -159z" />
    <glyph glyph-name="ellipsis" unicode="&#x2026;" horiz-adv-x="1536" 
d="M369 112.5c0 -35.667 -13.333 -66.667 -40 -93s-57.834 -39.5 -93.501 -39.5s-66.834 13.167 -93.501 39.5s-40 57.333 -40 93s13.333 66.834 40 93.501s57.834 40 93.501 40s66.834 -13.333 93.501 -40s40 -57.834 40 -93.501zM901 112.5
c0 -35.667 -13.333 -66.667 -40 -93s-57.667 -39.5 -93 -39.5s-66.333 13.167 -93 39.5s-40 57.333 -40 93s13.333 66.834 40 93.501s57.667 40 93 40s66.333 -13.333 93 -40s40 -57.834 40 -93.501zM1434 112.5c0 -35.667 -13.333 -66.667 -40 -93
s-57.834 -39.5 -93.501 -39.5s-66.834 13.167 -93.501 39.5s-40 57.333 -40 93s13.333 66.834 40 93.501s57.834 40 93.501 40s66.834 -13.333 93.501 -40s40 -57.834 40 -93.501z" />
    <glyph glyph-name="perthousand" unicode="&#x2030;" horiz-adv-x="2334" 
d="M737 1137c0 -87.333 -31.667 -162.166 -95 -224.499s-140.833 -93.5 -232.5 -93.5s-169.167 31.167 -232.5 93.5s-95 137.166 -95 224.499s31.667 162 95 224s140.833 93 232.5 93s169.167 -31 232.5 -93s95 -136.667 95 -224zM246 1136.5
c0 -46.333 15.667 -85.166 47 -116.499s70.166 -47 116.499 -47s85.166 15.667 116.499 47s47 70.166 47 116.499s-15.667 85.166 -47 116.499s-70.166 47 -116.499 47s-85.166 -15.667 -116.499 -47s-47 -70.166 -47 -116.499zM246 0l901 1434h184l-901 -1434h-184z
M840 297c0 87.333 31.667 162 95 224s140.833 93 232.5 93s169.167 -31 232.5 -93s95 -136.667 95 -224s-31.667 -162 -95 -224s-140.833 -93 -232.5 -93s-169.167 31 -232.5 93s-95 136.667 -95 224zM1331 297c0 46.667 -15.667 85.667 -47 117s-70.166 47 -116.499 47
s-85.166 -15.667 -116.499 -47s-47 -70.333 -47 -117s15.667 -85.667 47 -117s70.166 -47 116.499 -47s85.166 15.667 116.499 47s47 70.333 47 117zM1597 297c0 87.333 31.833 162 95.5 224s141.167 93 232.5 93s168.833 -31 232.5 -93s95.5 -136.667 95.5 -224
s-31.833 -162 -95.5 -224s-141.167 -93 -232.5 -93s-168.833 31 -232.5 93s-95.5 136.667 -95.5 224zM2089 297c0 46.667 -15.667 85.667 -47 117s-70.333 47 -117 47s-85.667 -15.667 -117 -47s-47 -70.333 -47 -117s15.667 -85.667 47 -117s70.333 -47 117 -47
s85.667 15.667 117 47s47 70.333 47 117z" />
    <glyph glyph-name="guilsinglleft" unicode="&#x2039;" horiz-adv-x="614" 
d="M532 840l-245 -348l245 -349h-204l-246 349l246 348h204z" />
    <glyph glyph-name="guilsinglright" unicode="&#x203a;" horiz-adv-x="614" 
d="M328 492l-246 348h205l245 -348l-245 -349h-205z" />
    <glyph glyph-name="fraction" unicode="&#x2044;" horiz-adv-x="368" 
d="M-348 0l880 1434h185l-881 -1434h-184z" />
    <glyph glyph-name="uni2070" unicode="&#x2070;" horiz-adv-x="737" 
d="M205 1280c0 -72.667 16.333 -130.167 49 -172.5s70.834 -63.5 114.501 -63.5s81.834 21.167 114.501 63.5s49 99.833 49 172.5s-16.333 130.167 -49 172.5s-70.834 63.5 -114.501 63.5s-81.834 -21.167 -114.501 -63.5s-49 -99.833 -49 -172.5zM676 1280
c0 -114.667 -28.667 -204.834 -86 -270.501s-131.166 -98.5 -221.499 -98.5s-164.166 32.833 -221.499 98.5s-86 155.834 -86 270.501s28.667 204.834 86 270.501s131.166 98.5 221.499 98.5s164.166 -32.833 221.499 -98.5s86 -155.834 86 -270.501z" />
    <glyph glyph-name="uni2074" unicode="&#x2074;" horiz-adv-x="655" 
d="M512 1638v-430h82v-143h-82v-143h-143v143h-328v143l307 430h164zM195 1208h174v246z" />
    <glyph glyph-name="uni2075" unicode="&#x2075;" horiz-adv-x="614" 
d="M338 1382c66.667 0 122.5 -22.5 167.5 -67.5s67.5 -100.833 67.5 -167.5c0 -68 -24.833 -124.333 -74.5 -169s-116.834 -67 -201.501 -67c-57.333 0 -109.166 8.66699 -155.499 26s-78.5 34 -96.5 50l-25 27l93 102c42 -48 100 -72 174 -72c44 0 78.833 10.333 104.5 31
s38.5 44.667 38.5 72c0 31.333 -12.333 58 -37 80s-56.667 33 -96 33c-22 0 -42.167 -2.5 -60.5 -7.5s-31.5 -10.167 -39.5 -15.5l-13 -8h-112l41 409h419v-143h-296l-11 -133c27.333 13.333 65 20 113 20z" />
    </font>
</defs>
</svg>
