<?xml version="1.0" standalone="no"?>
<!DOCTYPE svg PUBLIC "-//W3C//DTD SVG 1.1//EN" "http://www.w3.org/Graphics/SVG/1.1/DTD/svg11.dtd" >
<svg xmlns="http://www.w3.org/2000/svg" xmlns:xlink="http://www.w3.org/1999/xlink" version="1.1">
<metadata>
Created by FontForge 20190801 at Tue May 30 06:13:59 2017
 By Jimmy Wärting
Copyright (c) 2017 by TypeType. Designers Ivan Gladkikh, Pavel Emelyanov. Technical designers Olexa Volochay, Nadyr Rakhimov, Dmitriy Greshnev. All rights reserved.
</metadata>
<defs>
<font id="TTNorms-MediumItalic" horiz-adv-x="1187" >
  <font-face 
    font-family="TT Norms Medium Italic"
    font-weight="500"
    font-style="italic"
    font-stretch="normal"
    units-per-em="2048"
    panose-1="2 0 8 3 4 0 0 9 0 3"
    ascent="1638"
    descent="-410"
    x-height="983"
    cap-height="1434"
    bbox="-440 -461.001 2945.01 1987"
    underline-thickness="0"
    underline-position="0"
    unicode-range="U+000D-FB06"
  />
<missing-glyph horiz-adv-x="0" 
 />
    <glyph glyph-name="ij" unicode="ij" horiz-adv-x="1064" 
d="M647 205l165.999 777.999h205l-236 -1106c-45.333 -204.667 -162.666 -307 -351.999 -307c-24.667 0 -48.5 1.66699 -71.5 5s-40.167 7 -51.5 11l-16 4l39 185c31.333 -13.333 64 -20.333 98 -21c35.333 0 67 11.667 95 35s46.333 53.333 55 90l30 141
c-40.667 -27.333 -102 -40.666 -184 -39.999c-104 0 -185.333 37.167 -244 111.5s-75.667 166.833 -51 277.5l131 614h205l-131 -614c-13.333 -61.333 -6.83301 -110.833 19.5 -148.5s70.166 -56.5 131.499 -56.5c24.667 0 50.334 3.33301 77.001 10s47.667 13.667 63 21z
M1102 1303c0 -35.333 -13.333 -66.834 -40 -94.501s-58.334 -41.5 -95.001 -41.5c-35.333 0 -63.666 10.333 -84.999 31s-32 46 -32 76c0 39.333 13.333 72 40 98s58.334 39 95.001 39c35.333 0 63.666 -10.167 84.999 -30.5s32 -46.166 32 -77.499zM548.999 1303
c0 -35.333 -13.333 -66.834 -40 -94.501s-58.334 -41.5 -95.001 -41.5c-35.333 0 -63.666 10.333 -84.999 31s-32 46 -32 76c0 39.333 13.333 72 40 98s58.334 39 95.001 39c35.333 0 63.666 -10.167 84.999 -30.5s32 -46.166 32 -77.499z" />
    <glyph glyph-name="uniFB00" unicode="ff" horiz-adv-x="1310" 
d="M1356 983l-41.0029 -184h-225l-168 -799h-205l168 799h-410l-168 -799h-205l168 799h-143l41 184h143l25 123c45.333 204.667 160 307 344 307c24.667 0 49.334 -1.66699 74.001 -5s43 -7 55 -11l18 -4l-39 -185c-28.667 13.333 -60 20.333 -94 21
c-35.333 0 -67.666 -11.667 -96.999 -35s-48 -53.333 -56 -90l-25 -121h410l35 164c42 204.667 156 307 342 307c24.667 0 49.167 -1.66699 73.5 -5s42.833 -7 55.5 -11l18 -4l-39 -185c-28.667 13.333 -60 20.333 -94 21c-35.333 0 -67.666 -11.667 -96.999 -35
s-48.333 -53.333 -57 -90l-33 -162h226z" />
    <glyph glyph-name="uniFB01" unicode="fi" horiz-adv-x="1177" 
d="M1130 983l-207.999 -983h-205l168 799h-410l-168 -799h-205l168 799h-143l41 184h143l35 164c42 204.667 156 307 342 307c24.667 0 47.5 -1.66699 68.5 -5s36.5 -7 46.5 -11l12 -4l-39 -185c-18 13.333 -44 20.333 -78 21c-35.333 0 -67.333 -11.667 -96 -35
s-46.334 -53.333 -53.001 -90l-33 -162h614zM1212 1303c0 -35.333 -13.167 -66.834 -39.5 -94.501s-58.166 -41.5 -95.499 -41.5c-35.333 0 -63.5 10.333 -84.5 31s-31.5 46 -31.5 76c0 39.333 13.167 72 39.5 98s58.166 39 95.499 39c35.333 0 63.5 -10.167 84.5 -30.5
s31.5 -46.166 31.5 -77.499z" />
    <glyph glyph-name="uniFB02" unicode="fl" 
d="M942 1065c4 16.667 5.99902 33 5.99902 49c0 48 -15.667 86 -47 114s-73 42 -125 42c-60 0 -112.5 -18.833 -157.5 -56.5s-73.833 -87.167 -86.5 -148.5l-16 -82h225l-41 -184h-225l-168 -799h-205l168 799h-143l41 184h143l17 82
c23.333 114.667 76.833 208.167 160.5 280.5s185.834 108.5 306.501 108.5c108 0 195 -28.667 261 -86s99 -132.333 99 -225c0 -28.667 -2.66699 -54.667 -8 -78l-225 -1065h-205z" />
    <glyph glyph-name="uniFB03" unicode="ffi" horiz-adv-x="1792" 
d="M926 983l34.999 164c42 204.667 156.667 307 344 307c24.667 0 48.834 -1.66699 72.501 -5s41.834 -7 54.501 -11l18 -4l-39 -185c-31.333 13.333 -64 20.333 -98 21c-35.333 0 -67 -11.667 -95 -35s-46.333 -53.333 -55 -90l-33 -162h615l-209 -983h-205l168 799h-409
l-168 -799h-205l168 799h-410l-168 -799h-205l168 799h-143l41 184h143l25 123c45.333 204.667 160.666 307 345.999 307c24.667 0 49 -1.66699 73 -5s42 -7 54 -11l18 -4l-39 -185c-31.333 13.333 -64 20.333 -98 21c-35.333 0 -67 -11.667 -95 -35s-46 -53.333 -54 -90
l-25 -121h410zM1825 1303c0 -35.333 -13.333 -66.834 -40 -94.501s-58.334 -41.5 -95.001 -41.5c-35.333 0 -63.666 10.333 -84.999 31s-32 46 -32 76c0 39.333 13.333 72 40 98s58.334 39 95.001 39c35.333 0 63.666 -10.167 84.999 -30.5s32 -46.166 32 -77.499z" />
    <glyph glyph-name="uniFB06" unicode="st" horiz-adv-x="1638" 
d="M850 870l-155.997 -128.995c-4 5.33301 -10.833 12.5 -20.5 21.5s-29.834 20.667 -60.501 35s-62.334 21.5 -95.001 21.5c-50.667 0 -90.667 -10.5 -120 -31.5s-44 -46.5 -44 -76.5c0 -27.333 14.333 -51.333 43 -72s63.5 -38.834 104.5 -54.501s82 -33 123 -52
s75.833 -46.333 104.5 -82s43 -77.167 43 -124.5c0 -96.667 -37.5 -178.5 -112.5 -245.5s-174.167 -100.5 -297.5 -100.5c-48 0 -93.333 6 -136 18s-78 26.333 -106 43s-52.333 33.5 -73 50.5s-35 31.5 -43 43.5l-14 19l155 129c5.33301 -8 13.833 -19 25.5 -33
s37.667 -31.833 78 -53.5s83.166 -32.5 128.499 -32.5c58.667 0 104.334 11.167 137.001 33.5s49 54.166 49 95.499c0 27.333 -14.333 50.833 -43 70.5s-63.834 37.667 -105.501 54s-83 34.166 -124 53.499s-75.833 46.666 -104.5 81.999s-43 77 -43 125
c0 86 35.5 161.833 106.5 227.5s164.5 98.5 280.5 98.5c35.333 0 69 -3.66699 101 -11c-4 8 -6 22.333 -6 43c0 104 43.667 199.667 131 287s193.666 131 318.999 131c102.667 0 189.5 -29.667 260.5 -89s106.5 -132.666 106.5 -219.999c0 -30 -2.66699 -56.667 -8 -80
l-17 -82h205l-41 -184h-205l-108 -510c-2.66699 -13.333 -4 -23 -4 -29c0 -28.667 9.5 -51.834 28.5 -69.501s43.5 -26.5 73.5 -26.5c15.333 0 31.833 1.66699 49.5 5s31.834 7 42.501 11l15 4l-39 -184c-45.333 -13.333 -95.333 -20 -150 -20
c-155.333 0 -233 68.667 -233 206c0 30 4 63.667 12 101l108 512h-184l41 184h184l17 82c4 18 6 35 6 51c0 46.667 -16.333 84 -49 112s-75.667 42 -129 42c-68 0 -126 -25.333 -174 -76s-72 -116.334 -72 -197.001c0 -52 13 -94.333 39 -127z" />
    <glyph glyph-name="c_t.liga" unicode="ct" horiz-adv-x="1822" 
d="M72 418c0 151.333 59.665 286.834 178.998 406.501s259 179.5 419 179.5c44 0 85.667 -5.66699 125 -17c-4 8 -6.33301 23.667 -7 47c0 104 43.833 200 131.5 288s196.834 132 327.501 132c108 0 198.167 -29.667 270.5 -89s108.5 -132.666 108.5 -219.999
c0 -30 -2.66699 -56.667 -8 -80l-16 -82h204l-41 -184h-204l-109 -510c-2.66699 -13.333 -4 -23 -4 -29c0 -28.667 9.5 -51.834 28.5 -69.501s43.5 -26.5 73.5 -26.5c15.333 0 31.833 1.66699 49.5 5s31.834 7 42.501 11l15 4l-39 -184
c-45.333 -13.333 -95.333 -20 -150 -20c-155.333 0 -233 68.667 -233 206c0 30 4 63.667 12 101l109 512h-185l41 184h185l16 82c4 18 6 35 6 51c0 46.667 -17.667 84 -53 112s-81.666 42 -138.999 42c-72.667 0 -132.834 -24.333 -180.501 -73
s-71.5 -112.334 -71.5 -191.001c0 -53.333 28.667 -119 86 -197l-152 -125c-6.66699 9.33301 -16.167 21.5 -28.5 36.5s-41 35.167 -86 60.5s-93.5 38 -145.5 38c-94 0 -178.833 -38.5 -254.5 -115.5s-113.5 -168.833 -113.5 -275.5c0 -74 24.833 -136.5 74.5 -187.5
s110.167 -76.5 181.5 -76.5c52 0 102.5 13 151.5 39s85.167 51.333 108.5 76l34 38l109 -133c-4 -5.33301 -10.5 -12.833 -19.5 -22.5s-28.167 -26 -57.5 -49s-59.666 -43.333 -90.999 -61s-70.833 -34 -118.5 -49s-95.5 -22.5 -143.5 -22.5
c-118.667 0 -221.334 44 -308.001 132s-130 190 -130 306z" />
    <glyph glyph-name="s_p.liga" unicode="sp" horiz-adv-x="2129" 
d="M850 870l-155.997 -128.996c-4 5.33301 -10.833 12.5 -20.5 21.5s-29.834 20.667 -60.501 35s-62.334 21.5 -95.001 21.5c-50.667 0 -90.667 -10.5 -120 -31.5s-44 -46.5 -44 -76.5c0 -27.333 14.333 -51.333 43 -72s63.5 -38.834 104.5 -54.501s82 -33 123 -52
s75.833 -46.333 104.5 -82s43 -77.167 43 -124.5c0 -96.667 -37.5 -178.5 -112.5 -245.5s-174.167 -100.5 -297.5 -100.5c-48 0 -93.333 6 -136 18s-78 26.333 -106 43s-52.333 33.5 -73 50.5s-35 31.5 -43 43.5l-14 19l155 129c5.33301 -8 13.833 -19 25.5 -33
s37.667 -31.833 78 -53.5s83.166 -32.5 128.499 -32.5c58.667 0 104.334 11.167 137.001 33.5s49 54.166 49 95.499c0 27.333 -14.333 50.833 -43 70.5s-63.834 37.667 -105.501 54s-83 34.166 -124 53.499s-75.833 46.666 -104.5 81.999s-43 77 -43 125
c0 86 35.5 161.833 106.5 227.5s164.5 98.5 280.5 98.5c35.333 0 69 -3.66699 101 -11c-4 8 -6 22.333 -6 43c0 113.333 40.167 211.333 120.5 294s178.5 124 294.5 124c98 0 179.5 -26.667 244.5 -80s97.5 -123.666 97.5 -210.999c0 -27.333 -3.33301 -60 -10 -98l-41 -195
c10.667 9.33301 26.334 21.666 47.001 36.999s61.334 35.333 122.001 60s119.667 37 177 37c110.667 0 202.5 -38.333 275.5 -115s109.5 -173 109.5 -289c0 -108 -30.333 -210.5 -91 -307.5s-137.834 -173.333 -231.501 -229s-187.5 -83.5 -281.5 -83.5
c-36.667 0 -71.334 4.33301 -104.001 13s-60 19.5 -82 32.5s-40.833 26.333 -56.5 40s-27.5 24.5 -35.5 32.5l-11 15l-114 -543h-205l317 1495c4 23.333 6.33301 44.333 7 63c0 45.333 -14.5 80.333 -43.5 105s-65.167 37 -108.5 37c-60 0 -109.833 -24.333 -149.5 -73
s-59.5 -114 -59.5 -196c0 -56 12.333 -99.667 37 -131zM1618 819.004c-90 0 -175 -40.668 -255 -122.001s-120 -174.333 -120 -279c0 -74 22.5 -134.833 67.5 -182.5s101.167 -71.5 168.5 -71.5c88.667 0 173.167 40.333 253.5 121s120.5 173.334 120.5 278.001
c0 74 -22.5 135.167 -67.5 183.5s-100.833 72.5 -167.5 72.5z" />
    <glyph glyph-name="f_t.liga" unicode="ft" horiz-adv-x="1372" 
d="M991 1106l45 205.001h185l-70 -328h205l-41 -184h-205l-109 -510c-2.66699 -13.333 -4 -23 -4 -29c0 -28.667 9.66699 -51.834 29 -69.501s44 -26.5 74 -26.5c15.333 0 31.833 1.66699 49.5 5s31.834 7 42.501 11l14 4l-39 -184c-45.333 -13.333 -95 -20 -149 -20
c-155.333 0 -233.333 68.667 -234 206c0 30 4.33301 63.667 13 101l108 512h-430l-168 -799h-205l168 799h-143l41 184h143l35 164c42 204.667 156 307 342 307c24.667 0 49.334 -1.66699 74.001 -5s43 -7 55 -11l19 -4l-39 -185c-30 13.333 -62.333 20.333 -97 21
c-36.667 0 -69.334 -11.667 -98.001 -35s-46.334 -53.333 -53.001 -90l-33 -162h348c66.667 0 109 41 127 123z" />
    <glyph glyph-name=".notdef" horiz-adv-x="0" 
 />
    <glyph glyph-name="glyph1" horiz-adv-x="0" 
 />
    <glyph glyph-name="glyph1" horiz-adv-x="0" 
 />
    <glyph glyph-name="uni000D" unicode="&#xd;" horiz-adv-x="0" 
 />
    <glyph glyph-name="space" unicode=" " horiz-adv-x="409" 
 />
    <glyph glyph-name="exclam" unicode="!" horiz-adv-x="675" 
d="M408 379h-164l182 1055h246zM412 125c0 -36.667 -15.5 -70.001 -46.5 -100.001s-66.167 -45 -105.5 -45c-35.333 0 -64.333 11.833 -87 35.5s-34 52.5 -34 86.5c0 36.667 15.667 69.834 47 99.501s66.333 44.5 105 44.5c34 0 62.667 -12 86 -36s35 -52.333 35 -85z" />
    <glyph glyph-name="quotedbl" unicode="&#x22;" horiz-adv-x="757" 
d="M518 1434l-90 -430h-184l90 430h184zM846 1434l-90 -430h-185l91 430h184z" />
    <glyph glyph-name="numbersign" unicode="#" horiz-adv-x="1525" 
d="M299 1024h307l158 410h174l-158 -410h338l158 410h174l-158 -410h318l-64 -154h-317l-127 -307h307l-63 -153h-308l-157 -410h-174l157 410h-338l-157 -410h-174l157 410h-317l63 153h316l129 307h-307zM717 870l-127 -307h338l127 307h-338z" />
    <glyph glyph-name="dollar" unicode="$" horiz-adv-x="1208" 
d="M565 184c83.333 0 156.502 20.498 219.502 61.498s94.5 101.833 94.5 182.5c0 46.667 -21.833 86.334 -65.5 119.001s-96.667 60.667 -159 84s-124.166 48.666 -185.499 75.999s-113.833 66.5 -157.5 117.5s-65.5 112.833 -65.5 185.5c0 124 39.5 226.333 118.5 307
s193.167 125.667 342.5 135l45 207h204l-47 -221c57.333 -13.333 110.333 -34.166 159 -62.499s83 -52.5 103 -72.5l29 -33l-170 -142c-6.66699 9.33301 -16.834 20.666 -30.501 33.999s-45.5 31.166 -95.5 53.499s-103.667 33.5 -161 33.5
c-84.667 0 -150.167 -19.833 -196.5 -59.5s-69.5 -87.167 -69.5 -142.5c0 -46.667 21.833 -86.334 65.5 -119.001s96.667 -60.667 159 -84s124.166 -48.666 185.499 -75.999s113.833 -66.666 157.5 -117.999s65.5 -113 65.5 -185c0 -139.333 -44.667 -252.333 -134 -339
s-215.333 -134.667 -378 -144l-43 -207h-205l45 219c-74 13.333 -141 37.833 -201 73.5s-101.333 67.834 -124 96.501l-37 41l170 141c2.66699 -4 7 -9.83301 13 -17.5s19.667 -20.667 41 -39s44.666 -34.666 69.999 -48.999s59.333 -27.333 102 -39s88 -17.5 136 -17.5z
" />
    <glyph glyph-name="percent" unicode="%" horiz-adv-x="1576" 
d="M893 1169c0 -90 -36.5 -170.499 -109.5 -241.499s-157.5 -106.5 -253.5 -106.5c-90 0 -163.667 27.333 -221 82s-86 121.667 -86 201c0 92.667 36.833 174.167 110.5 244.5s158.5 105.5 254.5 105.5c90 0 163.333 -27.333 220 -82s85 -122.334 85 -203.001zM578 1303
c-48 0 -91.5 -18.833 -130.5 -56.5s-58.5 -81.167 -58.5 -130.5c0 -39.333 14 -73 42 -101s64 -42 108 -42c48 0 91.667 18 131 54s59 79.333 59 130c0 40.667 -14.167 75.167 -42.5 103.5s-64.5 42.5 -108.5 42.5zM154 0.000976562l1198 1434h190l-1198 -1434h-190z
M1473 328.001c0 -90 -36.668 -170.499 -110.001 -241.499s-157.666 -106.5 -252.999 -106.5c-90 0 -163.667 27.167 -221 81.5s-86 121.166 -86 200.499c0 92.667 36.833 174.167 110.5 244.5s158.167 105.5 253.5 105.5c90 0 163.5 -27.167 220.5 -81.5
s85.5 -121.833 85.5 -202.5zM1157 461.002c-48 0 -91.333 -18.833 -130 -56.5s-58 -81.167 -58 -130.5c0 -39.333 14 -73 42 -101s63.667 -42 107 -42c48 0 91.833 18.167 131.5 54.5s59.5 79.5 59.5 129.5c0 40.667 -14.333 75.167 -43 103.5s-65 42.5 -109 42.5z" />
    <glyph glyph-name="ampersand" unicode="&#x26;" horiz-adv-x="1310" 
d="M1022 266c4 -8 9.16992 -17.4971 15.5029 -28.4971s20.666 -26 42.999 -45s45.833 -28.5 70.5 -28.5c6.66699 0 13.5 1 20.5 3s12.5 3.66699 16.5 5s6 2.66602 6 3.99902l-41 -186c-24.667 -6.66699 -50.667 -10 -78 -10c-42 0 -80.167 11.833 -114.5 35.5
s-58.166 47.167 -71.499 70.5l-19 37c-12 -10.667 -29 -24 -51 -40s-66.667 -37.167 -134 -63.5s-134.666 -39.5 -201.999 -39.5c-110.667 0 -200 31.667 -268 95s-102 136.666 -102 219.999c0 52 12.167 103.5 36.5 154.5s54.666 95 90.999 132s72.166 70.167 107.499 99.5
s65.333 51.666 90 66.999l37 22c-9.33301 13.333 -21.166 31 -35.499 53s-33.833 62 -58.5 120s-37 109.667 -37 155c0 101.333 39 186 117 254s170.667 102 278 102c88.667 0 164.167 -27.333 226.5 -82s93.5 -117.334 93.5 -188.001c0 -46.667 -11.667 -93.5 -35 -140.5
s-51.333 -87.333 -84 -121s-65.334 -64.5 -98.001 -92.5s-60.667 -48.667 -84 -62l-35 -20l201 -330c68 76.667 113.667 169.334 137 278.001h182c-16.667 -72.667 -43.334 -144.667 -80.001 -216s-69.334 -125 -98.001 -161zM520.003 164.003c42 0 85 8.50195 129 25.502
s77 34.5 99 52.5l32 24l-217 361c-6.66699 -4 -15.5 -9.83301 -26.5 -17.5s-30.167 -22.834 -57.5 -45.501s-51.5 -45.167 -72.5 -67.5s-40 -49.833 -57 -82.5s-25.5 -64.334 -25.5 -95.001c0 -45.333 17 -82.5 51 -111.5s82.333 -43.5 145 -43.5zM643.003 887.005
c53.333 32.667 102.167 72.5 146.5 119.5s66.5 95.833 66.5 146.5c0 32.667 -14 60.334 -42 83.001s-61.667 34 -101 34c-49.333 0 -90 -15 -122 -45s-48 -68.333 -48 -115c0 -28.667 8.5 -61.834 25.5 -99.501s33.5 -67.167 49.5 -88.5z" />
    <glyph glyph-name="quotesingle" unicode="'" horiz-adv-x="430" 
d="M518 1434l-90 -430h-184l90 430h184z" />
    <glyph glyph-name="parenleft" unicode="(" horiz-adv-x="696" 
d="M365 512c-22 -104 -32.9971 -203.665 -32.9971 -298.998c0 -104 10.833 -204.333 32.5 -301s43.5 -167.667 65.5 -213l33 -68l-172 -92c-10.667 19.333 -24.334 46.666 -41.001 81.999s-38.667 109.333 -66 222s-41 227 -41 343c0 106.667 10.333 212.667 31 318
s47.667 199.5 81 282.5s69.833 162.5 109.5 238.5s79.667 142 120 198s76.833 103.333 109.5 142s59.667 69 81 91s31.333 31.667 30 29l135 -94c-9.33301 -9.33301 -22.666 -23.333 -39.999 -42s-48.833 -58.334 -94.5 -119.001s-88.334 -123.167 -128.001 -187.5
s-79.834 -145 -120.501 -242s-71.334 -193.167 -92.001 -288.5z" />
    <glyph glyph-name="parenright" unicode=")" horiz-adv-x="696" 
d="M364.5 512c20.333 95.333 30.5 194.333 30.5 297c0 104 -10.833 204.667 -32.5 302s-43.5 168.666 -65.5 213.999l-33 68l174 92c10.667 -19.333 24.334 -47 41.001 -83s38.667 -110.333 66 -223s41 -227 41 -343c0 -374 -122.333 -729.667 -367 -1067
c-58.667 -82 -123.334 -158.667 -194.001 -230l-136 94c9.33301 9.33301 22.666 23.333 39.999 42s48.833 58.334 94.5 119.001s88.334 123.167 128.001 187.5s80 145 121 242s71.667 193.167 92 288.5z" />
    <glyph glyph-name="asterisk" unicode="*" horiz-adv-x="819" 
d="M702 1434l-73 -256l254 92l18 -154l-258 -63l121 -203l-139 -100l-97 225l-190 -230l-107 105l207 207l-233 59l84 154l217 -92l33 256h163z" />
    <glyph glyph-name="plus" unicode="+" horiz-adv-x="1075" 
d="M561 143h-174l80 369h-369l39 184h369l78 369h174l-78 -369h369l-39 -184h-369z" />
    <glyph glyph-name="comma" unicode="," horiz-adv-x="491" 
d="M156 250l170 -107l-342 -409l-121 73z" />
    <glyph glyph-name="hyphen" unicode="-" horiz-adv-x="880" 
d="M854 696l-39 -184h-717l39 184h717z" />
    <glyph glyph-name="period" unicode="." horiz-adv-x="471" 
d="M303 125c0 -36.667 -15.333 -70.001 -46 -100.001s-65.667 -45 -105 -45c-35.333 0 -64.333 11.833 -87 35.5s-34 52.5 -34 86.5c0 36.667 15.667 69.834 47 99.501s66 44.5 104 44.5c34 0 62.667 -12 86 -36s35 -52.333 35 -85z" />
    <glyph glyph-name="slash" unicode="/" horiz-adv-x="921" 
d="M1075 1454l-1005 -1884h-191l1004 1884h192z" />
    <glyph glyph-name="zero" unicode="0" horiz-adv-x="1454" 
d="M158 563c0 98 16.6689 198.666 50.002 301.999s79.333 199 138 287s135.167 160.333 229.5 217s196.166 85 305.499 85c155.333 0 282.833 -52.833 382.5 -158.5s149.5 -246.167 149.5 -421.5c0 -132.667 -21.833 -256.167 -65.5 -370.5
s-100.334 -209.166 -170.001 -284.499s-147.5 -134 -233.5 -176s-171.333 -63 -256 -63c-155.333 0 -282.5 52.833 -381.5 158.5s-148.5 247.167 -148.5 424.5zM698.002 183.999c75.333 0 144.668 22.1689 208.001 66.502s114.5 100.666 153.5 168.999
s69.5 141.166 91.5 218.499s33 151.333 33 222c0 122.667 -29.333 218.167 -88 286.5s-133.334 102.5 -224.001 102.5c-113.333 0 -222.5 -62 -327.5 -186s-157.5 -286.667 -157.5 -488c0 -121.333 29.333 -216.833 88 -286.5s133 -104.5 223 -104.5z" />
    <glyph glyph-name="one" unicode="1" horiz-adv-x="788" 
d="M600 1434l174 0.000976562l-303 -1434h-225l229 1085h-256l33 154c88.667 9.33301 159 30.166 211 62.499s97.667 76.5 137 132.5z" />
    <glyph glyph-name="two" unicode="2" horiz-adv-x="1157" 
d="M942 0l-952.001 0.00195312c19.333 91.333 51.833 174.166 97.5 248.499s97.167 135.833 154.5 184.5s118 93.167 182 133.5s126 76.833 186 109.5s114.667 66.334 164 101.001s89 75.667 119 123s45 99.666 45 156.999c0 54.667 -21.833 100.334 -65.5 137.001
s-99.5 55 -167.5 55c-39.333 0 -76.833 -7.16699 -112.5 -21.5s-64.167 -31.333 -85.5 -51s-39.833 -39.834 -55.5 -60.501s-26.834 -37.667 -33.501 -51l-8 -23l-172 84c2.66699 9.33301 7.33398 21.333 14.001 36s23.334 40.667 50.001 78s57 70.333 91 99
s81.167 55 141.5 79s125.833 36 196.5 36c122.667 0 226 -37.167 310 -111.5s126 -162.833 126 -265.5c0 -92.667 -21.5 -174.834 -64.5 -246.501s-100 -131.667 -171 -180s-143.667 -93 -218 -134s-151 -88.5 -230 -142.5s-140.5 -110.333 -184.5 -169h686z" />
    <glyph glyph-name="three" unicode="3" horiz-adv-x="1167" 
d="M877 745c5.33301 -2.66699 12.002 -6.33691 20.002 -11.0039s23 -16.167 45 -34.5s41.167 -38.166 57.5 -59.499s31.333 -49.666 45 -84.999s20.5 -73 20.5 -113c0 -132.667 -51.5 -242.834 -154.5 -330.501s-241.167 -131.5 -414.5 -131.5
c-65.333 0 -127.166 7.83301 -185.499 23.5s-106.166 34.334 -143.499 56.001s-69.666 43.5 -96.999 65.5s-47.333 40.333 -60 55l-18 25l170 141c2.66699 -4 7 -9.83301 13 -17.5s20 -20.667 42 -39s45.667 -34.666 71 -48.999s58.833 -27.333 100.5 -39
s85.5 -17.5 131.5 -17.5c98 0 175.5 24.333 232.5 73s85.5 109.667 85.5 183c0 54.667 -21.5 100.834 -64.5 138.501s-102.833 56.5 -179.5 56.5h-143l45 205h143c80.667 0 146.5 21.833 197.5 65.5s76.5 102.167 76.5 175.5c0 48 -19.333 88 -58 120s-88.667 48 -150 48
c-60 0 -117.333 -13 -172 -39s-94.334 -51.667 -119.001 -77l-37 -39l-115 145c4 5.33301 10.167 12.833 18.5 22.5s27.166 27.167 56.499 52.5s60.666 47.166 93.999 65.499s76.666 35.333 129.999 51s108.666 23.5 165.999 23.5c120 0 220 -34.167 300 -102.5
s120 -148.166 120 -239.499c0 -52 -9.16699 -100.167 -27.5 -144.5s-40.5 -79.5 -66.5 -105.5s-52.667 -48.5 -80 -67.5s-49.5 -32 -66.5 -39s-26.833 -10.5 -29.5 -10.5z" />
    <glyph glyph-name="four" unicode="4" horiz-adv-x="1249" 
d="M1016 492h184l-45 -205h-184l-60 -287h-225l59 287h-696l53 245l818 902h294zM791 492l145 686l-619 -686h474z" />
    <glyph glyph-name="five" unicode="5" horiz-adv-x="1290" 
d="M768 952c120 0 219.667 -39.833 299 -119.5s119 -175.5 119 -287.5c0 -168 -57.667 -304.167 -173 -408.5s-259 -156.5 -431 -156.5c-65.333 0 -126.833 7.83301 -184.5 23.5s-104.167 34.334 -139.5 56.001s-66 43.5 -92 65.5s-44.333 40.333 -55 55l-17 25l174 143
c2.66699 -4 6.83398 -9.83301 12.501 -17.5s18.667 -21 39 -40s42.5 -35.667 66.5 -50s56.5 -27.333 97.5 -39s84.5 -17.5 130.5 -17.5c92.667 0 172.5 31.833 239.5 95.5s100.5 143.167 100.5 238.5c0 65.333 -22.5 121.666 -67.5 168.999s-102.167 71 -171.5 71
c-60 0 -115.667 -11 -167 -33s-88 -44 -110 -66l-30 -34h-164l213 809h829l-43 -205h-620l-93 -338c49.333 40.667 128.666 61 237.999 61z" />
    <glyph glyph-name="six" unicode="6" horiz-adv-x="1249" 
d="M752 958c108 0 200.168 -38.167 276.501 -114.5s114.5 -169.833 114.5 -280.5c0 -155.333 -57.333 -291.333 -172 -408s-251.334 -175 -410.001 -175c-125.333 0 -233.833 40.5 -325.5 121.5s-137.5 177.5 -137.5 289.5c0 65.333 15.333 132.833 46 202.5
s62 123.167 94 160.5l45 55l536 625h242l-420 -490c26 9.33301 63 14 111 14zM569.001 174c94 0 178.333 35.833 253 107.5s112 156.167 112 253.5c0 66.667 -24.667 122.167 -74 166.5s-112 66.5 -188 66.5c-98 0 -183.333 -34.5 -256 -103.5s-109 -150.5 -109 -244.5
c0 -68 24.833 -126 74.5 -174s112.167 -72 187.5 -72z" />
    <glyph glyph-name="seven" unicode="7" horiz-adv-x="1075" 
d="M272 1434h953l-39 -185l-869 -1249h-243l854 1229h-699z" />
    <glyph glyph-name="eight" unicode="8" horiz-adv-x="1228" 
d="M659 686c-90 0 -169.167 -29.668 -237.5 -89.001s-102.5 -126.666 -102.5 -201.999c0 -58.667 23.667 -110.167 71 -154.5s106.333 -66.5 177 -66.5c90 0 168.5 30 235.5 90s100.5 128.333 100.5 205c0 58.667 -23.333 109.5 -70 152.5s-104.667 64.5 -174 64.5z
M782 1270c-74 0 -136.5 -23.333 -187.5 -70s-76.5 -102.667 -76.5 -168c0 -48 18.167 -88.667 54.5 -122s83.166 -50 140.499 -50c74 0 136.5 23.167 187.5 69.5s76.5 102.5 76.5 168.5c0 48 -18.167 88.667 -54.5 122s-83.166 50 -140.499 50zM799 1454
c106.667 0 197.834 -34.833 273.501 -104.5s113.5 -148.834 113.5 -237.501c0 -44 -7.5 -85 -22.5 -123s-32.833 -69.333 -53.5 -94s-41.5 -46.167 -62.5 -64.5s-38.5 -31.5 -52.5 -39.5l-20 -11c10.667 -9.33301 23.5 -22.5 38.5 -39.5s35.167 -51.833 60.5 -104.5
s38 -105.667 38 -159c0 -139.333 -55 -257 -165 -353s-242.667 -144 -398 -144c-122.667 0 -226.334 39.167 -311.001 117.5s-127 169.5 -127 273.5c0 52 9.83301 102.167 29.5 150.5s43.5 88.5 71.5 120.5s56.667 60.333 86 85s53.5 42.834 72.5 54.501
s29.167 17.5 30.5 17.5c-6.66699 6.66699 -15.167 16.167 -25.5 28.5s-24 38 -41 77s-25.5 78.833 -25.5 119.5c0 117.333 47.5 218.333 142.5 303s210.833 127 347.5 127z" />
    <glyph glyph-name="nine" unicode="9" horiz-adv-x="1249" 
d="M616 475c-108 0 -200.168 38.334 -276.501 115.001s-114.5 170 -114.5 280c0 155.333 57.333 291.5 172 408.5s251.334 175.5 410.001 175.5c125.333 0 233.833 -40.667 325.5 -122s137.5 -178 137.5 -290c0 -65.333 -15.333 -132.833 -46 -202.5
s-62 -122.834 -94 -159.501l-45 -55l-536 -625h-242l420 489c-26 -9.33301 -63 -14 -111 -14zM798.999 1260c-94 0 -178.333 -36.001 -253 -108.001s-112 -156.333 -112 -253c0 -66.667 24.667 -122.167 74 -166.5s112 -66.5 188 -66.5c98 0 183.333 34.333 256 103
s109 150.334 109 245.001c0 68 -24.833 126 -74.5 174s-112.167 72 -187.5 72z" />
    <glyph glyph-name="colon" unicode=":" horiz-adv-x="471" 
d="M463 883c0 -36.667 -15.333 -70.168 -46 -100.501s-66 -45.5 -106 -45.5c-35.333 0 -64.333 12 -87 36s-34 53 -34 87c0 36.667 15.833 69.834 47.5 99.501s66.5 44.5 104.5 44.5c34 0 62.667 -12 86 -36s35 -52.333 35 -85zM303 124.999
c0 -36.667 -15.333 -70.001 -46 -100.001s-65.667 -45 -105 -45c-35.333 0 -64.333 11.833 -87 35.5s-34 52.5 -34 86.5c0 36.667 15.667 69.834 47 99.501s66 44.5 104 44.5c34 0 62.667 -12 86 -36s35 -52.333 35 -85z" />
    <glyph glyph-name="semicolon" unicode=";" horiz-adv-x="501" 
d="M494 883c0 -36.667 -15.5 -70.168 -46.5 -100.501s-66.167 -45.5 -105.5 -45.5c-35.333 0 -64.333 12 -87 36s-34 53 -34 87c0 36.667 15.667 69.834 47 99.501s66.333 44.5 105 44.5c34 0 62.667 -12 86 -36s35 -52.333 35 -85zM156 249.999l170 -107l-342 -409l-121 73
z" />
    <glyph glyph-name="less" unicode="&#x3c;" horiz-adv-x="1024" 
d="M84 451l22 102l957 451l-47 -216l-635 -296l510 -297l-41 -195z" />
    <glyph glyph-name="equal" unicode="=" horiz-adv-x="1003" 
d="M938 512l-39 -184h-840l39 184h840zM1016 881l-39 -185h-840l39 185h840z" />
    <glyph glyph-name="greater" unicode="&#x3e;" horiz-adv-x="1024" 
d="M967 553l-23 -102l-956 -451l47 215l635 297l-510 297l41 195z" />
    <glyph glyph-name="question" unicode="?" horiz-adv-x="1095" 
d="M426 471c12 57.333 37.5 109.502 76.5 156.502s81.333 86.333 127 118s91.167 62.5 136.5 92.5s82.666 65.5 111.999 106.5s44 87.167 44 138.5c0 48 -18.5 87.667 -55.5 119s-86.167 47 -147.5 47c-44 0 -85 -7.16699 -123 -21.5s-68.333 -31.333 -91 -51
s-42.167 -39.834 -58.5 -60.501s-27.166 -37.667 -32.499 -51l-11 -23l-178 74c4 9.33301 9.83301 21.666 17.5 36.999s26.167 42.333 55.5 81s61.833 72.667 97.5 102s85.167 56.333 148.5 81s131.333 37 204 37c117.333 0 214.5 -33.833 291.5 -101.5
s115.5 -146.5 115.5 -236.5c0 -82 -16.667 -152.667 -50 -212s-75 -106.666 -125 -141.999s-100.5 -68.833 -151.5 -100.5s-97.667 -69.334 -140 -113.001s-69.833 -93.5 -82.5 -149.5l-4 -20h-184c0 34 2.66699 64.667 8 92zM606 125.002
c0 -36.667 -15.333 -70.001 -46 -100.001s-65.667 -45 -105 -45c-35.333 0 -64.333 11.833 -87 35.5s-34 52.5 -34 86.5c0 36.667 15.667 69.834 47 99.501s66 44.5 104 44.5c34 0 62.667 -12 86 -36s35 -52.333 35 -85z" />
    <glyph glyph-name="at" unicode="@" horiz-adv-x="1863" 
d="M975 737c-70.667 0 -133.332 -29.333 -187.999 -88s-82 -127 -82 -205c0 -53.333 17.333 -96.333 52 -129s78.667 -49 132 -49c65.333 0 124.666 28.667 177.999 86s80 128.333 80 213c0 52 -16.333 93.667 -49 125s-73.667 47 -123 47zM975.002 881
c45.333 0 86.666 -8.33301 123.999 -25s63 -33 77 -49l22 -23l21 86h143l-102 -481c-2.66699 -13.333 -4.33398 -23.666 -5.00098 -30.999c0 -27.333 9.33301 -49.5 28 -66.5s41.667 -25.5 69 -25.5c60 0 115.167 30.833 165.5 92.5s75.5 157.834 75.5 288.501
c0 136.667 -51.167 254.167 -153.5 352.5s-229.833 147.5 -382.5 147.5c-192.667 0 -365.5 -73.667 -518.5 -221s-229.5 -320 -229.5 -518c0 -146 48.5 -271 145.5 -375s217.833 -156 362.5 -156c69.333 0 136.833 11 202.5 33s113.5 43.667 143.5 65l47 35l70 -119
c-5.33301 -4 -12.5 -9.66699 -21.5 -17s-29.167 -19.833 -60.5 -37.5s-64.333 -33.334 -99 -47.001s-78.667 -26.334 -132 -38.001s-108 -17.5 -164 -17.5c-184 0 -340 66.833 -468 200.5s-192 289.167 -192 466.5c0 157.333 43 305 129 443s200.333 246.833 343 326.5
s293.334 119.5 452.001 119.5c194 0 357.833 -62.5 491.5 -187.5s200.5 -272.833 200.5 -443.5c0 -177.333 -41.333 -311 -124 -401s-182 -135 -298 -135c-45.333 0 -84.666 10.167 -117.999 30.5s-55.333 40.166 -66 59.499l-16 31
c-8 -9.33301 -19.333 -20.666 -34 -33.999s-46.5 -31.166 -95.5 -53.499s-100.833 -33.5 -155.5 -33.5c-83.333 0 -155 30.667 -215 92s-90 134.333 -90 219c0 125.333 43.333 231.166 130 317.499s186 129.5 298 129.5z" />
    <glyph glyph-name="A" unicode="A" horiz-adv-x="1495" 
d="M-51 0l897 1434h225l291 -1434h-229l-74 379h-635l-234 -379h-241zM911 1178l-362 -594h471z" />
    <glyph glyph-name="B" unicode="B" horiz-adv-x="1402" 
d="M766 0l-653.001 0.000976562l303 1434h563c102.667 0 189.5 -34.167 260.5 -102.5s106.5 -145.5 106.5 -231.5c-1.33301 -139.333 -71.666 -253.333 -210.999 -342c10.667 -6.66699 24.167 -17.167 40.5 -31.5s38.5 -45.833 66.5 -94.5s42 -100.334 42 -155.001
c0 -130 -49.833 -242 -149.5 -336s-222.5 -141 -368.5 -141zM378.999 195.001h391c76.667 0 144 25.5 202 76.5s87 114.833 87 191.5c0 56 -17.167 103.833 -51.5 143.5s-79.5 59.5 -135.5 59.5h-393zM949.999 1239h-350l-82 -389h344c66.667 0 125.667 20.5 177 61.5
s77 93.5 77 157.5c0 45.333 -16 85 -48 119s-71.333 51 -118 51z" />
    <glyph glyph-name="C" unicode="C" horiz-adv-x="1556" 
d="M1055 1454c72.667 0 141.673 -9.50488 207.006 -28.5049s119.166 -42.167 161.499 -69.5s79.166 -54.333 110.499 -81s54 -49.667 68 -69l20 -28l-166 -138c-4 5.33301 -9.33301 12.833 -16 22.5s-22.667 26.5 -48 50.5s-53 45.167 -83 63.5s-70 35 -120 50
s-103 22.5 -159 22.5c-168 0 -315.833 -62.5 -443.5 -187.5s-191.5 -273.5 -191.5 -445.5c0 -121.333 42.333 -223.666 127 -306.999s191.334 -125 320.001 -125c56 0 110.5 7.83301 163.5 23.5s97.667 34.834 134 57.501s68.833 45.334 97.5 68.001
s49.667 41.334 63 56.001l21 25l117 -148c-5.33301 -8 -13.833 -18.5 -25.5 -31.5s-37.334 -35.833 -77.001 -68.5s-81.334 -61.667 -125.001 -87s-100.334 -48.166 -170.001 -68.499s-140.834 -30.5 -213.501 -30.5c-184 0 -340.5 61.333 -469.5 184s-193.5 268 -193.5 436
c0 237.333 87.667 439 263 605s384.666 249 627.999 249z" />
    <glyph glyph-name="D" unicode="D" horiz-adv-x="1556" 
d="M416 1434h461.001c172 0 320 -61.833 444 -185.5s186 -267.5 186 -431.5c0 -109.333 -23.5 -214.5 -70.5 -315.5s-109.333 -188 -187 -261s-168.834 -131.333 -273.501 -175s-211.667 -65.5 -321 -65.5h-542zM850.001 1229h-252l-217 -1024h295
c157.333 0 297.333 58.667 420 176s184 258 184 422c0 116 -42 216 -126 300s-185.333 126 -304 126z" />
    <glyph glyph-name="E" unicode="E" horiz-adv-x="1341" 
d="M381 205h809l-43 -205h-1034l303 1434h1014l-44 -205h-788l-80 -379h625l-45 -205h-625z" />
    <glyph glyph-name="F" unicode="F" horiz-adv-x="1290" 
d="M416 1434h1003l-43 -205h-778l-84 -400h614l-45 -204h-614l-131 -625h-225z" />
    <glyph glyph-name="G" unicode="G" horiz-adv-x="1658" 
d="M1061 758h502.003l-109 -512c-5.33301 -6.66699 -13.833 -16.167 -25.5 -28.5s-37.667 -34 -78 -65s-83 -58 -128 -81s-103.667 -44 -176 -63s-146.833 -28.5 -223.5 -28.5c-184 0 -339.833 61.333 -467.5 184s-191.5 268 -191.5 436c0 237.333 87.667 439 263 605
s384.666 249 627.999 249c72.667 0 141.667 -9.5 207 -28.5s119.166 -42.167 161.499 -69.5s79.166 -54.333 110.499 -81s54 -49.667 68 -69l20 -28l-168 -138c-4 5.33301 -9.5 12.833 -16.5 22.5s-23 26.5 -48 50.5s-52.5 45.167 -82.5 63.5s-70 35 -120 50
s-103 22.5 -159 22.5c-168 0 -315.5 -62.5 -442.5 -187.5s-190.5 -273.5 -190.5 -445.5c0 -120 43.667 -222 131 -306s195.333 -126 324 -126c79.333 0 152 12 218 36s112.667 47.667 140 71l39 37l47 225h-276z" />
    <glyph glyph-name="H" unicode="H" horiz-adv-x="1566" 
d="M1573 1434l-303 -1434h-226l132 625h-707l-131 -625h-225l303 1434h225l-127 -605h707l127 605h225z" />
    <glyph glyph-name="I" unicode="I" horiz-adv-x="634" 
d="M113 0l303 1434h225l-303 -1434h-225z" />
    <glyph glyph-name="J" unicode="J" horiz-adv-x="1044" 
d="M825 1434l226.001 0.00292969l-213 -1004c-28.667 -136.667 -89.834 -245.834 -183.501 -327.501s-210.834 -122.5 -351.501 -122.5c-66.667 0 -128.667 13.5 -186 40.5s-98.333 54.167 -123 81.5l-37 41l174 144c1.33301 -2.66699 3.33301 -6.5 6 -11.5
s9.83398 -13.333 21.501 -25s24.334 -21.834 38.001 -30.501s32.167 -16.834 55.5 -24.501s48.666 -11.5 75.999 -11.5c76.667 0 139.167 21.5 187.5 64.5s80.5 103.5 96.5 181.5z" />
    <glyph glyph-name="K" unicode="K" horiz-adv-x="1423" 
d="M641 1434l-143 -678l774 678h301l-678 -594l416 -840h-264l-332 684l-287 -254l-90 -430h-225l303 1434h225z" />
    <glyph glyph-name="L" unicode="L" 
d="M1034 0h-921l303 1434h225l-260 -1229h696z" />
    <glyph glyph-name="M" unicode="M" horiz-adv-x="1904" 
d="M997 737l701 697h213l-303 -1434h-226l222 1044l-662 -655l-383 655l-221 -1044h-225l303 1434h176z" />
    <glyph glyph-name="N" unicode="N" horiz-adv-x="1628" 
d="M1409 1434h225l-303 -1434h-178l-594 1042l-221 -1042h-225l303 1434h178l594 -1043z" />
    <glyph glyph-name="O" unicode="O" horiz-adv-x="1761" 
d="M999 1249c-154 0 -293.167 -59.999 -417.5 -179.999s-186.5 -258.667 -186.5 -416c0 -132.667 45.833 -244.334 137.5 -335.001s208.5 -136 350.5 -136c157.333 0 297.333 59.5 420 178.5s184 259.5 184 421.5c0 131.333 -45.833 242 -137.5 332s-208.5 135 -350.5 135z
M166 635.001c0 212.667 85.001 402.332 255.001 568.999s367 250 591 250c207.333 0 376.5 -63.167 507.5 -189.5s196.5 -281.5 196.5 -465.5c0 -221.333 -85.333 -413.166 -256 -575.499s-367.334 -243.5 -590.001 -243.5c-207.333 0 -376.5 63.167 -507.5 189.5
s-196.5 281.5 -196.5 465.5z" />
    <glyph glyph-name="P" unicode="P" horiz-adv-x="1382" 
d="M416 1434h544.999c117.333 0 216.833 -40.667 298.5 -122s122.5 -175.333 122.5 -282c0 -148.667 -54.167 -272.167 -162.5 -370.5s-241.166 -147.5 -398.499 -147.5h-375l-108 -512h-225zM933.999 1229l-336.001 -0.000976562l-109 -512h359c82 0 153.333 30 214 90
s91 131.667 91 215c0 58.667 -21.167 107.834 -63.5 147.501s-94.166 59.5 -155.499 59.5z" />
    <glyph glyph-name="Q" unicode="Q" horiz-adv-x="1781" 
d="M166 635c0 212.667 84.998 402.334 254.998 569.001s367 250 591 250c207.333 0 376.5 -63.167 507.5 -189.5s196.5 -281.5 196.5 -465.5c0 -169.333 -52.5 -324 -157.5 -464s-238.167 -240.667 -399.5 -302c62.667 -114.667 190.334 -163.334 383.001 -146.001l-39 -184
c-80.667 -8 -155 -5.16699 -223 8.5s-122.167 32 -162.5 55s-76.166 51.333 -107.499 85s-52.5 60 -63.5 79s-19.833 36.167 -26.5 51.5c-5.33301 0 -13.5 -0.333008 -24.5 -1s-19.5 -1 -25.5 -1c-207.333 0 -376.5 63.167 -507.5 189.5s-196.5 281.5 -196.5 465.5z
M998.998 1249c-154 0 -293.167 -59.999 -417.5 -179.999s-186.5 -258.667 -186.5 -416c0 -132.667 45.833 -244.334 137.5 -335.001s208.5 -136 350.5 -136c157.333 0 297.333 59.5 420 178.5s184 259.5 184 421.5c0 131.333 -45.833 242 -137.5 332s-208.5 135 -350.5 135z
" />
    <glyph glyph-name="R" unicode="R" horiz-adv-x="1433" 
d="M113 0l302.999 1434h575c114.667 0 211.334 -37.333 290.001 -112s118 -163 118 -265c0 -191.333 -89.667 -336 -269 -434c-13.333 -6.66699 -51.333 -23.334 -114 -50.001l203 -573h-240l-186 553h-338l-117 -553h-225zM878.999 758.001
c74 0 140.5 25.8311 199.5 77.498s88.5 115.834 88.5 192.501c0 54.667 -19 101.834 -57 141.501s-85 59.5 -141 59.5h-371l-100 -471h381z" />
    <glyph glyph-name="S" unicode="S" horiz-adv-x="1208" 
d="M565 184c82 0 154.837 20.834 218.504 62.501s95.5 102.834 95.5 183.501c0 45.333 -21.833 84.333 -65.5 117s-96.667 60.334 -159 83.001s-124.166 48 -185.499 76s-113.833 67.5 -157.5 118.5s-65.5 113.5 -65.5 187.5c0 132.667 45 239.5 135 320.5
s218.333 121.5 385 121.5c53.333 0 104.833 -6.5 154.5 -19.5s90.667 -28.333 123 -46s60.666 -35.334 84.999 -53.001s42.833 -32.834 55.5 -45.501l16 -20l-170 -142c-6.66699 9.33301 -16.834 20.666 -30.501 33.999s-45.5 31.166 -95.5 53.499s-103.667 33.5 -161 33.5
c-84.667 0 -150.167 -19.833 -196.5 -59.5s-69.5 -87.167 -69.5 -142.5c0 -38 15.667 -72.167 47 -102.5s70.333 -54.333 117 -72s97.667 -38.5 153 -62.5s106.166 -49 152.499 -75s85.166 -62.5 116.499 -109.5s47 -101.167 47 -162.5
c0 -148.667 -50.167 -266.334 -150.5 -353.001s-240.5 -130 -420.5 -130c-65.333 0 -127.5 7.83301 -186.5 23.5s-106.833 34.334 -143.5 56.001s-69 43.5 -97 65.5s-48.333 40.333 -61 55l-18 25l170 141c2.66699 -4 7 -9.83301 13 -17.5s19.667 -20.667 41 -39
s44.666 -34.666 69.999 -48.999s59.333 -27.333 102 -39s88 -17.5 136 -17.5z" />
    <glyph glyph-name="T" unicode="T" horiz-adv-x="1167" 
d="M252 1434h1085l-43 -205h-430l-260 -1229h-225l260 1229h-430z" />
    <glyph glyph-name="U" unicode="U" horiz-adv-x="1576" 
d="M754 184c102.667 0 196.168 38 280.501 114s138.166 167.667 161.499 275l182 861h226l-183 -861c-35.333 -168 -116.5 -308.833 -243.5 -422.5s-273.167 -170.5 -438.5 -170.5c-151.333 0 -278.833 46.667 -382.5 140s-155.5 209 -155.5 347c0 34 4 69.333 12 106
l182 861h226l-183 -861c-5.33301 -22 -8 -46.333 -8 -73c0 -90 31.5 -165.167 94.5 -225.5s139.5 -90.5 229.5 -90.5z" />
    <glyph glyph-name="V" unicode="V" horiz-adv-x="1454" 
d="M512 0l-260 1434h227l197 -1147l684 1147h244l-867 -1434h-225z" />
    <glyph glyph-name="W" unicode="W" horiz-adv-x="2191" 
d="M1403 1434l117 -1096l579 1096h242l-774 -1434h-221l-119 1085l-578 -1085h-229l-168 1434h229l117 -1096l580 1096h225z" />
    <glyph glyph-name="X" unicode="X" horiz-adv-x="1392" 
d="M776 932l465 502h281l-637 -686l375 -748h-252l-281 563l-518 -563h-281l690 748l-346 686h252z" />
    <glyph glyph-name="Y" unicode="Y" horiz-adv-x="1331" 
d="M465 1434l244 -686l534 686h258l-717 -922l-108 -512h-225l108 512l-328 922h234z" />
    <glyph glyph-name="Z" unicode="Z" horiz-adv-x="1290" 
d="M1055 1229h-754l43 205h1034l-43 -205l-1001 -1024h805l-43 -205h-1086l43 205z" />
    <glyph glyph-name="bracketleft" unicode="[" horiz-adv-x="675" 
d="M528 1290l-329 -1556h266l-35 -164h-450l399 1884h450l-34 -164h-267z" />
    <glyph glyph-name="backslash" unicode="\" horiz-adv-x="921" 
d="M498 -430l-222 1884h179l221 -1884h-178z" />
    <glyph glyph-name="bracketright" unicode="]" horiz-adv-x="675" 
d="M178 -266l330 1556h-266l34 164h451l-399 -1884h-449l33 164h266z" />
    <glyph glyph-name="asciicircum" unicode="^" horiz-adv-x="839" 
d="M559 1434h143l142 -594h-180l-78 358l-230 -358h-188z" />
    <glyph glyph-name="underscore" unicode="_" horiz-adv-x="696" 
d="M584 -184l-39 -185h-735l38 185h736z" />
    <glyph glyph-name="grave" unicode="`" horiz-adv-x="491" 
d="M479 1434l96 -287h-147l-156 287h207z" />
    <glyph glyph-name="a" unicode="a" horiz-adv-x="1239" 
d="M522 164c88.667 0 172.333 40.667 251 122s118 174.333 118 279c0 74 -24.333 134.833 -73 182.5s-107 71.5 -175 71.5c-90 0 -172.833 -39.833 -248.5 -119.5s-113.5 -172.167 -113.5 -277.5c0 -74 23.5 -135.5 70.5 -184.5s103.833 -73.5 170.5 -73.5zM650.999 1004
c57.333 0 111.996 -11.999 163.996 -35.999s89 -47.667 111 -71l35 -37l26 123h205l-209 -983h-205l21 104c-9.33301 -9.33301 -22.666 -20.833 -39.999 -34.5s-53.666 -32 -108.999 -55s-111.666 -34.5 -168.999 -34.5c-110.667 0 -206.5 41.5 -287.5 124.5
s-121.5 181.833 -121.5 296.5c0 165.333 59.333 307.166 178 425.499s252.334 177.5 401.001 177.5z" />
    <glyph glyph-name="b" unicode="b" horiz-adv-x="1249" 
d="M602 -20c-57.333 0 -112 11.833 -164 35.5s-89.333 47.167 -112 70.5l-35 37l-25 -123h-205l304 1434h204l-116 -555c9.33301 9.33301 22.5 20.833 39.5 34.5s53.5 32.167 109.5 55.5s112.667 35 170 35c110.667 0 206.667 -41.667 288 -125s122 -182.333 122 -297
c0 -165.333 -59.5 -307 -178.5 -425s-252.833 -177 -401.5 -177zM731 819c-88.667 0 -172.333 -40.667 -251 -122s-118 -174.333 -118 -279c0 -74 24.333 -134.833 73 -182.5s107 -71.5 175 -71.5c90 0 173 39.833 249 119.5s114 172.167 114 277.5
c0 74 -23.667 135.5 -71 184.5s-104.333 73.5 -171 73.5z" />
    <glyph glyph-name="c" unicode="c" horiz-adv-x="1064" 
d="M72 418c0 151.333 59.666 286.833 178.999 406.5s259 179.5 419 179.5c76.667 0 147.334 -16.5 212.001 -49.5s110.667 -65.833 138 -98.5l41 -47l-152 -125c-6.66699 9.33301 -16.167 21.5 -28.5 36.5s-41 35.167 -86 60.5s-93.5 38 -145.5 38
c-94 0 -178.833 -38.5 -254.5 -115.5s-113.5 -168.833 -113.5 -275.5c0 -74 24.833 -136.5 74.5 -187.5s110.167 -76.5 181.5 -76.5c52 0 102.5 13 151.5 39s85.167 51.333 108.5 76l34 38l109 -133c-4 -5.33301 -10.5 -12.833 -19.5 -22.5s-28.167 -26 -57.5 -49
s-59.666 -43.333 -90.999 -61s-70.833 -34 -118.5 -49s-95.5 -22.5 -143.5 -22.5c-118.667 0 -221.334 44 -308.001 132s-130 190 -130 306z" />
    <glyph glyph-name="d" unicode="d" horiz-adv-x="1249" 
d="M651 1004c57.333 0 111.996 -11.999 163.996 -35.999s89 -47.667 111 -71l35 -37l120 574h205l-303 -1434h-205l21 104c-9.33301 -9.33301 -22.666 -20.833 -39.999 -34.5s-53.666 -32 -108.999 -55s-111.666 -34.5 -168.999 -34.5c-110.667 0 -206.5 41.5 -287.5 124.5
s-121.5 181.833 -121.5 296.5c0 165.333 59.333 307.166 178 425.499s252.334 177.5 401.001 177.5zM521.996 164.001c88.667 0 172.333 40.667 251 122s118 174.333 118 279c0 74 -24.333 134.833 -73 182.5s-107 71.5 -175 71.5c-90 0 -172.833 -39.833 -248.5 -119.5
s-113.5 -172.167 -113.5 -277.5c0 -74 23.5 -135.5 70.5 -184.5s103.833 -73.5 170.5 -73.5z" />
    <glyph glyph-name="e" unicode="e" horiz-adv-x="1146" 
d="M1040 420l-770.002 0.000976562c2.66699 -70.667 28.334 -131 77.001 -181s110.334 -75 185.001 -75c57.333 0 112.666 13 165.999 39s92.333 52.667 117 80l37 39l109 -138c-4 -5.33301 -10.5 -12.833 -19.5 -22.5s-28.167 -26 -57.5 -49s-60.166 -43.333 -92.499 -61
s-73.333 -34 -123 -49s-100.5 -22.5 -152.5 -22.5c-120 0 -223.667 43.667 -311 131s-131 190.333 -131 309c0 160 58.667 297.333 176 412s255.333 172 414 172c120 0 220.167 -35.167 300.5 -105.5s120.5 -159.5 120.5 -267.5c0 -66.667 -13.667 -134.334 -41 -203.001z
M650.998 829.001c-70.667 0 -137.832 -22.167 -201.499 -66.5s-111.167 -100.5 -142.5 -168.5h580c2.66699 68 -16.833 124.167 -58.5 168.5s-100.834 66.5 -177.501 66.5z" />
    <glyph glyph-name="f" unicode="f" horiz-adv-x="696" 
d="M741 983l-41.001 -184h-225l-168 -799h-205l168 799h-143l41 184h143l35 164c42 204.667 155.333 307 340 307c24.667 0 49.334 -1.66699 74.001 -5s43 -7 55 -11l21 -4l-39 -185c-30 13.333 -62.333 20.333 -97 21c-35.333 0 -67.333 -11.667 -96 -35
s-47 -53.333 -55 -90l-33 -162h225z" />
    <glyph glyph-name="g" unicode="g" 
d="M750 59l14.002 75.999c-8 -8 -20.333 -18.5 -37 -31.5s-50.834 -30.167 -102.501 -51.5s-104.834 -32 -159.501 -32c-106.667 0 -198.167 41 -274.5 123s-114.5 179 -114.5 291c0 158.667 56.333 293.334 169 404.001s240.667 166 384 166
c54.667 0 106.167 -11 154.5 -33s83.5 -44 105.5 -66l33 -33l24 111h205l-197 -922c-30 -142 -96.167 -259.333 -198.5 -352s-221.166 -139 -356.499 -139c-56 0 -109.167 7.16699 -159.5 21.5s-91.5 31.333 -123.5 51s-60.333 39.5 -85 59.5s-42.667 37.333 -54 52l-16 21
l156 129c2.66699 -4 6.66699 -9.5 12 -16.5s17.333 -19 36 -36s38.5 -32 59.5 -45s48.167 -25 81.5 -36s68.666 -16.5 105.999 -16.5c82 0 154.333 28.333 217 85s103 130 121 220zM625.002 818.999c-90 0 -169.166 -37.501 -237.499 -112.501s-102.5 -159.5 -102.5 -253.5
c0 -69.333 22.167 -128 66.5 -176s97.833 -72 160.5 -72c83.333 0 161.166 37.833 233.499 113.5s108.5 163.5 108.5 263.5c0 66.667 -22.5 122.834 -67.5 168.501s-98.833 68.5 -161.5 68.5z" />
    <glyph glyph-name="h" unicode="h" horiz-adv-x="1208" 
d="M569 1434l-115.999 -553.001c8 9.33301 19.833 20.833 35.5 34.5s49.167 31.834 100.5 54.501s104.333 34 159 34c104 0 188 -29.167 252 -87.5s96 -137.833 96 -238.5c0 -32.667 -4.33301 -67.667 -13 -105l-120 -573h-205l121 573c4 19.333 6 38 6 56
c0 57.333 -18.5 103.333 -55.5 138s-84.167 52 -141.5 52c-76.667 0 -142.834 -26.167 -198.501 -78.5s-93.167 -124.5 -112.5 -216.5l-111 -524h-205l304 1434h204z" />
    <glyph glyph-name="i" unicode="i" horiz-adv-x="512" 
d="M549 1303c0 -35.333 -13.333 -66.834 -40 -94.501s-58.334 -41.5 -95.001 -41.5c-35.333 0 -63.666 10.333 -84.999 31s-32 46 -32 76c0 39.333 13.333 72 40 98s58.334 39 95.001 39c35.333 0 63.666 -10.167 84.999 -30.5s32 -46.166 32 -77.499zM465 982.999
l-209 -983h-205l209 983h205z" />
    <glyph glyph-name="j" unicode="j" horiz-adv-x="512" 
d="M25 -121l235 1104h205l-236 -1106c-45.333 -204.667 -160.666 -307 -345.999 -307c-24.667 0 -48.834 1.66699 -72.501 5s-41.167 7 -52.5 11l-18 4l39 185c31.333 -13.333 64 -20.333 98 -21c35.333 0 66.833 11.667 94.5 35s45.5 53.333 53.5 90zM549 1303
c0 -35.333 -13.333 -66.834 -40 -94.501s-58.334 -41.5 -95.001 -41.5c-35.333 0 -63.666 10.333 -84.999 31s-32 46 -32 76c0 39.333 13.333 72 40 98s58.334 39 95.001 39c35.333 0 63.666 -10.167 84.999 -30.5s32 -46.166 32 -77.499z" />
    <glyph glyph-name="k" unicode="k" horiz-adv-x="1085" 
d="M1141 983l-467 -410l289 -573h-218l-227 446l-194 -170l-58 -276h-205l304 1434h204l-186 -883l502 432h256z" />
    <glyph glyph-name="l" unicode="l" horiz-adv-x="532" 
d="M569 1434l-303 -1434h-205l304 1434h204z" />
    <glyph glyph-name="m" unicode="m" horiz-adv-x="1761" 
d="M1311 0l121.004 573.002c5.33301 26 8 52.667 8 80c0 54.667 -14.333 96 -43 124s-69 42 -121 42c-64 0 -122.333 -25.5 -175 -76.5s-88.667 -121.167 -108 -210.5l-112 -532h-205l121 573c5.33301 26 8 52.667 8 80c0 54.667 -14.333 96 -43 124s-69 42 -121 42
c-64 0 -122.333 -25.5 -175 -76.5s-88.667 -121.167 -108 -210.5l-112 -532h-205l209 983h205l-23 -102c8 9.33301 19.167 20.833 33.5 34.5s44.833 31.834 91.5 54.501s94.334 34 143.001 34c39.333 0 76.166 -5.5 110.499 -16.5s61.833 -24.667 82.5 -41
s38.167 -32.833 52.5 -49.5s24.166 -30.334 29.499 -41.001l8 -16c4 4 9.16699 9.66699 15.5 17s20.666 20.666 42.999 39.999s46.166 36.166 71.499 50.499s58.166 27.333 98.499 39s81.5 17.5 123.5 17.5c96.667 0 173.5 -26 230.5 -78s85.5 -127.333 85.5 -226
c0 -40.667 -5 -83 -15 -127l-120 -573h-205z" />
    <glyph glyph-name="n" unicode="n" 
d="M455 983l-23 -102.001c8 9.33301 20 20.833 36 34.5s49.5 31.834 100.5 54.501s103.833 34 158.5 34c104 0 188 -29.167 252 -87.5s96 -137.833 96 -238.5c0 -32.667 -4 -67.667 -12 -105l-121 -573h-205l121 573c4 19.333 6 38 6 56c0 57.333 -18.333 103.333 -55 138
s-83.667 52 -141 52c-76.667 0 -143 -26.167 -199 -78.5s-93.667 -124.5 -113 -216.5l-110 -524h-205l209 983h205z" />
    <glyph glyph-name="o" unicode="o" 
d="M553 164c91.333 0 173.833 38.499 247.5 115.499s110.5 162.833 110.5 257.5c0 80.667 -25.833 147.834 -77.5 201.501s-117.167 80.5 -196.5 80.5c-90 0 -171.833 -37.5 -245.5 -112.5s-110.5 -162.5 -110.5 -262.5c0 -80.667 25.833 -147.5 77.5 -200.5
s116.5 -79.5 194.5 -79.5zM72 437.999c0 144.667 59 275.167 177 391.5s253.333 174.5 406 174.5c131.333 0 241.666 -45.167 330.999 -135.5s134 -198.833 134 -325.5c0 -148.667 -60.667 -279.667 -182 -393s-255.666 -170 -402.999 -170c-132.667 0 -243 45 -331 135
s-132 197.667 -132 323z" />
    <glyph glyph-name="p" unicode="p" horiz-adv-x="1228" 
d="M582 -20c-57.333 0 -111.998 11.833 -163.998 35.5s-89.667 47.167 -113 70.5l-35 37l-116 -553h-205l301 1413h205l-23 -104c9.33301 9.33301 22.666 20.833 39.999 34.5s54 32.167 110 55.5s112.667 35 170 35c110.667 0 206.5 -41.667 287.5 -125
s121.5 -182.333 121.5 -297c0 -165.333 -59.333 -307 -178 -425s-252.334 -177 -401.001 -177zM711.002 819c-88.667 0 -172.333 -40.667 -251 -122s-118 -174.333 -118 -279c0 -74 24.167 -134.833 72.5 -182.5s106.833 -71.5 175.5 -71.5c90 0 172.833 39.833 248.5 119.5
s113.5 172.167 113.5 277.5c0 74 -23.5 135.5 -70.5 184.5s-103.833 73.5 -170.5 73.5z" />
    <glyph glyph-name="q" unicode="q" horiz-adv-x="1228" 
d="M651 1004c57.333 0 111.996 -11.999 163.996 -35.999s89 -47.667 111 -71l35 -37l26 123h205l-301 -1413h-205l113 534c-9.33301 -9.33301 -22.666 -20.833 -39.999 -34.5s-53.666 -32 -108.999 -55s-111.666 -34.5 -168.999 -34.5c-110.667 0 -206.5 41.5 -287.5 124.5
s-121.5 181.833 -121.5 296.5c0 165.333 59.333 307.166 178 425.499s252.334 177.5 401.001 177.5zM521.996 164.001c88.667 0 172.333 40.667 251 122s118 174.333 118 279c0 74 -24.333 134.833 -73 182.5s-107 71.5 -175 71.5c-90 0 -172.833 -39.833 -248.5 -119.5
s-113.5 -172.167 -113.5 -277.5c0 -74 23.5 -135.5 70.5 -184.5s103.833 -73.5 170.5 -73.5z" />
    <glyph glyph-name="r" unicode="r" horiz-adv-x="716" 
d="M764 809c-24.667 6.66699 -54.0029 10 -88.0029 10c-78 0 -146 -26.167 -204 -78.5s-96.667 -124.5 -116 -216.5l-110 -524h-205l209 983h205l-23 -100c10.667 9.33301 25.334 20.5 44.001 33.5s56.334 30.833 113.001 53.5s112.334 34 167.001 34h51z" />
    <glyph glyph-name="s" unicode="s" horiz-adv-x="890" 
d="M850 870l-155.998 -128.996c-4 5.33301 -10.833 12.5 -20.5 21.5s-29.834 20.667 -60.501 35s-62.334 21.5 -95.001 21.5c-50.667 0 -90.667 -10.5 -120 -31.5s-44 -46.5 -44 -76.5c0 -27.333 14.333 -51.333 43 -72s63.5 -38.834 104.5 -54.501s82 -33 123 -52
s75.833 -46.333 104.5 -82s43 -77.167 43 -124.5c0 -96.667 -37.5 -178.5 -112.5 -245.5s-174.167 -100.5 -297.5 -100.5c-48 0 -93.333 6 -136 18s-78 26.333 -106 43s-52.333 33.5 -73 50.5s-35 31.5 -43 43.5l-14 19l155 129c5.33301 -8 13.833 -19 25.5 -33
s37.667 -31.833 78 -53.5s83.166 -32.5 128.499 -32.5c58.667 0 104.334 11.167 137.001 33.5s49 54.166 49 95.499c0 27.333 -14.333 50.833 -43 70.5s-63.834 37.667 -105.501 54s-83 34.166 -124 53.499s-75.833 46.666 -104.5 81.999s-43 77 -43 125
c0 86 35.5 161.833 106.5 227.5s164.5 98.5 280.5 98.5c39.333 0 77.5 -4.5 114.5 -13.5s67.5 -20 91.5 -33s44.833 -26.333 62.5 -40s30.834 -24.5 39.501 -32.5z" />
    <glyph glyph-name="t" unicode="t" horiz-adv-x="778" 
d="M397 1106l45.001 205h185l-70 -328h205l-41 -184h-205l-108 -510c-6.66699 -36.667 -2 -66.667 14 -90s42 -35 78 -35c15.333 0 32.5 1.66699 51.5 5s33.833 7 44.5 11l16 4l-39 -184c-40.667 -13.333 -88.334 -20 -143.001 -20c-92.667 0 -159.167 25.833 -199.5 77.5
s-49.5 128.167 -27.5 229.5l108 512h-184l41 184h102c68 0 110.333 41 127 123z" />
    <glyph glyph-name="u" unicode="u" 
d="M737 0l19 92c-8 -8 -20.333 -18.167 -37 -30.5s-51.167 -29 -103.5 -50s-105.833 -31.5 -160.5 -31.5c-102.667 0 -185 28.667 -247 86s-93 135.666 -93 234.999c0 34 4 70.333 12 109l123 573h205l-123 -573c-4 -20.667 -6 -40 -6 -58c0 -56 18 -101.333 54 -136
s82.667 -52 140 -52c76.667 0 143 26.333 199 79s94.333 125.334 115 218.001l112 522h205l-209 -983h-205z" />
    <glyph glyph-name="v" unicode="v" horiz-adv-x="1044" 
d="M522 0h-205l-190 983h207l133 -717l440 717h223z" />
    <glyph glyph-name="w" unicode="w" horiz-adv-x="1556" 
d="M786 983h185l80 -676l372 676h219l-546 -983h-191l-86 655l-364 -655h-199l-129 983h209l80 -676z" />
    <glyph glyph-name="x" unicode="x" horiz-adv-x="1024" 
d="M641 512l260 -512h-225l-180 358l-332 -358h-246l477 512l-237 471h225l158 -317l293 317h245z" />
    <glyph glyph-name="y" unicode="y" horiz-adv-x="1044" 
d="M248 -102l69 110l-190 975h207l133 -717l440 717h223l-671 -1085c-76.667 -122.667 -144 -208 -202 -256s-124.667 -72 -200 -72c-27.333 0 -52.833 1.66699 -76.5 5s-41.167 7 -52.5 11l-16 4l39 185c31.333 -13.333 64 -20.333 98 -21
c72.667 0.666992 139 48.667 199 144z" />
    <glyph glyph-name="z" unicode="z" horiz-adv-x="983" 
d="M987 983l-41 -184l-661 -615h553l-39 -184h-819l38 184l662 615h-512l41 184h778z" />
    <glyph glyph-name="braceleft" unicode="{" horiz-adv-x="737" 
d="M121 430l35.0029 164.002c82 0 131.667 41 149 123l94 440c19.333 92.667 62.166 165.334 128.499 218.001s149.833 79 250.5 79h113l-35 -164h-113c-40.667 0 -75.334 -11.833 -104.001 -35.5s-47 -56.167 -55 -97.5l-95 -440c-5.33301 -24.667 -12.333 -47.667 -21 -69
s-17.5 -38.833 -26.5 -52.5s-18.667 -25.834 -29 -36.501s-19.833 -18.834 -28.5 -24.501s-17.167 -10.5 -25.5 -14.5s-14.5 -6.66699 -18.5 -8h-4h4c4 -1.33301 9.16699 -4 15.5 -8s12.5 -8.83301 18.5 -14.5s12 -13.834 18 -24.501s10.833 -22.834 14.5 -36.501
s5.16699 -31.167 4.5 -52.5s-4 -44.333 -10 -69l-92 -440c-9.33301 -40.667 -4.5 -73 14.5 -97s49.167 -36 90.5 -36h112l-34 -164h-113c-101.333 0 -173.833 26.333 -217.5 79s-55.834 125.334 -36.501 218.001l92 440c19.333 82 -12.667 123 -96 123z" />
    <glyph glyph-name="bar" unicode="|" horiz-adv-x="716" 
d="M666 1454l-400 -1884h-184l399 1884h185z" />
    <glyph glyph-name="braceright" unicode="}" horiz-adv-x="737" 
d="M647 594l-35 -164.002c-80.667 0 -130.334 -41 -149.001 -123l-92 -440c-19.333 -92.667 -62.5 -165.334 -129.5 -218.001s-150.833 -79 -251.5 -79h-111l33 164h113c40.667 0 75.334 11.833 104.001 35.5s47.667 56.167 57 97.5l93 440
c5.33301 24.667 12.333 47.667 21 69s17.834 38.833 27.501 52.5s19.667 25.834 30 36.501s19.833 18.834 28.5 24.501s17.167 10.5 25.5 14.5s14.5 6.66699 18.5 8h4h-4c-4 1.33301 -9 4 -15 8s-12.167 8.83301 -18.5 14.5s-12.5 13.834 -18.5 24.501
s-10.833 22.834 -14.5 36.501s-5.5 31.167 -5.5 52.5s3 44.333 9 69l94 440c8 40.667 2.5 73 -16.5 97s-49.167 36 -90.5 36h-112l34 164h113c101.333 0 174.166 -26.333 218.499 -79s56.833 -125.334 37.5 -218.001l-94 -440c-18 -82 14 -123 96 -123z" />
    <glyph glyph-name="asciitilde" unicode="~" horiz-adv-x="1126" 
d="M801 614c36.667 0 71.999 10.332 105.999 30.999s59.333 41.334 76 62.001l23 30l102 -92c-2.66699 -5.33301 -7.5 -12.166 -14.5 -20.499s-21 -23 -42 -44s-43.167 -39.667 -66.5 -56s-53.333 -31 -90 -44s-74.334 -19.5 -113.001 -19.5
c-57.333 0 -108.166 11.167 -152.499 33.5s-84.833 44.5 -121.5 66.5s-74.334 33 -113.001 33c-36.667 0 -72 -10.333 -106 -31s-59.333 -41 -76 -61l-23 -31l-102 92c2.66699 5.33301 7.5 12.166 14.5 20.499s21 23 42 44s43.167 39.833 66.5 56.5s53.333 31.5 90 44.5
s74.334 19.5 113.001 19.5c58.667 0 109.834 -11.333 153.501 -34s84 -45 121 -67s74.5 -33 112.5 -33z" />
    <glyph glyph-name="uni00A0" unicode="&#xa0;" horiz-adv-x="409" 
 />
    <glyph glyph-name="exclamdown" unicode="&#xa1;" horiz-adv-x="593" 
d="M250 604h164l-178 -1034h-246zM246 858c0 36.667 15.333 70.168 46 100.501s65.667 45.5 105 45.5c35.333 0 64.333 -12 87 -36s34 -53 34 -87c0 -36.667 -15.667 -69.834 -47 -99.501s-66 -44.5 -104 -44.5c-34 0 -62.667 12 -86 36s-35 52.333 -35 85z" />
    <glyph glyph-name="cent" unicode="&#xa2;" horiz-adv-x="1013" 
d="M647 819c-96.667 0 -181.834 -39.835 -255.501 -119.502s-110.5 -169.5 -110.5 -269.5c0 -74 22.5 -136.833 67.5 -188.5s100.833 -77.5 167.5 -77.5c45.333 0 89.833 9.83301 133.5 29.5s75.5 39.834 95.5 60.501l33 29l103 -129c-94 -94 -201.333 -149.333 -322 -166
l-45 -213h-184l47 223c-88.667 26 -161.667 76.5 -219 151.5s-86 160.5 -86 256.5c0 142 50.167 271 150.5 387s222.166 183.333 365.499 202l47 213h184l-47 -219c110.667 -24.667 192 -75 244 -151l-152 -125c-4 8 -11.167 17.833 -21.5 29.5
s-34.166 27.334 -71.499 47.001s-78.666 29.5 -123.999 29.5z" />
    <glyph glyph-name="sterling" unicode="&#xa3;" 
d="M383 983c30 146 92.501 261.003 187.501 345.003s213.5 126 355.5 126c48 0 93.667 -6.5 137 -19.5s79 -28.333 107 -46s52.333 -35.334 73 -53.001s35.667 -32.834 45 -45.501l15 -20l-166 -137c-5.33301 8 -13.833 18.5 -25.5 31.5s-38 30.333 -79 52
s-86.167 32.5 -135.5 32.5c-76.667 0 -143.334 -24.833 -200.001 -74.5s-93 -113.5 -109 -191.5l-49 -225h399l-39 -185h-399l-58 -266c-5.33301 -24.667 -13.166 -47.167 -23.499 -67.5s-18.833 -34.5 -25.5 -42.5l-10 -13h690l-39 -184h-983l39 184
c35.333 0 66.666 11.667 93.999 35s45.333 52.666 54 87.999l57 266h-123l39 185h123z" />
    <glyph glyph-name="currency" unicode="&#xa4;" horiz-adv-x="1413" 
d="M559 758l352 -0.00195312c75.333 0 140.333 25.833 195 77.5s82 115.834 82 192.501c0 54.667 -19.833 101.834 -59.5 141.501s-88.167 59.5 -145.5 59.5h-324zM889 552.998h-373l-31 -143h461l-43 -205h-461l-43 -205h-225l43 205h-164l43 205h164l31 143h-164l43 205
h164l143 676h529c114.667 0 212.167 -38 292.5 -114s120.5 -165 120.5 -267c0 -142 -51.167 -260.833 -153.5 -356.5s-227.833 -143.5 -376.5 -143.5z" />
    <glyph glyph-name="yen" unicode="&#xa5;" horiz-adv-x="1331" 
d="M711 748l534 686h256l-588 -748h226l-37 -174h-318l-26 -123h317l-37 -174h-317l-45 -215h-225l45 215h-318l37 174h317l27 123h-317l37 174h225l-273 748h236z" />
    <glyph glyph-name="brokenbar" unicode="&#xa6;" horiz-adv-x="716" 
d="M248 348h184l-166 -778h-184zM502 676h-185l164 778h185z" />
    <glyph glyph-name="section" unicode="&#xa7;" horiz-adv-x="1095" 
d="M1079 1321l-156.998 -131c-56 53.333 -121.667 80 -197 80c-66.667 0 -117.834 -14 -153.501 -42s-53.5 -64 -53.5 -108c0 -30 17.167 -57.333 51.5 -82s76 -46.834 125 -66.501s98 -41.167 147 -64.5s90.667 -55.666 125 -96.999s51.5 -90 51.5 -146
c0 -44 -8.5 -85.167 -25.5 -123.5s-37.5 -69.333 -61.5 -93s-48.333 -44.167 -73 -61.5s-45.167 -29.666 -61.5 -36.999s-25.166 -11 -26.499 -11c6.66699 -5.33301 15.5 -13.166 26.5 -23.499s25.667 -31.5 44 -63.5s27.5 -65 27.5 -99c0 -104 -43 -192.833 -129 -266.5
s-195.667 -110.5 -329 -110.5c-52 0 -101.667 6.83301 -149 20.5s-86 30 -116 49s-56.167 37.667 -78.5 56s-39.166 34.5 -50.499 48.5l-14 20l154 125l10 -15c4 -6 13.833 -16.5 29.5 -31.5s32.667 -28.667 51 -41s42.166 -23.333 71.499 -33s60.666 -14.5 93.999 -14.5
c76.667 0 137.5 18.5 182.5 55.5s67.5 82.167 67.5 135.5c0 30 -17.833 57.167 -53.5 81.5s-79.167 46.5 -130.5 66.5s-102.5 41.833 -153.5 65.5s-94.333 56.334 -130 98.001s-53.5 90.5 -53.5 146.5c0 44 8.66699 84.667 26 122s37.833 68 61.5 92
s47.834 44.5 72.501 61.5s45.167 29.333 61.5 37s25.166 11.5 26.499 11.5c-53.333 49.333 -80 110.666 -80 183.999c0 95.333 38 175.5 114 240.5s177.333 97.5 304 97.5c39.333 0 78.5 -4.5 117.5 -13.5s72.167 -19.833 99.5 -32.5s51.666 -25.834 72.999 -39.501
s37.333 -24.834 48 -33.501zM625.002 440c-1.33301 0 0.670898 0.668945 6.00391 2.00195s13.833 4.16602 25.5 8.49902s23.667 9.5 36 15.5s25.333 14.5 39 25.5s26.167 23 37.5 36s20.5 29 27.5 48s10.5 40.167 10.5 63.5c0 27.333 -9.16699 52.333 -27.5 75
s-40.833 40.667 -67.5 54s-53.667 24.833 -81 34.5s-50.666 16.5 -69.999 20.5l-26 6c1.33301 0 -0.833984 -0.666992 -6.50098 -2s-14.334 -4 -26.001 -8s-23.5 -9 -35.5 -15s-24.833 -14.5 -38.5 -25.5s-26.334 -23 -38.001 -36s-21 -29 -28 -48
s-10.5 -40.167 -10.5 -63.5c0 -27.333 9.33301 -52.333 28 -75s41.167 -40.834 67.5 -54.501s53.166 -25.167 80.499 -34.5s50.666 -16.333 69.999 -21z" />
    <glyph glyph-name="dieresis" unicode="&#xa8;" horiz-adv-x="798" 
d="M489 1309c0 -36.667 -13.166 -69.499 -39.499 -98.499s-58.833 -43.5 -97.5 -43.5c-34 0 -61.5 10 -82.5 30s-31.5 45 -31.5 75c0 39.333 13.5 72.666 40.5 99.999s59.167 41 96.5 41c35.333 0 63.166 -9.83301 83.499 -29.5s30.5 -44.5 30.5 -74.5zM920.001 1309
c0 -36.667 -13.332 -69.499 -39.999 -98.499s-59.334 -43.5 -98.001 -43.5c-34 0 -61.5 10 -82.5 30s-31.5 45 -31.5 75c0 39.333 13.667 72.666 41 99.999s59.333 41 96 41c35.333 0 63.333 -9.83301 84 -29.5s31 -44.5 31 -74.5z" />
    <glyph glyph-name="copyright" unicode="&#xa9;" horiz-adv-x="1843" 
d="M1040 963c-75.333 0 -144.334 -29.833 -207.001 -89.5s-94 -127.5 -94 -203.5c0 -56 19.167 -103.167 57.5 -141.5s86.166 -57.5 143.499 -57.5c42 0 82.833 10.667 122.5 32s68.5 42 86.5 62l27 33l86 -106c-2.66699 -4 -7.16699 -9.83301 -13.5 -17.5s-20 -21 -41 -40
s-43.5 -35.833 -67.5 -50.5s-55.167 -27.667 -93.5 -39s-77.166 -17 -116.499 -17c-96.667 0 -178.5 32.333 -245.5 97s-100.5 142 -100.5 232c0 124 46.333 229.833 139 317.5s202.667 131.5 330 131.5c39.333 0 76.833 -5.16699 112.5 -15.5s64 -23.333 85 -39
s39.333 -31 55 -46s26.834 -27.833 33.501 -38.5l9 -15l-115 -96c-4 8 -10.167 17.833 -18.5 29.5s-29 27.5 -62 47.5s-70.5 30 -112.5 30zM914.999 121c173.333 0 329 66.832 467 200.499s207 288.5 207 464.5c0 146 -51.167 270.333 -153.5 373s-231.833 154 -388.5 154
c-173.333 0 -329.333 -66.667 -468 -200s-208 -288.666 -208 -465.999c0 -147.333 51.333 -271.833 154 -373.5s232.667 -152.5 390 -152.5zM1757 798.999c0 -139.333 -38.5 -272.166 -115.5 -398.499s-181.5 -228 -313.5 -305s-271.667 -115.5 -419 -115.5
c-207.333 0 -376.5 63 -507.5 189s-196.5 281.333 -196.5 466c0 221.333 85.667 413.166 257 575.499s368.333 243.5 591 243.5c207.333 0 376.5 -63.167 507.5 -189.5s196.5 -281.5 196.5 -465.5z" />
    <glyph glyph-name="ordfeminine" unicode="&#xaa;" horiz-adv-x="700" 
d="M610 1112l-190 -30.999c-65.333 -10.667 -98 -37.334 -98 -80.001c0 -39.333 28 -59 84 -59c40.667 0 82.5 16.333 125.5 49s68.5 69.667 76.5 111zM358 829.001c-52 0 -93.999 13.9971 -125.999 41.9971s-48 64 -48 108c0 54.667 21.167 100.834 63.5 138.501
s100.5 61.834 174.5 72.501l211 31c1.33301 5.33301 2 12 2 20c0 26 -8.83301 47.5 -26.5 64.5s-42.167 25.5 -73.5 25.5c-30 0 -59.5 -6.83301 -88.5 -20.5s-50.167 -27.167 -63.5 -40.5l-21 -21l-73 82c6.66699 9.33301 17.167 20.833 31.5 34.5
s44.666 31.834 90.999 54.501s95.5 34 147.5 34c64 0 113.833 -15.333 149.5 -46s53.5 -73.334 53.5 -128.001c0 -20.667 -2 -41 -6 -61l-78 -369h-123l14 72c-5.33301 -6.66699 -13.5 -15.167 -24.5 -25.5s-35 -24.166 -72 -41.499s-75.167 -26 -114.5 -26z" />
    <glyph glyph-name="guillemotleft" unicode="&#xab;" horiz-adv-x="1024" 
d="M707 479l165 -336h-196l-172 349l321 348h213zM297 479l166 -336h-197l-172 349l322 348h213z" />
    <glyph glyph-name="logicalnot" unicode="&#xac;" horiz-adv-x="962" 
d="M963 819l-101 -471h-205l60 287h-594l41 184h799z" />
    <glyph glyph-name="uni00AD" unicode="&#xad;" horiz-adv-x="880" 
d="M854 696l-39 -184h-717l39 184h717z" />
    <glyph glyph-name="registered" unicode="&#xae;" horiz-adv-x="1843" 
d="M1126 655l107.001 -317.001h-158l-92 287h-141l-60 -287h-153l159 758h312c61.333 0 112.5 -20.833 153.5 -62.5s61.5 -90.5 61.5 -146.5c0 -24.667 -3.5 -48.334 -10.5 -71.001s-15.833 -41.5 -26.5 -56.5s-23.167 -28.667 -37.5 -41s-28 -22.166 -41 -29.499
s-25.333 -13.666 -37 -18.999s-20.834 -9 -27.501 -11zM911.001 951.999l-39 -184h164c32.667 0 61.667 11 87 33s38 48 38 78c0 20.667 -8.5 38 -25.5 52s-38.5 21 -64.5 21h-160zM915.001 120.999c173.333 0 329 66.832 467 200.499s207 288.5 207 464.5
c0 146 -51.167 270.333 -153.5 373s-231.833 154 -388.5 154c-173.333 0 -329.333 -66.667 -468 -200s-208 -288.666 -208 -465.999c0 -147.333 51.333 -271.833 154 -373.5s232.667 -152.5 390 -152.5zM1757 798.998c0 -139.333 -38.5 -272.166 -115.5 -398.499
s-181.5 -228 -313.5 -305s-271.667 -115.5 -419 -115.5c-207.333 0 -376.5 63 -507.5 189s-196.5 281.333 -196.5 466c0 221.333 85.667 413.166 257 575.499s368.333 243.5 591 243.5c207.333 0 376.5 -63.167 507.5 -189.5s196.5 -281.5 196.5 -465.5z" />
    <glyph glyph-name="macron" unicode="&#xaf;" horiz-adv-x="757" 
d="M907 1434l-30 -144h-635l30 144h635z" />
    <glyph glyph-name="degree" unicode="&#xb0;" horiz-adv-x="757" 
d="M838 1194c0 -82 -34.167 -154.667 -102.5 -218s-145.5 -95 -231.5 -95c-78 0 -143 25.833 -195 77.5s-78 113.167 -78 184.5c0 82 34.5 154.333 103.5 217s146.5 94 232.5 94c78 0 142.667 -26 194 -78s77 -112.667 77 -182zM551 1321
c-45.333 0 -84 -17.332 -116 -51.999s-48 -75.334 -48 -122.001c0 -39.333 12.333 -71.333 37 -96s56.667 -37 96 -37c42 0 79.5 16.667 112.5 50s49.5 76 49.5 128c0 38 -12 69 -36 93s-55.667 36 -95 36z" />
    <glyph glyph-name="plusminus" unicode="&#xb1;" horiz-adv-x="1075" 
d="M598 317h-174l80 369h-369l39 184h369l78 369h174l-78 -369h368l-38 -184h-369zM-10 0l39 184h911l-39 -184h-911z" />
    <glyph glyph-name="uni00B2" unicode="&#xb2;" horiz-adv-x="655" 
d="M788 1468.5c0 -51.667 -13.8311 -98.335 -41.498 -140.002s-58.334 -74.167 -92.001 -97.5s-76.834 -51 -129.501 -83s-92.334 -59.667 -119.001 -83h301l-31 -143h-492l4 20c12 58.667 36.167 110.167 72.5 154.5s75.333 79.833 117 106.5s82.667 51.334 123 74.001
s73.833 47.667 100.5 75s40 58 40 92c0 20.667 -7.83301 37.834 -23.5 51.501s-36.5 20.5 -62.5 20.5c-24.667 0 -48.5 -8.66699 -71.5 -26s-40.167 -34.666 -51.5 -51.999l-16 -25l-119 41c1.33301 5.33301 4 12.5 8 21.5s13.833 24.333 29.5 46s32.834 41.167 51.501 58.5
s44.667 33.166 78 47.499s69 21.5 107 21.5c64 0 116.167 -17.167 156.5 -51.5s60.5 -77.333 60.5 -129z" />
    <glyph glyph-name="uni00B3" unicode="&#xb3;" horiz-adv-x="675" 
d="M668 1300c5.33301 -2.66699 12.333 -7.33496 21 -14.002s20.167 -21.667 34.5 -45s21.5 -48.666 21.5 -75.999c0 -72.667 -27.167 -133.167 -81.5 -181.5s-125.833 -72.5 -214.5 -72.5c-57.333 0 -107.666 11.333 -150.999 34s-71.666 45 -84.999 67l-23 32l111 93
c1.33301 -2.66699 3 -6.16699 5 -10.5s7.83301 -11.5 17.5 -21.5s19.667 -19.167 30 -27.5s25 -16 44 -23s38.833 -10.5 59.5 -10.5c45.333 0 80.5 11 105.5 33s37.5 48.667 37.5 80c0 48 -34.667 72 -104 72h-82l30 143h72c79.333 0 119 28 119 84
c0 39.333 -29.333 59.333 -88 60c-24.667 0 -50.334 -6.83301 -77.001 -20.5s-47.334 -27.5 -62.001 -41.5l-23 -20l-72 92c2.66699 2.66699 6.5 7 11.5 13s16 15.833 33 29.5s34.667 26 53 37s41.5 21 69.5 30s56.333 13.5 85 13.5c64 0 115.833 -17.167 155.5 -51.5
s59.5 -75.166 59.5 -122.499c0 -36.667 -9.5 -69.5 -28.5 -98.5s-36.667 -49 -53 -60s-26.5 -16.5 -30.5 -16.5z" />
    <glyph glyph-name="acute" unicode="&#xb4;" horiz-adv-x="491" 
d="M209 1147l209 287h223l-274 -287h-158z" />
    <glyph glyph-name="mu" unicode="&#xb5;" 
d="M-51 -430l301.001 1413h205l-123 -573c-15.333 -69.333 -4.5 -127.666 32.5 -174.999s86.833 -71 149.5 -71c72.667 0 135.5 24.833 188.5 74.5s89.167 120.5 108.5 212.5l115 532h204l-161 -758c-10.667 -54.667 10.333 -82 63 -82l43 11l-35 -164
c-22 -6.66699 -46.333 -10 -73 -10c-36.667 0 -68 5 -94 15s-44.833 22.5 -56.5 37.5s-20.667 30.333 -27 46s-9.5 29.167 -9.5 40.5v14c-2.66699 -4 -7 -9.5 -13 -16.5s-19.333 -19.333 -40 -37s-42.834 -33.334 -66.501 -47.001s-55 -25.834 -94 -36.501
s-79.833 -16 -122.5 -16c-30 0 -61 5 -93 15s-56 20 -72 30l-25 16l-100 -471h-205z" />
    <glyph glyph-name="paragraph" unicode="&#xb6;" horiz-adv-x="1167" 
d="M293 -205l201 942c-79.333 0 -146.333 32.167 -201 96.5s-82 136.833 -82 217.5c0 102.667 45 192.167 135 268.5s188.333 114.5 295 114.5h573l-348 -1639h-184l309 1454h-205l-309 -1454h-184z" />
    <glyph glyph-name="periodcentered" unicode="&#xb7;" horiz-adv-x="409" 
d="M356 524c0 -36.667 -15.333 -70 -46 -100s-65.667 -45 -105 -45c-35.333 0 -64.333 12 -87 36s-34 53 -34 87c0 36.667 15.667 69.667 47 99s66.333 44 105 44c34 0 62.5 -12 85.5 -36s34.5 -52.333 34.5 -85z" />
    <glyph glyph-name="cedilla" unicode="&#xb8;" horiz-adv-x="522" 
d="M160 41h127.001l-115 -154c4 0 9.16699 -0.666992 15.5 -2s17.666 -4.33301 33.999 -9s31 -11.167 44 -19.5s24.5 -21 34.5 -38s15 -36.5 15 -58.5c0 -56 -20.833 -101.667 -62.5 -137s-98.5 -53 -170.5 -53c-36.667 0 -70.5 6.83301 -101.5 20.5
s-53.167 27.167 -66.5 40.5l-18 21l67 82c35.333 -34 80.333 -51 135 -51c26 0 47.833 6.83301 65.5 20.5s26.5 29.167 26.5 46.5c0 15.333 -6 28.333 -18 39s-29 16 -51 16c-9.33301 0 -19.5 -1.66699 -30.5 -5s-19.167 -6.33301 -24.5 -9l-11 -6l-32 53z" />
    <glyph glyph-name="uni00B9" unicode="&#xb9;" horiz-adv-x="450" 
d="M471 1638h112.998l-154 -716h-143l108 512h-123l25 112h20c32.667 0 63.834 9.5 93.501 28.5s49.834 40.167 60.501 63.5z" />
    <glyph glyph-name="ordmasculine" unicode="&#xba;" horiz-adv-x="757" 
d="M852 1171c0 -90 -36.167 -171.167 -108.5 -243.5s-156.166 -108.5 -251.499 -108.5c-83.333 0 -152.666 27.333 -207.999 82s-83 121 -83 199c0 94 37.167 176.5 111.5 247.5s157.166 106.5 248.499 106.5c83.333 0 152.666 -27.333 207.999 -82s83 -121.667 83 -201z
M504 952c50.667 0 97.166 20.832 139.499 62.499s63.5 89.167 63.5 142.5c0 45.333 -15.167 84 -45.5 116s-67.166 48 -110.499 48c-50.667 0 -97.167 -20.5 -139.5 -61.5s-63.5 -89.5 -63.5 -145.5c0 -45.333 15 -83.666 45 -114.999s67 -47 111 -47z" />
    <glyph glyph-name="guillemotright" unicode="&#xbb;" horiz-adv-x="1024" 
d="M342 504l-166 336h197l172 -348l-322 -349h-213zM752 504l-166 336h196l172 -348l-321 -349h-213z" />
    <glyph glyph-name="onequarter" unicode="&#xbc;" horiz-adv-x="1361" 
d="M446 1434l113 0.000976562l-153 -717h-144l109 512h-123l24 112h21c32.667 0 63.667 9.66699 93 29s49.333 40.666 60 63.999zM31 0.000976562l1177 1434h191l-1178 -1434h-190zM1278 717.001l-92 -430h82l-31 -144h-82l-31 -143h-143l31 143h-328l31 144l391 430h172z
M877 287.001h165l52 245z" />
    <glyph glyph-name="onehalf" unicode="&#xbd;" horiz-adv-x="1433" 
d="M449 1434l111.998 0.000976562l-153 -717h-144l109 512h-123l24 112h21c32.667 0 63.834 9.66699 93.501 29s49.834 40.666 60.501 63.999zM30.998 0.000976562l1177 1434h191l-1178 -1434h-190zM1372 547.001c0 -52 -14 -98.835 -42 -140.502s-58.667 -74.167 -92 -97.5
s-76.333 -51 -129 -83s-92.667 -59.667 -120 -83h301l-30 -143h-492l4 20c12 58.667 36.167 110.334 72.5 155.001s75.333 80.334 117 107.001s82.667 51.167 123 73.5s73.833 47.166 100.5 74.499s40 58 40 92c0 20.667 -7.83301 37.834 -23.5 51.501
s-36.5 20.5 -62.5 20.5c-24.667 0 -48.667 -8.5 -72 -25.5s-40.333 -34.5 -51 -52.5l-17 -24l-118 40c1.33301 5.33301 4 12.5 8 21.5s13.833 24.5 29.5 46.5s32.667 41.5 51 58.5s44.333 32.667 78 47s69.5 21.5 107.5 21.5c64 0 116.167 -17 156.5 -51s60.5 -77 60.5 -129
z" />
    <glyph glyph-name="threequarters" unicode="&#xbe;" horiz-adv-x="1495" 
d="M627 1096c5.33301 -2.66699 12.5029 -7.50098 21.5029 -14.501s20.667 -22.167 35 -45.5s21.5 -48.333 21.5 -75c0 -72.667 -27.333 -133.167 -82 -181.5s-126.334 -72.5 -215.001 -72.5c-57.333 0 -107.5 11.167 -150.5 33.5s-71.5 44.5 -85.5 66.5l-22 33l110 92
c1.33301 -2.66699 3 -6.16699 5 -10.5s7.83301 -11.5 17.5 -21.5s19.667 -19.167 30 -27.5s25 -15.833 44 -22.5s38.833 -10 59.5 -10c45.333 0 80.5 10.833 105.5 32.5s37.5 48.167 37.5 79.5c0 48 -34.667 72 -104 72h-82l30 143h72c79.333 0 119 28 119 84
c0 39.333 -29.333 59.333 -88 60c-24.667 0 -50.334 -6.83301 -77.001 -20.5s-47.334 -27.5 -62.001 -41.5l-23 -20l-72 92c2.66699 2.66699 6.5 7 11.5 13s16 15.833 33 29.5s34.667 26 53 37s41.5 21 69.5 30s56.333 13.5 85 13.5c64 0 115.833 -17.167 155.5 -51.5
s59.5 -75.166 59.5 -122.499c0 -36.667 -9.5 -69.5 -28.5 -98.5s-36.667 -48.833 -53 -59.5s-26.5 -16 -30.5 -16zM164.003 -0.000976562l1177 1434h191l-1178 -1434h-190zM1411 716.999l-92 -430h82l-31 -144h-82l-31 -143h-143l31 143h-328l31 144l391 430h172z
M1010 286.999h166l51 245z" />
    <glyph glyph-name="questiondown" unicode="&#xbf;" horiz-adv-x="931" 
d="M672 512c-12 -57.333 -37.5 -108.833 -76.5 -154.5s-81.5 -83.167 -127.5 -112.5s-91.5 -58 -136.5 -86s-82.167 -61.833 -111.5 -101.5s-44 -85.5 -44 -137.5c0 -48 18.5 -87.667 55.5 -119s86.167 -47 147.5 -47c44 0 85 7.16699 123 21.5s68.333 31.833 91 52.5
s42.167 40.834 58.5 60.501s27.166 36.5 32.499 50.5l10 22l178 -74c-4 -9.33301 -9.66699 -21.5 -17 -36.5s-25.666 -42 -54.999 -81s-61.833 -73.167 -97.5 -102.5s-85.167 -56.333 -148.5 -81s-131.333 -37 -204 -37c-117.333 0 -214.5 33.833 -291.5 101.5
s-115.5 146.5 -115.5 236.5c0 82 16.667 152 50 210s75 103.833 125 137.5s100.5 65.167 151.5 94.5s97.667 65.166 140 107.499s69.833 91.5 82.5 147.5l4 20h184c0 -34 -2.66699 -64.667 -8 -92zM492 858c0 36.667 15.333 70.168 46 100.501s65.667 45.5 105 45.5
c35.333 0 64.333 -12 87 -36s34 -53 34 -87c0 -36.667 -15.667 -69.834 -47 -99.501s-66.333 -44.5 -105 -44.5c-34 0 -62.5 12 -85.5 36s-34.5 52.333 -34.5 85z" />
    <glyph glyph-name="Agrave" unicode="&#xc0;" horiz-adv-x="1495" 
d="M-51 0l897 1434h225l291 -1434h-229l-74 379h-635l-234 -379h-241zM911 1178l-362 -594h471zM930 1905l96 -287h-147l-156 287h207z" />
    <glyph glyph-name="Aacute" unicode="&#xc1;" horiz-adv-x="1495" 
d="M-51 0l897 1434h225l291 -1434h-229l-74 379h-635l-234 -379h-241zM911 1178l-362 -594h471zM930 1618l209 287h223l-275 -287h-157z" />
    <glyph glyph-name="Acircumflex" unicode="&#xc2;" horiz-adv-x="1495" 
d="M-51 0l897 1434h225l291 -1434h-229l-74 379h-635l-234 -379h-241zM911 1178l-362 -594h471zM633 1618l285 287h204l166 -287h-176l-104 184l-183 -184h-192z" />
    <glyph glyph-name="Atilde" unicode="&#xc3;" horiz-adv-x="1495" 
d="M-51 0l897 1434h225l291 -1434h-229l-74 379h-635l-234 -379h-241zM911 1178l-362 -594h471zM1104 1618c-40.667 0 -77.501 10.167 -110.501 30.5s-62.5 40.833 -88.5 61.5s-51.333 31 -76 31c-52 0 -86 -41 -102 -123h-133c36.667 177.333 120.667 266 252 266
c40.667 0 77.5 -10.167 110.5 -30.5s62.333 -40.833 88 -61.5s50.834 -31 75.501 -31c52 0 86.333 41 103 123h133c-36.667 -177.333 -120.667 -266 -252 -266z" />
    <glyph glyph-name="Adieresis" unicode="&#xc4;" horiz-adv-x="1495" 
d="M-51 0l897 1434h225l291 -1434h-229l-74 379h-635l-234 -379h-241zM911 1178l-362 -594h471zM913 1759c0 -36.667 -13.166 -69.333 -39.499 -98s-58.833 -43 -97.5 -43c-34 0 -61.5 9.83301 -82.5 29.5s-31.5 44.5 -31.5 74.5c0 39.333 13.167 72.833 39.5 100.5
s58.833 41.5 97.5 41.5c35.333 0 63.166 -10 83.499 -30s30.5 -45 30.5 -75zM1343 1759c0 -36.667 -13.166 -69.333 -39.499 -98s-58.833 -43 -97.5 -43c-34 0 -61.5 9.83301 -82.5 29.5s-31.5 44.5 -31.5 74.5c0 39.333 13.167 72.833 39.5 100.5s58.833 41.5 97.5 41.5
c35.333 0 63.166 -10 83.499 -30s30.5 -45 30.5 -75z" />
    <glyph glyph-name="Aring" unicode="&#xc5;" horiz-adv-x="1495" 
d="M-51 0l897 1434h225l291 -1434h-229l-74 379h-635l-234 -379h-241zM911 1178l-362 -594h471zM1214 1786c0 -58.667 -23.167 -111.666 -69.5 -158.999s-100.166 -71 -161.499 -71c-54.667 0 -99.334 17.5 -134.001 52.5s-52 77.833 -52 128.5
c0 61.333 23.167 114.833 69.5 160.5s99.5 68.5 159.5 68.5c54.667 0 99.667 -17.333 135 -52s53 -77.334 53 -128.001zM991 1669c23.333 0 45.666 10.667 66.999 32s32 45 32 71c0 22 -7.16699 41 -21.5 57s-31.166 24 -50.499 24c-23.333 0 -45.166 -10.5 -65.499 -31.5
s-30.5 -45.167 -30.5 -72.5c0 -22 6.66699 -40.833 20 -56.5s29.666 -23.5 48.999 -23.5z" />
    <glyph glyph-name="AE" unicode="&#xc6;" horiz-adv-x="2017" 
d="M-133 0l1102 1434h1136l-43 -205h-706l-80 -379h543l-45 -205h-543l-92 -440h727l-43 -205h-953l82 389h-536l-297 -389h-252zM1055 1229l-484 -635h424l135 635h-75z" />
    <glyph glyph-name="Ccedilla" unicode="&#xc7;" horiz-adv-x="1556" 
d="M1055 1454c72.667 0 141.676 -9.50293 207.009 -28.5029s119.166 -42.167 161.499 -69.5s79.166 -54.333 110.499 -81s54 -49.667 68 -69l20 -28l-166 -138c-4 5.33301 -9.33301 12.833 -16 22.5s-22.667 26.5 -48 50.5s-53 45.167 -83 63.5s-70 35 -120 50
s-103 22.5 -159 22.5c-168 0 -315.833 -62.5 -443.5 -187.5s-191.5 -273.5 -191.5 -445.5c0 -121.333 42.333 -223.666 127 -306.999s191.334 -125 320.001 -125c56 0 110.5 7.83301 163.5 23.5s97.667 34.834 134 57.501s68.833 45.334 97.5 68.001
s49.667 41.334 63 56.001l21 25l117 -148c-5.33301 -8 -13.833 -18.5 -25.5 -31.5s-37.334 -35.833 -77.001 -68.5s-81.334 -61.667 -125.001 -87s-100.334 -48.166 -170.001 -68.499s-140.834 -30.5 -213.501 -30.5h-12l-70 -93c4 0 9.16699 -0.666992 15.5 -2
s17.666 -4.33301 33.999 -9s31 -11.167 44 -19.5s24.667 -21 35 -38s15.5 -36.5 15.5 -58.5c0 -56 -20.833 -101.667 -62.5 -137s-98.834 -53 -171.501 -53c-36.667 0 -70.334 6.83301 -101.001 20.5s-53 27.167 -67 40.5l-18 21l68 82c35.333 -34 80.333 -51 135 -51
c26 0 47.833 6.83301 65.5 20.5s26.5 29.167 26.5 46.5c0 15.333 -6.16699 28.333 -18.5 39s-29.5 16 -51.5 16c-9.33301 0 -19.5 -1.66699 -30.5 -5s-19.167 -6.33301 -24.5 -9l-10 -6l-33 53l102 154c-154 27.333 -281.5 98.666 -382.5 213.999
s-151.5 246.666 -151.5 393.999c0 237.333 87.667 439 263 605s384.666 249 627.999 249z" />
    <glyph glyph-name="Egrave" unicode="&#xc8;" horiz-adv-x="1341" 
d="M381 205h809l-43 -205h-1034l303 1434h1014l-44 -205h-788l-80 -379h625l-45 -205h-625zM930 1905l96 -287h-147l-156 287h207z" />
    <glyph glyph-name="Eacute" unicode="&#xc9;" horiz-adv-x="1341" 
d="M381 205h809l-43 -205h-1034l303 1434h1014l-44 -205h-788l-80 -379h625l-45 -205h-625zM858 1618l209 287h223l-274 -287h-158z" />
    <glyph glyph-name="Ecircumflex" unicode="&#xca;" horiz-adv-x="1341" 
d="M381 205h809l-43 -205h-1034l303 1434h1014l-44 -205h-788l-80 -379h625l-45 -205h-625zM629 1618l284 287h205l166 -287h-176l-104 184l-183 -184h-192z" />
    <glyph glyph-name="Edieresis" unicode="&#xcb;" horiz-adv-x="1341" 
d="M381 205h809l-43 -205h-1034l303 1434h1014l-44 -205h-788l-80 -379h625l-45 -205h-625zM889 1759c0 -36.667 -13.333 -69.333 -40 -98s-59 -43 -97 -43c-34 0 -61.667 9.83301 -83 29.5s-32 44.5 -32 74.5c0 39.333 13.333 72.833 40 100.5s59 41.5 97 41.5
c35.333 0 63.333 -10 84 -30s31 -45 31 -75zM1319 1759c0 -36.667 -13.333 -69.333 -40 -98s-59 -43 -97 -43c-34 0 -61.667 9.83301 -83 29.5s-32 44.5 -32 74.5c0 39.333 13.333 72.833 40 100.5s59 41.5 97 41.5c35.333 0 63.333 -10 84 -30s31 -45 31 -75z" />
    <glyph glyph-name="Igrave" unicode="&#xcc;" horiz-adv-x="634" 
d="M113 0l303 1434h225l-303 -1434h-225zM516 1905l96 -287h-147l-156 287h207z" />
    <glyph glyph-name="Iacute" unicode="&#xcd;" horiz-adv-x="634" 
d="M113 0l303 1434h225l-303 -1434h-225zM485 1618l209 287h224l-275 -287h-158z" />
    <glyph glyph-name="Icircumflex" unicode="&#xce;" horiz-adv-x="634" 
d="M113 0l303 1434h225l-303 -1434h-225zM223 1618l285 287h205l166 -287h-177l-104 184l-182 -184h-193z" />
    <glyph glyph-name="Idieresis" unicode="&#xcf;" horiz-adv-x="634" 
d="M113 0l303 1434h225l-303 -1434h-225zM496 1759c0 -36.667 -13.332 -69.333 -39.999 -98s-59.334 -43 -98.001 -43c-34 0 -61.5 9.83301 -82.5 29.5s-31.5 44.5 -31.5 74.5c0 39.333 13.333 72.833 40 100.5s59 41.5 97 41.5c35.333 0 63.333 -10 84 -30s31 -45 31 -75z
M926.001 1759c0 -36.667 -13.332 -69.333 -39.999 -98s-59.334 -43 -98.001 -43c-34 0 -61.5 9.83301 -82.5 29.5s-31.5 44.5 -31.5 74.5c0 39.333 13.333 72.833 40 100.5s59 41.5 97 41.5c35.333 0 63.333 -10 84 -30s31 -45 31 -75z" />
    <glyph glyph-name="Eth" unicode="&#xd0;" horiz-adv-x="1607" 
d="M467 1434h461.002c172 0 320.167 -61.833 444.5 -185.5s186.5 -267.5 186.5 -431.5c0 -109.333 -23.667 -214.5 -71 -315.5s-109.833 -188 -187.5 -261s-168.834 -131.333 -273.501 -175s-211.334 -65.5 -320.001 -65.5h-543l129 614h-195l45 205h193zM901.002 1229h-252
l-88 -410h320l-45 -205h-318l-86 -409h295c157.333 0 297.333 58.667 420 176s184 258 184 422c0 116 -42 216 -126 300s-185.333 126 -304 126z" />
    <glyph glyph-name="Ntilde" unicode="&#xd1;" horiz-adv-x="1628" 
d="M1409 1434h225l-303 -1434h-178l-594 1042l-221 -1042h-225l303 1434h178l594 -1043zM1184 1618c-40.667 0 -77.501 10.167 -110.501 30.5s-62.5 40.833 -88.5 61.5s-51.333 31 -76 31c-52 0 -86 -41 -102 -123h-133c36.667 177.333 120.667 266 252 266
c40.667 0 77.334 -10.167 110.001 -30.5s62 -40.833 88 -61.5s51.333 -31 76 -31c52 0 86.333 41 103 123h133c-36.667 -177.333 -120.667 -266 -252 -266z" />
    <glyph glyph-name="Ograve" unicode="&#xd2;" horiz-adv-x="1761" 
d="M999 1249c-154 0 -293.167 -59.999 -417.5 -179.999s-186.5 -258.667 -186.5 -416c0 -132.667 45.833 -244.334 137.5 -335.001s208.5 -136 350.5 -136c157.333 0 297.333 59.5 420 178.5s184 259.5 184 421.5c0 131.333 -45.833 242 -137.5 332s-208.5 135 -350.5 135z
M166 635.001c0 212.667 85.001 402.332 255.001 568.999s367 250 591 250c207.333 0 376.5 -63.167 507.5 -189.5s196.5 -281.5 196.5 -465.5c0 -221.333 -85.333 -413.166 -256 -575.499s-367.334 -243.5 -590.001 -243.5c-207.333 0 -376.5 63.167 -507.5 189.5
s-196.5 281.5 -196.5 465.5zM1044 1905l97 -287h-148l-155 287h206z" />
    <glyph glyph-name="Oacute" unicode="&#xd3;" horiz-adv-x="1761" 
d="M999 1249c-154 0 -293.167 -59.999 -417.5 -179.999s-186.5 -258.667 -186.5 -416c0 -132.667 45.833 -244.334 137.5 -335.001s208.5 -136 350.5 -136c157.333 0 297.333 59.5 420 178.5s184 259.5 184 421.5c0 131.333 -45.833 242 -137.5 332s-208.5 135 -350.5 135z
M166 635.001c0 212.667 85.001 402.332 255.001 568.999s367 250 591 250c207.333 0 376.5 -63.167 507.5 -189.5s196.5 -281.5 196.5 -465.5c0 -221.333 -85.333 -413.166 -256 -575.499s-367.334 -243.5 -590.001 -243.5c-207.333 0 -376.5 63.167 -507.5 189.5
s-196.5 281.5 -196.5 465.5zM987.001 1618l209 287h223l-274 -287h-158z" />
    <glyph glyph-name="Ocircumflex" unicode="&#xd4;" horiz-adv-x="1761" 
d="M999 1249c-154 0 -293.167 -59.999 -417.5 -179.999s-186.5 -258.667 -186.5 -416c0 -132.667 45.833 -244.334 137.5 -335.001s208.5 -136 350.5 -136c157.333 0 297.333 59.5 420 178.5s184 259.5 184 421.5c0 131.333 -45.833 242 -137.5 332s-208.5 135 -350.5 135z
M166 635.001c0 212.667 85.001 402.332 255.001 568.999s367 250 591 250c207.333 0 376.5 -63.167 507.5 -189.5s196.5 -281.5 196.5 -465.5c0 -221.333 -85.333 -413.166 -256 -575.499s-367.334 -243.5 -590.001 -243.5c-207.333 0 -376.5 63.167 -507.5 189.5
s-196.5 281.5 -196.5 465.5zM760.001 1618l284 287h205l166 -287h-176l-104 184l-183 -184h-192z" />
    <glyph glyph-name="Otilde" unicode="&#xd5;" horiz-adv-x="1761" 
d="M999 1249c-154 0 -293.167 -59.999 -417.5 -179.999s-186.5 -258.667 -186.5 -416c0 -132.667 45.833 -244.334 137.5 -335.001s208.5 -136 350.5 -136c157.333 0 297.333 59.5 420 178.5s184 259.5 184 421.5c0 131.333 -45.833 242 -137.5 332s-208.5 135 -350.5 135z
M166 635.001c0 212.667 85.001 402.332 255.001 568.999s367 250 591 250c207.333 0 376.5 -63.167 507.5 -189.5s196.5 -281.5 196.5 -465.5c0 -221.333 -85.333 -413.166 -256 -575.499s-367.334 -243.5 -590.001 -243.5c-207.333 0 -376.5 63.167 -507.5 189.5
s-196.5 281.5 -196.5 465.5zM1219 1618c-40.667 0 -77.501 10.167 -110.501 30.5s-62.5 40.833 -88.5 61.5s-51.333 31 -76 31c-52 0 -86 -41 -102 -123h-133c36.667 177.333 120.667 266 252 266c40.667 0 77.334 -10.167 110.001 -30.5s62 -40.833 88 -61.5
s51.333 -31 76 -31c52 0 86 41 102 123h133c-36 -177.333 -119.667 -266 -251 -266z" />
    <glyph glyph-name="Odieresis" unicode="&#xd6;" horiz-adv-x="1761" 
d="M999 1249c-154 0 -293.167 -59.999 -417.5 -179.999s-186.5 -258.667 -186.5 -416c0 -132.667 45.833 -244.334 137.5 -335.001s208.5 -136 350.5 -136c157.333 0 297.333 59.5 420 178.5s184 259.5 184 421.5c0 131.333 -45.833 242 -137.5 332s-208.5 135 -350.5 135z
M166 635.001c0 212.667 85.001 402.332 255.001 568.999s367 250 591 250c207.333 0 376.5 -63.167 507.5 -189.5s196.5 -281.5 196.5 -465.5c0 -221.333 -85.333 -413.166 -256 -575.499s-367.334 -243.5 -590.001 -243.5c-207.333 0 -376.5 63.167 -507.5 189.5
s-196.5 281.5 -196.5 465.5zM1001 1759c0 -36.667 -13.166 -69.333 -39.499 -98s-58.833 -43 -97.5 -43c-34 0 -61.5 9.83301 -82.5 29.5s-31.5 44.5 -31.5 74.5c0 39.333 13.5 72.833 40.5 100.5s59.167 41.5 96.5 41.5c35.333 0 63.166 -10 83.499 -30s30.5 -45 30.5 -75z
M1432 1759c0 -36.667 -13.332 -69.333 -39.999 -98s-59.334 -43 -98.001 -43c-34 0 -61.5 9.83301 -82.5 29.5s-31.5 44.5 -31.5 74.5c0 39.333 13.667 72.833 41 100.5s59.333 41.5 96 41.5c35.333 0 63.333 -10 84 -30s31 -45 31 -75z" />
    <glyph glyph-name="multiply" unicode="&#xd7;" horiz-adv-x="962" 
d="M410 635l-226 287l127 104l221 -278l357 294l94 -120l-348 -287l227 -287l-129 -106l-219 280l-356 -293l-95 119z" />
    <glyph glyph-name="Oslash" unicode="&#xd8;" horiz-adv-x="1761" 
d="M166 635c0 212.667 85 402.332 255 568.999s367 250 591 250c188.667 0 348.334 -55.333 479.001 -166l258 211l106 -151l-241 -199c68 -105.333 102 -222 102 -350c0 -221.333 -85.333 -413.166 -256 -575.499s-367.334 -243.5 -590.001 -243.5
c-190 0 -350.333 55 -481 165l-258 -211l-106 152l241 199c-66.667 102 -100 218.667 -100 350zM1487 781.998c0 75.333 -17.668 148.333 -53.001 219l-871 -712c88.667 -70.667 195.334 -106.334 320.001 -107.001c157.333 0 297.333 59.333 420 178
s184 259.334 184 422.001zM998.999 1249c-154 0 -293.168 -59.999 -417.501 -179.999s-186.5 -258.667 -186.5 -416c0 -80.667 18 -154.334 54 -221.001l866 711c-89.333 70.667 -194.666 106 -315.999 106z" />
    <glyph glyph-name="Ugrave" unicode="&#xd9;" horiz-adv-x="1576" 
d="M754 184c102.667 0 196.168 38 280.501 114s138.166 167.667 161.499 275l182 861h226l-183 -861c-35.333 -168 -116.5 -308.833 -243.5 -422.5s-273.167 -170.5 -438.5 -170.5c-151.333 0 -278.833 46.667 -382.5 140s-155.5 209 -155.5 347c0 34 4 69.333 12 106
l182 861h226l-183 -861c-5.33301 -22 -8 -46.333 -8 -73c0 -90 31.5 -165.167 94.5 -225.5s139.5 -90.5 229.5 -90.5zM1008 1905l96 -287h-148l-155 287h207z" />
    <glyph glyph-name="Uacute" unicode="&#xda;" horiz-adv-x="1576" 
d="M754 184c102.667 0 196.168 38 280.501 114s138.166 167.667 161.499 275l182 861h226l-183 -861c-35.333 -168 -116.5 -308.833 -243.5 -422.5s-273.167 -170.5 -438.5 -170.5c-151.333 0 -278.833 46.667 -382.5 140s-155.5 209 -155.5 347c0 34 4 69.333 12 106
l182 861h226l-183 -861c-5.33301 -22 -8 -46.333 -8 -73c0 -90 31.5 -165.167 94.5 -225.5s139.5 -90.5 229.5 -90.5zM922.001 1618l208 287h224l-275 -287h-157z" />
    <glyph glyph-name="Ucircumflex" unicode="&#xdb;" horiz-adv-x="1576" 
d="M754 184c102.667 0 196.168 38 280.501 114s138.166 167.667 161.499 275l182 861h226l-183 -861c-35.333 -168 -116.5 -308.833 -243.5 -422.5s-273.167 -170.5 -438.5 -170.5c-151.333 0 -278.833 46.667 -382.5 140s-155.5 209 -155.5 347c0 34 4 69.333 12 106
l182 861h226l-183 -861c-5.33301 -22 -8 -46.333 -8 -73c0 -90 31.5 -165.167 94.5 -225.5s139.5 -90.5 229.5 -90.5zM680.001 1618l285 287h204l166 -287h-176l-104 184l-183 -184h-192z" />
    <glyph glyph-name="Udieresis" unicode="&#xdc;" horiz-adv-x="1576" 
d="M754 184c102.667 0 196.168 38 280.501 114s138.166 167.667 161.499 275l182 861h226l-183 -861c-35.333 -168 -116.5 -308.833 -243.5 -422.5s-273.167 -170.5 -438.5 -170.5c-151.333 0 -278.833 46.667 -382.5 140s-155.5 209 -155.5 347c0 34 4 69.333 12 106
l182 861h226l-183 -861c-5.33301 -22 -8 -46.333 -8 -73c0 -90 31.5 -165.167 94.5 -225.5s139.5 -90.5 229.5 -90.5zM956.001 1759c0 -36.667 -13.166 -69.333 -39.499 -98s-58.833 -43 -97.5 -43c-34 0 -61.5 9.83301 -82.5 29.5s-31.5 44.5 -31.5 74.5
c0 39.333 13.5 72.833 40.5 100.5s59.167 41.5 96.5 41.5c35.333 0 63.166 -10 83.499 -30s30.5 -45 30.5 -75zM1386 1759c0 -36.667 -13.166 -69.333 -39.499 -98s-58.833 -43 -97.5 -43c-34 0 -61.5 9.83301 -82.5 29.5s-31.5 44.5 -31.5 74.5
c0 39.333 13.667 72.833 41 100.5s59.333 41.5 96 41.5c35.333 0 63.166 -10 83.499 -30s30.5 -45 30.5 -75z" />
    <glyph glyph-name="Yacute" unicode="&#xdd;" horiz-adv-x="1331" 
d="M465 1434l244 -686l534 686h258l-717 -922l-108 -512h-225l108 512l-328 922h234zM776 1618l209 287h223l-274 -287h-158z" />
    <glyph glyph-name="Thorn" unicode="&#xde;" horiz-adv-x="1361" 
d="M573 1116l-158.999 -758h178c147.333 0 266.666 41 357.999 123s137 190.667 137 326c0 90 -33.667 164 -101 222s-157 87 -269 87h-144zM618.001 1321l126.999 -0.000976562c162.667 0 298.334 -50.167 407.001 -150.5s163 -218.166 163 -353.499
c0 -184 -70.667 -340.5 -212 -469.5s-316.333 -193.5 -525 -193.5h-209l-41 -195h-226l324 1516h225z" />
    <glyph glyph-name="germandbls" unicode="&#xdf;" horiz-adv-x="1228" 
d="M946 791c4 -2.66699 10.166 -6.49707 18.499 -11.4971s22.666 -16.667 42.999 -35s38 -38.5 53 -60.5s29 -50.333 42 -85s19.5 -71.334 19.5 -110.001c0 -140.667 -51.5 -257.334 -154.5 -350.001s-227.5 -139 -373.5 -139h-123l43 205h107
c79.333 0 147.833 26.667 205.5 80s86.5 115.333 86.5 186c0 53.333 -17.667 97.333 -53 132s-83 52 -143 52h-107l43 205h21c74 0 137.833 24.333 191.5 73s80.5 105 80.5 169c0 48 -17.333 88 -52 120s-80.667 48 -138 48c-65.333 0 -122.666 -20.833 -171.999 -62.5
s-81.666 -96.167 -96.999 -163.5l-221 -1044h-205l222 1044c24.667 120 81.334 218.333 170.001 295s195.667 115 321 115c109.333 0 200.166 -33.167 272.499 -99.5s108.5 -144.5 108.5 -234.5c0 -142.667 -69.667 -252.334 -209 -329.001z" />
    <glyph glyph-name="agrave" unicode="&#xe0;" horiz-adv-x="1239" 
d="M522 164c88.667 0 172.333 40.667 251 122s118 174.333 118 279c0 74 -24.333 134.833 -73 182.5s-107 71.5 -175 71.5c-90 0 -172.833 -39.833 -248.5 -119.5s-113.5 -172.167 -113.5 -277.5c0 -74 23.5 -135.5 70.5 -184.5s103.833 -73.5 170.5 -73.5zM650.999 1004
c57.333 0 111.996 -11.999 163.996 -35.999s89 -47.667 111 -71l35 -37l26 123h205l-209 -983h-205l21 104c-9.33301 -9.33301 -22.666 -20.833 -39.999 -34.5s-53.666 -32 -108.999 -55s-111.666 -34.5 -168.999 -34.5c-110.667 0 -206.5 41.5 -287.5 124.5
s-121.5 181.833 -121.5 296.5c0 165.333 59.333 307.166 178 425.499s252.334 177.5 401.001 177.5zM695.995 1434l97 -287h-148l-156 287h207z" />
    <glyph glyph-name="aacute" unicode="&#xe1;" horiz-adv-x="1239" 
d="M522 164c88.667 0 172.333 40.667 251 122s118 174.333 118 279c0 74 -24.333 134.833 -73 182.5s-107 71.5 -175 71.5c-90 0 -172.833 -39.833 -248.5 -119.5s-113.5 -172.167 -113.5 -277.5c0 -74 23.5 -135.5 70.5 -184.5s103.833 -73.5 170.5 -73.5zM650.999 1004
c57.333 0 111.996 -11.999 163.996 -35.999s89 -47.667 111 -71l35 -37l26 123h205l-209 -983h-205l21 104c-9.33301 -9.33301 -22.666 -20.833 -39.999 -34.5s-53.666 -32 -108.999 -55s-111.666 -34.5 -168.999 -34.5c-110.667 0 -206.5 41.5 -287.5 124.5
s-121.5 181.833 -121.5 296.5c0 165.333 59.333 307.166 178 425.499s252.334 177.5 401.001 177.5zM634.995 1147l209 287h223l-274 -287h-158z" />
    <glyph glyph-name="acircumflex" unicode="&#xe2;" horiz-adv-x="1239" 
d="M522 164c88.667 0 172.333 40.667 251 122s118 174.333 118 279c0 74 -24.333 134.833 -73 182.5s-107 71.5 -175 71.5c-90 0 -172.833 -39.833 -248.5 -119.5s-113.5 -172.167 -113.5 -277.5c0 -74 23.5 -135.5 70.5 -184.5s103.833 -73.5 170.5 -73.5zM650.999 1004
c57.333 0 111.996 -11.999 163.996 -35.999s89 -47.667 111 -71l35 -37l26 123h205l-209 -983h-205l21 104c-9.33301 -9.33301 -22.666 -20.833 -39.999 -34.5s-53.666 -32 -108.999 -55s-111.666 -34.5 -168.999 -34.5c-110.667 0 -206.5 41.5 -287.5 124.5
s-121.5 181.833 -121.5 296.5c0 165.333 59.333 307.166 178 425.499s252.334 177.5 401.001 177.5zM409.995 1147l284 287h205l166 -287h-176l-105 184l-182 -184h-192z" />
    <glyph glyph-name="atilde" unicode="&#xe3;" horiz-adv-x="1239" 
d="M522 164c88.667 0 172.333 40.667 251 122s118 174.333 118 279c0 74 -24.333 134.833 -73 182.5s-107 71.5 -175 71.5c-90 0 -172.833 -39.833 -248.5 -119.5s-113.5 -172.167 -113.5 -277.5c0 -74 23.5 -135.5 70.5 -184.5s103.833 -73.5 170.5 -73.5zM650.999 1004
c57.333 0 111.996 -11.999 163.996 -35.999s89 -47.667 111 -71l35 -37l26 123h205l-209 -983h-205l21 104c-9.33301 -9.33301 -22.666 -20.833 -39.999 -34.5s-53.666 -32 -108.999 -55s-111.666 -34.5 -168.999 -34.5c-110.667 0 -206.5 41.5 -287.5 124.5
s-121.5 181.833 -121.5 296.5c0 165.333 59.333 307.166 178 425.499s252.334 177.5 401.001 177.5zM894.995 1147c-40.667 0 -77.501 10.167 -110.501 30.5s-62.5 40.833 -88.5 61.5s-51 31 -75 31c-52 0 -86.333 -41 -103 -123h-133c36.667 177.333 120.667 266 252 266
c40.667 0 77.5 -10.167 110.5 -30.5s62.333 -40.833 88 -61.5s50.834 -31 75.501 -31c52 0 86.333 41 103 123h133c-36.667 -177.333 -120.667 -266 -252 -266z" />
    <glyph glyph-name="adieresis" unicode="&#xe4;" horiz-adv-x="1239" 
d="M522 164c88.667 0 172.333 40.667 251 122s118 174.333 118 279c0 74 -24.333 134.833 -73 182.5s-107 71.5 -175 71.5c-90 0 -172.833 -39.833 -248.5 -119.5s-113.5 -172.167 -113.5 -277.5c0 -74 23.5 -135.5 70.5 -184.5s103.833 -73.5 170.5 -73.5zM650.999 1004
c57.333 0 111.996 -11.999 163.996 -35.999s89 -47.667 111 -71l35 -37l26 123h205l-209 -983h-205l21 104c-9.33301 -9.33301 -22.666 -20.833 -39.999 -34.5s-53.666 -32 -108.999 -55s-111.666 -34.5 -168.999 -34.5c-110.667 0 -206.5 41.5 -287.5 124.5
s-121.5 181.833 -121.5 296.5c0 165.333 59.333 307.166 178 425.499s252.334 177.5 401.001 177.5zM661.995 1288c0 -36.667 -13.332 -69.333 -39.999 -98s-59.334 -43 -98.001 -43c-34 0 -61.5 9.83301 -82.5 29.5s-31.5 44.5 -31.5 74.5c0 39.333 13.667 72.833 41 100.5
s59.333 41.5 96 41.5c35.333 0 63.333 -10 84 -30s31 -45 31 -75zM1092 1288c0 -36.667 -13.332 -69.333 -39.999 -98s-59.334 -43 -98.001 -43c-34 0 -61.5 9.83301 -82.5 29.5s-31.5 44.5 -31.5 74.5c0 39.333 13.667 72.833 41 100.5s59.333 41.5 96 41.5
c35.333 0 63.333 -10 84 -30s31 -45 31 -75z" />
    <glyph glyph-name="aring" unicode="&#xe5;" horiz-adv-x="1239" 
d="M522 164c88.667 0 172.333 40.667 251 122s118 174.333 118 279c0 74 -24.333 134.833 -73 182.5s-107 71.5 -175 71.5c-90 0 -172.833 -39.833 -248.5 -119.5s-113.5 -172.167 -113.5 -277.5c0 -74 23.5 -135.5 70.5 -184.5s103.833 -73.5 170.5 -73.5zM650.999 1004
c57.333 0 111.996 -11.999 163.996 -35.999s89 -47.667 111 -71l35 -37l26 123h205l-209 -983h-205l21 104c-9.33301 -9.33301 -22.666 -20.833 -39.999 -34.5s-53.666 -32 -108.999 -55s-111.666 -34.5 -168.999 -34.5c-110.667 0 -206.5 41.5 -287.5 124.5
s-121.5 181.833 -121.5 296.5c0 165.333 59.333 307.166 178 425.499s252.334 177.5 401.001 177.5zM966.995 1335c0 -58.667 -23.333 -111.501 -70 -158.501s-100.667 -70.5 -162 -70.5c-54.667 0 -99.334 17.333 -134.001 52s-52 77.334 -52 128.001
c0 61.333 23.167 115 69.5 161s99.5 69 159.5 69c54.667 0 99.834 -17.5 135.501 -52.5s53.5 -77.833 53.5 -128.5zM742.995 1219c23.333 0 45.666 10.499 66.999 31.499s32 44.5 32 70.5c0 22 -7.16699 41.167 -21.5 57.5s-31.166 24.5 -50.499 24.5
c-23.333 0 -45.166 -10.667 -65.499 -32s-30.5 -45.666 -30.5 -72.999c0 -22 6.66699 -40.667 20 -56s29.666 -23 48.999 -23z" />
    <glyph glyph-name="ae" unicode="&#xe6;" horiz-adv-x="1792" 
d="M604 1004c48 0 91.499 -6.83203 130.499 -20.499s70.667 -31.167 95 -52.5s42 -38.833 53 -52.5s20.5 -27.167 28.5 -40.5c113.333 110.667 246.666 166 399.999 166c120 0 220 -34.833 300 -104.5s120 -159.167 120 -268.5c0 -66.667 -13.667 -134.334 -41 -203.001
l-4 -8h-771c1.33301 -70.667 27.333 -131 78 -181s109.334 -75 176.001 -75c57.333 0 113.333 13 168 39s95 52 121 78l39 38l109 -135c-4 -5.33301 -10.5 -12.833 -19.5 -22.5s-28.167 -26 -57.5 -49s-60.5 -43.333 -93.5 -61s-74.333 -34 -124 -49
s-100.5 -22.5 -152.5 -22.5c-78 0 -149 18.667 -213 56s-115 88 -153 152c-15.333 -16.667 -33.166 -33.667 -53.499 -51s-50.333 -39.333 -90 -66s-87.5 -48.5 -143.5 -65.5s-114 -25.5 -174 -25.5c-91.333 0 -167.5 26.167 -228.5 78.5s-91.5 114.166 -91.5 185.499
c0 98 42 180.833 126 248.5s202.667 101.5 356 101.5h256c5.33301 32.667 8 55.334 8 68.001c0 49.333 -14.667 87.833 -44 115.5s-70 41.5 -122 41.5s-101.167 -11.167 -147.5 -33.5s-79.833 -45.166 -100.5 -68.499l-31 -33l-108 135c4 5.33301 9.66699 12.166 17 20.499
s23.666 23 48.999 44s52.333 39.833 81 56.5s65.834 31.5 111.501 44.5s92.5 19.5 140.5 19.5zM1280 829.001c-62.667 0 -124.831 -22.167 -186.498 -66.5s-108.834 -100.5 -141.501 -168.5h580c0 68 -22.833 124.167 -68.5 168.5s-106.834 66.5 -183.501 66.5z
M379.002 164.001c80.667 0 153.001 25.834 217.001 77.501s103.667 114.5 119 188.5h-248c-76.667 0 -136.834 -16.333 -180.501 -49s-65.5 -70.334 -65.5 -113.001c0 -28.667 14 -53.167 42 -73.5s66.667 -30.5 116 -30.5z" />
    <glyph glyph-name="ccedilla" unicode="&#xe7;" horiz-adv-x="1064" 
d="M72 418c0 151.333 59.6641 286.836 178.997 406.503s259 179.5 419 179.5c76.667 0 147.334 -16.5 212.001 -49.5s110.667 -65.833 138 -98.5l41 -47l-152 -125c-6.66699 9.33301 -16.167 21.5 -28.5 36.5s-41 35.167 -86 60.5s-93.5 38 -145.5 38
c-94 0 -178.833 -38.5 -254.5 -115.5s-113.5 -168.833 -113.5 -275.5c0 -74 24.833 -136.5 74.5 -187.5s110.167 -76.5 181.5 -76.5c52 0 102.5 13 151.5 39s85.167 51.333 108.5 76l34 38l109 -133c-4 -5.33301 -10.5 -12.333 -19.5 -21s-27.5 -24.334 -55.5 -47.001
s-57 -42.834 -87 -60.501s-67.833 -34.334 -113.5 -50.001s-91.834 -24.167 -138.501 -25.5l-67 -93c4 0 9 -0.666992 15 -2s17.167 -4.33301 33.5 -9s31 -11.167 44 -19.5s24.667 -21 35 -38s15.5 -36.5 15.5 -58.5c0 -56 -20.833 -101.667 -62.5 -137
s-98.5 -53 -170.5 -53c-36.667 0 -70.5 6.83301 -101.5 20.5s-53.167 27.167 -66.5 40.5l-19 21l68 82c35.333 -34 80.333 -51 135 -51c26 0 47.833 6.83301 65.5 20.5s26.5 29.167 26.5 46.5c0 15.333 -6.16699 28.333 -18.5 39s-29.166 16 -50.499 16
c-9.33301 0 -19.666 -1.66699 -30.999 -5s-19.666 -6.33301 -24.999 -9l-10 -6l-33 53l103 154c-96.667 22 -177.5 73.5 -242.5 154.5s-97.5 171.5 -97.5 271.5z" />
    <glyph glyph-name="egrave" unicode="&#xe8;" horiz-adv-x="1146" 
d="M1040 420l-770.002 0.000976562c2.66699 -70.667 28.334 -131 77.001 -181s110.334 -75 185.001 -75c57.333 0 112.666 13 165.999 39s92.333 52.667 117 80l37 39l109 -138c-4 -5.33301 -10.5 -12.833 -19.5 -22.5s-28.167 -26 -57.5 -49s-60.166 -43.333 -92.499 -61
s-73.333 -34 -123 -49s-100.5 -22.5 -152.5 -22.5c-120 0 -223.667 43.667 -311 131s-131 190.333 -131 309c0 160 58.667 297.333 176 412s255.333 172 414 172c120 0 220.167 -35.167 300.5 -105.5s120.5 -159.5 120.5 -267.5c0 -66.667 -13.667 -134.334 -41 -203.001z
M650.998 829.001c-70.667 0 -137.832 -22.167 -201.499 -66.5s-111.167 -100.5 -142.5 -168.5h580c2.66699 68 -16.833 124.167 -58.5 168.5s-100.834 66.5 -177.501 66.5zM686 1434l96 -287h-147l-156 287h207z" />
    <glyph glyph-name="eacute" unicode="&#xe9;" horiz-adv-x="1146" 
d="M1040 420l-770.002 0.000976562c2.66699 -70.667 28.334 -131 77.001 -181s110.334 -75 185.001 -75c57.333 0 112.666 13 165.999 39s92.333 52.667 117 80l37 39l109 -138c-4 -5.33301 -10.5 -12.833 -19.5 -22.5s-28.167 -26 -57.5 -49s-60.166 -43.333 -92.499 -61
s-73.333 -34 -123 -49s-100.5 -22.5 -152.5 -22.5c-120 0 -223.667 43.667 -311 131s-131 190.333 -131 309c0 160 58.667 297.333 176 412s255.333 172 414 172c120 0 220.167 -35.167 300.5 -105.5s120.5 -159.5 120.5 -267.5c0 -66.667 -13.667 -134.334 -41 -203.001z
M650.998 829.001c-70.667 0 -137.832 -22.167 -201.499 -66.5s-111.167 -100.5 -142.5 -168.5h580c2.66699 68 -16.833 124.167 -58.5 168.5s-100.834 66.5 -177.501 66.5zM639 1147l209 287h223l-274 -287h-158z" />
    <glyph glyph-name="ecircumflex" unicode="&#xea;" horiz-adv-x="1146" 
d="M1040 420l-770.002 0.000976562c2.66699 -70.667 28.334 -131 77.001 -181s110.334 -75 185.001 -75c57.333 0 112.666 13 165.999 39s92.333 52.667 117 80l37 39l109 -138c-4 -5.33301 -10.5 -12.833 -19.5 -22.5s-28.167 -26 -57.5 -49s-60.166 -43.333 -92.499 -61
s-73.333 -34 -123 -49s-100.5 -22.5 -152.5 -22.5c-120 0 -223.667 43.667 -311 131s-131 190.333 -131 309c0 160 58.667 297.333 176 412s255.333 172 414 172c120 0 220.167 -35.167 300.5 -105.5s120.5 -159.5 120.5 -267.5c0 -66.667 -13.667 -134.334 -41 -203.001z
M650.998 829.001c-70.667 0 -137.832 -22.167 -201.499 -66.5s-111.167 -100.5 -142.5 -168.5h580c2.66699 68 -16.833 124.167 -58.5 168.5s-100.834 66.5 -177.501 66.5zM391 1147l285 287h205l166 -287h-177l-104 184l-182 -184h-193z" />
    <glyph glyph-name="edieresis" unicode="&#xeb;" horiz-adv-x="1146" 
d="M1040 420l-770.002 0.000976562c2.66699 -70.667 28.334 -131 77.001 -181s110.334 -75 185.001 -75c57.333 0 112.666 13 165.999 39s92.333 52.667 117 80l37 39l109 -138c-4 -5.33301 -10.5 -12.833 -19.5 -22.5s-28.167 -26 -57.5 -49s-60.166 -43.333 -92.499 -61
s-73.333 -34 -123 -49s-100.5 -22.5 -152.5 -22.5c-120 0 -223.667 43.667 -311 131s-131 190.333 -131 309c0 160 58.667 297.333 176 412s255.333 172 414 172c120 0 220.167 -35.167 300.5 -105.5s120.5 -159.5 120.5 -267.5c0 -66.667 -13.667 -134.334 -41 -203.001z
M650.998 829.001c-70.667 0 -137.832 -22.167 -201.499 -66.5s-111.167 -100.5 -142.5 -168.5h580c2.66699 68 -16.833 124.167 -58.5 168.5s-100.834 66.5 -177.501 66.5zM657 1288c0 -36.667 -13.166 -69.333 -39.499 -98s-58.833 -43 -97.5 -43
c-34 0 -61.5 9.83301 -82.5 29.5s-31.5 44.5 -31.5 74.5c0 39.333 13.5 72.833 40.5 100.5s59.167 41.5 96.5 41.5c35.333 0 63.166 -10 83.499 -30s30.5 -45 30.5 -75zM1087 1288c0 -36.667 -13.166 -69.333 -39.499 -98s-58.833 -43 -97.5 -43
c-34 0 -61.5 9.83301 -82.5 29.5s-31.5 44.5 -31.5 74.5c0 39.333 13.667 72.833 41 100.5s59.333 41.5 96 41.5c35.333 0 63.166 -10 83.499 -30s30.5 -45 30.5 -75z" />
    <glyph glyph-name="igrave" unicode="&#xec;" horiz-adv-x="512" 
d="M465 983l-209 -983h-205l209 983h205zM348 1434l96 -287h-147l-156 287h207z" />
    <glyph glyph-name="iacute" unicode="&#xed;" horiz-adv-x="512" 
d="M465 983l-209 -983h-205l209 983h205zM311 1147l209 287h223l-274 -287h-158z" />
    <glyph glyph-name="icircumflex" unicode="&#xee;" horiz-adv-x="512" 
d="M465 983l-209 -983h-205l209 983h205zM49 1147l285 287h205l166 -287h-177l-104 184l-182 -184h-193z" />
    <glyph glyph-name="idieresis" unicode="&#xef;" horiz-adv-x="512" 
d="M465 983l-209 -983h-205l209 983h205zM319 1288c0 -36.667 -13.166 -69.333 -39.499 -98s-58.833 -43 -97.5 -43c-34 0 -61.5 9.83301 -82.5 29.5s-31.5 44.5 -31.5 74.5c0 39.333 13.167 72.833 39.5 100.5s58.833 41.5 97.5 41.5c35.333 0 63.166 -10 83.499 -30
s30.5 -45 30.5 -75zM750.001 1288c0 -36.667 -13.332 -69.333 -39.999 -98s-59.334 -43 -98.001 -43c-34 0 -61.5 9.83301 -82.5 29.5s-31.5 44.5 -31.5 74.5c0 39.333 13.333 72.833 40 100.5s59 41.5 97 41.5c35.333 0 63.333 -10 84 -30s31 -45 31 -75z" />
    <glyph glyph-name="eth" unicode="&#xf0;" horiz-adv-x="1208" 
d="M952 819c-8 76.667 -27.3301 148.166 -57.9971 214.499s-59 113.833 -85 142.5l-39 43l-283 -175l-73 146l211 123c-58.667 39.333 -130.334 69.333 -215.001 90l86 164c57.333 -15.333 111.5 -34.833 162.5 -58.5s87.5 -43.167 109.5 -58.5l33 -25l282 174l74 -145
l-221 -133c5.33301 -5.33301 12.166 -12.833 20.499 -22.5s23.666 -31.5 45.999 -65.5s42 -70.167 59 -108.5s32.333 -88.5 46 -150.5s20.5 -126.667 20.5 -194c0 -248.667 -60.333 -444.167 -181 -586.5s-274 -213.5 -460 -213.5c-118.667 0 -218.167 41.833 -298.5 125.5
s-120.5 182.834 -120.5 297.501c0 150 57 280.833 171 392.5s241.333 167.5 382 167.5c60 0 117.667 -12 173 -36s95 -47.667 119 -71zM514.003 163.999c91.333 0 172.5 38.168 243.5 114.501s106.5 161.833 106.5 256.5c0 69.333 -23.167 127.166 -69.5 173.499
s-102.833 69.5 -169.5 69.5c-88.667 0 -169.334 -34.833 -242.001 -104.5s-109 -154.167 -109 -253.5c0 -70.667 23.333 -131 70 -181s103.334 -75 170.001 -75z" />
    <glyph glyph-name="ntilde" unicode="&#xf1;" 
d="M455 983l-23 -102.001c8 9.33301 20 20.833 36 34.5s49.5 31.834 100.5 54.501s103.833 34 158.5 34c104 0 188 -29.167 252 -87.5s96 -137.833 96 -238.5c0 -32.667 -4 -67.667 -12 -105l-121 -573h-205l121 573c4 19.333 6 38 6 56c0 57.333 -18.333 103.333 -55 138
s-83.667 52 -141 52c-76.667 0 -143 -26.167 -199 -78.5s-93.667 -124.5 -113 -216.5l-110 -524h-205l209 983h205zM883 1147c-40.667 0 -77.501 10.167 -110.501 30.5s-62.5 40.833 -88.5 61.5s-51.333 31 -76 31c-52 0 -86 -41 -102 -123h-133
c36.667 177.333 120.667 266 252 266c40.667 0 77.334 -10.167 110.001 -30.5s62 -40.833 88 -61.5s51.333 -31 76 -31c52 0 86 41 102 123h134c-36.667 -177.333 -120.667 -266 -252 -266z" />
    <glyph glyph-name="ograve" unicode="&#xf2;" 
d="M553 164c91.333 0 173.833 38.499 247.5 115.499s110.5 162.833 110.5 257.5c0 80.667 -25.833 147.834 -77.5 201.501s-117.167 80.5 -196.5 80.5c-90 0 -171.833 -37.5 -245.5 -112.5s-110.5 -162.5 -110.5 -262.5c0 -80.667 25.833 -147.5 77.5 -200.5
s116.5 -79.5 194.5 -79.5zM72 437.999c0 144.667 59 275.167 177 391.5s253.333 174.5 406 174.5c131.333 0 241.666 -45.167 330.999 -135.5s134 -198.833 134 -325.5c0 -148.667 -60.667 -279.667 -182 -393s-255.666 -170 -402.999 -170c-132.667 0 -243 45 -331 135
s-132 197.667 -132 323zM688 1434l96 -287h-147l-156 287h207z" />
    <glyph glyph-name="oacute" unicode="&#xf3;" 
d="M553 164c91.333 0 173.833 38.499 247.5 115.499s110.5 162.833 110.5 257.5c0 80.667 -25.833 147.834 -77.5 201.501s-117.167 80.5 -196.5 80.5c-90 0 -171.833 -37.5 -245.5 -112.5s-110.5 -162.5 -110.5 -262.5c0 -80.667 25.833 -147.5 77.5 -200.5
s116.5 -79.5 194.5 -79.5zM72 437.999c0 144.667 59 275.167 177 391.5s253.333 174.5 406 174.5c131.333 0 241.666 -45.167 330.999 -135.5s134 -198.833 134 -325.5c0 -148.667 -60.667 -279.667 -182 -393s-255.666 -170 -402.999 -170c-132.667 0 -243 45 -331 135
s-132 197.667 -132 323zM635 1147l209 287h223l-274 -287h-158z" />
    <glyph glyph-name="ocircumflex" unicode="&#xf4;" 
d="M553 164c91.333 0 173.833 38.499 247.5 115.499s110.5 162.833 110.5 257.5c0 80.667 -25.833 147.834 -77.5 201.501s-117.167 80.5 -196.5 80.5c-90 0 -171.833 -37.5 -245.5 -112.5s-110.5 -162.5 -110.5 -262.5c0 -80.667 25.833 -147.5 77.5 -200.5
s116.5 -79.5 194.5 -79.5zM72 437.999c0 144.667 59 275.167 177 391.5s253.333 174.5 406 174.5c131.333 0 241.666 -45.167 330.999 -135.5s134 -198.833 134 -325.5c0 -148.667 -60.667 -279.667 -182 -393s-255.666 -170 -402.999 -170c-132.667 0 -243 45 -331 135
s-132 197.667 -132 323zM379 1147l285 287h204l166 -287h-176l-104 184l-183 -184h-192z" />
    <glyph glyph-name="otilde" unicode="&#xf5;" 
d="M553 164c91.333 0 173.833 38.499 247.5 115.499s110.5 162.833 110.5 257.5c0 80.667 -25.833 147.834 -77.5 201.501s-117.167 80.5 -196.5 80.5c-90 0 -171.833 -37.5 -245.5 -112.5s-110.5 -162.5 -110.5 -262.5c0 -80.667 25.833 -147.5 77.5 -200.5
s116.5 -79.5 194.5 -79.5zM72 437.999c0 144.667 59 275.167 177 391.5s253.333 174.5 406 174.5c131.333 0 241.666 -45.167 330.999 -135.5s134 -198.833 134 -325.5c0 -148.667 -60.667 -279.667 -182 -393s-255.666 -170 -402.999 -170c-132.667 0 -243 45 -331 135
s-132 197.667 -132 323zM850 1147c-40.667 0 -77.501 10.167 -110.501 30.5s-62.5 40.833 -88.5 61.5s-51.333 31 -76 31c-52 0 -86 -41 -102 -123h-133c36.667 177.333 120.667 266 252 266c40.667 0 77.5 -10.167 110.5 -30.5s62.333 -40.833 88 -61.5
s50.834 -31 75.501 -31c52 0 86.333 41 103 123h133c-36.667 -177.333 -120.667 -266 -252 -266z" />
    <glyph glyph-name="odieresis" unicode="&#xf6;" 
d="M553 164c91.333 0 173.833 38.499 247.5 115.499s110.5 162.833 110.5 257.5c0 80.667 -25.833 147.834 -77.5 201.501s-117.167 80.5 -196.5 80.5c-90 0 -171.833 -37.5 -245.5 -112.5s-110.5 -162.5 -110.5 -262.5c0 -80.667 25.833 -147.5 77.5 -200.5
s116.5 -79.5 194.5 -79.5zM72 437.999c0 144.667 59 275.167 177 391.5s253.333 174.5 406 174.5c131.333 0 241.666 -45.167 330.999 -135.5s134 -198.833 134 -325.5c0 -148.667 -60.667 -279.667 -182 -393s-255.666 -170 -402.999 -170c-132.667 0 -243 45 -331 135
s-132 197.667 -132 323zM651 1288c0 -36.667 -13.333 -69.333 -40 -98s-59 -43 -97 -43c-34 0 -61.667 9.83301 -83 29.5s-32 44.5 -32 74.5c0 39.333 13.333 72.833 40 100.5s59.334 41.5 98.001 41.5c35.333 0 63.166 -10 83.499 -30s30.5 -45 30.5 -75zM1081 1288
c0 -36.667 -13.333 -69.333 -40 -98s-59 -43 -97 -43c-34 0 -61.667 9.83301 -83 29.5s-32 44.5 -32 74.5c0 39.333 13.333 72.833 40 100.5s59.334 41.5 98.001 41.5c35.333 0 63.166 -10 83.499 -30s30.5 -45 30.5 -75z" />
    <glyph glyph-name="divide" unicode="&#xf7;" horiz-adv-x="1064" 
d="M1038 696l-39 -184h-901l39 184h901zM629 258c0 -36.667 -15.333 -70.001 -46 -100.001s-66 -45 -106 -45c-35.333 0 -64.333 11.833 -87 35.5s-34 52.834 -34 87.501c0 36.667 15.833 69.667 47.5 99s66.5 44 104.5 44c34 0 62.667 -12 86 -36s35 -52.333 35 -85z
M780 974.999c0 -36.667 -15.333 -70.168 -46 -100.501s-65.667 -45.5 -105 -45.5c-35.333 0 -64.333 12 -87 36s-34 53 -34 87c0 36.667 15.667 69.834 47 99.501s66 44.5 104 44.5c34 0 62.667 -12 86 -36s35 -52.333 35 -85z" />
    <glyph glyph-name="oslash" unicode="&#xf8;" horiz-adv-x="1208" 
d="M72 438c0 144.667 58.999 275.167 176.999 391.5s253.333 174.5 406 174.5c114.667 0 215 -36.333 301 -109l185 154l100 -131l-180 -152c39.333 -70.667 59 -145 59 -223c0 -148.667 -60.667 -279.667 -182 -393s-255.666 -170 -402.999 -170
c-113.333 0 -211 33.333 -293 100l-172 -146l-101 132l166 139c-42 69.333 -63 147 -63 233zM280.999 444c0 -34 5.33301 -68.667 16 -104l506 424c-48 36.667 -103.333 55 -166 55c-90 0 -171.833 -37.5 -245.5 -112.5s-110.5 -162.5 -110.5 -262.5zM552.999 164
c91.333 0 173.833 38.5 247.5 115.5s110.5 162.833 110.5 257.5c0 34 -4.66699 64.667 -14 92l-500 -418c46.667 -31.333 98.667 -47 156 -47z" />
    <glyph glyph-name="ugrave" unicode="&#xf9;" 
d="M737 0l19 92c-8 -8 -20.333 -18.167 -37 -30.5s-51.167 -29 -103.5 -50s-105.833 -31.5 -160.5 -31.5c-102.667 0 -185 28.667 -247 86s-93 135.666 -93 234.999c0 34 4 70.333 12 109l123 573h205l-123 -573c-4 -20.667 -6 -40 -6 -58c0 -56 18 -101.333 54 -136
s82.667 -52 140 -52c76.667 0 143 26.333 199 79s94.333 125.334 115 218.001l112 522h205l-209 -983h-205zM696 1434l97 -287h-148l-156 287h207z" />
    <glyph glyph-name="uacute" unicode="&#xfa;" 
d="M737 0l19 92c-8 -8 -20.333 -18.167 -37 -30.5s-51.167 -29 -103.5 -50s-105.833 -31.5 -160.5 -31.5c-102.667 0 -185 28.667 -247 86s-93 135.666 -93 234.999c0 34 4 70.333 12 109l123 573h205l-123 -573c-4 -20.667 -6 -40 -6 -58c0 -56 18 -101.333 54 -136
s82.667 -52 140 -52c76.667 0 143 26.333 199 79s94.333 125.334 115 218.001l112 522h205l-209 -983h-205zM616 1147l209 287h224l-275 -287h-158z" />
    <glyph glyph-name="ucircumflex" unicode="&#xfb;" 
d="M737 0l19 92c-8 -8 -20.333 -18.167 -37 -30.5s-51.167 -29 -103.5 -50s-105.833 -31.5 -160.5 -31.5c-102.667 0 -185 28.667 -247 86s-93 135.666 -93 234.999c0 34 4 70.333 12 109l123 573h205l-123 -573c-4 -20.667 -6 -40 -6 -58c0 -56 18 -101.333 54 -136
s82.667 -52 140 -52c76.667 0 143 26.333 199 79s94.333 125.334 115 218.001l112 522h205l-209 -983h-205zM377 1147l285 287h204l166 -287h-176l-104 184l-183 -184h-192z" />
    <glyph glyph-name="udieresis" unicode="&#xfc;" 
d="M737 0l19 92c-8 -8 -20.333 -18.167 -37 -30.5s-51.167 -29 -103.5 -50s-105.833 -31.5 -160.5 -31.5c-102.667 0 -185 28.667 -247 86s-93 135.666 -93 234.999c0 34 4 70.333 12 109l123 573h205l-123 -573c-4 -20.667 -6 -40 -6 -58c0 -56 18 -101.333 54 -136
s82.667 -52 140 -52c76.667 0 143 26.333 199 79s94.333 125.334 115 218.001l112 522h205l-209 -983h-205zM645 1288c0 -36.667 -13.333 -69.333 -40 -98s-59 -43 -97 -43c-34 0 -61.667 9.83301 -83 29.5s-32 44.5 -32 74.5c0 39.333 13.667 72.833 41 100.5
s59.333 41.5 96 41.5c35.333 0 63.333 -10 84 -30s31 -45 31 -75zM1075 1288c0 -36.667 -13.3311 -69.333 -39.998 -98s-59 -43 -97 -43c-34 0 -61.667 9.83301 -83 29.5s-32 44.5 -32 74.5c0 39.333 13.667 72.833 41 100.5s59.666 41.5 96.999 41.5
c35.333 0 63.166 -10 83.499 -30s30.5 -45 30.5 -75z" />
    <glyph glyph-name="yacute" unicode="&#xfd;" horiz-adv-x="1044" 
d="M248 -102l69 110l-190 975h207l133 -717l440 717h223l-671 -1085c-76.667 -122.667 -144 -208 -202 -256s-124.667 -72 -200 -72c-27.333 0 -52.833 1.66699 -76.5 5s-41.167 7 -52.5 11l-16 4l39 185c31.333 -13.333 64 -20.333 98 -21
c72.667 0.666992 139 48.667 199 144zM541 1147l209 287h223l-275 -287h-157z" />
    <glyph glyph-name="thorn" unicode="&#xfe;" horiz-adv-x="1249" 
d="M602 -20c-57.333 0 -112 11.833 -164 35.5s-89.333 47.167 -112 70.5l-35 37l-117 -553h-205l396 1864h204l-116 -555c9.33301 9.33301 22.5 20.833 39.5 34.5s53.5 32.167 109.5 55.5s112.667 35 170 35c110.667 0 206.667 -41.667 288 -125s122 -182.333 122 -297
c0 -165.333 -59.5 -307 -178.5 -425s-252.833 -177 -401.5 -177zM731 819c-88.667 0 -172.333 -40.667 -251 -122s-118 -174.333 -118 -279c0 -74 24.333 -134.833 73 -182.5s107 -71.5 175 -71.5c90 0 173 39.833 249 119.5s114 172.167 114 277.5
c0 74 -23.667 135.5 -71 184.5s-104.333 73.5 -171 73.5z" />
    <glyph glyph-name="ydieresis" unicode="&#xff;" horiz-adv-x="1044" 
d="M248 -102l69 110l-190 975h207l133 -717l440 717h223l-671 -1085c-76.667 -122.667 -144 -208 -202 -256s-124.667 -72 -200 -72c-27.333 0 -52.833 1.66699 -76.5 5s-41.167 7 -52.5 11l-16 4l39 185c31.333 -13.333 64 -20.333 98 -21
c72.667 0.666992 139 48.667 199 144zM571 1288c0 -36.667 -13.165 -69.333 -39.498 -98s-58.833 -43 -97.5 -43c-34 0 -61.667 9.83301 -83 29.5s-32 44.5 -32 74.5c0 39.333 13.667 72.833 41 100.5s59.666 41.5 96.999 41.5c35.333 0 63.166 -10 83.499 -30
s30.5 -45 30.5 -75zM1001 1288c0 -36.667 -13.166 -69.333 -39.499 -98s-58.833 -43 -97.5 -43c-34 0 -61.5 9.83301 -82.5 29.5s-31.5 44.5 -31.5 74.5c0 39.333 13.5 72.833 40.5 100.5s59.167 41.5 96.5 41.5c35.333 0 63.166 -10 83.499 -30s30.5 -45 30.5 -75z" />
    <glyph glyph-name="Amacron" unicode="&#x100;" horiz-adv-x="1495" 
d="M-51 0l897 1434h225l291 -1434h-229l-74 379h-635l-234 -379h-241zM911 1178l-362 -594h471zM1335 1843l-30 -143h-635l30 143h635z" />
    <glyph glyph-name="amacron" unicode="&#x101;" horiz-adv-x="1239" 
d="M522 164c88.667 0 172.333 40.667 251 122s118 174.333 118 279c0 74 -24.333 134.833 -73 182.5s-107 71.5 -175 71.5c-90 0 -172.833 -39.833 -248.5 -119.5s-113.5 -172.167 -113.5 -277.5c0 -74 23.5 -135.5 70.5 -184.5s103.833 -73.5 170.5 -73.5zM650.999 1004
c57.333 0 111.996 -11.999 163.996 -35.999s89 -47.667 111 -71l35 -37l26 123h205l-209 -983h-205l21 104c-9.33301 -9.33301 -22.666 -20.833 -39.999 -34.5s-53.666 -32 -108.999 -55s-111.666 -34.5 -168.999 -34.5c-110.667 0 -206.5 41.5 -287.5 124.5
s-121.5 181.833 -121.5 296.5c0 165.333 59.333 307.166 178 425.499s252.334 177.5 401.001 177.5zM1114 1393l-31 -144h-634l30 144h635z" />
    <glyph glyph-name="Abreve" unicode="&#x102;" horiz-adv-x="1495" 
d="M-51 0l897 1434h225l291 -1434h-229l-74 379h-635l-234 -379h-241zM911 1178l-362 -594h471zM1001.5 1761c41 0 77.1689 13.6689 108.502 41.002s51 61.666 59 102.999h154c-18 -84.667 -56.333 -153.667 -115 -207s-130.334 -80 -215.001 -80
c-88.667 0 -159.334 27.667 -212.001 83s-70 123.333 -52 204h154c-8 -40.667 -0.5 -74.834 22.5 -102.501s55 -41.5 96 -41.5z" />
    <glyph glyph-name="abreve" unicode="&#x103;" horiz-adv-x="1239" 
d="M522 164c88.667 0 172.333 40.667 251 122s118 174.333 118 279c0 74 -24.333 134.833 -73 182.5s-107 71.5 -175 71.5c-90 0 -172.833 -39.833 -248.5 -119.5s-113.5 -172.167 -113.5 -277.5c0 -74 23.5 -135.5 70.5 -184.5s103.833 -73.5 170.5 -73.5zM650.999 1004
c57.333 0 111.996 -11.999 163.996 -35.999s89 -47.667 111 -71l35 -37l26 123h205l-209 -983h-205l21 104c-9.33301 -9.33301 -22.666 -20.833 -39.999 -34.5s-53.666 -32 -108.999 -55s-111.666 -34.5 -168.999 -34.5c-110.667 0 -206.5 41.5 -287.5 124.5
s-121.5 181.833 -121.5 296.5c0 165.333 59.333 307.166 178 425.499s252.334 177.5 401.001 177.5zM759.495 1290c41 0 77.1689 13.6689 108.502 41.002s51.333 61.666 60 102.999h153c-18 -84.667 -56.167 -153.667 -114.5 -207s-129.833 -80 -214.5 -80
c-88.667 0 -159.334 27.667 -212.001 83s-70.334 123.333 -53.001 204h154c-8 -40.667 -0.5 -74.834 22.5 -102.501s55 -41.5 96 -41.5z" />
    <glyph glyph-name="Aogonek" unicode="&#x104;" horiz-adv-x="1495" 
d="M1133 0l-74.002 378.998h-635l-234 -379h-241l897 1434h225l291 -1434h-96c-9.33301 -9.33301 -21.333 -21.166 -36 -35.499s-33.5 -41 -56.5 -80s-34.5 -72.833 -34.5 -101.5c0 -20.667 7.83301 -37.5 23.5 -50.5s36.5 -19.5 62.5 -19.5c18 0 36.833 1.83301 56.5 5.5
s34.834 7.5 45.501 11.5l14 4l-26 -123c-49.333 -20.667 -101.333 -31 -156 -31c-52 0 -93.667 14.667 -125 44s-47 67.333 -47 114c0 40.667 12.333 82.834 37 126.501s49.334 77.167 74.001 100.5zM910.998 1178l-362 -594h471z" />
    <glyph glyph-name="aogonek" unicode="&#x105;" horiz-adv-x="1239" 
d="M522 164c88.667 0 172.333 40.667 251 122s118 174.333 118 279c0 74 -24.333 134.833 -73 182.5s-107 71.5 -175 71.5c-90 0 -172.833 -39.833 -248.5 -119.5s-113.5 -172.167 -113.5 -277.5c0 -74 23.5 -135.5 70.5 -184.5s103.833 -73.5 170.5 -73.5zM777.999 0
l20.9951 104c-9.33301 -9.33301 -22.666 -20.833 -39.999 -34.5s-53.666 -32 -108.999 -55s-111.666 -34.5 -168.999 -34.5c-110.667 0 -206.5 41.5 -287.5 124.5s-121.5 181.833 -121.5 296.5c0 165.333 59.333 307.166 178 425.499s252.334 177.5 401.001 177.5
c57.333 0 112 -12 164 -36s89 -47.667 111 -71l35 -37l26 123h205l-209 -983h-72l-35.5 -35.5c-14.333 -14.333 -33.166 -41 -56.499 -80s-35 -72.833 -35 -101.5c0 -20.667 7.83301 -37.5 23.5 -50.5s36.5 -19.5 62.5 -19.5c18 0 36.833 1.83301 56.5 5.5
s34.5 7.5 44.5 11.5l16 4l-26 -123c-49.333 -20.667 -101.333 -31 -156 -31c-52 0 -93.667 14.667 -125 44s-47 67.333 -47 114c0 40.667 12 82.834 36 126.501s48 77.167 72 100.5z" />
    <glyph glyph-name="Cacute" unicode="&#x106;" horiz-adv-x="1556" 
d="M1055 1454c72.667 0 141.673 -9.50488 207.006 -28.5049s119.166 -42.167 161.499 -69.5s79.166 -54.333 110.499 -81s54 -49.667 68 -69l20 -28l-166 -138c-4 5.33301 -9.33301 12.833 -16 22.5s-22.667 26.5 -48 50.5s-53 45.167 -83 63.5s-70 35 -120 50
s-103 22.5 -159 22.5c-168 0 -315.833 -62.5 -443.5 -187.5s-191.5 -273.5 -191.5 -445.5c0 -121.333 42.333 -223.666 127 -306.999s191.334 -125 320.001 -125c56 0 110.5 7.83301 163.5 23.5s97.667 34.834 134 57.501s68.833 45.334 97.5 68.001
s49.667 41.334 63 56.001l21 25l117 -148c-5.33301 -8 -13.833 -18.5 -25.5 -31.5s-37.334 -35.833 -77.001 -68.5s-81.334 -61.667 -125.001 -87s-100.334 -48.166 -170.001 -68.499s-140.834 -30.5 -213.501 -30.5c-184 0 -340.5 61.333 -469.5 184s-193.5 268 -193.5 436
c0 237.333 87.667 439 263 605s384.666 249 627.999 249zM993.006 1618l209 287h223l-274 -287h-158z" />
    <glyph glyph-name="cacute" unicode="&#x107;" horiz-adv-x="1064" 
d="M72 418c0 151.333 59.666 286.833 178.999 406.5s259 179.5 419 179.5c76.667 0 147.334 -16.5 212.001 -49.5s110.667 -65.833 138 -98.5l41 -47l-152 -125c-6.66699 9.33301 -16.167 21.5 -28.5 36.5s-41 35.167 -86 60.5s-93.5 38 -145.5 38
c-94 0 -178.833 -38.5 -254.5 -115.5s-113.5 -168.833 -113.5 -275.5c0 -74 24.833 -136.5 74.5 -187.5s110.167 -76.5 181.5 -76.5c52 0 102.5 13 151.5 39s85.167 51.333 108.5 76l34 38l109 -133c-4 -5.33301 -10.5 -12.833 -19.5 -22.5s-28.167 -26 -57.5 -49
s-59.666 -43.333 -90.999 -61s-70.833 -34 -118.5 -49s-95.5 -22.5 -143.5 -22.5c-118.667 0 -221.334 44 -308.001 132s-130 190 -130 306zM622.999 1147l208 287h224l-275 -287h-157z" />
    <glyph glyph-name="Ccircumflex" unicode="&#x108;" horiz-adv-x="1556" 
d="M1055 1454c72.667 0 141.673 -9.50488 207.006 -28.5049s119.166 -42.167 161.499 -69.5s79.166 -54.333 110.499 -81s54 -49.667 68 -69l20 -28l-166 -138c-4 5.33301 -9.33301 12.833 -16 22.5s-22.667 26.5 -48 50.5s-53 45.167 -83 63.5s-70 35 -120 50
s-103 22.5 -159 22.5c-168 0 -315.833 -62.5 -443.5 -187.5s-191.5 -273.5 -191.5 -445.5c0 -121.333 42.333 -223.666 127 -306.999s191.334 -125 320.001 -125c56 0 110.5 7.83301 163.5 23.5s97.667 34.834 134 57.501s68.833 45.334 97.5 68.001
s49.667 41.334 63 56.001l21 25l117 -148c-5.33301 -8 -13.833 -18.5 -25.5 -31.5s-37.334 -35.833 -77.001 -68.5s-81.334 -61.667 -125.001 -87s-100.334 -48.166 -170.001 -68.499s-140.834 -30.5 -213.501 -30.5c-184 0 -340.5 61.333 -469.5 184s-193.5 268 -193.5 436
c0 237.333 87.667 439 263 605s384.666 249 627.999 249zM756.006 1618l284 287h205l166 -287h-176l-105 184l-182 -184h-192z" />
    <glyph glyph-name="ccircumflex" unicode="&#x109;" horiz-adv-x="1064" 
d="M72 418c0 151.333 59.666 286.833 178.999 406.5s259 179.5 419 179.5c76.667 0 147.334 -16.5 212.001 -49.5s110.667 -65.833 138 -98.5l41 -47l-152 -125c-6.66699 9.33301 -16.167 21.5 -28.5 36.5s-41 35.167 -86 60.5s-93.5 38 -145.5 38
c-94 0 -178.833 -38.5 -254.5 -115.5s-113.5 -168.833 -113.5 -275.5c0 -74 24.833 -136.5 74.5 -187.5s110.167 -76.5 181.5 -76.5c52 0 102.5 13 151.5 39s85.167 51.333 108.5 76l34 38l109 -133c-4 -5.33301 -10.5 -12.833 -19.5 -22.5s-28.167 -26 -57.5 -49
s-59.666 -43.333 -90.999 -61s-70.833 -34 -118.5 -49s-95.5 -22.5 -143.5 -22.5c-118.667 0 -221.334 44 -308.001 132s-130 190 -130 306zM372.999 1147l284 287h205l166 -287h-176l-104 184l-183 -184h-192z" />
    <glyph glyph-name="Ccaron" unicode="&#x10c;" horiz-adv-x="1556" 
d="M1055 1454c72.667 0 141.673 -9.50488 207.006 -28.5049s119.166 -42.167 161.499 -69.5s79.166 -54.333 110.499 -81s54 -49.667 68 -69l20 -28l-166 -138c-4 5.33301 -9.33301 12.833 -16 22.5s-22.667 26.5 -48 50.5s-53 45.167 -83 63.5s-70 35 -120 50
s-103 22.5 -159 22.5c-168 0 -315.833 -62.5 -443.5 -187.5s-191.5 -273.5 -191.5 -445.5c0 -121.333 42.333 -223.666 127 -306.999s191.334 -125 320.001 -125c56 0 110.5 7.83301 163.5 23.5s97.667 34.834 134 57.501s68.833 45.334 97.5 68.001
s49.667 41.334 63 56.001l21 25l117 -148c-5.33301 -8 -13.833 -18.5 -25.5 -31.5s-37.334 -35.833 -77.001 -68.5s-81.334 -61.667 -125.001 -87s-100.334 -48.166 -170.001 -68.499s-140.834 -30.5 -213.501 -30.5c-184 0 -340.5 61.333 -469.5 184s-193.5 268 -193.5 436
c0 237.333 87.667 439 263 605s384.666 249 627.999 249zM1456.01 1905l-285 -287h-204l-166 287h176l104 -185l183 185h192z" />
    <glyph glyph-name="ccaron" unicode="&#x10d;" horiz-adv-x="1064" 
d="M72 418c0 151.333 59.666 286.833 178.999 406.5s259 179.5 419 179.5c76.667 0 147.334 -16.5 212.001 -49.5s110.667 -65.833 138 -98.5l41 -47l-152 -125c-6.66699 9.33301 -16.167 21.5 -28.5 36.5s-41 35.167 -86 60.5s-93.5 38 -145.5 38
c-94 0 -178.833 -38.5 -254.5 -115.5s-113.5 -168.833 -113.5 -275.5c0 -74 24.833 -136.5 74.5 -187.5s110.167 -76.5 181.5 -76.5c52 0 102.5 13 151.5 39s85.167 51.333 108.5 76l34 38l109 -133c-4 -5.33301 -10.5 -12.833 -19.5 -22.5s-28.167 -26 -57.5 -49
s-59.666 -43.333 -90.999 -61s-70.833 -34 -118.5 -49s-95.5 -22.5 -143.5 -22.5c-118.667 0 -221.334 44 -308.001 132s-130 190 -130 306zM1085 1434l-284 -287h-205l-166 287h176l105 -185l182 185h192z" />
    <glyph glyph-name="Dcaron" unicode="&#x10e;" horiz-adv-x="1556" 
d="M416 1434h461.001c172 0 320 -61.833 444 -185.5s186 -267.5 186 -431.5c0 -109.333 -23.5 -214.5 -70.5 -315.5s-109.333 -188 -187 -261s-168.834 -131.333 -273.501 -175s-211.667 -65.5 -321 -65.5h-542zM850.001 1229h-252l-217 -1024h295
c157.333 0 297.333 58.667 420 176s184 258 184 422c0 116 -42 216 -126 300s-185.333 126 -304 126zM1337 1905l-284 -287h-205l-166 287h176l105 -185l182 185h192z" />
    <glyph glyph-name="dcaron" unicode="&#x10f;" horiz-adv-x="1361" 
d="M651 1004c57.333 0 111.996 -11.999 163.996 -35.999s89 -47.667 111 -71l35 -37l120 574h205l-303 -1434h-205l21 104c-9.33301 -9.33301 -22.666 -20.833 -39.999 -34.5s-53.666 -32 -108.999 -55s-111.666 -34.5 -168.999 -34.5c-110.667 0 -206.5 41.5 -287.5 124.5
s-121.5 181.833 -121.5 296.5c0 165.333 59.333 307.166 178 425.499s252.334 177.5 401.001 177.5zM521.996 164.001c88.667 0 172.333 40.667 251 122s118 174.333 118 279c0 74 -24.333 134.833 -73 182.5s-107 71.5 -175 71.5c-90 0 -172.833 -39.833 -248.5 -119.5
s-113.5 -172.167 -113.5 -277.5c0 -74 23.5 -135.5 70.5 -184.5s103.833 -73.5 170.5 -73.5zM1325 1147l145 287h193l-193 -287h-145z" />
    <glyph glyph-name="Dcroat" unicode="&#x110;" horiz-adv-x="1607" 
d="M467 1434h461.002c172 0 320.167 -61.833 444.5 -185.5s186.5 -267.5 186.5 -431.5c0 -109.333 -23.667 -214.5 -71 -315.5s-109.833 -188 -187.5 -261s-168.834 -131.333 -273.501 -175s-211.334 -65.5 -320.001 -65.5h-543l129 614h-195l45 205h193zM901.002 1229h-252
l-88 -410h320l-45 -205h-318l-86 -409h295c157.333 0 297.333 58.667 420 176s184 258 184 422c0 116 -42 216 -126 300s-185.333 126 -304 126z" />
    <glyph glyph-name="dcroat" unicode="&#x111;" horiz-adv-x="1228" 
d="M741 1085l39 184.999h246l35 164h205l-35 -164h164l-39 -185h-164l-229 -1085h-205l20 102c-8 -9.33301 -20.5 -20.833 -37.5 -34.5s-52.5 -31.667 -106.5 -54s-109.667 -33.5 -167 -33.5c-110.667 0 -205.167 40.833 -283.5 122.5s-117.5 178.5 -117.5 290.5
c0 158.667 56.667 293.334 170 404.001s243 166 389 166c57.333 0 111.5 -11.667 162.5 -35s87.5 -47.333 109.5 -72l35 -35l55 264h-246zM512 163.999c87.333 0 167.833 37.499 241.5 112.499s110.5 162.5 110.5 262.5c0 69.333 -22.5 126.5 -67.5 171.5
s-100.833 67.5 -167.5 67.5c-88.667 0 -170 -36.167 -244 -108.5s-111 -158.166 -111 -257.499c0 -70.667 23 -129.667 69 -177s102.333 -71 169 -71z" />
    <glyph glyph-name="Emacron" unicode="&#x112;" horiz-adv-x="1341" 
d="M381 205h809l-43 -205h-1034l303 1434h1014l-44 -205h-788l-80 -379h625l-45 -205h-625zM1319 1843l-31 -143h-635l31 143h635z" />
    <glyph glyph-name="emacron" unicode="&#x113;" horiz-adv-x="1146" 
d="M1040 420l-770.002 0.000976562c2.66699 -70.667 28.334 -131 77.001 -181s110.334 -75 185.001 -75c57.333 0 112.666 13 165.999 39s92.333 52.667 117 80l37 39l109 -138c-4 -5.33301 -10.5 -12.833 -19.5 -22.5s-28.167 -26 -57.5 -49s-60.166 -43.333 -92.499 -61
s-73.333 -34 -123 -49s-100.5 -22.5 -152.5 -22.5c-120 0 -223.667 43.667 -311 131s-131 190.333 -131 309c0 160 58.667 297.333 176 412s255.333 172 414 172c120 0 220.167 -35.167 300.5 -105.5s120.5 -159.5 120.5 -267.5c0 -66.667 -13.667 -134.334 -41 -203.001z
M650.998 829.001c-70.667 0 -137.832 -22.167 -201.499 -66.5s-111.167 -100.5 -142.5 -168.5h580c2.66699 68 -16.833 124.167 -58.5 168.5s-100.834 66.5 -177.501 66.5zM1077 1372l-30 -143h-635l30 143h635z" />
    <glyph glyph-name="Edotaccent" unicode="&#x116;" horiz-adv-x="1341" 
d="M381 205h809l-43 -205h-1034l303 1434h1014l-44 -205h-788l-80 -379h625l-45 -205h-625zM1108 1780c0 -36.667 -13.333 -69.499 -40 -98.499s-59 -43.5 -97 -43.5c-34 0 -61.667 10 -83 30s-32 45 -32 75c0 39.333 13.667 72.666 41 99.999s59.333 41 96 41
c35.333 0 63.333 -9.83301 84 -29.5s31 -44.5 31 -74.5z" />
    <glyph glyph-name="edotaccent" unicode="&#x117;" horiz-adv-x="1146" 
d="M1040 420l-770.002 0.000976562c2.66699 -70.667 28.334 -131 77.001 -181s110.334 -75 185.001 -75c57.333 0 112.666 13 165.999 39s92.333 52.667 117 80l37 39l109 -138c-4 -5.33301 -10.5 -12.833 -19.5 -22.5s-28.167 -26 -57.5 -49s-60.166 -43.333 -92.499 -61
s-73.333 -34 -123 -49s-100.5 -22.5 -152.5 -22.5c-120 0 -223.667 43.667 -311 131s-131 190.333 -131 309c0 160 58.667 297.333 176 412s255.333 172 414 172c120 0 220.167 -35.167 300.5 -105.5s120.5 -159.5 120.5 -267.5c0 -66.667 -13.667 -134.334 -41 -203.001z
M650.998 829.001c-70.667 0 -137.832 -22.167 -201.499 -66.5s-111.167 -100.5 -142.5 -168.5h580c2.66699 68 -16.833 124.167 -58.5 168.5s-100.834 66.5 -177.501 66.5zM864 1309c0 -36.667 -13.333 -69.499 -40 -98.499s-59 -43.5 -97 -43.5c-34 0 -61.667 10 -83 30
s-32 45 -32 75c0 39.333 13.333 72.666 40 99.999s59.334 41 98.001 41c35.333 0 63.166 -9.83301 83.499 -29.5s30.5 -44.5 30.5 -74.5z" />
    <glyph glyph-name="Eogonek" unicode="&#x118;" horiz-adv-x="1341" 
d="M1014 0l-901.003 -0.000976562l303 1434h1014l-44 -205h-788l-80 -379h625l-45 -205h-625l-92 -440h809l-43 -205l-35.5 -35.5c-14.333 -14.333 -33.166 -41 -56.499 -80s-35 -72.833 -35 -101.5c0 -20.667 7.83301 -37.5 23.5 -50.5s36.5 -19.5 62.5 -19.5
c18 0 36.833 1.83301 56.5 5.5s34.834 7.5 45.501 11.5l15 4l-27 -123c-49.333 -20.667 -101.333 -31 -156 -31c-52 0 -93.667 14.667 -125 44s-47 67.333 -47 114c0 40.667 12.333 82.834 37 126.501s49.334 77.167 74.001 100.5z" />
    <glyph glyph-name="eogonek" unicode="&#x119;" horiz-adv-x="1146" 
d="M1040 420l-770.001 0.00390625c2.66699 -70.667 28.334 -131 77.001 -181s110.334 -75 185.001 -75c57.333 0 112.666 13 165.999 39s92.333 52.667 117 80l37 39l109 -138c-4 -5.33301 -10.167 -12.333 -18.5 -21s-26.166 -24.334 -53.499 -47.001
s-56 -42.834 -86 -60.501s-68.667 -34 -116 -49s-95.333 -23.833 -144 -26.5c-70.667 -75.333 -106.334 -141 -107.001 -197c0 -20.667 7.83301 -37.5 23.5 -50.5s36.5 -19.5 62.5 -19.5c18 0 36.833 1.83301 56.5 5.5s34.5 7.5 44.5 11.5l16 4l-27 -123
c-49.333 -20.667 -101 -31 -155 -31c-52 0 -93.667 14.667 -125 44s-47 67.333 -47 114c0 80.667 44.333 165.334 133 254.001c-98 23.333 -179.833 75.166 -245.5 155.499s-98.5 171.166 -98.5 272.499c0 160 58.667 297.333 176 412s255.333 172 414 172
c120 0 220.167 -35.167 300.5 -105.5s120.5 -159.5 120.5 -267.5c0 -66.667 -13.667 -134.334 -41 -203.001zM650.999 829.004c-70.667 0 -137.832 -22.167 -201.499 -66.5s-111.167 -100.5 -142.5 -168.5h580c2.66699 68 -16.833 124.167 -58.5 168.5
s-100.834 66.5 -177.501 66.5z" />
    <glyph glyph-name="Ecaron" unicode="&#x11a;" horiz-adv-x="1341" 
d="M381 205h809l-43 -205h-1034l303 1434h1014l-44 -205h-788l-80 -379h625l-45 -205h-625zM1350 1905l-285 -287h-205l-166 287h176l105 -185l182 185h193z" />
    <glyph glyph-name="ecaron" unicode="&#x11b;" horiz-adv-x="1146" 
d="M1040 420l-770.002 0.000976562c2.66699 -70.667 28.334 -131 77.001 -181s110.334 -75 185.001 -75c57.333 0 112.666 13 165.999 39s92.333 52.667 117 80l37 39l109 -138c-4 -5.33301 -10.5 -12.833 -19.5 -22.5s-28.167 -26 -57.5 -49s-60.166 -43.333 -92.499 -61
s-73.333 -34 -123 -49s-100.5 -22.5 -152.5 -22.5c-120 0 -223.667 43.667 -311 131s-131 190.333 -131 309c0 160 58.667 297.333 176 412s255.333 172 414 172c120 0 220.167 -35.167 300.5 -105.5s120.5 -159.5 120.5 -267.5c0 -66.667 -13.667 -134.334 -41 -203.001z
M650.998 829.001c-70.667 0 -137.832 -22.167 -201.499 -66.5s-111.167 -100.5 -142.5 -168.5h580c2.66699 68 -16.833 124.167 -58.5 168.5s-100.834 66.5 -177.501 66.5zM1096 1434l-285 -287h-205l-166 287h176l105 -185l182 185h193z" />
    <glyph glyph-name="Gbreve" unicode="&#x11e;" horiz-adv-x="1658" 
d="M1061 758h502.003l-109 -512c-5.33301 -6.66699 -13.833 -16.167 -25.5 -28.5s-37.667 -34 -78 -65s-83 -58 -128 -81s-103.667 -44 -176 -63s-146.833 -28.5 -223.5 -28.5c-184 0 -339.833 61.333 -467.5 184s-191.5 268 -191.5 436c0 237.333 87.667 439 263 605
s384.666 249 627.999 249c72.667 0 141.667 -9.5 207 -28.5s119.166 -42.167 161.499 -69.5s79.166 -54.333 110.499 -81s54 -49.667 68 -69l20 -28l-168 -138c-4 5.33301 -9.5 12.833 -16.5 22.5s-23 26.5 -48 50.5s-52.5 45.167 -82.5 63.5s-70 35 -120 50
s-103 22.5 -159 22.5c-168 0 -315.5 -62.5 -442.5 -187.5s-190.5 -273.5 -190.5 -445.5c0 -120 43.667 -222 131 -306s195.333 -126 324 -126c79.333 0 152 12 218 36s112.667 47.667 140 71l39 37l47 225h-276zM1087.5 1761c41 0 77.1689 13.6689 108.502 41.002
s51 61.666 59 102.999h154c-18 -84.667 -56.333 -153.667 -115 -207s-130.334 -80 -215.001 -80c-88.667 0 -159.334 27.667 -212.001 83s-70 123.333 -52 204h154c-8 -40.667 -0.5 -74.834 22.5 -102.501s55 -41.5 96 -41.5z" />
    <glyph glyph-name="gbreve" unicode="&#x11f;" 
d="M750 59l14.002 75.999c-8 -8 -20.333 -18.5 -37 -31.5s-50.834 -30.167 -102.501 -51.5s-104.834 -32 -159.501 -32c-106.667 0 -198.167 41 -274.5 123s-114.5 179 -114.5 291c0 158.667 56.333 293.334 169 404.001s240.667 166 384 166
c54.667 0 106.167 -11 154.5 -33s83.5 -44 105.5 -66l33 -33l24 111h205l-197 -922c-30 -142 -96.167 -259.333 -198.5 -352s-221.166 -139 -356.499 -139c-56 0 -109.167 7.16699 -159.5 21.5s-91.5 31.333 -123.5 51s-60.333 39.5 -85 59.5s-42.667 37.333 -54 52l-16 21
l156 129c2.66699 -4 6.66699 -9.5 12 -16.5s17.333 -19 36 -36s38.5 -32 59.5 -45s48.167 -25 81.5 -36s68.666 -16.5 105.999 -16.5c82 0 154.333 28.333 217 85s103 130 121 220zM625.002 818.999c-90 0 -169.166 -37.501 -237.499 -112.501s-102.5 -159.5 -102.5 -253.5
c0 -69.333 22.167 -128 66.5 -176s97.833 -72 160.5 -72c83.333 0 161.166 37.833 233.499 113.5s108.5 163.5 108.5 263.5c0 66.667 -22.5 122.834 -67.5 168.501s-98.833 68.5 -161.5 68.5zM768.003 1290c40.667 0 76.835 13.6689 108.502 41.002
s51.5 61.666 59.5 102.999h154c-18 -84.667 -56.333 -153.667 -115 -207s-130.334 -80 -215.001 -80c-88.667 0 -159.334 27.667 -212.001 83s-70 123.333 -52 204h153c-8 -40.667 -0.333008 -74.834 23 -102.501s55.333 -41.5 96 -41.5z" />
    <glyph glyph-name="uni0122" unicode="&#x122;" horiz-adv-x="1658" 
d="M1061 758h502.003l-109 -512c-5.33301 -6.66699 -13.833 -16.167 -25.5 -28.5s-37.667 -34 -78 -65s-83 -58 -128 -81s-103.667 -44 -176 -63s-146.833 -28.5 -223.5 -28.5c-184 0 -339.833 61.333 -467.5 184s-191.5 268 -191.5 436c0 237.333 87.667 439 263 605
s384.666 249 627.999 249c72.667 0 141.667 -9.5 207 -28.5s119.166 -42.167 161.499 -69.5s79.166 -54.333 110.499 -81s54 -49.667 68 -69l20 -28l-168 -138c-4 5.33301 -9.5 12.833 -16.5 22.5s-23 26.5 -48 50.5s-52.5 45.167 -82.5 63.5s-70 35 -120 50
s-103 22.5 -159 22.5c-168 0 -315.5 -62.5 -442.5 -187.5s-190.5 -273.5 -190.5 -445.5c0 -120 43.667 -222 131 -306s195.333 -126 324 -126c79.333 0 152 12 218 36s112.667 47.667 140 71l39 37l47 225h-276zM555.003 -451l145 287h193l-193 -287h-145z" />
    <glyph glyph-name="uni0123" unicode="&#x123;" 
d="M750 59l14.002 75.999c-8 -8 -20.333 -18.5 -37 -31.5s-50.834 -30.167 -102.501 -51.5s-104.834 -32 -159.501 -32c-106.667 0 -198.167 41 -274.5 123s-114.5 179 -114.5 291c0 158.667 56.333 293.334 169 404.001s240.667 166 384 166
c54.667 0 106.167 -11 154.5 -33s83.5 -44 105.5 -66l33 -33l24 111h205l-197 -922c-30 -142 -96.167 -259.333 -198.5 -352s-221.166 -139 -356.499 -139c-56 0 -109.167 7.16699 -159.5 21.5s-91.5 31.333 -123.5 51s-60.333 39.5 -85 59.5s-42.667 37.333 -54 52l-16 21
l156 129c2.66699 -4 6.66699 -9.5 12 -16.5s17.333 -19 36 -36s38.5 -32 59.5 -45s48.167 -25 81.5 -36s68.666 -16.5 105.999 -16.5c82 0 154.333 28.333 217 85s103 130 121 220zM625.002 818.999c-90 0 -169.166 -37.501 -237.499 -112.501s-102.5 -159.5 -102.5 -253.5
c0 -69.333 22.167 -128 66.5 -176s97.833 -72 160.5 -72c83.333 0 161.166 37.833 233.499 113.5s108.5 163.5 108.5 263.5c0 66.667 -22.5 122.834 -67.5 168.501s-98.833 68.5 -161.5 68.5zM915.003 1434l-147 -287h-193l193 287h147z" />
    <glyph glyph-name="Imacron" unicode="&#x12a;" horiz-adv-x="634" 
d="M113 0l303 1434h225l-303 -1434h-225zM915 1843l-30 -143h-635l31 143h634z" />
    <glyph glyph-name="imacron" unicode="&#x12b;" horiz-adv-x="512" 
d="M465 983l-209 -983h-205l209 983h205zM741 1372l-30 -143h-635l30 143h635z" />
    <glyph glyph-name="Iogonek" unicode="&#x12e;" horiz-adv-x="634" 
d="M113 0l302.998 1434h225l-303 -1434h-92c-9.33301 -9.33301 -21.333 -21.166 -36 -35.499s-33.5 -41 -56.5 -80s-34.5 -72.833 -34.5 -101.5c0 -20.667 7.83301 -37.5 23.5 -50.5s36.5 -19.5 62.5 -19.5c18 0 36.833 1.83301 56.5 5.5s34.834 7.5 45.501 11.5l15 4
l-27 -123c-49.333 -20.667 -101.333 -31 -156 -31c-52 0 -93.667 14.667 -125 44s-47 67.333 -47 114c0 40.667 12.333 82.834 37 126.501s49.334 77.167 74.001 100.5z" />
    <glyph glyph-name="iogonek" unicode="&#x12f;" horiz-adv-x="512" 
d="M51 0l208.999 982.999h205l-209 -983h-72l-35.5 -35.5c-14.333 -14.333 -33.166 -41 -56.499 -80s-35 -72.833 -35 -101.5c0 -20.667 7.83301 -37.5 23.5 -50.5s36.5 -19.5 62.5 -19.5c18 0 36.833 1.83301 56.5 5.5s35.167 7.5 46.5 11.5l14 4l-27 -123
c-49.333 -20.667 -101 -31 -155 -31c-52 0 -93.667 14.667 -125 44s-47 67.333 -47 114c0 40.667 12.333 82.834 37 126.501s49 77.167 73 100.5zM548.999 1303c0 -35.333 -13.333 -66.834 -40 -94.501s-58.334 -41.5 -95.001 -41.5c-35.333 0 -63.666 10.333 -84.999 31
s-32 46 -32 76c0 39.333 13.333 72 40 98s58.334 39 95.001 39c35.333 0 63.666 -10.167 84.999 -30.5s32 -46.166 32 -77.499z" />
    <glyph glyph-name="Idotaccent" unicode="&#x130;" horiz-adv-x="634" 
d="M113 0l303 1434h225l-303 -1434h-225zM713 1780c0 -36.667 -13.332 -69.499 -39.999 -98.499s-59.334 -43.5 -98.001 -43.5c-34 0 -61.5 10 -82.5 30s-31.5 45 -31.5 75c0 39.333 13.333 72.666 40 99.999s59 41 97 41c35.333 0 63.333 -9.83301 84 -29.5
s31 -44.5 31 -74.5z" />
    <glyph glyph-name="dotlessi" unicode="&#x131;" horiz-adv-x="512" 
d="M465 983l-209 -983h-205l209 983h205z" />
    <glyph glyph-name="uni0136" unicode="&#x136;" horiz-adv-x="1423" 
d="M641 1434l-143 -678l774 678h301l-678 -594l416 -840h-264l-332 684l-287 -254l-90 -430h-225l303 1434h225zM432 -451l146 287h192l-192 -287h-146z" />
    <glyph glyph-name="uni0137" unicode="&#x137;" horiz-adv-x="1085" 
d="M1141 983l-467 -410l289 -573h-218l-227 446l-194 -170l-58 -276h-205l304 1434h204l-186 -883l502 432h256zM244 -451l145 287h193l-193 -287h-145z" />
    <glyph glyph-name="Lacute" unicode="&#x139;" 
d="M1034 0h-921l303 1434h225l-260 -1229h696zM489 1618l209 287h224l-275 -287h-158z" />
    <glyph glyph-name="lacute" unicode="&#x13a;" horiz-adv-x="532" 
d="M569 1434l-303 -1434h-205l304 1434h204zM434 1618l209 287h223l-274 -287h-158z" />
    <glyph glyph-name="uni013B" unicode="&#x13b;" 
d="M1034 0h-921l303 1434h225l-260 -1229h696zM330 -451l145 287h193l-193 -287h-145z" />
    <glyph glyph-name="uni013C" unicode="&#x13c;" horiz-adv-x="532" 
d="M569 1434l-303 -1434h-205l304 1434h204zM-104 -451l145 287h192l-192 -287h-145z" />
    <glyph glyph-name="Lcaron" unicode="&#x13d;" 
d="M1034 0h-921l303 1434h225l-260 -1229h696zM690 1147l146 287h194l-192 -287h-148z" />
    <glyph glyph-name="lcaron" unicode="&#x13e;" horiz-adv-x="645" 
d="M569 1434l-303 -1434h-205l304 1434h204zM608 1147l146 287h194l-192 -287h-148z" />
    <glyph glyph-name="Lslash" unicode="&#x141;" horiz-adv-x="1320" 
d="M1167 0h-921l114 541l-276 -144l-57 168l379 195l143 674h225l-117 -551l289 153l58 -168l-392 -204l-98 -459h696z" />
    <glyph glyph-name="lslash" unicode="&#x142;" horiz-adv-x="757" 
d="M905 887l-381 -205l-145 -682h-205l121 569l-289 -153l-51 151l381 205l141 662h205l-117 -549l289 153z" />
    <glyph glyph-name="Nacute" unicode="&#x143;" horiz-adv-x="1628" 
d="M1409 1434h225l-303 -1434h-178l-594 1042l-221 -1042h-225l303 1434h178l594 -1043zM946 1618l209 287h223l-274 -287h-158z" />
    <glyph glyph-name="nacute" unicode="&#x144;" 
d="M455 983l-23 -102.001c8 9.33301 20 20.833 36 34.5s49.5 31.834 100.5 54.501s103.833 34 158.5 34c104 0 188 -29.167 252 -87.5s96 -137.833 96 -238.5c0 -32.667 -4 -67.667 -12 -105l-121 -573h-205l121 573c4 19.333 6 38 6 56c0 57.333 -18.333 103.333 -55 138
s-83.667 52 -141 52c-76.667 0 -143 -26.167 -199 -78.5s-93.667 -124.5 -113 -216.5l-110 -524h-205l209 983h205zM666 1147l208 287h224l-275 -287h-157z" />
    <glyph glyph-name="uni0145" unicode="&#x145;" horiz-adv-x="1628" 
d="M1409 1434h225l-303 -1434h-178l-594 1042l-221 -1042h-225l303 1434h178l594 -1043zM485 -451l146 287h192l-192 -287h-146z" />
    <glyph glyph-name="uni0146" unicode="&#x146;" 
d="M455 983l-23 -102.001c8 9.33301 20 20.833 36 34.5s49.5 31.834 100.5 54.501s103.833 34 158.5 34c104 0 188 -29.167 252 -87.5s96 -137.833 96 -238.5c0 -32.667 -4 -67.667 -12 -105l-121 -573h-205l121 573c4 19.333 6 38 6 56c0 57.333 -18.333 103.333 -55 138
s-83.667 52 -141 52c-76.667 0 -143 -26.167 -199 -78.5s-93.667 -124.5 -113 -216.5l-110 -524h-205l209 983h205zM233 -451.001l146 287h192l-192 -287h-146z" />
    <glyph glyph-name="Ncaron" unicode="&#x147;" horiz-adv-x="1628" 
d="M1409 1434h225l-303 -1434h-178l-594 1042l-221 -1042h-225l303 1434h178l594 -1043zM1413 1905l-285 -287h-204l-166 287h176l104 -185l183 185h192z" />
    <glyph glyph-name="ncaron" unicode="&#x148;" 
d="M455 983l-23 -102.001c8 9.33301 20 20.833 36 34.5s49.5 31.834 100.5 54.501s103.833 34 158.5 34c104 0 188 -29.167 252 -87.5s96 -137.833 96 -238.5c0 -32.667 -4 -67.667 -12 -105l-121 -573h-205l121 573c4 19.333 6 38 6 56c0 57.333 -18.333 103.333 -55 138
s-83.667 52 -141 52c-76.667 0 -143 -26.167 -199 -78.5s-93.667 -124.5 -113 -216.5l-110 -524h-205l209 983h205zM1124 1434l-284 -287h-205l-166 287h176l105 -185l182 185h192z" />
    <glyph glyph-name="Omacron" unicode="&#x14c;" horiz-adv-x="1761" 
d="M999 1249c-154 0 -293.167 -59.999 -417.5 -179.999s-186.5 -258.667 -186.5 -416c0 -132.667 45.833 -244.334 137.5 -335.001s208.5 -136 350.5 -136c157.333 0 297.333 59.5 420 178.5s184 259.5 184 421.5c0 131.333 -45.833 242 -137.5 332s-208.5 135 -350.5 135z
M166 635.001c0 212.667 85.001 402.332 255.001 568.999s367 250 591 250c207.333 0 376.5 -63.167 507.5 -189.5s196.5 -281.5 196.5 -465.5c0 -221.333 -85.333 -413.166 -256 -575.499s-367.334 -243.5 -590.001 -243.5c-207.333 0 -376.5 63.167 -507.5 189.5
s-196.5 281.5 -196.5 465.5zM1450 1843l-31 -143h-635l31 143h635z" />
    <glyph glyph-name="omacron" unicode="&#x14d;" 
d="M553 164c91.333 0 173.833 38.499 247.5 115.499s110.5 162.833 110.5 257.5c0 80.667 -25.833 147.834 -77.5 201.501s-117.167 80.5 -196.5 80.5c-90 0 -171.833 -37.5 -245.5 -112.5s-110.5 -162.5 -110.5 -262.5c0 -80.667 25.833 -147.5 77.5 -200.5
s116.5 -79.5 194.5 -79.5zM72 437.999c0 144.667 59 275.167 177 391.5s253.333 174.5 406 174.5c131.333 0 241.666 -45.167 330.999 -135.5s134 -198.833 134 -325.5c0 -148.667 -60.667 -279.667 -182 -393s-255.666 -170 -402.999 -170c-132.667 0 -243 45 -331 135
s-132 197.667 -132 323zM1071 1372l-31 -143h-634l30 143h635z" />
    <glyph glyph-name="Ohungarumlaut" unicode="&#x150;" horiz-adv-x="1761" 
d="M999 1249c-154 0 -293.167 -59.999 -417.5 -179.999s-186.5 -258.667 -186.5 -416c0 -132.667 45.833 -244.334 137.5 -335.001s208.5 -136 350.5 -136c157.333 0 297.333 59.5 420 178.5s184 259.5 184 421.5c0 131.333 -45.833 242 -137.5 332s-208.5 135 -350.5 135z
M166 635.001c0 212.667 85.001 402.332 255.001 568.999s367 250 591 250c207.333 0 376.5 -63.167 507.5 -189.5s196.5 -281.5 196.5 -465.5c0 -221.333 -85.333 -413.166 -256 -575.499s-367.334 -243.5 -590.001 -243.5c-207.333 0 -376.5 63.167 -507.5 189.5
s-196.5 281.5 -196.5 465.5zM797.001 1618l209 287h223l-275 -287h-157zM1155 1618l209 287h223l-274 -287h-158z" />
    <glyph glyph-name="ohungarumlaut" unicode="&#x151;" 
d="M553 164c91.333 0 173.833 38.499 247.5 115.499s110.5 162.833 110.5 257.5c0 80.667 -25.833 147.834 -77.5 201.501s-117.167 80.5 -196.5 80.5c-90 0 -171.833 -37.5 -245.5 -112.5s-110.5 -162.5 -110.5 -262.5c0 -80.667 25.833 -147.5 77.5 -200.5
s116.5 -79.5 194.5 -79.5zM72 437.999c0 144.667 59 275.167 177 391.5s253.333 174.5 406 174.5c131.333 0 241.666 -45.167 330.999 -135.5s134 -198.833 134 -325.5c0 -148.667 -60.667 -279.667 -182 -393s-255.666 -170 -402.999 -170c-132.667 0 -243 45 -331 135
s-132 197.667 -132 323zM455 1147l209 287h223l-275 -287h-157zM813 1147l209 287h223l-274 -287h-158z" />
    <glyph glyph-name="OE" unicode="&#x152;" horiz-adv-x="2099" 
d="M1026 1434l1161 0.000976562l-43 -205h-706l-80 -379h543l-46 -205h-542l-92 -440h727l-43 -205h-1112c-172 0 -319.5 63.167 -442.5 189.5s-184.5 272.166 -184.5 437.499c0 146 40.667 281.5 122 406.5s187.833 223 319.5 294s271.167 106.5 418.5 106.5zM1212 1229
h-215.001c-158.667 0 -298.667 -56.333 -420 -169s-182 -251 -182 -415c0 -118.667 41.333 -221.667 124 -309s183.334 -131 302.001 -131h174z" />
    <glyph glyph-name="oe" unicode="&#x153;" horiz-adv-x="1945" 
d="M668 1004c76.667 0 146.334 -18.832 209.001 -56.499s112.334 -88.5 149.001 -152.5c53.333 65.333 118.5 116.5 195.5 153.5s157.833 55.5 242.5 55.5c120 0 220 -34.833 300 -104.5s120 -159.167 120 -268.5c0 -66.667 -13.667 -134.334 -41 -203.001l-4 -8h-770
c1.33301 -70.667 27.333 -131 78 -181s109.334 -75 176.001 -75c57.333 0 113.333 13 168 39s95 52 121 78l39 38l108 -135c-4 -5.33301 -10.5 -12.833 -19.5 -22.5s-28.167 -26 -57.5 -49s-60.333 -43.333 -93 -61s-73.834 -34 -123.501 -49s-100.5 -22.5 -152.5 -22.5
c-78 0 -149.833 19.333 -215.5 58s-116.834 91 -153.501 157c-56 -66.667 -122.833 -119.167 -200.5 -157.5s-158.834 -57.5 -243.501 -57.5c-118.667 0 -219.667 41.5 -303 124.5s-125 182.5 -125 298.5c0 166.667 59.667 308.5 179 425.5s258.333 175.5 417 175.5z
M522 164.001c95.333 0 180.667 40.667 256 122s113 171 113 269c0 74 -23.833 136.5 -71.5 187.5s-105.167 76.5 -172.5 76.5c-90 0 -173.5 -38.833 -250.5 -116.5s-115.5 -169.167 -115.5 -274.5c0 -74 23.5 -136.5 70.5 -187.5s103.833 -76.5 170.5 -76.5zM1444 829.001
c-62.667 0 -126.5 -22.5 -191.5 -67.5s-113.833 -100.833 -146.5 -167.5h580c0 68 -21.5 124.167 -64.5 168.5s-102.167 66.5 -177.5 66.5z" />
    <glyph glyph-name="Racute" unicode="&#x154;" horiz-adv-x="1433" 
d="M113 0l302.999 1434h575c114.667 0 211.334 -37.333 290.001 -112s118 -163 118 -265c0 -191.333 -89.667 -336 -269 -434c-13.333 -6.66699 -51.333 -23.334 -114 -50.001l203 -573h-240l-186 553h-338l-117 -553h-225zM878.999 758.001
c74 0 140.5 25.8311 199.5 77.498s88.5 115.834 88.5 192.501c0 54.667 -19 101.834 -57 141.501s-85 59.5 -141 59.5h-371l-100 -471h381zM812.999 1618l209 287h223l-274 -287h-158z" />
    <glyph glyph-name="racute" unicode="&#x155;" horiz-adv-x="716" 
d="M764 809c-24.667 6.66699 -54.0029 10 -88.0029 10c-78 0 -146 -26.167 -204 -78.5s-96.667 -124.5 -116 -216.5l-110 -524h-205l209 983h205l-23 -100c10.667 9.33301 25.334 20.5 44.001 33.5s56.334 30.833 113.001 53.5s112.334 34 167.001 34h51zM478.997 1147
l209 287h223l-274 -287h-158z" />
    <glyph glyph-name="uni0156" unicode="&#x156;" horiz-adv-x="1433" 
d="M113 0l302.999 1434h575c114.667 0 211.334 -37.333 290.001 -112s118 -163 118 -265c0 -191.333 -89.667 -336 -269 -434c-13.333 -6.66699 -51.333 -23.334 -114 -50.001l203 -573h-240l-186 553h-338l-117 -553h-225zM878.999 758.001
c74 0 140.5 25.8311 199.5 77.498s88.5 115.834 88.5 192.501c0 54.667 -19 101.834 -57 141.501s-85 59.5 -141 59.5h-371l-100 -471h381zM396.999 -451.001l146 287h192l-192 -287h-146z" />
    <glyph glyph-name="uni0157" unicode="&#x157;" horiz-adv-x="716" 
d="M764 809c-24.667 6.66699 -54.0029 10 -88.0029 10c-78 0 -146 -26.167 -204 -78.5s-96.667 -124.5 -116 -216.5l-110 -524h-205l209 983h205l-23 -100c10.667 9.33301 25.334 20.5 44.001 33.5s56.334 30.833 113.001 53.5s112.334 34 167.001 34h51zM-129.003 -451
l145 287h193l-193 -287h-145z" />
    <glyph glyph-name="Rcaron" unicode="&#x158;" horiz-adv-x="1433" 
d="M113 0l302.999 1434h575c114.667 0 211.334 -37.333 290.001 -112s118 -163 118 -265c0 -191.333 -89.667 -336 -269 -434c-13.333 -6.66699 -51.333 -23.334 -114 -50.001l203 -573h-240l-186 553h-338l-117 -553h-225zM878.999 758.001
c74 0 140.5 25.8311 199.5 77.498s88.5 115.834 88.5 192.501c0 54.667 -19 101.834 -57 141.501s-85 59.5 -141 59.5h-371l-100 -471h381zM1296 1905l-284 -287h-205l-166 287h176l105 -185l182 185h192z" />
    <glyph glyph-name="rcaron" unicode="&#x159;" horiz-adv-x="716" 
d="M764 809c-24.667 6.66699 -54.0029 10 -88.0029 10c-78 0 -146 -26.167 -204 -78.5s-96.667 -124.5 -116 -216.5l-110 -524h-205l209 983h205l-23 -100c10.667 9.33301 25.334 20.5 44.001 33.5s56.334 30.833 113.001 53.5s112.334 34 167.001 34h51zM941.997 1434
l-285 -287h-204l-166 287h176l104 -185l183 185h192z" />
    <glyph glyph-name="Sacute" unicode="&#x15a;" horiz-adv-x="1208" 
d="M565 184c82 0 154.837 20.834 218.504 62.501s95.5 102.834 95.5 183.501c0 45.333 -21.833 84.333 -65.5 117s-96.667 60.334 -159 83.001s-124.166 48 -185.499 76s-113.833 67.5 -157.5 118.5s-65.5 113.5 -65.5 187.5c0 132.667 45 239.5 135 320.5
s218.333 121.5 385 121.5c53.333 0 104.833 -6.5 154.5 -19.5s90.667 -28.333 123 -46s60.666 -35.334 84.999 -53.001s42.833 -32.834 55.5 -45.501l16 -20l-170 -142c-6.66699 9.33301 -16.834 20.666 -30.501 33.999s-45.5 31.166 -95.5 53.499s-103.667 33.5 -161 33.5
c-84.667 0 -150.167 -19.833 -196.5 -59.5s-69.5 -87.167 -69.5 -142.5c0 -38 15.667 -72.167 47 -102.5s70.333 -54.333 117 -72s97.667 -38.5 153 -62.5s106.166 -49 152.499 -75s85.166 -62.5 116.499 -109.5s47 -101.167 47 -162.5
c0 -148.667 -50.167 -266.334 -150.5 -353.001s-240.5 -130 -420.5 -130c-65.333 0 -127.5 7.83301 -186.5 23.5s-106.833 34.334 -143.5 56.001s-69 43.5 -97 65.5s-48.333 40.333 -61 55l-18 25l170 141c2.66699 -4 7 -9.83301 13 -17.5s19.667 -20.667 41 -39
s44.666 -34.666 69.999 -48.999s59.333 -27.333 102 -39s88 -17.5 136 -17.5zM709.004 1618l209 287h223l-275 -287h-157z" />
    <glyph glyph-name="sacute" unicode="&#x15b;" horiz-adv-x="890" 
d="M850 870l-155.998 -128.996c-4 5.33301 -10.833 12.5 -20.5 21.5s-29.834 20.667 -60.501 35s-62.334 21.5 -95.001 21.5c-50.667 0 -90.667 -10.5 -120 -31.5s-44 -46.5 -44 -76.5c0 -27.333 14.333 -51.333 43 -72s63.5 -38.834 104.5 -54.501s82 -33 123 -52
s75.833 -46.333 104.5 -82s43 -77.167 43 -124.5c0 -96.667 -37.5 -178.5 -112.5 -245.5s-174.167 -100.5 -297.5 -100.5c-48 0 -93.333 6 -136 18s-78 26.333 -106 43s-52.333 33.5 -73 50.5s-35 31.5 -43 43.5l-14 19l155 129c5.33301 -8 13.833 -19 25.5 -33
s37.667 -31.833 78 -53.5s83.166 -32.5 128.499 -32.5c58.667 0 104.334 11.167 137.001 33.5s49 54.166 49 95.499c0 27.333 -14.333 50.833 -43 70.5s-63.834 37.667 -105.501 54s-83 34.166 -124 53.499s-75.833 46.666 -104.5 81.999s-43 77 -43 125
c0 86 35.5 161.833 106.5 227.5s164.5 98.5 280.5 98.5c39.333 0 77.5 -4.5 114.5 -13.5s67.5 -20 91.5 -33s44.833 -26.333 62.5 -40s30.834 -24.5 39.501 -32.5zM475.002 1147l209 287h223l-274 -287h-158z" />
    <glyph glyph-name="Scedilla" unicode="&#x15e;" horiz-adv-x="1208" 
d="M565 184c83.333 0 156.506 20.498 219.506 61.498s94.5 101.833 94.5 182.5c0 46.667 -21.833 86.334 -65.5 119.001s-96.667 60.667 -159 84s-124.166 48.666 -185.499 75.999s-113.833 66.5 -157.5 117.5s-65.5 112.833 -65.5 185.5c0 132.667 45 239.834 135 321.501
s218.333 122.5 385 122.5c53.333 0 104.833 -6.5 154.5 -19.5s90.667 -28.333 123 -46s60.666 -35.334 84.999 -53.001s42.833 -32.834 55.5 -45.501l16 -20l-170 -142c-6.66699 9.33301 -16.834 20.666 -30.501 33.999s-45.5 31.166 -95.5 53.499s-103.667 33.5 -161 33.5
c-84.667 0 -150.167 -19.833 -196.5 -59.5s-69.5 -87.167 -69.5 -142.5c0 -46.667 21.833 -86.334 65.5 -119.001s96.667 -60.667 159 -84s124.166 -48.666 185.499 -75.999s113.833 -66.666 157.5 -117.999s65.5 -113 65.5 -185c0 -147.333 -49.5 -264.666 -148.5 -351.999
s-237.167 -131.666 -414.5 -132.999l-68 -93c4 0 9.16699 -0.666992 15.5 -2s17.666 -4.33301 33.999 -9s31 -11.167 44 -19.5s24.667 -21 35 -38s15.5 -36.5 15.5 -58.5c0 -56 -20.833 -101.667 -62.5 -137s-98.834 -53 -171.501 -53
c-36.667 0 -70.334 6.83301 -101.001 20.5s-53 27.167 -67 40.5l-18 21l67 82c35.333 -34 80.666 -51 135.999 -51c26 0 47.833 6.83301 65.5 20.5s26.5 29.167 26.5 46.5c0 15.333 -6.16699 28.333 -18.5 39s-29.5 16 -51.5 16c-9.33301 0 -19.5 -1.66699 -30.5 -5
s-19.167 -6.33301 -24.5 -9l-11 -6l-32 53l100 150c-50.667 6.66699 -99.167 18.834 -145.5 36.501s-84.166 36.5 -113.499 56.5s-55 39.5 -77 58.5s-37.667 34.5 -47 46.5l-14 19l170 141c2.66699 -4 7 -9.83301 13 -17.5s19.667 -20.667 41 -39
s44.666 -34.666 69.999 -48.999s59.333 -27.333 102 -39s88 -17.5 136 -17.5z" />
    <glyph glyph-name="scedilla" unicode="&#x15f;" horiz-adv-x="890" 
d="M850 870l-155.994 -128.996c-4 5.33301 -10.833 12.5 -20.5 21.5s-29.834 20.667 -60.501 35s-62.334 21.5 -95.001 21.5c-50.667 0 -90.667 -10.5 -120 -31.5s-44 -46.5 -44 -76.5c0 -27.333 14.333 -51.333 43 -72s63.5 -38.834 104.5 -54.501s82 -33 123 -52
s75.833 -46.333 104.5 -82s43 -77.167 43 -124.5c0 -94 -35.5 -173.833 -106.5 -239.5s-165.167 -101.167 -282.5 -106.5l-68 -93c4 0 9.16699 -0.666992 15.5 -2s17.666 -4.33301 33.999 -9s31 -11.167 44 -19.5s24.667 -21 35 -38s15.5 -36.5 15.5 -58.5
c0 -56 -20.833 -101.667 -62.5 -137s-98.834 -53 -171.501 -53c-36.667 0 -70.334 6.83301 -101.001 20.5s-53 27.167 -67 40.5l-18 21l67 82c35.333 -34 80.666 -51 135.999 -51c26 0 47.833 6.83301 65.5 20.5s26.5 29.167 26.5 46.5c0 15.333 -6.16699 28.333 -18.5 39
s-29.5 16 -51.5 16c-9.33301 0 -19.5 -1.66699 -30.5 -5s-19.167 -6.33301 -24.5 -9l-10 -6l-33 53l100 150c-56 10.667 -106.833 29.667 -152.5 57s-78.167 52 -97.5 74l-26 35l155 129c5.33301 -8 13.833 -19 25.5 -33s37.667 -31.833 78 -53.5
s83.166 -32.5 128.499 -32.5c58.667 0 104.334 11.167 137.001 33.5s49 54.166 49 95.499c0 27.333 -14.333 50.833 -43 70.5s-63.834 37.667 -105.501 54s-83 34.166 -124 53.499s-75.833 46.666 -104.5 81.999s-43 77 -43 125c0 86 35.5 161.833 106.5 227.5
s164.5 98.5 280.5 98.5c39.333 0 77.5 -4.5 114.5 -13.5s67.5 -20 91.5 -33s44.833 -26.333 62.5 -40s30.834 -24.5 39.501 -32.5z" />
    <glyph glyph-name="Scaron" unicode="&#x160;" horiz-adv-x="1208" 
d="M565 184c82 0 154.837 20.834 218.504 62.501s95.5 102.834 95.5 183.501c0 45.333 -21.833 84.333 -65.5 117s-96.667 60.334 -159 83.001s-124.166 48 -185.499 76s-113.833 67.5 -157.5 118.5s-65.5 113.5 -65.5 187.5c0 132.667 45 239.5 135 320.5
s218.333 121.5 385 121.5c53.333 0 104.833 -6.5 154.5 -19.5s90.667 -28.333 123 -46s60.666 -35.334 84.999 -53.001s42.833 -32.834 55.5 -45.501l16 -20l-170 -142c-6.66699 9.33301 -16.834 20.666 -30.501 33.999s-45.5 31.166 -95.5 53.499s-103.667 33.5 -161 33.5
c-84.667 0 -150.167 -19.833 -196.5 -59.5s-69.5 -87.167 -69.5 -142.5c0 -38 15.667 -72.167 47 -102.5s70.333 -54.333 117 -72s97.667 -38.5 153 -62.5s106.166 -49 152.499 -75s85.166 -62.5 116.499 -109.5s47 -101.167 47 -162.5
c0 -148.667 -50.167 -266.334 -150.5 -353.001s-240.5 -130 -420.5 -130c-65.333 0 -127.5 7.83301 -186.5 23.5s-106.833 34.334 -143.5 56.001s-69 43.5 -97 65.5s-48.333 40.333 -61 55l-18 25l170 141c2.66699 -4 7 -9.83301 13 -17.5s19.667 -20.667 41 -39
s44.666 -34.666 69.999 -48.999s59.333 -27.333 102 -39s88 -17.5 136 -17.5zM1178 1905l-285 -287h-205l-166 287h176l105 -185l182 185h193z" />
    <glyph glyph-name="scaron" unicode="&#x161;" horiz-adv-x="890" 
d="M850 870l-155.998 -128.996c-4 5.33301 -10.833 12.5 -20.5 21.5s-29.834 20.667 -60.501 35s-62.334 21.5 -95.001 21.5c-50.667 0 -90.667 -10.5 -120 -31.5s-44 -46.5 -44 -76.5c0 -27.333 14.333 -51.333 43 -72s63.5 -38.834 104.5 -54.501s82 -33 123 -52
s75.833 -46.333 104.5 -82s43 -77.167 43 -124.5c0 -96.667 -37.5 -178.5 -112.5 -245.5s-174.167 -100.5 -297.5 -100.5c-48 0 -93.333 6 -136 18s-78 26.333 -106 43s-52.333 33.5 -73 50.5s-35 31.5 -43 43.5l-14 19l155 129c5.33301 -8 13.833 -19 25.5 -33
s37.667 -31.833 78 -53.5s83.166 -32.5 128.499 -32.5c58.667 0 104.334 11.167 137.001 33.5s49 54.166 49 95.499c0 27.333 -14.333 50.833 -43 70.5s-63.834 37.667 -105.501 54s-83 34.166 -124 53.499s-75.833 46.666 -104.5 81.999s-43 77 -43 125
c0 86 35.5 161.833 106.5 227.5s164.5 98.5 280.5 98.5c39.333 0 77.5 -4.5 114.5 -13.5s67.5 -20 91.5 -33s44.833 -26.333 62.5 -40s30.834 -24.5 39.501 -32.5zM936.002 1434l-285 -287h-205l-165 287h176l104 -185l182 185h193z" />
    <glyph glyph-name="uni0162" unicode="&#x162;" horiz-adv-x="1167" 
d="M252 1434h1085l-43 -205h-430l-260 -1229h-225l260 1229h-430zM215 -451l145 287h193l-193 -287h-145z" />
    <glyph glyph-name="uni0163" unicode="&#x163;" horiz-adv-x="778" 
d="M397 1106l45.001 205h185l-70 -328h205l-41 -184h-205l-108 -510c-6.66699 -36.667 -2 -66.667 14 -90s42 -35 78 -35c15.333 0 32.5 1.66699 51.5 5s33.833 7 44.5 11l16 4l-39 -184c-40.667 -13.333 -88.334 -20 -143.001 -20c-92.667 0 -159.167 25.833 -199.5 77.5
s-49.5 128.167 -27.5 229.5l108 512h-184l41 184h102c68 0 110.333 41 127 123zM111.001 -451l145 287h193l-193 -287h-145z" />
    <glyph glyph-name="Tcaron" unicode="&#x164;" horiz-adv-x="1167" 
d="M252 1434h1085l-43 -205h-430l-260 -1229h-225l260 1229h-430zM1200 1905l-285 -287h-204l-166 287h176l104 -185l183 185h192z" />
    <glyph glyph-name="tcaron" unicode="&#x165;" horiz-adv-x="808" 
d="M397 1106l45.001 205h185l-70 -328h205l-41 -184h-205l-108 -510c-6.66699 -36.667 -2 -66.667 14 -90s42 -35 78 -35c15.333 0 32.5 1.66699 51.5 5s33.833 7 44.5 11l16 4l-39 -184c-40.667 -13.333 -88.334 -20 -143.001 -20c-92.667 0 -159.167 25.833 -199.5 77.5
s-49.5 128.167 -27.5 229.5l108 512h-184l41 184h102c68 0 110.333 41 127 123zM772.001 1147l146 287h194l-192 -287h-148z" />
    <glyph glyph-name="Umacron" unicode="&#x16a;" horiz-adv-x="1576" 
d="M754 184c102.667 0 196.168 38 280.501 114s138.166 167.667 161.499 275l182 861h226l-183 -861c-35.333 -168 -116.5 -308.833 -243.5 -422.5s-273.167 -170.5 -438.5 -170.5c-151.333 0 -278.833 46.667 -382.5 140s-155.5 209 -155.5 347c0 34 4 69.333 12 106
l182 861h226l-183 -861c-5.33301 -22 -8 -46.333 -8 -73c0 -90 31.5 -165.167 94.5 -225.5s139.5 -90.5 229.5 -90.5zM1376 1843l-30 -143h-635l30 143h635z" />
    <glyph glyph-name="umacron" unicode="&#x16b;" 
d="M737 0l19 92c-8 -8 -20.333 -18.167 -37 -30.5s-51.167 -29 -103.5 -50s-105.833 -31.5 -160.5 -31.5c-102.667 0 -185 28.667 -247 86s-93 135.666 -93 234.999c0 34 4 70.333 12 109l123 573h205l-123 -573c-4 -20.667 -6 -40 -6 -58c0 -56 18 -101.333 54 -136
s82.667 -52 140 -52c76.667 0 143 26.333 199 79s94.333 125.334 115 218.001l112 522h205l-209 -983h-205zM1073 1372l-31 -143h-634l30 143h635z" />
    <glyph glyph-name="Uring" unicode="&#x16e;" horiz-adv-x="1576" 
d="M754 184c102.667 0 196.168 38 280.501 114s138.166 167.667 161.499 275l182 861h226l-183 -861c-35.333 -168 -116.5 -308.833 -243.5 -422.5s-273.167 -170.5 -438.5 -170.5c-151.333 0 -278.833 46.667 -382.5 140s-155.5 209 -155.5 347c0 34 4 69.333 12 106
l182 861h226l-183 -861c-5.33301 -22 -8 -46.333 -8 -73c0 -90 31.5 -165.167 94.5 -225.5s139.5 -90.5 229.5 -90.5zM1260 1806c0 -58.667 -23.333 -111.501 -70 -158.501s-100.667 -70.5 -162 -70.5c-54.667 0 -99.334 17.333 -134.001 52s-52 77.334 -52 128.001
c0 61.333 23.167 115 69.5 161s99.5 69 159.5 69c54.667 0 99.834 -17.5 135.501 -52.5s53.5 -77.833 53.5 -128.5zM1036 1690c23.333 0 45.666 10.499 66.999 31.499s32 44.5 32 70.5c0 22 -7.16699 41.167 -21.5 57.5s-31.166 24.5 -50.499 24.5
c-23.333 0 -45.166 -10.667 -65.499 -32s-30.5 -45.666 -30.5 -72.999c0 -22 6.66699 -40.667 20 -56s29.666 -23 48.999 -23z" />
    <glyph glyph-name="uring" unicode="&#x16f;" 
d="M737 0l19 92c-8 -8 -20.333 -18.167 -37 -30.5s-51.167 -29 -103.5 -50s-105.833 -31.5 -160.5 -31.5c-102.667 0 -185 28.667 -247 86s-93 135.666 -93 234.999c0 34 4 70.333 12 109l123 573h205l-123 -573c-4 -20.667 -6 -40 -6 -58c0 -56 18 -101.333 54 -136
s82.667 -52 140 -52c76.667 0 143 26.333 199 79s94.333 125.334 115 218.001l112 522h205l-209 -983h-205zM948 1335c0 -58.667 -23.168 -111.501 -69.501 -158.501s-100.166 -70.5 -161.499 -70.5c-54.667 0 -99.5 17.333 -134.5 52s-52.5 77.334 -52.5 128.001
c0 61.333 23.333 115 70 161s100 69 160 69c54.667 0 99.667 -17.5 135 -52.5s53 -77.833 53 -128.5zM724.999 1219c23.333 0 45.5 10.499 66.5 31.499s31.5 44.5 31.5 70.5c0 22 -7.16699 41.167 -21.5 57.5s-30.833 24.5 -49.5 24.5c-23.333 0 -45.333 -10.667 -66 -32
s-31 -45.666 -31 -72.999c0 -22 6.83301 -40.667 20.5 -56s30.167 -23 49.5 -23z" />
    <glyph glyph-name="Uhungarumlaut" unicode="&#x170;" horiz-adv-x="1576" 
d="M754 184c102.667 0 196.168 38 280.501 114s138.166 167.667 161.499 275l182 861h226l-183 -861c-35.333 -168 -116.5 -308.833 -243.5 -422.5s-273.167 -170.5 -438.5 -170.5c-151.333 0 -278.833 46.667 -382.5 140s-155.5 209 -155.5 347c0 34 4 69.333 12 106
l182 861h226l-183 -861c-5.33301 -22 -8 -46.333 -8 -73c0 -90 31.5 -165.167 94.5 -225.5s139.5 -90.5 229.5 -90.5zM748.001 1618l208 287h224l-275 -287h-157zM1106 1618l209 287h223l-274 -287h-158z" />
    <glyph glyph-name="uhungarumlaut" unicode="&#x171;" 
d="M737 0l19 92c-8 -8 -20.333 -18.167 -37 -30.5s-51.167 -29 -103.5 -50s-105.833 -31.5 -160.5 -31.5c-102.667 0 -185 28.667 -247 86s-93 135.666 -93 234.999c0 34 4 70.333 12 109l123 573h205l-123 -573c-4 -20.667 -6 -40 -6 -58c0 -56 18 -101.333 54 -136
s82.667 -52 140 -52c76.667 0 143 26.333 199 79s94.333 125.334 115 218.001l112 522h205l-209 -983h-205zM420 1147l209 287h223l-274 -287h-158zM778 1147l209 287h223l-274 -287h-158z" />
    <glyph glyph-name="Uogonek" unicode="&#x172;" horiz-adv-x="1576" 
d="M754 184c102.667 0 196.168 38.002 280.501 114.002s138.166 167.667 161.499 275l182 861h226l-183 -861c-34 -162.667 -111.667 -300.5 -233 -413.5s-261.333 -172.833 -420 -179.5c-70.667 -75.333 -106 -141 -106 -197c0 -20.667 7.83301 -37.5 23.5 -50.5
s36.5 -19.5 62.5 -19.5c18 0 36.833 1.83301 56.5 5.5s34.167 7.5 43.5 11.5l16 4l-26 -123c-49.333 -20.667 -101.333 -31 -156 -31c-52 0 -93.667 14.667 -125 44s-47 67.333 -47 114c0 84.667 43.667 168 131 250c-128.667 19.333 -234.167 73.666 -316.5 162.999
s-123.5 194.666 -123.5 315.999c0 34 4 69.333 12 106l182 861h226l-183 -861c-5.33301 -22 -8 -46.333 -8 -73c0 -90 31.5 -165.167 94.5 -225.5s139.5 -90.5 229.5 -90.5z" />
    <glyph glyph-name="uogonek" unicode="&#x173;" 
d="M737 0l18.999 91.999c-8 -8 -20.333 -18.167 -37 -30.5s-51.167 -29 -103.5 -50s-105.833 -31.5 -160.5 -31.5c-102.667 0 -185 28.667 -247 86s-93 135.666 -93 234.999c0 34 4 70.333 12 109l123 573h205l-123 -573c-4 -20.667 -6 -40 -6 -58
c0 -56 18 -101.333 54 -136s82.667 -52 140 -52c76.667 0 143 26.333 199 79s94.333 125.334 115 218.001l112 522h205l-209 -983h-72l-35.5 -35.5c-14.333 -14.333 -33.166 -41 -56.499 -80s-35 -72.833 -35 -101.5c0 -20.667 8 -37.5 24 -50.5s36.667 -19.5 62 -19.5
c18 0 36.833 1.83301 56.5 5.5s34.5 7.5 44.5 11.5l16 4l-26 -123c-49.333 -20.667 -101.333 -31 -156 -31c-52 0 -93.667 14.667 -125 44s-47 67.333 -47 114c0 40.667 12 82.834 36 126.501s48 77.167 72 100.5z" />
    <glyph glyph-name="Ydieresis" unicode="&#x178;" horiz-adv-x="1331" 
d="M465 1434l244 -686l534 686h258l-717 -922l-108 -512h-225l108 512l-328 922h234zM817 1759c0 -36.667 -13.333 -69.333 -40 -98s-59 -43 -97 -43c-34 0 -61.667 9.83301 -83 29.5s-32 44.5 -32 74.5c0 39.333 13.667 72.833 41 100.5s59.333 41.5 96 41.5
c35.333 0 63.333 -10 84 -30s31 -45 31 -75zM1247 1759c0 -36.667 -13.3311 -69.333 -39.998 -98s-59 -43 -97 -43c-34 0 -61.667 9.83301 -83 29.5s-32 44.5 -32 74.5c0 39.333 13.667 72.833 41 100.5s59.666 41.5 96.999 41.5c35.333 0 63.166 -10 83.499 -30
s30.5 -45 30.5 -75z" />
    <glyph glyph-name="Zacute" unicode="&#x179;" horiz-adv-x="1290" 
d="M1055 1229h-754l43 205h1034l-43 -205l-1001 -1024h805l-43 -205h-1086l43 205zM772 1618l209 287h223l-274 -287h-158z" />
    <glyph glyph-name="zacute" unicode="&#x17a;" horiz-adv-x="983" 
d="M987 983l-41 -184l-661 -615h553l-39 -184h-819l38 184l662 615h-512l41 184h778zM514 1147l209 287h223l-274 -287h-158z" />
    <glyph glyph-name="Zdotaccent" unicode="&#x17b;" horiz-adv-x="1290" 
d="M1055 1229h-754l43 205h1034l-43 -205l-1001 -1024h805l-43 -205h-1086l43 205zM1022 1780c0 -36.667 -13.333 -69.499 -40 -98.499s-59 -43.5 -97 -43.5c-34 0 -61.667 10 -83 30s-32 45 -32 75c0 39.333 13.667 72.666 41 99.999s59.333 41 96 41
c35.333 0 63.333 -9.83301 84 -29.5s31 -44.5 31 -74.5z" />
    <glyph glyph-name="zdotaccent" unicode="&#x17c;" horiz-adv-x="983" 
d="M987 983l-41 -184l-661 -615h553l-39 -184h-819l38 184l662 615h-512l41 184h778zM756 1309c0 -36.667 -13.332 -69.499 -39.999 -98.499s-59.334 -43.5 -98.001 -43.5c-34 0 -61.5 10 -82.5 30s-31.5 45 -31.5 75c0 39.333 13.667 72.666 41 99.999s59.333 41 96 41
c35.333 0 63.333 -9.83301 84 -29.5s31 -44.5 31 -74.5z" />
    <glyph glyph-name="Zcaron" unicode="&#x17d;" horiz-adv-x="1290" 
d="M1055 1229h-754l43 205h1034l-43 -205l-1001 -1024h805l-43 -205h-1086l43 205zM1270 1905l-285 -287h-205l-166 287h177l104 -185l182 185h193z" />
    <glyph glyph-name="zcaron" unicode="&#x17e;" horiz-adv-x="983" 
d="M987 983l-41 -184l-661 -615h553l-39 -184h-819l38 184l662 615h-512l41 184h778zM991 1434l-284 -287h-205l-166 287h176l104 -185l183 185h192z" />
    <glyph glyph-name="florin" unicode="&#x192;" horiz-adv-x="737" 
d="M674 1147l-117 -307h215l-39 -185h-246l-309 -778c-82 -204.667 -215 -307 -399 -307c-22 0 -43.833 1.66699 -65.5 5s-38.167 7 -49.5 11l-16 4l37 174c30 -13.333 62 -20 96 -20c92.667 0 156.667 44.333 192 133l310 778h-144l39 185h174l117 307
c35.333 95.333 87.5 170.333 156.5 225s150.5 82 244.5 82c22 0 43.667 -1.66699 65 -5s37.333 -7 48 -11l16 -4l-36 -174c-31.333 13.333 -64.333 20 -99 20c-94 0 -157.333 -44.333 -190 -133z" />
    <glyph glyph-name="uni0218" unicode="&#x218;" horiz-adv-x="1208" 
d="M565 184c82 0 154.837 20.834 218.504 62.501s95.5 102.834 95.5 183.501c0 45.333 -21.833 84.333 -65.5 117s-96.667 60.334 -159 83.001s-124.166 48 -185.499 76s-113.833 67.5 -157.5 118.5s-65.5 113.5 -65.5 187.5c0 132.667 45 239.5 135 320.5
s218.333 121.5 385 121.5c53.333 0 104.833 -6.5 154.5 -19.5s90.667 -28.333 123 -46s60.666 -35.334 84.999 -53.001s42.833 -32.834 55.5 -45.501l16 -20l-170 -142c-6.66699 9.33301 -16.834 20.666 -30.501 33.999s-45.5 31.166 -95.5 53.499s-103.667 33.5 -161 33.5
c-84.667 0 -150.167 -19.833 -196.5 -59.5s-69.5 -87.167 -69.5 -142.5c0 -38 15.667 -72.167 47 -102.5s70.333 -54.333 117 -72s97.667 -38.5 153 -62.5s106.166 -49 152.499 -75s85.166 -62.5 116.499 -109.5s47 -101.167 47 -162.5
c0 -148.667 -50.167 -266.334 -150.5 -353.001s-240.5 -130 -420.5 -130c-65.333 0 -127.5 7.83301 -186.5 23.5s-106.833 34.334 -143.5 56.001s-69 43.5 -97 65.5s-48.333 40.333 -61 55l-18 25l170 141c2.66699 -4 7 -9.83301 13 -17.5s19.667 -20.667 41 -39
s44.666 -34.666 69.999 -48.999s59.333 -27.333 102 -39s88 -17.5 136 -17.5zM289.004 -450.999l145 287h193l-193 -287h-145z" />
    <glyph glyph-name="uni0219" unicode="&#x219;" horiz-adv-x="890" 
d="M850 870l-155.998 -128.996c-4 5.33301 -10.833 12.5 -20.5 21.5s-29.834 20.667 -60.501 35s-62.334 21.5 -95.001 21.5c-50.667 0 -90.667 -10.5 -120 -31.5s-44 -46.5 -44 -76.5c0 -27.333 14.333 -51.333 43 -72s63.5 -38.834 104.5 -54.501s82 -33 123 -52
s75.833 -46.333 104.5 -82s43 -77.167 43 -124.5c0 -96.667 -37.5 -178.5 -112.5 -245.5s-174.167 -100.5 -297.5 -100.5c-48 0 -93.333 6 -136 18s-78 26.333 -106 43s-52.333 33.5 -73 50.5s-35 31.5 -43 43.5l-14 19l155 129c5.33301 -8 13.833 -19 25.5 -33
s37.667 -31.833 78 -53.5s83.166 -32.5 128.499 -32.5c58.667 0 104.334 11.167 137.001 33.5s49 54.166 49 95.499c0 27.333 -14.333 50.833 -43 70.5s-63.834 37.667 -105.501 54s-83 34.166 -124 53.499s-75.833 46.666 -104.5 81.999s-43 77 -43 125
c0 86 35.5 161.833 106.5 227.5s164.5 98.5 280.5 98.5c39.333 0 77.5 -4.5 114.5 -13.5s67.5 -20 91.5 -33s44.833 -26.333 62.5 -40s30.834 -24.5 39.501 -32.5zM129.002 -450.996l145 287h193l-193 -287h-145z" />
    <glyph glyph-name="uni021A" unicode="&#x21a;" horiz-adv-x="1167" 
d="M252 1434h1085l-43 -205h-430l-260 -1229h-225l260 1229h-430zM215 -451l145 287h193l-193 -287h-145z" />
    <glyph glyph-name="uni021B" unicode="&#x21b;" horiz-adv-x="778" 
d="M397 1106l45.001 205h185l-70 -328h205l-41 -184h-205l-108 -510c-6.66699 -36.667 -2 -66.667 14 -90s42 -35 78 -35c15.333 0 32.5 1.66699 51.5 5s33.833 7 44.5 11l16 4l-39 -184c-40.667 -13.333 -88.334 -20 -143.001 -20c-92.667 0 -159.167 25.833 -199.5 77.5
s-49.5 128.167 -27.5 229.5l108 512h-184l41 184h102c68 0 110.333 41 127 123zM111.001 -451l145 287h193l-193 -287h-145z" />
    <glyph glyph-name="uni02BC" unicode="&#x2bc;" horiz-adv-x="399" 
d="M209 1147l145 287h195l-193 -287h-147z" />
    <glyph glyph-name="circumflex" unicode="&#x2c6;" horiz-adv-x="778" 
d="M213 1147l285 287h204l166 -287h-176l-104 184l-182 -184h-193z" />
    <glyph glyph-name="caron" unicode="&#x2c7;" horiz-adv-x="778" 
d="M928 1434l-285 -287h-205l-166 287h177l104 -185l182 185h193z" />
    <glyph glyph-name="breve" unicode="&#x2d8;" horiz-adv-x="716" 
d="M542.5 1290c41 0 77.1689 13.6689 108.502 41.002s51.333 61.666 60 102.999h153c-18 -84.667 -56.167 -153.667 -114.5 -207s-129.833 -80 -214.5 -80c-88.667 0 -159.334 27.667 -212.001 83s-70.334 123.333 -53.001 204h154c-8 -40.667 -0.5 -74.834 22.5 -102.501
s55 -41.5 96 -41.5z" />
    <glyph glyph-name="dotaccent" unicode="&#x2d9;" horiz-adv-x="368" 
d="M496 1329c0 -36.667 -13.332 -69.333 -39.999 -98s-59.334 -43 -98.001 -43c-34 0 -61.5 9.83301 -82.5 29.5s-31.5 44.5 -31.5 74.5c0 39.333 13.333 72.833 40 100.5s59 41.5 97 41.5c35.333 0 63.333 -10 84 -30s31 -45 31 -75z" />
    <glyph glyph-name="ring" unicode="&#x2da;" horiz-adv-x="532" 
d="M643 1253c0 -58.667 -23.168 -111.501 -69.501 -158.501s-100.166 -70.5 -161.499 -70.5c-54.667 0 -99.5 17.333 -134.5 52s-52.5 77.334 -52.5 128.001c0 61.333 23.333 115 70 161s100 69 160 69c54.667 0 99.667 -17.5 135 -52.5s53 -77.833 53 -128.5zM419.999 1137
c23.333 0 45.498 10.5 66.498 31.5s31.5 44.5 31.5 70.5c0 22 -7.16699 41.167 -21.5 57.5s-31.166 24.5 -50.499 24.5c-23.333 0 -45.166 -10.667 -65.499 -32s-30.5 -45.333 -30.5 -72c0 -22 6.83301 -40.833 20.5 -56.5s30.167 -23.5 49.5 -23.5z" />
    <glyph glyph-name="ogonek" unicode="&#x2db;" horiz-adv-x="481" 
d="M61 0l134 -0.00195312c-9.33301 -9.33301 -21.333 -21.166 -36 -35.499s-33.5 -41 -56.5 -80s-34.5 -72.833 -34.5 -101.5c0 -20.667 7.83301 -37.5 23.5 -50.5s36.5 -19.5 62.5 -19.5c18 0 36.833 1.83301 56.5 5.5s34.167 7.5 43.5 11.5l16 4l-26 -123
c-49.333 -20.667 -101.333 -31 -156 -31c-52 0 -93.667 14.667 -125 44s-47 67.333 -47 114c0 40.667 12 82.834 36 126.501s48.333 77.167 73 100.5z" />
    <glyph glyph-name="tilde" unicode="&#x2dc;" horiz-adv-x="829" 
d="M727 1167c-40.667 0 -77.5 10.333 -110.5 31s-62.5 41.167 -88.5 61.5s-51 30.5 -75 30.5c-52 0 -86.333 -41 -103 -123h-133c36.667 177.333 120.667 266.333 252 267c40.667 0 77.5 -10.333 110.5 -31s62.5 -41.167 88.5 -61.5s51 -30.5 75 -30.5
c52 0 86.333 41 103 123h133c-36.667 -178 -120.667 -267 -252 -267z" />
    <glyph glyph-name="hungarumlaut" unicode="&#x2dd;" horiz-adv-x="849" 
d="M209 1147l209 287h223l-274 -287h-158zM567 1147l209 287h223l-274 -287h-158z" />
    <glyph glyph-name="uni0401" unicode="&#x401;" horiz-adv-x="1341" 
d="M381 205h809l-43 -205h-1034l303 1434h1014l-44 -205h-788l-80 -379h625l-45 -205h-625zM889 1759c0 -36.667 -13.333 -69.333 -40 -98s-59 -43 -97 -43c-34 0 -61.667 9.83301 -83 29.5s-32 44.5 -32 74.5c0 39.333 13.333 72.833 40 100.5s59 41.5 97 41.5
c35.333 0 63.333 -10 84 -30s31 -45 31 -75zM1319 1759c0 -36.667 -13.333 -69.333 -40 -98s-59 -43 -97 -43c-34 0 -61.667 9.83301 -83 29.5s-32 44.5 -32 74.5c0 39.333 13.333 72.833 40 100.5s59 41.5 97 41.5c35.333 0 63.333 -10 84 -30s31 -45 31 -75z" />
    <glyph glyph-name="uni0402" unicode="&#x402;" horiz-adv-x="1474" 
d="M1001 963c112 0 205.669 -36.665 281.002 -109.998s113 -165 113 -275c0 -184 -56.333 -329.667 -169 -437s-247 -161 -403 -161h-41l45 204c94 0 173.5 32.167 238.5 96.5s97.5 153.166 97.5 266.499c0 64 -20.833 115.167 -62.5 153.5s-96.5 57.5 -164.5 57.5
c-90 0 -167.5 -27 -232.5 -81s-106.167 -122.667 -123.5 -206l-99 -471h-225l260 1229h-348l43 205h922l-43 -205h-349l-84 -400c9.33301 9.33301 22.666 21.666 39.999 36.999s55.666 35.333 114.999 60s122.333 37 189 37z" />
    <glyph glyph-name="uni0403" unicode="&#x403;" horiz-adv-x="1146" 
d="M113 0l303 1434h921l-43 -205h-696l-260 -1229h-225zM813 1618l209 287h223l-274 -287h-158z" />
    <glyph glyph-name="uni0404" unicode="&#x404;" horiz-adv-x="1556" 
d="M1055 1454c72.667 0 141.673 -9.50586 207.006 -28.5059s119.166 -42.167 161.499 -69.5s79.166 -54.333 110.499 -81s54 -49.667 68 -69l20 -28l-166 -138c-4 5.33301 -9.33301 12.833 -16 22.5s-22.667 26.5 -48 50.5s-53 45.167 -83 63.5s-70 35 -120 50
s-103 22.5 -159 22.5c-130 0 -250.167 -39.167 -360.5 -117.5s-188.833 -179.166 -235.5 -302.499h715l-45 -204h-709v-9c0 -121.333 42.333 -223.666 127 -306.999s191.334 -125 320.001 -125c56 0 110.5 7.83301 163.5 23.5s97.667 34.834 134 57.501
s68.833 45.334 97.5 68.001s49.667 41.334 63 56.001l21 25l117 -148c-5.33301 -8 -13.833 -18.5 -25.5 -31.5s-37.334 -35.833 -77.001 -68.5s-81.334 -61.667 -125.001 -87s-100.334 -48.166 -170.001 -68.499s-140.834 -30.5 -213.501 -30.5
c-184 0 -340.5 61.333 -469.5 184s-193.5 268 -193.5 436c0 237.333 87.667 439 263 605s384.666 249 627.999 249z" />
    <glyph glyph-name="uni0405" unicode="&#x405;" horiz-adv-x="1208" 
d="M565 184c82 0 154.837 20.834 218.504 62.501s95.5 102.834 95.5 183.501c0 45.333 -21.833 84.333 -65.5 117s-96.667 60.334 -159 83.001s-124.166 48 -185.499 76s-113.833 67.5 -157.5 118.5s-65.5 113.5 -65.5 187.5c0 132.667 45 239.5 135 320.5
s218.333 121.5 385 121.5c53.333 0 104.833 -6.5 154.5 -19.5s90.667 -28.333 123 -46s60.666 -35.334 84.999 -53.001s42.833 -32.834 55.5 -45.501l16 -20l-170 -142c-6.66699 9.33301 -16.834 20.666 -30.501 33.999s-45.5 31.166 -95.5 53.499s-103.667 33.5 -161 33.5
c-84.667 0 -150.167 -19.833 -196.5 -59.5s-69.5 -87.167 -69.5 -142.5c0 -38 15.667 -72.167 47 -102.5s70.333 -54.333 117 -72s97.667 -38.5 153 -62.5s106.166 -49 152.499 -75s85.166 -62.5 116.499 -109.5s47 -101.167 47 -162.5
c0 -148.667 -50.167 -266.334 -150.5 -353.001s-240.5 -130 -420.5 -130c-65.333 0 -127.5 7.83301 -186.5 23.5s-106.833 34.334 -143.5 56.001s-69 43.5 -97 65.5s-48.333 40.333 -61 55l-18 25l170 141c2.66699 -4 7 -9.83301 13 -17.5s19.667 -20.667 41 -39
s44.666 -34.666 69.999 -48.999s59.333 -27.333 102 -39s88 -17.5 136 -17.5z" />
    <glyph glyph-name="uni0406" unicode="&#x406;" horiz-adv-x="634" 
d="M113 0l303 1434h225l-303 -1434h-225z" />
    <glyph glyph-name="uni0407" unicode="&#x407;" horiz-adv-x="634" 
d="M113 0l303 1434h225l-303 -1434h-225zM496 1759c0 -36.667 -13.332 -69.333 -39.999 -98s-59.334 -43 -98.001 -43c-34 0 -61.5 9.83301 -82.5 29.5s-31.5 44.5 -31.5 74.5c0 39.333 13.333 72.833 40 100.5s59 41.5 97 41.5c35.333 0 63.333 -10 84 -30s31 -45 31 -75z
M926.001 1759c0 -36.667 -13.332 -69.333 -39.999 -98s-59.334 -43 -98.001 -43c-34 0 -61.5 9.83301 -82.5 29.5s-31.5 44.5 -31.5 74.5c0 39.333 13.333 72.833 40 100.5s59 41.5 97 41.5c35.333 0 63.333 -10 84 -30s31 -45 31 -75z" />
    <glyph glyph-name="uni0408" unicode="&#x408;" horiz-adv-x="1044" 
d="M825 1434l226.001 0.00292969l-213 -1004c-28.667 -136.667 -89.834 -245.834 -183.501 -327.501s-210.834 -122.5 -351.501 -122.5c-66.667 0 -128.667 13.5 -186 40.5s-98.333 54.167 -123 81.5l-37 41l174 144c1.33301 -2.66699 3.33301 -6.5 6 -11.5
s9.83398 -13.333 21.501 -25s24.334 -21.834 38.001 -30.501s32.167 -16.834 55.5 -24.501s48.666 -11.5 75.999 -11.5c76.667 0 139.167 21.5 187.5 64.5s80.5 103.5 96.5 181.5z" />
    <glyph glyph-name="uni0409" unicode="&#x409;" horiz-adv-x="2263" 
d="M1602 0h-598.003l260 1229h-502l-47 -225c-44 -207.333 -90.167 -380 -138.5 -518s-100.166 -243 -155.499 -315s-110 -121.833 -164 -149.5s-115 -41.5 -183 -41.5c-24.667 0 -50.667 2.66699 -78 8s-48.666 10.666 -63.999 15.999l-22 6l45 215
c34 -13.333 68 -20 102 -20c39.333 0 75.5 9.83301 108.5 29.5s68.333 56.5 106 110.5s74.834 136 111.501 246s72 247.667 106 413l91 430h952l-109 -512h308c117.333 0 217.166 -39.667 299.499 -119s123.5 -171.666 123.5 -276.999
c0 -150 -53.167 -275.167 -159.5 -375.5s-237.166 -150.5 -392.499 -150.5zM1272 205l352 -0.000976562c80.667 0 151 29 211 87s90 128.667 90 212c0 58.667 -20.833 108.834 -62.5 150.501s-93.167 62.5 -154.5 62.5h-328z" />
    <glyph glyph-name="uni040A" unicode="&#x40a;" horiz-adv-x="2263" 
d="M1272 205l352 -0.000976562c80.667 0 151 29 211 87s90 128.667 90 212c0 58.667 -20.833 108.834 -62.5 150.501s-93.167 62.5 -154.5 62.5h-328zM1602 -0.000976562l-598 -0.000976562l151 717h-666l-151 -717h-225l303 1434h225l-109 -512h666l109 512h225l-109 -512
h308c117.333 0 217.166 -39.667 299.499 -119s123.5 -171.666 123.5 -276.999c0 -150 -53.167 -275.167 -159.5 -375.5s-237.166 -150.5 -392.499 -150.5z" />
    <glyph glyph-name="uni040B" unicode="&#x40b;" horiz-adv-x="1536" 
d="M1163 512c15.333 70.667 1.49902 129.334 -41.501 176.001s-105.5 70 -187.5 70c-90 0 -167.167 -27 -231.5 -81s-105.166 -122.667 -122.499 -206l-99 -471h-225l260 1229h-348l43 205h922l-43 -205h-349l-84 -400c8 9.33301 20.333 21.666 37 36.999
s53.667 35.333 111 60s119.333 37 186 37c146 0 256 -40 330 -120s96.667 -190.333 68 -331l-109 -512h-225z" />
    <glyph glyph-name="uni040C" unicode="&#x40c;" horiz-adv-x="1423" 
d="M852 1618l209 287h223l-274 -287h-158zM641 1434l-143 -678l774 678h301l-678 -594l416 -840h-264l-332 684l-287 -254l-90 -430h-225l303 1434h225z" />
    <glyph glyph-name="uni040E" unicode="&#x40e;" horiz-adv-x="1290" 
d="M498 1434l231 -747.999l506 748h246l-742 -1086c-90 -131.333 -174.167 -225.5 -252.5 -282.5s-173.5 -85.5 -285.5 -85.5c-24.667 0 -49.334 2.66699 -74.001 8s-43 10.666 -55 15.999l-19 6l41 195c26 -13.333 66.333 -20.333 121 -21c66.667 0 119.834 13 159.501 39
s80.167 67.667 121.5 125l77 111l-301 975h226zM915.5 1761c41 0 77.1689 13.6689 108.502 41.002s51 61.666 59 102.999h154c-18 -84.667 -56.333 -153.667 -115 -207s-130.334 -80 -215.001 -80c-88.667 0 -159.334 27.667 -212.001 83s-70 123.333 -52 204h154
c-8 -40.667 -0.5 -74.834 22.5 -102.501s55 -41.5 96 -41.5z" />
    <glyph glyph-name="uni040F" unicode="&#x40f;" horiz-adv-x="1556" 
d="M1563 1434l-303 -1434h-461l-66 -307h-225l65 307h-460l303 1434h225l-260 -1229h696l260 1229h226z" />
    <glyph glyph-name="uni0410" unicode="&#x410;" horiz-adv-x="1495" 
d="M-51 0l897 1434h225l291 -1434h-229l-74 379h-635l-234 -379h-241zM911 1178l-362 -594h471z" />
    <glyph glyph-name="uni0411" unicode="&#x411;" horiz-adv-x="1382" 
d="M381 205h393c75.333 0 138.5 25.833 189.5 77.5s76.5 116.5 76.5 194.5c0 53.333 -20 99.833 -60 139.5s-88.667 59.5 -146 59.5h-353zM754 0l-640.999 0.000976562l303 1434h942l-43 -205h-717l-74 -348h334c113.333 0 210.333 -38.333 291 -115
s121 -165.334 121 -266.001c0 -144.667 -48.833 -264.167 -146.5 -358.5s-220.834 -141.5 -369.501 -141.5z" />
    <glyph glyph-name="uni0412" unicode="&#x412;" horiz-adv-x="1402" 
d="M766 0l-653.001 0.000976562l303 1434h563c102.667 0 189.5 -34.167 260.5 -102.5s106.5 -145.5 106.5 -231.5c-1.33301 -139.333 -71.666 -253.333 -210.999 -342c10.667 -6.66699 24.167 -17.167 40.5 -31.5s38.5 -45.833 66.5 -94.5s42 -100.334 42 -155.001
c0 -130 -49.833 -242 -149.5 -336s-222.5 -141 -368.5 -141zM378.999 195.001h391c76.667 0 144 25.5 202 76.5s87 114.833 87 191.5c0 56 -17.167 103.833 -51.5 143.5s-79.5 59.5 -135.5 59.5h-393zM949.999 1239h-350l-82 -389h344c66.667 0 125.667 20.5 177 61.5
s77 93.5 77 157.5c0 45.333 -16 85 -48 119s-71.333 51 -118 51z" />
    <glyph glyph-name="uni0413" unicode="&#x413;" horiz-adv-x="1146" 
d="M113 0l303 1434h921l-43 -205h-696l-260 -1229h-225z" />
    <glyph glyph-name="uni0414" unicode="&#x414;" horiz-adv-x="1495" 
d="M-49 205h82.001c8 5.33301 18.833 14.5 32.5 27.5s39.667 42.667 78 89s74.166 97.166 107.499 152.499s68.833 130.833 106.5 226.5s68.167 196.834 91.5 303.501l90 430h931l-260 -1229h174l-108 -512h-225l65 307h-983l-65 -307h-224zM674.001 1004
c-23.333 -106.667 -52.333 -207.167 -87 -301.5s-69.167 -170.5 -103.5 -228.5s-66.5 -108.5 -96.5 -151.5s-54.667 -73.5 -74 -91.5l-28 -26h700l217 1024h-481z" />
    <glyph glyph-name="uni0415" unicode="&#x415;" horiz-adv-x="1341" 
d="M381 205h809l-43 -205h-1034l303 1434h1014l-44 -205h-788l-80 -379h625l-45 -205h-625z" />
    <glyph glyph-name="uni0416" unicode="&#x416;" horiz-adv-x="2048" 
d="M819 0l111 522l-107 148l-610 -670h-285l770 842l-426 592h271l450 -619l129 619h226l-125 -596l680 596h295l-676 -596l413 -838h-262l-334 680l-184 -160l-111 -520h-225z" />
    <glyph glyph-name="uni0417" unicode="&#x417;" horiz-adv-x="1290" 
d="M969 750c5.33301 -2.66699 12.501 -6.8291 21.501 -12.4961s25 -17.667 48 -36s43.333 -38.5 61 -60.5s33.667 -50.667 48 -86s21.5 -72.333 21.5 -111c0 -131.333 -54.5 -241.5 -163.5 -330.5s-257.167 -133.5 -444.5 -133.5c-68 0 -133.5 8.16699 -196.5 24.5
s-115 35.666 -156 57.999s-76.833 45.166 -107.5 68.499s-52.667 43 -66 59l-21 25l170 139c4 -4 9.5 -10 16.5 -18s22.833 -21.667 47.5 -41s50.667 -36.5 78 -51.5s63.5 -28.667 108.5 -41s91.167 -18.5 138.5 -18.5c113.333 0 203.166 26 269.499 78
s99.5 114.333 99.5 187c0 58.667 -22.5 107.667 -67.5 147s-111.833 59 -200.5 59h-187l43 205h181c92.667 0 166.667 21.167 222 63.5s83 94.166 83 155.499c0 45.333 -22.167 85 -66.5 119s-103.5 51 -177.5 51c-60 0 -120.333 -13 -181 -39s-106 -51.667 -136 -77
l-45 -39l-117 145c5.33301 5.33301 12.5 12.833 21.5 22.5s29.5 27.167 61.5 52.5s65.667 47.166 101 65.499s81.333 35.333 138 51s114.334 23.5 173.001 23.5c134 0 244.333 -35.5 331 -106.5s130 -151.5 130 -241.5c0 -150 -71.667 -260 -215 -330
c-36.667 -17.333 -58.334 -26 -65.001 -26z" />
    <glyph glyph-name="uni0418" unicode="&#x418;" horiz-adv-x="1628" 
d="M1331 0h-225l219 1034l-1008 -1034h-204l303 1434h225l-219 -1035l1008 1035h204z" />
    <glyph glyph-name="uni0419" unicode="&#x419;" horiz-adv-x="1628" 
d="M1331 0h-225l219 1034l-1008 -1034h-204l303 1434h225l-219 -1035l1008 1035h204zM1079.5 1761c41 0 77.1689 13.6689 108.502 41.002s51 61.666 59 102.999h154c-18 -84.667 -56.333 -153.667 -115 -207s-130.334 -80 -215.001 -80
c-88.667 0 -159.334 27.667 -212.001 83s-70 123.333 -52 204h154c-8 -40.667 -0.5 -74.834 22.5 -102.501s55 -41.5 96 -41.5z" />
    <glyph glyph-name="uni041A" unicode="&#x41a;" horiz-adv-x="1423" 
d="M641 1434l-143 -678l774 678h301l-678 -594l416 -840h-264l-332 684l-287 -254l-90 -430h-225l303 1434h225z" />
    <glyph glyph-name="uni041B" unicode="&#x41b;" horiz-adv-x="1546" 
d="M1552 1434l-303 -1434h-225l260 1229h-522l-47 -225c-45.333 -207.333 -91.833 -379.666 -139.5 -516.999s-98.834 -242.333 -153.501 -315s-109 -122.834 -163 -150.501s-115 -41.5 -183 -41.5c-24.667 0 -50.667 2.66699 -78 8s-48.666 10.666 -63.999 15.999l-24 6
l45 215c35.333 -13.333 70 -20 104 -20c39.333 0 75.5 9.83301 108.5 29.5s68.333 56.5 106 110.5s74.5 136 110.5 246s71 247.667 105 413l91 430h972z" />
    <glyph glyph-name="uni041C" unicode="&#x41c;" horiz-adv-x="1904" 
d="M997 737l701 697h213l-303 -1434h-226l222 1044l-662 -655l-383 655l-221 -1044h-225l303 1434h176z" />
    <glyph glyph-name="uni041D" unicode="&#x41d;" horiz-adv-x="1566" 
d="M1573 1434l-303 -1434h-226l132 625h-707l-131 -625h-225l303 1434h225l-127 -605h707l127 605h225z" />
    <glyph glyph-name="uni041E" unicode="&#x41e;" horiz-adv-x="1761" 
d="M999 1249c-154 0 -293.167 -59.999 -417.5 -179.999s-186.5 -258.667 -186.5 -416c0 -132.667 45.833 -244.334 137.5 -335.001s208.5 -136 350.5 -136c157.333 0 297.333 59.5 420 178.5s184 259.5 184 421.5c0 131.333 -45.833 242 -137.5 332s-208.5 135 -350.5 135z
M166 635.001c0 212.667 85.001 402.332 255.001 568.999s367 250 591 250c207.333 0 376.5 -63.167 507.5 -189.5s196.5 -281.5 196.5 -465.5c0 -221.333 -85.333 -413.166 -256 -575.499s-367.334 -243.5 -590.001 -243.5c-207.333 0 -376.5 63.167 -507.5 189.5
s-196.5 281.5 -196.5 465.5z" />
    <glyph glyph-name="uni041F" unicode="&#x41f;" horiz-adv-x="1566" 
d="M1573 1434l-303 -1434h-226l261 1229h-707l-260 -1229h-225l303 1434h1157z" />
    <glyph glyph-name="uni0420" unicode="&#x420;" horiz-adv-x="1382" 
d="M416 1434h544.999c117.333 0 216.833 -40.667 298.5 -122s122.5 -175.333 122.5 -282c0 -148.667 -54.167 -272.167 -162.5 -370.5s-241.166 -147.5 -398.499 -147.5h-375l-108 -512h-225zM933.999 1229l-336.001 -0.000976562l-109 -512h359c82 0 153.333 30 214 90
s91 131.667 91 215c0 58.667 -21.167 107.834 -63.5 147.501s-94.166 59.5 -155.499 59.5z" />
    <glyph glyph-name="uni0421" unicode="&#x421;" horiz-adv-x="1556" 
d="M1055 1454c72.667 0 141.673 -9.50488 207.006 -28.5049s119.166 -42.167 161.499 -69.5s79.166 -54.333 110.499 -81s54 -49.667 68 -69l20 -28l-166 -138c-4 5.33301 -9.33301 12.833 -16 22.5s-22.667 26.5 -48 50.5s-53 45.167 -83 63.5s-70 35 -120 50
s-103 22.5 -159 22.5c-168 0 -315.833 -62.5 -443.5 -187.5s-191.5 -273.5 -191.5 -445.5c0 -121.333 42.333 -223.666 127 -306.999s191.334 -125 320.001 -125c56 0 110.5 7.83301 163.5 23.5s97.667 34.834 134 57.501s68.833 45.334 97.5 68.001
s49.667 41.334 63 56.001l21 25l117 -148c-5.33301 -8 -13.833 -18.5 -25.5 -31.5s-37.334 -35.833 -77.001 -68.5s-81.334 -61.667 -125.001 -87s-100.334 -48.166 -170.001 -68.499s-140.834 -30.5 -213.501 -30.5c-184 0 -340.5 61.333 -469.5 184s-193.5 268 -193.5 436
c0 237.333 87.667 439 263 605s384.666 249 627.999 249z" />
    <glyph glyph-name="uni0422" unicode="&#x422;" horiz-adv-x="1167" 
d="M252 1434h1085l-43 -205h-430l-260 -1229h-225l260 1229h-430z" />
    <glyph glyph-name="uni0423" unicode="&#x423;" horiz-adv-x="1290" 
d="M498 1434l231 -747.999l506 748h246l-742 -1086c-90 -131.333 -174.167 -225.5 -252.5 -282.5s-173.5 -85.5 -285.5 -85.5c-24.667 0 -49.334 2.66699 -74.001 8s-43 10.666 -55 15.999l-19 6l41 195c26 -13.333 66.333 -20.333 121 -21c66.667 0 119.834 13 159.501 39
s80.167 67.667 121.5 125l77 111l-301 975h226z" />
    <glyph glyph-name="uni0424" unicode="&#x424;" horiz-adv-x="1740" 
d="M1128 1126l-162.999 -777.999c91.333 4 175.166 22.167 251.499 54.5s140.5 82.166 192.5 149.499s78 147.5 78 240.5s-31.5 170.833 -94.5 233.5s-151.167 96 -264.5 100zM903.001 1126c-91.333 -4 -175.167 -21.999 -251.5 -53.999s-140.5 -81.833 -192.5 -149.5
s-78 -147.834 -78 -240.501s31.333 -170.5 94 -233.5s150.667 -96.5 264 -100.5zM922 154.002l-41.001 -195h-226l41 195c-166.667 4 -298.667 55.833 -396 155.5s-146 217.834 -146 354.501c0 184 75.667 337.833 227 461.5s339.666 188.834 564.999 195.501l33 154h225
l-33 -154c166.667 -4 298.834 -55.833 396.501 -155.5s146.5 -217.834 146.5 -354.501c0 -184 -75.667 -337.833 -227 -461.5s-339.666 -188.834 -564.999 -195.501z" />
    <glyph glyph-name="uni0425" unicode="&#x425;" horiz-adv-x="1392" 
d="M776 932l465 502h281l-637 -686l375 -748h-252l-281 563l-518 -563h-281l690 748l-346 686h252z" />
    <glyph glyph-name="uni0426" unicode="&#x426;" horiz-adv-x="1576" 
d="M113 0l303 1434h225l-260 -1229h686l260 1229h225l-260 -1229h174l-108 -512h-225l65 307h-1085z" />
    <glyph glyph-name="uni0427" unicode="&#x427;" horiz-adv-x="1474" 
d="M621 1434l-90.999 -429.999c-6.66699 -36.667 -10 -66.334 -10 -89.001c0 -74 23.167 -130.667 69.5 -170s111.166 -59 194.499 -59c60 0 118.833 11.333 176.5 34s99.167 44.667 124.5 66l41 33l129 615h226l-303 -1434h-226l123 584
c-9.33301 -8 -22.833 -17.5 -40.5 -28.5s-57 -26.167 -118 -45.5s-124.833 -29 -191.5 -29c-134 0 -240.167 33.5 -318.5 100.5s-117.5 161.833 -117.5 284.5c0 39.333 5.33301 85.333 16 138l90 430h226z" />
    <glyph glyph-name="uni0428" unicode="&#x428;" horiz-adv-x="2129" 
d="M2136 1434l-303 -1434h-1720l303 1434h225l-260 -1229h522l260 1229h226l-261 -1229h523l260 1229h225z" />
    <glyph glyph-name="uni0429" unicode="&#x429;" horiz-adv-x="2160" 
d="M2136 1434l-260 -1229h174l-108 -512h-226l66 307h-1669l303 1434h225l-260 -1229h522l260 1229h226l-261 -1229h523l260 1229h225z" />
    <glyph glyph-name="uni042A" unicode="&#x42a;" horiz-adv-x="1525" 
d="M868 0h-612.001l260 1229h-348l43 205h573l-108 -512h313c117.333 0 218 -40 302 -120s126 -172.667 126 -278c0 -150 -52.667 -274.833 -158 -374.5s-235.666 -149.5 -390.999 -149.5zM523.999 205h361c82 0 153 28.667 213 86s90 127 90 209
c0 58.667 -21.833 109.5 -65.5 152.5s-96.167 64.5 -157.5 64.5h-332z" />
    <glyph glyph-name="uni042B" unicode="&#x42b;" horiz-adv-x="1853" 
d="M1860 1434l-304 -1434h-225l303 1434h226zM381 205h340c82 0 153 28.667 213 86s90 127 90 209c0 58.667 -21.833 109.5 -65.5 152.5s-96.167 64.5 -157.5 64.5h-312zM705 0h-592l303 1434h225l-109 -512h293c117.333 0 218 -40 302 -120s126 -172.667 126 -278
c0 -150 -52.5 -274.833 -157.5 -374.5s-235.167 -149.5 -390.5 -149.5z" />
    <glyph glyph-name="uni042C" unicode="&#x42c;" horiz-adv-x="1382" 
d="M381 205h360c82 0 153 28.667 213 86s90 127 90 209c0 58.667 -21.833 109.5 -65.5 152.5s-96.167 64.5 -157.5 64.5h-332zM725 0h-612.001l303 1434h225l-109 -512h314c117.333 0 218 -40 302 -120s126 -172.667 126 -278c0 -150 -52.667 -274.833 -158 -374.5
s-235.666 -149.5 -390.999 -149.5z" />
    <glyph glyph-name="uni042D" unicode="&#x42d;" horiz-adv-x="1556" 
d="M641 184c132.667 0 257.334 41.667 374.001 125s196 188.666 238 315.999h-723l45 204h705c-6.66699 113.333 -53 211.666 -139 294.999s-190 125 -312 125c-87.333 0 -169.166 -18.333 -245.499 -55s-130.833 -73 -163.5 -109l-49 -55l-121 148
c5.33301 6.66699 13.5 16.5 24.5 29.5s35.167 35.167 72.5 66.5s77.5 59.333 120.5 84s98.667 46.834 167 66.501s138.833 29.5 211.5 29.5c184 0 340.5 -62.833 469.5 -188.5s193.5 -273.834 193.5 -444.501c0 -236 -86.333 -435.167 -259 -597.5
s-379.667 -243.5 -621 -243.5c-72.667 0 -142.5 9.83301 -209.5 29.5s-122.333 43.5 -166 71.5s-81.834 56 -114.501 84s-56.334 52.333 -71.001 73l-23 28l166 140c4 -5.33301 9.5 -13.166 16.5 -23.499s23.333 -28.166 49 -53.499s54 -48 85 -68s71.333 -37.833 121 -53.5
s102.5 -23.5 158.5 -23.5z" />
    <glyph glyph-name="uni042E" unicode="&#x42e;" horiz-adv-x="2211" 
d="M1352 -20c-173.333 0 -324.499 61.668 -453.499 185.001s-194.5 276.666 -196.5 459.999h-233l-131 -625h-225l303 1434h225l-127 -605h215c48 177.333 147.667 325.833 299 445.5s314 179.5 488 179.5c186 0 340.667 -63.167 464 -189.5s185 -280.166 185 -461.499
c0 -146 -39.333 -282.833 -118 -410.5s-180.334 -228.334 -305.001 -302.001s-254.667 -110.5 -390 -110.5zM1368 182.001c152.667 0 285.334 62.5 398.001 187.5s169 266.833 169 425.5c0 131.333 -40.833 240.166 -122.5 326.499s-186.167 129.5 -313.5 129.5
c-143.333 0 -274 -59.667 -392 -179s-177 -263 -177 -431c0 -131.333 41.667 -240.666 125 -327.999s187.666 -131 312.999 -131z" />
    <glyph glyph-name="uni042F" unicode="&#x42f;" horiz-adv-x="1413" 
d="M1419 1434l-303 -1434h-225l117 553h-314l-428 -553h-256l449 573c-5.33301 2.66699 -12.833 7.5 -22.5 14.5s-26.5 21.833 -50.5 44.5s-45.167 46.834 -63.5 72.501s-35 59.334 -50 101.001s-22.5 85.167 -22.5 130.5c0 144.667 50.5 263.834 151.5 357.501
s227.167 140.5 378.5 140.5h639zM752 1229c-75.333 0 -139.333 -25.999 -192 -77.999s-79 -117 -79 -195c0 -54.667 17.833 -101.334 53.5 -140.001s81.5 -58 137.5 -58h379l100 471h-399z" />
    <glyph glyph-name="uni0430" unicode="&#x430;" horiz-adv-x="1239" 
d="M522 164c88.667 0 172.333 40.667 251 122s118 174.333 118 279c0 74 -24.333 134.833 -73 182.5s-107 71.5 -175 71.5c-90 0 -172.833 -39.833 -248.5 -119.5s-113.5 -172.167 -113.5 -277.5c0 -74 23.5 -135.5 70.5 -184.5s103.833 -73.5 170.5 -73.5zM650.999 1004
c57.333 0 111.996 -11.999 163.996 -35.999s89 -47.667 111 -71l35 -37l26 123h205l-209 -983h-205l21 104c-9.33301 -9.33301 -22.666 -20.833 -39.999 -34.5s-53.666 -32 -108.999 -55s-111.666 -34.5 -168.999 -34.5c-110.667 0 -206.5 41.5 -287.5 124.5
s-121.5 181.833 -121.5 296.5c0 165.333 59.333 307.166 178 425.499s252.334 177.5 401.001 177.5z" />
    <glyph glyph-name="uni0431" unicode="&#x431;" horiz-adv-x="1228" 
d="M1137 567c0 -154 -55.6689 -290.334 -167.002 -409.001s-246.333 -178 -405 -178c-126.667 0 -231.334 37.833 -314.001 113.5s-124 182.5 -124 320.5c0 64 8.33301 135.667 25 215c50.667 238.667 133.167 417 247.5 535s256.166 190.667 425.499 218
c75.333 12 144 27.333 206 46s105.333 34.334 130 47.001l37 20l59 -154c-5.33301 -5.33301 -15.166 -13 -29.499 -23s-59.333 -28 -135 -54s-170.167 -48 -283.5 -66c-98 -16.667 -184.667 -56.334 -260 -119.001s-128.666 -146 -159.999 -250l16.5 16.5
c7 7 22 19.333 45 37s47.167 33.334 72.5 47.001s57.833 26 97.5 37s79.834 16.5 120.501 16.5c106.667 0 199.334 -41.333 278.001 -124s118 -180 118 -292zM689.998 798.999c-94 0 -176.168 -39.334 -246.501 -118.001s-105.5 -167.667 -105.5 -267
c0 -72.667 22.833 -132.5 68.5 -179.5s101.834 -70.5 168.501 -70.5c88.667 0 169.667 36.833 243 110.5s110 164.5 110 272.5c0 70.667 -23.333 130.334 -70 179.001s-102.667 73 -168 73z" />
    <glyph glyph-name="uni0432" unicode="&#x432;" horiz-adv-x="1054" 
d="M250 983l450.002 0.00390625c82 0 149 -22.167 201 -66.5s78 -96.5 78 -156.5c0 -24.667 -3 -48.334 -9 -71.001s-13.833 -41.834 -23.5 -57.501s-20.334 -30.334 -32.001 -44.001s-23.334 -24.834 -35.001 -33.501s-22.167 -16.167 -31.5 -22.5s-17 -10.833 -23 -13.5
l-8 -4c8 -4 18.833 -10.833 32.5 -20.5s31.5 -31.167 53.5 -64.5s33 -70 33 -110c0 -95.333 -35.167 -172.333 -105.5 -231s-162.833 -88 -277.5 -88h-512zM618.002 440.004h-280l-55 -266h292c45.333 0 83 14.333 113 43s45 67 45 115c0 30 -10.667 55.5 -32 76.5
s-49 31.5 -83 31.5zM645.002 604.004c32.667 0 61 11.334 85 34.001s36 51.667 36 87c0 23.333 -8.5 43.166 -25.5 59.499s-38.5 24.5 -64.5 24.5h-260l-43 -205h272z" />
    <glyph glyph-name="uni0433" unicode="&#x433;" horiz-adv-x="911" 
d="M307 739l-102.005 131.002c8 9.33301 20.5 21.666 37.5 36.999s53.833 35.333 110.5 60s117.334 37 182.001 37c88.667 0 162 -23 220 -69s87 -101 87 -165c0 -75.333 -20.5 -137.833 -61.5 -187.5s-91.167 -86.167 -150.5 -109.5s-118.333 -43.5 -177 -60.5
s-108.5 -38.167 -149.5 -63.5s-61.5 -57.666 -61.5 -96.999c0 -58.667 47.667 -88 143 -88c45.333 0 90.5 10.167 135.5 30.5s79.167 40.166 102.5 59.499l32 31l103 -131c-4 -4 -9.83301 -10.167 -17.5 -18.5s-24.5 -22.5 -50.5 -42.5s-53.333 -37.833 -82 -53.5
s-65.834 -29.5 -111.501 -41.5s-92.5 -18 -140.5 -18c-96.667 0 -174.667 23.167 -234 69.5s-89 104.833 -89 175.5c0 74 20.833 135.833 62.5 185.5s91.834 86.5 150.501 110.5s117.334 44.5 176.001 61.5s108.834 37.833 150.501 62.5s62.5 54.667 62.5 90
c0 23.333 -10.667 43.166 -32 59.499s-51.666 24.5 -90.999 24.5c-32.667 0 -66.167 -6.83301 -100.5 -20.5s-60.166 -27.167 -77.499 -40.5z" />
    <glyph glyph-name="uni0434" unicode="&#x434;" horiz-adv-x="1200" 
d="M956 819c-23.333 170.667 -81.998 300.332 -175.998 388.999s-216 153.667 -366 195l86 164c195.333 -53.333 349.666 -144.833 462.999 -274.5s170 -300.5 170 -512.5c0 -248.667 -60.5 -444.167 -181.5 -586.5s-274.167 -213.5 -459.5 -213.5
c-118.667 0 -218.334 41.833 -299.001 125.5s-121 182.834 -121 297.501c0 150 57 280.833 171 392.5s241.333 167.5 382 167.5c60 0 117.667 -12 173 -36s95.333 -47.667 120 -71zM518.002 163.998c91.333 0 172.5 38.168 243.5 114.501s106.5 161.833 106.5 256.5
c0 69.333 -23.167 127.166 -69.5 173.499s-102.833 69.5 -169.5 69.5c-88.667 0 -169.167 -34.833 -241.5 -104.5s-108.5 -154.167 -108.5 -253.5c0 -70.667 23.167 -131 69.5 -181s102.833 -75 169.5 -75z" />
    <glyph glyph-name="uni0435" unicode="&#x435;" horiz-adv-x="1146" 
d="M1040 420l-770.002 0.000976562c2.66699 -70.667 28.334 -131 77.001 -181s110.334 -75 185.001 -75c57.333 0 112.666 13 165.999 39s92.333 52.667 117 80l37 39l109 -138c-4 -5.33301 -10.5 -12.833 -19.5 -22.5s-28.167 -26 -57.5 -49s-60.166 -43.333 -92.499 -61
s-73.333 -34 -123 -49s-100.5 -22.5 -152.5 -22.5c-120 0 -223.667 43.667 -311 131s-131 190.333 -131 309c0 160 58.667 297.333 176 412s255.333 172 414 172c120 0 220.167 -35.167 300.5 -105.5s120.5 -159.5 120.5 -267.5c0 -66.667 -13.667 -134.334 -41 -203.001z
M650.998 829.001c-70.667 0 -137.832 -22.167 -201.499 -66.5s-111.167 -100.5 -142.5 -168.5h580c2.66699 68 -16.833 124.167 -58.5 168.5s-100.834 66.5 -177.501 66.5z" />
    <glyph glyph-name="uni0436" unicode="&#x436;" horiz-adv-x="1556" 
d="M903 592l453 391h256l-467 -410l289 -573h-217l-228 446l-145 -127l-66 -319h-205l66 317l-82 117l-403 -434h-236l528 575l-288 408h237l299 -410l88 410h205z" />
    <glyph glyph-name="uni0437" unicode="&#x437;" horiz-adv-x="921" 
d="M854 752c0 -56 -18.8301 -105.165 -56.4971 -147.498s-85.834 -73.166 -144.501 -92.499c4 -1.33301 9.5 -3.66602 16.5 -6.99902s18.667 -10.833 35 -22.5s31 -24.667 44 -39s25 -33.833 36 -58.5s16.5 -50.667 16.5 -78c0 -92.667 -39.333 -170.334 -118 -233.001
s-189.667 -94 -333 -94c-48 0 -93.833 6 -137.5 18s-79.5 26.333 -107.5 43s-52.833 33.5 -74.5 50.5s-37.167 31.5 -46.5 43.5l-15 19l154 127c6.66699 -8 16.5 -18.667 29.5 -32s40.667 -30.833 83 -52.5s86.166 -32.5 131.499 -32.5c75.333 0 132.333 14.667 171 44
s58 65.666 58 108.999c0 32.667 -15 59.667 -45 81s-74.333 32 -133 32h-113l35 164h113c58.667 0 105 12.333 139 37s51 55.334 51 92.001c0 27.333 -12.667 50.166 -38 68.499s-61 27.5 -107 27.5c-39.333 0 -79.333 -7.5 -120 -22.5s-71 -30.5 -91 -46.5l-31 -23
l-104 133c4 4 9.33301 9.16699 16 15.5s22 17.666 46 33.999s49 31 75 44s60.167 24.667 102.5 35s85.166 15.5 128.499 15.5c100 0 180.667 -25.333 242 -76s92 -109.334 92 -176.001z" />
    <glyph glyph-name="uni0438" unicode="&#x438;" 
d="M737 0l19 92c-8 -8 -20.333 -18.167 -37 -30.5s-51.167 -29 -103.5 -50s-105.833 -31.5 -160.5 -31.5c-102.667 0 -185 28.667 -247 86s-93 135.666 -93 234.999c0 34 4 70.333 12 109l123 573h205l-123 -573c-4 -20.667 -6 -40 -6 -58c0 -56 18 -101.333 54 -136
s82.667 -52 140 -52c76.667 0 143 26.333 199 79s94.333 125.334 115 218.001l112 522h205l-209 -983h-205z" />
    <glyph glyph-name="uni0439" unicode="&#x439;" 
d="M737 0l19 92c-8 -8 -20.333 -18.167 -37 -30.5s-51.167 -29 -103.5 -50s-105.833 -31.5 -160.5 -31.5c-102.667 0 -185 28.667 -247 86s-93 135.666 -93 234.999c0 34 4 70.333 12 109l123 573h205l-123 -573c-4 -20.667 -6 -40 -6 -58c0 -56 18 -101.333 54 -136
s82.667 -52 140 -52c76.667 0 143 26.333 199 79s94.333 125.334 115 218.001l112 522h205l-209 -983h-205zM735.5 1290c41 0 77.1689 13.6689 108.502 41.002s51 61.666 59 102.999h154c-18 -84.667 -56.333 -153.667 -115 -207s-130.334 -80 -215.001 -80
c-88.667 0 -159.334 27.667 -212.001 83s-70 123.333 -52 204h153c-8 -40.667 -0.333008 -74.834 23 -102.501s55.5 -41.5 96.5 -41.5z" />
    <glyph glyph-name="uni043A" unicode="&#x43a;" horiz-adv-x="1064" 
d="M1120 983l-467 -410l289 -573h-217l-227 446l-195 -170l-57 -276h-205l209 983h205l-93 -432l502 432h256z" />
    <glyph glyph-name="uni043B" unicode="&#x43b;" horiz-adv-x="1157" 
d="M362 983l757.999 0.000976562l-209 -983h-204l167 799h-348l-20 -103c-40.667 -188.667 -86.667 -336.834 -138 -444.501s-103.666 -179.834 -156.999 -216.501s-117 -55 -191 -55c-18 0 -37.167 1.66699 -57.5 5s-36.5 7 -48.5 11l-16 4l41 195
c23.333 -6.66699 45 -10.334 65 -11.001c42 0 77.833 11.333 107.5 34s61.167 72.834 94.5 150.501s65 186.834 95 327.501z" />
    <glyph glyph-name="uni043C" unicode="&#x43c;" horiz-adv-x="1331" 
d="M668 553l450 430h176l-209 -983h-204l135 645l-398 -379l-237 379l-135 -645h-205l209 983h151z" />
    <glyph glyph-name="uni043D" unicode="&#x43d;" horiz-adv-x="1177" 
d="M332 410l-86 -410h-205l209 983h205l-84 -389h481l84 389h205l-209 -983h-205l86 410h-481z" />
    <glyph glyph-name="uni043E" unicode="&#x43e;" 
d="M553 164c91.333 0 173.833 38.499 247.5 115.499s110.5 162.833 110.5 257.5c0 80.667 -25.833 147.834 -77.5 201.501s-117.167 80.5 -196.5 80.5c-90 0 -171.833 -37.5 -245.5 -112.5s-110.5 -162.5 -110.5 -262.5c0 -80.667 25.833 -147.5 77.5 -200.5
s116.5 -79.5 194.5 -79.5zM72 437.999c0 144.667 59 275.167 177 391.5s253.333 174.5 406 174.5c131.333 0 241.666 -45.167 330.999 -135.5s134 -198.833 134 -325.5c0 -148.667 -60.667 -279.667 -182 -393s-255.666 -170 -402.999 -170c-132.667 0 -243 45 -331 135
s-132 197.667 -132 323z" />
    <glyph glyph-name="uni043F" unicode="&#x43f;" 
d="M455 983l-23 -102.001c8 9.33301 20 20.833 36 34.5s49.5 31.834 100.5 54.501s103.833 34 158.5 34c104 0 188 -29.167 252 -87.5s96 -137.833 96 -238.5c0 -32.667 -4 -67.667 -12 -105l-121 -573h-205l121 573c4 19.333 6 38 6 56c0 57.333 -18.333 103.333 -55 138
s-83.667 52 -141 52c-76.667 0 -143 -26.167 -199 -78.5s-93.667 -124.5 -113 -216.5l-110 -524h-205l209 983h205z" />
    <glyph glyph-name="uni0440" unicode="&#x440;" horiz-adv-x="1228" 
d="M582 -20c-57.333 0 -111.998 11.833 -163.998 35.5s-89.667 47.167 -113 70.5l-35 37l-116 -553h-205l301 1413h205l-23 -104c9.33301 9.33301 22.666 20.833 39.999 34.5s54 32.167 110 55.5s112.667 35 170 35c110.667 0 206.5 -41.667 287.5 -125
s121.5 -182.333 121.5 -297c0 -165.333 -59.333 -307 -178 -425s-252.334 -177 -401.001 -177zM711.002 819c-88.667 0 -172.333 -40.667 -251 -122s-118 -174.333 -118 -279c0 -74 24.167 -134.833 72.5 -182.5s106.833 -71.5 175.5 -71.5c90 0 172.833 39.833 248.5 119.5
s113.5 172.167 113.5 277.5c0 74 -23.5 135.5 -70.5 184.5s-103.833 73.5 -170.5 73.5z" />
    <glyph glyph-name="uni0441" unicode="&#x441;" horiz-adv-x="1064" 
d="M72 418c0 151.333 59.666 286.833 178.999 406.5s259 179.5 419 179.5c76.667 0 147.334 -16.5 212.001 -49.5s110.667 -65.833 138 -98.5l41 -47l-152 -125c-6.66699 9.33301 -16.167 21.5 -28.5 36.5s-41 35.167 -86 60.5s-93.5 38 -145.5 38
c-94 0 -178.833 -38.5 -254.5 -115.5s-113.5 -168.833 -113.5 -275.5c0 -74 24.833 -136.5 74.5 -187.5s110.167 -76.5 181.5 -76.5c52 0 102.5 13 151.5 39s85.167 51.333 108.5 76l34 38l109 -133c-4 -5.33301 -10.5 -12.833 -19.5 -22.5s-28.167 -26 -57.5 -49
s-59.666 -43.333 -90.999 -61s-70.833 -34 -118.5 -49s-95.5 -22.5 -143.5 -22.5c-118.667 0 -221.334 44 -308.001 132s-130 190 -130 306z" />
    <glyph glyph-name="uni0442" unicode="&#x442;" horiz-adv-x="1761" 
d="M1311 0l121.004 573.002c5.33301 26 8 52.667 8 80c0 54.667 -14.333 96 -43 124s-69 42 -121 42c-64 0 -122.333 -25.5 -175 -76.5s-88.667 -121.167 -108 -210.5l-112 -532h-205l121 573c5.33301 26 8 52.667 8 80c0 54.667 -14.333 96 -43 124s-69 42 -121 42
c-64 0 -122.333 -25.5 -175 -76.5s-88.667 -121.167 -108 -210.5l-112 -532h-205l209 983h205l-23 -102c8 9.33301 19.167 20.833 33.5 34.5s44.833 31.834 91.5 54.501s94.334 34 143.001 34c39.333 0 76.166 -5.5 110.499 -16.5s61.833 -24.667 82.5 -41
s38.167 -32.833 52.5 -49.5s24.166 -30.334 29.499 -41.001l8 -16c4 4 9.16699 9.66699 15.5 17s20.666 20.666 42.999 39.999s46.166 36.166 71.499 50.499s58.166 27.333 98.499 39s81.5 17.5 123.5 17.5c96.667 0 173.5 -26 230.5 -78s85.5 -127.333 85.5 -226
c0 -40.667 -5 -83 -15 -127l-120 -573h-205z" />
    <glyph glyph-name="uni0443" unicode="&#x443;" horiz-adv-x="1044" 
d="M248 -102l69 110l-190 975h207l133 -717l440 717h223l-671 -1085c-76.667 -122.667 -144 -208 -202 -256s-124.667 -72 -200 -72c-27.333 0 -52.833 1.66699 -76.5 5s-41.167 7 -52.5 11l-16 4l39 185c31.333 -13.333 64 -20.333 98 -21
c72.667 0.666992 139 48.667 199 144z" />
    <glyph glyph-name="uni0444" unicode="&#x444;" horiz-adv-x="1515" 
d="M461 -430l86 410c-146 0 -261.667 41.167 -347 123.5s-128 184.5 -128 306.5c0 168 66.833 309 200.5 423s298.167 171 493.5 171l90 430h205l-90 -430c146 0 261.667 -42 347 -126s128 -187 128 -309c0 -166.667 -67.333 -306.5 -202 -419.5
s-298.667 -169.5 -492 -169.5l-86 -410h-205zM588 164l139 655c-131.333 0 -238.833 -37.167 -322.5 -111.5s-125.5 -170.833 -125.5 -289.5c0 -76.667 27 -138.167 81 -184.5s130 -69.5 228 -69.5zM932 819l-139 -654.999c130 0 236.833 37.167 320.5 111.5
s125.5 170.166 125.5 287.499c0 78 -26.667 140.167 -80 186.5s-129 69.5 -227 69.5z" />
    <glyph glyph-name="uni0445" unicode="&#x445;" horiz-adv-x="1024" 
d="M641 512l260 -512h-225l-180 358l-332 -358h-246l477 512l-237 471h225l158 -317l293 317h245z" />
    <glyph glyph-name="uni0446" unicode="&#x446;" horiz-adv-x="1208" 
d="M127 410l123 572.999h205l-123 -573c-4 -19.333 -6 -38 -6 -56c0 -56 18 -101.667 54 -137s81.333 -53 136 -53c72.667 0 135.5 26.333 188.5 79s89.167 124.667 108.5 216l113 524h204l-161 -758c-1.33301 -5.33301 -2 -12.666 -2 -21.999c0 -39.333 21 -59.333 63 -60
h64l-82 -389h-205l53 246c-24.667 12 -43.5 29.333 -56.5 52s-20.167 42.334 -21.5 59.001v22c-2.66699 -4 -6.66699 -9.5 -12 -16.5s-18 -19.333 -38 -37s-41.5 -33.334 -64.5 -47.001s-54 -25.834 -93 -36.501s-79.5 -16 -121.5 -16c-100 0 -181.333 29 -244 87
s-94 136.667 -94 236c0 34.667 4 70.334 12 107.001z" />
    <glyph glyph-name="uni0447" unicode="&#x447;" horiz-adv-x="1105" 
d="M655 0l77.999 369c-61.333 -48 -139.666 -72 -234.999 -72c-120 0 -211.5 36.5 -274.5 109.5s-81.5 169.5 -55.5 289.5l61 287h205l-61 -287c-13.333 -60 -3 -110.833 31 -152.5s79.667 -62.5 137 -62.5c42 0 82.5 6.83301 121.5 20.5s67.5 27.5 85.5 41.5l26 20l90 420
h205l-209 -983h-205z" />
    <glyph glyph-name="uni0448" unicode="&#x448;" horiz-adv-x="1761" 
d="M455 983l-121.005 -573.005c-5.33301 -26 -8 -52.667 -8 -80c0 -54.667 14.333 -96 43 -124s68.667 -42 120 -42c64 0 122.333 25.5 175 76.5s88.667 121.167 108 210.5l113 532h205l-121 -573c-5.33301 -26 -8 -52.667 -8 -80c0 -54.667 14.333 -96 43 -124
s68.667 -42 120 -42c64 0 122.333 25.5 175 76.5s88.667 121.167 108 210.5l113 532h204l-208 -983h-205l22 102c-8 -9.33301 -19.167 -20.833 -33.5 -34.5s-44.666 -31.667 -90.999 -54s-94.166 -33.5 -143.499 -33.5c-39.333 0 -76.166 5.33301 -110.499 16
s-61.666 24.167 -81.999 40.5s-37.666 32.833 -51.999 49.5s-24.166 30.334 -29.499 41.001l-9 16c-4 -4 -9 -9.66699 -15 -17s-20.333 -20.666 -43 -39.999s-46.667 -36.166 -72 -50.499s-58 -27.166 -98 -38.499s-81.333 -17 -124 -17
c-96.667 0 -173.334 25.833 -230.001 77.5s-85 126.834 -85 225.501c0 40.667 4.66699 83 14 127l121 573h205z" />
    <glyph glyph-name="uni0449" unicode="&#x449;" horiz-adv-x="1802" 
d="M1065 -20c-39.333 0 -76.1689 5.32812 -110.502 15.9951s-61.666 24.167 -81.999 40.5s-37.666 32.833 -51.999 49.5s-24.166 30.334 -29.499 41.001l-9 16c-4 -4 -9 -9.66699 -15 -17s-20.333 -20.666 -43 -39.999s-46.667 -36.166 -72 -50.499s-58 -27.166 -98 -38.499
s-81.333 -17 -124 -17c-96.667 0 -173.334 25.833 -230.001 77.5s-85 126.834 -85 225.501c0 40.667 4.66699 83 14 127l121 573h205l-121 -573c-5.33301 -26 -8 -52.667 -8 -80c0 -54.667 14.333 -96 43 -124s68.667 -42 120 -42c64 0 122.333 25.5 175 76.5
s88.667 121.167 108 210.5l113 532h205l-121 -573c-5.33301 -26 -8 -52.667 -8 -80c0 -54.667 14.333 -96 43 -124s68.667 -42 120 -42c64 0 122.333 25.5 175 76.5s88.667 121.167 108 210.5l113 532h204l-161 -758c-1.33301 -5.33301 -2 -12.666 -2 -21.999
c0 -39.333 21 -59.333 63 -60h64l-82 -389h-205l53 246c-24.667 12 -43.5 29.333 -56.5 52s-20.167 42.334 -21.5 59.001v22c-2.66699 -4 -6.66699 -9.5 -12 -16.5s-18 -19.333 -38 -37s-40.833 -33.334 -62.5 -47.001s-50.667 -25.834 -87 -36.501s-73.5 -16 -111.5 -16z
" />
    <glyph glyph-name="uni044A" unicode="&#x44a;" horiz-adv-x="1116" 
d="M1012 387c0 -113.333 -40.333 -206.167 -121 -278.5s-181 -108.5 -301 -108.5h-447l168 799h-245l40 184h451l-65 -307h188c95.333 0 174.5 -28.333 237.5 -85s94.5 -124.667 94.5 -204zM385 173.999l221 -0.000976562c52 0 97.833 18.833 137.5 56.5
s59.5 83.167 59.5 136.5c0 36.667 -13.333 68.334 -40 95.001s-59.667 40 -99 40h-209z" />
    <glyph glyph-name="uni044B" unicode="&#x44b;" horiz-adv-x="1423" 
d="M283 174l221 -0.000976562c52 0 97.667 18.833 137 56.5s59 83.167 59 136.5c0 36.667 -13.167 68.334 -39.5 95.001s-59.5 40 -99.5 40h-209zM1386 982.999l-208 -983h-205l209 983h204zM487 -0.000976562l-446 -0.000976562l209 983h205l-66 -307h189
c95.333 0 174.333 -28.333 237 -85s94 -124.667 94 -204c0 -113.333 -40.333 -206.166 -121 -278.499s-181 -108.5 -301 -108.5z" />
    <glyph glyph-name="uni044C" unicode="&#x44c;" horiz-adv-x="1024" 
d="M283 174l231 -0.000976562c52 0 97.833 18.833 137.5 56.5s59.5 83.167 59.5 136.5c0 36.667 -13.333 68.334 -40 95.001s-60 40 -100 40h-219zM498 -0.000976562l-457 -0.000976562l209 983h205l-66 -307h199c95.333 0 174.5 -28.333 237.5 -85s94.5 -124.667 94.5 -204
c0 -113.333 -40.333 -206.166 -121 -278.499s-181 -108.5 -301 -108.5z" />
    <glyph glyph-name="uni044D" unicode="&#x44d;" horiz-adv-x="1064" 
d="M410 164c80.667 0 152.665 23.498 215.998 70.498s108 108.833 134 185.5h-457l37 174h442c-8 60 -31.5 112.5 -70.5 157.5s-99.5 67.5 -181.5 67.5c-52 0 -101.5 -12.333 -148.5 -37s-81.167 -49 -102.5 -73l-31 -35l-109 135c4 5.33301 10.167 12.5 18.5 21.5
s26.5 24.333 54.5 46s57 41.167 87 58.5s68.167 33.166 114.5 47.499s93.5 21.5 141.5 21.5c120 0 223.333 -44.167 310 -132.5s130 -190.5 130 -306.5c0 -157.333 -62 -294.166 -186 -410.499s-264 -174.5 -420 -174.5c-48 0 -94.167 7.16699 -138.5 21.5
s-81.166 31.333 -110.499 51s-55.166 39.334 -77.499 59.001s-39.166 37.167 -50.499 52.5l-14 20l154 127c6.66699 -10.667 16.167 -24.167 28.5 -40.5s40.666 -38.166 84.999 -65.499s92.5 -41 144.5 -41z" />
    <glyph glyph-name="uni044E" unicode="&#x44e;" horiz-adv-x="1638" 
d="M987 -20c-124 0 -230.332 41.833 -318.999 125.5s-138 185.167 -148 304.5h-188l-86 -410h-205l209 983h205l-84 -389h172c38 116 111 213.333 219 292s222.667 118 344 118c131.333 0 241.666 -45.167 330.999 -135.5s134 -198.833 134 -325.5
c0 -148.667 -60.5 -279.667 -181.5 -393s-255.167 -170 -402.5 -170zM1087 821c-91.333 0 -173.833 -38.833 -247.5 -116.5s-110.5 -163.834 -110.5 -258.501c0 -80.667 26.333 -148.167 79 -202.5s118.667 -81.5 198 -81.5c91.333 0 173.833 38.833 247.5 116.5
s110.5 163.834 110.5 258.501c0 80.667 -26.333 148.167 -79 202.5s-118.667 81.5 -198 81.5z" />
    <glyph glyph-name="uni044F" unicode="&#x44f;" horiz-adv-x="1064" 
d="M557 983h470.999l-209 -983h-205l64 307h-209l-256 -307h-233l286 338l-15 10c-6 4 -16.833 13.167 -32.5 27.5s-29.667 30.5 -42 48.5s-23.666 41.667 -33.999 71s-15.5 60.333 -15.5 93c0 116 40.333 210.833 121 284.5s183.667 110.5 309 110.5zM783.999 809h-252
c-52 0 -97.667 -18.833 -137 -56.5s-59 -83.167 -59 -136.5c0 -38 12.333 -70 37 -96s56.667 -39 96 -39h246z" />
    <glyph glyph-name="uni0451" unicode="&#x451;" horiz-adv-x="1146" 
d="M1040 420l-770.002 0.000976562c2.66699 -70.667 28.334 -131 77.001 -181s110.334 -75 185.001 -75c57.333 0 112.666 13 165.999 39s92.333 52.667 117 80l37 39l109 -138c-4 -5.33301 -10.5 -12.833 -19.5 -22.5s-28.167 -26 -57.5 -49s-60.166 -43.333 -92.499 -61
s-73.333 -34 -123 -49s-100.5 -22.5 -152.5 -22.5c-120 0 -223.667 43.667 -311 131s-131 190.333 -131 309c0 160 58.667 297.333 176 412s255.333 172 414 172c120 0 220.167 -35.167 300.5 -105.5s120.5 -159.5 120.5 -267.5c0 -66.667 -13.667 -134.334 -41 -203.001z
M650.998 829.001c-70.667 0 -137.832 -22.167 -201.499 -66.5s-111.167 -100.5 -142.5 -168.5h580c2.66699 68 -16.833 124.167 -58.5 168.5s-100.834 66.5 -177.501 66.5zM645 1309c0 -36.667 -13.333 -69.499 -40 -98.499s-59 -43.5 -97 -43.5c-34 0 -61.667 10 -83 30
s-32 45 -32 75c0 39.333 13.667 72.666 41 99.999s59.333 41 96 41c35.333 0 63.333 -9.83301 84 -29.5s31 -44.5 31 -74.5zM1075 1309c0 -36.667 -13.3311 -69.499 -39.998 -98.499s-59 -43.5 -97 -43.5c-34 0 -61.667 10 -83 30s-32 45 -32 75
c0 39.333 13.667 72.666 41 99.999s59.666 41 96.999 41c35.333 0 63.166 -9.83301 83.499 -29.5s30.5 -44.5 30.5 -74.5z" />
    <glyph glyph-name="uni0452" unicode="&#x452;" horiz-adv-x="1198" 
d="M756 963c102.667 0 187.334 -34.166 254.001 -102.499s100 -156.5 100 -264.5c0 -180 -59.667 -327.667 -179 -443s-261 -173 -425 -173l39 184c90 0 171.5 37.167 244.5 111.5s109.5 170.166 109.5 287.499c0 65.333 -18.833 117.5 -56.5 156.5
s-87.834 58.5 -150.501 58.5c-78 0 -144.5 -24.833 -199.5 -74.5s-92.167 -120.167 -111.5 -211.5l-105 -492h-204l229 1085h-174l39 185h174l35 164h205l-35 -164h256l-39 -185h-256l-51 -245l13 13c6 6 19 15.833 39 29.5s40.833 26 62.5 37s49.667 21 84 30
s68.5 13.5 102.5 13.5z" />
    </font>
</defs>
</svg>
