<?xml version="1.0" standalone="no"?>
<!DOCTYPE svg PUBLIC "-//W3C//DTD SVG 1.1//EN" "http://www.w3.org/Graphics/SVG/1.1/DTD/svg11.dtd" >
<svg xmlns="http://www.w3.org/2000/svg" xmlns:xlink="http://www.w3.org/1999/xlink" version="1.1">
<metadata>
Created by FontForge 20190801 at Tue May 30 06:12:40 2017
 By Jimmy Wärting
Copyright (c) 2017 by TypeType. Designers Ivan Gladkikh, Pavel Emelyanov. Technical designers Olexa Volochay, Nadyr Rakhimov, Dmitriy Greshnev. All rights reserved.
</metadata>
<defs>
<font id="TTNorms-Thin" horiz-adv-x="1208" >
  <font-face 
    font-family="TT Norms Thin"
    font-weight="100"
    font-stretch="normal"
    units-per-em="2048"
    panose-1="2 0 5 3 2 0 0 2 0 3"
    ascent="1638"
    descent="-410"
    x-height="983"
    cap-height="1434"
    bbox="-236 -451.004 2945.01 1966"
    underline-thickness="0"
    underline-position="0"
    unicode-range="U+000D-FB06"
  />
<missing-glyph horiz-adv-x="0" 
 />
    <glyph glyph-name="ij" unicode="ij" horiz-adv-x="921" 
d="M666 -184l-0.000976562 225.003c-48 -40.667 -106 -61 -174 -61c-83.333 0 -153.666 30 -210.999 90s-86 135.667 -86 227v686h41v-686c0 -80.667 24.5 -147 73.5 -199s109.833 -78 182.5 -78c30 0 59.667 6.16699 89 18.5s50.666 24.166 63.999 35.499l21 18v891h41
v-1167c0 -76.667 -20.833 -136.834 -62.5 -180.501s-96.167 -65.5 -163.5 -65.5c-22 0 -43.167 2.66699 -63.5 8s-35.166 10.666 -44.499 15.999l-15 7v41c34 -20.667 75 -31 123 -31c57.333 0 102.5 17.833 135.5 53.5s49.5 86.167 49.5 151.5zM255.999 1351.5
c0 -11 -4.5 -20.5 -13.5 -28.5s-18.167 -12 -27.5 -12s-18.5 4 -27.5 12s-13.5 17.5 -13.5 28.5s4.5 20.667 13.5 29s18.167 12.5 27.5 12.5s18.5 -4.16699 27.5 -12.5s13.5 -18 13.5 -29zM644.999 1351.5c0 11 4.5 20.667 13.5 29s18.167 12.5 27.5 12.5
s18.5 -4.16699 27.5 -12.5s13.5 -18 13.5 -29s-4.5 -20.5 -13.5 -28.5s-18.167 -12 -27.5 -12s-18.5 4 -27.5 12s-13.5 17.5 -13.5 28.5z" />
    <glyph glyph-name="uniFB00" unicode="ff" horiz-adv-x="1126" 
d="M1055 983l0.000976562 -41.0039h-246v-942h-41v942h-492v-942h-40v942h-164v41h164v184c0 76.667 20.667 136.834 62 180.501s95.666 65.5 162.999 65.5c22 0 43.167 -2.66699 63.5 -8s35.166 -10.666 44.499 -15.999l15 -7v-41c-34 20.667 -75 31 -123 31
c-57.333 0 -102.5 -17.667 -135.5 -53s-49.5 -86 -49.5 -152v-184h492v225c0 76.667 20.833 136.834 62.5 180.501s95.834 65.5 162.501 65.5c22 0 43.167 -2.66699 63.5 -8s35.5 -10.666 45.5 -15.999l14 -7v-41c-34 20.667 -75 31 -123 31
c-57.333 0 -102.333 -17.667 -135 -53s-49 -86 -49 -152v-225h246z" />
    <glyph glyph-name="uniFB01" unicode="fi" horiz-adv-x="1024" 
d="M768 0l0.00195312 941.998h-492v-942h-40v942h-164v41h164v225c0 76.667 20.667 136.834 62 180.501s95.666 65.5 162.999 65.5c22 0 43.167 -2.66699 63.5 -8s35.166 -10.666 44.499 -15.999l15 -7v-41c-34 20.667 -75 31 -123 31c-57.333 0 -102.5 -17.667 -135.5 -53
s-49.5 -86 -49.5 -152v-225h533v-983h-41zM829.002 1351.5c0 -11 -4.33301 -20.5 -13 -28.5s-17.834 -12 -27.501 -12s-18.834 4 -27.501 12s-13 17.5 -13 28.5s4.33301 20.667 13 29s17.834 12.5 27.501 12.5s18.834 -4.16699 27.501 -12.5s13 -18 13 -29z" />
    <glyph glyph-name="uniFB02" unicode="fl" horiz-adv-x="1044" 
d="M788 0l-0.000976562 1137c0 80.667 -24.5 146.834 -73.5 198.501s-109.667 77.5 -182 77.5s-133.166 -26 -182.499 -78s-74 -118 -74 -198v-154h246v-41h-246v-942h-40v942h-164v41h164v154c0 91.333 28.667 167 86 227s127.5 90 210.5 90s153.167 -30 210.5 -90
s86 -135.667 86 -227v-1137h-41z" />
    <glyph glyph-name="uniFB03" unicode="ffi" horiz-adv-x="1556" 
d="M1300 0l0.000976562 941.996h-491v-942h-41v942h-492v-942h-40v942h-164v41h164v184c0 76.667 20.667 136.834 62 180.501s95.666 65.5 162.999 65.5c22 0 43.167 -2.66699 63.5 -8s35.166 -10.666 44.499 -15.999l15 -7v-41c-34 20.667 -75 31 -123 31
c-57.333 0 -102.5 -17.667 -135.5 -53s-49.5 -86 -49.5 -152v-184h492v225c0 76.667 20.833 136.834 62.5 180.501s95.834 65.5 162.501 65.5c22 0 43.167 -2.66699 63.5 -8s35.5 -10.666 45.5 -15.999l14 -7v-41c-34 20.667 -75 31 -123 31
c-57.333 0 -102.333 -17.667 -135 -53s-49 -86 -49 -152v-225h532v-983h-41zM1362 1351.5c0 -11 -4.5 -20.5 -13.5 -28.5s-18.167 -12 -27.5 -12s-18.5 4 -27.5 12s-13.5 17.5 -13.5 28.5s4.5 20.667 13.5 29s18.167 12.5 27.5 12.5s18.5 -4.16699 27.5 -12.5
s13.5 -18 13.5 -29z" />
    <glyph glyph-name="uniFB06" unicode="st" horiz-adv-x="1546" 
d="M1126 983l0.00292969 153.996c0 82 -25.5 148.5 -76.5 199.5s-117.5 76.5 -199.5 76.5s-148.667 -25.5 -200 -76.5s-77 -117.5 -77 -199.5c0 -36.667 8 -72.167 24 -106.5s28.667 -56.666 38 -66.999s26.333 -27.833 51 -52.5l51 -51l-30 -31
c-8 9.33301 -19.333 21.666 -34 36.999s-45.834 35.333 -93.501 60s-97.5 37 -149.5 37c-75.333 0 -136.833 -21.167 -184.5 -63.5s-71.5 -92.833 -71.5 -151.5c0 -50.667 20.167 -91.667 60.5 -123s89.166 -55.666 146.499 -72.999s114.333 -35.166 171 -53.499
s105.167 -46.666 145.5 -84.999s60.5 -87.5 60.5 -147.5c0 -79.333 -31.5 -146.833 -94.5 -202.5s-144.167 -83.5 -243.5 -83.5c-39.333 0 -77.833 5.33301 -115.5 16s-68.834 24.167 -93.501 40.5s-46.167 32.833 -64.5 49.5s-31.833 30.334 -40.5 41.001l-14 16l31 31
c2.66699 -4 6.66699 -9.5 12 -16.5s17.333 -19.333 36 -37s38.5 -33.334 59.5 -47.001s48.667 -26 83 -37s69.833 -16.5 106.5 -16.5c90 0 162 24 216 72s81 106 81 174c0 52 -20.167 94.667 -60.5 128s-88.833 58.666 -145.5 75.999s-113.667 34.833 -171 52.5
s-106.166 44.834 -146.499 81.501s-60.5 84.667 -60.5 144c0 68 28.333 127.667 85 179s127.334 77 212.001 77c24.667 0 49 -2.83301 73 -8.5s42 -11.167 54 -16.5l16 -6c-27.333 40.667 -41 95.334 -41 164.001c0 91.333 30.167 167 90.5 227s136.166 90 227.499 90
s167 -30 227 -90s90 -135.667 90 -227v-154h226v-41h-226v-717c0 -65.333 16.5 -115.833 49.5 -151.5s78.167 -53.5 135.5 -53.5c22 0 43.167 2.83301 63.5 8.5s35.166 11.167 44.499 16.5l15 6v-41c-34 -20.667 -75 -30.667 -123 -30c-66.667 0 -121 21.833 -163 65.5
s-63 103.5 -63 179.5v717h-204v41h204z" />
    <glyph glyph-name="c_t.liga" unicode="ct" horiz-adv-x="1689" 
d="M1311 983l224.999 -0.00195312v-41h-225v-717c0 -65.333 16.333 -115.833 49 -151.5s77.667 -53.5 135 -53.5c22 0 43.167 2.83301 63.5 8.5s35.5 11.167 45.5 16.5l14 6v-41c-34 -20.667 -75 -30.667 -123 -30c-66.667 0 -120.834 21.833 -162.501 65.5
s-62.5 103.5 -62.5 179.5v717h-205v41h205v154c0 82 -25 148.5 -75 199.5s-113.833 76.5 -191.5 76.5s-141.5 -25.5 -191.5 -76.5s-75 -117.5 -75 -199.5c0 -95.333 27.333 -163.666 82 -204.999c22 -15.333 44 -34.166 66 -56.499s38.333 -41.166 49 -56.499l18 -20
l-30 -21c-2.66699 5.33301 -7.16699 12.166 -13.5 20.499s-20 23 -41 44s-43.5 39.833 -67.5 56.5s-55.5 31.5 -94.5 44.5s-79.5 19.5 -121.5 19.5c-114.667 0 -215 -45.833 -301 -137.5s-129 -203 -129 -334s43 -242.333 129 -334s186.333 -137.5 301 -137.5
c66.667 0 128 15.5 184 46.5s95.667 62.167 119 93.5l35 45l30 -21c-2.66699 -5.33301 -7.33398 -12.833 -14.001 -22.5s-21.667 -26 -45 -49s-48 -43.333 -74 -61s-60.167 -34 -102.5 -49s-86.5 -22.5 -132.5 -22.5c-125.333 0 -235.166 50.167 -329.499 150.5
s-141.5 220.666 -141.5 360.999s47 260.833 141 361.5s204 151 330 151c24.667 0 49.5 -2.83301 74.5 -8.5s44.5 -11.167 58.5 -16.5l20 -6c-27.333 40.667 -41 95.334 -41 164.001c0 91.333 29.333 167 88 227s131.834 90 219.501 90s160.834 -30 219.501 -90
s88 -135.667 88 -227v-154z" />
    <glyph glyph-name="s_p.liga" unicode="sp" horiz-adv-x="2099" 
d="M819 1454c78 0 145.334 -30.3398 202.001 -91.0068s85 -136 85 -226v-441c5.33301 12 11.5 25 18.5 39s23 38.667 48 74s51.5 66 79.5 92s66 49.667 114 71s98 32 150 32c116 0 220 -50.667 312 -152s138 -221.5 138 -360.5s-46 -259 -138 -360s-196 -151.5 -312 -151.5
c-52 0 -102 10.5 -150 31.5s-86.333 44.5 -115 70.5s-55.167 56.333 -79.5 91s-40 58.834 -47 72.501s-13.167 26.834 -18.5 39.501v-715h-41v1567c0 80.667 -23.833 146.834 -71.5 198.501s-105.667 77.5 -174 77.5s-126.5 -26 -174.5 -78s-72 -118 -72 -198
c0 -36.667 8 -72.167 24 -106.5s28.667 -56.666 38 -66.999s26.333 -27.833 51 -52.5l51 -51l-30 -31c-8 9.33301 -19.333 21.666 -34 36.999s-45.834 35.333 -93.501 60s-97.5 37 -149.5 37c-75.333 0 -136.833 -21.167 -184.5 -63.5s-71.5 -92.833 -71.5 -151.5
c0 -50.667 20.167 -91.667 60.5 -123s89.166 -55.666 146.499 -72.999s114.333 -35.166 171 -53.499s105.167 -46.666 145.5 -84.999s60.5 -87.5 60.5 -147.5c0 -79.333 -31.5 -146.833 -94.5 -202.5s-144.167 -83.5 -243.5 -83.5c-39.333 0 -77.833 5.33301 -115.5 16
s-68.834 24.167 -93.501 40.5s-46.167 32.833 -64.5 49.5s-31.833 30.334 -40.5 41.001l-14 16l31 31c2.66699 -4 6.66699 -9.5 12 -16.5s17.333 -19.333 36 -37s38.5 -33.334 59.5 -47.001s48.667 -26 83 -37s69.833 -16.5 106.5 -16.5c90 0 162 24 216 72s81 106 81 174
c0 52 -20.167 94.667 -60.5 128s-88.833 58.666 -145.5 75.999s-113.667 34.833 -171 52.5s-106.166 44.834 -146.499 81.501s-60.5 84.667 -60.5 144c0 68 28.333 127.667 85 179s127.334 77 212.001 77c24.667 0 49 -2.83301 73 -8.5s42 -11.167 54 -16.5l16 -6
c-27.333 40.667 -41 95.334 -41 164.001c0 90 28.333 165.333 85 226s124 91 202 91zM1515.5 19.9932c105 0 199.5 46.167 283.5 138.5s126 203.333 126 333s-42 240.667 -126 333s-178.5 138.5 -283.5 138.5s-199.5 -46.167 -283.5 -138.5s-126 -203.333 -126 -333
s42 -240.667 126 -333s178.5 -138.5 283.5 -138.5z" />
    <glyph glyph-name="f_t.liga" unicode="ft" 
d="M788 1044l0.00292969 266.998h41v-328h226v-41h-226v-717c0 -65.333 16.5 -115.833 49.5 -151.5s78.167 -53.5 135.5 -53.5c22 0 43.167 2.83301 63.5 8.5s35.166 11.167 44.499 16.5l15 6v-41c-34 -20.667 -75 -30.667 -123 -30c-66.667 0 -121 21.833 -163 65.5
s-63 103.5 -63 179.5v717h-512v-942h-40v942h-164v41h164v225c0 76.667 20.667 136.834 62 180.501s95.666 65.5 162.999 65.5c22 0 43.167 -2.66699 63.5 -8s35.166 -10.666 44.499 -15.999l15 -7v-41c-34 20.667 -75 31 -123 31c-57.333 0 -102.5 -17.667 -135.5 -53
s-49.5 -86 -49.5 -152v-225h451c40.667 0 61 20.333 61 61z" />
    <glyph glyph-name=".notdef" horiz-adv-x="0" 
 />
    <glyph glyph-name="glyph1" horiz-adv-x="0" 
 />
    <glyph glyph-name="glyph1" horiz-adv-x="0" 
 />
    <glyph glyph-name="uni000D" unicode="&#xd;" horiz-adv-x="0" 
 />
    <glyph glyph-name="space" unicode=" " horiz-adv-x="368" 
 />
    <glyph glyph-name="exclam" unicode="!" horiz-adv-x="573" 
d="M307 297h-41v1137h41v-1137zM328 41c0 -10.667 -4.16699 -20.167 -12.5 -28.5s-18 -12.5 -29 -12.5s-20.5 4.16699 -28.5 12.5s-12 17.833 -12 28.5s4 20.167 12 28.5s17.5 12.5 28.5 12.5s20.667 -4.16699 29 -12.5s12.5 -17.833 12.5 -28.5z" />
    <glyph glyph-name="quotedbl" unicode="&#x22;" horiz-adv-x="655" 
d="M205 1434v-430h-41v430h41zM492 1434v-430h-41v430h41z" />
    <glyph glyph-name="numbersign" unicode="#" horiz-adv-x="1433" 
d="M870 0h-41l93 471h-512l-93 -471h-41l93 471h-308l11 41h307l82 410h-318l11 41h317l92 471h41l-92 -471h512l92 471h41l-92 -471h307l-10 -41h-307l-82 -410h317l-10 -41h-317zM502 922l-82 -410h512l82 410h-512z" />
    <glyph glyph-name="dollar" unicode="$" horiz-adv-x="1116" 
d="M532 -225v205c-56 0 -108.833 7.16699 -158.5 21.5s-90.167 31.333 -121.5 51s-59 39.334 -83 59.001s-40.667 37.167 -50 52.5l-17 20l31 31c2.66699 -5.33301 7.5 -12.5 14.5 -21.5s22.333 -24.333 46 -46s49.834 -41.167 78.501 -58.5s66.334 -33.166 113.001 -47.499
s95.667 -21.5 147 -21.5c124 0 225 34.167 303 102.5s117 150.5 117 246.5c0 61.333 -15 113.5 -45 156.5s-69.167 76.833 -117.5 101.5s-101.5 46.167 -159.5 64.5s-116 37.333 -174 57s-111.333 42.167 -160 67.5s-88 60.5 -118 105.5s-45 99.5 -45 163.5
c0 100 38.667 185.167 116 255.5s178.666 108.166 303.999 113.499v205h41v-205c72.667 -2.66699 140.667 -18.667 204 -48s108.666 -57.666 135.999 -84.999l39 -41l-31 -31c-4 4 -9.5 9.83301 -16.5 17.5s-22.333 21 -46 40s-48.5 35.667 -74.5 50
s-60.167 27.333 -102.5 39s-85.5 17.5 -129.5 17.5c-118.667 0 -214.834 -32 -288.501 -96s-110.5 -141.333 -110.5 -232c0 -57.333 15 -106.833 45 -148.5s69.333 -74 118 -97s102 -43.333 160 -61s116 -36.834 174 -57.501s111.167 -44 159.5 -70
s87.5 -62.833 117.5 -110.5s45 -104.834 45 -171.501c0 -104 -38.167 -192.5 -114.5 -265.5s-178.166 -114.167 -305.499 -123.5v-205h-41z" />
    <glyph glyph-name="percent" unicode="%" horiz-adv-x="1556" 
d="M307 0l901 1434h41l-901 -1434h-41zM1413 297c0 80.667 -24.5 146.834 -73.5 198.501s-109.667 77.5 -182 77.5s-133.166 -25.833 -182.499 -77.5s-74 -117.834 -74 -198.501s24.667 -147 74 -199s110.166 -78 182.499 -78s133 26 182 78s73.5 118.333 73.5 199z
M1454 297c0 -91.333 -28.667 -167 -86 -227s-127.666 -90 -210.999 -90s-153.666 30 -210.999 90s-86 135.667 -86 227s28.667 167 86 227s127.666 90 210.999 90s153.666 -30 210.999 -90s86 -135.667 86 -227zM655 1136.5c0 80.333 -24.5 146.5 -73.5 198.5
s-109.667 78 -182 78s-133.166 -26 -182.499 -78s-74 -118.167 -74 -198.5s24.667 -146.5 74 -198.5s110.166 -78 182.499 -78s133 26 182 78s73.5 118.167 73.5 198.5zM696 1136.5c0 -91.667 -28.667 -167.5 -86 -227.5s-127.666 -90 -210.999 -90s-153.666 30 -210.999 90
s-86 135.833 -86 227.5s28.667 167.5 86 227.5s127.666 90 210.999 90s153.666 -30 210.999 -90s86 -135.833 86 -227.5z" />
    <glyph glyph-name="ampersand" unicode="&#x26;" horiz-adv-x="1239" 
d="M799 1147c0 -42 -10.667 -85.0029 -32 -129.003s-47 -82 -77 -114s-60 -61 -90 -87s-55.333 -45.667 -76 -59l-32 -21l419 -501c9.33301 13.333 21 32.333 35 57s32.167 76.834 54.5 156.501s33.5 161.834 33.5 246.501h41c0 -91.333 -11.833 -178 -35.5 -260
s-47.834 -141.333 -72.501 -178l-35 -53c9.33301 -12 21.5 -27.333 36.5 -46s42.667 -43 83 -73s75.5 -45 105.5 -45c9.33301 0 19.166 1 29.499 3s18.333 3.66699 24 5s8.5 2.66602 8.5 3.99902v-43c-19.333 -6.66699 -40 -10 -62 -10c-23.333 0 -47.5 6.16699 -72.5 18.5
s-47.5 26.666 -67.5 42.999s-38.167 33 -54.5 50s-28.5 31.833 -36.5 44.5l-15 18c-2.66699 -5.33301 -7.33398 -12.5 -14.001 -21.5s-22 -24.333 -46 -46s-49.667 -41 -77 -58s-63.833 -32.667 -109.5 -47s-93.167 -21.5 -142.5 -21.5c-106.667 0 -196.5 34.333 -269.5 103
s-109.5 150.334 -109.5 245.001c0 46.667 10.333 92.334 31 137.001s45.334 82.834 74.001 114.501s57.667 59.667 87 84s54.333 42.833 75 55.5l30 18c-6.66699 5.33301 -15.167 13.5 -25.5 24.5s-29.166 33 -56.499 66s-51.166 65.167 -71.499 96.5s-39 67.833 -56 109.5
s-25.5 79.5 -25.5 113.5c0 86 29 158.667 87 218s128 89 210 89s152 -29.667 210 -89s87 -132 87 -218zM891 204.997l-430.001 511.999c-6.66699 -4 -16.5 -10.167 -29.5 -18.5s-35.333 -26.166 -67 -53.499s-59.667 -55.333 -84 -84s-46.5 -64.167 -66.5 -106.5
s-30 -84.5 -30 -126.5c0 -83.333 32.5 -155.5 97.5 -216.5s145.167 -91.5 240.5 -91.5c46.667 0 90.834 6.5 132.501 19.5s76.5 28.5 104.5 46.5s52.167 35.833 72.5 53.5s35.5 32.5 45.5 44.5zM245.999 1147c0 -49.333 18.667 -106.335 56 -171.002
s74.666 -117 111.999 -157l57 -61c8 5.33301 18.5 12.5 31.5 21.5s36 27.833 69 56.5s62 57.334 87 86.001s47.833 63.834 68.5 105.501s31 81.5 31 119.5c0 76.667 -24.667 140.167 -74 190.5s-110.166 75.5 -182.499 75.5s-133 -25.167 -182 -75.5
s-73.5 -113.833 -73.5 -190.5z" />
    <glyph glyph-name="quotesingle" unicode="'" horiz-adv-x="368" 
d="M205 1434v-430h-41v430h41z" />
    <glyph glyph-name="parenleft" unicode="(" horiz-adv-x="665" 
d="M205 512c0 -106.667 12.3311 -212.172 36.998 -316.505s54.667 -192.333 90 -264s70.333 -136.167 105 -193.5s64.334 -99.666 89.001 -126.999l37 -41l-31 -21c-9.33301 10.667 -22.5 26 -39.5 46s-46.667 62.5 -89 127.5s-79.5 132.667 -111.5 203s-61.333 159 -88 266
s-40 213.833 -40 320.5s12.667 212.834 38 318.501s56 195.334 92 269.001s72.167 140.334 108.5 200.001s67.5 103.834 93.5 132.501l36 43l31 -21c-9.33301 -9.33301 -22.166 -23.666 -38.499 -42.999s-45 -60.333 -86 -123s-77.167 -128.167 -108.5 -196.5
s-60 -155.333 -86 -261s-39 -211.834 -39 -318.501z" />
    <glyph glyph-name="parenright" unicode=")" horiz-adv-x="665" 
d="M461 512c0 106.667 -12.3291 212.172 -36.9961 316.505s-54.334 192.333 -89.001 264s-69.834 136.167 -105.501 193.5s-65.834 99.666 -90.501 126.999l-37 41l31 21c9.33301 -10.667 22.666 -26 39.999 -46s47.166 -62.5 89.499 -127.5s79.5 -132.667 111.5 -203
s61.333 -159 88 -266s40 -213.833 40 -320.5s-12.667 -212.834 -38 -318.501s-56.166 -195.334 -92.499 -269.001s-72.5 -140.334 -108.5 -200.001s-66.333 -103.834 -91 -132.501l-39 -43l-31 21c9.33301 9.33301 22.333 23.666 39 42.999s45.5 60.333 86.5 123
s77.167 128.167 108.5 196.5s60 155.333 86 261s39 211.834 39 318.501z" />
    <glyph glyph-name="asterisk" unicode="*" horiz-adv-x="798" 
d="M102 1188l11 41l266 -82v287h41v-287l266 82l10 -41l-266 -82l174 -236l-31 -30l-174 235l-174 -235l-30 30l174 236z" />
    <glyph glyph-name="plus" unicode="+" horiz-adv-x="1024" 
d="M492 1024h40v-399h390v-41h-390v-400h-40v400h-390v41h390v399z" />
    <glyph glyph-name="comma" unicode="," horiz-adv-x="358" 
d="M164 82l51 -31l-195 -297l-20 10z" />
    <glyph glyph-name="hyphen" unicode="-" horiz-adv-x="860" 
d="M758 625v-41h-656v41h656z" />
    <glyph glyph-name="period" unicode="." horiz-adv-x="368" 
d="M143 41c0 10.667 4.16699 20.167 12.5 28.5s18 12.5 29 12.5s20.5 -4.16699 28.5 -12.5s12 -17.833 12 -28.5s-4 -20.167 -12 -28.5s-17.5 -12.5 -28.5 -12.5s-20.667 4.16699 -29 12.5s-12.5 17.833 -12.5 28.5z" />
    <glyph glyph-name="slash" unicode="/" horiz-adv-x="839" 
d="M758 1454l-635 -1884h-41l635 1884h41z" />
    <glyph glyph-name="zero" unicode="0" horiz-adv-x="1351" 
d="M1167 716.5c0 211.667 -48 380.667 -144 507s-211.667 189.5 -347 189.5s-251.166 -63.167 -347.499 -189.5s-144.5 -295.333 -144.5 -507s48.167 -380.667 144.5 -507s212.166 -189.5 347.499 -189.5s251 63.167 347 189.5s144 295.333 144 507zM1208 717
c0 -221.333 -52.5 -399.5 -157.5 -534.5s-229.833 -202.5 -374.5 -202.5s-269.667 67.5 -375 202.5s-158 313.167 -158 534.5s52.667 399.5 158 534.5s230.333 202.5 375 202.5s269.5 -67.5 374.5 -202.5s157.5 -313.167 157.5 -534.5z" />
    <glyph glyph-name="one" unicode="1" horiz-adv-x="665" 
d="M389 1434h31v-1434h-41v1341c-1.33301 -4 -4 -9 -8 -15s-14 -17.833 -30 -35.5s-33.5 -33.667 -52.5 -48s-45.167 -29 -78.5 -44s-69.333 -25.5 -108 -31.5v41c60 5.33301 114 26.833 162 64.5s80.667 73.5 98 107.5z" />
    <glyph glyph-name="two" unicode="2" horiz-adv-x="1095" 
d="M973 0l-871.002 -0.000976562c0 69.333 15.5 134.5 46.5 195.5s70.667 114.333 119 160s101.833 90 160.5 133s117.667 85 177 126s113.333 83 162 126s88.334 92.5 119.001 148.5s46 114.667 46 176c0 94 -37.833 175.5 -113.5 244.5s-171.167 103.5 -286.5 103.5
c-58.667 0 -111.5 -9.5 -158.5 -28.5s-83.167 -42.167 -108.5 -69.5s-46.166 -54.333 -62.499 -81s-26.5 -49.667 -30.5 -69l-8 -28l-41 10c1.33301 8 4 18.833 8 32.5s16 38.334 36 74.001s43.667 67.167 71 94.5s66.833 51.833 118.5 73.5s110.167 32.5 175.5 32.5
c125.333 0 230.166 -38.5 314.499 -115.5s126.5 -168.167 126.5 -273.5c0 -75.333 -19.5 -145.666 -58.5 -210.999s-87.5 -120.5 -145.5 -165.5s-121.833 -92.5 -191.5 -142.5s-135.167 -97.167 -196.5 -141.5s-114.166 -98.333 -158.499 -162
s-70.833 -130.834 -79.5 -201.501h830v-41z" />
    <glyph glyph-name="three" unicode="3" horiz-adv-x="1085" 
d="M614 758c9.33301 -1.33301 21.335 -4.17676 36.002 -8.50977s40.667 -15.666 78 -33.999s70.333 -40.166 99 -65.499s55 -62.166 79 -110.499s36 -101.833 36 -160.5c0 -110.667 -42.333 -204.834 -127 -282.501s-192.334 -116.5 -323.001 -116.5
c-52 0 -101.667 7.16699 -149 21.5s-86 31.333 -116 51s-56.5 39.334 -79.5 59.001s-39.5 37.167 -49.5 52.5l-16 20l31 31c2.66699 -5.33301 7.33398 -12.5 14.001 -21.5s21.667 -24.333 45 -46s48.666 -41.167 75.999 -58.5s62.833 -33.166 106.5 -47.499
s89.5 -21.5 137.5 -21.5c120 0 218.167 34.833 294.5 104.5s114.5 154.334 114.5 254.001s-38.167 184.334 -114.5 254.001s-174.5 104.5 -294.5 104.5h-123v41h123c110.667 0 199.667 30.833 267 92.5s101 136.834 101 225.501s-33.833 163.667 -101.5 225
s-156.5 92 -266.5 92c-42 0 -82.667 -5.5 -122 -16.5s-72.333 -24.667 -99 -41s-49.834 -32.666 -69.501 -48.999s-34.167 -29.833 -43.5 -40.5l-15 -17l-30 31c4 4 9.33301 10.167 16 18.5s22 22.333 46 42s49.667 37.334 77 53.001s62.5 29.667 105.5 42
s87.833 18.5 134.5 18.5c120 0 218.167 -34.833 294.5 -104.5s114.5 -154.167 114.5 -253.5c0 -52 -9.83301 -99.167 -29.5 -141.5s-43.5 -75.166 -71.5 -98.499s-56 -42.833 -84 -58.5s-52.333 -26.167 -73 -31.5z" />
    <glyph glyph-name="four" unicode="4" horiz-adv-x="1105" 
d="M829 389h195v-41h-195v-348h-41v348h-747v51l747 1035h41v-1045zM788 389v983l-706 -983h706z" />
    <glyph glyph-name="five" unicode="5" horiz-adv-x="1177" 
d="M594 881c122.667 0 226.665 -43.333 311.998 -130s128 -193.667 128 -321c0 -128.667 -43.667 -235.834 -131 -321.501s-197.333 -128.5 -330 -128.5c-52 0 -101.5 7.16699 -148.5 21.5s-85.5 31.333 -115.5 51s-56.5 39.334 -79.5 59.001s-39.5 37.167 -49.5 52.5
l-16 20l31 31c2.66699 -5.33301 7.33398 -12.5 14.001 -21.5s21.667 -24.333 45 -46s48.666 -41.167 75.999 -58.5s62.833 -33.166 106.5 -47.499s89.167 -21.5 136.5 -21.5c122.667 0 223.334 38.667 302.001 116s118 175.333 118 294c0 117.333 -38.167 215 -114.5 293
s-171.166 117 -284.499 117c-44 0 -85.667 -6.83301 -125 -20.5s-71.333 -30.167 -96 -49.5s-46.167 -38.166 -64.5 -56.499s-31.833 -34.166 -40.5 -47.499l-12 -21h-41l51 789h676v-41h-635l-51 -697c2.66699 5.33301 6.66699 12.166 12 20.499s18.333 23.166 39 44.499
s43 40.166 67 56.499s55.667 31 95 44s81 19.5 125 19.5z" />
    <glyph glyph-name="six" unicode="6" horiz-adv-x="1146" 
d="M573 881c128.667 0 235.999 -43 321.999 -129s129 -193.167 129 -321.5s-43 -235.5 -129 -321.5s-193.167 -129 -321.5 -129s-235.5 43 -321.5 129s-129 193 -129 321c0 49.333 7.5 98.5 22.5 147.5s30.833 85.833 47.5 110.5l22 39l451 707h51l-430 -656
c8 8 19.167 17.5 33.5 28.5s46.333 26.167 96 45.5s101.834 29 156.501 29zM982.999 430c0 117.333 -38.833 215 -116.5 293s-175.334 117 -293.001 117s-215.334 -39 -293.001 -117s-116.5 -175.667 -116.5 -293s38.833 -215 116.5 -293s175.334 -117 293.001 -117
s215.334 39 293.001 117s116.5 175.667 116.5 293z" />
    <glyph glyph-name="seven" unicode="7" horiz-adv-x="931" 
d="M41 1434h850v-41l-676 -1393h-41l676 1393h-809v41z" />
    <glyph glyph-name="eight" unicode="8" horiz-adv-x="1167" 
d="M583.5 1413c-95.667 0 -175.834 -30.333 -240.501 -91s-97 -132.667 -97 -216s32.333 -155.333 97 -216s144.834 -91 240.501 -91s176 30.333 241 91s97.5 132.667 97.5 216s-32.5 155.333 -97.5 216s-145.333 91 -241 91zM583.5 -20
c-127 0 -232.166 39.502 -315.499 118.502s-125 175.833 -125 290.5c0 61.333 11.333 116.666 34 165.999s50 87.333 82 114s64 48.834 96 66.501s59.667 29.167 83 34.5l33 8c-6.66699 1.33301 -16.167 4.16602 -28.5 8.49902s-33.833 14.666 -64.5 30.999
s-57.667 35.666 -81 57.999s-44.5 54 -63.5 95s-28.5 86.167 -28.5 135.5c0 94 36.5 175.5 109.5 244.5s162.667 103.5 269 103.5s196.166 -34.5 269.499 -103.5s110 -150.5 110 -244.5c0 -49.333 -9.33301 -94.5 -28 -135.5s-41 -72.667 -67 -95s-51.833 -41.333 -77.5 -57
s-47.5 -26.5 -65.5 -32.5l-29 -8c9.33301 -1.33301 21.333 -4 36 -8s40.667 -15.5 78 -34.5s70.333 -41.5 99 -67.5s55 -63.667 79 -113s36 -104.666 36 -165.999c0 -114.667 -41.667 -211.5 -125 -290.5s-188.5 -118.5 -315.5 -118.5zM584.001 758.002
c-116 0 -211.667 -35.5 -287 -106.5s-113 -158.5 -113 -262.5s37.667 -191.5 113 -262.5s171 -106.5 287 -106.5s211.5 35.5 286.5 106.5s112.5 158.5 112.5 262.5s-37.5 191.5 -112.5 262.5s-170.5 106.5 -286.5 106.5z" />
    <glyph glyph-name="nine" unicode="9" horiz-adv-x="1146" 
d="M573 553c-128.667 0 -235.833 42.999 -321.5 128.999s-128.5 193.167 -128.5 321.5s43 235.5 129 321.5s193.167 129 321.5 129s235.5 -43 321.5 -129s129 -193 129 -321c0 -49.333 -7.5 -98.666 -22.5 -147.999s-30.833 -86.333 -47.5 -111l-22 -38l-451 -707h-51
l430 655c-8 -8 -19.167 -17.5 -33.5 -28.5s-46.5 -26 -96.5 -45s-102.333 -28.5 -157 -28.5zM164.001 1003.5c0 -117.667 38.833 -215.334 116.5 -293.001s175.334 -116.5 293.001 -116.5s215.334 38.833 293.001 116.5s116.5 175.334 116.5 293.001
s-38.833 215.334 -116.5 293.001s-175.334 116.5 -293.001 116.5s-215.334 -38.833 -293.001 -116.5s-116.5 -175.334 -116.5 -293.001z" />
    <glyph glyph-name="colon" unicode=":" horiz-adv-x="368" 
d="M143 41c0 10.667 4.16699 20.167 12.5 28.5s18 12.5 29 12.5s20.5 -4.16699 28.5 -12.5s12 -17.833 12 -28.5s-4 -20.167 -12 -28.5s-17.5 -12.5 -28.5 -12.5s-20.667 4.16699 -29 12.5s-12.5 17.833 -12.5 28.5zM143 942c0 10.667 4.16699 20.167 12.5 28.5
s18 12.5 29 12.5s20.5 -4.16699 28.5 -12.5s12 -17.833 12 -28.5s-4 -20.167 -12 -28.5s-17.5 -12.5 -28.5 -12.5s-20.667 4.16699 -29 12.5s-12.5 17.833 -12.5 28.5z" />
    <glyph glyph-name="semicolon" unicode=";" horiz-adv-x="368" 
d="M164 82l51 -31l-195 -297l-20 10zM143 942c0 10.667 4.16699 20.167 12.5 28.5s18 12.5 29 12.5s20.5 -4.16699 28.5 -12.5s12 -17.833 12 -28.5s-4 -20.167 -12 -28.5s-17.5 -12.5 -28.5 -12.5s-20.667 4.16699 -29 12.5s-12.5 17.833 -12.5 28.5z" />
    <glyph glyph-name="less" unicode="&#x3c;" horiz-adv-x="1003" 
d="M123 481v41l758 410v-41l-727 -389l727 -389v-41z" />
    <glyph glyph-name="equal" unicode="=" horiz-adv-x="1024" 
d="M901 451v-41h-778v41h778zM901 799v-41h-778v41h778z" />
    <glyph glyph-name="greater" unicode="&#x3e;" horiz-adv-x="1003" 
d="M881 522v-41l-758 -409v41l727 389l-727 389v41z" />
    <glyph glyph-name="question" unicode="?" horiz-adv-x="1034" 
d="M471 297l0.000976562 92.001c0 54.667 10.167 104.5 30.5 149.5s46.333 82.5 78 112.5s65.5 61.5 101.5 94.5s69.667 63.5 101 91.5s57.333 63.833 78 107.5s31 90.5 31 140.5c0 90 -35.5 167.167 -106.5 231.5s-161.833 96.5 -272.5 96.5
c-58.667 0 -111.5 -9.5 -158.5 -28.5s-83.167 -42.167 -108.5 -69.5s-46.166 -54.333 -62.499 -81s-26.5 -49.667 -30.5 -69l-9 -28l-41 10c1.33301 8 4.16602 18.833 8.49902 32.5s16.333 38.334 36 74.001s43.167 67.167 70.5 94.5s67 51.833 119 73.5
s110.667 32.5 176 32.5c120 0 220 -36.5 300 -109.5s120 -159.5 120 -259.5c0 -64 -14.333 -121.5 -43 -172.5s-63.834 -94.333 -105.501 -130s-83 -70.834 -124 -105.501s-75.833 -76.334 -104.5 -125.001s-43 -103 -43 -163v-92h-41zM451.001 41.001
c0 10.667 4 20.167 12 28.5s17.5 12.5 28.5 12.5s20.5 -4.16699 28.5 -12.5s12 -17.833 12 -28.5s-4 -20.167 -12 -28.5s-17.5 -12.5 -28.5 -12.5s-20.5 4.16699 -28.5 12.5s-12 17.833 -12 28.5z" />
    <glyph glyph-name="at" unicode="@" horiz-adv-x="1802" 
d="M880.5 840c-79 0 -146.5 -31.5 -202.5 -94.5s-84 -144.333 -84 -244s28 -180.834 84 -243.501s123.5 -94 202.5 -94s146.5 31.333 202.5 94s84 143.834 84 243.501s-28 181 -84 244s-123.5 94.5 -202.5 94.5zM881 881c60 0 113.833 -17.168 161.5 -51.501
s80.5 -68.5 98.5 -102.5l26 -51v194h41v-440c0 -87.333 17.167 -153.5 51.5 -198.5s78.833 -67.5 133.5 -67.5c62.667 0 115.834 32.333 159.501 97s65.5 162 65.5 292c0 191.333 -70 355.166 -210 491.499s-309 204.5 -507 204.5
c-191.333 0 -358.666 -73.333 -501.999 -220s-215 -319 -215 -517s71.667 -370.333 215 -517s310.666 -220 501.999 -220c79.333 0 155.5 13 228.5 39s126.5 51 160.5 75l51 39l21 -30c-13.333 -12 -32.333 -27.333 -57 -46s-77 -43 -157 -73s-162.333 -45 -247 -45
c-200.667 0 -377.167 77.5 -529.5 232.5s-228.5 336.833 -228.5 545.5s76.167 390.5 228.5 545.5s328.833 232.5 529.5 232.5c208.667 0 387.167 -72.667 535.5 -218s222.5 -318.333 222.5 -519c0 -139.333 -26.333 -245.833 -79 -319.5s-115 -110.5 -187 -110.5
c-54.667 0 -99.834 18.833 -135.501 56.5s-57.5 74.834 -65.5 111.501l-14 57c-2.66699 -5.33301 -6.16699 -13.166 -10.5 -23.499s-15 -28.5 -32 -54.5s-36 -48.833 -57 -68.5s-49.333 -37.667 -85 -54s-73.167 -24.5 -112.5 -24.5c-90 0 -167.167 35.5 -231.5 106.5
s-96.5 161.833 -96.5 272.5s32.167 201.5 96.5 272.5s141.5 106.5 231.5 106.5z" />
    <glyph glyph-name="A" unicode="A" horiz-adv-x="1351" 
d="M696 1434l594 -1434h-41l-184 451h-778l-185 -451h-41l594 1434h41zM1044 492l-368 890l-369 -890h737z" />
    <glyph glyph-name="B" unicode="B" horiz-adv-x="1341" 
d="M891 768l-0.00390625 -10.001c8 -1.33301 18.833 -3.33301 32.5 -6s38.334 -12.667 74.001 -30s67.167 -37.833 94.5 -61.5s51.833 -59.5 73.5 -107.5s32.5 -102.667 32.5 -164c0 -114.667 -38.167 -208.167 -114.5 -280.5s-178.166 -108.5 -305.499 -108.5h-532v1434
h502c116 0 208 -32.167 276 -96.5s102 -148.5 102 -252.5c0 -49.333 -8.16699 -94 -24.5 -134s-35.666 -71 -57.999 -93s-45.166 -40.167 -68.499 -54.5s-43.333 -24.166 -60 -29.499zM286.996 40.999h491c116 0 208.167 32 276.5 96s102.5 148 102.5 252
s-34.167 188 -102.5 252s-160.5 96 -276.5 96h-491v-696zM747.996 1393h-461v-615h461c106.667 0 189.5 28 248.5 84s88.5 130.5 88.5 223.5s-29.5 167.5 -88.5 223.5s-141.833 84 -248.5 84z" />
    <glyph glyph-name="C" unicode="C" horiz-adv-x="1525" 
d="M123 717c0 203.333 70.6592 377.001 211.992 521.001s309.666 216 504.999 216c72.667 0 142.334 -10.833 209.001 -32.5s121.834 -48.334 165.501 -80.001s81.834 -62.834 114.501 -93.501s56.667 -57 72 -79l22 -32l-30 -21c-5.33301 8 -12.833 18.5 -22.5 31.5
s-31.667 36.667 -66 71s-71.166 64.833 -110.499 91.5s-91.166 50.5 -155.499 71.5s-130.5 31.5 -198.5 31.5c-186 0 -345.167 -67.5 -477.5 -202.5s-198.5 -299.5 -198.5 -493.5s66.167 -358.667 198.5 -494s291.5 -203 477.5 -203c68 0 133.833 10.333 197.5 31
s115.834 45.334 156.501 74.001s76.834 57.667 108.501 87s54.834 54.333 69.501 75l21 30l30 -20c-5.33301 -8 -13.166 -19.167 -23.499 -33.5s-33.5 -40 -69.5 -77s-74.833 -69.167 -116.5 -96.5s-96.334 -52.5 -164.001 -75.5s-137.5 -34.5 -209.5 -34.5
c-195.333 0 -363.666 72 -504.999 216s-212 317.667 -212 521z" />
    <glyph glyph-name="D" unicode="D" horiz-adv-x="1495" 
d="M246 1434h378.999c218.667 0 397.834 -68 537.501 -204s209.5 -307 209.5 -513s-70 -377 -210 -513s-319 -204 -537 -204h-379v1434zM624.999 1393h-338v-1352h338c208.667 0 378.5 63.5 509.5 190.5s196.5 288.833 196.5 485.5s-65.5 358.5 -196.5 485.5
s-300.833 190.5 -509.5 190.5z" />
    <glyph glyph-name="E" unicode="E" horiz-adv-x="1280" 
d="M287 41h911v-41h-952v1434h932v-41h-891v-625h727v-41h-727v-686z" />
    <glyph glyph-name="F" unicode="F" horiz-adv-x="1228" 
d="M246 1434h921v-41h-880v-645h717v-41h-717v-707h-41v1434z" />
    <glyph glyph-name="G" unicode="G" horiz-adv-x="1597" 
d="M1423 1137l-30.0088 -20.998c-5.33301 8 -12.833 18.5 -22.5 31.5s-31.667 36.667 -66 71s-71.166 64.833 -110.499 91.5s-91.166 50.5 -155.499 71.5s-130.5 31.5 -198.5 31.5c-186 0 -345.167 -67.5 -477.5 -202.5s-198.5 -299.5 -198.5 -493.5
s66.167 -358.667 198.5 -494s291.5 -203 477.5 -203c68 0 133.833 10.333 197.5 31s115.834 45.334 156.501 74.001s76.834 57.667 108.501 87s54.834 54.333 69.501 75l21 30v338h-420v41h461v-389c-5.33301 -9.33301 -13.5 -21.166 -24.5 -35.499s-35.333 -40.333 -73 -78
s-77.667 -70.834 -120 -99.501s-97.666 -54.834 -165.999 -78.501s-138.5 -35.5 -210.5 -35.5c-195.333 0 -363.666 72 -504.999 216s-212 317.667 -212 521s70.667 377 212 521s309.666 216 504.999 216c72.667 0 142.334 -10.833 209.001 -32.5
s121.834 -48.334 165.501 -80.001s81.834 -62.834 114.501 -93.501s56.667 -57 72 -79z" />
    <glyph glyph-name="H" unicode="H" horiz-adv-x="1525" 
d="M246 0v1434h41v-686h952v686h41v-1434h-41v707h-952v-707h-41z" />
    <glyph glyph-name="I" unicode="I" horiz-adv-x="532" 
d="M246 0v1434h41v-1434h-41z" />
    <glyph glyph-name="J" unicode="J" horiz-adv-x="983" 
d="M717 1434l41 0.000976562v-1024c0 -121.333 -40 -223.333 -120 -306s-176.667 -124 -290 -124c-39.333 0 -77.833 4.66699 -115.5 14s-68.834 21.166 -93.501 35.499s-46.167 28.666 -64.5 42.999s-32.166 26.5 -41.499 36.5l-13 14l31 31
c8 -9.33301 19.167 -21.666 33.5 -36.999s47.5 -35.333 99.5 -60s106.667 -37 164 -37c104 0 191.5 37 262.5 111s106.5 167 106.5 279v1024z" />
    <glyph glyph-name="K" unicode="K" horiz-adv-x="1310" 
d="M287 461l880 973h52l-543 -605l594 -829h-51l-564 799h-10l-358 -389v-410h-41v1434h41v-973z" />
    <glyph glyph-name="L" unicode="L" horiz-adv-x="1126" 
d="M1085 0h-839v1434h41v-1393h798v-41z" />
    <glyph glyph-name="M" unicode="M" horiz-adv-x="1863" 
d="M276 1434l656 -912l655 912h31v-1434h-41v1352l-645 -901l-645 901v-1352h-41v1434h30z" />
    <glyph glyph-name="N" unicode="N" horiz-adv-x="1587" 
d="M1300 1434h41v-1434h-30l-1024 1352v-1352h-41v1434h30l1024 -1352v1352z" />
    <glyph glyph-name="O" unicode="O" horiz-adv-x="1679" 
d="M1516 717c0 194 -66.333 358.5 -199 493.5s-291.834 202.5 -477.501 202.5s-344.667 -67.5 -477 -202.5s-198.5 -299.5 -198.5 -493.5s66.167 -358.667 198.5 -494s291.333 -203 477 -203s344.834 67.667 477.501 203s199 300 199 494zM1556 717
c0 -203.333 -70.5 -377 -211.5 -521s-309.167 -216 -504.5 -216s-363.666 72 -504.999 216s-212 317.667 -212 521s70.667 377 212 521s309.666 216 504.999 216s363.5 -72 504.5 -216s211.5 -317.667 211.5 -521z" />
    <glyph glyph-name="P" unicode="P" horiz-adv-x="1300" 
d="M246 1434l481 0.00195312c131.333 0 239.333 -40.333 324 -121s127 -180.334 127 -299.001s-42.333 -218.334 -127 -299.001s-192.667 -121 -324 -121h-440v-594h-41v1434zM727 1393h-440v-758h440c121.333 0 220 35.833 296 107.5s114 162.167 114 271.5
s-38 199.833 -114 271.5s-174.667 107.5 -296 107.5z" />
    <glyph glyph-name="Q" unicode="Q" horiz-adv-x="1679" 
d="M123 717c0 203.333 70.667 377.003 212 521.003s309.666 216 504.999 216s363.5 -72 504.5 -216s211.5 -317.667 211.5 -521c0 -69.333 -8.16699 -135.5 -24.5 -198.5s-37.833 -117 -64.5 -162s-56 -86.333 -88 -124s-64 -68.834 -96 -93.501s-61.333 -45.5 -88 -62.5
s-48.334 -28.833 -65.001 -35.5l-24 -10c2.66699 -6.66699 7 -16.5 13 -29.5s20.333 -35.333 43 -67s48 -59.667 76 -84s67 -46.5 117 -66.5s103.667 -30 161 -30l133 10v-40c-40.667 -6.66699 -85 -10.334 -133 -11.001c-62.667 0 -121 10.667 -175 32
s-97.167 46.666 -129.5 75.999s-59.666 59 -81.999 89s-38.5 56 -48.5 78l-12 30c-70.667 -26 -147 -38.667 -229 -38c-195.333 0 -363.666 72 -504.999 216s-212 317.667 -212 521zM164 717.003c0 -194 66.167 -358.667 198.5 -494s291.333 -203 477 -203
s344.834 67.667 477.501 203s199 300 199 494s-66.333 358.5 -199 493.5s-291.834 202.5 -477.501 202.5s-344.667 -67.5 -477 -202.5s-198.5 -299.5 -198.5 -493.5z" />
    <glyph glyph-name="R" unicode="R" horiz-adv-x="1341" 
d="M246 1434l511.999 0.000976562c126.667 0 230 -38 310 -114s120 -171.333 120 -286c0 -62.667 -11.667 -118.834 -35 -168.501s-51.666 -87.834 -84.999 -114.501s-66.333 -48.667 -99 -66s-60.667 -28.666 -84 -33.999l-35 -6l369 -645h-52l-348 635h-532v-635h-41v1434
zM757.999 1393l-471 -0.00195312v-717h471c116 0 209.833 33.833 281.5 101.5s107.5 153.334 107.5 257.001s-35.833 189.334 -107.5 257.001s-165.5 101.5 -281.5 101.5z" />
    <glyph glyph-name="S" unicode="S" horiz-adv-x="1116" 
d="M952 369c0 61.333 -15.001 113.5 -45.001 156.5s-69.167 76.833 -117.5 101.5s-101.5 46.167 -159.5 64.5s-116 37.333 -174 57s-111.333 42.167 -160 67.5s-88 60.5 -118 105.5s-45 99.5 -45 163.5c0 101.333 41 188.166 123 260.499s187.667 108.5 317 108.5
c48 0 94.5 -6.16699 139.5 -18.5s82.5 -26.666 112.5 -42.999s56.667 -33 80 -50s40.333 -31.833 51 -44.5l17 -18l-31 -31c-4 4 -9.5 9.83301 -16.5 17.5s-22.333 21 -46 40s-48.5 35.667 -74.5 50s-60.167 27.333 -102.5 39s-85.5 17.5 -129.5 17.5
c-118.667 0 -214.834 -32 -288.501 -96s-110.5 -141.333 -110.5 -232c0 -57.333 15 -106.833 45 -148.5s69.333 -74 118 -97s102 -43.333 160 -61s116 -36.834 174 -57.501s111.167 -44 159.5 -70s87.5 -62.833 117.5 -110.5s45 -104.834 45 -171.501
c0 -106.667 -43.333 -198.167 -130 -274.5s-197 -114.5 -331 -114.5c-56 0 -108.833 7.16699 -158.5 21.5s-90.167 31.333 -121.5 51s-59 39.334 -83 59.001s-40.667 37.167 -50 52.5l-17 20l31 31c2.66699 -5.33301 7.5 -12.5 14.5 -21.5s22.333 -24.333 46 -46
s49.834 -41.167 78.501 -58.5s66.334 -33.166 113.001 -47.499s95.667 -21.5 147 -21.5c124 0 225 34.333 303 103s117 150.667 117 246z" />
    <glyph glyph-name="T" unicode="T" horiz-adv-x="1105" 
d="M41 1434h1024v-41h-492v-1393h-41v1393h-491v41z" />
    <glyph glyph-name="U" unicode="U" horiz-adv-x="1536" 
d="M768 20c139.333 0 257.833 50.333 355.5 151s146.5 224.667 146.5 372v891h41v-891c0 -157.333 -53 -290.5 -159 -399.5s-234 -163.5 -384 -163.5s-278 54.5 -384 163.5s-159 242.167 -159 399.5v891h41v-891c0 -147.333 48.833 -271.333 146.5 -372
s216.167 -151 355.5 -151z" />
    <glyph glyph-name="V" unicode="V" horiz-adv-x="1290" 
d="M625 0l-564 1434h41l543 -1383l543 1383h41l-563 -1434h-41z" />
    <glyph glyph-name="W" unicode="W" horiz-adv-x="1986" 
d="M1004 1434l440 -1373l440 1373h41l-461 -1434h-41l-430 1341l-430 -1341h-41l-461 1434h41l441 -1373l440 1373h21z" />
    <glyph glyph-name="X" unicode="X" horiz-adv-x="1228" 
d="M143 1434l471 -666l471 666h52l-502 -697l532 -737h-51l-502 707l-501 -707h-52l533 737l-502 697h51z" />
    <glyph glyph-name="Y" unicode="Y" horiz-adv-x="1228" 
d="M113 1434l501 -891l502 891h51l-532 -932v-502h-41v502l-533 932h52z" />
    <glyph glyph-name="Z" unicode="Z" horiz-adv-x="1146" 
d="M993 1393h-880v41h931v-31l-911 -1362h932v-41h-983v31z" />
    <glyph glyph-name="bracketleft" unicode="[" horiz-adv-x="706" 
d="M287 1413v-1802h317v-41h-358v1884h358v-41h-317z" />
    <glyph glyph-name="backslash" unicode="\" horiz-adv-x="839" 
d="M717 -430l-635 1884h41l635 -1884h-41z" />
    <glyph glyph-name="bracketright" unicode="]" horiz-adv-x="706" 
d="M420 -389v1802h-318v41h359v-1884h-359v41h318z" />
    <glyph glyph-name="asciicircum" unicode="^" horiz-adv-x="778" 
d="M369 1434h41l245 -553h-41l-225 512l-225 -512h-41z" />
    <glyph glyph-name="underscore" unicode="_" horiz-adv-x="634" 
d="M655 -256v-41h-675v41h675z" />
    <glyph glyph-name="grave" unicode="`" horiz-adv-x="327" 
d="M113 1413l153 -246h-41l-164 246h52z" />
    <glyph glyph-name="a" unicode="a" horiz-adv-x="1013" 
d="M778 604l0.00585938 31c0 95.333 -29.333 173.833 -88 235.5s-131.667 92.5 -219 92.5c-57.333 0 -110.833 -13 -160.5 -39s-84.834 -51.333 -105.501 -76l-31 -39l-31 31c2.66699 4 7.16699 9.66699 13.5 17s19.666 20.666 39.999 39.999s42.166 36.166 65.499 50.499
s54.166 27.333 92.499 39s77.166 17.5 116.499 17.5c98 0 180.5 -34.833 247.5 -104.5s100.5 -157.834 100.5 -264.501v-635h-41v236c-2.66699 -6.66699 -6.33398 -16 -11.001 -28s-17 -32.667 -37 -62s-42.167 -55.166 -66.5 -77.499s-59.5 -42.666 -105.5 -60.999
s-95.333 -27.5 -148 -27.5c-94 0 -172.167 27.5 -234.5 82.5s-93.5 119.5 -93.5 193.5c0 72.667 24.833 132.834 74.5 180.501s120.5 79.5 212.5 95.5zM410.006 20c104 0 191.333 37.001 262 111.001s106 167 106 279v153l-409 -71
c-164 -28.667 -246 -107.334 -246 -236.001c0 -64 26.667 -119.333 80 -166s122.333 -70 207 -70z" />
    <glyph glyph-name="b" unicode="b" horiz-adv-x="1228" 
d="M236 1434l-0.00195312 -737.999c2.66699 8 7.33398 19 14.001 33s22.334 38.667 47.001 74s51.334 66.666 80.001 93.999s67.167 52 115.5 74s99.166 33 152.499 33c116 0 220.167 -50.667 312.5 -152s138.5 -221.5 138.5 -360.5s-46.167 -259 -138.5 -360
s-196.5 -151.5 -312.5 -151.5c-53.333 0 -103.833 10.5 -151.5 31.5s-86.5 46.5 -116.5 76.5s-56.333 60 -79 90s-38.667 55.333 -48 76l-14 33v-287h-41v1434h41zM644.998 963.001c-105.333 0 -199.833 -46.167 -283.5 -138.5s-125.5 -203.333 -125.5 -333
s41.833 -240.667 125.5 -333s178.167 -138.5 283.5 -138.5s200 46.167 284 138.5s126 203.333 126 333s-42 240.667 -126 333s-178.667 138.5 -284 138.5z" />
    <glyph glyph-name="c" unicode="c" horiz-adv-x="1064" 
d="M154 491.5c0 -131 43 -242.331 129 -333.998s186.333 -137.5 301 -137.5c66.667 0 128 15.5 184 46.5s95.667 62.167 119 93.5l35 45l30 -21c-2.66699 -5.33301 -7.33398 -12.833 -14.001 -22.5s-21.667 -26 -45 -49s-48 -43.333 -74 -61s-60.167 -34 -102.5 -49
s-86.5 -22.5 -132.5 -22.5c-125.333 0 -235.166 50.167 -329.499 150.5s-141.5 220.666 -141.5 360.999s47 260.833 141 361.5s204 151 330 151c46.667 0 90.667 -7.16699 132 -21.5s76 -31.5 104 -51.5s52.333 -39.833 73 -59.5s35.667 -37.167 45 -52.5l14 -20l-30 -21
c-2.66699 5.33301 -7.16699 12.166 -13.5 20.499s-20 23 -41 44s-43.5 39.833 -67.5 56.5s-55.5 31.5 -94.5 44.5s-79.5 19.5 -121.5 19.5c-114.667 0 -215 -45.833 -301 -137.5s-129 -203 -129 -334z" />
    <glyph glyph-name="d" unicode="d" horiz-adv-x="1228" 
d="M973 696l0.00195312 737.999h41v-1434h-41v287c-2.66699 -8 -7.5 -19 -14.5 -33s-22.833 -38.667 -47.5 -74s-51.334 -66.666 -80.001 -93.999s-67.167 -51.833 -115.5 -73.5s-99.166 -32.5 -152.499 -32.5c-116 0 -220 50.5 -312 151.5s-138 221 -138 360
s46 259.167 138 360.5s196 152 312 152c53.333 0 103.833 -10.667 151.5 -32s86.667 -47 117 -77s56.666 -60 78.999 -90s38.166 -55.333 47.499 -76zM563.502 962.999c-105 0 -199.5 -46.167 -283.5 -138.5s-126 -203.333 -126 -333s42 -240.667 126 -333
s178.5 -138.5 283.5 -138.5s199.5 46.167 283.5 138.5s126 203.333 126 333s-42 240.667 -126 333s-178.5 138.5 -283.5 138.5z" />
    <glyph glyph-name="e" unicode="e" horiz-adv-x="1126" 
d="M1014 471h-860c5.33301 -126.667 50 -233.5 134 -320.5s182.667 -130.5 296 -130.5c66.667 0 128 15.5 184 46.5s95.667 62.167 119 93.5l35 45l30 -21c-2.66699 -5.33301 -7.33398 -12.833 -14.001 -22.5s-21.667 -26 -45 -49s-48 -43.333 -74 -61
s-60.167 -34 -102.5 -49s-86.5 -22.5 -132.5 -22.5c-125.333 0 -235.166 50.167 -329.499 150.5s-141.5 220.833 -141.5 361.5c0 144.667 45 266.167 135 364.5s195 147.5 315 147.5s225.167 -49.167 315.5 -147.5s135.5 -219.833 135.5 -364.5v-21zM563 963
c-109.333 0 -204.833 -43.833 -286.5 -131.5s-122.5 -194.167 -122.5 -319.5h819c0 125.333 -41 231.833 -123 319.5s-177.667 131.5 -287 131.5z" />
    <glyph glyph-name="f" unicode="f" horiz-adv-x="593" 
d="M522 983l0.00195312 -41.002h-246v-942h-40v942h-164v41h164v225c0 76.667 20.667 136.834 62 180.501s95.666 65.5 162.999 65.5c22 0 43.167 -2.66699 63.5 -8s35.166 -10.666 44.499 -15.999l15 -7v-41c-34 20.667 -75 31 -123 31
c-57.333 0 -102.5 -17.667 -135.5 -53s-49.5 -86 -49.5 -152v-225h246z" />
    <glyph glyph-name="g" unicode="g" 
d="M553 61c105.333 0 198.166 43.833 278.499 131.5s120.5 194.167 120.5 319.5s-40.167 231.833 -120.5 319.5s-173.166 131.5 -278.499 131.5s-198.166 -43.833 -278.499 -131.5s-120.5 -194.167 -120.5 -319.5s40.167 -231.833 120.5 -319.5
s173.166 -131.5 278.499 -131.5zM952 61l0.00195312 256.003c-2.66699 -8 -7 -18.5 -13 -31.5s-20.667 -36.5 -44 -70.5s-49 -64.333 -77 -91s-65.833 -50.667 -113.5 -72s-98.167 -32 -151.5 -32c-114.667 0 -216.667 48.167 -306 144.5s-134 212.166 -134 347.499
s44.667 251.166 134 347.499s191.333 144.5 306 144.5c53.333 0 103.5 -10.333 150.5 -31s85.167 -45.334 114.5 -74.001s54.666 -57.667 75.999 -87s36 -54.333 44 -75l14 -30v276h41v-922c0 -140.667 -44 -257.667 -132 -351s-194 -140 -318 -140
c-46.667 0 -90.834 7.16699 -132.501 21.5s-76.5 31.333 -104.5 51s-52.167 39.5 -72.5 59.5s-35.5 37.333 -45.5 52l-14 21l31 20c2.66699 -5.33301 7 -12.166 13 -20.499s19.667 -23 41 -44s43.833 -39.667 67.5 -56s55 -31 94 -44s79.833 -19.5 122.5 -19.5
c114.667 0 211.5 42.167 290.5 126.5s118.5 192.166 118.5 323.499z" />
    <glyph glyph-name="h" unicode="h" horiz-adv-x="1187" 
d="M236 1434l-0.00292969 -697.001c2.66699 6.66699 6.33398 16.167 11.001 28.5s16.834 34 36.501 65s41.834 58 66.501 81s59.834 44.167 105.501 63.5s95.167 29 148.5 29c109.333 0 201.5 -39.667 276.5 -119s112.5 -179.666 112.5 -300.999v-584h-41v584
c0 110.667 -33.333 201.5 -100 272.5s-149.334 106.5 -248.001 106.5c-104 0 -191.333 -37.667 -262 -113s-106 -171 -106 -287v-563h-41v1434h41z" />
    <glyph glyph-name="i" unicode="i" horiz-adv-x="450" 
d="M195 0v983h41v-983h-41zM256 1351.5c0 -11 -4.5 -20.5 -13.5 -28.5s-18.167 -12 -27.5 -12s-18.5 4 -27.5 12s-13.5 17.5 -13.5 28.5s4.5 20.667 13.5 29s18.167 12.5 27.5 12.5s18.5 -4.16699 27.5 -12.5s13.5 -18 13.5 -29z" />
    <glyph glyph-name="j" unicode="j" horiz-adv-x="450" 
d="M195 -184l-0.000976562 1167h41v-1167c0 -76.667 -20.833 -136.834 -62.5 -180.501s-96.167 -65.5 -163.5 -65.5c-22 0 -43.167 2.66699 -63.5 8s-35.166 10.666 -44.499 15.999l-15 7v41c34 -20.667 75 -31 123 -31c57.333 0 102.5 17.833 135.5 53.5
s49.5 86.167 49.5 151.5zM173.999 1351.5c0 11 4.5 20.667 13.5 29s18.167 12.5 27.5 12.5s18.5 -4.16699 27.5 -12.5s13.5 -18 13.5 -29s-4.5 -20.5 -13.5 -28.5s-18.167 -12 -27.5 -12s-18.5 4 -27.5 12s-13.5 17.5 -13.5 28.5z" />
    <glyph glyph-name="k" unicode="k" horiz-adv-x="1013" 
d="M236 256v-256h-41v1434h41v-1127l614 676h51l-358 -399l420 -584h-52l-389 553h-10z" />
    <glyph glyph-name="l" unicode="l" horiz-adv-x="450" 
d="M236 1434v-1434h-41v1434h41z" />
    <glyph glyph-name="m" unicode="m" horiz-adv-x="1781" 
d="M1546 0l-0.000976562 584c0 114.667 -30.333 206.5 -91 275.5s-136 103.5 -226 103.5s-165.5 -34.5 -226.5 -103.5s-91.5 -160.833 -91.5 -275.5v-584h-41v584c0 114.667 -30.333 206.5 -91 275.5s-136 103.5 -226 103.5s-165.333 -35.5 -226 -106.5
s-91 -168.833 -91 -293.5v-563h-41v983h41v-225c1.33301 6.66699 4.33301 15.5 9 26.5s15.5 30.5 32.5 58.5s36.167 52.833 57.5 74.5s51.333 41.5 90 59.5s81.334 27 128.001 27c52 0 99.167 -10 141.5 -30s75 -44 98 -72s42.333 -56 58 -84s26.5 -52.333 32.5 -73l8 -28
c1.33301 8 4 18.5 8 31.5s14.5 35.833 31.5 68.5s36.833 61.667 59.5 87s55.167 48.333 97.5 69s89.5 31 141.5 31c100 0 184.667 -39 254 -117s104 -179 104 -303v-584h-41z" />
    <glyph glyph-name="n" unicode="n" horiz-adv-x="1187" 
d="M236 983l-0.00292969 -246.001c2.66699 6.66699 6.33398 16.167 11.001 28.5s16.834 34 36.501 65s41.834 58 66.501 81s59.834 44.167 105.501 63.5s95.167 29 148.5 29c109.333 0 201.5 -39.667 276.5 -119s112.5 -179.666 112.5 -300.999v-584h-41v584
c0 110.667 -33.333 201.5 -100 272.5s-149.334 106.5 -248.001 106.5c-104 0 -191.333 -37.667 -262 -113s-106 -171 -106 -287v-563h-41v983h41z" />
    <glyph glyph-name="o" unicode="o" horiz-adv-x="1187" 
d="M1014 491.5c0 131 -43 242.333 -129 334s-186.333 137.5 -301 137.5s-215 -45.833 -301 -137.5s-129 -203 -129 -334s43 -242.333 129 -334s186.333 -137.5 301 -137.5s215 45.833 301 137.5s129 203 129 334zM1055 491.5c0 -140.333 -47.167 -260.666 -141.5 -360.999
s-204.333 -150.5 -330 -150.5s-235.5 50.167 -329.5 150.5s-141 220.666 -141 360.999s47 260.833 141 361.5s203.833 151 329.5 151s235.667 -50.333 330 -151s141.5 -221.167 141.5 -361.5z" />
    <glyph glyph-name="p" unicode="p" horiz-adv-x="1228" 
d="M236 287l-0.00195312 -716.999h-41v1413h41v-287c2.66699 8 7.33398 19 14.001 33s22.334 38.667 47.001 74s51.334 66.666 80.001 93.999s67.167 52 115.5 74s99.166 33 152.499 33c116 0 220.167 -50.667 312.5 -152s138.5 -221.5 138.5 -360.5
s-46.167 -259 -138.5 -360s-196.5 -151.5 -312.5 -151.5c-53.333 0 -103.833 10.5 -151.5 31.5s-86.5 46.5 -116.5 76.5s-56.333 60 -79 90s-38.667 55.333 -48 76zM644.998 20.001c105.333 0 200 46.167 284 138.5s126 203.333 126 333s-42 240.667 -126 333
s-178.667 138.5 -284 138.5s-199.833 -46.167 -283.5 -138.5s-125.5 -203.333 -125.5 -333s41.833 -240.667 125.5 -333s178.167 -138.5 283.5 -138.5z" />
    <glyph glyph-name="q" unicode="q" horiz-adv-x="1228" 
d="M973 -430l0.00195312 716.999c-2.66699 -8 -7.5 -19 -14.5 -33s-22.833 -38.667 -47.5 -74s-51.334 -66.666 -80.001 -93.999s-67.167 -51.833 -115.5 -73.5s-99.166 -32.5 -152.499 -32.5c-116 0 -220 50.5 -312 151.5s-138 221 -138 360s46 259.167 138 360.5
s196 152 312 152c53.333 0 103.833 -10.667 151.5 -32s86.667 -47 117 -77s56.666 -60 78.999 -90s38.166 -55.333 47.499 -76l15 -33v287h41v-1413h-41zM563.502 19.999c105 0 199.5 46.167 283.5 138.5s126 203.333 126 333s-42 240.667 -126 333
s-178.5 138.5 -283.5 138.5s-199.5 -46.167 -283.5 -138.5s-126 -203.333 -126 -333s42 -240.667 126 -333s178.5 -138.5 283.5 -138.5z" />
    <glyph glyph-name="r" unicode="r" horiz-adv-x="696" 
d="M645 963h-41.0039c-104 0 -191.333 -37.667 -262 -113s-106 -171 -106 -287v-563h-41v983h41v-246c2.66699 6.66699 6.33398 16.167 11.001 28.5s16.834 34 36.501 65s41.834 58 66.501 81s59.834 44.167 105.501 63.5s95.167 29 148.5 29h41v-41z" />
    <glyph glyph-name="s" unicode="s" horiz-adv-x="890" 
d="M737 860l-29.9971 -31.002c-8 9.33301 -19.333 21.666 -34 36.999s-45.834 35.333 -93.501 60s-97.5 37 -149.5 37c-75.333 0 -136.833 -21.167 -184.5 -63.5s-71.5 -92.833 -71.5 -151.5c0 -50.667 20.167 -91.667 60.5 -123s89.166 -55.666 146.499 -72.999
s114.333 -35.166 171 -53.499s105.167 -46.666 145.5 -84.999s60.5 -87.5 60.5 -147.5c0 -79.333 -31.5 -146.833 -94.5 -202.5s-144.167 -83.5 -243.5 -83.5c-39.333 0 -77.833 5.33301 -115.5 16s-68.834 24.167 -93.501 40.5s-46.167 32.833 -64.5 49.5
s-31.833 30.334 -40.5 41.001l-14 16l31 31c2.66699 -4 6.66699 -9.5 12 -16.5s17.333 -19.333 36 -37s38.5 -33.334 59.5 -47.001s48.667 -26 83 -37s69.833 -16.5 106.5 -16.5c90 0 162 24 216 72s81 106 81 174c0 52 -20.167 94.667 -60.5 128
s-88.833 58.666 -145.5 75.999s-113.667 34.833 -171 52.5s-106.166 44.834 -146.499 81.501s-60.5 84.667 -60.5 144c0 68 28.333 127.667 85 179s127.334 77 212.001 77c57.333 0 111.666 -12 162.999 -36s88.666 -47.667 111.999 -71z" />
    <glyph glyph-name="t" unicode="t" horiz-adv-x="675" 
d="M256 1044l0.000976562 267h41v-328h225v-41h-225v-717c0 -65.333 16.333 -115.833 49 -151.5s77.667 -53.5 135 -53.5c22 0 43.167 2.83301 63.5 8.5s35.5 11.167 45.5 16.5l14 6v-41c-34 -20.667 -75 -30.667 -123 -30c-66.667 0 -120.834 21.833 -162.501 65.5
s-62.5 103.5 -62.5 179.5v717h-205v41h144c40.667 0 61 20.333 61 61z" />
    <glyph glyph-name="u" unicode="u" 
d="M952 0v246c-2.66699 -6.66699 -6.33398 -16.167 -11.001 -28.5s-17 -34 -37 -65s-42.167 -58 -66.5 -81s-59.333 -44 -105 -63s-95.167 -28.5 -148.5 -28.5c-109.333 0 -201.5 39.5 -276.5 118.5s-112.5 179.167 -112.5 300.5v584h41v-584
c0 -110.667 33.333 -201.5 100 -272.5s149.334 -106.5 248.001 -106.5c104 0 191.333 37.667 262 113s106 171 106 287v563h41v-983h-41z" />
    <glyph glyph-name="v" unicode="v" horiz-adv-x="962" 
d="M492 0h-41l-400 983h41l379 -932l379 932h41z" />
    <glyph glyph-name="w" unicode="w" horiz-adv-x="1413" 
d="M686 983h21l297 -922l296 922h41l-317 -983h-41l-287 891l-286 -891h-41l-318 983h41l297 -922z" />
    <glyph glyph-name="x" unicode="x" horiz-adv-x="921" 
d="M51 0l379 512l-348 471h51l318 -440l317 440h51l-348 -471l379 -512h-51l-348 481l-349 -481h-51z" />
    <glyph glyph-name="y" unicode="y" horiz-adv-x="962" 
d="M358 -225l93.001 225l-400 983h41l379 -932l379 932h41l-492 -1208c-54.667 -136.667 -133 -205 -235 -205c-15.333 0 -29.833 1.66699 -43.5 5s-23.834 7 -30.501 11l-8 4v41c20.667 -13.333 48 -20 82 -20c85.333 0 150 54.667 194 164z" />
    <glyph glyph-name="z" unicode="z" horiz-adv-x="870" 
d="M778 983v-31l-676 -911h697v-41h-748v31l676 911h-655v41h706z" />
    <glyph glyph-name="braceleft" unicode="{" horiz-adv-x="737" 
d="M143 492l-0.000976562 39.998c56 0 99 14.333 129 43s45 69 45 121v502c0 170.667 92.333 256 277 256h41v-41h-41c-157.333 0 -236 -71.667 -236 -215v-502c0 -30 -4.66699 -56.833 -14 -80.5s-21.166 -41.667 -35.499 -54s-28.666 -22.666 -42.999 -30.999
s-26.5 -13.166 -36.5 -14.499l-14 -4c4 0 9.16699 -1 15.5 -3s17.666 -7.16699 33.999 -15.5s31 -18.333 44 -30s24.5 -29.667 34.5 -54s15 -51.5 15 -81.5v-502c0 -143.333 78.667 -215 236 -215h41v-41h-41c-184 0 -276.333 85.333 -277 256v502c0 52 -15 92.333 -45 121
s-73 43 -129 43z" />
    <glyph glyph-name="bar" unicode="|" horiz-adv-x="655" 
d="M348 1454v-1884h-41v1884h41z" />
    <glyph glyph-name="braceright" unicode="}" horiz-adv-x="737" 
d="M594 532l0.00195312 -39.998c-56 0 -99 -14.333 -129 -43s-45 -69 -45 -121v-502c0 -170.667 -92.333 -256 -277 -256h-41v41h41c157.333 0 236 71.667 236 215v502c0 30 4.83301 56.833 14.5 80.5s21.667 41.667 36 54s28.666 22.666 42.999 30.999
s26.166 13.166 35.499 14.499l14 4c-4 0 -9 1 -15 3s-17.167 7.16699 -33.5 15.5s-31 18.333 -44 30s-24.667 29.667 -35 54s-15.5 51.5 -15.5 81.5v502c0 143.333 -78.667 215 -236 215h-41v41h41c184 0 276.333 -85.333 277 -256v-502c0 -52 15 -92.333 45 -121
s73 -43 129 -43z" />
    <glyph glyph-name="asciitilde" unicode="~" horiz-adv-x="1044" 
d="M717 543c39.333 0 74.999 11.166 106.999 33.499s55 44.5 69 66.5l18 33l31 -21c-1.33301 -4 -4 -9.33301 -8 -16s-12.833 -19 -26.5 -37s-28.667 -33.667 -45 -47s-37.5 -25.5 -63.5 -36.5s-53.333 -16.5 -82 -16.5c-62.667 0 -129.834 25.5 -201.501 76.5
s-134.167 76.5 -187.5 76.5c-39.333 0 -75.166 -10.833 -107.499 -32.5s-55.166 -43.5 -68.499 -65.5l-19 -35l-31 21c1.33301 4 4.16602 9.33301 8.49902 16s13.333 19 27 37s28.667 33.833 45 47.5s37.5 25.834 63.5 36.501s53.333 16 82 16
c62.667 0 129.834 -25.5 201.501 -76.5s134.167 -76.5 187.5 -76.5z" />
    <glyph glyph-name="uni00A0" unicode="&#xa0;" horiz-adv-x="368" 
 />
    <glyph glyph-name="exclamdown" unicode="&#xa1;" horiz-adv-x="573" 
d="M266 686h41v-1116h-41v1116zM328 942c0 -10.667 -4.16699 -20.167 -12.5 -28.5s-18 -12.5 -29 -12.5s-20.5 4.16699 -28.5 12.5s-12 17.833 -12 28.5s4 20.167 12 28.5s17.5 12.5 28.5 12.5s20.667 -4.16699 29 -12.5s12.5 -17.833 12.5 -28.5z" />
    <glyph glyph-name="cent" unicode="&#xa2;" horiz-adv-x="1064" 
d="M154 491.5c0 -131 43 -242.33 129 -333.997s186.333 -137.5 301 -137.5c66.667 0 128 15.5 184 46.5s95.667 62.167 119 93.5l35 45l30 -21c-2.66699 -5.33301 -7 -12.333 -13 -21s-19.667 -24.334 -41 -47.001s-44.5 -42.834 -69.5 -60.501s-57.667 -34.334 -98 -50.001
s-82.5 -24.167 -126.5 -25.5v-205h-41v205c-120 5.33301 -225 57.833 -315 157.5s-135 217.667 -135 354s45 254.333 135 354s195 152.5 315 158.5v204h41v-204c44 -1.33301 86.167 -9.66602 126.5 -24.999s73.333 -32.833 99 -52.5s48.167 -39 67.5 -58s33 -35.5 41 -49.5
l14 -20l-30 -21c-2.66699 5.33301 -7.16699 12.166 -13.5 20.499s-20 23 -41 44s-43.5 39.833 -67.5 56.5s-55.5 31.5 -94.5 44.5s-79.5 19.5 -121.5 19.5c-114.667 0 -215 -45.833 -301 -137.5s-129 -203 -129 -334z" />
    <glyph glyph-name="sterling" unicode="&#xa3;" horiz-adv-x="1107" 
d="M307 1044c0 121.333 35.835 219.998 107.502 295.998s162.167 114 271.5 114c39.333 0 78.166 -5.5 116.499 -16.5s70.5 -24.667 96.5 -41s48.833 -32.666 68.5 -48.999s34.5 -29.833 44.5 -40.5l14 -17l-31 -30c-2.66699 4 -7 9.33301 -13 16s-19.333 18.834 -40 36.501
s-41.834 33.334 -63.501 47.001s-50 26 -85 37s-70.833 16.5 -107.5 16.5c-98 0 -178.833 -33.833 -242.5 -101.5s-95.5 -156.834 -95.5 -267.501v-348h430v-41h-430v-430c0 -42 -9.5 -78.333 -28.5 -109s-38.167 -51 -57.5 -61l-26 -14h788v-41h-901v41
c52 0 95.667 17.667 131 53s53 79 53 131v430h-153v41h153v348z" />
    <glyph glyph-name="currency" unicode="&#xa4;" horiz-adv-x="1320" 
d="M102 635v41.001h185v758h481c126.667 0 230 -38 310 -114s120 -171.333 120 -286s-40 -209.834 -120 -285.501s-183.333 -113.5 -310 -113.5h-440v-266h563v-41h-563v-328h-41v328h-185v41h185v266h-185zM768 1393l-440 -0.00195312v-717h440
c116 0 209.833 33.833 281.5 101.5s107.5 153.334 107.5 257.001s-35.833 189.334 -107.5 257.001s-165.5 101.5 -281.5 101.5z" />
    <glyph glyph-name="yen" unicode="&#xa5;" horiz-adv-x="1228" 
d="M246 287v41h348v174l-31 51h-317v41h297l-482 840h52l501 -891l502 891h51l-481 -840h297v-41h-317l-31 -51v-174h348v-41h-348v-287h-41v287h-348z" />
    <glyph glyph-name="brokenbar" unicode="&#xa6;" horiz-adv-x="655" 
d="M307 348h41v-778h-41v778zM348 676h-41v778h41v-778z" />
    <glyph glyph-name="section" unicode="&#xa7;" horiz-adv-x="1075" 
d="M891 573c0 32.667 -7.50488 63.168 -22.5049 91.501s-32.833 51.666 -53.5 69.999s-49 36.666 -85 54.999s-67.667 32.666 -95 42.999s-64.166 23.666 -110.499 39.999s-81.166 29.166 -104.499 38.499c-6.66699 -1.33301 -15.167 -3.66602 -25.5 -6.99902
s-29.166 -11.5 -56.499 -24.5s-51.166 -28 -71.499 -45s-39.166 -41.5 -56.499 -73.5s-26 -67.333 -26 -106c0 -32.667 7.5 -63 22.5 -91s32.833 -51.167 53.5 -69.5s49 -36.666 85 -54.999s67.667 -32.666 95 -42.999s64.333 -23.666 111 -39.999
s81.334 -29.5 104.001 -39.5c6.66699 1.33301 15.167 3.83301 25.5 7.5s29.166 12 56.499 25s51.333 28 72 45s39.5 41.5 56.5 73.5s25.5 67 25.5 105zM521.995 -183.999c90 0 162.003 23.835 216.003 71.502s81 105.5 81 173.5c0 57.333 -23.167 105.833 -69.5 145.5
s-102.666 71.167 -168.999 94.5s-132.5 47.333 -198.5 72s-122.333 60.5 -169 107.5s-70 105.167 -70 174.5c0 39.333 8.33301 76.5 25 111.5s36.5 62.833 59.5 83.5s45.833 38.5 68.5 53.5s42 25.167 58 30.5l25 8c-4 1.33301 -9.83301 3.66602 -17.5 6.99902
s-21 11.5 -40 24.5s-35.667 27.333 -50 43s-27.333 37.167 -39 64.5s-17.5 56 -17.5 86c0 79.333 30.667 147 92 203s140 84 236 84c57.333 0 111.5 -12 162.5 -36s87.5 -47.333 109.5 -70l35 -37l-31 -31c-8 9.33301 -19.167 21.5 -33.5 36.5s-45.333 34.833 -93 59.5
s-97.5 37 -149.5 37c-84.667 0 -153.667 -23.833 -207 -71.5s-80 -105.834 -80 -174.501c0 -57.333 23.167 -105.666 69.5 -144.999s102.666 -70.666 168.999 -93.999s132.666 -47.333 198.999 -72s122.666 -60.5 168.999 -107.5s69.5 -105.5 69.5 -175.5
c0 -39.333 -8.16699 -76.333 -24.5 -111s-35.833 -62.334 -58.5 -83.001s-45.667 -38.5 -69 -53.5s-43 -25.167 -59 -30.5l-25 -8c4 -1.33301 9.83301 -3.83301 17.5 -7.5s21 -11.834 40 -24.501s35.667 -27 50 -43s27.333 -37.667 39 -65s17.5 -56 17.5 -86
c0 -79.333 -31.333 -146.833 -94 -202.5s-144 -83.5 -244 -83.5c-39.333 0 -77.833 5.33301 -115.5 16s-68.834 24.334 -93.501 41.001s-46.167 33.167 -64.5 49.5s-31.5 29.833 -39.5 40.5l-14 17l30 30c2.66699 -4 6.83398 -9.33301 12.501 -16s17.667 -19 36 -37
s38.166 -33.833 59.499 -47.5s49 -25.834 83 -36.501s69.333 -16 106 -16z" />
    <glyph glyph-name="dieresis" unicode="&#xa8;" horiz-adv-x="532" 
d="M61 1310.5c0 11 4.16699 20.667 12.5 29s18 12.5 29 12.5s20.5 -4.16699 28.5 -12.5s12 -18 12 -29s-4 -20.5 -12 -28.5s-17.5 -12 -28.5 -12s-20.667 4 -29 12s-12.5 17.5 -12.5 28.5zM389 1310.5c0 11 4.16699 20.667 12.5 29s17.833 12.5 28.5 12.5
s20.167 -4.16699 28.5 -12.5s12.5 -18 12.5 -29s-4.16699 -20.5 -12.5 -28.5s-17.833 -12 -28.5 -12s-20.167 4 -28.5 12s-12.5 17.5 -12.5 28.5z" />
    <glyph glyph-name="copyright" unicode="&#xa9;" horiz-adv-x="1740" 
d="M1597 717c0 -204.667 -71 -378.667 -213 -522s-313.333 -215 -514 -215s-372 71.667 -514 215s-213 317.333 -213 522s71 378.667 213 522s313.333 215 514 215s372 -71.667 514 -215s213 -317.333 213 -522zM1556 717c0 194 -66.833 358.5 -200.5 493.5
s-295.334 202.5 -485.001 202.5s-351.5 -67.5 -485.5 -202.5s-201 -299.5 -201 -493.5s67 -358.667 201 -494s295.833 -203 485.5 -203s351.334 67.667 485.001 203s200.5 300 200.5 494zM563 716.5c0 -99.667 31.498 -182.498 94.498 -248.498s137.5 -99 223.5 -99
c30 0 59.667 4.33301 89 13s53.5 19.5 72.5 32.5s36 26.333 51 40s25.833 24.5 32.5 32.5l11 15l30 -31c-8 -10.667 -19.167 -23.834 -33.5 -39.501s-46.333 -36.834 -96 -63.501s-101.834 -40 -156.501 -40c-98 0 -182.333 37.167 -253 111.5s-106 166.833 -106 277.5
s35.167 203.167 105.5 277.5s154.833 111.5 253.5 111.5c54.667 0 105.834 -12 153.501 -36s81.834 -47.667 102.501 -71l30 -36l-30 -31c-6.66699 9.33301 -16.667 21.5 -30 36.5s-42.166 34.833 -86.499 59.5s-90.833 37 -139.5 37c-86 0 -160.5 -33.167 -223.5 -99.5
s-94.5 -149.333 -94.5 -249z" />
    <glyph glyph-name="ordfeminine" unicode="&#xaa;" horiz-adv-x="645" 
d="M266 829c-54.667 0 -98.9961 15.8359 -132.996 47.5029s-51 70.5 -51 116.5c0 94 62 152 186 174l224 41v41c0 52 -14.333 92.333 -43 121s-69 43 -121 43c-32.667 0 -63.834 -6.83301 -93.501 -20.5s-50.5 -27.167 -62.5 -40.5l-18 -21l-31 21
c5.33301 8 13.166 17.5 23.499 28.5s33.166 26 68.499 45s73 28.5 113 28.5c61.333 0 110.666 -18.833 147.999 -56.5s56 -87.167 56 -148.5v-399h-40v113c-1.33301 -4 -3.5 -8.83301 -6.5 -14.5s-10.667 -16.334 -23 -32.001s-26.333 -29.334 -42 -41.001
s-37.167 -22.334 -64.5 -32.001s-57.333 -14.5 -90 -14.5zM492.004 1167l-224 -40.999c-96.667 -18 -145 -62.333 -145 -133c0 -36.667 12.667 -66.334 38 -89.001s60.333 -34 105 -34c65.333 0 119.333 20.5 162 61.5s64 92.167 64 153.5v82z" />
    <glyph glyph-name="guillemotleft" unicode="&#xab;" horiz-adv-x="819" 
d="M164 492l225 -308h-41l-225 308l225 307h41zM471 492l225 -308h-41l-225 308l225 307h41z" />
    <glyph glyph-name="logicalnot" unicode="&#xac;" horiz-adv-x="921" 
d="M819 748v-328h-41v287h-676v41h717z" />
    <glyph glyph-name="uni00AD" unicode="&#xad;" horiz-adv-x="860" 
d="M758 625v-41h-656v41h656z" />
    <glyph glyph-name="registered" unicode="&#xae;" horiz-adv-x="1740" 
d="M963 676l194.001 -338h-51l-174 328h-246v-328h-41v758h246c75.333 0 135.166 -20.167 179.499 -60.5s66.5 -91.833 66.5 -154.5c0 -52 -14.667 -95.167 -44 -129.5s-58.333 -55.5 -87 -63.5zM686.001 1055v-348h205c65.333 0 115.833 16 151.5 48
s53.5 73.833 53.5 125.5s-17.833 93.667 -53.5 126s-86.167 48.5 -151.5 48.5h-205zM1597 717c0 -204.667 -71 -378.667 -213 -522s-313.333 -215 -514 -215s-372 71.667 -514 215s-213 317.333 -213 522s71 378.667 213 522s313.333 215 514 215s372 -71.667 514 -215
s213 -317.333 213 -522zM1556 717c0 194 -66.833 358.5 -200.5 493.5s-295.334 202.5 -485.001 202.5s-351.5 -67.5 -485.5 -202.5s-201 -299.5 -201 -493.5s67 -358.667 201 -494s295.833 -203 485.5 -203s351.334 67.667 485.001 203s200.5 300 200.5 494z" />
    <glyph glyph-name="macron" unicode="&#xaf;" horiz-adv-x="634" 
d="M573 1382v-41h-512v41h512z" />
    <glyph glyph-name="degree" unicode="&#xb0;" horiz-adv-x="696" 
d="M102 1208.5c0 67 24.333 124.667 73 173s106.5 72.5 173.5 72.5s124.667 -24.167 173 -72.5s72.5 -106 72.5 -173s-24.167 -124.667 -72.5 -173s-106 -72.5 -173 -72.5s-124.833 24.167 -173.5 72.5s-73 106 -73 173zM553 1208c0 56 -20.167 104.167 -60.5 144.5
s-88.5 60.5 -144.5 60.5s-104.167 -20.167 -144.5 -60.5s-60.5 -88.5 -60.5 -144.5s20.167 -104 60.5 -144s88.5 -60 144.5 -60s104.167 20 144.5 60s60.5 88 60.5 144z" />
    <glyph glyph-name="plusminus" unicode="&#xb1;" horiz-adv-x="1024" 
d="M102 143v41h820v-41h-820zM532 338h-40v420h-390v41h390v399h40v-399h390v-41h-390v-420z" />
    <glyph glyph-name="uni00B2" unicode="&#xb2;" horiz-adv-x="552" 
d="M492 922l-450.999 0.00195312c0 50.667 14 96.667 42 138s62.167 76.333 102.5 105s80.666 56.334 120.999 83.001s74.5 57.5 102.5 92.5s42 72.833 42 113.5c0 42 -16.5 78.167 -49.5 108.5s-74.833 45.5 -125.5 45.5c-42 0 -78.333 -11.333 -109 -34s-51 -45 -61 -67
l-14 -32l-41 10c1.33301 4 3.33301 9.66699 6 17s10.167 20.666 22.5 39.999s26.333 36.166 42 50.499s37.167 27.333 64.5 39s57.333 17.5 90 17.5c60 0 111 -19.5 153 -58.5s63 -84.5 63 -136.5c0 -45.333 -12.667 -86.333 -38 -123s-56.833 -68.334 -94.5 -95.001
s-76 -52.334 -115 -77.001s-74.167 -53.667 -105.5 -87s-50.333 -69.666 -57 -108.999h410v-41z" />
    <glyph glyph-name="uni00B3" unicode="&#xb3;" horiz-adv-x="573" 
d="M369 1300l15.0039 -4.99805c6 -2 17.167 -7.33301 33.5 -16s31 -19.167 44 -31.5s24.667 -30.166 35 -53.499s15.5 -49.333 15.5 -78c0 -57.333 -21.167 -105.833 -63.5 -145.5s-96.166 -59.5 -161.499 -59.5c-30 0 -59.333 3.83301 -88 11.5s-52 17 -70 28
s-34.167 22.167 -48.5 33.5s-24.833 20.666 -31.5 27.999l-8 12l31 31c5.33301 -8 13.166 -17.5 23.499 -28.5s34.166 -26.167 71.499 -45.5s77.333 -29 120 -29c54.667 0 99 15.833 133 47.5s51 70.667 51 117s-17 85.166 -51 116.499s-78.333 47 -133 47h-103v41h92
c50.667 0 90.667 13.333 120 40s44 61.167 44 103.5s-14.667 76.833 -44 103.5s-69.333 40 -120 40c-36.667 0 -70.334 -7.83301 -101.001 -23.5s-52 -31.167 -64 -46.5l-19 -22l-31 30c5.33301 8 13.166 17.5 23.499 28.5s34.333 26.167 72 45.5s77.5 29 119.5 29
c60 0 109.167 -17.833 147.5 -53.5s57.5 -79.5 57.5 -131.5c0 -23.333 -3.66699 -44.833 -11 -64.5s-16.5 -35.334 -27.5 -47.001s-22.333 -21.5 -34 -29.5s-20.834 -13.333 -27.501 -16z" />
    <glyph glyph-name="acute" unicode="&#xb4;" horiz-adv-x="327" 
d="M61 1167l154 246h51l-164 -246h-41z" />
    <glyph glyph-name="mu" unicode="&#xb5;" 
d="M932 164l0.00292969 71.998c-2.66699 -6.66699 -6.5 -16 -11.5 -28s-17 -32.667 -36 -62s-40.833 -55.166 -65.5 -77.499s-58.834 -42.666 -102.501 -60.999s-91.5 -27.5 -143.5 -27.5c-48 0 -92.333 7.5 -133 22.5s-73 32.667 -97 53s-44.5 41.166 -61.5 62.499
s-28.833 39.333 -35.5 54l-10 23v-625h-41v1413h41v-594c0 -110.667 31.667 -199.834 95 -267.501s144.166 -101.5 242.499 -101.5s182.666 37.333 252.999 112s105.5 167.334 105.5 278.001v573h41v-819c0 -40.667 11.167 -73 33.5 -97s52.166 -36 89.499 -36l61 10v-41
c-13.333 -6.66699 -33.666 -10 -60.999 -10c-46.667 0 -85.667 16.333 -117 49s-47 74.334 -47 125.001z" />
    <glyph glyph-name="paragraph" unicode="&#xb6;" horiz-adv-x="1024" 
d="M430 -205v1024c-82 0 -153.667 30.833 -215 92.5s-92 133.334 -92 215.001s30.667 153.334 92 215.001s133 92.5 215 92.5h348v-1639h-41v1598h-266v-1598h-41z" />
    <glyph glyph-name="periodcentered" unicode="&#xb7;" horiz-adv-x="368" 
d="M143 512c0 10.667 4.16699 20.167 12.5 28.5s18 12.5 29 12.5s20.5 -4.16699 28.5 -12.5s12 -17.833 12 -28.5s-4 -20.167 -12 -28.5s-17.5 -12.5 -28.5 -12.5s-20.667 4.16699 -29 12.5s-12.5 17.833 -12.5 28.5z" />
    <glyph glyph-name="cedilla" unicode="&#xb8;" horiz-adv-x="440" 
d="M225 41h31.001l-82 -164c13.333 6.66699 34 10 62 10c40.667 0 74.667 -13.667 102 -41s41 -61.333 41 -102c0 -42 -16.333 -78.167 -49 -108.5s-74.334 -45.5 -125.001 -45.5c-24.667 0 -49 4.16699 -73 12.5s-42 16.5 -54 24.5l-17 15l21 30c34 -27.333 75 -41 123 -41
c39.333 0 71.333 11 96 33s37 48.667 37 80c0 75.333 -37.667 113 -113 113c-12 0 -23.833 -1.83301 -35.5 -5.5s-20.167 -7.5 -25.5 -11.5l-10 -4l-21 21z" />
    <glyph glyph-name="uni00B9" unicode="&#xb9;" horiz-adv-x="378" 
d="M225 1638l30.9971 0.000976562v-716h-41v645c-2.66699 -5.33301 -7.5 -12.833 -14.5 -22.5s-23.667 -23 -50 -40s-56.166 -26.833 -89.499 -29.5v41c32.667 2.66699 62.834 14.167 90.501 34.5s46.834 40.166 57.501 59.499z" />
    <glyph glyph-name="ordmasculine" unicode="&#xba;" horiz-adv-x="716" 
d="M655 1136.5c0 -91.667 -28.667 -167.5 -86 -227.5s-127.666 -90 -210.999 -90s-153.666 30 -210.999 90s-86 135.833 -86 227.5s28.667 167.5 86 227.5s127.666 90 210.999 90s153.666 -30 210.999 -90s86 -135.833 86 -227.5zM614 1136.5
c0 80.333 -24.5 146.5 -73.5 198.5s-109.667 78 -182 78s-133.166 -26 -182.499 -78s-74 -118.167 -74 -198.5s24.667 -146.5 74 -198.5s110.166 -78 182.499 -78s133 26 182 78s73.5 118.167 73.5 198.5z" />
    <glyph glyph-name="guillemotright" unicode="&#xbb;" horiz-adv-x="819" 
d="M430 184l225 308l-225 307h41l225 -307l-225 -308h-41zM123 184l225 308l-225 307h41l225 -307l-225 -308h-41z" />
    <glyph glyph-name="onequarter" unicode="&#xbc;" horiz-adv-x="1372" 
d="M164 0l901 1434h41l-901 -1434h-41zM246 1434l30.001 0.000976562v-717h-40v645c-2.66699 -5.33301 -7.5 -12.833 -14.5 -22.5s-23.833 -23 -50.5 -40s-56.334 -26.833 -89.001 -29.5v41c32.667 2.66699 62.667 14.167 90 34.5s46.333 40.166 57 59.499zM1167 236.001
h103v-41h-103v-195h-41v195h-368v41l358 481h51v-481zM1126 236.001v440l-327 -440h327z" />
    <glyph glyph-name="onehalf" unicode="&#xbd;" horiz-adv-x="1413" 
d="M164 0l901 1434h41l-901 -1434h-41zM246 1434l30.001 0.000976562v-717h-40v645c-2.66699 -5.33301 -7.5 -12.833 -14.5 -22.5s-23.833 -23 -50.5 -40s-56.334 -26.833 -89.001 -29.5v41c32.667 2.66699 62.667 14.167 90 34.5s46.333 40.166 57 59.499z
M1311 0.000976562l-450.996 -0.00390625c0 50.667 14 96.834 42 138.501s62.167 76.834 102.5 105.501s80.666 56.334 120.999 83.001s74.5 57.334 102.5 92.001s42 72.334 42 113.001c0 42 -16.5 78.167 -49.5 108.5s-74.5 45.5 -124.5 45.5
c-42 0 -78.5 -11.333 -109.5 -34s-51.167 -44.667 -60.5 -66l-15 -33l-41 10c1.33301 4 3.5 9.83301 6.5 17.5s10.667 21 23 40s26.333 35.667 42 50s37.167 27.333 64.5 39s57.333 17.5 90 17.5c60 0 110.833 -19.5 152.5 -58.5s62.5 -84.5 62.5 -136.5
c0 -45.333 -12.667 -86.333 -38 -123s-56.833 -68.334 -94.5 -95.001s-75.834 -52.167 -114.501 -76.5s-73.834 -53.333 -105.501 -87s-50.834 -70.167 -57.501 -109.5h410v-41z" />
    <glyph glyph-name="threequarters" unicode="&#xbe;" horiz-adv-x="1495" 
d="M287 0l901 1434h41l-901 -1434h-41zM389 1096c4 -1.33301 9.17285 -3.16797 15.5059 -5.50098s17.666 -7.83301 33.999 -16.5s31 -19.167 44 -31.5s24.5 -30.166 34.5 -53.499s15 -49.333 15 -78c0 -57.333 -21 -105.666 -63 -144.999s-96 -59 -162 -59
c-30 0 -59.333 3.66699 -88 11s-51.834 16.5 -69.501 27.5s-33.667 22.333 -48 34s-24.833 20.834 -31.5 27.501l-9 12l31 31c5.33301 -8 13.166 -17.5 23.499 -28.5s34.333 -26 72 -45s77.5 -28.5 119.5 -28.5c54.667 0 99.167 15.667 133.5 47s51.5 70.166 51.5 116.499
s-17.167 85.166 -51.5 116.499s-78.833 47 -133.5 47h-102v41h92c50.667 0 90.667 13.333 120 40s44 61.167 44 103.5s-14.667 76.833 -44 103.5s-69.333 40 -120 40c-36.667 0 -70.334 -7.83301 -101.001 -23.5s-52.334 -31.167 -65.001 -46.5l-18 -22l-31 30
c5.33301 8 13.166 17.5 23.499 28.5s34.166 26.167 71.499 45.5s77.333 29 120 29c60 0 109.167 -17.833 147.5 -53.5s57.5 -79.167 57.5 -130.5c0 -23.333 -3.83301 -45 -11.5 -65s-17 -35.833 -28 -47.5s-22.167 -21.5 -33.5 -29.5s-20.666 -13.333 -27.999 -16z
M1290.01 235.998h103v-41h-103v-195h-41v195h-368v41l358 481h51v-481zM1249.01 235.998v440l-327 -440h327z" />
    <glyph glyph-name="questiondown" unicode="&#xbf;" horiz-adv-x="911" 
d="M543 686l0.00195312 -91.998c0 -64 -14.333 -121.667 -43 -173s-63.834 -94.333 -105.501 -129s-83 -68.834 -124 -102.501s-75.833 -73.334 -104.5 -119.001s-43 -96.5 -43 -152.5c0 -90 35.5 -167.167 106.5 -231.5s161.833 -96.5 272.5 -96.5
c58.667 0 111.5 9.66699 158.5 29s83.167 42.666 108.5 69.999s46.166 54.333 62.499 81s27.166 49.334 32.499 68.001l6 29l41 -10c-1.33301 -8 -4 -19 -8 -33s-15.833 -38.667 -35.5 -74s-43.167 -66.666 -70.5 -93.999s-67 -52 -119 -74s-110.667 -33 -176 -33
c-120 0 -220 36.667 -300 110s-120 159.666 -120 258.999c0 60 14.333 114.333 43 163s63.5 90 104.5 124s82.333 68 124 102s76.834 75.333 105.501 124s43 103 43 163v92h41zM563.002 942.002c0 -10.667 -4.33301 -20.167 -13 -28.5s-17.834 -12.5 -27.501 -12.5
s-19 4.16699 -28 12.5s-13.5 17.833 -13.5 28.5s4.5 20.167 13.5 28.5s18.333 12.5 28 12.5s18.834 -4.16699 27.501 -12.5s13 -17.833 13 -28.5z" />
    <glyph glyph-name="Agrave" unicode="&#xc0;" horiz-adv-x="1351" 
d="M696 1434l594 -1434h-41l-184 451h-778l-185 -451h-41l594 1434h41zM1044 492l-368 890l-369 -890h737zM532 1905l154 -246h-41l-164 246h51z" />
    <glyph glyph-name="Aacute" unicode="&#xc1;" horiz-adv-x="1351" 
d="M696 1434l594 -1434h-41l-184 451h-778l-185 -451h-41l594 1434h41zM1044 492l-368 890l-369 -890h737zM666 1638l153 246h51l-163 -246h-41z" />
    <glyph glyph-name="Acircumflex" unicode="&#xc2;" horiz-adv-x="1351" 
d="M696 1434l594 -1434h-41l-184 451h-778l-185 -451h-41l594 1434h41zM1044 492l-368 890l-369 -890h737zM440 1638l215 246h41l215 -246h-51l-184 215l-184 -215h-52z" />
    <glyph glyph-name="Atilde" unicode="&#xc3;" horiz-adv-x="1351" 
d="M696 1434l594 -1434h-41l-184 451h-778l-185 -451h-41l594 1434h41zM1044 492l-368 890l-369 -890h737zM819 1638c-42 0 -87 27.333 -135 82s-88.333 82 -121 82c-61.333 0 -92 -54.667 -92 -164h-41c0 68 12.667 119.167 38 153.5s57 51.5 95 51.5
c42 0 87 -27.333 135 -82s88.333 -82 121 -82c61.333 0 92 54.667 92 164h41c0 -68 -12.667 -119.167 -38 -153.5s-57 -51.5 -95 -51.5z" />
    <glyph glyph-name="Adieresis" unicode="&#xc4;" horiz-adv-x="1351" 
d="M696 1434l594 -1434h-41l-184 451h-778l-185 -451h-41l594 1434h41zM1044 492l-368 890l-369 -890h737zM471 1761.5c0 11 4.16699 20.5 12.5 28.5s17.833 12 28.5 12s20.167 -4 28.5 -12s12.5 -17.5 12.5 -28.5s-4.16699 -20.667 -12.5 -29s-17.833 -12.5 -28.5 -12.5
s-20.167 4.16699 -28.5 12.5s-12.5 18 -12.5 29zM799 1761.5c0 11 4 20.5 12 28.5s17.5 12 28.5 12s20.667 -4 29 -12s12.5 -17.5 12.5 -28.5s-4.16699 -20.667 -12.5 -29s-18 -12.5 -29 -12.5s-20.5 4.16699 -28.5 12.5s-12 18 -12 29z" />
    <glyph glyph-name="Aring" unicode="&#xc5;" horiz-adv-x="1351" 
d="M696 1434l594 -1434h-41l-184 451h-778l-185 -451h-41l594 1434h41zM1044 492l-368 890l-369 -890h737zM819 1761.5c0 41 -13.667 75.167 -41 102.5s-61.5 41 -102.5 41s-75.167 -13.667 -102.5 -41s-41 -61.5 -41 -102.5s13.667 -75.167 41 -102.5s61.5 -41 102.5 -41
s75.167 13.667 102.5 41s41 61.5 41 102.5zM492 1761c0 52 17.667 95.833 53 131.5s79 53.5 131 53.5s95.667 -17.833 131 -53.5s53 -79.5 53 -131.5s-17.667 -95.667 -53 -131s-79 -53 -131 -53s-95.667 17.667 -131 53s-53 79 -53 131z" />
    <glyph glyph-name="AE" unicode="&#xc6;" horiz-adv-x="1904" 
d="M-41 0l799 1434h1044v-41h-778v-625h614v-41h-614v-686h799v-41h-840v471h-717l-266 -471h-41zM778 1393l-491 -881h696v881h-205z" />
    <glyph glyph-name="Ccedilla" unicode="&#xc7;" horiz-adv-x="1525" 
d="M1393 317l29.9961 -19.999c-5.33301 -8 -13.166 -19.167 -23.499 -33.5s-33.5 -40 -69.5 -77s-74.833 -69.167 -116.5 -96.5s-96.334 -52.5 -164.001 -75.5s-137.5 -34.5 -209.5 -34.5l-52 -103c13.333 6.66699 34 10 62 10c40.667 0 74.667 -13.667 102 -41
s41 -61.333 41 -102c0 -42 -16.333 -78.167 -49 -108.5s-74.334 -45.5 -125.001 -45.5c-24.667 0 -48.834 4.16699 -72.501 12.5s-41.834 16.5 -54.501 24.5l-16 15l20 30c34 -27.333 75 -41 123 -41c39.333 0 71.333 11 96 33s37 48.667 37 80
c0 75.333 -37.333 113 -112 113c-12 0 -24 -1.83301 -36 -5.5s-20.667 -7.5 -26 -11.5l-10 -4l-20 21l61 123c-191.333 10.667 -353.5 86.667 -486.5 228s-199.5 311 -199.5 509c0 203.333 70.667 377 212 521s309.666 216 504.999 216
c72.667 0 142.334 -10.833 209.001 -32.5s121.834 -48.334 165.501 -80.001s81.834 -62.834 114.501 -93.501s56.667 -57 72 -79l22 -32l-30 -21c-5.33301 8 -12.833 18.5 -22.5 31.5s-31.667 36.667 -66 71s-71.166 64.833 -110.499 91.5s-91.166 50.5 -155.499 71.5
s-130.5 31.5 -198.5 31.5c-186 0 -345.167 -67.5 -477.5 -202.5s-198.5 -299.5 -198.5 -493.5s66.167 -358.667 198.5 -494s291.5 -203 477.5 -203c68 0 133.833 10.333 197.5 31s115.834 45.334 156.501 74.001s76.834 57.667 108.501 87s54.834 54.333 69.501 75z" />
    <glyph glyph-name="Egrave" unicode="&#xc8;" horiz-adv-x="1280" 
d="M287 41h911v-41h-952v1434h932v-41h-891v-625h727v-41h-727v-686zM594 1905l154 -246h-41l-164 246h51z" />
    <glyph glyph-name="Eacute" unicode="&#xc9;" horiz-adv-x="1280" 
d="M287 41h911v-41h-952v1434h932v-41h-891v-625h727v-41h-727v-686zM676 1638l153 246h52l-164 -246h-41z" />
    <glyph glyph-name="Ecircumflex" unicode="&#xca;" horiz-adv-x="1280" 
d="M287 41h911v-41h-952v1434h932v-41h-891v-625h727v-41h-727v-686zM471 1638l215 246h41l215 -246h-51l-184 215l-185 -215h-51z" />
    <glyph glyph-name="Edieresis" unicode="&#xcb;" horiz-adv-x="1280" 
d="M287 41h911v-41h-952v1434h932v-41h-891v-625h727v-41h-727v-686zM502 1761.5c0 11 4.33301 20.5 13 28.5s17.834 12 27.501 12s19 -4 28 -12s13.5 -17.5 13.5 -28.5s-4.5 -20.667 -13.5 -29s-18.333 -12.5 -28 -12.5s-18.834 4.16699 -27.501 12.5s-13 18 -13 29z
M829 1761.5c0 11 4.5 20.5 13.5 28.5s18.333 12 28 12s18.834 -4 27.501 -12s13 -17.5 13 -28.5s-4.33301 -20.667 -13 -29s-17.834 -12.5 -27.501 -12.5s-19 4.16699 -28 12.5s-13.5 18 -13.5 29z" />
    <glyph glyph-name="Igrave" unicode="&#xcc;" horiz-adv-x="532" 
d="M246 0v1434h41v-1434h-41zM133 1905l154 -246h-41l-164 246h51z" />
    <glyph glyph-name="Iacute" unicode="&#xcd;" horiz-adv-x="532" 
d="M246 0v1434h41v-1434h-41zM246 1638l153 246h52l-164 -246h-41z" />
    <glyph glyph-name="Icircumflex" unicode="&#xce;" horiz-adv-x="532" 
d="M246 0v1434h41v-1434h-41zM31 1638l215 246h41l215 -246h-51l-185 215l-184 -215h-51z" />
    <glyph glyph-name="Idieresis" unicode="&#xcf;" horiz-adv-x="532" 
d="M246 0v1434h41v-1434h-41zM61 1761.5c0 11 4.16699 20.5 12.5 28.5s18 12 29 12s20.5 -4 28.5 -12s12 -17.5 12 -28.5s-4 -20.667 -12 -29s-17.5 -12.5 -28.5 -12.5s-20.667 4.16699 -29 12.5s-12.5 18 -12.5 29zM389 1761.5c0 11 4.16699 20.5 12.5 28.5
s17.833 12 28.5 12s20.167 -4 28.5 -12s12.5 -17.5 12.5 -28.5s-4.16699 -20.667 -12.5 -29s-17.833 -12.5 -28.5 -12.5s-20.167 4.16699 -28.5 12.5s-12.5 18 -12.5 29z" />
    <glyph glyph-name="Eth" unicode="&#xd0;" horiz-adv-x="1525" 
d="M61 696v41h215v697h379c218.667 0 398 -68 538 -204s210 -307 210 -513s-70 -377 -210 -513s-319.333 -204 -538 -204h-379v696h-215zM317 41h338c208.667 0 378.667 63.5 510 190.5s197 288.833 197 485.5s-65.5 358.5 -196.5 485.5s-301.167 190.5 -510.5 190.5h-338
v-656h379v-41h-379v-655z" />
    <glyph glyph-name="Ntilde" unicode="&#xd1;" horiz-adv-x="1587" 
d="M1300 1434h41v-1434h-30l-1024 1352v-1352h-41v1434h30l1024 -1352v1352zM932 1638c-42 0 -87 27.333 -135 82s-88.333 82 -121 82c-61.333 0 -92 -54.667 -92 -164h-41c0 68 12.5 119.167 37.5 153.5s56.833 51.5 95.5 51.5c42 0 87 -27.333 135 -82s88.333 -82 121 -82
c61.333 0 92 54.667 92 164h41c0 -68 -12.667 -119.167 -38 -153.5s-57 -51.5 -95 -51.5z" />
    <glyph glyph-name="Ograve" unicode="&#xd2;" horiz-adv-x="1679" 
d="M1516 717c0 194 -66.333 358.5 -199 493.5s-291.834 202.5 -477.501 202.5s-344.667 -67.5 -477 -202.5s-198.5 -299.5 -198.5 -493.5s66.167 -358.667 198.5 -494s291.333 -203 477 -203s344.834 67.667 477.501 203s199 300 199 494zM1556 717
c0 -203.333 -70.5 -377 -211.5 -521s-309.167 -216 -504.5 -216s-363.666 72 -504.999 216s-212 317.667 -212 521s70.667 377 212 521s309.666 216 504.999 216s363.5 -72 504.5 -216s211.5 -317.667 211.5 -521zM727 1905l154 -246h-41l-164 246h51z" />
    <glyph glyph-name="Oacute" unicode="&#xd3;" horiz-adv-x="1679" 
d="M1516 717c0 194 -66.333 358.5 -199 493.5s-291.834 202.5 -477.501 202.5s-344.667 -67.5 -477 -202.5s-198.5 -299.5 -198.5 -493.5s66.167 -358.667 198.5 -494s291.333 -203 477 -203s344.834 67.667 477.501 203s199 300 199 494zM1556 717
c0 -203.333 -70.5 -377 -211.5 -521s-309.167 -216 -504.5 -216s-363.666 72 -504.999 216s-212 317.667 -212 521s70.667 377 212 521s309.666 216 504.999 216s363.5 -72 504.5 -216s211.5 -317.667 211.5 -521zM840 1638l153 246h51l-163 -246h-41z" />
    <glyph glyph-name="Ocircumflex" unicode="&#xd4;" horiz-adv-x="1679" 
d="M1516 717c0 194 -66.333 358.5 -199 493.5s-291.834 202.5 -477.501 202.5s-344.667 -67.5 -477 -202.5s-198.5 -299.5 -198.5 -493.5s66.167 -358.667 198.5 -494s291.333 -203 477 -203s344.834 67.667 477.501 203s199 300 199 494zM1556 717
c0 -203.333 -70.5 -377 -211.5 -521s-309.167 -216 -504.5 -216s-363.666 72 -504.999 216s-212 317.667 -212 521s70.667 377 212 521s309.666 216 504.999 216s363.5 -72 504.5 -216s211.5 -317.667 211.5 -521zM604 1638l215 246h41l215 -246h-51l-184 215l-185 -215h-51
z" />
    <glyph glyph-name="Otilde" unicode="&#xd5;" horiz-adv-x="1679" 
d="M1516 717c0 194 -66.333 358.5 -199 493.5s-291.834 202.5 -477.501 202.5s-344.667 -67.5 -477 -202.5s-198.5 -299.5 -198.5 -493.5s66.167 -358.667 198.5 -494s291.333 -203 477 -203s344.834 67.667 477.501 203s199 300 199 494zM1556 717
c0 -203.333 -70.5 -377 -211.5 -521s-309.167 -216 -504.5 -216s-363.666 72 -504.999 216s-212 317.667 -212 521s70.667 377 212 521s309.666 216 504.999 216s363.5 -72 504.5 -216s211.5 -317.667 211.5 -521zM969 1638c-42 0 -87 27.333 -135 82s-88.333 82 -121 82
c-61.333 0 -92 -54.667 -92 -164h-41c0 68 12.5 119.167 37.5 153.5s56.833 51.5 95.5 51.5c42 0 87 -27.333 135 -82s88.333 -82 121 -82c61.333 0 92 54.667 92 164h41c0 -68 -12.667 -119.167 -38 -153.5s-57 -51.5 -95 -51.5z" />
    <glyph glyph-name="Odieresis" unicode="&#xd6;" horiz-adv-x="1679" 
d="M1516 717c0 194 -66.333 358.5 -199 493.5s-291.834 202.5 -477.501 202.5s-344.667 -67.5 -477 -202.5s-198.5 -299.5 -198.5 -493.5s66.167 -358.667 198.5 -494s291.333 -203 477 -203s344.834 67.667 477.501 203s199 300 199 494zM1556 717
c0 -203.333 -70.5 -377 -211.5 -521s-309.167 -216 -504.5 -216s-363.666 72 -504.999 216s-212 317.667 -212 521s70.667 377 212 521s309.666 216 504.999 216s363.5 -72 504.5 -216s211.5 -317.667 211.5 -521zM635 1761.5c0 11 4 20.5 12 28.5s17.5 12 28.5 12
s20.667 -4 29 -12s12.5 -17.5 12.5 -28.5s-4.16699 -20.667 -12.5 -29s-18 -12.5 -29 -12.5s-20.5 4.16699 -28.5 12.5s-12 18 -12 29zM963 1761.5c0 11 4 20.5 12 28.5s17.5 12 28.5 12s20.5 -4 28.5 -12s12 -17.5 12 -28.5s-4 -20.667 -12 -29s-17.5 -12.5 -28.5 -12.5
s-20.5 4.16699 -28.5 12.5s-12 18 -12 29z" />
    <glyph glyph-name="multiply" unicode="&#xd7;" horiz-adv-x="880" 
d="M758 932l-287 -297l287 -297l-31 -31l-287 297l-286 -297l-31 31l287 297l-287 297l31 31l286 -297l287 297z" />
    <glyph glyph-name="Oslash" unicode="&#xd8;" horiz-adv-x="1679" 
d="M348 236l951.999 993.001c-4 5.33301 -10.667 12.166 -20 20.499s-29 23 -59 44s-61.833 39.667 -95.5 56s-76.334 31 -128.001 44s-104.167 19.5 -157.5 19.5c-186 0 -345.167 -67.5 -477.5 -202.5s-198.5 -299.5 -198.5 -493.5c0 -56 6.5 -110.667 19.5 -164
s28.333 -98.5 46 -135.5s35.334 -69.833 53.001 -98.5s32.834 -49.667 45.501 -63zM1556 717.001c0 -203.333 -70.499 -377.002 -211.499 -521.002s-309.167 -216 -504.5 -216c-87.333 0 -172 16.333 -254 49s-142 65.334 -180 98.001l-58 47l-184 -194l-31 30l184 195
c-5.33301 5.33301 -12.333 13.166 -21 23.499s-24 32.833 -46 67.5s-41.5 70.834 -58.5 108.501s-32.667 84.834 -47 141.501s-21.5 113.667 -21.5 171c0 203.333 70.667 377 212 521s309.666 216 504.999 216c87.333 0 172 -16.333 254 -49s142 -65.334 180 -98.001l57 -47
l185 194l30 -31l-184 -194c5.33301 -5.33301 12.5 -13.166 21.5 -23.499s24.333 -33 46 -68s41 -71.167 58 -108.5s32.667 -84.333 47 -141s21.5 -113.667 21.5 -171zM1331 1198l-952 -993.002c4 -5.33301 10.833 -12.166 20.5 -20.499s29.5 -23 59.5 -44
s61.667 -39.833 95 -56.5s76 -31.5 128 -44.5s104.667 -19.5 158 -19.5c186 0 345.167 67.667 477.5 203s198.5 300 198.5 494c0 56 -6.5 110.667 -19.5 164s-28.5 98.333 -46.5 135s-35.833 69.334 -53.5 98.001s-32.5 50 -44.5 64z" />
    <glyph glyph-name="Ugrave" unicode="&#xd9;" horiz-adv-x="1536" 
d="M768 20c139.333 0 257.833 50.333 355.5 151s146.5 224.667 146.5 372v891h41v-891c0 -157.333 -53 -290.5 -159 -399.5s-234 -163.5 -384 -163.5s-278 54.5 -384 163.5s-159 242.167 -159 399.5v891h41v-891c0 -147.333 48.833 -271.333 146.5 -372
s216.167 -151 355.5 -151zM645 1905l154 -246h-41l-164 246h51z" />
    <glyph glyph-name="Uacute" unicode="&#xda;" horiz-adv-x="1536" 
d="M768 20c139.333 0 257.833 50.333 355.5 151s146.5 224.667 146.5 372v891h41v-891c0 -157.333 -53 -290.5 -159 -399.5s-234 -163.5 -384 -163.5s-278 54.5 -384 163.5s-159 242.167 -159 399.5v891h41v-891c0 -147.333 48.833 -271.333 146.5 -372
s216.167 -151 355.5 -151zM737 1638l154 246h51l-164 -246h-41z" />
    <glyph glyph-name="Ucircumflex" unicode="&#xdb;" horiz-adv-x="1536" 
d="M768 20c139.333 0 257.833 50.333 355.5 151s146.5 224.667 146.5 372v891h41v-891c0 -157.333 -53 -290.5 -159 -399.5s-234 -163.5 -384 -163.5s-278 54.5 -384 163.5s-159 242.167 -159 399.5v891h41v-891c0 -147.333 48.833 -271.333 146.5 -372
s216.167 -151 355.5 -151zM532 1638l216 246h40l216 -246h-52l-184 215l-184 -215h-52z" />
    <glyph glyph-name="Udieresis" unicode="&#xdc;" horiz-adv-x="1536" 
d="M768 20c139.333 0 257.833 50.333 355.5 151s146.5 224.667 146.5 372v891h41v-891c0 -157.333 -53 -290.5 -159 -399.5s-234 -163.5 -384 -163.5s-278 54.5 -384 163.5s-159 242.167 -159 399.5v891h41v-891c0 -147.333 48.833 -271.333 146.5 -372
s216.167 -151 355.5 -151zM563 1761.5c0 11 4.5 20.5 13.5 28.5s18.167 12 27.5 12s18.5 -4 27.5 -12s13.5 -17.5 13.5 -28.5s-4.5 -20.667 -13.5 -29s-18.167 -12.5 -27.5 -12.5s-18.5 4.16699 -27.5 12.5s-13.5 18 -13.5 29zM891 1761.5c0 11 4.5 20.5 13.5 28.5
s18.167 12 27.5 12s18.5 -4 27.5 -12s13.5 -17.5 13.5 -28.5s-4.5 -20.667 -13.5 -29s-18.167 -12.5 -27.5 -12.5s-18.5 4.16699 -27.5 12.5s-13.5 18 -13.5 29z" />
    <glyph glyph-name="Yacute" unicode="&#xdd;" horiz-adv-x="1228" 
d="M113 1434l501 -891l502 891h51l-532 -932v-502h-41v502l-533 932h52zM604 1638l154 246h51l-164 -246h-41z" />
    <glyph glyph-name="Thorn" unicode="&#xde;" horiz-adv-x="1300" 
d="M287 1198v-922.001h358c142 0 259.5 44.5 352.5 133.5s139.5 198.333 139.5 328s-46.5 238.834 -139.5 327.501s-210.5 133 -352.5 133h-358zM287 1239l358 -0.000976562c151.333 0 278 -48.833 380 -146.5s153 -216.167 153 -355.5s-51 -257.666 -153 -354.999
s-228.667 -146 -380 -146h-358v-277h-41v1516h41v-236z" />
    <glyph glyph-name="germandbls" unicode="&#xdf;" horiz-adv-x="1167" 
d="M707 788c9.33301 -1.33301 21.165 -4.33105 35.498 -8.99805s40.333 -16.834 78 -36.501s70.834 -42.5 99.501 -68.5s54.834 -63.667 78.501 -113s35.5 -103.333 35.5 -162c0 -109.333 -41 -203.166 -123 -281.499s-181 -117.5 -297 -117.5h-61v41h61
c106.667 0 196.5 35.167 269.5 105.5s109.5 154.666 109.5 252.999s-36.5 182.666 -109.5 252.999s-162.833 105.5 -269.5 105.5h-61v41h10c91.333 0 168.833 30.333 232.5 91s95.5 132.667 95.5 216s-31.833 155.333 -95.5 216s-141.167 91 -232.5 91
s-168.666 -30.333 -231.999 -91s-95 -132.667 -95 -216v-1106h-41v1106c0 92.667 36.167 173.834 108.5 243.501s159 104.5 260 104.5s187.667 -34.833 260 -104.5s108.5 -150.834 108.5 -243.501c0 -44 -7.83301 -85 -23.5 -123s-34.5 -68.333 -56.5 -91
s-43.833 -42.167 -65.5 -58.5s-40.834 -27.833 -57.501 -34.5z" />
    <glyph glyph-name="agrave" unicode="&#xe0;" horiz-adv-x="1034" 
d="M778 604l0.00585938 31c0 95.333 -29.333 173.833 -88 235.5s-131.667 92.5 -219 92.5c-57.333 0 -110.833 -13 -160.5 -39s-84.834 -51.333 -105.501 -76l-31 -39l-31 31c2.66699 4 7.16699 9.66699 13.5 17s19.666 20.666 39.999 39.999s42.166 36.166 65.499 50.499
s54.166 27.333 92.499 39s77.166 17.5 116.499 17.5c98 0 180.5 -34.833 247.5 -104.5s100.5 -157.834 100.5 -264.501v-635h-41v236c-2.66699 -6.66699 -6.33398 -16 -11.001 -28s-17 -32.667 -37 -62s-42.167 -55.166 -66.5 -77.499s-59.5 -42.666 -105.5 -60.999
s-95.333 -27.5 -148 -27.5c-94 0 -172.167 27.5 -234.5 82.5s-93.5 119.5 -93.5 193.5c0 72.667 24.833 132.834 74.5 180.501s120.5 79.5 212.5 95.5zM410.006 20c104 0 191.333 37.001 262 111.001s106 167 106 279v153l-409 -71
c-164 -28.667 -246 -107.334 -246 -236.001c0 -64 26.667 -119.333 80 -166s122.333 -70 207 -70zM369.006 1434l153 -246h-41l-164 246h52z" />
    <glyph glyph-name="aacute" unicode="&#xe1;" horiz-adv-x="1034" 
d="M778 604l0.00585938 31c0 95.333 -29.333 173.833 -88 235.5s-131.667 92.5 -219 92.5c-57.333 0 -110.833 -13 -160.5 -39s-84.834 -51.333 -105.501 -76l-31 -39l-31 31c2.66699 4 7.16699 9.66699 13.5 17s19.666 20.666 39.999 39.999s42.166 36.166 65.499 50.499
s54.166 27.333 92.499 39s77.166 17.5 116.499 17.5c98 0 180.5 -34.833 247.5 -104.5s100.5 -157.834 100.5 -264.501v-635h-41v236c-2.66699 -6.66699 -6.33398 -16 -11.001 -28s-17 -32.667 -37 -62s-42.167 -55.166 -66.5 -77.499s-59.5 -42.666 -105.5 -60.999
s-95.333 -27.5 -148 -27.5c-94 0 -172.167 27.5 -234.5 82.5s-93.5 119.5 -93.5 193.5c0 72.667 24.833 132.834 74.5 180.501s120.5 79.5 212.5 95.5zM410.006 20c104 0 191.333 37.001 262 111.001s106 167 106 279v153l-409 -71
c-164 -28.667 -246 -107.334 -246 -236.001c0 -64 26.667 -119.333 80 -166s122.333 -70 207 -70zM471.006 1167l154 246h51l-164 -246h-41z" />
    <glyph glyph-name="acircumflex" unicode="&#xe2;" horiz-adv-x="1034" 
d="M778 604l0.00585938 31c0 95.333 -29.333 173.833 -88 235.5s-131.667 92.5 -219 92.5c-57.333 0 -110.833 -13 -160.5 -39s-84.834 -51.333 -105.501 -76l-31 -39l-31 31c2.66699 4 7.16699 9.66699 13.5 17s19.666 20.666 39.999 39.999s42.166 36.166 65.499 50.499
s54.166 27.333 92.499 39s77.166 17.5 116.499 17.5c98 0 180.5 -34.833 247.5 -104.5s100.5 -157.834 100.5 -264.501v-635h-41v236c-2.66699 -6.66699 -6.33398 -16 -11.001 -28s-17 -32.667 -37 -62s-42.167 -55.166 -66.5 -77.499s-59.5 -42.666 -105.5 -60.999
s-95.333 -27.5 -148 -27.5c-94 0 -172.167 27.5 -234.5 82.5s-93.5 119.5 -93.5 193.5c0 72.667 24.833 132.834 74.5 180.501s120.5 79.5 212.5 95.5zM410.006 20c104 0 191.333 37.001 262 111.001s106 167 106 279v153l-409 -71
c-164 -28.667 -246 -107.334 -246 -236.001c0 -64 26.667 -119.333 80 -166s122.333 -70 207 -70zM266.006 1167l215 246h41l215 -246h-51l-184 215l-185 -215h-51z" />
    <glyph glyph-name="atilde" unicode="&#xe3;" horiz-adv-x="1034" 
d="M778 604l0.00585938 31c0 95.333 -29.333 173.833 -88 235.5s-131.667 92.5 -219 92.5c-57.333 0 -110.833 -13 -160.5 -39s-84.834 -51.333 -105.501 -76l-31 -39l-31 31c2.66699 4 7.16699 9.66699 13.5 17s19.666 20.666 39.999 39.999s42.166 36.166 65.499 50.499
s54.166 27.333 92.499 39s77.166 17.5 116.499 17.5c98 0 180.5 -34.833 247.5 -104.5s100.5 -157.834 100.5 -264.501v-635h-41v236c-2.66699 -6.66699 -6.33398 -16 -11.001 -28s-17 -32.667 -37 -62s-42.167 -55.166 -66.5 -77.499s-59.5 -42.666 -105.5 -60.999
s-95.333 -27.5 -148 -27.5c-94 0 -172.167 27.5 -234.5 82.5s-93.5 119.5 -93.5 193.5c0 72.667 24.833 132.834 74.5 180.501s120.5 79.5 212.5 95.5zM410.006 20c104 0 191.333 37.001 262 111.001s106 167 106 279v153l-409 -71
c-164 -28.667 -246 -107.334 -246 -236.001c0 -64 26.667 -119.333 80 -166s122.333 -70 207 -70zM645.006 1167c-42 0 -87 27.333 -135 82s-88.333 82 -121 82c-61.333 0 -92 -54.667 -92 -164h-41c0 68 12.667 119.167 38 153.5s57 51.5 95 51.5c42 0 87 -27.333 135 -82
s88.333 -82 121 -82c61.333 0 92 54.667 92 164h41c0 -68 -12.667 -119.167 -38 -153.5s-57 -51.5 -95 -51.5z" />
    <glyph glyph-name="adieresis" unicode="&#xe4;" horiz-adv-x="1034" 
d="M778 604l0.00585938 31c0 95.333 -29.333 173.833 -88 235.5s-131.667 92.5 -219 92.5c-57.333 0 -110.833 -13 -160.5 -39s-84.834 -51.333 -105.501 -76l-31 -39l-31 31c2.66699 4 7.16699 9.66699 13.5 17s19.666 20.666 39.999 39.999s42.166 36.166 65.499 50.499
s54.166 27.333 92.499 39s77.166 17.5 116.499 17.5c98 0 180.5 -34.833 247.5 -104.5s100.5 -157.834 100.5 -264.501v-635h-41v236c-2.66699 -6.66699 -6.33398 -16 -11.001 -28s-17 -32.667 -37 -62s-42.167 -55.166 -66.5 -77.499s-59.5 -42.666 -105.5 -60.999
s-95.333 -27.5 -148 -27.5c-94 0 -172.167 27.5 -234.5 82.5s-93.5 119.5 -93.5 193.5c0 72.667 24.833 132.834 74.5 180.501s120.5 79.5 212.5 95.5zM410.006 20c104 0 191.333 37.001 262 111.001s106 167 106 279v153l-409 -71
c-164 -28.667 -246 -107.334 -246 -236.001c0 -64 26.667 -119.333 80 -166s122.333 -70 207 -70zM297.006 1290.5c0 11 4.5 20.5 13.5 28.5s18.167 12 27.5 12s18.5 -4 27.5 -12s13.5 -17.5 13.5 -28.5s-4.5 -20.667 -13.5 -29s-18.167 -12.5 -27.5 -12.5
s-18.5 4.16699 -27.5 12.5s-13.5 18 -13.5 29zM625.006 1290.5c0 11 4.33301 20.5 13 28.5s17.834 12 27.501 12s19 -4 28 -12s13.5 -17.5 13.5 -28.5s-4.5 -20.667 -13.5 -29s-18.333 -12.5 -28 -12.5s-18.834 4.16699 -27.501 12.5s-13 18 -13 29z" />
    <glyph glyph-name="aring" unicode="&#xe5;" horiz-adv-x="1034" 
d="M778 604l0.00585938 31c0 95.333 -29.333 173.833 -88 235.5s-131.667 92.5 -219 92.5c-57.333 0 -110.833 -13 -160.5 -39s-84.834 -51.333 -105.501 -76l-31 -39l-31 31c2.66699 4 7.16699 9.66699 13.5 17s19.666 20.666 39.999 39.999s42.166 36.166 65.499 50.499
s54.166 27.333 92.499 39s77.166 17.5 116.499 17.5c98 0 180.5 -34.833 247.5 -104.5s100.5 -157.834 100.5 -264.501v-635h-41v236c-2.66699 -6.66699 -6.33398 -16 -11.001 -28s-17 -32.667 -37 -62s-42.167 -55.166 -66.5 -77.499s-59.5 -42.666 -105.5 -60.999
s-95.333 -27.5 -148 -27.5c-94 0 -172.167 27.5 -234.5 82.5s-93.5 119.5 -93.5 193.5c0 72.667 24.833 132.834 74.5 180.501s120.5 79.5 212.5 95.5zM410.006 20c104 0 191.333 37.001 262 111.001s106 167 106 279v153l-409 -71
c-164 -28.667 -246 -107.334 -246 -236.001c0 -64 26.667 -119.333 80 -166s122.333 -70 207 -70zM645.006 1310.5c0 41 -13.667 75.167 -41 102.5s-61.5 41 -102.5 41s-75.167 -13.667 -102.5 -41s-41 -61.5 -41 -102.5s13.667 -75.167 41 -102.5s61.5 -41 102.5 -41
s75.167 13.667 102.5 41s41 61.5 41 102.5zM317.006 1311c0 52 18.167 95.667 54.5 131s79.833 53 130.5 53s94 -17.667 130 -53s54 -79 54 -131s-18 -95.833 -54 -131.5s-79.333 -53.5 -130 -53.5s-94.167 17.833 -130.5 53.5s-54.5 79.5 -54.5 131.5z" />
    <glyph glyph-name="ae" unicode="&#xe6;" horiz-adv-x="1730" 
d="M1618 492l-798.992 0.00488281c5.33301 -140.667 46 -254.5 122 -341.5s168.667 -130.5 278 -130.5c39.333 0 77.833 6.5 115.5 19.5s68.667 28.5 93 46.5s45.833 35.833 64.5 53.5s32 32.5 40 44.5l14 21l31 -21c-2.66699 -5.33301 -7.5 -12.833 -14.5 -22.5
s-21.667 -26 -44 -49s-46.166 -43.333 -71.499 -61s-58.833 -34 -100.5 -49s-84.167 -22.5 -127.5 -22.5c-58.667 0 -113.334 11.167 -164.001 33.5s-90.334 49.5 -119.001 81.5s-53.334 64.167 -74.001 96.5s-35 59.833 -43 82.5l-10 33
c-1.33301 -9.33301 -4.33301 -21.166 -9 -35.499s-17 -40.333 -37 -78s-43.667 -70.834 -71 -99.501s-65.833 -54.834 -115.5 -78.501s-105.167 -35.5 -166.5 -35.5c-94 0 -172.167 27.5 -234.5 82.5s-93.5 119.5 -93.5 193.5c0 79.333 29 145.166 87 197.499
s134.667 78.5 230 78.5h379v103c0 95.333 -29.333 173.833 -88 235.5s-131.667 92.5 -219 92.5c-57.333 0 -110.833 -13 -160.5 -39s-84.834 -51.333 -105.501 -76l-31 -39l-31 31c2.66699 4 7.16699 9.66699 13.5 17s19.666 20.666 39.999 39.999
s42.166 36.166 65.499 50.499s54.166 27.333 92.499 39s77.166 17.5 116.499 17.5c56 0 105.5 -10.667 148.5 -32s76.167 -47 99.5 -77s42.166 -60 56.499 -90s23.5 -55.333 27.5 -76l6 -33c2.66699 8 7 19 13 33s20.667 38.667 44 74s48.666 66.666 75.999 93.999
s63.833 52 109.5 74s94.5 33 146.5 33c106.667 0 203.334 -48.5 290.001 -145.5s130 -212.5 130 -346.5v-20zM410.008 20.0049c104 0 191.334 37 262.001 111s106 167 106 279v82h-379c-84.667 0 -151.834 -22.333 -201.501 -67s-74.5 -101 -74.5 -169
c0 -64 26.667 -119.333 80 -166s122.333 -70 207 -70zM1198.01 963.005c-98 0 -185.667 -43.833 -263 -131.5s-116 -187.5 -116 -299.5h758c-5.33301 120 -46.333 221.833 -123 305.5s-162 125.5 -256 125.5z" />
    <glyph glyph-name="ccedilla" unicode="&#xe7;" horiz-adv-x="1064" 
d="M154 491.5c0 -131 43.0029 -242.33 129.003 -333.997s186.333 -137.5 301 -137.5c66.667 0 128 15.5 184 46.5s95.667 62.167 119 93.5l35 45l30 -21c-2.66699 -5.33301 -7.33398 -12.833 -14.001 -22.5s-21.667 -26 -45 -49s-48 -43.333 -74 -61s-60.167 -34 -102.5 -49
s-86.5 -22.5 -132.5 -22.5l-52 -103c13.333 6.66699 34 10 62 10c40.667 0 74.667 -13.667 102 -41s41 -61.333 41 -102c0 -42 -16.333 -78.167 -49 -108.5s-74.334 -45.5 -125.001 -45.5c-24.667 0 -48.834 4.16699 -72.501 12.5s-41.167 16.5 -52.5 24.5l-18 15l20 30
c34 -27.333 75 -41 123 -41c39.333 0 71.333 11 96 33s37 48.667 37 80c0 75.333 -37.333 113 -112 113c-12 0 -24 -1.83301 -36 -5.5s-21.333 -7.5 -28 -11.5l-8 -4l-20 21l61 123c-116 5.33301 -218.333 57.166 -307 155.499s-133 217.166 -133 356.499
c0 140.667 47 261.167 141 361.5s204 150.5 330 150.5c46.667 0 90.667 -7.16699 132 -21.5s76 -31.5 104 -51.5s52.333 -39.833 73 -59.5s35.667 -37.167 45 -52.5l14 -20l-30 -21c-2.66699 5.33301 -7.16699 12.166 -13.5 20.499s-20 23 -41 44s-43.5 39.833 -67.5 56.5
s-55.5 31.5 -94.5 44.5s-79.5 19.5 -121.5 19.5c-114.667 0 -215 -45.833 -301 -137.5s-129 -203 -129 -334z" />
    <glyph glyph-name="egrave" unicode="&#xe8;" horiz-adv-x="1126" 
d="M1014 471h-860c5.33301 -126.667 50 -233.5 134 -320.5s182.667 -130.5 296 -130.5c66.667 0 128 15.5 184 46.5s95.667 62.167 119 93.5l35 45l30 -21c-2.66699 -5.33301 -7.33398 -12.833 -14.001 -22.5s-21.667 -26 -45 -49s-48 -43.333 -74 -61
s-60.167 -34 -102.5 -49s-86.5 -22.5 -132.5 -22.5c-125.333 0 -235.166 50.167 -329.499 150.5s-141.5 220.833 -141.5 361.5c0 144.667 45 266.167 135 364.5s195 147.5 315 147.5s225.167 -49.167 315.5 -147.5s135.5 -219.833 135.5 -364.5v-21zM563 963
c-109.333 0 -204.833 -43.833 -286.5 -131.5s-122.5 -194.167 -122.5 -319.5h819c0 125.333 -41 231.833 -123 319.5s-177.667 131.5 -287 131.5zM451 1434l153 -246h-41l-164 246h52z" />
    <glyph glyph-name="eacute" unicode="&#xe9;" horiz-adv-x="1126" 
d="M1014 471h-860c5.33301 -126.667 50 -233.5 134 -320.5s182.667 -130.5 296 -130.5c66.667 0 128 15.5 184 46.5s95.667 62.167 119 93.5l35 45l30 -21c-2.66699 -5.33301 -7.33398 -12.833 -14.001 -22.5s-21.667 -26 -45 -49s-48 -43.333 -74 -61
s-60.167 -34 -102.5 -49s-86.5 -22.5 -132.5 -22.5c-125.333 0 -235.166 50.167 -329.499 150.5s-141.5 220.833 -141.5 361.5c0 144.667 45 266.167 135 364.5s195 147.5 315 147.5s225.167 -49.167 315.5 -147.5s135.5 -219.833 135.5 -364.5v-21zM563 963
c-109.333 0 -204.833 -43.833 -286.5 -131.5s-122.5 -194.167 -122.5 -319.5h819c0 125.333 -41 231.833 -123 319.5s-177.667 131.5 -287 131.5zM543 1167l153 246h52l-164 -246h-41z" />
    <glyph glyph-name="ecircumflex" unicode="&#xea;" horiz-adv-x="1126" 
d="M1014 471h-860c5.33301 -126.667 50 -233.5 134 -320.5s182.667 -130.5 296 -130.5c66.667 0 128 15.5 184 46.5s95.667 62.167 119 93.5l35 45l30 -21c-2.66699 -5.33301 -7.33398 -12.833 -14.001 -22.5s-21.667 -26 -45 -49s-48 -43.333 -74 -61
s-60.167 -34 -102.5 -49s-86.5 -22.5 -132.5 -22.5c-125.333 0 -235.166 50.167 -329.499 150.5s-141.5 220.833 -141.5 361.5c0 144.667 45 266.167 135 364.5s195 147.5 315 147.5s225.167 -49.167 315.5 -147.5s135.5 -219.833 135.5 -364.5v-21zM563 963
c-109.333 0 -204.833 -43.833 -286.5 -131.5s-122.5 -194.167 -122.5 -319.5h819c0 125.333 -41 231.833 -123 319.5s-177.667 131.5 -287 131.5zM338 1167l215 246h41l215 -246h-51l-185 215l-184 -215h-51z" />
    <glyph glyph-name="edieresis" unicode="&#xeb;" horiz-adv-x="1126" 
d="M1014 471h-860c5.33301 -126.667 50 -233.5 134 -320.5s182.667 -130.5 296 -130.5c66.667 0 128 15.5 184 46.5s95.667 62.167 119 93.5l35 45l30 -21c-2.66699 -5.33301 -7.33398 -12.833 -14.001 -22.5s-21.667 -26 -45 -49s-48 -43.333 -74 -61
s-60.167 -34 -102.5 -49s-86.5 -22.5 -132.5 -22.5c-125.333 0 -235.166 50.167 -329.499 150.5s-141.5 220.833 -141.5 361.5c0 144.667 45 266.167 135 364.5s195 147.5 315 147.5s225.167 -49.167 315.5 -147.5s135.5 -219.833 135.5 -364.5v-21zM563 963
c-109.333 0 -204.833 -43.833 -286.5 -131.5s-122.5 -194.167 -122.5 -319.5h819c0 125.333 -41 231.833 -123 319.5s-177.667 131.5 -287 131.5zM369 1290.5c0 11 4 20.5 12 28.5s17.5 12 28.5 12s20.667 -4 29 -12s12.5 -17.5 12.5 -28.5s-4.16699 -20.667 -12.5 -29
s-18 -12.5 -29 -12.5s-20.5 4.16699 -28.5 12.5s-12 18 -12 29zM696 1290.5c0 11 4.16699 20.5 12.5 28.5s18 12 29 12s20.5 -4 28.5 -12s12 -17.5 12 -28.5s-4 -20.667 -12 -29s-17.5 -12.5 -28.5 -12.5s-20.667 4.16699 -29 12.5s-12.5 18 -12.5 29z" />
    <glyph glyph-name="igrave" unicode="&#xec;" horiz-adv-x="450" 
d="M236 983v-983h-41v983h41zM82 1434l154 -246h-41l-164 246h51z" />
    <glyph glyph-name="iacute" unicode="&#xed;" horiz-adv-x="450" 
d="M236 983v-983h-41v983h41zM195 1167l153 246h51l-163 -246h-41z" />
    <glyph glyph-name="icircumflex" unicode="&#xee;" horiz-adv-x="450" 
d="M236 983v-983h-41v983h41zM-20 1167l215 246h41l215 -246h-52l-184 215l-184 -215h-51z" />
    <glyph glyph-name="idieresis" unicode="&#xef;" horiz-adv-x="450" 
d="M236 983v-983h-41v983h41zM10 1290.5c0 11 4.5 20.5 13.5 28.5s18.333 12 28 12s18.834 -4 27.501 -12s13 -17.5 13 -28.5s-4.33301 -20.667 -13 -29s-17.834 -12.5 -27.501 -12.5s-19 4.16699 -28 12.5s-13.5 18 -13.5 29zM338 1290.5c0 11 4.5 20.5 13.5 28.5
s18.167 12 27.5 12s18.5 -4 27.5 -12s13.5 -17.5 13.5 -28.5s-4.5 -20.667 -13.5 -29s-18.167 -12.5 -27.5 -12.5s-18.5 4.16699 -27.5 12.5s-13.5 18 -13.5 29z" />
    <glyph glyph-name="eth" unicode="&#xf0;" horiz-adv-x="1157" 
d="M819 1567l-225.001 -164c10.667 -6.66699 25.667 -16.834 45 -30.501s53.166 -45.167 101.499 -94.5s91 -102.666 128 -159.999s70.5 -133 100.5 -227s45 -193 45 -297c0 -191.333 -44.333 -341.5 -133 -450.5s-198 -163.5 -328 -163.5
c-114.667 0 -216.667 47.333 -306 142s-134 207.667 -134 339c0 130 44 242.667 132 338s187.333 143 298 143c62.667 0 120.334 -12 173.001 -36s94.334 -53 125.001 -87s56.5 -68 77.5 -102s35.833 -62.667 44.5 -86l10 -37c0 100 -14 195.333 -42 286
s-61.833 165 -101.5 223s-80.334 109.167 -122.001 153.5s-75.5 76.333 -101.5 96s-40.333 29.5 -43 29.5l-235 -174l-21 31l225 164c-42 27.333 -86.167 51.833 -132.5 73.5s-81.833 37.5 -106.5 47.5l-37 12l20 31c88.667 -27.333 184.334 -75.333 287.001 -144l236 174z
M951.999 461c0 120 -40.167 223.333 -120.5 310s-173.166 130 -278.499 130s-198.166 -43.333 -278.499 -130s-120.5 -190 -120.5 -310s40.167 -223.5 120.5 -310.5s173.166 -130.5 278.499 -130.5s198.166 43.5 278.499 130.5s120.5 190.5 120.5 310.5z" />
    <glyph glyph-name="ntilde" unicode="&#xf1;" horiz-adv-x="1187" 
d="M236 983l-0.00292969 -246.001c2.66699 6.66699 6.33398 16.167 11.001 28.5s16.834 34 36.501 65s41.834 58 66.501 81s59.834 44.167 105.501 63.5s95.167 29 148.5 29c109.333 0 201.5 -39.667 276.5 -119s112.5 -179.666 112.5 -300.999v-584h-41v584
c0 110.667 -33.333 201.5 -100 272.5s-149.334 106.5 -248.001 106.5c-104 0 -191.333 -37.667 -262 -113s-106 -171 -106 -287v-563h-41v983h41zM732.997 1167c-42 0 -87 27.333 -135 82s-88.333 82 -121 82c-61.333 0 -92 -54.667 -92 -164h-41
c0 68 12.667 119.167 38 153.5s57 51.5 95 51.5c42 0 87 -27.333 135 -82s88.333 -82 121 -82c61.333 0 92 54.667 92 164h41c0 -68 -12.667 -119.167 -38 -153.5s-57 -51.5 -95 -51.5z" />
    <glyph glyph-name="ograve" unicode="&#xf2;" horiz-adv-x="1187" 
d="M1014 491.5c0 131 -43 242.333 -129 334s-186.333 137.5 -301 137.5s-215 -45.833 -301 -137.5s-129 -203 -129 -334s43 -242.333 129 -334s186.333 -137.5 301 -137.5s215 45.833 301 137.5s129 203 129 334zM1055 491.5c0 -140.333 -47.167 -260.666 -141.5 -360.999
s-204.333 -150.5 -330 -150.5s-235.5 50.167 -329.5 150.5s-141 220.666 -141 360.999s47 260.833 141 361.5s203.833 151 329.5 151s235.667 -50.333 330 -151s141.5 -221.167 141.5 -361.5zM461 1434l153 -246h-41l-163 246h51z" />
    <glyph glyph-name="oacute" unicode="&#xf3;" horiz-adv-x="1187" 
d="M1014 491.5c0 131 -43 242.333 -129 334s-186.333 137.5 -301 137.5s-215 -45.833 -301 -137.5s-129 -203 -129 -334s43 -242.333 129 -334s186.333 -137.5 301 -137.5s215 45.833 301 137.5s129 203 129 334zM1055 491.5c0 -140.333 -47.167 -260.666 -141.5 -360.999
s-204.333 -150.5 -330 -150.5s-235.5 50.167 -329.5 150.5s-141 220.666 -141 360.999s47 260.833 141 361.5s203.833 151 329.5 151s235.667 -50.333 330 -151s141.5 -221.167 141.5 -361.5zM563 1167l154 246h51l-164 -246h-41z" />
    <glyph glyph-name="ocircumflex" unicode="&#xf4;" horiz-adv-x="1187" 
d="M1014 491.5c0 131 -43 242.333 -129 334s-186.333 137.5 -301 137.5s-215 -45.833 -301 -137.5s-129 -203 -129 -334s43 -242.333 129 -334s186.333 -137.5 301 -137.5s215 45.833 301 137.5s129 203 129 334zM1055 491.5c0 -140.333 -47.167 -260.666 -141.5 -360.999
s-204.333 -150.5 -330 -150.5s-235.5 50.167 -329.5 150.5s-141 220.666 -141 360.999s47 260.833 141 361.5s203.833 151 329.5 151s235.667 -50.333 330 -151s141.5 -221.167 141.5 -361.5zM348 1167l215 246h41l215 -246h-51l-184 215l-185 -215h-51z" />
    <glyph glyph-name="otilde" unicode="&#xf5;" horiz-adv-x="1187" 
d="M1014 491.5c0 131 -43 242.333 -129 334s-186.333 137.5 -301 137.5s-215 -45.833 -301 -137.5s-129 -203 -129 -334s43 -242.333 129 -334s186.333 -137.5 301 -137.5s215 45.833 301 137.5s129 203 129 334zM1055 491.5c0 -140.333 -47.167 -260.666 -141.5 -360.999
s-204.333 -150.5 -330 -150.5s-235.5 50.167 -329.5 150.5s-141 220.666 -141 360.999s47 260.833 141 361.5s203.833 151 329.5 151s235.667 -50.333 330 -151s141.5 -221.167 141.5 -361.5zM713 1167c-42 0 -87 27.333 -135 82s-88.333 82 -121 82
c-61.333 0 -92 -54.667 -92 -164h-41c0 68 12.5 119.167 37.5 153.5s56.833 51.5 95.5 51.5c42 0 87 -27.333 135 -82s88.333 -82 121 -82c61.333 0 92 54.667 92 164h41c0 -68 -12.667 -119.167 -38 -153.5s-57 -51.5 -95 -51.5z" />
    <glyph glyph-name="odieresis" unicode="&#xf6;" horiz-adv-x="1187" 
d="M1014 491.5c0 131 -43 242.333 -129 334s-186.333 137.5 -301 137.5s-215 -45.833 -301 -137.5s-129 -203 -129 -334s43 -242.333 129 -334s186.333 -137.5 301 -137.5s215 45.833 301 137.5s129 203 129 334zM1055 491.5c0 -140.333 -47.167 -260.666 -141.5 -360.999
s-204.333 -150.5 -330 -150.5s-235.5 50.167 -329.5 150.5s-141 220.666 -141 360.999s47 260.833 141 361.5s203.833 151 329.5 151s235.667 -50.333 330 -151s141.5 -221.167 141.5 -361.5zM379 1290.5c0 11 4.5 20.5 13.5 28.5s18.167 12 27.5 12s18.5 -4 27.5 -12
s13.5 -17.5 13.5 -28.5s-4.5 -20.667 -13.5 -29s-18.167 -12.5 -27.5 -12.5s-18.5 4.16699 -27.5 12.5s-13.5 18 -13.5 29zM707 1290.5c0 11 4.33301 20.5 13 28.5s17.834 12 27.501 12s18.834 -4 27.501 -12s13 -17.5 13 -28.5s-4.33301 -20.667 -13 -29
s-17.834 -12.5 -27.501 -12.5s-18.834 4.16699 -27.501 12.5s-13 18 -13 29z" />
    <glyph glyph-name="divide" unicode="&#xf7;" horiz-adv-x="1003" 
d="M901 625v-41h-799v41h799zM461 983c0 10.667 4.33301 20.167 13 28.5s17.834 12.5 27.501 12.5s19 -4.16699 28 -12.5s13.5 -17.833 13.5 -28.5s-4.5 -20.167 -13.5 -28.5s-18.333 -12.5 -28 -12.5s-18.834 4.16699 -27.501 12.5s-13 17.833 -13 28.5zM461 225.5
c0 11 4.33301 20.5 13 28.5s17.834 12 27.501 12s19 -4 28 -12s13.5 -17.5 13.5 -28.5s-4.5 -20.667 -13.5 -29s-18.333 -12.5 -28 -12.5s-18.834 4.16699 -27.501 12.5s-13 18 -13 29z" />
    <glyph glyph-name="oslash" unicode="&#xf8;" horiz-adv-x="1187" 
d="M256 184l625.001 645.001c-8 9.33301 -20 21.666 -36 36.999s-49.833 35.333 -101.5 60s-104.834 37 -159.501 37c-114.667 0 -215 -45.833 -301 -137.5s-129 -202.834 -129 -333.501c0 -54.667 8.5 -107.667 25.5 -159s33.5 -88.666 49.5 -111.999zM1055 492.001
c0 -140.667 -47.1699 -261.168 -141.503 -361.501s-204.166 -150.5 -329.499 -150.5c-57.333 0 -112.666 11.833 -165.999 35.5s-91.666 47.167 -114.999 70.5l-37 37l-153 -154l-31 31l154 154c-2.66699 4 -7.16699 9.33301 -13.5 16s-16.333 21.334 -30 44.001
s-26 46.334 -37 71.001s-20.833 55.667 -29.5 93s-13 75.333 -13 114c0 140.667 47 261.167 141 361.5s204 150.5 330 150.5c57.333 0 112.5 -12 165.5 -36s91.167 -47.667 114.5 -71l37 -37l154 154l30 -31l-153 -154c2.66699 -4 7 -9.33301 13 -16
s15.833 -21.334 29.5 -44.001s26 -46.167 37 -70.5s21 -55.333 30 -93s13.5 -75.5 13.5 -113.5zM910.998 799l-624 -645.001c8 -9.33301 19.833 -21.666 35.5 -36.999s49.5 -35.333 101.5 -60s105.333 -37 160 -37c114.667 0 215 45.833 301 137.5s129 203.167 129 334.5
c0 54.667 -8.5 107.5 -25.5 158.5s-33.833 88.167 -50.5 111.5z" />
    <glyph glyph-name="ugrave" unicode="&#xf9;" 
d="M952 0v246c-2.66699 -6.66699 -6.33398 -16.167 -11.001 -28.5s-17 -34 -37 -65s-42.167 -58 -66.5 -81s-59.333 -44 -105 -63s-95.167 -28.5 -148.5 -28.5c-109.333 0 -201.5 39.5 -276.5 118.5s-112.5 179.167 -112.5 300.5v584h41v-584
c0 -110.667 33.333 -201.5 100 -272.5s149.334 -106.5 248.001 -106.5c104 0 191.333 37.667 262 113s106 171 106 287v563h41v-983h-41zM471 1434l154 -246h-41l-164 246h51z" />
    <glyph glyph-name="uacute" unicode="&#xfa;" 
d="M952 0v246c-2.66699 -6.66699 -6.33398 -16.167 -11.001 -28.5s-17 -34 -37 -65s-42.167 -58 -66.5 -81s-59.333 -44 -105 -63s-95.167 -28.5 -148.5 -28.5c-109.333 0 -201.5 39.5 -276.5 118.5s-112.5 179.167 -112.5 300.5v584h41v-584
c0 -110.667 33.333 -201.5 100 -272.5s149.334 -106.5 248.001 -106.5c104 0 191.333 37.667 262 113s106 171 106 287v563h41v-983h-41zM563 1167l154 246h51l-164 -246h-41z" />
    <glyph glyph-name="ucircumflex" unicode="&#xfb;" 
d="M952 0v246c-2.66699 -6.66699 -6.33398 -16.167 -11.001 -28.5s-17 -34 -37 -65s-42.167 -58 -66.5 -81s-59.333 -44 -105 -63s-95.167 -28.5 -148.5 -28.5c-109.333 0 -201.5 39.5 -276.5 118.5s-112.5 179.167 -112.5 300.5v584h41v-584
c0 -110.667 33.333 -201.5 100 -272.5s149.334 -106.5 248.001 -106.5c104 0 191.333 37.667 262 113s106 171 106 287v563h41v-983h-41zM358 1167l215 246h41l215 -246h-51l-184 215l-184 -215h-52z" />
    <glyph glyph-name="udieresis" unicode="&#xfc;" 
d="M952 0v246c-2.66699 -6.66699 -6.33398 -16.167 -11.001 -28.5s-17 -34 -37 -65s-42.167 -58 -66.5 -81s-59.333 -44 -105 -63s-95.167 -28.5 -148.5 -28.5c-109.333 0 -201.5 39.5 -276.5 118.5s-112.5 179.167 -112.5 300.5v584h41v-584
c0 -110.667 33.333 -201.5 100 -272.5s149.334 -106.5 248.001 -106.5c104 0 191.333 37.667 262 113s106 171 106 287v563h41v-983h-41zM389 1290.5c0 11 4.16699 20.5 12.5 28.5s17.833 12 28.5 12s20.167 -4 28.5 -12s12.5 -17.5 12.5 -28.5s-4.16699 -20.667 -12.5 -29
s-17.833 -12.5 -28.5 -12.5s-20.167 4.16699 -28.5 12.5s-12.5 18 -12.5 29zM717 1290.5c0 11 4 20.5 12 28.5s17.5 12 28.5 12s20.667 -4 29 -12s12.5 -17.5 12.5 -28.5s-4.16699 -20.667 -12.5 -29s-18 -12.5 -29 -12.5s-20.5 4.16699 -28.5 12.5s-12 18 -12 29z" />
    <glyph glyph-name="yacute" unicode="&#xfd;" horiz-adv-x="962" 
d="M358 -225l93.001 225l-400 983h41l379 -932l379 932h41l-492 -1208c-54.667 -136.667 -133 -205 -235 -205c-15.333 0 -29.833 1.66699 -43.5 5s-23.834 7 -30.501 11l-8 4v41c20.667 -13.333 48 -20 82 -20c85.333 0 150 54.667 194 164zM461.001 1167l153 246h52
l-164 -246h-41z" />
    <glyph glyph-name="thorn" unicode="&#xfe;" horiz-adv-x="1228" 
d="M236 287l-0.00195312 -716.999h-41v1864h41v-738c2.66699 8 7.33398 19 14.001 33s22.334 38.667 47.001 74s51.334 66.666 80.001 93.999s67.167 52 115.5 74s99.166 33 152.499 33c116 0 220.167 -50.667 312.5 -152s138.5 -221.5 138.5 -360.5
s-46.167 -259 -138.5 -360s-196.5 -151.5 -312.5 -151.5c-53.333 0 -103.833 10.5 -151.5 31.5s-86.5 46.5 -116.5 76.5s-56.333 60 -79 90s-38.667 55.333 -48 76zM644.998 20.001c105.333 0 200 46.167 284 138.5s126 203.333 126 333s-42 240.667 -126 333
s-178.667 138.5 -284 138.5s-199.833 -46.167 -283.5 -138.5s-125.5 -203.333 -125.5 -333s41.833 -240.667 125.5 -333s178.167 -138.5 283.5 -138.5z" />
    <glyph glyph-name="ydieresis" unicode="&#xff;" horiz-adv-x="962" 
d="M358 -225l93.001 225l-400 983h41l379 -932l379 932h41l-492 -1208c-54.667 -136.667 -133 -205 -235 -205c-15.333 0 -29.833 1.66699 -43.5 5s-23.834 7 -30.501 11l-8 4v41c20.667 -13.333 48 -20 82 -20c85.333 0 150 54.667 194 164zM266.001 1290.5
c0 11 4.16699 20.5 12.5 28.5s18 12 29 12s20.5 -4 28.5 -12s12 -17.5 12 -28.5s-4 -20.667 -12 -29s-17.5 -12.5 -28.5 -12.5s-20.667 4.16699 -29 12.5s-12.5 18 -12.5 29zM594.001 1290.5c0 11 4 20.5 12 28.5s17.5 12 28.5 12s20.667 -4 29 -12s12.5 -17.5 12.5 -28.5
s-4.16699 -20.667 -12.5 -29s-18 -12.5 -29 -12.5s-20.5 4.16699 -28.5 12.5s-12 18 -12 29z" />
    <glyph glyph-name="Amacron" unicode="&#x100;" horiz-adv-x="1351" 
d="M696 1434l594 -1434h-41l-184 451h-778l-185 -451h-41l594 1434h41zM1044 492l-368 890l-369 -890h737zM932 1782v-41h-512v41h512z" />
    <glyph glyph-name="amacron" unicode="&#x101;" horiz-adv-x="1034" 
d="M778 604l0.00585938 31c0 95.333 -29.333 173.833 -88 235.5s-131.667 92.5 -219 92.5c-57.333 0 -110.833 -13 -160.5 -39s-84.834 -51.333 -105.501 -76l-31 -39l-31 31c2.66699 4 7.16699 9.66699 13.5 17s19.666 20.666 39.999 39.999s42.166 36.166 65.499 50.499
s54.166 27.333 92.499 39s77.166 17.5 116.499 17.5c98 0 180.5 -34.833 247.5 -104.5s100.5 -157.834 100.5 -264.501v-635h-41v236c-2.66699 -6.66699 -6.33398 -16 -11.001 -28s-17 -32.667 -37 -62s-42.167 -55.166 -66.5 -77.499s-59.5 -42.666 -105.5 -60.999
s-95.333 -27.5 -148 -27.5c-94 0 -172.167 27.5 -234.5 82.5s-93.5 119.5 -93.5 193.5c0 72.667 24.833 132.834 74.5 180.501s120.5 79.5 212.5 95.5zM410.006 20c104 0 191.333 37.001 262 111.001s106 167 106 279v153l-409 -71
c-164 -28.667 -246 -107.334 -246 -236.001c0 -64 26.667 -119.333 80 -166s122.333 -70 207 -70zM768.006 1331v-41h-512v41h512z" />
    <glyph glyph-name="Abreve" unicode="&#x102;" horiz-adv-x="1351" 
d="M696 1434l594 -1434h-41l-184 451h-778l-185 -451h-41l594 1434h41zM1044 492l-368 890l-369 -890h737zM676 1679c61.333 0 110.833 18.833 148.5 56.5s56.5 87.167 56.5 148.5h41c0 -70.667 -23.333 -129.334 -70 -176.001s-105.5 -70 -176.5 -70
s-129.667 23.333 -176 70s-69.5 105.334 -69.5 176.001h41c0 -61.333 18.833 -110.833 56.5 -148.5s87.167 -56.5 148.5 -56.5z" />
    <glyph glyph-name="abreve" unicode="&#x103;" horiz-adv-x="1034" 
d="M778 604l0.00585938 31c0 95.333 -29.333 173.833 -88 235.5s-131.667 92.5 -219 92.5c-57.333 0 -110.833 -13 -160.5 -39s-84.834 -51.333 -105.501 -76l-31 -39l-31 31c2.66699 4 7.16699 9.66699 13.5 17s19.666 20.666 39.999 39.999s42.166 36.166 65.499 50.499
s54.166 27.333 92.499 39s77.166 17.5 116.499 17.5c98 0 180.5 -34.833 247.5 -104.5s100.5 -157.834 100.5 -264.501v-635h-41v236c-2.66699 -6.66699 -6.33398 -16 -11.001 -28s-17 -32.667 -37 -62s-42.167 -55.166 -66.5 -77.499s-59.5 -42.666 -105.5 -60.999
s-95.333 -27.5 -148 -27.5c-94 0 -172.167 27.5 -234.5 82.5s-93.5 119.5 -93.5 193.5c0 72.667 24.833 132.834 74.5 180.501s120.5 79.5 212.5 95.5zM410.006 20c104 0 191.333 37.001 262 111.001s106 167 106 279v153l-409 -71
c-164 -28.667 -246 -107.334 -246 -236.001c0 -64 26.667 -119.333 80 -166s122.333 -70 207 -70zM502.006 1208c61.333 0 110.833 18.833 148.5 56.5s56.5 87.167 56.5 148.5h41c0 -70.667 -23 -129.334 -69 -176.001s-105.167 -70 -177.5 -70s-131.333 23.333 -177 70
s-68.5 105.334 -68.5 176.001h41c0 -61.333 18.833 -110.833 56.5 -148.5s87.167 -56.5 148.5 -56.5z" />
    <glyph glyph-name="Aogonek" unicode="&#x104;" horiz-adv-x="1351" 
d="M1249 0l-183.997 451h-778l-185 -451h-41l594 1434h41l594 -1434c-10.667 -9.33301 -23.834 -21.833 -39.501 -37.5s-36.834 -45 -63.501 -88s-40 -83.167 -40 -120.5c0 -75.333 41 -112.666 123 -111.999c22 0 43.167 2.33301 63.5 7s35.166 9.66699 44.499 15l15 8v-41
c-34 -20.667 -75 -30.667 -123 -30c-50.667 0 -90.667 14 -120 42s-44 65 -44 111c0 39.333 12 79.666 36 120.999s47.333 72 70 92zM1044 492l-368 890l-369 -890h737z" />
    <glyph glyph-name="aogonek" unicode="&#x105;" horiz-adv-x="1034" 
d="M410 20c104 0 191.333 37.001 262 111.001s106 167 106 279v153l-409 -71c-164 -28.667 -246 -107.334 -246 -236.001c0 -64 26.667 -119.333 80 -166s122.333 -70 207 -70zM778 0.000976562l0.00878906 236c-2.66699 -6.66699 -6.33398 -16 -11.001 -28
s-17 -32.667 -37 -62s-42.167 -55.166 -66.5 -77.499s-59.5 -42.666 -105.5 -60.999s-95.333 -27.5 -148 -27.5c-94 0 -172.167 27.5 -234.5 82.5s-93.5 119.5 -93.5 193.5c0 72.667 24.833 132.834 74.5 180.501s120.5 79.5 212.5 95.5l409 72v31
c0 95.333 -29.333 173.833 -88 235.5s-131.667 92.5 -219 92.5c-57.333 0 -110.833 -13 -160.5 -39s-84.834 -51.333 -105.501 -76l-31 -39l-31 31c2.66699 4 7.16699 9.66699 13.5 17s19.666 20.666 39.999 39.999s42.166 36.166 65.499 50.499s54.166 27.333 92.499 39
s77.166 17.5 116.499 17.5c98 0 180.5 -34.833 247.5 -104.5s100.5 -157.834 100.5 -264.501v-635c-10.667 -9.33301 -23.834 -21.833 -39.501 -37.5s-36.834 -45 -63.501 -88s-40 -83.167 -40 -120.5c0 -75.333 41 -112.666 123 -111.999c22 0 43.167 2.33301 63.5 7
s35.166 9.66699 44.499 15l15 8v-41c-34 -20.667 -75 -30.667 -123 -30c-50.667 0 -90.667 14 -120 42s-44 65 -44 111c0 39.333 12 79.666 36 120.999s47.333 72 70 92z" />
    <glyph glyph-name="Cacute" unicode="&#x106;" horiz-adv-x="1525" 
d="M123 717c0 203.333 70.6592 377.001 211.992 521.001s309.666 216 504.999 216c72.667 0 142.334 -10.833 209.001 -32.5s121.834 -48.334 165.501 -80.001s81.834 -62.834 114.501 -93.501s56.667 -57 72 -79l22 -32l-30 -21c-5.33301 8 -12.833 18.5 -22.5 31.5
s-31.667 36.667 -66 71s-71.166 64.833 -110.499 91.5s-91.166 50.5 -155.499 71.5s-130.5 31.5 -198.5 31.5c-186 0 -345.167 -67.5 -477.5 -202.5s-198.5 -299.5 -198.5 -493.5s66.167 -358.667 198.5 -494s291.5 -203 477.5 -203c68 0 133.833 10.333 197.5 31
s115.834 45.334 156.501 74.001s76.834 57.667 108.501 87s54.834 54.333 69.501 75l21 30l30 -20c-5.33301 -8 -13.166 -19.167 -23.499 -33.5s-33.5 -40 -69.5 -77s-74.833 -69.167 -116.5 -96.5s-96.334 -52.5 -164.001 -75.5s-137.5 -34.5 -209.5 -34.5
c-195.333 0 -363.666 72 -504.999 216s-212 317.667 -212 521zM818.992 1638l154 246h51l-164 -246h-41z" />
    <glyph glyph-name="cacute" unicode="&#x107;" horiz-adv-x="1064" 
d="M154 491.5c0 -131 43 -242.331 129 -333.998s186.333 -137.5 301 -137.5c66.667 0 128 15.5 184 46.5s95.667 62.167 119 93.5l35 45l30 -21c-2.66699 -5.33301 -7.33398 -12.833 -14.001 -22.5s-21.667 -26 -45 -49s-48 -43.333 -74 -61s-60.167 -34 -102.5 -49
s-86.5 -22.5 -132.5 -22.5c-125.333 0 -235.166 50.167 -329.499 150.5s-141.5 220.666 -141.5 360.999s47 260.833 141 361.5s204 151 330 151c46.667 0 90.667 -7.16699 132 -21.5s76 -31.5 104 -51.5s52.333 -39.833 73 -59.5s35.667 -37.167 45 -52.5l14 -20l-30 -21
c-2.66699 5.33301 -7.16699 12.166 -13.5 20.499s-20 23 -41 44s-43.5 39.833 -67.5 56.5s-55.5 31.5 -94.5 44.5s-79.5 19.5 -121.5 19.5c-114.667 0 -215 -45.833 -301 -137.5s-129 -203 -129 -334zM563 1167l154 246h51l-164 -246h-41z" />
    <glyph glyph-name="Ccircumflex" unicode="&#x108;" horiz-adv-x="1525" 
d="M123 717c0 203.333 70.6592 377.001 211.992 521.001s309.666 216 504.999 216c72.667 0 142.334 -10.833 209.001 -32.5s121.834 -48.334 165.501 -80.001s81.834 -62.834 114.501 -93.501s56.667 -57 72 -79l22 -32l-30 -21c-5.33301 8 -12.833 18.5 -22.5 31.5
s-31.667 36.667 -66 71s-71.166 64.833 -110.499 91.5s-91.166 50.5 -155.499 71.5s-130.5 31.5 -198.5 31.5c-186 0 -345.167 -67.5 -477.5 -202.5s-198.5 -299.5 -198.5 -493.5s66.167 -358.667 198.5 -494s291.5 -203 477.5 -203c68 0 133.833 10.333 197.5 31
s115.834 45.334 156.501 74.001s76.834 57.667 108.501 87s54.834 54.333 69.501 75l21 30l30 -20c-5.33301 -8 -13.166 -19.167 -23.499 -33.5s-33.5 -40 -69.5 -77s-74.833 -69.167 -116.5 -96.5s-96.334 -52.5 -164.001 -75.5s-137.5 -34.5 -209.5 -34.5
c-195.333 0 -363.666 72 -504.999 216s-212 317.667 -212 521zM593.992 1638l215 246h41l215 -246h-51l-185 215l-184 -215h-51z" />
    <glyph glyph-name="ccircumflex" unicode="&#x109;" horiz-adv-x="1064" 
d="M154 491.5c0 -131 43 -242.331 129 -333.998s186.333 -137.5 301 -137.5c66.667 0 128 15.5 184 46.5s95.667 62.167 119 93.5l35 45l30 -21c-2.66699 -5.33301 -7.33398 -12.833 -14.001 -22.5s-21.667 -26 -45 -49s-48 -43.333 -74 -61s-60.167 -34 -102.5 -49
s-86.5 -22.5 -132.5 -22.5c-125.333 0 -235.166 50.167 -329.499 150.5s-141.5 220.666 -141.5 360.999s47 260.833 141 361.5s204 151 330 151c46.667 0 90.667 -7.16699 132 -21.5s76 -31.5 104 -51.5s52.333 -39.833 73 -59.5s35.667 -37.167 45 -52.5l14 -20l-30 -21
c-2.66699 5.33301 -7.16699 12.166 -13.5 20.499s-20 23 -41 44s-43.5 39.833 -67.5 56.5s-55.5 31.5 -94.5 44.5s-79.5 19.5 -121.5 19.5c-114.667 0 -215 -45.833 -301 -137.5s-129 -203 -129 -334zM348 1167l215 246h41l215 -246h-51l-184 215l-185 -215h-51z" />
    <glyph glyph-name="Ccaron" unicode="&#x10c;" horiz-adv-x="1525" 
d="M123 717c0 203.333 70.6592 377.001 211.992 521.001s309.666 216 504.999 216c72.667 0 142.334 -10.833 209.001 -32.5s121.834 -48.334 165.501 -80.001s81.834 -62.834 114.501 -93.501s56.667 -57 72 -79l22 -32l-30 -21c-5.33301 8 -12.833 18.5 -22.5 31.5
s-31.667 36.667 -66 71s-71.166 64.833 -110.499 91.5s-91.166 50.5 -155.499 71.5s-130.5 31.5 -198.5 31.5c-186 0 -345.167 -67.5 -477.5 -202.5s-198.5 -299.5 -198.5 -493.5s66.167 -358.667 198.5 -494s291.5 -203 477.5 -203c68 0 133.833 10.333 197.5 31
s115.834 45.334 156.501 74.001s76.834 57.667 108.501 87s54.834 54.333 69.501 75l21 30l30 -20c-5.33301 -8 -13.166 -19.167 -23.499 -33.5s-33.5 -40 -69.5 -77s-74.833 -69.167 -116.5 -96.5s-96.334 -52.5 -164.001 -75.5s-137.5 -34.5 -209.5 -34.5
c-195.333 0 -363.666 72 -504.999 216s-212 317.667 -212 521zM818.992 1638l-215 246h51l185 -215l184 215h51l-215 -246h-41z" />
    <glyph glyph-name="ccaron" unicode="&#x10d;" horiz-adv-x="1064" 
d="M154 491.5c0 -131 43 -242.331 129 -333.998s186.333 -137.5 301 -137.5c66.667 0 128 15.5 184 46.5s95.667 62.167 119 93.5l35 45l30 -21c-2.66699 -5.33301 -7.33398 -12.833 -14.001 -22.5s-21.667 -26 -45 -49s-48 -43.333 -74 -61s-60.167 -34 -102.5 -49
s-86.5 -22.5 -132.5 -22.5c-125.333 0 -235.166 50.167 -329.499 150.5s-141.5 220.666 -141.5 360.999s47 260.833 141 361.5s204 151 330 151c46.667 0 90.667 -7.16699 132 -21.5s76 -31.5 104 -51.5s52.333 -39.833 73 -59.5s35.667 -37.167 45 -52.5l14 -20l-30 -21
c-2.66699 5.33301 -7.16699 12.166 -13.5 20.499s-20 23 -41 44s-43.5 39.833 -67.5 56.5s-55.5 31.5 -94.5 44.5s-79.5 19.5 -121.5 19.5c-114.667 0 -215 -45.833 -301 -137.5s-129 -203 -129 -334zM563 1167l-215 246h51l185 -215l184 215h51l-215 -246h-41z" />
    <glyph glyph-name="Dcaron" unicode="&#x10e;" horiz-adv-x="1495" 
d="M246 1434h378.999c218.667 0 397.834 -68 537.501 -204s209.5 -307 209.5 -513s-70 -377 -210 -513s-319 -204 -537 -204h-379v1434zM624.999 1393h-338v-1352h338c208.667 0 378.5 63.5 509.5 190.5s196.5 288.833 196.5 485.5s-65.5 358.5 -196.5 485.5
s-300.833 190.5 -509.5 190.5zM695.999 1638l-215 246h51l185 -215l184 215h51l-215 -246h-41z" />
    <glyph glyph-name="dcaron" unicode="&#x10f;" horiz-adv-x="1269" 
d="M973 696l0.00195312 737.999h41v-1434h-41v287c-2.66699 -8 -7.5 -19 -14.5 -33s-22.833 -38.667 -47.5 -74s-51.334 -66.666 -80.001 -93.999s-67.167 -51.833 -115.5 -73.5s-99.166 -32.5 -152.499 -32.5c-116 0 -220 50.5 -312 151.5s-138 221 -138 360
s46 259.167 138 360.5s196 152 312 152c53.333 0 103.833 -10.667 151.5 -32s86.667 -47 117 -77s56.666 -60 78.999 -90s38.166 -55.333 47.499 -76zM563.502 962.999c-105 0 -199.5 -46.167 -283.5 -138.5s-126 -203.333 -126 -333s42 -240.667 126 -333
s178.5 -138.5 283.5 -138.5s199.5 46.167 283.5 138.5s126 203.333 126 333s-42 240.667 -126 333s-178.5 138.5 -283.5 138.5zM1178 1167l92 267h51l-113 -267h-30z" />
    <glyph glyph-name="Dcroat" unicode="&#x110;" horiz-adv-x="1525" 
d="M61 696v41h215v697h379c218.667 0 398 -68 538 -204s210 -307 210 -513s-70 -377 -210 -513s-319.333 -204 -538 -204h-379v696h-215zM317 41h338c208.667 0 378.667 63.5 510 190.5s197 288.833 197 485.5s-65.5 358.5 -196.5 485.5s-301.167 190.5 -510.5 190.5h-338
v-656h379v-41h-379v-655z" />
    <glyph glyph-name="dcroat" unicode="&#x111;" horiz-adv-x="1249" 
d="M655 1208l318.002 -0.000976562v226h41v-226h164v-41h-164v-1167h-41v287l-6 -17c-5.33301 -10.667 -13.5 -25.167 -24.5 -43.5s-24.333 -38.166 -40 -59.499s-35.167 -43.166 -58.5 -65.499s-48 -42.5 -74 -60.5s-57 -32.667 -93 -44s-74 -17 -114 -17
c-114.667 0 -218.334 49 -311.001 147s-139 212.667 -139 344s46.333 246.166 139 344.499s196.334 147.5 311.001 147.5c53.333 0 103.833 -10.667 151.5 -32s86.667 -47 117 -77s56.666 -60 78.999 -90s38.166 -55.333 47.499 -76l15 -33v512h-318v41zM563.502 921.999
c-105 0 -199.5 -45.167 -283.5 -135.5s-126 -195.5 -126 -315.5s42 -225.167 126 -315.5s178.5 -135.5 283.5 -135.5s199.5 45.167 283.5 135.5s126 195.5 126 315.5s-42 225.167 -126 315.5s-178.5 135.5 -283.5 135.5z" />
    <glyph glyph-name="Emacron" unicode="&#x112;" horiz-adv-x="1280" 
d="M287 41h911v-41h-952v1434h932v-41h-891v-625h727v-41h-727v-686zM963 1782v-41h-512v41h512z" />
    <glyph glyph-name="emacron" unicode="&#x113;" horiz-adv-x="1126" 
d="M1014 471h-860c5.33301 -126.667 50 -233.5 134 -320.5s182.667 -130.5 296 -130.5c66.667 0 128 15.5 184 46.5s95.667 62.167 119 93.5l35 45l30 -21c-2.66699 -5.33301 -7.33398 -12.833 -14.001 -22.5s-21.667 -26 -45 -49s-48 -43.333 -74 -61
s-60.167 -34 -102.5 -49s-86.5 -22.5 -132.5 -22.5c-125.333 0 -235.166 50.167 -329.499 150.5s-141.5 220.833 -141.5 361.5c0 144.667 45 266.167 135 364.5s195 147.5 315 147.5s225.167 -49.167 315.5 -147.5s135.5 -219.833 135.5 -364.5v-21zM563 963
c-109.333 0 -204.833 -43.833 -286.5 -131.5s-122.5 -194.167 -122.5 -319.5h819c0 125.333 -41 231.833 -123 319.5s-177.667 131.5 -287 131.5zM829 1311v-41h-512v41h512z" />
    <glyph glyph-name="Edotaccent" unicode="&#x116;" horiz-adv-x="1280" 
d="M287 41h911v-41h-952v1434h932v-41h-891v-625h727v-41h-727v-686zM666 1761.5c0 11 4.33301 20.5 13 28.5s17.834 12 27.501 12s19 -4 28 -12s13.5 -17.5 13.5 -28.5s-4.5 -20.667 -13.5 -29s-18.333 -12.5 -28 -12.5s-18.834 4.16699 -27.501 12.5s-13 18 -13 29z" />
    <glyph glyph-name="edotaccent" unicode="&#x117;" horiz-adv-x="1126" 
d="M1014 471h-860c5.33301 -126.667 50 -233.5 134 -320.5s182.667 -130.5 296 -130.5c66.667 0 128 15.5 184 46.5s95.667 62.167 119 93.5l35 45l30 -21c-2.66699 -5.33301 -7.33398 -12.833 -14.001 -22.5s-21.667 -26 -45 -49s-48 -43.333 -74 -61
s-60.167 -34 -102.5 -49s-86.5 -22.5 -132.5 -22.5c-125.333 0 -235.166 50.167 -329.499 150.5s-141.5 220.833 -141.5 361.5c0 144.667 45 266.167 135 364.5s195 147.5 315 147.5s225.167 -49.167 315.5 -147.5s135.5 -219.833 135.5 -364.5v-21zM563 963
c-109.333 0 -204.833 -43.833 -286.5 -131.5s-122.5 -194.167 -122.5 -319.5h819c0 125.333 -41 231.833 -123 319.5s-177.667 131.5 -287 131.5zM532 1290.5c0 11 4.16699 20.5 12.5 28.5s18 12 29 12s20.5 -4 28.5 -12s12 -17.5 12 -28.5s-4 -20.667 -12 -29
s-17.5 -12.5 -28.5 -12.5s-20.667 4.16699 -29 12.5s-12.5 18 -12.5 29z" />
    <glyph glyph-name="Eogonek" unicode="&#x118;" horiz-adv-x="1280" 
d="M1157 0h-910.998v1434h932v-41h-891v-625h727v-41h-727v-686h911v-41c-10.667 -9.33301 -23.834 -21.833 -39.501 -37.5s-36.834 -45 -63.501 -88s-40 -83.167 -40 -120.5c0 -75.333 41 -112.666 123 -111.999c22 0 43.167 2.33301 63.5 7s35.166 9.66699 44.499 15l14 8
v-41c-34 -20.667 -74.667 -30.667 -122 -30c-50.667 0 -90.667 14 -120 42s-44 65 -44 111c0 39.333 11.833 79.666 35.5 120.999s47.834 72 72.501 92z" />
    <glyph glyph-name="eogonek" unicode="&#x119;" horiz-adv-x="1126" 
d="M1014 471h-860c5.33301 -126.667 50 -233.5 134 -320.5s182.667 -130.5 296 -130.5c66.667 0 128 15.5 184 46.5s95.667 62.167 119 93.5l35 45l30 -21c-2.66699 -5.33301 -7 -12.333 -13 -21s-19.667 -24.334 -41 -47.001s-44.5 -42.834 -69.5 -60.501
s-57.667 -34.334 -98 -50.001s-82.5 -24.167 -126.5 -25.5c-9.33301 -8 -20.833 -19.333 -34.5 -34s-31.834 -42.167 -54.501 -82.5s-34 -76.833 -34 -109.5c0 -75.333 41 -112.666 123 -111.999c22 0 43.167 2.33301 63.5 7s35.5 9.66699 45.5 15l14 8v-41
c-34 -20.667 -75 -30.667 -123 -30c-50.667 0 -90.667 14 -120 42s-44 65 -44 111c0 36.667 10.333 73.834 31 111.501s41 66.167 61 85.5l31 29c-121.333 5.33301 -226.666 56.833 -315.999 154.5s-134 216.834 -134 357.501c0 144.667 45 266.167 135 364.5
s195 147.5 315 147.5s225.167 -49.167 315.5 -147.5s135.5 -219.833 135.5 -364.5v-21zM563 963c-109.333 0 -204.833 -43.833 -286.5 -131.5s-122.5 -194.167 -122.5 -319.5h819c0 125.333 -41 231.833 -123 319.5s-177.667 131.5 -287 131.5z" />
    <glyph glyph-name="Ecaron" unicode="&#x11a;" horiz-adv-x="1280" 
d="M287 41h911v-41h-952v1434h932v-41h-891v-625h727v-41h-727v-686zM686 1638l-215 246h51l185 -215l184 215h51l-215 -246h-41z" />
    <glyph glyph-name="ecaron" unicode="&#x11b;" horiz-adv-x="1126" 
d="M1014 471h-860c5.33301 -126.667 50 -233.5 134 -320.5s182.667 -130.5 296 -130.5c66.667 0 128 15.5 184 46.5s95.667 62.167 119 93.5l35 45l30 -21c-2.66699 -5.33301 -7.33398 -12.833 -14.001 -22.5s-21.667 -26 -45 -49s-48 -43.333 -74 -61
s-60.167 -34 -102.5 -49s-86.5 -22.5 -132.5 -22.5c-125.333 0 -235.166 50.167 -329.499 150.5s-141.5 220.833 -141.5 361.5c0 144.667 45 266.167 135 364.5s195 147.5 315 147.5s225.167 -49.167 315.5 -147.5s135.5 -219.833 135.5 -364.5v-21zM563 963
c-109.333 0 -204.833 -43.833 -286.5 -131.5s-122.5 -194.167 -122.5 -319.5h819c0 125.333 -41 231.833 -123 319.5s-177.667 131.5 -287 131.5zM553 1167l-215 246h51l184 -215l185 215h51l-215 -246h-41z" />
    <glyph glyph-name="Gbreve" unicode="&#x11e;" horiz-adv-x="1597" 
d="M1423 1137l-30.0088 -20.998c-5.33301 8 -12.833 18.5 -22.5 31.5s-31.667 36.667 -66 71s-71.166 64.833 -110.499 91.5s-91.166 50.5 -155.499 71.5s-130.5 31.5 -198.5 31.5c-186 0 -345.167 -67.5 -477.5 -202.5s-198.5 -299.5 -198.5 -493.5
s66.167 -358.667 198.5 -494s291.5 -203 477.5 -203c68 0 133.833 10.333 197.5 31s115.834 45.334 156.501 74.001s76.834 57.667 108.501 87s54.834 54.333 69.501 75l21 30v338h-420v41h461v-389c-5.33301 -9.33301 -13.5 -21.166 -24.5 -35.499s-35.333 -40.333 -73 -78
s-77.667 -70.834 -120 -99.501s-97.666 -54.834 -165.999 -78.501s-138.5 -35.5 -210.5 -35.5c-195.333 0 -363.666 72 -504.999 216s-212 317.667 -212 521s70.667 377 212 521s309.666 216 504.999 216c72.667 0 142.334 -10.833 209.001 -32.5
s121.834 -48.334 165.501 -80.001s81.834 -62.834 114.501 -93.501s56.667 -57 72 -79zM818.991 1679c61.333 0 110.833 18.833 148.5 56.5s56.5 87.167 56.5 148.5h41c0 -70.667 -23.167 -129.334 -69.5 -176.001s-105 -70 -176 -70s-129.833 23.333 -176.5 70
s-70 105.334 -70 176.001h41c0 -61.333 18.833 -110.833 56.5 -148.5s87.167 -56.5 148.5 -56.5z" />
    <glyph glyph-name="gbreve" unicode="&#x11f;" 
d="M553 61c105.333 0 198.166 43.833 278.499 131.5s120.5 194.167 120.5 319.5s-40.167 231.833 -120.5 319.5s-173.166 131.5 -278.499 131.5s-198.166 -43.833 -278.499 -131.5s-120.5 -194.167 -120.5 -319.5s40.167 -231.833 120.5 -319.5
s173.166 -131.5 278.499 -131.5zM952 61l0.00195312 256.003c-2.66699 -8 -7 -18.5 -13 -31.5s-20.667 -36.5 -44 -70.5s-49 -64.333 -77 -91s-65.833 -50.667 -113.5 -72s-98.167 -32 -151.5 -32c-114.667 0 -216.667 48.167 -306 144.5s-134 212.166 -134 347.499
s44.667 251.166 134 347.499s191.333 144.5 306 144.5c53.333 0 103.5 -10.333 150.5 -31s85.167 -45.334 114.5 -74.001s54.666 -57.667 75.999 -87s36 -54.333 44 -75l14 -30v276h41v-922c0 -140.667 -44 -257.667 -132 -351s-194 -140 -318 -140
c-46.667 0 -90.834 7.16699 -132.501 21.5s-76.5 31.333 -104.5 51s-52.167 39.5 -72.5 59.5s-35.5 37.333 -45.5 52l-14 21l31 20c2.66699 -5.33301 7 -12.166 13 -20.499s19.667 -23 41 -44s43.833 -39.667 67.5 -56s55 -31 94 -44s79.833 -19.5 122.5 -19.5
c114.667 0 211.5 42.167 290.5 126.5s118.5 192.166 118.5 323.499zM594.002 1208c61.333 0 110.833 18.833 148.5 56.5s56.5 87.167 56.5 148.5h41c0 -70.667 -23.333 -129.334 -70 -176.001s-105.5 -70 -176.5 -70s-129.667 23.333 -176 70s-69.5 105.334 -69.5 176.001
h41c0 -61.333 18.833 -110.833 56.5 -148.5s87.167 -56.5 148.5 -56.5z" />
    <glyph glyph-name="uni0122" unicode="&#x122;" horiz-adv-x="1597" 
d="M1423 1137l-30.0088 -20.998c-5.33301 8 -12.833 18.5 -22.5 31.5s-31.667 36.667 -66 71s-71.166 64.833 -110.499 91.5s-91.166 50.5 -155.499 71.5s-130.5 31.5 -198.5 31.5c-186 0 -345.167 -67.5 -477.5 -202.5s-198.5 -299.5 -198.5 -493.5
s66.167 -358.667 198.5 -494s291.5 -203 477.5 -203c68 0 133.833 10.333 197.5 31s115.834 45.334 156.501 74.001s76.834 57.667 108.501 87s54.834 54.333 69.501 75l21 30v338h-420v41h461v-389c-5.33301 -9.33301 -13.5 -21.166 -24.5 -35.499s-35.333 -40.333 -73 -78
s-77.667 -70.834 -120 -99.501s-97.666 -54.834 -165.999 -78.501s-138.5 -35.5 -210.5 -35.5c-195.333 0 -363.666 72 -504.999 216s-212 317.667 -212 521s70.667 377 212 521s309.666 216 504.999 216c72.667 0 142.334 -10.833 209.001 -32.5
s121.834 -48.334 165.501 -80.001s81.834 -62.834 114.501 -93.501s56.667 -57 72 -79zM716.991 -429.998l92 266h51l-112 -266h-31z" />
    <glyph glyph-name="uni0123" unicode="&#x123;" 
d="M696 1413l-92 -266h-51l113 266h30zM553 61c105.333 0 198.166 43.833 278.499 131.5s120.5 194.167 120.5 319.5s-40.167 231.833 -120.5 319.5s-173.166 131.5 -278.499 131.5s-198.166 -43.833 -278.499 -131.5s-120.5 -194.167 -120.5 -319.5
s40.167 -231.833 120.5 -319.5s173.166 -131.5 278.499 -131.5zM952 61l0.00195312 256.003c-2.66699 -8 -7 -18.5 -13 -31.5s-20.667 -36.5 -44 -70.5s-49 -64.333 -77 -91s-65.833 -50.667 -113.5 -72s-98.167 -32 -151.5 -32c-114.667 0 -216.667 48.167 -306 144.5
s-134 212.166 -134 347.499s44.667 251.166 134 347.499s191.333 144.5 306 144.5c53.333 0 103.5 -10.333 150.5 -31s85.167 -45.334 114.5 -74.001s54.666 -57.667 75.999 -87s36 -54.333 44 -75l14 -30v276h41v-922c0 -140.667 -44 -257.667 -132 -351
s-194 -140 -318 -140c-46.667 0 -90.834 7.16699 -132.501 21.5s-76.5 31.333 -104.5 51s-52.167 39.5 -72.5 59.5s-35.5 37.333 -45.5 52l-14 21l31 20c2.66699 -5.33301 7 -12.166 13 -20.499s19.667 -23 41 -44s43.833 -39.667 67.5 -56s55 -31 94 -44
s79.833 -19.5 122.5 -19.5c114.667 0 211.5 42.167 290.5 126.5s118.5 192.166 118.5 323.499z" />
    <glyph glyph-name="Imacron" unicode="&#x12a;" horiz-adv-x="532" 
d="M246 0v1434h41v-1434h-41zM522 1782v-41h-512v41h512z" />
    <glyph glyph-name="imacron" unicode="&#x12b;" horiz-adv-x="450" 
d="M236 983v-983h-41v983h41zM471 1311v-41h-512v41h512z" />
    <glyph glyph-name="Iogonek" unicode="&#x12e;" horiz-adv-x="532" 
d="M246 0v1434h41v-1434c-10.667 -9.33301 -24 -21.833 -40 -37.5s-37.333 -45 -64 -88s-40 -83.167 -40 -120.5c0 -75.333 41 -112.666 123 -111.999c22 0 43.167 2.33301 63.5 7s35.5 9.66699 45.5 15l14 8v-41c-34 -20.667 -75 -30.667 -123 -30
c-50.667 0 -90.667 14 -120 42s-44 65 -44 111c0 39.333 12 79.666 36 120.999s47.667 72 71 92z" />
    <glyph glyph-name="iogonek" unicode="&#x12f;" horiz-adv-x="450" 
d="M195 0v983h41v-983c-10.667 -9.33301 -24 -21.833 -40 -37.5s-37.333 -45 -64 -88s-40 -83.167 -40 -120.5c0 -75.333 41 -112.666 123 -111.999c22 0 43.167 2.33301 63.5 7s35.5 9.66699 45.5 15l14 8v-41c-34 -20.667 -75 -30.667 -123 -30
c-50.667 0 -90.667 14 -120 42s-44 65 -44 111c0 39.333 12 79.666 36 120.999s48.333 72 73 92zM256 1351.5c0 -11 -4.5 -20.5 -13.5 -28.5s-18.167 -12 -27.5 -12s-18.5 4 -27.5 12s-13.5 17.5 -13.5 28.5s4.5 20.667 13.5 29s18.167 12.5 27.5 12.5
s18.5 -4.16699 27.5 -12.5s13.5 -18 13.5 -29z" />
    <glyph glyph-name="Idotaccent" unicode="&#x130;" horiz-adv-x="532" 
d="M246 0v1434h41v-1434h-41zM225 1761.5c0 11 4.16699 20.5 12.5 28.5s18 12 29 12s20.5 -4 28.5 -12s12 -17.5 12 -28.5s-4 -20.667 -12 -29s-17.5 -12.5 -28.5 -12.5s-20.667 4.16699 -29 12.5s-12.5 18 -12.5 29z" />
    <glyph glyph-name="dotlessi" unicode="&#x131;" horiz-adv-x="450" 
d="M236 983v-983h-41v983h41z" />
    <glyph glyph-name="uni0136" unicode="&#x136;" horiz-adv-x="1310" 
d="M287 461l880 973h52l-543 -605l594 -829h-51l-564 799h-10l-358 -389v-410h-41v1434h41v-973zM604 -430l92 266h52l-113 -266h-31z" />
    <glyph glyph-name="uni0137" unicode="&#x137;" horiz-adv-x="1013" 
d="M236 256v-256h-41v1434h41v-1127l614 676h51l-358 -399l420 -584h-52l-389 553h-10zM440 -430l92 266h52l-113 -266h-31z" />
    <glyph glyph-name="Lacute" unicode="&#x139;" horiz-adv-x="1126" 
d="M1085 0h-839v1434h41v-1393h798v-41zM246 1638l153 246h52l-164 -246h-41z" />
    <glyph glyph-name="lacute" unicode="&#x13a;" horiz-adv-x="450" 
d="M236 1434v-1434h-41v1434h41zM195 1638l153 246h51l-163 -246h-41z" />
    <glyph glyph-name="uni013B" unicode="&#x13b;" horiz-adv-x="1126" 
d="M1085 0h-839v1434h41v-1393h798v-41zM563 -430l92 266h52l-113 -266h-31z" />
    <glyph glyph-name="uni013C" unicode="&#x13c;" horiz-adv-x="430" 
d="M205 1434v-1434h-41v1434h41zM72 -430l92 266h51l-113 -266h-30z" />
    <glyph glyph-name="Lcaron" unicode="&#x13d;" horiz-adv-x="1126" 
d="M1085 0h-839v1434h41v-1393h798v-41zM563 1167l92 267h52l-113 -267h-31z" />
    <glyph glyph-name="lcaron" unicode="&#x13e;" horiz-adv-x="491" 
d="M236 1434v-1434h-41v1434h41zM399 1167l93 267h51l-113 -267h-31z" />
    <glyph glyph-name="Lslash" unicode="&#x141;" horiz-adv-x="1187" 
d="M1147 0h-840v666l-246 -154l-20 31l266 164v727h41v-707l348 215l21 -31l-369 -225v-645h799v-41z" />
    <glyph glyph-name="lslash" unicode="&#x142;" horiz-adv-x="655" 
d="M338 1434v-625l266 164l21 -31l-287 -174v-768h-41v748l-266 -164l-21 30l287 174v646h41z" />
    <glyph glyph-name="Nacute" unicode="&#x143;" horiz-adv-x="1587" 
d="M1300 1434h41v-1434h-30l-1024 1352v-1352h-41v1434h30l1024 -1352v1352zM778 1638l154 246h51l-164 -246h-41z" />
    <glyph glyph-name="nacute" unicode="&#x144;" horiz-adv-x="1187" 
d="M236 983l-0.00292969 -246.001c2.66699 6.66699 6.33398 16.167 11.001 28.5s16.834 34 36.501 65s41.834 58 66.501 81s59.834 44.167 105.501 63.5s95.167 29 148.5 29c109.333 0 201.5 -39.667 276.5 -119s112.5 -179.666 112.5 -300.999v-584h-41v584
c0 110.667 -33.333 201.5 -100 272.5s-149.334 106.5 -248.001 106.5c-104 0 -191.333 -37.667 -262 -113s-106 -171 -106 -287v-563h-41v983h41zM583.997 1167l153 246h51l-163 -246h-41z" />
    <glyph glyph-name="uni0145" unicode="&#x145;" horiz-adv-x="1587" 
d="M1300 1434h41v-1434h-30l-1024 1352v-1352h-41v1434h30l1024 -1352v1352zM676 -430l92 266h51l-112 -266h-31z" />
    <glyph glyph-name="uni0146" unicode="&#x146;" horiz-adv-x="1187" 
d="M236 983l-0.00292969 -246.001c2.66699 6.66699 6.33398 16.167 11.001 28.5s16.834 34 36.501 65s41.834 58 66.501 81s59.834 44.167 105.501 63.5s95.167 29 148.5 29c109.333 0 201.5 -39.667 276.5 -119s112.5 -179.666 112.5 -300.999v-584h-41v584
c0 110.667 -33.333 201.5 -100 272.5s-149.334 106.5 -248.001 106.5c-104 0 -191.333 -37.667 -262 -113s-106 -171 -106 -287v-563h-41v983h41zM491.997 -430.001l92 266h51l-113 -266h-30z" />
    <glyph glyph-name="Ncaron" unicode="&#x147;" horiz-adv-x="1587" 
d="M1300 1434h41v-1434h-30l-1024 1352v-1352h-41v1434h30l1024 -1352v1352zM778 1638l-215 246h51l185 -215l184 215h51l-215 -246h-41z" />
    <glyph glyph-name="ncaron" unicode="&#x148;" horiz-adv-x="1187" 
d="M236 983l-0.00292969 -246.001c2.66699 6.66699 6.33398 16.167 11.001 28.5s16.834 34 36.501 65s41.834 58 66.501 81s59.834 44.167 105.501 63.5s95.167 29 148.5 29c109.333 0 201.5 -39.667 276.5 -119s112.5 -179.666 112.5 -300.999v-584h-41v584
c0 110.667 -33.333 201.5 -100 272.5s-149.334 106.5 -248.001 106.5c-104 0 -191.333 -37.667 -262 -113s-106 -171 -106 -287v-563h-41v983h41zM583.997 1167l-215 246h51l184 -215l184 215h52l-215 -246h-41z" />
    <glyph glyph-name="Omacron" unicode="&#x14c;" horiz-adv-x="1679" 
d="M1516 717c0 194 -66.333 358.5 -199 493.5s-291.834 202.5 -477.501 202.5s-344.667 -67.5 -477 -202.5s-198.5 -299.5 -198.5 -493.5s66.167 -358.667 198.5 -494s291.333 -203 477 -203s344.834 67.667 477.501 203s199 300 199 494zM1556 717
c0 -203.333 -70.5 -377 -211.5 -521s-309.167 -216 -504.5 -216s-363.666 72 -504.999 216s-212 317.667 -212 521s70.667 377 212 521s309.666 216 504.999 216s363.5 -72 504.5 -216s211.5 -317.667 211.5 -521zM1096 1782v-41h-512v41h512z" />
    <glyph glyph-name="omacron" unicode="&#x14d;" horiz-adv-x="1187" 
d="M1014 491.5c0 131 -43 242.333 -129 334s-186.333 137.5 -301 137.5s-215 -45.833 -301 -137.5s-129 -203 -129 -334s43 -242.333 129 -334s186.333 -137.5 301 -137.5s215 45.833 301 137.5s129 203 129 334zM1055 491.5c0 -140.333 -47.167 -260.666 -141.5 -360.999
s-204.333 -150.5 -330 -150.5s-235.5 50.167 -329.5 150.5s-141 220.666 -141 360.999s47 260.833 141 361.5s203.833 151 329.5 151s235.667 -50.333 330 -151s141.5 -221.167 141.5 -361.5zM840 1311v-41h-512v41h512z" />
    <glyph glyph-name="Ohungarumlaut" unicode="&#x150;" horiz-adv-x="1679" 
d="M1516 717c0 194 -66.333 358.5 -199 493.5s-291.834 202.5 -477.501 202.5s-344.667 -67.5 -477 -202.5s-198.5 -299.5 -198.5 -493.5s66.167 -358.667 198.5 -494s291.333 -203 477 -203s344.834 67.667 477.501 203s199 300 199 494zM1556 717
c0 -203.333 -70.5 -377 -211.5 -521s-309.167 -216 -504.5 -216s-363.666 72 -504.999 216s-212 317.667 -212 521s70.667 377 212 521s309.666 216 504.999 216s363.5 -72 504.5 -216s211.5 -317.667 211.5 -521zM696 1638l154 246h51l-164 -246h-41zM963 1638l153 246h51
l-163 -246h-41z" />
    <glyph glyph-name="ohungarumlaut" unicode="&#x151;" horiz-adv-x="1187" 
d="M1014 491.5c0 131 -43 242.333 -129 334s-186.333 137.5 -301 137.5s-215 -45.833 -301 -137.5s-129 -203 -129 -334s43 -242.333 129 -334s186.333 -137.5 301 -137.5s215 45.833 301 137.5s129 203 129 334zM1055 491.5c0 -140.333 -47.167 -260.666 -141.5 -360.999
s-204.333 -150.5 -330 -150.5s-235.5 50.167 -329.5 150.5s-141 220.666 -141 360.999s47 260.833 141 361.5s203.833 151 329.5 151s235.667 -50.333 330 -151s141.5 -221.167 141.5 -361.5zM451 1167l153 246h51l-163 -246h-41zM717 1167l153 246h52l-164 -246h-41z" />
    <glyph glyph-name="OE" unicode="&#x152;" horiz-adv-x="1996" 
d="M1116 41h799.001v-41h-1045c-218.667 0 -397.834 68 -537.501 204s-209.5 307 -209.5 513s70 377 210 513s319 204 537 204h1024v-41h-778v-625h615v-41h-615v-686zM870.001 41h205v1352h-205c-208.667 0 -378.5 -63.5 -509.5 -190.5s-196.5 -288.833 -196.5 -485.5
s65.5 -358.5 196.5 -485.5s300.833 -190.5 509.5 -190.5z" />
    <glyph glyph-name="oe" unicode="&#x153;" horiz-adv-x="1904" 
d="M1792 471l-799.003 0.00488281c5.33301 -126.667 47.333 -233.5 126 -320.5s170 -130.5 274 -130.5c39.333 0 77.833 6.5 115.5 19.5s68.667 28.5 93 46.5s45.833 35.833 64.5 53.5s32.667 32.5 42 44.5l12 21l31 -21c-2.66699 -5.33301 -7.5 -12.833 -14.5 -22.5
s-21.667 -26 -44 -49s-46.166 -43.333 -71.499 -61s-58.833 -34 -100.5 -49s-84.167 -22.5 -127.5 -22.5c-58.667 0 -113.667 12.167 -165 36.5s-91.666 54.333 -120.999 90s-55 70.834 -77 105.501s-37 64.334 -45 89.001l-12 37
c-2.66699 -9.33301 -7.16699 -22.333 -13.5 -39s-21 -45.334 -44 -86.001s-48.833 -76.834 -77.5 -108.501s-68.667 -60.334 -120 -86.001s-106.333 -38.5 -165 -38.5c-116 0 -218.333 49 -307 147s-133 219.5 -133 364.5s44.333 266.667 133 365s191 147.5 307 147.5
c58.667 0 113.667 -12.333 165 -37s91.666 -54.834 120.999 -90.501s54.833 -71.167 76.5 -106.5s36.834 -65.333 45.501 -90l12 -37c1.33301 5.33301 3.33301 12.166 6 20.499s9.16699 25.166 19.5 50.499s22 49.166 35 71.499s30.667 47.5 53 75.5s46.5 52 72.5 72
s57.5 36.833 94.5 50.5s76.5 20.5 118.5 20.5c106.667 0 203.334 -49.833 290.001 -149.5s130 -220.5 130 -362.5v-21zM153.997 491.505c0 -133.667 39.833 -245.667 119.5 -336s172.834 -135.5 279.501 -135.5s199.834 45.167 279.501 135.5s119.5 202.333 119.5 336
s-39.833 245.667 -119.5 336s-172.834 135.5 -279.501 135.5s-199.834 -45.167 -279.501 -135.5s-119.5 -202.333 -119.5 -336zM1372 963.005c-98 0 -185.667 -44.833 -263 -134.5s-116 -195.167 -116 -316.5h758c-5.33301 130 -46 237.667 -122 323s-161.667 128 -257 128z
" />
    <glyph glyph-name="Racute" unicode="&#x154;" horiz-adv-x="1341" 
d="M246 1434l511.999 0.000976562c126.667 0 230 -38 310 -114s120 -171.333 120 -286c0 -62.667 -11.667 -118.834 -35 -168.501s-51.666 -87.834 -84.999 -114.501s-66.333 -48.667 -99 -66s-60.667 -28.666 -84 -33.999l-35 -6l369 -645h-52l-348 635h-532v-635h-41v1434
zM757.999 1393l-471 -0.00195312v-717h471c116 0 209.833 33.833 281.5 101.5s107.5 153.334 107.5 257.001s-35.833 189.334 -107.5 257.001s-165.5 101.5 -281.5 101.5zM675.999 1638l153 246h52l-164 -246h-41z" />
    <glyph glyph-name="racute" unicode="&#x155;" horiz-adv-x="696" 
d="M645 963h-41.0039c-104 0 -191.333 -37.667 -262 -113s-106 -171 -106 -287v-563h-41v983h41v-246c2.66699 6.66699 6.33398 16.167 11.001 28.5s16.834 34 36.501 65s41.834 58 66.501 81s59.834 44.167 105.501 63.5s95.167 29 148.5 29h41v-41zM398.996 1167l154 246
h51l-164 -246h-41z" />
    <glyph glyph-name="uni0156" unicode="&#x156;" horiz-adv-x="1341" 
d="M246 1434l511.999 0.000976562c126.667 0 230 -38 310 -114s120 -171.333 120 -286c0 -62.667 -11.667 -118.834 -35 -168.501s-51.666 -87.834 -84.999 -114.501s-66.333 -48.667 -99 -66s-60.667 -28.666 -84 -33.999l-35 -6l369 -645h-52l-348 635h-532v-635h-41v1434
zM757.999 1393l-471 -0.00195312v-717h471c116 0 209.833 33.833 281.5 101.5s107.5 153.334 107.5 257.001s-35.833 189.334 -107.5 257.001s-165.5 101.5 -281.5 101.5zM583.999 -430.001l92 266h51l-113 -266h-30z" />
    <glyph glyph-name="uni0157" unicode="&#x157;" horiz-adv-x="696" 
d="M645 963h-41.0039c-104 0 -191.333 -37.667 -262 -113s-106 -171 -106 -287v-563h-41v983h41v-246c2.66699 6.66699 6.33398 16.167 11.001 28.5s16.834 34 36.501 65s41.834 58 66.501 81s59.834 44.167 105.501 63.5s95.167 29 148.5 29h41v-41zM101.996 -430l93 266
h51l-113 -266h-31z" />
    <glyph glyph-name="Rcaron" unicode="&#x158;" horiz-adv-x="1341" 
d="M246 1434l511.999 0.000976562c126.667 0 230 -38 310 -114s120 -171.333 120 -286c0 -62.667 -11.667 -118.834 -35 -168.501s-51.666 -87.834 -84.999 -114.501s-66.333 -48.667 -99 -66s-60.667 -28.666 -84 -33.999l-35 -6l369 -645h-52l-348 635h-532v-635h-41v1434
zM757.999 1393l-471 -0.00195312v-717h471c116 0 209.833 33.833 281.5 101.5s107.5 153.334 107.5 257.001s-35.833 189.334 -107.5 257.001s-165.5 101.5 -281.5 101.5zM675.999 1638l-215 246h51l184 -215l185 215h51l-215 -246h-41z" />
    <glyph glyph-name="rcaron" unicode="&#x159;" horiz-adv-x="696" 
d="M645 963h-41.0039c-104 0 -191.333 -37.667 -262 -113s-106 -171 -106 -287v-563h-41v983h41v-246c2.66699 6.66699 6.33398 16.167 11.001 28.5s16.834 34 36.501 65s41.834 58 66.501 81s59.834 44.167 105.501 63.5s95.167 29 148.5 29h41v-41zM378.996 1167l-215 246
h51l184 -215l185 215h51l-215 -246h-41z" />
    <glyph glyph-name="Sacute" unicode="&#x15a;" horiz-adv-x="1116" 
d="M952 369c0 61.333 -15.001 113.5 -45.001 156.5s-69.167 76.833 -117.5 101.5s-101.5 46.167 -159.5 64.5s-116 37.333 -174 57s-111.333 42.167 -160 67.5s-88 60.5 -118 105.5s-45 99.5 -45 163.5c0 101.333 41 188.166 123 260.499s187.667 108.5 317 108.5
c48 0 94.5 -6.16699 139.5 -18.5s82.5 -26.666 112.5 -42.999s56.667 -33 80 -50s40.333 -31.833 51 -44.5l17 -18l-31 -31c-4 4 -9.5 9.83301 -16.5 17.5s-22.333 21 -46 40s-48.5 35.667 -74.5 50s-60.167 27.333 -102.5 39s-85.5 17.5 -129.5 17.5
c-118.667 0 -214.834 -32 -288.501 -96s-110.5 -141.333 -110.5 -232c0 -57.333 15 -106.833 45 -148.5s69.333 -74 118 -97s102 -43.333 160 -61s116 -36.834 174 -57.501s111.167 -44 159.5 -70s87.5 -62.833 117.5 -110.5s45 -104.834 45 -171.501
c0 -106.667 -43.333 -198.167 -130 -274.5s-197 -114.5 -331 -114.5c-56 0 -108.833 7.16699 -158.5 21.5s-90.167 31.333 -121.5 51s-59 39.334 -83 59.001s-40.667 37.167 -50 52.5l-17 20l31 31c2.66699 -5.33301 7.5 -12.5 14.5 -21.5s22.333 -24.333 46 -46
s49.834 -41.167 78.501 -58.5s66.334 -33.166 113.001 -47.499s95.667 -21.5 147 -21.5c124 0 225 34.333 303 103s117 150.667 117 246zM552.999 1638l154 246h51l-164 -246h-41z" />
    <glyph glyph-name="sacute" unicode="&#x15b;" horiz-adv-x="890" 
d="M737 860l-29.9971 -31.002c-8 9.33301 -19.333 21.666 -34 36.999s-45.834 35.333 -93.501 60s-97.5 37 -149.5 37c-75.333 0 -136.833 -21.167 -184.5 -63.5s-71.5 -92.833 -71.5 -151.5c0 -50.667 20.167 -91.667 60.5 -123s89.166 -55.666 146.499 -72.999
s114.333 -35.166 171 -53.499s105.167 -46.666 145.5 -84.999s60.5 -87.5 60.5 -147.5c0 -79.333 -31.5 -146.833 -94.5 -202.5s-144.167 -83.5 -243.5 -83.5c-39.333 0 -77.833 5.33301 -115.5 16s-68.834 24.167 -93.501 40.5s-46.167 32.833 -64.5 49.5
s-31.833 30.334 -40.5 41.001l-14 16l31 31c2.66699 -4 6.66699 -9.5 12 -16.5s17.333 -19.333 36 -37s38.5 -33.334 59.5 -47.001s48.667 -26 83 -37s69.833 -16.5 106.5 -16.5c90 0 162 24 216 72s81 106 81 174c0 52 -20.167 94.667 -60.5 128
s-88.833 58.666 -145.5 75.999s-113.667 34.833 -171 52.5s-106.166 44.834 -146.499 81.501s-60.5 84.667 -60.5 144c0 68 28.333 127.667 85 179s127.334 77 212.001 77c57.333 0 111.666 -12 162.999 -36s88.666 -47.667 111.999 -71zM420.003 1167l153 246h52l-164 -246
h-41z" />
    <glyph glyph-name="Scedilla" unicode="&#x15e;" horiz-adv-x="1116" 
d="M952 369c0 61.333 -15 113.5 -45 156.5s-69.167 76.833 -117.5 101.5s-101.5 46.167 -159.5 64.5s-116 37.333 -174 57s-111.333 42.167 -160 67.5s-88 60.5 -118 105.5s-45 99.5 -45 163.5c0 101.333 41 188.166 123 260.499s187.667 108.5 317 108.5
c48 0 94.5 -6.16699 139.5 -18.5s82.5 -26.666 112.5 -42.999s56.667 -33 80 -50s40.333 -31.833 51 -44.5l17 -18l-31 -31c-4 4 -9.5 9.83301 -16.5 17.5s-22.333 21 -46 40s-48.5 35.667 -74.5 50s-60.167 27.333 -102.5 39s-85.5 17.5 -129.5 17.5
c-118.667 0 -214.834 -32 -288.501 -96s-110.5 -141.333 -110.5 -232c0 -57.333 15 -106.833 45 -148.5s69.333 -74 118 -97s102 -43.333 160 -61s116 -36.834 174 -57.501s111.167 -44 159.5 -70s87.5 -62.833 117.5 -110.5s45 -104.834 45 -171.501
c0 -104 -41.333 -193.5 -124 -268.5s-184.667 -115.167 -306 -120.5l-51 -103c13.333 6.66699 33.666 10 60.999 10c40.667 0 74.834 -13.667 102.501 -41s41.5 -61.333 41.5 -102c0 -42 -16.5 -78.167 -49.5 -108.5s-74.5 -45.5 -124.5 -45.5
c-24.667 0 -49 4.16699 -73 12.5s-41.333 16.5 -52 24.5l-19 15l21 30c34 -27.333 75 -41 123 -41c39.333 0 71.333 11 96 33s37 48.667 37 80c0 75.333 -37.667 113 -113 113c-12 0 -23.833 -1.83301 -35.5 -5.5s-20.834 -7.5 -27.501 -11.5l-8 -4l-21 21l61 123
c-56 0 -108.833 7.16699 -158.5 21.5s-90.167 31.333 -121.5 51s-59 39.334 -83 59.001s-40.667 37.167 -50 52.5l-17 20l31 31c2.66699 -5.33301 7.5 -12.5 14.5 -21.5s22.333 -24.333 46 -46s49.834 -41.167 78.501 -58.5s66.334 -33.166 113.001 -47.499
s95.667 -21.5 147 -21.5c124 0 225 34.333 303 103s117 150.667 117 246z" />
    <glyph glyph-name="scedilla" unicode="&#x15f;" horiz-adv-x="890" 
d="M737 860l-29.9951 -31.002c-8 9.33301 -19.333 21.666 -34 36.999s-45.834 35.333 -93.501 60s-97.5 37 -149.5 37c-75.333 0 -136.833 -21.167 -184.5 -63.5s-71.5 -92.833 -71.5 -151.5c0 -50.667 20.167 -91.667 60.5 -123s89.166 -55.666 146.499 -72.999
s114.333 -35.166 171 -53.499s105.167 -46.666 145.5 -84.999s60.5 -87.5 60.5 -147.5c0 -76.667 -30 -142.167 -90 -196.5s-136 -84.166 -228 -89.499l-51 -103c13.333 6.66699 34 10 62 10c40.667 0 74.667 -13.667 102 -41s41 -61.333 41 -102
c0 -42 -16.333 -78.167 -49 -108.5s-74.334 -45.5 -125.001 -45.5c-24.667 0 -49 4.16699 -73 12.5s-41.333 16.5 -52 24.5l-19 15l21 30c34 -27.333 75 -41 123 -41c39.333 0 71.333 11 96 33s37 48.667 37 80c0 75.333 -37.667 113 -113 113
c-12 0 -23.833 -1.83301 -35.5 -5.5s-20.834 -7.5 -27.501 -11.5l-8 -4l-21 21l62 123c-39.333 1.33301 -77.5 8 -114.5 20s-67.167 26 -90.5 42s-43.833 31.5 -61.5 46.5s-30.834 27.833 -39.501 38.5l-12 16l31 31c2.66699 -4 6.66699 -9.5 12 -16.5
s17.333 -19.333 36 -37s38.5 -33.334 59.5 -47.001s48.667 -26 83 -37s69.833 -16.5 106.5 -16.5c90 0 162 24 216 72s81 106 81 174c0 52 -20.167 94.667 -60.5 128s-88.833 58.666 -145.5 75.999s-113.667 34.833 -171 52.5s-106.166 44.834 -146.499 81.501
s-60.5 84.667 -60.5 144c0 68 28.333 127.667 85 179s127.334 77 212.001 77c57.333 0 111.666 -12 162.999 -36s88.666 -47.667 111.999 -71z" />
    <glyph glyph-name="Scaron" unicode="&#x160;" horiz-adv-x="1116" 
d="M952 369c0 61.333 -15.001 113.5 -45.001 156.5s-69.167 76.833 -117.5 101.5s-101.5 46.167 -159.5 64.5s-116 37.333 -174 57s-111.333 42.167 -160 67.5s-88 60.5 -118 105.5s-45 99.5 -45 163.5c0 101.333 41 188.166 123 260.499s187.667 108.5 317 108.5
c48 0 94.5 -6.16699 139.5 -18.5s82.5 -26.666 112.5 -42.999s56.667 -33 80 -50s40.333 -31.833 51 -44.5l17 -18l-31 -31c-4 4 -9.5 9.83301 -16.5 17.5s-22.333 21 -46 40s-48.5 35.667 -74.5 50s-60.167 27.333 -102.5 39s-85.5 17.5 -129.5 17.5
c-118.667 0 -214.834 -32 -288.501 -96s-110.5 -141.333 -110.5 -232c0 -57.333 15 -106.833 45 -148.5s69.333 -74 118 -97s102 -43.333 160 -61s116 -36.834 174 -57.501s111.167 -44 159.5 -70s87.5 -62.833 117.5 -110.5s45 -104.834 45 -171.501
c0 -106.667 -43.333 -198.167 -130 -274.5s-197 -114.5 -331 -114.5c-56 0 -108.833 7.16699 -158.5 21.5s-90.167 31.333 -121.5 51s-59 39.334 -83 59.001s-40.667 37.167 -50 52.5l-17 20l31 31c2.66699 -5.33301 7.5 -12.5 14.5 -21.5s22.333 -24.333 46 -46
s49.834 -41.167 78.501 -58.5s66.334 -33.166 113.001 -47.499s95.667 -21.5 147 -21.5c124 0 225 34.333 303 103s117 150.667 117 246zM552.999 1638l-215 246h51l184 -215l185 215h51l-215 -246h-41z" />
    <glyph glyph-name="scaron" unicode="&#x161;" horiz-adv-x="890" 
d="M737 860l-29.9971 -31.002c-8 9.33301 -19.333 21.666 -34 36.999s-45.834 35.333 -93.501 60s-97.5 37 -149.5 37c-75.333 0 -136.833 -21.167 -184.5 -63.5s-71.5 -92.833 -71.5 -151.5c0 -50.667 20.167 -91.667 60.5 -123s89.166 -55.666 146.499 -72.999
s114.333 -35.166 171 -53.499s105.167 -46.666 145.5 -84.999s60.5 -87.5 60.5 -147.5c0 -79.333 -31.5 -146.833 -94.5 -202.5s-144.167 -83.5 -243.5 -83.5c-39.333 0 -77.833 5.33301 -115.5 16s-68.834 24.167 -93.501 40.5s-46.167 32.833 -64.5 49.5
s-31.833 30.334 -40.5 41.001l-14 16l31 31c2.66699 -4 6.66699 -9.5 12 -16.5s17.333 -19.333 36 -37s38.5 -33.334 59.5 -47.001s48.667 -26 83 -37s69.833 -16.5 106.5 -16.5c90 0 162 24 216 72s81 106 81 174c0 52 -20.167 94.667 -60.5 128
s-88.833 58.666 -145.5 75.999s-113.667 34.833 -171 52.5s-106.166 44.834 -146.499 81.501s-60.5 84.667 -60.5 144c0 68 28.333 127.667 85 179s127.334 77 212.001 77c57.333 0 111.666 -12 162.999 -36s88.666 -47.667 111.999 -71zM420.003 1167l-215 246h51l184 -215
l185 215h51l-215 -246h-41z" />
    <glyph glyph-name="uni0162" unicode="&#x162;" horiz-adv-x="1105" 
d="M41 1434h1024v-41h-492v-1393h-41v1393h-491v41zM440 -430l92 266h52l-113 -266h-31z" />
    <glyph glyph-name="uni0163" unicode="&#x163;" horiz-adv-x="675" 
d="M256 1044l0.000976562 267h41v-328h225v-41h-225v-717c0 -65.333 16.333 -115.833 49 -151.5s77.667 -53.5 135 -53.5c22 0 43.167 2.83301 63.5 8.5s35.5 11.167 45.5 16.5l14 6v-41c-34 -20.667 -75 -30.667 -123 -30c-66.667 0 -120.834 21.833 -162.501 65.5
s-62.5 103.5 -62.5 179.5v717h-205v41h144c40.667 0 61 20.333 61 61zM307.001 -430l92 266h52l-113 -266h-31z" />
    <glyph glyph-name="Tcaron" unicode="&#x164;" horiz-adv-x="1105" 
d="M41 1434h1024v-41h-492v-1393h-41v1393h-491v41zM532 1638l-215 246h52l184 -215l184 215h51l-215 -246h-41z" />
    <glyph glyph-name="tcaron" unicode="&#x165;" horiz-adv-x="696" 
d="M256 1044l0.000976562 267h41v-328h225v-41h-225v-717c0 -65.333 16.333 -115.833 49 -151.5s77.667 -53.5 135 -53.5c22 0 43.167 2.83301 63.5 8.5s35.5 11.167 45.5 16.5l14 6v-41c-34 -20.667 -75 -30.667 -123 -30c-66.667 0 -120.834 21.833 -162.501 65.5
s-62.5 103.5 -62.5 179.5v717h-205v41h144c40.667 0 61 20.333 61 61zM604.001 1167l92 267h52l-113 -267h-31z" />
    <glyph glyph-name="Umacron" unicode="&#x16a;" horiz-adv-x="1536" 
d="M768 20c139.333 0 257.833 50.333 355.5 151s146.5 224.667 146.5 372v891h41v-891c0 -157.333 -53 -290.5 -159 -399.5s-234 -163.5 -384 -163.5s-278 54.5 -384 163.5s-159 242.167 -159 399.5v891h41v-891c0 -147.333 48.833 -271.333 146.5 -372
s216.167 -151 355.5 -151zM1024 1782v-41h-512v41h512z" />
    <glyph glyph-name="umacron" unicode="&#x16b;" 
d="M952 0v246c-2.66699 -6.66699 -6.33398 -16.167 -11.001 -28.5s-17 -34 -37 -65s-42.167 -58 -66.5 -81s-59.333 -44 -105 -63s-95.167 -28.5 -148.5 -28.5c-109.333 0 -201.5 39.5 -276.5 118.5s-112.5 179.167 -112.5 300.5v584h41v-584
c0 -110.667 33.333 -201.5 100 -272.5s149.334 -106.5 248.001 -106.5c104 0 191.333 37.667 262 113s106 171 106 287v563h41v-983h-41zM850 1311v-41h-512v41h512z" />
    <glyph glyph-name="Uring" unicode="&#x16e;" horiz-adv-x="1536" 
d="M768 20c139.333 0 257.833 50.333 355.5 151s146.5 224.667 146.5 372v891h41v-891c0 -157.333 -53 -290.5 -159 -399.5s-234 -163.5 -384 -163.5s-278 54.5 -384 163.5s-159 242.167 -159 399.5v891h41v-891c0 -147.333 48.833 -271.333 146.5 -372
s216.167 -151 355.5 -151zM911 1781.5c0 41 -13.667 75.167 -41 102.5s-61.333 41 -102 41s-74.667 -13.667 -102 -41s-41 -61.5 -41 -102.5s13.667 -75.167 41 -102.5s61.333 -41 102 -41s74.667 13.667 102 41s41 61.5 41 102.5zM584 1782c0 52 18 95.667 54 131
s79.333 53 130 53s94 -17.667 130 -53s54 -79 54 -131s-18 -95.833 -54 -131.5s-79.333 -53.5 -130 -53.5s-94 17.833 -130 53.5s-54 79.5 -54 131.5z" />
    <glyph glyph-name="uring" unicode="&#x16f;" 
d="M952 0v246c-2.66699 -6.66699 -6.33398 -16.167 -11.001 -28.5s-17 -34 -37 -65s-42.167 -58 -66.5 -81s-59.333 -44 -105 -63s-95.167 -28.5 -148.5 -28.5c-109.333 0 -201.5 39.5 -276.5 118.5s-112.5 179.167 -112.5 300.5v584h41v-584
c0 -110.667 33.333 -201.5 100 -272.5s149.334 -106.5 248.001 -106.5c104 0 191.333 37.667 262 113s106 171 106 287v563h41v-983h-41zM737 1310.5c0 41 -13.667 75.167 -41 102.5s-61.5 41 -102.5 41s-75 -13.667 -102 -41s-40.5 -61.5 -40.5 -102.5
s13.5 -75.167 40.5 -102.5s61 -41 102 -41s75.167 13.667 102.5 41s41 61.5 41 102.5zM410 1311c0 52 17.667 95.667 53 131s79 53 131 53s95.667 -17.667 131 -53s53 -79 53 -131s-17.667 -95.833 -53 -131.5s-79 -53.5 -131 -53.5s-95.667 17.833 -131 53.5
s-53 79.5 -53 131.5z" />
    <glyph glyph-name="Uhungarumlaut" unicode="&#x170;" horiz-adv-x="1536" 
d="M768 20c139.333 0 257.833 50.333 355.5 151s146.5 224.667 146.5 372v891h41v-891c0 -157.333 -53 -290.5 -159 -399.5s-234 -163.5 -384 -163.5s-278 54.5 -384 163.5s-159 242.167 -159 399.5v891h41v-891c0 -147.333 48.833 -271.333 146.5 -372
s216.167 -151 355.5 -151zM604 1638l154 246h51l-164 -246h-41zM870 1638l154 246h51l-164 -246h-41z" />
    <glyph glyph-name="uhungarumlaut" unicode="&#x171;" 
d="M952 0v246c-2.66699 -6.66699 -6.33398 -16.167 -11.001 -28.5s-17 -34 -37 -65s-42.167 -58 -66.5 -81s-59.333 -44 -105 -63s-95.167 -28.5 -148.5 -28.5c-109.333 0 -201.5 39.5 -276.5 118.5s-112.5 179.167 -112.5 300.5v584h41v-584
c0 -110.667 33.333 -201.5 100 -272.5s149.334 -106.5 248.001 -106.5c104 0 191.333 37.667 262 113s106 171 106 287v563h41v-983h-41zM430 1167l154 246h51l-164 -246h-41zM696 1167l154 246h51l-164 -246h-41z" />
    <glyph glyph-name="Uogonek" unicode="&#x172;" horiz-adv-x="1536" 
d="M768 20c139.333 0 257.834 50.3311 355.501 150.998s146.5 224.667 146.5 372v891h41v-891c0 -154 -49.167 -283.667 -147.5 -389s-216.5 -163.333 -354.5 -174c-9.33301 -8 -20.833 -19.333 -34.5 -34s-31.834 -42.167 -54.501 -82.5s-34 -76.833 -34 -109.5
c0 -75.333 41 -112.666 123 -111.999c22 0 43.167 2.33301 63.5 7s35.5 9.66699 45.5 15l14 8v-41c-34 -20.667 -75 -30.667 -123 -30c-50.667 0 -90.667 14 -120 42s-44 65 -44 111c0 36.667 10.333 73.834 31 111.501s41 66.167 61 85.5l31 29
c-150 0 -278 54.5 -384 163.5s-159 242.167 -159 399.5v891h41v-891c0 -147.333 48.833 -271.333 146.5 -372s216.167 -151 355.5 -151z" />
    <glyph glyph-name="uogonek" unicode="&#x173;" 
d="M952 0l0.00292969 246c-2.66699 -6.66699 -6.33398 -16.167 -11.001 -28.5s-17 -34 -37 -65s-42.167 -58 -66.5 -81s-59.333 -44 -105 -63s-95.167 -28.5 -148.5 -28.5c-109.333 0 -201.5 39.5 -276.5 118.5s-112.5 179.167 -112.5 300.5v584h41v-584
c0 -110.667 33.333 -201.5 100 -272.5s149.334 -106.5 248.001 -106.5c104 0 191.333 37.667 262 113s106 171 106 287v563h41v-983c-10.667 -9.33301 -23.834 -21.833 -39.501 -37.5s-36.834 -45 -63.501 -88s-40 -83.167 -40 -120.5c0 -75.333 41 -112.666 123 -111.999
c22 0 43.167 2.33301 63.5 7s35.166 9.66699 44.499 15l15 8v-41c-34 -20.667 -75 -30.667 -123 -30c-50.667 0 -90.667 14 -120 42s-44 65 -44 111c0 39.333 12 79.666 36 120.999s48.333 72 73 92z" />
    <glyph glyph-name="Ydieresis" unicode="&#x178;" horiz-adv-x="1228" 
d="M113 1434l501 -891l502 891h51l-532 -932v-502h-41v502l-533 932h52zM410 1761.5c0 11 4 20.5 12 28.5s17.5 12 28.5 12s20.667 -4 29 -12s12.5 -17.5 12.5 -28.5s-4.16699 -20.667 -12.5 -29s-18 -12.5 -29 -12.5s-20.5 4.16699 -28.5 12.5s-12 18 -12 29zM737 1761.5
c0 11 4.16699 20.5 12.5 28.5s18 12 29 12s20.5 -4 28.5 -12s12 -17.5 12 -28.5s-4 -20.667 -12 -29s-17.5 -12.5 -28.5 -12.5s-20.667 4.16699 -29 12.5s-12.5 18 -12.5 29z" />
    <glyph glyph-name="Zacute" unicode="&#x179;" horiz-adv-x="1146" 
d="M993 1393h-880v41h931v-31l-911 -1362h932v-41h-983v31zM553 1638l154 246h51l-164 -246h-41z" />
    <glyph glyph-name="zacute" unicode="&#x17a;" horiz-adv-x="870" 
d="M778 983v-31l-676 -911h697v-41h-748v31l676 911h-655v41h706zM410 1167l153 246h51l-163 -246h-41z" />
    <glyph glyph-name="Zdotaccent" unicode="&#x17b;" horiz-adv-x="1146" 
d="M993 1393h-880v41h931v-31l-911 -1362h932v-41h-983v31zM543 1761.5c0 11 4.33301 20.5 13 28.5s17.834 12 27.501 12s19 -4 28 -12s13.5 -17.5 13.5 -28.5s-4.5 -20.667 -13.5 -29s-18.333 -12.5 -28 -12.5s-18.834 4.16699 -27.501 12.5s-13 18 -13 29z" />
    <glyph glyph-name="zdotaccent" unicode="&#x17c;" horiz-adv-x="870" 
d="M778 983v-31l-676 -911h697v-41h-748v31l676 911h-655v41h706zM389 1290.5c0 11 4.16699 20.5 12.5 28.5s17.833 12 28.5 12s20.167 -4 28.5 -12s12.5 -17.5 12.5 -28.5s-4.16699 -20.667 -12.5 -29s-17.833 -12.5 -28.5 -12.5s-20.167 4.16699 -28.5 12.5
s-12.5 18 -12.5 29z" />
    <glyph glyph-name="Zcaron" unicode="&#x17d;" horiz-adv-x="1146" 
d="M993 1393h-880v41h931v-31l-911 -1362h932v-41h-983v31zM563 1638l-215 246h51l185 -215l184 215h51l-215 -246h-41z" />
    <glyph glyph-name="zcaron" unicode="&#x17e;" horiz-adv-x="870" 
d="M778 983v-31l-676 -911h697v-41h-748v31l676 911h-655v41h706zM410 1167l-215 246h51l184 -215l184 215h52l-215 -246h-41z" />
    <glyph glyph-name="florin" unicode="&#x192;" horiz-adv-x="696" 
d="M379 727l-173.999 -922c-13.333 -74 -41.333 -131.667 -84 -173s-96.667 -62 -162 -62c-22 0 -43.167 2.66699 -63.5 8s-35.5 10.666 -45.5 15.999l-14 7v41c40.667 -20.667 81.667 -31 123 -31c113.333 0 181.666 64.667 204.999 194l174 922h-184v41h194l82 451
c13.333 74 41.333 131.667 84 173s96.667 62 162 62c22 0 43.167 -2.66699 63.5 -8s35.166 -10.666 44.499 -15.999l15 -7v-41c-40.667 20.667 -81.667 31 -123 31c-113.333 0 -181.666 -64.667 -204.999 -194l-82 -451h256v-41h-266z" />
    <glyph glyph-name="uni0218" unicode="&#x218;" horiz-adv-x="1116" 
d="M952 369c0 61.333 -15.001 113.5 -45.001 156.5s-69.167 76.833 -117.5 101.5s-101.5 46.167 -159.5 64.5s-116 37.333 -174 57s-111.333 42.167 -160 67.5s-88 60.5 -118 105.5s-45 99.5 -45 163.5c0 101.333 41 188.166 123 260.499s187.667 108.5 317 108.5
c48 0 94.5 -6.16699 139.5 -18.5s82.5 -26.666 112.5 -42.999s56.667 -33 80 -50s40.333 -31.833 51 -44.5l17 -18l-31 -31c-4 4 -9.5 9.83301 -16.5 17.5s-22.333 21 -46 40s-48.5 35.667 -74.5 50s-60.167 27.333 -102.5 39s-85.5 17.5 -129.5 17.5
c-118.667 0 -214.834 -32 -288.501 -96s-110.5 -141.333 -110.5 -232c0 -57.333 15 -106.833 45 -148.5s69.333 -74 118 -97s102 -43.333 160 -61s116 -36.834 174 -57.501s111.167 -44 159.5 -70s87.5 -62.833 117.5 -110.5s45 -104.834 45 -171.501
c0 -106.667 -43.333 -198.167 -130 -274.5s-197 -114.5 -331 -114.5c-56 0 -108.833 7.16699 -158.5 21.5s-90.167 31.333 -121.5 51s-59 39.334 -83 59.001s-40.667 37.167 -50 52.5l-17 20l31 31c2.66699 -5.33301 7.5 -12.5 14.5 -21.5s22.333 -24.333 46 -46
s49.834 -41.167 78.501 -58.5s66.334 -33.166 113.001 -47.499s95.667 -21.5 147 -21.5c124 0 225 34.333 303 103s117 150.667 117 246zM439.999 -430l92 266h52l-113 -266h-31z" />
    <glyph glyph-name="uni0219" unicode="&#x219;" horiz-adv-x="890" 
d="M737 860l-29.9971 -31.002c-8 9.33301 -19.333 21.666 -34 36.999s-45.834 35.333 -93.501 60s-97.5 37 -149.5 37c-75.333 0 -136.833 -21.167 -184.5 -63.5s-71.5 -92.833 -71.5 -151.5c0 -50.667 20.167 -91.667 60.5 -123s89.166 -55.666 146.499 -72.999
s114.333 -35.166 171 -53.499s105.167 -46.666 145.5 -84.999s60.5 -87.5 60.5 -147.5c0 -79.333 -31.5 -146.833 -94.5 -202.5s-144.167 -83.5 -243.5 -83.5c-39.333 0 -77.833 5.33301 -115.5 16s-68.834 24.167 -93.501 40.5s-46.167 32.833 -64.5 49.5
s-31.833 30.334 -40.5 41.001l-14 16l31 31c2.66699 -4 6.66699 -9.5 12 -16.5s17.333 -19.333 36 -37s38.5 -33.334 59.5 -47.001s48.667 -26 83 -37s69.833 -16.5 106.5 -16.5c90 0 162 24 216 72s81 106 81 174c0 52 -20.167 94.667 -60.5 128
s-88.833 58.666 -145.5 75.999s-113.667 34.833 -171 52.5s-106.166 44.834 -146.499 81.501s-60.5 84.667 -60.5 144c0 68 28.333 127.667 85 179s127.334 77 212.001 77c57.333 0 111.666 -12 162.999 -36s88.666 -47.667 111.999 -71zM317.003 -430.002l93 266h51
l-113 -266h-31z" />
    <glyph glyph-name="uni021A" unicode="&#x21a;" horiz-adv-x="1105" 
d="M41 1434h1024v-41h-492v-1393h-41v1393h-491v41zM440 -430l92 266h52l-113 -266h-31z" />
    <glyph glyph-name="uni021B" unicode="&#x21b;" horiz-adv-x="675" 
d="M256 1044l0.000976562 267h41v-328h225v-41h-225v-717c0 -65.333 16.333 -115.833 49 -151.5s77.667 -53.5 135 -53.5c22 0 43.167 2.83301 63.5 8.5s35.5 11.167 45.5 16.5l14 6v-41c-34 -20.667 -75 -30.667 -123 -30c-66.667 0 -120.834 21.833 -162.501 65.5
s-62.5 103.5 -62.5 179.5v717h-205v41h144c40.667 0 61 20.333 61 61zM307.001 -430l92 266h52l-113 -266h-31z" />
    <glyph glyph-name="uni02BC" unicode="&#x2bc;" horiz-adv-x="266" 
d="M61 1167l93 267h51l-113 -267h-31z" />
    <glyph glyph-name="circumflex" unicode="&#x2c6;" horiz-adv-x="593" 
d="M61 1167l215 246h41l215 -246h-51l-184 215l-184 -215h-52z" />
    <glyph glyph-name="caron" unicode="&#x2c7;" horiz-adv-x="593" 
d="M276 1167l-215 246h52l184 -215l184 215h51l-215 -246h-41z" />
    <glyph glyph-name="breve" unicode="&#x2d8;" horiz-adv-x="614" 
d="M307 1208c61.333 0 110.833 18.833 148.5 56.5s56.5 87.167 56.5 148.5h41c0 -70.667 -23.167 -129.334 -69.5 -176.001s-105 -70 -176 -70s-129.833 23.333 -176.5 70s-70 105.334 -70 176.001h41c0 -61.333 18.833 -110.833 56.5 -148.5s87.167 -56.5 148.5 -56.5z" />
    <glyph glyph-name="dotaccent" unicode="&#x2d9;" horiz-adv-x="204" 
d="M61 1310.5c0 11 4.16699 20.667 12.5 29s18 12.5 29 12.5s20.5 -4.16699 28.5 -12.5s12 -18 12 -29s-4 -20.5 -12 -28.5s-17.5 -12 -28.5 -12s-20.667 4 -29 12s-12.5 17.5 -12.5 28.5z" />
    <glyph glyph-name="ring" unicode="&#x2da;" horiz-adv-x="491" 
d="M389 1228.5c0 41 -13.667 75.167 -41 102.5s-61.5 41 -102.5 41s-75.167 -13.667 -102.5 -41s-41 -61.5 -41 -102.5s13.667 -75.167 41 -102.5s61.5 -41 102.5 -41s75.167 13.667 102.5 41s41 61.5 41 102.5zM61 1229c0 52 17.833 95.667 53.5 131s79.5 53 131.5 53
s95.667 -17.667 131 -53s53 -79 53 -131s-17.667 -95.833 -53 -131.5s-79 -53.5 -131 -53.5s-95.833 17.833 -131.5 53.5s-53.5 79.5 -53.5 131.5z" />
    <glyph glyph-name="ogonek" unicode="&#x2db;" horiz-adv-x="409" 
d="M205 0h41c-10.667 -9.33301 -24 -21.833 -40 -37.5s-37.333 -45 -64 -88s-40 -83.167 -40 -120.5c0 -75.333 41 -112.666 123 -111.999c22 0 43.167 2.33301 63.5 7s35.5 9.66699 45.5 15l14 8v-41c-34 -20.667 -75 -30.667 -123 -30c-50.667 0 -90.667 14 -120 42
s-44 65 -44 111c0 39.333 12 79.666 36 120.999s47.667 72 71 92z" />
    <glyph glyph-name="tilde" unicode="&#x2dc;" horiz-adv-x="645" 
d="M451 1188c-42 0 -87 27.333 -135 82s-88.333 82 -121 82c-61.333 0 -92.333 -54.667 -93 -164h-41c0 68 12.667 119.167 38 153.5s57.333 51.5 96 51.5c42 0 86.833 -27.333 134.5 -82s88.167 -82 121.5 -82c61.333 0 92 54.667 92 164h41
c0 -68 -12.667 -119.167 -38 -153.5s-57 -51.5 -95 -51.5z" />
    <glyph glyph-name="hungarumlaut" unicode="&#x2dd;" horiz-adv-x="593" 
d="M61 1167l154 246h51l-164 -246h-41zM328 1167l153 246h51l-163 -246h-41z" />
    <glyph glyph-name="uni0401" unicode="&#x401;" horiz-adv-x="1280" 
d="M287 41h911v-41h-952v1434h932v-41h-891v-625h727v-41h-727v-686zM512 1761.5c0 11 4.16699 20.5 12.5 28.5s17.833 12 28.5 12s20.167 -4 28.5 -12s12.5 -17.5 12.5 -28.5s-4.16699 -20.667 -12.5 -29s-17.833 -12.5 -28.5 -12.5s-20.167 4.16699 -28.5 12.5
s-12.5 18 -12.5 29zM840 1761.5c0 11 4 20.5 12 28.5s17.5 12 28.5 12s20.667 -4 29 -12s12.5 -17.5 12.5 -28.5s-4.16699 -20.667 -12.5 -29s-18 -12.5 -29 -12.5s-20.5 4.16699 -28.5 12.5s-12 18 -12 29z" />
    <glyph glyph-name="uni0402" unicode="&#x402;" horiz-adv-x="1443" 
d="M1280 430c0 -142 -38.167 -252.5 -114.5 -331.5s-181.5 -118.5 -315.5 -118.5v40c124 0 219.833 35.167 287.5 105.5s101.5 171.833 101.5 304.5s-33.833 234.167 -101.5 304.5s-163.5 105.5 -287.5 105.5c-69.333 0 -138.166 -13 -206.499 -39
s-118.833 -51.333 -151.5 -76l-52 -39v-686h-41v1393h-399v41h840v-41h-400v-656c13.333 10.667 31.666 24 54.999 40s70.833 37.333 142.5 64s142.5 40 212.5 40c134 0 239.167 -39.667 315.5 -119s114.5 -190 114.5 -332z" />
    <glyph glyph-name="uni0403" unicode="&#x403;" horiz-adv-x="1126" 
d="M246 0v1434h839v-41h-798v-1393h-41zM655 1638l154 246h51l-164 -246h-41z" />
    <glyph glyph-name="uni0404" unicode="&#x404;" horiz-adv-x="1525" 
d="M1393 317l29.9922 -19.998c-5.33301 -8 -13.166 -19.167 -23.499 -33.5s-33.5 -40 -69.5 -77s-74.833 -69.167 -116.5 -96.5s-96.334 -52.5 -164.001 -75.5s-137.5 -34.5 -209.5 -34.5c-195.333 0 -363.666 72 -504.999 216s-212 317.667 -212 521s70.667 377 212 521
s309.666 216 504.999 216c72.667 0 142.334 -10.833 209.001 -32.5s121.834 -48.334 165.501 -80.001s81.834 -62.834 114.501 -93.501s56.667 -57 72 -79l22 -32l-30 -21c-5.33301 8 -12.833 18.5 -22.5 31.5s-31.667 36.667 -66 71s-71.166 64.833 -110.499 91.5
s-91.166 50.5 -155.499 71.5s-130.5 31.5 -198.5 31.5c-184 0 -341.667 -64.833 -473 -194.5s-199 -286.5 -203 -470.5h819v-41h-819c0 -188.667 66.5 -350.334 199.5 -485.001s291.833 -202 476.5 -202c68 0 133.833 10.333 197.5 31s115.834 45.334 156.501 74.001
s76.834 57.667 108.501 87s54.834 54.333 69.501 75z" />
    <glyph glyph-name="uni0405" unicode="&#x405;" horiz-adv-x="1116" 
d="M952 369c0 61.333 -15.001 113.5 -45.001 156.5s-69.167 76.833 -117.5 101.5s-101.5 46.167 -159.5 64.5s-116 37.333 -174 57s-111.333 42.167 -160 67.5s-88 60.5 -118 105.5s-45 99.5 -45 163.5c0 101.333 41 188.166 123 260.499s187.667 108.5 317 108.5
c48 0 94.5 -6.16699 139.5 -18.5s82.5 -26.666 112.5 -42.999s56.667 -33 80 -50s40.333 -31.833 51 -44.5l17 -18l-31 -31c-4 4 -9.5 9.83301 -16.5 17.5s-22.333 21 -46 40s-48.5 35.667 -74.5 50s-60.167 27.333 -102.5 39s-85.5 17.5 -129.5 17.5
c-118.667 0 -214.834 -32 -288.501 -96s-110.5 -141.333 -110.5 -232c0 -57.333 15 -106.833 45 -148.5s69.333 -74 118 -97s102 -43.333 160 -61s116 -36.834 174 -57.501s111.167 -44 159.5 -70s87.5 -62.833 117.5 -110.5s45 -104.834 45 -171.501
c0 -106.667 -43.333 -198.167 -130 -274.5s-197 -114.5 -331 -114.5c-56 0 -108.833 7.16699 -158.5 21.5s-90.167 31.333 -121.5 51s-59 39.334 -83 59.001s-40.667 37.167 -50 52.5l-17 20l31 31c2.66699 -5.33301 7.5 -12.5 14.5 -21.5s22.333 -24.333 46 -46
s49.834 -41.167 78.501 -58.5s66.334 -33.166 113.001 -47.499s95.667 -21.5 147 -21.5c124 0 225 34.333 303 103s117 150.667 117 246z" />
    <glyph glyph-name="uni0406" unicode="&#x406;" horiz-adv-x="532" 
d="M246 0v1434h41v-1434h-41z" />
    <glyph glyph-name="uni0407" unicode="&#x407;" horiz-adv-x="573" 
d="M82 1761.5c0 11 4 20.5 12 28.5s17.5 12 28.5 12s20.667 -4 29 -12s12.5 -17.5 12.5 -28.5s-4.16699 -20.667 -12.5 -29s-18 -12.5 -29 -12.5s-20.5 4.16699 -28.5 12.5s-12 18 -12 29zM410 1761.5c0 11 4 20.5 12 28.5s17.5 12 28.5 12s20.667 -4 29 -12
s12.5 -17.5 12.5 -28.5s-4.16699 -20.667 -12.5 -29s-18 -12.5 -29 -12.5s-20.5 4.16699 -28.5 12.5s-12 18 -12 29zM266 0v1434h41v-1434h-41z" />
    <glyph glyph-name="uni0408" unicode="&#x408;" horiz-adv-x="983" 
d="M717 1434l41 0.000976562v-1024c0 -121.333 -40 -223.333 -120 -306s-176.667 -124 -290 -124c-39.333 0 -77.833 4.66699 -115.5 14s-68.834 21.166 -93.501 35.499s-46.167 28.666 -64.5 42.999s-32.166 26.5 -41.499 36.5l-13 14l31 31
c8 -9.33301 19.167 -21.666 33.5 -36.999s47.5 -35.333 99.5 -60s106.667 -37 164 -37c104 0 191.5 37 262.5 111s106.5 167 106.5 279v1024z" />
    <glyph glyph-name="uni0409" unicode="&#x409;" horiz-adv-x="2160" 
d="M1577 0h-430.001v1393h-707v-389c0 -206 -9.16699 -379.5 -27.5 -520.5s-44.5 -246.667 -78.5 -317s-70.167 -119 -108.5 -146s-82.833 -40.5 -133.5 -40.5c-15.333 0 -31.5 1.66699 -48.5 5s-30.167 7 -39.5 11l-14 4v41c34 -13.333 68 -20.333 102 -21
c42 0 79.833 13 113.5 39s65.834 72.5 96.501 139.5s54.5 168.5 71.5 304.5s25.5 303 25.5 501v430h789v-574h389c131.333 0 241 -42 329 -126s132 -185.333 132 -304s-44 -220 -132 -304s-197.667 -126 -329 -126zM1188 41h389c121.333 0 221.666 37.5 300.999 112.5
s119 167.167 119 276.5s-39.667 201.5 -119 276.5s-179.666 112.5 -300.999 112.5h-389v-778z" />
    <glyph glyph-name="uni040A" unicode="&#x40a;" horiz-adv-x="2150" 
d="M1577 0l-440 0.00195312v799h-850v-799h-41v1434h41v-594h850v594h41v-594h399c131.333 0 239.333 -40.333 324 -121s127 -180.334 127 -299.001s-42.333 -218.334 -127 -299.001s-192.667 -121 -324 -121zM1178 41.002h399c121.333 0 220 35.833 296 107.5
s114 162.167 114 271.5s-38 199.833 -114 271.5s-174.667 107.5 -296 107.5h-399v-758z" />
    <glyph glyph-name="uni040B" unicode="&#x40b;" horiz-adv-x="1484" 
d="M1239 0v451c0 122.667 -34.167 218.167 -102.5 286.5s-163.833 102.5 -286.5 102.5c-69.333 0 -138.166 -13 -206.499 -39s-118.833 -51.333 -151.5 -76l-52 -39v-686h-41v1393h-399v41h840v-41h-400v-656c13.333 10.667 31.666 24 54.999 40s70.833 37.333 142.5 64
s142.5 40 212.5 40c132.667 0 237.5 -38.333 314.5 -115s115.5 -181.667 115.5 -315v-451h-41z" />
    <glyph glyph-name="uni040C" unicode="&#x40c;" horiz-adv-x="1310" 
d="M287 461l880 973h52l-543 -605l594 -829h-51l-564 799h-10l-358 -389v-410h-41v1434h41v-973zM676 1638l153 246h52l-164 -246h-41z" />
    <glyph glyph-name="uni040E" unicode="&#x40e;" horiz-adv-x="1218" 
d="M635 440l480.999 994h41l-563 -1168c-49.333 -101.333 -98.833 -174.333 -148.5 -219s-109.5 -67 -179.5 -67c-15.333 0 -31.333 1.66699 -48 5s-30 7 -40 11l-14 4v41c34 -13.333 68 -20.333 102 -21c114.667 0 210.334 82 287.001 246l61 133l-553 1035h41z
M624.499 1679c61.667 0 111.167 18.833 148.5 56.5s56 87.167 56 148.5h41c0 -70.667 -22.833 -129.334 -68.5 -176.001s-104.667 -70 -177 -70s-131.333 23.333 -177 70s-68.5 105.334 -68.5 176.001h41c0 -61.333 18.667 -110.833 56 -148.5s86.833 -56.5 148.5 -56.5z
" />
    <glyph glyph-name="uni040F" unicode="&#x40f;" horiz-adv-x="1515" 
d="M1270 1434v-1434h-492v-307h-41v307h-491v1434h41v-1393h942v1393h41z" />
    <glyph glyph-name="uni0410" unicode="&#x410;" horiz-adv-x="1351" 
d="M696 1434l594 -1434h-41l-184 451h-778l-185 -451h-41l594 1434h41zM1044 492l-368 890l-369 -890h737z" />
    <glyph glyph-name="uni0411" unicode="&#x411;" horiz-adv-x="1300" 
d="M287 1393l-0.00195312 -574h450c126.667 0 231.834 -39.5 315.501 -118.5s125.5 -175.833 125.5 -290.5s-41.667 -211.667 -125 -291s-188.666 -119 -315.999 -119h-491v1434h819v-41h-778zM286.998 41h450c116 0 211.667 35.5 287 106.5s113 158.333 113 262
s-37.667 191 -113 262s-171 106.5 -287 106.5h-450v-737z" />
    <glyph glyph-name="uni0412" unicode="&#x412;" horiz-adv-x="1341" 
d="M891 768l-0.00390625 -10.001c8 -1.33301 18.833 -3.33301 32.5 -6s38.334 -12.667 74.001 -30s67.167 -37.833 94.5 -61.5s51.833 -59.5 73.5 -107.5s32.5 -102.667 32.5 -164c0 -114.667 -38.167 -208.167 -114.5 -280.5s-178.166 -108.5 -305.499 -108.5h-532v1434
h502c116 0 208 -32.167 276 -96.5s102 -148.5 102 -252.5c0 -49.333 -8.16699 -94 -24.5 -134s-35.666 -71 -57.999 -93s-45.166 -40.167 -68.499 -54.5s-43.333 -24.166 -60 -29.499zM286.996 40.999h491c116 0 208.167 32 276.5 96s102.5 148 102.5 252
s-34.167 188 -102.5 252s-160.5 96 -276.5 96h-491v-696zM747.996 1393h-461v-615h461c106.667 0 189.5 28 248.5 84s88.5 130.5 88.5 223.5s-29.5 167.5 -88.5 223.5s-141.833 84 -248.5 84z" />
    <glyph glyph-name="uni0413" unicode="&#x413;" horiz-adv-x="1126" 
d="M246 0v1434h839v-41h-798v-1393h-41z" />
    <glyph glyph-name="uni0414" unicode="&#x414;" horiz-adv-x="1423" 
d="M0 41h82c6.66699 5.33301 16.167 14.833 28.5 28.5s33.833 46.5 64.5 98.5s57.667 111 81 177s44.5 157.833 63.5 275.5s28.5 245.5 28.5 383.5v430h809v-1393h184v-348h-41v307h-1259v-307h-41v348zM389 1004c0 -134 -8.83301 -258.667 -26.5 -374
s-38.834 -207.5 -63.501 -276.5s-49.667 -128.5 -75 -178.5s-46.666 -85 -63.999 -105l-27 -29h983v1352h-727v-389z" />
    <glyph glyph-name="uni0415" unicode="&#x415;" horiz-adv-x="1280" 
d="M287 41h911v-41h-952v1434h932v-41h-891v-625h727v-41h-727v-686z" />
    <glyph glyph-name="uni0416" unicode="&#x416;" horiz-adv-x="1863" 
d="M143 1434l768 -850v850h41v-850l768 850h52l-543 -605l594 -829h-51l-564 799h-10l-246 -267v-532h-41v532l-245 267h-11l-563 -799h-51l594 829l-543 605h51z" />
    <glyph glyph-name="uni0417" unicode="&#x417;" horiz-adv-x="1116" 
d="M645 758c9.33301 -1.33301 21.167 -4.17578 35.5 -8.50879s40.333 -15.666 78 -33.999s70.834 -40.166 99.501 -65.499s55 -62.166 79 -110.499s36 -101.833 36 -160.5c0 -110.667 -43 -204.834 -129 -282.501s-196.667 -116.5 -332 -116.5
c-56 0 -108.833 7.16699 -158.5 21.5s-90.334 31.333 -122.001 51s-59.334 39.334 -83.001 59.001s-40.5 37.167 -50.5 52.5l-16 20l31 31c2.66699 -5.33301 7.33398 -12.5 14.001 -21.5s22 -24.333 46 -46s50.333 -41.167 79 -58.5s66.167 -33.166 112.5 -47.499
s95.5 -21.5 147.5 -21.5c124 0 225 34.833 303 104.5s117 154.334 117 254.001s-39 184.334 -117 254.001s-179 104.5 -303 104.5h-164v41h164c114.667 0 206.5 30.5 275.5 91.5s103.5 136.5 103.5 226.5s-34.5 165.333 -103.5 226s-160.833 91 -275.5 91
c-69.333 0 -134.833 -13.667 -196.5 -41s-105.5 -54.666 -131.5 -81.999l-41 -41l-30 31c4 4 9.66699 10.167 17 18.5s23.666 22.333 48.999 42s52.333 37.334 81 53.001s65.834 29.667 111.501 42s92.5 18.5 140.5 18.5c124 0 225 -34.833 303 -104.5
s117 -154.167 117 -253.5c0 -52 -10 -99.167 -30 -141.5s-44 -75.166 -72 -98.499s-55.833 -42.833 -83.5 -58.5s-51.167 -26.167 -70.5 -31.5z" />
    <glyph glyph-name="uni0418" unicode="&#x418;" horiz-adv-x="1587" 
d="M1341 0h-41v1352l-1024 -1352h-30v1434h41v-1352l1024 1352h30v-1434z" />
    <glyph glyph-name="uni0419" unicode="&#x419;" horiz-adv-x="1587" 
d="M1341 0h-41v1352l-1024 -1352h-30v1434h41v-1352l1024 1352h30v-1434zM799 1679c61.333 0 110.833 18.833 148.5 56.5s56.5 87.167 56.5 148.5h40c0 -70.667 -23.167 -129.334 -69.5 -176.001s-105 -70 -176 -70s-129.667 23.333 -176 70s-69.5 105.334 -69.5 176.001h41
c0 -61.333 18.833 -110.833 56.5 -148.5s87.167 -56.5 148.5 -56.5z" />
    <glyph glyph-name="uni041A" unicode="&#x41a;" horiz-adv-x="1310" 
d="M287 461l880 973h52l-543 -605l594 -829h-51l-564 799h-10l-358 -389v-410h-41v1434h41v-973z" />
    <glyph glyph-name="uni041B" unicode="&#x41b;" horiz-adv-x="1495" 
d="M1249 1434l-0.000976562 -1434h-41v1393h-768v-389c0 -206 -9.16699 -379.5 -27.5 -520.5s-44.5 -246.667 -78.5 -317s-70.167 -119 -108.5 -146s-82.833 -40.5 -133.5 -40.5c-15.333 0 -31.5 1.66699 -48.5 5s-30.167 7 -39.5 11l-14 4v41
c34 -13.333 68 -20.333 102 -21c42 0 79.833 13 113.5 39s65.834 72.5 96.501 139.5s54.5 168.5 71.5 304.5s25.5 303 25.5 501v430h850z" />
    <glyph glyph-name="uni041C" unicode="&#x41c;" horiz-adv-x="1863" 
d="M276 1434l656 -912l655 912h31v-1434h-41v1352l-645 -901l-645 901v-1352h-41v1434h30z" />
    <glyph glyph-name="uni041D" unicode="&#x41d;" horiz-adv-x="1525" 
d="M246 0v1434h41v-686h952v686h41v-1434h-41v707h-952v-707h-41z" />
    <glyph glyph-name="uni041E" unicode="&#x41e;" horiz-adv-x="1679" 
d="M1516 717c0 194 -66.333 358.5 -199 493.5s-291.834 202.5 -477.501 202.5s-344.667 -67.5 -477 -202.5s-198.5 -299.5 -198.5 -493.5s66.167 -358.667 198.5 -494s291.333 -203 477 -203s344.834 67.667 477.501 203s199 300 199 494zM1556 717
c0 -203.333 -70.5 -377 -211.5 -521s-309.167 -216 -504.5 -216s-363.666 72 -504.999 216s-212 317.667 -212 521s70.667 377 212 521s309.666 216 504.999 216s363.5 -72 504.5 -216s211.5 -317.667 211.5 -521z" />
    <glyph glyph-name="uni041F" unicode="&#x41f;" horiz-adv-x="1525" 
d="M1280 1434v-1434h-41v1393h-952v-1393h-41v1434h1034z" />
    <glyph glyph-name="uni0420" unicode="&#x420;" horiz-adv-x="1300" 
d="M246 1434l481 0.00195312c131.333 0 239.333 -40.333 324 -121s127 -180.334 127 -299.001s-42.333 -218.334 -127 -299.001s-192.667 -121 -324 -121h-440v-594h-41v1434zM727 1393h-440v-758h440c121.333 0 220 35.833 296 107.5s114 162.167 114 271.5
s-38 199.833 -114 271.5s-174.667 107.5 -296 107.5z" />
    <glyph glyph-name="uni0421" unicode="&#x421;" horiz-adv-x="1525" 
d="M123 717c0 203.333 70.6592 377.001 211.992 521.001s309.666 216 504.999 216c72.667 0 142.334 -10.833 209.001 -32.5s121.834 -48.334 165.501 -80.001s81.834 -62.834 114.501 -93.501s56.667 -57 72 -79l22 -32l-30 -21c-5.33301 8 -12.833 18.5 -22.5 31.5
s-31.667 36.667 -66 71s-71.166 64.833 -110.499 91.5s-91.166 50.5 -155.499 71.5s-130.5 31.5 -198.5 31.5c-186 0 -345.167 -67.5 -477.5 -202.5s-198.5 -299.5 -198.5 -493.5s66.167 -358.667 198.5 -494s291.5 -203 477.5 -203c68 0 133.833 10.333 197.5 31
s115.834 45.334 156.501 74.001s76.834 57.667 108.501 87s54.834 54.333 69.501 75l21 30l30 -20c-5.33301 -8 -13.166 -19.167 -23.499 -33.5s-33.5 -40 -69.5 -77s-74.833 -69.167 -116.5 -96.5s-96.334 -52.5 -164.001 -75.5s-137.5 -34.5 -209.5 -34.5
c-195.333 0 -363.666 72 -504.999 216s-212 317.667 -212 521z" />
    <glyph glyph-name="uni0422" unicode="&#x422;" horiz-adv-x="1105" 
d="M41 1434h1024v-41h-492v-1393h-41v1393h-491v41z" />
    <glyph glyph-name="uni0423" unicode="&#x423;" horiz-adv-x="1218" 
d="M635 440l480.999 994h41l-563 -1168c-49.333 -101.333 -98.833 -174.333 -148.5 -219s-109.5 -67 -179.5 -67c-15.333 0 -31.333 1.66699 -48 5s-30 7 -40 11l-14 4v41c34 -13.333 68 -20.333 102 -21c114.667 0 210.334 82 287.001 246l61 133l-553 1035h41z" />
    <glyph glyph-name="uni0424" unicode="&#x424;" horiz-adv-x="1720" 
d="M881 -41h-41v205c-217.333 0 -391.166 55.667 -521.499 167s-195.5 246.833 -195.5 406.5s65.167 295.167 195.5 406.5s304.166 167 521.499 167v164h41v-164c217.333 0 391 -55.667 521 -167s195 -246.833 195 -406.5s-65.167 -295.167 -195.5 -406.5
s-303.833 -167 -520.5 -167v-205zM881 1270v-1065c207.333 0 371.666 51.167 492.999 153.5s182 228.666 182 378.999s-60.667 276.666 -182 378.999s-285.666 153.5 -492.999 153.5zM840 205.002v1065c-207.333 0 -371.833 -51.167 -493.5 -153.5
s-182.5 -228.666 -182.5 -378.999s60.833 -276.666 182.5 -378.999s286.167 -153.5 493.5 -153.5z" />
    <glyph glyph-name="uni0425" unicode="&#x425;" horiz-adv-x="1228" 
d="M143 1434l471 -666l471 666h52l-502 -697l532 -737h-51l-502 707l-501 -707h-52l533 737l-502 697h51z" />
    <glyph glyph-name="uni0426" unicode="&#x426;" horiz-adv-x="1525" 
d="M246 0v1434h41v-1393h932v1393h41v-1393h184v-348h-41v307h-1157z" />
    <glyph glyph-name="uni0427" unicode="&#x427;" horiz-adv-x="1433" 
d="M266 1434v-430c0 -134 38.333 -239.333 115 -316s181.667 -115 315 -115c49.333 0 98.666 6.16699 147.999 18.5s91.333 26.666 126 42.999s66 33.166 94 50.499s48.667 32 62 44l21 19v686h41v-1434h-41v696c-5.33301 -4 -12.5 -9.66699 -21.5 -17
s-28.833 -20.666 -59.5 -39.999s-62.667 -36.166 -96 -50.499s-75 -27.333 -125 -39s-99.667 -17.5 -149 -17.5c-143.333 0 -257.666 42.667 -342.999 128s-128 200 -128 344v430h41z" />
    <glyph glyph-name="uni0428" unicode="&#x428;" horiz-adv-x="2048" 
d="M246 0v1434h41v-1393h717v1393h40v-1393h717v1393h41v-1434h-1556z" />
    <glyph glyph-name="uni0429" unicode="&#x429;" horiz-adv-x="2068" 
d="M246 0v1434h41v-1393h717v1393h40v-1393h717v1393h41v-1393h185v-348h-41v307h-1700z" />
    <glyph glyph-name="uni042A" unicode="&#x42a;" horiz-adv-x="1402" 
d="M819 0h-450v1393h-369v41h410v-574h409c131.333 0 241 -42 329 -126s132 -185.333 132 -304s-44 -220 -132 -304s-197.667 -126 -329 -126zM410 41h409c121.333 0 221.666 37.5 300.999 112.5s119 167.167 119 276.5s-39.667 201.5 -119 276.5
s-179.666 112.5 -300.999 112.5h-409v-778z" />
    <glyph glyph-name="uni042B" unicode="&#x42b;" horiz-adv-x="1751" 
d="M1505 0h-41v1434h41v-1434zM696 0h-450v1434h41v-574h409c131.333 0 241 -42 329 -126s132 -185.333 132 -304s-44 -220 -132 -304s-197.667 -126 -329 -126zM287 41h409.001c121.333 0 221.666 37.5 300.999 112.5s119 167.167 119 276.5s-39.5 201.5 -118.5 276.5
s-179.5 112.5 -301.5 112.5h-409v-778z" />
    <glyph glyph-name="uni042C" unicode="&#x42c;" horiz-adv-x="1300" 
d="M717 0h-471v1434h41v-574h430c131.333 0 241 -42 329 -126s132 -185.333 132 -304s-44 -220 -132 -304s-197.667 -126 -329 -126zM287 41h430c121.333 0 221.666 37.5 300.999 112.5s119 167.167 119 276.5s-39.667 201.5 -119 276.5s-179.666 112.5 -300.999 112.5h-430
v-778z" />
    <glyph glyph-name="uni042D" unicode="&#x42d;" horiz-adv-x="1525" 
d="M102 297l31.002 19.999c5.33301 -8 12.833 -18.5 22.5 -31.5s31.5 -36.5 65.5 -70.5s70.833 -64.333 110.5 -91s91.667 -50.667 156 -72s130.5 -32 198.5 -32c184 0 342.667 67.333 476 202s200 296.334 200 485.001h-819v41h819c-4 184 -71.5 340.833 -202.5 470.5
s-288.833 194.5 -473.5 194.5c-68 0 -133.833 -10.167 -197.5 -30.5s-116 -44.833 -157 -73.5s-77.167 -57.667 -108.5 -87s-53.666 -54.333 -66.999 -75l-23 -31l-31 21c5.33301 8 13.166 19.167 23.499 33.5s33.666 40 69.999 77s75.333 69 117 96
s96.334 52.167 164.001 75.5s137.5 35 209.5 35c195.333 0 363.666 -72 504.999 -216s212 -317.667 212 -521s-70.667 -377 -212 -521s-309.666 -216 -504.999 -216c-72.667 0 -142.334 10.833 -209.001 32.5s-121.834 48.167 -165.501 79.5s-82 62.333 -115 93
s-56.833 57 -71.5 79z" />
    <glyph glyph-name="uni042E" unicode="&#x42e;" horiz-adv-x="2109" 
d="M287 1434v-686h348c5.33301 196.667 74.833 363.5 208.5 500.5s289.5 205.5 467.5 205.5c182.667 0 341 -71.333 475 -214s201 -317 201 -523s-67 -380.333 -201 -523s-292.333 -214 -475 -214c-181.333 0 -338 69.167 -470 207.5s-200.667 311.5 -206 519.5h-348v-707
h-41v1434h41zM676 717c0 -196.667 62.833 -362 188.5 -496s274.5 -201 446.5 -201s320.833 67 446.5 201s188.5 299.333 188.5 496s-62.833 361.834 -188.5 495.501s-274.5 200.5 -446.5 200.5s-320.833 -66.833 -446.5 -200.5s-188.5 -298.834 -188.5 -495.501z" />
    <glyph glyph-name="uni042F" unicode="&#x42f;" horiz-adv-x="1341" 
d="M584 1434h511.998v-1434h-41v635h-533l-348 -635h-51l369 645c-9.33301 1.33301 -21.666 3.66602 -36.999 6.99902s-42.5 14.333 -81.5 33s-73.167 40.5 -102.5 65.5s-56.166 62.833 -80.499 113.5s-36.5 107.334 -36.5 170.001c0 114.667 40 210 120 286
s183.333 114 310 114zM1055 1393l-471 0.00195312c-116 0 -209.833 -33.833 -281.5 -101.5s-107.5 -153.334 -107.5 -257.001s35.833 -189.334 107.5 -257.001s165.5 -101.5 281.5 -101.5h471v717z" />
    <glyph glyph-name="uni0430" unicode="&#x430;" horiz-adv-x="1034" 
d="M778 604l0.00585938 31c0 95.333 -29.333 173.833 -88 235.5s-131.667 92.5 -219 92.5c-57.333 0 -110.833 -13 -160.5 -39s-84.834 -51.333 -105.501 -76l-31 -39l-31 31c2.66699 4 7.16699 9.66699 13.5 17s19.666 20.666 39.999 39.999s42.166 36.166 65.499 50.499
s54.166 27.333 92.499 39s77.166 17.5 116.499 17.5c98 0 180.5 -34.833 247.5 -104.5s100.5 -157.834 100.5 -264.501v-635h-41v236c-2.66699 -6.66699 -6.33398 -16 -11.001 -28s-17 -32.667 -37 -62s-42.167 -55.166 -66.5 -77.499s-59.5 -42.666 -105.5 -60.999
s-95.333 -27.5 -148 -27.5c-94 0 -172.167 27.5 -234.5 82.5s-93.5 119.5 -93.5 193.5c0 72.667 24.833 132.834 74.5 180.501s120.5 79.5 212.5 95.5zM410.006 20c104 0 191.333 37.001 262 111.001s106 167 106 279v153l-409 -71
c-164 -28.667 -246 -107.334 -246 -236.001c0 -64 26.667 -119.333 80 -166s122.333 -70 207 -70z" />
    <glyph glyph-name="uni0431" unicode="&#x431;" horiz-adv-x="1157" 
d="M1024 461c0 -131.333 -44.665 -244.335 -133.998 -339.002s-191.333 -142 -306 -142c-130 0 -239.333 54.5 -328 163.5s-133 259.167 -133 450.5c0 465.333 160.333 728 481 788c69.333 12 131.333 27.667 186 47s91.667 35.333 111 48l31 18l20 -31
c-75.333 -53.333 -188 -94.333 -338 -123c-144.667 -27.333 -255.834 -98.333 -333.501 -213s-116.5 -292.667 -116.5 -534c2.66699 9.33301 6.66699 21.833 12 37.5s19.333 43.334 42 83.001s48.667 74.834 78 105.501s70.666 58.667 123.999 84s111.333 38 174 38
c110.667 0 210 -47.667 298 -143s132 -208 132 -338zM184.002 460.998c0 -120 40.333 -223.5 121 -310.5s173.5 -130.5 278.5 -130.5s197.833 43.5 278.5 130.5s121 190.5 121 310.5s-40.333 223.333 -121 310s-173.5 130 -278.5 130s-197.833 -43.333 -278.5 -130
s-121 -190 -121 -310z" />
    <glyph glyph-name="uni0432" unicode="&#x432;" horiz-adv-x="1044" 
d="M195 983h408.998c86 0 153.667 -22.5 203 -67.5s74 -104.5 74 -178.5c0 -34 -5.5 -65 -16.5 -93s-24.667 -49.833 -41 -65.5s-32.666 -29 -48.999 -40s-30.166 -18.5 -41.499 -22.5l-16 -4c5.33301 -1.33301 12.833 -3 22.5 -5s26 -8.5 49 -19.5s43.5 -24.667 61.5 -41
s34.5 -40.5 49.5 -72.5s22.5 -68 22.5 -108c0 -78 -27 -141.833 -81 -191.5s-126 -74.5 -216 -74.5h-430v983zM624.998 492h-389v-451h389c80.667 0 143.5 20.5 188.5 61.5s67.5 95.667 67.5 164s-22.5 123 -67.5 164s-107.833 61.5 -188.5 61.5zM839.998 737
c0 62.667 -20.5 112.5 -61.5 149.5s-99.167 55.5 -174.5 55.5h-368v-410h368c75.333 0 133.5 18.5 174.5 55.5s61.5 86.833 61.5 149.5z" />
    <glyph glyph-name="uni0433" unicode="&#x433;" horiz-adv-x="839" 
d="M788 983v-41h-552v-942h-41v983h593z" />
    <glyph glyph-name="uni0434" unicode="&#x434;" horiz-adv-x="1105" 
d="M1034 41l0.000976562 -286.999h-41v246h-962v-246h-41v287h82c5.33301 5.33301 12 13.5 20 24.5s22.667 36.333 44 76s40.166 82.667 56.499 129s31 107.666 44 183.999s19.5 156.833 19.5 241.5v287h614v-942h164zM297.001 942.001v-246
c0 -126.667 -14.667 -244.667 -44 -354s-58.333 -186.333 -87 -231l-43 -70h706v901h-532z" />
    <glyph glyph-name="uni0435" unicode="&#x435;" horiz-adv-x="1126" 
d="M1014 471h-860c5.33301 -126.667 50 -233.5 134 -320.5s182.667 -130.5 296 -130.5c66.667 0 128 15.5 184 46.5s95.667 62.167 119 93.5l35 45l30 -21c-2.66699 -5.33301 -7.33398 -12.833 -14.001 -22.5s-21.667 -26 -45 -49s-48 -43.333 -74 -61
s-60.167 -34 -102.5 -49s-86.5 -22.5 -132.5 -22.5c-125.333 0 -235.166 50.167 -329.499 150.5s-141.5 220.833 -141.5 361.5c0 144.667 45 266.167 135 364.5s195 147.5 315 147.5s225.167 -49.167 315.5 -147.5s135.5 -219.833 135.5 -364.5v-21zM563 963
c-109.333 0 -204.833 -43.833 -286.5 -131.5s-122.5 -194.167 -122.5 -319.5h819c0 125.333 -41 231.833 -123 319.5s-177.667 131.5 -287 131.5z" />
    <glyph glyph-name="uni0436" unicode="&#x436;" horiz-adv-x="1429" 
d="M143 983l541 -594v594h41v-594l541 594h51l-359 -399l420 -584h-51l-389 553h-10l-203 -215v-338h-41v338l-203 215h-10l-389 -553h-51l420 584l-359 399h51z" />
    <glyph glyph-name="uni0437" unicode="&#x437;" horiz-adv-x="860" 
d="M696 748c0 -54.667 -16.332 -101.5 -48.999 -140.5s-65.334 -64.833 -98.001 -77.5l-47 -18c6.66699 -1.33301 15.167 -3.33301 25.5 -6s29.166 -10.167 56.499 -22.5s51.166 -27 71.499 -44s39 -42 56 -75s25.5 -69.167 25.5 -108.5
c0 -75.333 -31.333 -140.166 -94 -194.499s-144 -81.5 -244 -81.5c-39.333 0 -77.833 5.33301 -115.5 16s-68.667 24.167 -93 40.5s-45.833 32.833 -64.5 49.5s-32 30.334 -40 41.001l-14 16l30 31c2.66699 -4 6.83398 -9.5 12.501 -16.5s17.667 -19.333 36 -37
s38.166 -33.334 59.499 -47.001s49 -26 83 -37s69.333 -16.5 106 -16.5c88.667 0 160.334 23.333 215.001 70s82 102 82 166s-27.333 119.333 -82 166s-126.334 70 -215.001 70h-102v40h102c75.333 0 136.833 21.167 184.5 63.5s71.5 93 71.5 152s-23.833 109.667 -71.5 152
s-109.167 63.5 -184.5 63.5c-52 0 -100.833 -11 -146.5 -33s-78.5 -44 -98.5 -66l-31 -35l-31 31c2.66699 4 7.16699 9.16699 13.5 15.5s19.333 17.666 39 33.999s40.5 31 62.5 44s50.333 24.667 85 35s70.334 15.5 107.001 15.5c84.667 0 155.334 -25.667 212.001 -77
s85 -111 85 -179z" />
    <glyph glyph-name="uni0438" unicode="&#x438;" 
d="M963 983h30v-983h-41v901l-727 -901h-30v983h41v-901z" />
    <glyph glyph-name="uni0439" unicode="&#x439;" 
d="M963 983h30v-983h-41v901l-727 -901h-30v983h41v-901zM594 1208c61.333 0 110.833 18.833 148.5 56.5s56.5 87.167 56.5 148.5h41c0 -70.667 -23.333 -129.334 -70 -176.001s-105.5 -70 -176.5 -70s-129.667 23.333 -176 70s-69.5 105.334 -69.5 176.001h41
c0 -61.333 18.833 -110.833 56.5 -148.5s87.167 -56.5 148.5 -56.5z" />
    <glyph glyph-name="uni043A" unicode="&#x43a;" horiz-adv-x="1013" 
d="M236 307l614 676h51l-358 -399l420 -584h-52l-389 553h-10l-276 -297v-256h-41v983h41v-676z" />
    <glyph glyph-name="uni043B" unicode="&#x43b;" horiz-adv-x="1157" 
d="M287 983l655.001 -0.00292969v-983h-41v942h-573v-246c0 -146 -6.5 -267.833 -19.5 -365.5s-31.833 -171 -56.5 -220s-51 -83 -79 -102s-61.667 -28.5 -101 -28.5c-12 0 -25 1.66699 -39 5s-25 7 -33 11l-10 4v41c27.333 -13.333 54.666 -20.333 81.999 -21
c34 0 62.667 8.33301 86 25s45.5 47.834 66.5 93.501s36.667 114.834 47 207.501s15.5 209.334 15.5 350.001v287z" />
    <glyph glyph-name="uni043C" unicode="&#x43c;" horiz-adv-x="1351" 
d="M666 369l440 614h31v-983h-41v901l-430 -604l-430 604v-901h-41v983h30z" />
    <glyph glyph-name="uni043D" unicode="&#x43d;" horiz-adv-x="1198" 
d="M942 0v481h-706v-481h-41v983h41v-461h706v461h41v-983h-41z" />
    <glyph glyph-name="uni043E" unicode="&#x43e;" horiz-adv-x="1187" 
d="M1014 491.5c0 131 -43 242.333 -129 334s-186.333 137.5 -301 137.5s-215 -45.833 -301 -137.5s-129 -203 -129 -334s43 -242.333 129 -334s186.333 -137.5 301 -137.5s215 45.833 301 137.5s129 203 129 334zM1055 491.5c0 -140.333 -47.167 -260.666 -141.5 -360.999
s-204.333 -150.5 -330 -150.5s-235.5 50.167 -329.5 150.5s-141 220.666 -141 360.999s47 260.833 141 361.5s203.833 151 329.5 151s235.667 -50.333 330 -151s141.5 -221.167 141.5 -361.5z" />
    <glyph glyph-name="uni043F" unicode="&#x43f;" horiz-adv-x="1198" 
d="M942 0v942h-706v-942h-41v983h788v-983h-41z" />
    <glyph glyph-name="uni0440" unicode="&#x440;" horiz-adv-x="1228" 
d="M236 287l-0.00195312 -716.999h-41v1413h41v-287c2.66699 8 7.33398 19 14.001 33s22.334 38.667 47.001 74s51.334 66.666 80.001 93.999s67.167 52 115.5 74s99.166 33 152.499 33c116 0 220.167 -50.667 312.5 -152s138.5 -221.5 138.5 -360.5
s-46.167 -259 -138.5 -360s-196.5 -151.5 -312.5 -151.5c-53.333 0 -103.833 10.5 -151.5 31.5s-86.5 46.5 -116.5 76.5s-56.333 60 -79 90s-38.667 55.333 -48 76zM644.998 20.001c105.333 0 200 46.167 284 138.5s126 203.333 126 333s-42 240.667 -126 333
s-178.667 138.5 -284 138.5s-199.833 -46.167 -283.5 -138.5s-125.5 -203.333 -125.5 -333s41.833 -240.667 125.5 -333s178.167 -138.5 283.5 -138.5z" />
    <glyph glyph-name="uni0441" unicode="&#x441;" horiz-adv-x="1064" 
d="M154 491.5c0 -131 43 -242.331 129 -333.998s186.333 -137.5 301 -137.5c66.667 0 128 15.5 184 46.5s95.667 62.167 119 93.5l35 45l30 -21c-2.66699 -5.33301 -7.33398 -12.833 -14.001 -22.5s-21.667 -26 -45 -49s-48 -43.333 -74 -61s-60.167 -34 -102.5 -49
s-86.5 -22.5 -132.5 -22.5c-125.333 0 -235.166 50.167 -329.499 150.5s-141.5 220.666 -141.5 360.999s47 260.833 141 361.5s204 151 330 151c46.667 0 90.667 -7.16699 132 -21.5s76 -31.5 104 -51.5s52.333 -39.833 73 -59.5s35.667 -37.167 45 -52.5l14 -20l-30 -21
c-2.66699 5.33301 -7.16699 12.166 -13.5 20.499s-20 23 -41 44s-43.5 39.833 -67.5 56.5s-55.5 31.5 -94.5 44.5s-79.5 19.5 -121.5 19.5c-114.667 0 -215 -45.833 -301 -137.5s-129 -203 -129 -334z" />
    <glyph glyph-name="uni0442" unicode="&#x442;" horiz-adv-x="901" 
d="M31 942v41h819v-41h-389v-942h-41v942h-389z" />
    <glyph glyph-name="uni0443" unicode="&#x443;" horiz-adv-x="962" 
d="M358 -225l93.001 225l-400 983h41l379 -932l379 932h41l-492 -1208c-54.667 -136.667 -133 -205 -235 -205c-15.333 0 -29.833 1.66699 -43.5 5s-23.834 7 -30.501 11l-8 4v41c20.667 -13.333 48 -20 82 -20c85.333 0 150 54.667 194 164z" />
    <glyph glyph-name="uni0444" unicode="&#x444;" horiz-adv-x="1392" 
d="M154 491.5c0 -135 47.333 -247.333 142 -337s218 -134.5 370 -134.5v943c-151.333 0 -274.5 -44.833 -369.5 -134.5s-142.5 -202 -142.5 -337zM707 -20v-410h-41v410c-161.333 0 -293.833 49 -397.5 147s-155.5 219.5 -155.5 364.5s51.833 266.667 155.5 365
s236.167 147.5 397.5 147.5v430h41v-430c161.333 0 293.833 -49.167 397.5 -147.5s155.5 -220 155.5 -365s-51.833 -266.5 -155.5 -364.5s-236.167 -147 -397.5 -147zM1219 491.5c0 135 -47.5 247.333 -142.5 337s-218.167 134.5 -369.5 134.5v-943
c151.333 0 274.5 44.833 369.5 134.5s142.5 202 142.5 337z" />
    <glyph glyph-name="uni0445" unicode="&#x445;" horiz-adv-x="921" 
d="M51 0l379 512l-348 471h51l318 -440l317 440h51l-348 -471l379 -512h-51l-348 481l-349 -481h-51z" />
    <glyph glyph-name="uni0446" unicode="&#x446;" horiz-adv-x="1198" 
d="M195 0v983h41v-942h686v942h41v-942h163v-287h-41v246h-890z" />
    <glyph glyph-name="uni0447" unicode="&#x447;" horiz-adv-x="1126" 
d="M870 0l0.000976562 461c-9.33301 -8 -22.5 -17.5 -39.5 -28.5s-54.833 -26.167 -113.5 -45.5s-120.334 -29 -185.001 -29c-112 0 -199.667 31.167 -263 93.5s-95 147.5 -95 255.5v276h41v-276c0 -98 27.333 -173.833 82 -227.5s133 -80.5 235 -80.5
c64 0 124.167 8.66699 180.5 26s96.833 34 121.5 50l36 27v481h41v-983h-41z" />
    <glyph glyph-name="uni0448" unicode="&#x448;" horiz-adv-x="1617" 
d="M195 0v983h41v-942h542v942h41v-942h543v942h41v-983h-1208z" />
    <glyph glyph-name="uni0449" unicode="&#x449;" horiz-adv-x="1638" 
d="M195 0v983h41v-942h542v942h41v-942h543v942h41v-942h164v-287h-41v246h-1331z" />
    <glyph glyph-name="uni044A" unicode="&#x44a;" horiz-adv-x="1064" 
d="M952 307c0 -88.667 -31 -162 -93 -220s-143.667 -87 -245 -87h-338v942h-286v41h327v-369h297c101.333 0 183 -29 245 -87s93 -131.333 93 -220zM317 41h297.001c90 0 162 24.833 216 74.5s81 113.5 81 191.5s-26.833 141.833 -80.5 191.5s-125.834 74.5 -216.501 74.5
h-297v-532z" />
    <glyph glyph-name="uni044B" unicode="&#x44b;" horiz-adv-x="1392" 
d="M1178 983v-983h-41v983h41zM236 41h296.001c90 0 162 24.833 216 74.5s81 113.5 81 191.5s-26.833 141.833 -80.5 191.5s-125.834 74.5 -216.501 74.5h-296v-532zM870.001 307c0 -88.667 -31 -162 -93 -220s-143.667 -87 -245 -87h-337v983h41v-369h296
c101.333 0 183 -29 245 -87s93 -131.333 93 -220z" />
    <glyph glyph-name="uni044C" unicode="&#x44c;" horiz-adv-x="1003" 
d="M236 41h317c90 0 162 24.833 216 74.5s81 113.5 81 191.5s-27 141.833 -81 191.5s-126 74.5 -216 74.5h-317v-532zM891 307c0 -88.667 -31 -162 -93 -220s-143.667 -87 -245 -87h-358v983h41v-369h317c101.333 0 183 -29 245 -87s93 -131.333 93 -220z" />
    <glyph glyph-name="uni044D" unicode="&#x44d;" horiz-adv-x="1064" 
d="M92 184l31 20.9971c2.66699 -5.33301 7 -12.166 13 -20.499s19.667 -23 41 -44s44 -39.833 68 -56.5s55.333 -31.5 94 -44.5s79.334 -19.5 122.001 -19.5c114.667 0 215 45.833 301 137.5s129 203.167 129 334.5h-543v40h543c-9.33301 121.333 -56 223.5 -140 306.5
s-180.667 124.5 -290 124.5c-66.667 0 -128 -15.5 -184 -46.5s-95.667 -62.167 -119 -93.5l-35 -45l-31 21c2.66699 5.33301 7.5 12.833 14.5 22.5s22 26 45 49s47.5 43.333 73.5 61s60.167 34.167 102.5 49.5s86.833 23 133.5 23c125.333 0 235.166 -50.333 329.499 -151
s141.5 -221.167 141.5 -361.5s-47.167 -260.666 -141.5 -360.999s-204.166 -150.5 -329.499 -150.5c-46.667 0 -90.834 7.16699 -132.501 21.5s-76.5 31.333 -104.5 51s-52.167 39.334 -72.5 59.001s-35.5 37.167 -45.5 52.5z" />
    <glyph glyph-name="uni044E" unicode="&#x44e;" horiz-adv-x="1536" 
d="M1403 491.5c0 -145 -45.002 -266.5 -135.002 -364.5s-195.167 -147 -315.5 -147s-224.166 47 -311.499 141s-133.666 214 -138.999 360h-266v-481h-41v983h41v-461h266c9.33301 140.667 58 256.167 146 346.5s189.333 135.5 304 135.5
c120 0 225.167 -49.167 315.5 -147.5s135.5 -220 135.5 -365zM542.998 491.5c0 -135 40.5 -247.333 121.5 -337s176.833 -134.5 287.5 -134.5s206.667 44.833 288 134.5s122 202 122 337s-40.667 247.333 -122 337s-177.333 134.5 -288 134.5s-206.5 -44.833 -287.5 -134.5
s-121.5 -202 -121.5 -337z" />
    <glyph glyph-name="uni044F" unicode="&#x44f;" horiz-adv-x="1034" 
d="M113 686c0 88.667 29.3301 160.333 87.9971 215s138.334 82 239.001 82h379v-983h-41v389h-399l-215 -389h-51l235 399c-6.66699 1.33301 -15.167 3.5 -25.5 6.5s-29.166 11.333 -56.499 25s-51.166 30 -71.499 49s-39 46.5 -56 82.5s-25.5 77.333 -25.5 124z
M777.997 941.999h-338c-90 0 -160.167 -23.167 -210.5 -69.5s-75.5 -108.5 -75.5 -186.5s25.167 -140.167 75.5 -186.5s120.5 -69.5 210.5 -69.5h338v512z" />
    <glyph glyph-name="uni0451" unicode="&#x451;" horiz-adv-x="1136" 
d="M1014 471h-860c5.33301 -126.667 50 -233.5 134 -320.5s182.667 -130.5 296 -130.5c66.667 0 128 15.5 184 46.5s95.667 62.167 119 93.5l35 45l30 -21c-2.66699 -5.33301 -7.33398 -12.833 -14.001 -22.5s-21.667 -26 -45 -49s-48 -43.333 -74 -61
s-60.167 -34 -102.5 -49s-86.5 -22.5 -132.5 -22.5c-125.333 0 -235.166 50.167 -329.499 150.5s-141.5 220.833 -141.5 361.5c0 144.667 45 266.167 135 364.5s195 147.5 315 147.5s225.167 -49.167 315.5 -147.5s135.5 -219.833 135.5 -364.5v-21zM563 963
c-109.333 0 -204.833 -43.833 -286.5 -131.5s-122.5 -194.167 -122.5 -319.5h819c0 125.333 -41 231.833 -123 319.5s-177.667 131.5 -287 131.5zM358 1290.5c0 11 4.5 20.5 13.5 28.5s18.333 12 28 12s18.834 -4 27.501 -12s13 -17.5 13 -28.5s-4.33301 -20.667 -13 -29
s-17.834 -12.5 -27.501 -12.5s-19 4.16699 -28 12.5s-13.5 18 -13.5 29zM686 1290.5c0 11 4.5 20.5 13.5 28.5s18.167 12 27.5 12s18.5 -4 27.5 -12s13.5 -17.5 13.5 -28.5s-4.5 -20.667 -13.5 -29s-18.167 -12.5 -27.5 -12.5s-18.5 4.16699 -27.5 12.5s-13.5 18 -13.5 29z
" />
    <glyph glyph-name="uni0452" unicode="&#x452;" horiz-adv-x="1177" 
d="M266 1434l-0.00195312 -225.999h318v-41h-318v-532c2.66699 6.66699 6.5 16.167 11.5 28.5s17.333 33.833 37 64.5s41.834 57.667 66.501 81s59.834 44.5 105.501 63.5s95.167 28.5 148.5 28.5c114.667 0 211.5 -43 290.5 -129s118.5 -196.5 118.5 -331.5
s-38.833 -245.5 -116.5 -331.5s-171.834 -129 -282.501 -129v40c100 0 184.833 39 254.5 117s104.5 179 104.5 303c0 125.333 -35.167 226.666 -105.5 303.999s-158.166 116 -263.499 116c-104 0 -191.5 -37.5 -262.5 -112.5s-106.5 -170.5 -106.5 -286.5v-461h-41v1167
h-194v41h194v226h41z" />
    <glyph glyph-name="uni0453" unicode="&#x453;" horiz-adv-x="839" 
d="M788 983v-41h-552v-942h-41v983h593zM461 1167l153 246h52l-164 -246h-41z" />
    <glyph glyph-name="uni0454" unicode="&#x454;" horiz-adv-x="1064" 
d="M922 205l30 -20.998c-2.66699 -5.33301 -7.33398 -12.833 -14.001 -22.5s-21.667 -26 -45 -49s-48 -43.333 -74 -61s-60.167 -34 -102.5 -49s-86.5 -22.5 -132.5 -22.5c-125.333 0 -235.166 50.167 -329.499 150.5s-141.5 220.666 -141.5 360.999s47 260.833 141 361.5
s204 151 330 151c46.667 0 90.667 -7.16699 132 -21.5s76 -31.5 104 -51.5s52.333 -39.833 73 -59.5s35.667 -37.167 45 -52.5l14 -20l-30 -21c-2.66699 5.33301 -7.16699 12.166 -13.5 20.499s-20 23 -41 44s-43.5 39.833 -67.5 56.5s-55.5 31.5 -94.5 44.5
s-79.5 19.5 -121.5 19.5c-109.333 0 -206 -41.333 -290 -124s-130.667 -185 -140 -307h542v-40h-542c0 -131.333 43 -242.833 129 -334.5s186.333 -137.5 301 -137.5c66.667 0 128 15.5 184 46.5s95.667 62.167 119 93.5z" />
    <glyph glyph-name="uni0455" unicode="&#x455;" horiz-adv-x="890" 
d="M737 860l-29.9971 -31.002c-8 9.33301 -19.333 21.666 -34 36.999s-45.834 35.333 -93.501 60s-97.5 37 -149.5 37c-75.333 0 -136.833 -21.167 -184.5 -63.5s-71.5 -92.833 -71.5 -151.5c0 -50.667 20.167 -91.667 60.5 -123s89.166 -55.666 146.499 -72.999
s114.333 -35.166 171 -53.499s105.167 -46.666 145.5 -84.999s60.5 -87.5 60.5 -147.5c0 -79.333 -31.5 -146.833 -94.5 -202.5s-144.167 -83.5 -243.5 -83.5c-39.333 0 -77.833 5.33301 -115.5 16s-68.834 24.167 -93.501 40.5s-46.167 32.833 -64.5 49.5
s-31.833 30.334 -40.5 41.001l-14 16l31 31c2.66699 -4 6.66699 -9.5 12 -16.5s17.333 -19.333 36 -37s38.5 -33.334 59.5 -47.001s48.667 -26 83 -37s69.833 -16.5 106.5 -16.5c90 0 162 24 216 72s81 106 81 174c0 52 -20.167 94.667 -60.5 128
s-88.833 58.666 -145.5 75.999s-113.667 34.833 -171 52.5s-106.166 44.834 -146.499 81.501s-60.5 84.667 -60.5 144c0 68 28.333 127.667 85 179s127.334 77 212.001 77c57.333 0 111.666 -12 162.999 -36s88.666 -47.667 111.999 -71z" />
    <glyph glyph-name="uni0456" unicode="&#x456;" horiz-adv-x="450" 
d="M195 0v983h41v-983h-41zM256 1351.5c0 -11 -4.5 -20.5 -13.5 -28.5s-18.167 -12 -27.5 -12s-18.5 4 -27.5 12s-13.5 17.5 -13.5 28.5s4.5 20.667 13.5 29s18.167 12.5 27.5 12.5s18.5 -4.16699 27.5 -12.5s13.5 -18 13.5 -29z" />
    <glyph glyph-name="uni0457" unicode="&#x457;" horiz-adv-x="491" 
d="M31 1290.5c0 11 4.33301 20.5 13 28.5s17.834 12 27.501 12s19 -4 28 -12s13.5 -17.5 13.5 -28.5s-4.5 -20.667 -13.5 -29s-18.333 -12.5 -28 -12.5s-18.834 4.16699 -27.501 12.5s-13 18 -13 29zM358 1290.5c0 11 4.5 20.5 13.5 28.5s18.333 12 28 12
s18.834 -4 27.501 -12s13 -17.5 13 -28.5s-4.33301 -20.667 -13 -29s-17.834 -12.5 -27.501 -12.5s-19 4.16699 -28 12.5s-13.5 18 -13.5 29zM256 983v-983h-41v983h41z" />
    <glyph glyph-name="uni0458" unicode="&#x458;" horiz-adv-x="450" 
d="M195 -184l-0.000976562 1167h41v-1167c0 -76.667 -20.833 -136.834 -62.5 -180.501s-96.167 -65.5 -163.5 -65.5c-22 0 -43.167 2.66699 -63.5 8s-35.166 10.666 -44.499 15.999l-15 7v41c34 -20.667 75 -31 123 -31c57.333 0 102.5 17.833 135.5 53.5
s49.5 86.167 49.5 151.5zM173.999 1351.5c0 11 4.5 20.667 13.5 29s18.167 12.5 27.5 12.5s18.5 -4.16699 27.5 -12.5s13.5 -18 13.5 -29s-4.5 -20.5 -13.5 -28.5s-18.167 -12 -27.5 -12s-18.5 4 -27.5 12s-13.5 17.5 -13.5 28.5z" />
    <glyph glyph-name="uni0459" unicode="&#x459;" horiz-adv-x="1597" 
d="M870 41h308c86 0 153.5 22.5 202.5 67.5s73.5 104.333 73.5 178s-24.5 133 -73.5 178s-116.5 67.5 -202.5 67.5h-308v-491zM1495 287c0 -83.333 -28.999 -152.003 -86.999 -206.003s-134.667 -81 -230 -81h-349v942h-501v-246c0 -146 -6.5 -267.833 -19.5 -365.5
s-31.833 -171 -56.5 -220s-51 -83 -79 -102s-61.667 -28.5 -101 -28.5c-12 0 -25 1.66699 -39 5s-25 7 -33 11l-10 4v41c27.333 -13.333 54.666 -20.333 81.999 -21c34 0 62.667 8.33301 86 25s45.5 47.834 66.5 93.501s36.667 114.834 47 207.501
s15.5 209.334 15.5 350.001v287h583v-410h308c95.333 0 172 -26.833 230 -80.5s87 -122.167 87 -205.5z" />
    <glyph glyph-name="uni045A" unicode="&#x45a;" horiz-adv-x="1617" 
d="M1516 287c0 -83.333 -29.167 -152 -87.5 -206s-135.166 -81 -230.499 -81h-348v532h-614v-532h-41v983h41v-410h614v410h41v-410h307c95.333 0 172.166 -26.833 230.499 -80.5s87.5 -122.167 87.5 -205.5zM891 41h307c86 0 153.667 22.5 203 67.5s74 104.333 74 178
s-24.667 133 -74 178s-117 67.5 -203 67.5h-307v-491z" />
    <glyph glyph-name="uni045B" unicode="&#x45b;" horiz-adv-x="1218" 
d="M266 1434l-0.00195312 -226h318v-41h-318v-532c2.66699 6.66699 6.5 16.167 11.5 28.5s17.333 33.833 37 64.5s41.834 57.667 66.501 81s59.834 44.5 105.501 63.5s95.167 28.5 148.5 28.5c109.333 0 201.5 -39.5 276.5 -118.5s112.5 -179.5 112.5 -301.5v-481h-41v481
c0 110.667 -33.5 201.5 -100.5 272.5s-149.5 106.5 -247.5 106.5c-104 0 -191.5 -37.5 -262.5 -112.5s-106.5 -170.5 -106.5 -286.5v-461h-41v1167h-194v41h194v226h41z" />
    <glyph glyph-name="uni045C" unicode="&#x45c;" horiz-adv-x="1013" 
d="M236 307l614 676h51l-358 -399l420 -584h-52l-389 553h-10l-276 -297v-256h-41v983h41v-676zM492 1167l153 246h51l-164 -246h-40z" />
    <glyph glyph-name="uni045E" unicode="&#x45e;" horiz-adv-x="962" 
d="M358 -225l93.001 225l-400 983h41l379 -932l379 932h41l-492 -1208c-54.667 -136.667 -133 -205 -235 -205c-15.333 0 -29.833 1.66699 -43.5 5s-23.834 7 -30.501 11l-8 4v41c20.667 -13.333 48 -20 82 -20c85.333 0 150 54.667 194 164zM481.001 1208
c61.333 0 110.833 18.833 148.5 56.5s56.5 87.167 56.5 148.5h41c0 -70.667 -22.833 -129.334 -68.5 -176.001s-104.667 -70 -177 -70s-131.333 23.333 -177 70s-68.5 105.334 -68.5 176.001h40c0 -61.333 18.833 -110.833 56.5 -148.5s87.167 -56.5 148.5 -56.5z" />
    <glyph glyph-name="uni045F" unicode="&#x45f;" horiz-adv-x="1187" 
d="M195 0v983h41v-942h696v942h41v-983h-369v-246h-41v246h-368z" />
    <glyph glyph-name="uni0490" unicode="&#x490;" horiz-adv-x="1126" 
d="M1044 1434v286h41v-327h-798v-1393h-41v1434h798z" />
    <glyph glyph-name="uni0491" unicode="&#x491;" horiz-adv-x="839" 
d="M195 0v983h553v246h40v-287h-552v-942h-41z" />
    <glyph glyph-name="uni1E9E" unicode="&#x1e9e;" horiz-adv-x="1331" 
d="M1106 1393l-420 -552.998h51c131.333 0 239.333 -40.333 324 -121s127 -180.334 127 -299.001s-42.333 -218.334 -127 -299.001s-192.667 -121 -324 -121h-92v41h92c121.333 0 220 35.833 296 107.5s114 162.167 114 271.5s-37.833 199.833 -113.5 271.5
s-174.5 107.5 -296.5 107.5h-92v41l420 553h-440c-100 0 -181.333 -34.167 -244 -102.5s-94 -159.833 -94 -274.5v-1016h-41v1016c0 125.333 35.833 226.333 107.5 303s162.167 115 271.5 115h481v-41z" />
    <glyph glyph-name="endash" unicode="&#x2013;" horiz-adv-x="962" 
d="M860 625v-41h-758v41h758z" />
    <glyph glyph-name="emdash" unicode="&#x2014;" horiz-adv-x="1454" 
d="M1352 625v-41h-1250v41h1250z" />
    <glyph glyph-name="quoteleft" unicode="&#x2018;" horiz-adv-x="378" 
d="M133 1149l-51 31l194 297l21 -11z" />
    <glyph glyph-name="quoteright" unicode="&#x2019;" horiz-adv-x="378" 
d="M246 1477l51 -31l-195 -297l-20 10z" />
    <glyph glyph-name="quotesinglbase" unicode="&#x201a;" horiz-adv-x="358" 
d="M164 82l51 -31l-195 -297l-20 10z" />
    <glyph glyph-name="quotedblleft" unicode="&#x201c;" horiz-adv-x="624" 
d="M379 1149l-51 31l194 297l21 -11zM133 1149l-51 31l194 297l21 -11z" />
    <glyph glyph-name="quotedblright" unicode="&#x201d;" horiz-adv-x="624" 
d="M246 1477l51 -31l-195 -297l-20 10zM492 1477l51 -31l-195 -297l-20 10z" />
    <glyph glyph-name="quotedblbase" unicode="&#x201e;" horiz-adv-x="604" 
d="M164 82l51 -31l-195 -297l-20 10zM410 82l51 -31l-195 -297l-20 10z" />
    <glyph glyph-name="dagger" unicode="&#x2020;" horiz-adv-x="839" 
d="M399 1126v308h41v-308h277v-41h-277v-675h-41v675h-276v41h276z" />
    <glyph glyph-name="daggerdbl" unicode="&#x2021;" horiz-adv-x="839" 
d="M399 1126v308h41v-308h277v-41h-277v-317h277v-41h-277v-317h-41v317h-276v41h276v317h-276v41h276z" />
    <glyph glyph-name="bullet" unicode="&#x2022;" horiz-adv-x="737" 
d="M492 491.5c0 -35.667 -11.667 -65 -35 -88s-52.833 -34.5 -88.5 -34.5s-65 11.5 -88 34.5s-34.5 52.333 -34.5 88s11.5 65 34.5 88s52.333 34.5 88 34.5s65.167 -11.5 88.5 -34.5s35 -52.333 35 -88z" />
    </font>
</defs>
</svg>
