<?xml version="1.0" standalone="no"?>
<!DOCTYPE svg PUBLIC "-//W3C//DTD SVG 1.1//EN" "http://www.w3.org/Graphics/SVG/1.1/DTD/svg11.dtd" >
<svg xmlns="http://www.w3.org/2000/svg" xmlns:xlink="http://www.w3.org/1999/xlink" version="1.1">
<metadata>
Created by FontForge 20190801 at Tue May 30 06:11:25 2017
 By Jimmy Wärting
Copyright (c) 2017 by TypeType. Designers Ivan Gladkikh, Pavel Emelyanov. Technical designers Olexa Volochay, Nadyr Rakhimov, Dmitriy Greshnev. All rights reserved.
</metadata>
<defs>
<font id="TTNorms-ThinItalic" horiz-adv-x="1208" >
  <font-face 
    font-family="TT Norms Thin Italic"
    font-weight="250"
    font-style="italic"
    font-stretch="normal"
    units-per-em="2048"
    panose-1="2 0 5 3 2 0 0 9 0 3"
    ascent="1638"
    descent="-410"
    x-height="983"
    cap-height="1434"
    bbox="-339.999 -451.244 2945.01 1966"
    underline-thickness="0"
    underline-position="0"
    unicode-range="U+000D-FB06"
  />
<missing-glyph horiz-adv-x="0" 
 />
    <glyph glyph-name="ij" unicode="ij" horiz-adv-x="921" 
d="M532 -184l50.0029 225.003c-64 -40.667 -130.333 -61 -199 -61c-82 0 -143.833 30 -185.5 90s-52.834 135.667 -33.501 227l147 686h41l-147 -686c-18 -82 -9.16699 -148.667 26.5 -200s89.5 -77 161.5 -77c30 0 61.833 6.16699 95.5 18.5s59.167 24.166 76.5 35.499
l27 18l190 891h41l-250 -1167c-16.667 -76.667 -50.167 -136.834 -100.5 -180.501s-108.833 -65.5 -175.5 -65.5c-22 0 -42.5 2.66699 -61.5 8s-33.167 10.666 -42.5 15.999l-13 7l8 41c30 -20.667 69 -31 117 -31c57.333 0 106.166 17.833 146.499 53.5
s67.166 86.167 80.499 151.5zM369.003 1348c0 10.667 4.33301 20.833 13 30.5s19.334 14.5 32.001 14.5c24.667 0 37 -12.333 37 -37c0 -12 -4.83301 -22.5 -14.5 -31.5s-19.834 -13.5 -30.501 -13.5c-24.667 0 -37 12.333 -37 37zM840.003 1348
c0 10.667 4.33301 20.833 13 30.5s19.334 14.5 32.001 14.5c24.667 0 37 -12.333 37 -37c0 -12 -4.83301 -22.5 -14.5 -31.5s-19.834 -13.5 -30.501 -13.5c-24.667 0 -37 12.333 -37 37z" />
    <glyph glyph-name="uniFB00" unicode="ff" horiz-adv-x="1126" 
d="M1171 983l-10.001 -41.0039h-246l-198 -942h-41l198 942h-491l-199 -942h-41l199 942h-164l10 41h164l39 184c16.667 76.667 50.167 136.834 100.5 180.501s109.166 65.5 176.499 65.5c22 0 42.5 -2.66699 61.5 -8s32.5 -10.666 40.5 -15.999l14 -7l-8 -41
c-30 20.667 -69 31 -117 31c-57.333 0 -106 -17.667 -146 -53s-67 -86 -81 -152l-39 -184h492l47 225c16.667 76.667 50.167 136.834 100.5 180.501s108.833 65.5 175.5 65.5c22 0 42.5 -2.66699 61.5 -8s32.833 -10.666 41.5 -15.999l14 -7l-8 -41
c-30 20.667 -69 31 -117 31c-57.333 0 -106.166 -17.667 -146.499 -53s-67.166 -86 -80.499 -152l-47 -225h245z" />
    <glyph glyph-name="uniFB01" unicode="fi" horiz-adv-x="1024" 
d="M676 0l198 941.998h-491l-199 -942h-41l199 942h-164l10 41h164l47 225c16.667 76.667 50.167 136.834 100.5 180.501s109.166 65.5 176.499 65.5c22 0 42.5 -2.66699 61.5 -8s32.5 -10.666 40.5 -15.999l15 -7l-9 -41c-30 20.667 -68.667 31 -116 31
c-57.333 0 -106.166 -17.667 -146.499 -53s-67.5 -86 -81.5 -152l-47 -225h533l-209 -983h-41zM942 1348c0 10.667 4.50098 20.833 13.501 30.5s19.5 14.5 31.5 14.5c24.667 0 37 -12.333 37 -37c0 -12 -4.83301 -22.5 -14.5 -31.5s-19.834 -13.5 -30.501 -13.5
c-24.667 0 -37 12.333 -37 37z" />
    <glyph glyph-name="uniFB02" unicode="fl" horiz-adv-x="1044" 
d="M696 0l239.999 1137c18 80.667 7.83301 146.834 -30.5 198.501s-93.666 77.5 -165.999 77.5s-138.5 -26 -198.5 -78s-99 -118 -117 -198l-31 -154h246l-10 -41h-246l-199 -942h-41l199 942h-164l10 41h164l31 154c20.667 91.333 65.834 167 135.501 227s146 90 229 90
s147.167 -30 192.5 -90s57.666 -135.667 36.999 -227l-240 -1137h-41z" />
    <glyph glyph-name="uniFB03" unicode="ffi" horiz-adv-x="1556" 
d="M1208 0l198.999 941.996h-492l-198 -942h-41l198 942h-491l-199 -942h-41l199 942h-164l10 41h164l39 184c16.667 76.667 50.167 136.834 100.5 180.501s109.166 65.5 176.499 65.5c22 0 42.5 -2.66699 61.5 -8s32.5 -10.666 40.5 -15.999l14 -7l-8 -41
c-30 20.667 -69 31 -117 31c-57.333 0 -106 -17.667 -146 -53s-67 -86 -81 -152l-39 -184h492l47 225c16.667 76.667 50.167 136.834 100.5 180.501s108.833 65.5 175.5 65.5c22 0 42.5 -2.66699 61.5 -8s32.833 -10.666 41.5 -15.999l14 -7l-8 -41
c-30 20.667 -69 31 -117 31c-57.333 0 -106.166 -17.667 -146.499 -53s-67.166 -86 -80.499 -152l-47 -225h532l-209 -983h-41zM1475 1348c0 10.667 4.33105 20.833 12.998 30.5s19.334 14.5 32.001 14.5c24.667 0 36.667 -12.333 36 -37c0 -12 -4.66699 -22.5 -14 -31.5
s-19.666 -13.5 -30.999 -13.5c-24 0 -36 12.333 -36 37z" />
    <glyph glyph-name="uniFB06" unicode="st" horiz-adv-x="1546" 
d="M827 860l-35.999 -30.999c-6.66699 9.33301 -17.334 21.666 -32.001 36.999s-45.167 35.333 -91.5 60s-95.5 37 -147.5 37c-83.333 0 -151.5 -22 -204.5 -66s-79.5 -98 -79.5 -162c0 -39.333 16.667 -74.333 50 -105s74.166 -56.334 122.499 -77.001
s96.833 -42.167 145.5 -64.5s89.667 -51 123 -86s50 -75.5 50 -121.5c0 -87.333 -34.833 -159.333 -104.5 -216s-159.834 -85 -270.501 -85c-39.333 0 -77.833 5.33301 -115.5 16s-68.334 24.167 -92.001 40.5s-44.834 32.833 -63.501 49.5s-32 30.334 -40 41.001l-12 16
l39 31l11 -16.5c4.66699 -7 15.834 -19.333 33.501 -37s36.834 -33.334 57.501 -47.001s47.334 -26 80.001 -37s67.334 -16.5 104.001 -16.5c98 0 177.5 23.667 238.5 71s91.5 108.333 91.5 183c0 40.667 -16.667 76.834 -50 108.501s-74.333 58.167 -123 79.5
s-97.167 43.166 -145.5 65.499s-89.166 50.666 -122.499 84.999s-50 73.833 -50 118.5c0 76.667 30.667 141.334 92 194.001s139.666 79 234.999 79c60 0 116 -13 168 -39c-10.667 32.667 -16 64.667 -16 96c0 110.667 35.833 203.834 107.5 279.501
s158.5 113.5 260.5 113.5c80.667 0 148 -22.5 202 -67.5s81 -103.167 81 -174.5c0 -15.333 -2.66699 -40.333 -8 -75l-31 -154h225l-10 -41h-225l-152 -717c-5.33301 -20.667 -8 -41.667 -8 -63c0 -45.333 13 -80.333 39 -105s63 -37 111 -37c22 0 43.5 2.83301 64.5 8.5
s36.833 11.167 47.5 16.5l17 6l-9 -41c-39.333 -20.667 -83 -30.667 -131 -30c-56 0 -100 15.667 -132 47s-48 74.333 -48 129c0 24.667 2.66699 47.667 8 69l152 717h-205l10 41h205l31 154c5.33301 32.667 8 55 8 67c0 62.667 -22.833 113.167 -68.5 151.5
s-104.167 57.5 -175.5 57.5c-88.667 0 -164.667 -33.5 -228 -100.5s-95 -148.167 -95 -243.5c0 -58.667 27.333 -118 82 -178z" />
    <glyph glyph-name="c_t.liga" unicode="ct" horiz-adv-x="1689" 
d="M655 963c-131.333 0 -247.333 -55.9971 -348 -167.997s-151 -236.333 -151 -373c0 -117.333 35.5 -213.666 106.5 -288.999s159.5 -113 265.5 -113c58.667 0 116.667 15.5 174 46.5s100.333 62.167 129 93.5l41 45l27 -23c-4 -5.33301 -9.83301 -12.5 -17.5 -21.5
s-24.334 -25.333 -50.001 -49s-52.167 -44.334 -79.5 -62.001s-61.833 -33.667 -103.5 -48s-83.167 -21.5 -124.5 -21.5c-116 0 -213.5 42.667 -292.5 128s-118.5 190 -118.5 314c0 155.333 56.667 291.166 170 407.499s237.333 174.5 372 174.5
c75.333 0 141.666 -15.333 198.999 -46c-12 31.333 -18 65.666 -18 102.999c0 109.333 36.167 202.166 108.5 278.499s156.833 114.5 253.5 114.5c76.667 0 140.5 -22.5 191.5 -67.5s76.5 -103.167 76.5 -174.5c0 -15.333 -2.66699 -40.333 -8 -75l-31 -154h226l-11 -41
h-225l-151 -717c-5.33301 -20.667 -8.33301 -41.667 -9 -63c0 -45.333 13 -80.333 39 -105s63 -37 111 -37c22 0 43.5 2.83301 64.5 8.5s37.167 11.167 48.5 16.5l16 6l-8 -41c-39.333 -20.667 -83 -30.667 -131 -30c-56 0 -100 15.667 -132 47s-48 74.333 -48 129
c0 24.667 2.66699 47.667 8 69l151 717h-205l11 41h204l31 154c5.33301 32.667 8 55 8 67c0 62.667 -21.5 113.167 -64.5 151.5s-97.833 57.5 -164.5 57.5c-87.333 0 -162.333 -33.5 -225 -100.5s-94 -149.5 -94 -247.5c0 -62.667 16.333 -112.667 49 -150
c13.333 -10.667 25.833 -22.167 37.5 -34.5s21.334 -23.166 29.001 -32.499s14.167 -18.166 19.5 -26.499s9.33301 -14.5 12 -18.5l2 -6l-35 -17c-2.66699 5.33301 -6.33398 12.166 -11.001 20.499s-16.167 22.666 -34.5 42.999s-39.166 38.833 -62.499 55.5
s-55.166 31.5 -95.499 44.5s-84.5 19.5 -132.5 19.5z" />
    <glyph glyph-name="s_p.liga" unicode="sp" horiz-adv-x="2099" 
d="M520 1004c76.667 0 135.997 -13.665 177.997 -40.998c-16.667 32.667 -24.667 72 -24 118c0 102.667 36.5 190.5 109.5 263.5s151.833 109.5 236.5 109.5c66.667 0 123.667 -22.5 171 -67.5s71 -102.5 71 -172.5c0 -28.667 -3 -54.334 -9 -77.001l-94 -441
c6.66699 12 14.5 25 23.5 39s28.5 38.667 58.5 74s61.333 66 94 92s74.334 49.667 125.001 71s102 32 154 32c98 0 185 -41.667 261 -125s114 -182.333 114 -297c0 -82 -17.167 -161 -51.5 -237s-78.166 -140.167 -131.499 -192.5s-112.666 -94.166 -177.999 -125.499
s-129.333 -47 -192 -47c-52 0 -100.167 10.5 -144.5 31.5s-78.833 44.167 -103.5 69.5s-46.834 55.666 -66.501 90.999s-32 59.833 -37 73.5s-9.5 26.834 -13.5 39.501l-151 -715h-41l333 1567c5.33301 32.667 8.33301 55.667 9 69c0 61.333 -19.5 111.166 -58.5 149.499
s-87.167 57.5 -144.5 57.5c-75.333 0 -144.666 -32 -207.999 -96s-95 -142.667 -95 -236c0 -10.667 0.666992 -21.167 2 -31.5s3 -19.166 5 -26.499s5 -15.5 9 -24.5s7 -15.833 9 -20.5s5.83301 -11.5 11.5 -20.5s9.5 -14.833 11.5 -17.5s6 -7.83398 12 -15.501
s9.66699 -12.167 11 -13.5l41 -51l-36 -31c-4 8 -14.333 21.333 -31 40s-47.167 39 -91.5 61s-93.833 33 -148.5 33c-83.333 0 -151.5 -22 -204.5 -66s-79.5 -98 -79.5 -162c0 -39.333 16.667 -74.333 50 -105s74.166 -56.334 122.499 -77.001s96.833 -42.167 145.5 -64.5
s89.667 -51 123 -86s50 -75.5 50 -121.5c0 -87.333 -34.833 -159.333 -104.5 -216s-159.834 -85 -270.501 -85c-39.333 0 -77.833 5.33301 -115.5 16s-68.334 24.167 -92.001 40.5s-44.834 32.833 -63.501 49.5s-32 30.334 -40 41.001l-12 16l39 31l11 -16.5
c4.66699 -7 15.834 -19.333 33.501 -37s36.834 -33.334 57.501 -47.001s47.334 -26 80.001 -37s67.334 -16.5 104.001 -16.5c98 0 177.5 23.667 238.5 71s91.5 108.333 91.5 183c0 40.667 -16.667 76.834 -50 108.501s-74.333 58.167 -123 79.5
s-97.167 43.166 -145.5 65.499s-89.166 50.666 -122.499 84.999s-50 73.833 -50 118.5c0 76.667 30.667 141.334 92 194.001s139.666 79 234.999 79zM1610 963.002c-120 0 -234.332 -58.499 -342.999 -175.499s-163 -251.167 -163 -402.5
c0 -104 33.167 -190.833 99.5 -260.5s144.5 -104.5 234.5 -104.5c120 0 234.667 56 344 168s164 243.333 164 394c0 105.333 -33.833 195.166 -101.5 269.499s-145.834 111.5 -234.501 111.5z" />
    <glyph glyph-name="f_t.liga" unicode="ft" 
d="M918 1044l57.001 266.998h41l-70 -328h225l-10 -41h-225l-152 -717c-13.333 -65.333 -7.33301 -115.833 18 -151.5s66.666 -53.5 123.999 -53.5c22 0 43.5 2.83301 64.5 8.5s36.833 11.167 47.5 16.5l17 6l-8 -41c-39.333 -20.667 -83.333 -30.667 -132 -30
c-66.667 0 -116 21.833 -148 65.5s-40 103.5 -24 179.5l152 717h-512l-199 -942h-41l199 942h-164l10 41h164l47 225c16.667 76.667 50.167 136.834 100.5 180.501s109.166 65.5 176.499 65.5c22 0 42.5 -2.66699 61.5 -8s32.5 -10.666 40.5 -15.999l15 -7l-9 -41
c-30 20.667 -68.667 31 -116 31c-57.333 0 -106.166 -17.667 -146.499 -53s-67.5 -86 -81.5 -152l-47 -225h451c41.333 0 66 20.333 74 61z" />
    <glyph glyph-name=".notdef" horiz-adv-x="0" 
 />
    <glyph glyph-name="glyph1" horiz-adv-x="0" 
 />
    <glyph glyph-name="glyph1" horiz-adv-x="0" 
 />
    <glyph glyph-name="uni000D" unicode="&#xd;" horiz-adv-x="0" 
 />
    <glyph glyph-name="space" unicode=" " horiz-adv-x="368" 
 />
    <glyph glyph-name="exclam" unicode="!" horiz-adv-x="573" 
d="M276 297h-40l241 1137h41zM162 37c0 10.667 4.33301 20.833 13 30.5s19.334 14.5 32.001 14.5c24.667 0 37 -12.333 37 -37c0 -12 -4.83301 -22.5 -14.5 -31.5s-19.834 -13.5 -30.501 -13.5c-24.667 0 -37 12.333 -37 37z" />
    <glyph glyph-name="quotedbl" unicode="&#x22;" horiz-adv-x="655" 
d="M416 1434l-90 -430h-41l90 430h41zM702 1434l-90 -430h-41l91 430h40z" />
    <glyph glyph-name="numbersign" unicode="#" horiz-adv-x="1433" 
d="M778 0h-41l191 471h-512l-191 -471h-41l191 471h-307l20 41h307l168 410h-317l18 41h318l192 471h41l-192 -471h512l192 471h41l-192 -471h307l-19 -41h-307l-168 -410h318l-21 -41h-317zM604 922l-168 -410h512l168 410h-512z" />
    <glyph glyph-name="dollar" unicode="$" horiz-adv-x="1116" 
d="M512 20c109.333 0 209.334 35.1719 300.001 105.505s136 160.166 136 269.499c0 62.667 -23.5 117.667 -70.5 165s-104 86.333 -171 117s-134.333 61.334 -202 92.001s-125 70.667 -172 120s-70.5 106.666 -70.5 171.999c0 105.333 44.667 197.166 134 275.499
s199.666 117.5 330.999 117.5c18 0 31 -0.666992 39 -2l47 207h41l-47 -211c45.333 -5.33301 88 -14.5 128 -27.5s72.333 -27.333 97 -43s46.167 -31 64.5 -46s31.833 -27.5 40.5 -37.5l12 -16l-35 -27c-2.66699 4 -7 9.83301 -13 17.5s-20.667 20.667 -44 39
s-48.666 34.666 -75.999 48.999s-63.833 27.333 -109.5 39s-94.5 17.5 -146.5 17.5c-117.333 0 -216.666 -34.167 -297.999 -102.5s-122 -148.833 -122 -241.5c0 -61.333 23.5 -114.5 70.5 -159.5s104 -82.5 171 -112.5s134 -60.833 201 -92.5s124 -72.667 171 -123
s70.5 -109.833 70.5 -178.5c0 -113.333 -46.333 -212.166 -139 -296.499s-207.334 -126.5 -344.001 -126.5h-29l-45 -205h-41l47 207c-39.333 2.66699 -77.166 8.66699 -113.499 18s-67 20.166 -92 32.499s-48.5 25.666 -70.5 39.999s-39.833 28 -53.5 41s-25 25.333 -34 37
s-15.5 20.167 -19.5 25.5l-6 10l39 27l6 -10c4 -6.66699 11.167 -15.834 21.5 -27.501s22.666 -24 36.999 -37s33.166 -26.667 56.499 -41s49 -27 77 -38s61.667 -20.333 101 -28s81 -11.5 125 -11.5z" />
    <glyph glyph-name="percent" unicode="%" horiz-adv-x="1556" 
d="M215 0l1200 1434h45l-1200 -1434h-45zM514 860c80.667 0 150 32.166 208 96.499s87 138.833 87 223.5c0 68 -21.5 124.167 -64.5 168.5s-98.5 66.5 -166.5 66.5c-76.667 0 -145 -30.667 -205 -92s-90 -137.666 -90 -228.999c0 -68 21.5 -124 64.5 -168
s98.5 -66 166.5 -66zM850 1182c0 -91.333 -33.167 -174.667 -99.5 -250s-146.5 -113 -240.5 -113c-78 0 -142.167 26 -192.5 78s-75.5 117 -75.5 195c0 101.333 34 187 102 257s146 105 234 105c79.333 0 144.5 -25.5 195.5 -76.5s76.5 -116.167 76.5 -195.5zM1094 19.998
c80.667 0 150 32.166 208 96.499s87 138.833 87 223.5c0 68 -21.5 124.167 -64.5 168.5s-98.833 66.5 -167.5 66.5c-76.667 0 -145 -30.667 -205 -92s-90 -137.666 -90 -228.999c0 -68 21.667 -124 65 -168s99 -66 167 -66zM1430 341.997
c0 -91.333 -33.165 -174.5 -99.498 -249.5s-146.5 -112.5 -240.5 -112.5c-78 0 -142.333 25.833 -193 77.5s-76 116.5 -76 194.5c0 101.333 34.167 187 102.5 257s146.166 105 233.499 105c79.333 0 144.666 -25.5 195.999 -76.5s77 -116.167 77 -195.5z" />
    <glyph glyph-name="ampersand" unicode="&#x26;" horiz-adv-x="1239" 
d="M956 1188c0 -49.333 -10.8281 -96.165 -32.4951 -140.498s-54.334 -85.666 -98.001 -123.999s-82.667 -69.333 -117 -93s-78.833 -52.834 -133.5 -87.501c-9.33301 -5.33301 -16 -9.33301 -20 -12l311 -493c12 12 27.667 30.333 47 55s49.166 76.5 89.499 155.5
s70.166 161.5 89.499 247.5h38c-12 -57.333 -28.5 -113.333 -49.5 -168s-42.5 -100.667 -64.5 -138s-42.833 -70.666 -62.5 -99.999s-35.834 -51 -48.501 -65l-20 -20c6.66699 -12 15.5 -27.333 26.5 -46s33.167 -43 66.5 -73s65 -45 95 -45c9.33301 0 19.166 1 29.499 3
s18.666 3.66699 24.999 5s9.5 2.66602 9.5 3.99902l-9 -43c-20.667 -6.66699 -41.667 -10 -63 -10c-36.667 0 -72.167 14.333 -106.5 43s-59.5 58 -75.5 88l-25 43c-4 -5.33301 -9.83301 -12.5 -17.5 -21.5s-24.667 -24.333 -51 -46s-54.166 -41 -83.499 -58
s-68 -32.667 -116 -47s-96.667 -21.5 -146 -21.5c-92.667 0 -171 30.333 -235 91s-96 130.667 -96 210c0 52 13.333 103.5 40 154.5s58.667 94.167 96 129.5s75.5 66.666 114.5 93.999s71.167 47.833 96.5 61.5s39.333 20.5 42 20.5
c-10.667 15.333 -24.667 35.666 -42 60.999s-40 70.666 -68 135.999s-42 123.333 -42 174c0 96.667 34.5 177.834 103.5 243.501s148.5 98.5 238.5 98.5c78 0 141.5 -26.167 190.5 -78.5s73.5 -114.833 73.5 -187.5zM840.005 207.001l-318 506.001
c-1.33301 0 -13.833 -6.16699 -37.5 -18.5s-54 -31.5 -91 -57.5s-73.333 -55.333 -109 -88s-66 -72.334 -91 -119.001s-37.5 -93.667 -37.5 -141c0 -70.667 29 -133.167 87 -187.5s128.667 -81.5 212 -81.5c72.667 0 141 15.833 205 47.5s110.333 62.5 139 92.5z
M688.005 1413c-79.333 0 -148.333 -29 -207 -87s-88 -129.333 -88 -214c0 -46.667 11.667 -99.334 35 -158.001s47.333 -105.667 72 -141l35 -53c5.33301 4 24.333 16.167 57 36.5s54.5 34.333 65.5 42s31.167 22.334 60.5 44.001s50.5 39 63.5 52s30 30.833 51 53.5
s36.333 43.167 46 61.5s18.167 39.5 25.5 63.5s11 48.333 11 73c0 64 -20.5 117.833 -61.5 161.5s-96.167 65.5 -165.5 65.5z" />
    <glyph glyph-name="quotesingle" unicode="'" horiz-adv-x="368" 
d="M416 1434l-90 -430h-41l90 430h41z" />
    <glyph glyph-name="parenleft" unicode="(" horiz-adv-x="665" 
d="M221 512c-20.667 -92.667 -31 -188.999 -31 -288.999c0 -120 15.833 -234.333 47.5 -343s63.167 -187.334 94.5 -236.001l47 -74l-35 -21c-5.33301 6.66699 -12.5 17 -21.5 31s-24.333 43.5 -46 88.5s-41 92 -58 141s-32.667 111.5 -47 187.5s-21.5 152.667 -21.5 230
c0 135.333 20.667 270.333 62 405s91.5 250.667 150.5 348s118.167 184.666 177.5 261.999s109.5 135.833 150.5 175.5s62.167 58.834 63.5 57.501l24 -21c-12 -9.33301 -28 -23.666 -48 -42.999s-57.167 -60.333 -111.5 -123s-104.5 -128.167 -150.5 -196.5
s-92.833 -155.333 -140.5 -261s-83.167 -211.834 -106.5 -318.501z" />
    <glyph glyph-name="parenright" unicode=")" horiz-adv-x="665" 
d="M477 512c20.667 101.333 31.002 196.331 31.002 284.998c0 76.667 -6.5 151.334 -19.5 224.001s-28.667 134 -47 184s-37.166 94.5 -56.499 133.5s-35.666 67.833 -48.999 86.5l-19 29l37 21c5.33301 -6.66699 12.166 -17 20.499 -31s23.833 -43.5 46.5 -88.5
s42.5 -92.333 59.5 -142s32.333 -112.5 46 -188.5s20.5 -152.667 20.5 -230c0 -135.333 -20.833 -270.666 -62.5 -405.999s-91.834 -251.333 -150.501 -348s-117.334 -183 -176.001 -259s-108.834 -134.5 -150.501 -175.5s-62.5 -60.167 -62.5 -57.5l-27 21
c12 9.33301 28 23.666 48 42.999s57.333 60.333 112 123s104.834 128.167 150.501 196.5s92.667 155.333 141 261s84.166 211.834 107.499 318.501z" />
    <glyph glyph-name="asterisk" unicode="*" horiz-adv-x="798" 
d="M262 1188l19 39l247 -82l62 289h41l-60 -287l283 82l2 -41l-285 -82l125 -236l-34 -30l-125 235l-224 -235l-26 30l223 236z" />
    <glyph glyph-name="plus" unicode="+" horiz-adv-x="1024" 
d="M616 1024h41l-86 -399h390l-9 -41h-389l-84 -400h-41l84 400h-389l8 41h389z" />
    <glyph glyph-name="comma" unicode="," horiz-adv-x="358" 
d="M88 82l45 -31l-256 -297l-18 10z" />
    <glyph glyph-name="hyphen" unicode="-" horiz-adv-x="860" 
d="M797 625l-9 -41h-655l8 41h656z" />
    <glyph glyph-name="period" unicode="." horiz-adv-x="368" 
d="M59 37c0 10.667 4.49902 20.833 13.499 30.5s19.5 14.5 31.5 14.5c24.667 0 37 -12.333 37 -37c0 -12 -4.66699 -22.5 -14 -31.5s-19.666 -13.5 -30.999 -13.5c-24.667 0 -37 12.333 -37 37z" />
    <glyph glyph-name="slash" unicode="/" horiz-adv-x="839" 
d="M973 1454l-1034 -1884h-39l1032 1884h41z" />
    <glyph glyph-name="zero" unicode="0" horiz-adv-x="1351" 
d="M1223 666c16.667 78 24.667 154.333 24 229c0 158.667 -38.833 284.667 -116.5 378s-175.167 140 -292.5 140c-126.667 0 -246.834 -58 -360.501 -174s-191.5 -273 -233.5 -471c-16.667 -75.333 -25 -150.333 -25 -225c0 -161.333 39.333 -288.833 118 -382.5
s177.334 -140.5 296.001 -140.5c126.667 0 246.167 58.167 358.5 174.5s189.5 273.5 231.5 471.5zM1264 662c-45.333 -207.333 -129.168 -372.834 -251.501 -496.501s-252.166 -185.5 -389.499 -185.5c-128.667 0 -235 50.833 -319 152.5s-126 237.834 -126 408.501
c0 76.667 7 152.334 21 227.001c39.333 204.667 123.166 370.167 251.499 496.5s259.5 189.5 393.5 189.5c126.667 0 232.334 -50.833 317.001 -152.5s127 -237.167 127 -406.5c0.666992 -74.667 -7.33301 -152.334 -24 -233.001z" />
    <glyph glyph-name="one" unicode="1" horiz-adv-x="665" 
d="M600 1434l31 -0.00195312l-303 -1434h-41l284 1341c-8 -10.667 -19.5 -24.167 -34.5 -40.5s-49.5 -40.166 -103.5 -71.499s-112.333 -52 -175 -62l8 41c39.333 4 77.5 14.667 114.5 32s68.167 36.5 93.5 57.5s47.833 41.833 67.5 62.5s34.5 38.334 44.5 53.001z" />
    <glyph glyph-name="two" unicode="2" horiz-adv-x="1095" 
d="M881 0l-870.997 0.00390625c12 72.667 40.667 140.667 86 204s99.666 118.166 162.999 164.499s131.833 91.666 205.5 135.999s146 88 217 131s135.667 87.833 194 134.5s105.5 100.667 141.5 162s54 127.333 54 198c0 80.667 -32.333 148 -97 202
s-148.334 81 -251.001 81c-58.667 0 -113.334 -9.5 -164.001 -28.5s-90.334 -42.167 -119.001 -69.5s-53.5 -54.333 -74.5 -81s-34.833 -49.667 -41.5 -69l-13 -28l-37 10c2.66699 8 7.16699 18.833 13.5 32.5s21.5 38.334 45.5 74.001s51.667 67.167 83 94.5
s74.333 51.833 129 73.5s114.667 32.5 180 32.5c110.667 0 203.167 -31.333 277.5 -94s111.5 -138.334 111.5 -227.001c0 -74 -17 -142.833 -51 -206.5s-79 -119.334 -135 -167.001s-118.167 -93 -186.5 -136s-138.666 -85.333 -210.999 -127s-140 -84 -203 -127
s-118.333 -92.833 -166 -149.5s-80.5 -116.334 -98.5 -179.001h826z" />
    <glyph glyph-name="three" unicode="3" horiz-adv-x="1085" 
d="M532 737l-100.002 -0.00683594l8 41h123h53c110.667 0 203.334 33.833 278.001 101.5s112 149.167 112 244.5c0 82 -29.167 150.667 -87.5 206s-141.166 83 -248.499 83c-58.667 0 -117.334 -13.667 -176.001 -41s-103.334 -54.666 -134.001 -81.999l-45 -41l-24 33
c4 4 10.5 10.167 19.5 18.5s26.667 22.333 53 42s53.833 37 82.5 52s63.834 28.667 105.501 41s83.167 18.5 124.5 18.5c117.333 0 208.833 -31.667 274.5 -95s98.5 -141 98.5 -233c0 -62.667 -12.667 -118.5 -38 -167.5s-55.833 -86.167 -91.5 -111.5
s-71.167 -46.166 -106.5 -62.499s-66 -26.5 -92 -30.5l-37 -6c6.66699 -2.66699 15.834 -6.5 27.501 -11.5s32.167 -16.667 61.5 -35s55.333 -39.166 78 -62.499s43.167 -54.833 61.5 -94.5s27.5 -82.5 27.5 -128.5c0 -118.667 -46.333 -221 -139 -307
s-206.667 -129 -342 -129c-60 0 -116 7.16699 -168 21.5s-93.333 31.333 -124 51s-57 39.667 -79 60s-37.667 37.5 -47 51.5l-12 22l39 27c2.66699 -5.33301 6.66699 -12.166 12 -20.499s19 -23.666 41 -45.999s46.667 -42.166 74 -59.499s64.833 -32.833 112.5 -46.5
s99.5 -20.5 155.5 -20.5c121.333 0 224 38 308 114s126 166.667 126 272c0 75.333 -25.333 142.833 -76 202.5s-119.667 99.834 -207 120.501c-24.667 5.33301 -52 8 -82 8z" />
    <glyph glyph-name="four" unicode="4" horiz-adv-x="1105" 
d="M819 389h195l-8 -41h-195l-74 -348h-41l74 348h-747l10 51l964 1035h43zM778 389l209 983l-911 -983h702z" />
    <glyph glyph-name="five" unicode="5" horiz-adv-x="1177" 
d="M657 881c105.333 0 195.832 -35.8369 271.499 -107.504s113.5 -158.834 113.5 -261.501c0 -151.333 -52.833 -277.833 -158.5 -379.5s-233.5 -152.5 -383.5 -152.5c-52 0 -100.833 7.16699 -146.5 21.5s-82.5 31.333 -110.5 51s-52.667 39.334 -74 59.001
s-36.666 37.167 -45.999 52.5l-12 20l36 31c2.66699 -5.33301 6.83398 -12.5 12.501 -21.5s19 -24.333 40 -46s43.833 -41.167 68.5 -58.5s58.167 -33.166 100.5 -47.499s87.5 -21.5 135.5 -21.5c139.333 0 257 46.167 353 138.5s144 208.166 144 347.499
c0 92.667 -34.333 171.5 -103 236.5s-151.667 97.5 -249 97.5c-44 0 -86 -6.83301 -126 -20.5s-73 -30.167 -99 -49.5s-48.833 -38.166 -68.5 -56.499s-34.5 -34.166 -44.5 -47.499l-12 -21h-41l219 789h676l-8 -41h-635l-197 -691
c2.66699 5.33301 7.16699 11.833 13.5 19.5s19.666 21.834 39.999 42.501s42.833 38.834 67.5 54.501s57 30 97 43s82 19.5 126 19.5z" />
    <glyph glyph-name="six" unicode="6" horiz-adv-x="1146" 
d="M647 881c109.333 0 200.833 -35.833 274.5 -107.5s110.5 -159.5 110.5 -263.5c0 -148.667 -52.833 -274.167 -158.5 -376.5s-231.5 -153.5 -377.5 -153.5c-109.333 0 -200.833 35.833 -274.5 107.5s-110.5 159.167 -110.5 262.5c0 61.333 13.667 123.5 41 186.5
s54.333 110.833 81 143.5l41 47l603 707h51l-555 -648c6.66699 6.66699 17.167 15.167 31.5 25.5s45.333 24.5 93 42.5s97.5 27 149.5 27zM502 20c134 0 248.999 47.167 344.999 141.5s144 209.833 144 346.5c0 94 -32.333 172.833 -97 236.5s-147 95.5 -247 95.5
c-131.333 0 -246.666 -48.167 -345.999 -144.5s-149 -211.5 -149 -345.5c0 -94 33 -172.5 99 -235.5s149.667 -94.5 251 -94.5z" />
    <glyph glyph-name="seven" unicode="7" horiz-adv-x="931" 
d="M252 1434h850l-8 -41l-971 -1393h-47l971 1393h-803z" />
    <glyph glyph-name="eight" unicode="8" horiz-adv-x="1167" 
d="M776 1413c-108 0 -200.833 -35.168 -278.5 -105.501s-116.5 -152.5 -116.5 -246.5c0 -70.667 25.667 -132 77 -184s118.333 -78 201 -78c109.333 0 205 35.167 287 105.5s123 151.833 123 244.5c0 70.667 -28 132.334 -84 185.001s-125.667 79 -209 79zM506 -20.001
c-109.333 0 -200.168 33.999 -272.501 101.999s-108.5 149.333 -108.5 244c0 190 91.333 326.333 274 409c31.333 13.333 79.333 28.333 144 45c-5.33301 1.33301 -12.833 4.16602 -22.5 8.49902s-26.167 14 -49.5 29s-43.833 32 -61.5 51s-34 44.833 -49 77.5
s-22.5 68.334 -22.5 107.001c0 108 42.667 201.833 128 281.5s189.333 119.5 312 119.5c92.667 0 171.167 -30.667 235.5 -92s96.5 -131.666 96.5 -210.999c0 -158.667 -80.667 -272.667 -242 -342c-50.667 -22 -84 -33 -100 -33c6.66699 -1.33301 15.834 -4 27.501 -8
s32.167 -14.5 61.5 -31.5s55.333 -36.167 78 -57.5s43.167 -51.833 61.5 -91.5s27.5 -82.5 27.5 -128.5c0 -132.667 -50.167 -245.667 -150.5 -339s-222.833 -140 -367.5 -140zM650.998 757.998c-132.667 0 -246.666 -42 -341.999 -126s-143 -185.333 -143 -304
c0 -86 32 -158.833 96 -218.5s146.667 -89.5 248 -89.5c131.333 0 242.666 42 333.999 126s137 185.667 137 305c0 87.333 -30 160.333 -90 219s-140 88 -240 88z" />
    <glyph glyph-name="nine" unicode="9" horiz-adv-x="1146" 
d="M618 553c-109.333 0 -200.834 35.834 -274.501 107.501s-110.5 159.5 -110.5 263.5c0 148.667 53 274.167 159 376.5s232 153.5 378 153.5c109.333 0 200.833 -35.833 274.5 -107.5s110.5 -159.5 110.5 -263.5c0 -61.333 -13.667 -123.333 -41 -186
s-54.666 -110.334 -81.999 -143.001l-41 -47l-602 -707h-51l555 647c-6.66699 -6.66699 -17.167 -15.167 -31.5 -25.5s-45.5 -24.333 -93.5 -42s-98 -26.5 -150 -26.5zM763.999 1413c-134 0 -249.167 -47.166 -345.5 -141.499s-144.5 -209.5 -144.5 -345.5
c0 -94 32.5 -172.833 97.5 -236.5s147.167 -95.5 246.5 -95.5c131.333 0 246.833 48.167 346.5 144.5s149.5 211.166 149.5 344.499c0 94 -33 172.5 -99 235.5s-149.667 94.5 -251 94.5z" />
    <glyph glyph-name="colon" unicode=":" horiz-adv-x="368" 
d="M59 37c0 10.667 4.49902 20.833 13.499 30.5s19.5 14.5 31.5 14.5c24.667 0 37 -12.333 37 -37c0 -12 -4.66699 -22.5 -14 -31.5s-19.666 -13.5 -30.999 -13.5c-24.667 0 -37 12.333 -37 37zM249.999 937.999c0 10.667 4.33301 20.833 13 30.5s19.334 14.5 32.001 14.5
c24.667 0 37 -12.333 37 -37c0 -12 -4.83301 -22.5 -14.5 -31.5s-19.834 -13.5 -30.501 -13.5c-24.667 0 -37 12.333 -37 37z" />
    <glyph glyph-name="semicolon" unicode=";" horiz-adv-x="368" 
d="M250 938c0 10.667 4.33301 20.833 13 30.5s19.334 14.5 32.001 14.5c24.667 0 37 -12.333 37 -37c0 -12 -4.83301 -22.5 -14.5 -31.5s-19.834 -13.5 -30.501 -13.5c-24.667 0 -37 12.333 -37 37zM88 81.999l45 -31l-256 -297l-18 10z" />
    <glyph glyph-name="less" unicode="&#x3c;" horiz-adv-x="1003" 
d="M131 481l10 41l844 410l-8 -43l-809 -389l643 -389l-8 -39z" />
    <glyph glyph-name="equal" unicode="=" horiz-adv-x="1024" 
d="M903 451l-8 -41h-778l8 41h778zM977 799l-8 -41h-779l9 41h778z" />
    <glyph glyph-name="greater" unicode="&#x3e;" horiz-adv-x="1003" 
d="M899 522l-10 -41l-844 -409l8 43l811 389l-645 389l8 39z" />
    <glyph glyph-name="question" unicode="?" horiz-adv-x="1034" 
d="M440 297l21.002 91.9971c13.333 64 39.833 121.333 79.5 172s83.667 93.334 132 128.001s96.833 69.167 145.5 103.5s92.834 75.333 132.501 123s65.5 101.5 77.5 161.5c4 20.667 6 41.334 6 62.001c0 75.333 -32.333 139.833 -97 193.5s-145.667 80.5 -243 80.5
c-58.667 0 -112.834 -9.5 -162.501 -28.5s-88.5 -42.167 -116.5 -69.5s-52 -54.333 -72 -81s-33.333 -49.667 -40 -69l-12 -28l-37 10c2.66699 8 6.66699 18.833 12 32.5s19.666 38.334 42.999 74.001s50 67.167 80 94.5s72.333 51.833 127 73.5s114.667 32.5 180 32.5
c106.667 0 196.5 -30.333 269.5 -91s109.5 -133.334 109.5 -218.001c0 -23.333 -2 -46 -6 -68c-13.333 -64 -40.166 -122 -80.499 -174s-84.833 -95.667 -133.5 -131s-96.834 -70.166 -144.501 -104.499s-91.334 -75 -131.001 -122s-65.5 -99.167 -77.5 -156.5l-21 -92h-41z
M367.002 36.9971c0 10.667 4.33203 20.833 12.999 30.5s19.334 14.5 32.001 14.5c24.667 0 37 -12.333 37 -37c0 -12 -4.83301 -22.5 -14.5 -31.5s-20.167 -13.5 -31.5 -13.5c-24 0 -36 12.333 -36 37z" />
    <glyph glyph-name="at" unicode="@" horiz-adv-x="1802" 
d="M961 840c-91.333 0 -174.333 -39.333 -249 -118s-112 -178 -112 -298c0 -76.667 21.833 -139.167 65.5 -187.5s98.167 -72.5 163.5 -72.5c90 0 173.333 41 250 123s115 183 115 303c0 75.333 -22.167 135.833 -66.5 181.5s-99.833 68.5 -166.5 68.5zM965 881
c38 0 72.6689 -7.16699 104.002 -21.5s56.166 -31.5 74.499 -51.5s33.666 -39.833 45.999 -59.5s20.5 -37.167 24.5 -52.5l7 -20l41 194h41l-95 -440c-8 -36.667 -12 -69.334 -12 -98.001c0 -112 45.667 -168 137 -168c62.667 0 123.5 32 182.5 96
s102.167 160.333 129.5 289c9.33301 44 14 91.667 14 143c0 157.333 -59.833 289.5 -179.5 396.5s-266.167 160.5 -439.5 160.5c-142 0 -278.167 -36.833 -408.5 -110.5s-237.166 -176.667 -320.499 -309s-125 -276.5 -125 -432.5c0 -176 55 -323.667 165 -443
s247.667 -179 413 -179c79.333 0 158.5 12.5 237.5 37.5s138.5 50.5 178.5 76.5l61 37l14 -30c-5.33301 -4 -13 -9.83301 -23 -17.5s-32.167 -20.667 -66.5 -39s-69.5 -34.666 -105.5 -48.999s-81.333 -27.333 -136 -39s-108.667 -17.5 -162 -17.5
c-173.333 0 -319.5 64.167 -438.5 192.5s-178.5 285.166 -178.5 470.499c0 122.667 26 239.667 78 351s120 206.333 204 285s180.333 141.167 289 187.5s218 69.5 328 69.5c184 0 339.667 -57 467 -171s191 -253.667 191 -419c0 -46.667 -5.33301 -97 -16 -151
c-30 -139.333 -78.833 -245.166 -146.5 -317.499s-137.834 -108.5 -210.501 -108.5c-56 0 -98 21.167 -126 63.5s-42 96.166 -42 161.499c-2.66699 -5.33301 -7 -13.166 -13 -23.499s-20 -28.5 -42 -54.5s-45 -48.833 -69 -68.5s-55 -37.667 -93 -54s-77 -24.5 -117 -24.5
c-74 0 -137.167 29 -189.5 87s-78.5 129.333 -78.5 214c0 131.333 41.667 240.333 125 327s177 130 281 130z" />
    <glyph glyph-name="A" unicode="A" horiz-adv-x="1351" 
d="M907 1434l291 -1434h-41l-90 451h-774l-279 -451h-45l897 1434h41zM1057 492l-178 890l-555 -890h733z" />
    <glyph glyph-name="B" unicode="B" horiz-adv-x="1341" 
d="M961 766l-2.99902 -10.0039c6.66699 -1.33301 15.5 -4.16602 26.5 -8.49902s30.167 -14.666 57.5 -30.999s51.666 -34.666 72.999 -54.999s40.5 -49.666 57.5 -87.999s25.5 -79.833 25.5 -124.5c0 -134 -47.167 -242.333 -141.5 -325s-214.5 -124 -360.5 -124h-542
l303 1434h489c98 0 176.833 -29.5 236.5 -88.5s89.5 -129.833 89.5 -212.5c0 -166.667 -73 -280 -219 -340c-42 -18 -72.667 -27 -92 -27zM203.001 40.9961h495c132.667 0 242 36.5 328 109.5s129 170.167 129 291.5c0 83.333 -29 153.333 -87 210s-136 85 -234 85h-484z
M938.001 1393h-449.001l-131 -615h453c122.667 0 223.334 31.833 302.001 95.5s118 150.167 118 259.5c0 74 -26.667 135.833 -80 185.5s-124.333 74.5 -213 74.5z" />
    <glyph glyph-name="C" unicode="C" horiz-adv-x="1525" 
d="M164 633c0 135.333 35.832 265.995 107.499 391.995s170.334 229 296.001 309s260.834 120 405.501 120c48 0 93.833 -3.66699 137.5 -11s82.834 -17.166 117.501 -29.499s67.334 -26.333 98.001 -42s57.334 -32.5 80.001 -50.5s43.167 -35.833 61.5 -53.5
s34 -34.334 47 -50.001s23.667 -29.667 32 -42s14.5 -21.833 18.5 -28.5l6 -10l-35 -17l-8 15c-6.66699 10.667 -16.834 24.834 -30.501 42.501s-30.834 36.834 -51.501 57.501s-46.667 41.5 -78 62.5s-65.5 40 -102.5 57s-81.333 31 -133 42s-106.167 16.5 -163.5 16.5
c-196.667 0 -373.167 -77.167 -529.5 -231.5s-234.5 -337.166 -234.5 -548.499c0 -173.333 56.333 -319.166 169 -437.499s257 -177.5 433 -177.5c61.333 0 122.333 10 183 30s112.5 44.333 155.5 73s82 57.667 117 87s60.5 54.333 76.5 75l27 28l27 -24
c-6.66699 -8 -16.167 -19 -28.5 -33s-39.333 -38.667 -81 -74s-84.334 -66.666 -128.001 -93.999s-98.334 -51.833 -164.001 -73.5s-130.5 -32.5 -194.5 -32.5c-184 0 -335.5 62.833 -454.5 188.5s-178.5 280.5 -178.5 464.5z" />
    <glyph glyph-name="D" unicode="D" horiz-adv-x="1495" 
d="M457 1434h358.001c187.333 0 339.666 -58.5 456.999 -175.5s176 -260.833 176 -431.5c0 -236 -88.333 -432.833 -265 -590.5s-386.667 -236.5 -630 -236.5h-399zM813.001 1393l-323.998 0.000976562l-286 -1352h352c233.333 0 433.666 74.667 600.999 224
s251 336.666 251 561.999c0 161.333 -54.333 296 -163 404s-252.334 162 -431.001 162z" />
    <glyph glyph-name="E" unicode="E" horiz-adv-x="1280" 
d="M203 41h911l-8 -41h-952l303 1434h932l-9 -41h-891l-133 -625h727l-8 -41h-727z" />
    <glyph glyph-name="F" unicode="F" horiz-adv-x="1228" 
d="M457 1434h921l-8 -41h-881l-137 -645h717l-8 -41h-717l-149 -707h-41z" />
    <glyph glyph-name="G" unicode="G" horiz-adv-x="1597" 
d="M1571 1137l-35.002 -20.999c-4 8 -10.5 18.5 -19.5 31.5s-29.167 36.667 -60.5 71s-65.5 64.833 -102.5 91.5s-86.5 50.5 -148.5 71.5s-127 31.5 -195 31.5c-136.667 0 -266.5 -35.167 -389.5 -105.5s-222.667 -168.666 -299 -294.999s-114.5 -263.166 -114.5 -410.499
c0 -158.667 55.333 -295.334 166 -410.001s245 -172 403 -172c68 0 135.167 10.333 201.5 31s121.666 45.334 165.999 74.001s84.333 57.667 120 87s61.5 54.333 77.5 75l25 30l74 338h-420l8 41h461l-84 -389c-6.66699 -9.33301 -16.167 -21.166 -28.5 -35.499
s-39.666 -40.333 -81.999 -78s-86.333 -70.834 -132 -99.501s-104 -54.834 -175 -78.501s-142.833 -35.5 -215.5 -35.5c-168 0 -311.333 61.333 -430 184s-178 268 -178 436c0 116 23.833 227.667 71.5 335s110.834 198.5 189.501 273.5s169.5 134.667 272.5 179
s208.5 66.5 316.5 66.5c72.667 0 141.334 -10.833 206.001 -32.5s117.5 -48.334 158.5 -80.001s76.833 -62.834 107.5 -93.501s52.667 -57 66 -79z" />
    <glyph glyph-name="H" unicode="H" horiz-adv-x="1525" 
d="M154 0l303 1434h41l-146 -686h953l145 686h41l-303 -1434h-41l149 707h-952l-149 -707h-41z" />
    <glyph glyph-name="I" unicode="I" horiz-adv-x="532" 
d="M154 0l303 1434h41l-303 -1434h-41z" />
    <glyph glyph-name="J" unicode="J" horiz-adv-x="983" 
d="M928 1434h41.002l-217 -1024c-26 -124 -82 -226.667 -168 -308s-185 -122 -297 -122c-64 0 -123.667 11.833 -179 35.5s-95.333 47.167 -120 70.5l-35 37l37 31c8 -9.33301 19.5 -21.666 34.5 -36.999s48.5 -35.333 100.5 -60s106.667 -37 164 -37
c101.333 0 191.166 36.667 269.499 110s129.166 166.666 152.499 279.999z" />
    <glyph glyph-name="K" unicode="K" horiz-adv-x="1310" 
d="M293 467l1083 967h54l-670 -605l418 -829h-50l-397 799h-10l-440 -389l-86 -410h-41l303 1434h41z" />
    <glyph glyph-name="L" unicode="L" horiz-adv-x="1126" 
d="M993 0h-839l303 1434h41l-295 -1393h798z" />
    <glyph glyph-name="M" unicode="M" horiz-adv-x="1863" 
d="M485 1434l459 -916l852 916h33l-303 -1434h-41l287 1352l-838 -901l-453 901l-286 -1352h-41l303 1434h28z" />
    <glyph glyph-name="N" unicode="N" horiz-adv-x="1587" 
d="M1511 1434h41l-303 -1434h-28l-740 1352l-286 -1352h-41l303 1434h28l740 -1352z" />
    <glyph glyph-name="O" unicode="O" horiz-adv-x="1679" 
d="M819 20c199.333 0 377.832 79.6689 535.499 239.002s236.5 340.666 236.5 543.999c0 172 -58.333 316.667 -175 434s-263 176 -439 176c-94 0 -187.833 -20.833 -281.5 -62.5s-176.667 -97 -249 -166s-130.666 -152.333 -174.999 -250s-66.5 -198.834 -66.5 -303.501
c0 -172 58.333 -316.833 175 -434.5s263 -176.5 439 -176.5zM1632 803.002c0 -135.333 -36.833 -266.169 -110.5 -392.502s-174.334 -229.666 -302.001 -309.999s-263.167 -120.5 -406.5 -120.5c-186 0 -340.667 62.667 -464 188s-185 279 -185 461
c0 146 39.833 283.167 119.5 411.5s182.334 229.333 308.001 303s256.167 110.5 391.5 110.5c186 0 340.667 -63.167 464 -189.5s185 -280.166 185 -461.499z" />
    <glyph glyph-name="P" unicode="P" horiz-adv-x="1300" 
d="M457 1434h461c113.333 0 206.833 -33.5 280.5 -100.5s110.5 -149.833 110.5 -248.5c0 -138 -50.833 -254.333 -152.5 -349s-226.5 -142 -374.5 -142h-463l-124 -594h-41zM909 1393l-419.999 -0.000976562l-161 -758h463c135.333 0 248.666 42.333 339.999 127
s137 190.334 137 317.001c0 88.667 -33.5 163.167 -100.5 223.5s-153.167 90.5 -258.5 90.5z" />
    <glyph glyph-name="Q" unicode="Q" horiz-adv-x="1679" 
d="M1632 803c0 -172 -58.334 -334.167 -175.001 -486.5s-261 -254.5 -433 -306.5c5.33301 -22 13.5 -43.833 24.5 -65.5s28.5 -48.5 52.5 -80.5s59.5 -58.333 106.5 -79s101.167 -31 162.5 -31l135 10l-8 -40c-42 -6.66699 -87 -10.334 -135 -11.001
c-54.667 0 -104.5 8.16699 -149.5 24.5s-80.5 35.5 -106.5 57.5s-48.5 47.667 -67.5 77s-32 53.5 -39 72.5s-12.5 37.5 -16.5 55.5c-61.333 -13.333 -118 -20 -170 -20c-186 0 -340.667 62.667 -464 188s-185 279 -185 461c0 146 39.833 283.167 119.5 411.5
s182.334 229.333 308.001 303s256.167 110.5 391.5 110.5c186 0 340.667 -63.167 464 -189.5s185 -280.166 185 -461.499zM818.999 20c199.333 0 377.832 79.6689 535.499 239.002s236.5 340.666 236.5 543.999c0 172 -58.333 316.667 -175 434s-263 176 -439 176
c-94 0 -187.833 -20.833 -281.5 -62.5s-176.667 -97 -249 -166s-130.666 -152.333 -174.999 -250s-66.5 -198.834 -66.5 -303.501c0 -172 58.333 -316.833 175 -434.5s263 -176.5 439 -176.5z" />
    <glyph glyph-name="R" unicode="R" horiz-adv-x="1341" 
d="M457 1434h491.001c109.333 0 199.166 -32.5 269.499 -97.5s105.5 -143.833 105.5 -236.5c0 -195.333 -93 -333.333 -279 -414c-31.333 -13.333 -81 -28.333 -149 -45l229 -641h-45l-223 635h-528l-133 -635h-41zM940.001 1393h-451l-151 -717h475
c131.333 0 242.333 39.5 333 118.5s136 178.833 136 299.5c0 83.333 -32 154 -96 212s-146 87 -246 87z" />
    <glyph glyph-name="S" unicode="S" horiz-adv-x="1116" 
d="M512 20c109.333 0 209.335 35.1699 300.002 105.503s136 160.166 136 269.499c0 62.667 -23.5 117.667 -70.5 165s-104 86.333 -171 117s-134.333 61.334 -202 92.001s-125 70.667 -172 120s-70.5 106.666 -70.5 171.999c0 105.333 44.667 197.166 134 275.499
s199.666 117.5 330.999 117.5c56 0 109 -6.16699 159 -18.5s90.333 -27 121 -44s57.167 -34 79.5 -51s38.5 -31.833 48.5 -44.5l14 -18l-35 -27c-2.66699 4 -7 9.83301 -13 17.5s-20.667 20.667 -44 39s-48.666 34.666 -75.999 48.999s-63.833 27.333 -109.5 39
s-94.5 17.5 -146.5 17.5c-117.333 0 -216.666 -34.167 -297.999 -102.5s-122 -148.833 -122 -241.5c0 -61.333 23.5 -114.5 70.5 -159.5s104 -82.5 171 -112.5s134 -60.833 201 -92.5s124 -72.667 171 -123s70.5 -109.833 70.5 -178.5
c0 -113.333 -46.333 -212.166 -139 -296.499s-207.334 -126.5 -344.001 -126.5c-210 0 -362.333 68.667 -457 206l39 27l6 -10c4 -6.66699 11.167 -15.834 21.5 -27.501s22.666 -24 36.999 -37s33.166 -26.667 56.499 -41s49 -27 77 -38s61.667 -20.333 101 -28
s81 -11.5 125 -11.5z" />
    <glyph glyph-name="T" unicode="T" horiz-adv-x="1105" 
d="M252 1434h1024l-8 -41h-492l-295 -1393h-41l295 1393h-491z" />
    <glyph glyph-name="U" unicode="U" horiz-adv-x="1536" 
d="M715 20c136.667 0 259.168 49.501 367.501 148.501s178.166 223.833 209.499 374.5l189 891h41l-189 -891c-34 -161.333 -109.333 -295.5 -226 -402.5s-248.667 -160.5 -396 -160.5c-132.667 0 -245 43 -337 129s-138 194.333 -138 325c0 35.333 4 71.666 12 108.999
l188 891h41l-188 -891c-8 -36.667 -12.333 -71.667 -13 -105c0 -120 42.5 -219.667 127.5 -299s188.833 -119 311.5 -119z" />
    <glyph glyph-name="V" unicode="V" horiz-adv-x="1290" 
d="M532 0l-260 1434h39l250 -1383l836 1383h43l-867 -1434h-41z" />
    <glyph glyph-name="W" unicode="W" horiz-adv-x="1986" 
d="M1212 1434l150 -1373l731 1373h43l-764 -1434h-41l-145 1341l-715 -1341h-41l-158 1434h39l150 -1373l731 1373h20z" />
    <glyph glyph-name="X" unicode="X" horiz-adv-x="1228" 
d="M352 1434l330 -666l612 666h54l-650 -697l377 -737h-49l-352 707l-651 -707h-54l688 737l-354 697h49z" />
    <glyph glyph-name="Y" unicode="Y" horiz-adv-x="1228" 
d="M322 1434l313 -891l690 891h53l-729 -932l-106 -502h-41l106 502l-336 932h50z" />
    <glyph glyph-name="Z" unicode="Z" horiz-adv-x="1146" 
d="M1186 1393h-871l9 41h931l-6 -31l-1190 -1362h922l-8 -41h-983l6 31z" />
    <glyph glyph-name="bracketleft" unicode="[" horiz-adv-x="706" 
d="M494 1413l-383 -1802h317l-8 -41h-359l400 1884h358l-8 -41h-317z" />
    <glyph glyph-name="backslash" unicode="\" horiz-adv-x="839" 
d="M535 -430l-238 1884h39l237 -1884h-38z" />
    <glyph glyph-name="bracketright" unicode="]" horiz-adv-x="706" 
d="M244 -389l383 1802h-318l8 41h359l-400 -1884h-358l8 41h318z" />
    <glyph glyph-name="asciicircum" unicode="^" horiz-adv-x="778" 
d="M580 1434h41l129 -553h-39l-117 512l-334 -512h-43z" />
    <glyph glyph-name="underscore" unicode="_" horiz-adv-x="634" 
d="M508 -256l-8 -41h-674l8 41h674z" />
    <glyph glyph-name="grave" unicode="`" horiz-adv-x="327" 
d="M319 1413l103 -246h-39l-113 246h49z" />
    <glyph glyph-name="a" unicode="a" horiz-adv-x="1228" 
d="M1028 696l62 286.999h40l-208 -983h-41l59 287c-4 -8 -10.5 -19 -19.5 -33s-27.833 -38.667 -56.5 -74s-59.334 -66.666 -92.001 -93.999s-74.667 -51.833 -126 -73.5s-103.666 -32.5 -156.999 -32.5c-98 0 -185.167 40.5 -261.5 121.5s-114.5 178.167 -114.5 291.5
c0 164 57.333 306.833 172 428.5s238 182.5 370 182.5c53.333 0 102.833 -10.667 148.5 -32s81.5 -47 107.5 -77s48.667 -60 68 -90s32.333 -55.333 39 -76zM653 962.999c-120 0 -233.168 -56.666 -339.501 -169.999s-159.5 -246 -159.5 -398c0 -104 34 -192.5 102 -265.5
s147.333 -109.5 238 -109.5c118.667 0 231.834 58.167 339.501 174.5s161.5 250.166 161.5 401.499c0 104 -34.5 191.167 -103.5 261.5s-148.5 105.5 -238.5 105.5z" />
    <glyph glyph-name="b" unicode="b" horiz-adv-x="1228" 
d="M446 1434l-155.001 -738c4 8 10.5 19 19.5 33s28.167 38.667 57.5 74s60.333 66.666 93 93.999s75 52 127 74s104.333 33 157 33c98 0 185 -41.667 261 -125s114 -182.333 114 -297c0 -82 -17 -161 -51 -237s-77.667 -140.167 -131 -192.5
s-112.666 -94.166 -177.999 -125.499s-129.666 -47 -192.999 -47c-53.333 0 -102.5 10.5 -147.5 31.5s-80.167 46.5 -105.5 76.5s-46.833 60 -64.5 90s-29.834 55.333 -36.501 76l-10 33l-60 -287h-41l304 1434h40zM740.999 963c-120 0 -234.166 -58.499 -342.499 -175.499
s-162.5 -251.167 -162.5 -402.5c0 -104 33 -190.833 99 -260.5s144 -104.5 234 -104.5c120 0 234.667 56 344 168s164 243.333 164 394c0 105.333 -33.833 195.166 -101.5 269.499s-145.834 111.5 -234.501 111.5z" />
    <glyph glyph-name="c" unicode="c" horiz-adv-x="1064" 
d="M655 963c-131.333 0 -247.334 -55.9971 -348.001 -167.997s-151 -236.333 -151 -373c0 -117.333 35.5 -213.666 106.5 -288.999s159.5 -113 265.5 -113c58.667 0 116.667 15.5 174 46.5s100.333 62.167 129 93.5l41 45l27 -23c-4 -5.33301 -9.83301 -12.5 -17.5 -21.5
s-24.334 -25.333 -50.001 -49s-52.167 -44.334 -79.5 -62.001s-61.833 -33.667 -103.5 -48s-83.167 -21.5 -124.5 -21.5c-116 0 -213.5 42.667 -292.5 128s-118.5 190 -118.5 314c0 155.333 56.667 291.166 170 407.499s237.333 174.5 372 174.5
c166.667 0 290.334 -69 371.001 -207l-35 -17c-2.66699 5.33301 -6.33398 12.166 -11.001 20.499s-16.167 22.666 -34.5 42.999s-39.166 38.833 -62.499 55.5s-55.166 31.5 -95.499 44.5s-84.5 19.5 -132.5 19.5z" />
    <glyph glyph-name="d" unicode="d" horiz-adv-x="1228" 
d="M1028 696l156 737.999h41l-303 -1434h-41l59 287c-4 -8 -10.5 -19 -19.5 -33s-27.833 -38.667 -56.5 -74s-59.334 -66.666 -92.001 -93.999s-74.667 -51.833 -126 -73.5s-103.666 -32.5 -156.999 -32.5c-98 0 -185.167 40.5 -261.5 121.5s-114.5 178.167 -114.5 291.5
c0 164 57.333 306.833 172 428.5s238 182.5 370 182.5c53.333 0 102.833 -10.667 148.5 -32s81.5 -47 107.5 -77s48.667 -60 68 -90s32.333 -55.333 39 -76zM653 962.999c-120 0 -233.168 -56.666 -339.501 -169.999s-159.5 -246 -159.5 -398c0 -104 34 -192.5 102 -265.5
s147.333 -109.5 238 -109.5c118.667 0 231.834 58.167 339.501 174.5s161.5 250.166 161.5 401.499c0 104 -34.5 191.167 -103.5 261.5s-148.5 105.5 -238.5 105.5z" />
    <glyph glyph-name="e" unicode="e" horiz-adv-x="1126" 
d="M1020 471l-863.997 0.000976562c-2.66699 -30 -4 -51.667 -4 -65c0 -106.667 34.667 -197.667 104 -273s154 -113 254 -113c42 0 83.167 6.16699 123.5 18.5s74.166 27.5 101.499 45.5s52 36.167 74 54.5s37.667 33.5 47 45.5l16 19l27 -21
c-4 -5.33301 -9.83301 -12.5 -17.5 -21.5s-24 -25.333 -49 -49s-51.833 -44.334 -80.5 -62.001s-64.834 -33.667 -108.501 -48s-88.834 -21.5 -135.501 -21.5c-106.667 0 -199.167 41.167 -277.5 123.5s-117.5 180.833 -117.5 295.5c0 169.333 56.667 312.5 170 429.5
s238 175.5 374 175.5c104 0 193.5 -37 268.5 -111s112.5 -167.667 112.5 -281c0 -39.333 -4 -79.333 -12 -120zM653.003 963.001c-116 0 -220.333 -44.832 -313 -134.499s-152 -195.167 -178 -316.5h827c6.66699 38 10 71.333 10 100
c0 101.333 -33.833 185.166 -101.5 251.499s-149.167 99.5 -244.5 99.5z" />
    <glyph glyph-name="f" unicode="f" horiz-adv-x="593" 
d="M639 983l-10 -41.002h-246l-199 -942h-41l199 942h-164l10 41h164l47 225c16.667 76.667 50.167 136.834 100.5 180.501s109.166 65.5 176.499 65.5c22 0 42.5 -2.66699 61.5 -8s32.5 -10.666 40.5 -15.999l15 -7l-9 -41c-30 20.667 -68.667 31 -116 31
c-57.333 0 -106.166 -17.667 -146.499 -53s-67.5 -86 -81.5 -152l-47 -225h246z" />
    <glyph glyph-name="g" unicode="g" 
d="M477 61c117.333 0 230.333 54.332 339 162.999s163 234.667 163 378c0 104 -31.833 190.167 -95.5 258.5s-141.167 102.5 -232.5 102.5c-118.667 0 -230.5 -53.333 -335.5 -160s-157.5 -233 -157.5 -379c0 -101.333 31 -187.166 93 -257.499s137.333 -105.5 226 -105.5z
M870 50.999l56 261.998c-4 -8 -10.5 -18.5 -19.5 -31.5s-27.833 -36.167 -56.5 -69.5s-59.334 -63 -92.001 -89s-74.667 -49.667 -126 -71s-103.666 -32 -156.999 -32c-96.667 0 -180.5 39.333 -251.5 118s-106.5 173.334 -106.5 284.001
c0 157.333 56.667 293.666 170 408.999s235.333 173 366 173c53.333 0 102.166 -10.333 146.499 -31s78.833 -45.667 103.5 -75s45.5 -58.666 62.5 -87.999s28.167 -54.333 33.5 -75l11 -30l59 278h41l-199 -932c-31.333 -143.333 -94 -259.333 -188 -348
s-202.667 -133 -326 -133c-46.667 0 -90.667 7.16699 -132 21.5s-75.666 31.333 -102.999 51s-51.333 39.5 -72 59.5s-35.667 37.333 -45 52l-12 21l35 20c2.66699 -5.33301 6.66699 -12.166 12 -20.499s18.333 -23 39 -44s42.5 -39.667 65.5 -56s53.667 -31 92 -44
s78.5 -19.5 120.5 -19.5c112 0 212 40.167 300 120.5s145.667 186.833 173 319.5z" />
    <glyph glyph-name="h" unicode="h" horiz-adv-x="1187" 
d="M446 1434l-147.001 -694.998c2.66699 6.66699 7.5 16.167 14.5 28.5s22.333 33.666 46 63.999s49.834 57 78.501 80s67 44.167 115 63.5s98.667 29 152 29c94 0 172.333 -30.5 235 -91.5s94 -139.167 94 -234.5c0 -26 -3.33301 -57.333 -10 -94l-123 -584h-41l123 584
c5.33301 26 8 54 8 84c0 87.333 -28 158.333 -84 213s-127 82 -213 82c-102.667 0 -194.5 -38.333 -275.5 -115s-133.833 -174.334 -158.5 -293.001l-117 -555h-41l304 1434h40z" />
    <glyph glyph-name="i" unicode="i" horiz-adv-x="450" 
d="M102 0l209 983h41l-209 -983h-41zM358 1348c0 10.667 4.49902 20.833 13.499 30.5s19.5 14.5 31.5 14.5c24.667 0 37 -12.333 37 -37c0 -12 -4.66699 -22.5 -14 -31.5s-19.666 -13.5 -30.999 -13.5c-24.667 0 -37 12.333 -37 37z" />
    <glyph glyph-name="j" unicode="j" horiz-adv-x="471" 
d="M82 -184l250.002 1167h41l-250 -1167c-16.667 -76.667 -49.834 -136.834 -99.501 -180.501s-108.167 -65.5 -175.5 -65.5c-22 0 -42.5 2.66699 -61.5 8s-32.5 10.666 -40.5 15.999l-14 7l8 41c30 -20.667 69 -31 117 -31c56 0 104.167 17.833 144.5 53.5
s67.166 86.167 80.499 151.5zM381.002 1348c0 10.667 4.50098 20.833 13.501 30.5s19.5 14.5 31.5 14.5c24.667 0 37 -12.333 37 -37c0 -12 -4.83301 -22.5 -14.5 -31.5s-19.834 -13.5 -30.501 -13.5c-24.667 0 -37 12.333 -37 37z" />
    <glyph glyph-name="k" unicode="k" horiz-adv-x="1013" 
d="M197 256l-54 -256h-41l304 1434h40l-239 -1125l760 674h51l-445 -399l293 -584h-45l-274 553h-10z" />
    <glyph glyph-name="l" unicode="l" horiz-adv-x="450" 
d="M446 1434l-303 -1434h-41l304 1434h40z" />
    <glyph glyph-name="m" unicode="m" horiz-adv-x="1781" 
d="M1454 0l122.999 584c24.667 113.333 10.667 204.833 -42 274.5s-124.667 104.5 -216 104.5c-88.667 0 -167.167 -34.167 -235.5 -102.5s-115.5 -160.5 -141.5 -276.5l-123 -584h-41l123 584c24.667 113.333 10.667 204.833 -42 274.5s-124.667 104.5 -216 104.5
c-88.667 0 -168.167 -36.667 -238.5 -110s-118.5 -172.666 -144.5 -297.999l-117 -555h-41l209 983h41l-49 -223c2.66699 6.66699 6.83398 15.5 12.501 26.5s19 30.5 40 58.5s43.833 52.5 68.5 73.5s57.5 40.5 98.5 58.5s84.5 27 130.5 27c52 0 97.5 -10 136.5 -30
s68 -44 87 -72s34.667 -56 47 -84s19.833 -52.333 22.5 -73l2 -28c2.66699 8 7.16699 18.5 13.5 31.5s20.333 35.833 42 68.5s45.834 61.667 72.501 87s62.5 48.333 107.5 69s93.5 31 145.5 31c101.333 0 181.666 -39.333 240.999 -118s75.333 -179.334 48 -302.001
l-123 -584h-41z" />
    <glyph glyph-name="n" unicode="n" horiz-adv-x="1187" 
d="M352 983l-53.001 -243.998c2.66699 6.66699 7.5 16.167 14.5 28.5s22.333 33.666 46 63.999s49.834 57 78.501 80s67 44.167 115 63.5s98.667 29 152 29c94 0 172.333 -30.5 235 -91.5s94 -139.167 94 -234.5c0 -26 -3.33301 -57.333 -10 -94l-123 -584h-41l123 584
c5.33301 26 8 54 8 84c0 87.333 -28 158.333 -84 213s-127 82 -213 82c-102.667 0 -194.5 -38.333 -275.5 -115s-133.833 -174.334 -158.5 -293.001l-117 -555h-41l209 983h41z" />
    <glyph glyph-name="o" unicode="o" horiz-adv-x="1187" 
d="M537 20c131.333 0 247.667 55 349 165s152 232.667 152 368c0 116 -36.833 213.333 -110.5 292s-163.834 118 -270.501 118c-124 0 -238.5 -53 -343.5 -159s-157.5 -231.333 -157.5 -376c0 -116 36.833 -213 110.5 -291s163.834 -117 270.501 -117zM1079 555
c0 -142 -55.167 -273.333 -165.5 -394s-239.5 -181 -387.5 -181c-116 0 -213.833 43 -293.5 129s-119.5 191 -119.5 315c0 157.333 58 293.333 174 408s242.333 172 379 172c116 0 213.833 -43.5 293.5 -130.5s119.5 -193.167 119.5 -318.5z" />
    <glyph glyph-name="p" unicode="p" horiz-adv-x="1228" 
d="M352 983l-61.001 -287c4 8 10.5 19 19.5 33s28.167 38.667 57.5 74s60.333 66.666 93 93.999s75 52 127 74s104.333 33 157 33c98 0 185 -41.667 261 -125s114 -182.333 114 -297c0 -82 -17 -161 -51 -237s-77.667 -140.167 -131 -192.5
s-112.666 -94.166 -177.999 -125.499s-129.666 -47 -192.999 -47c-53.333 0 -102.5 10.5 -147.5 31.5s-80.167 46.5 -105.5 76.5s-46.833 60 -64.5 90s-29.834 55.333 -36.501 76l-10 33l-152 -717h-41l301 1413h41zM740.999 963c-120 0 -234.166 -58.499 -342.499 -175.499
s-162.5 -251.167 -162.5 -402.5c0 -104 33 -190.833 99 -260.5s144 -104.5 234 -104.5c120 0 234.667 56 344 168s164 243.333 164 394c0 105.333 -33.833 195.166 -101.5 269.499s-145.834 111.5 -234.501 111.5z" />
    <glyph glyph-name="q" unicode="q" horiz-adv-x="1228" 
d="M1028 696l62 286.999h40l-301 -1413h-41l152 717c-4 -8 -10.5 -19 -19.5 -33s-27.833 -38.667 -56.5 -74s-59.334 -66.666 -92.001 -93.999s-74.667 -51.833 -126 -73.5s-103.666 -32.5 -156.999 -32.5c-98 0 -185.167 40.5 -261.5 121.5s-114.5 178.167 -114.5 291.5
c0 164 57.333 306.833 172 428.5s238 182.5 370 182.5c53.333 0 102.833 -10.667 148.5 -32s81.5 -47 107.5 -77s48.667 -60 68 -90s32.333 -55.333 39 -76zM653 962.999c-120 0 -233.168 -56.666 -339.501 -169.999s-159.5 -246 -159.5 -398c0 -104 34 -192.5 102 -265.5
s147.333 -109.5 238 -109.5c118.667 0 231.834 58.167 339.501 174.5s161.5 250.166 161.5 401.499c0 104 -34.5 191.167 -103.5 261.5s-148.5 105.5 -238.5 105.5z" />
    <glyph glyph-name="r" unicode="r" horiz-adv-x="696" 
d="M756 963h-40.999c-104 0 -199.333 -37.667 -286 -113s-142.334 -171 -167.001 -287l-119 -563h-41l209 983h41l-53 -246c4 6.66699 9.83301 16.167 17.5 28.5s24.5 34 50.5 65s54 58 84 81s69.833 44.167 119.5 63.5s101.167 29 154.5 29h41z" />
    <glyph glyph-name="s" unicode="s" horiz-adv-x="890" 
d="M827 860l-35.9971 -30.998c-6.66699 9.33301 -17.334 21.666 -32.001 36.999s-45.167 35.333 -91.5 60s-95.5 37 -147.5 37c-83.333 0 -151.5 -22 -204.5 -66s-79.5 -98 -79.5 -162c0 -39.333 16.667 -74.333 50 -105s74.166 -56.334 122.499 -77.001
s96.833 -42.167 145.5 -64.5s89.667 -51 123 -86s50 -75.5 50 -121.5c0 -87.333 -34.833 -159.333 -104.5 -216s-159.834 -85 -270.501 -85c-39.333 0 -77.833 5.33301 -115.5 16s-68.334 24.167 -92.001 40.5s-44.834 32.833 -63.501 49.5s-32 30.334 -40 41.001l-12 16
l39 31l11 -16.5c4.66699 -7 15.834 -19.333 33.501 -37s36.834 -33.334 57.501 -47.001s47.334 -26 80.001 -37s67.334 -16.5 104.001 -16.5c98 0 177.5 23.667 238.5 71s91.5 108.333 91.5 183c0 40.667 -16.667 76.834 -50 108.501s-74.333 58.167 -123 79.5
s-97.167 43.166 -145.5 65.499s-89.166 50.666 -122.499 84.999s-50 73.833 -50 118.5c0 76.667 30.667 141.334 92 194.001s139.666 79 234.999 79c57.333 0 111.666 -12 162.999 -36s88.666 -47.667 111.999 -71z" />
    <glyph glyph-name="t" unicode="t" horiz-adv-x="675" 
d="M385 1044l56.999 267h41l-69 -328h225l-10 -41h-226l-151 -717c-13.333 -65.333 -7.5 -115.833 17.5 -151.5s66.167 -53.5 123.5 -53.5c22 0 43.5 2.83301 64.5 8.5s37.167 11.167 48.5 16.5l16 6l-8 -41c-39.333 -20.667 -83 -30.667 -131 -30
c-66.667 0 -116.167 21.833 -148.5 65.5s-40.166 103.5 -23.499 179.5l151 717h-204l10 41h143c41.333 0 66 20.333 74 61z" />
    <glyph glyph-name="u" unicode="u" 
d="M858 0l51.001 243.999c-2.66699 -6.66699 -7.33398 -16.167 -14.001 -28.5s-22 -33.666 -46 -63.999s-50.333 -57 -79 -80s-66.834 -44 -114.501 -63s-98.167 -28.5 -151.5 -28.5c-94 0 -172.5 30.333 -235.5 91s-94.5 138.667 -94.5 234
c0 35.333 3.33301 66.666 10 93.999l125 584h41l-125 -584c-6.66699 -34 -10 -63.333 -10 -88c0 -87.333 27.333 -157.666 82 -210.999s124.334 -80 209.001 -80c102.667 0 195.167 37.333 277.5 112s136.5 170.667 162.5 288l121 563h41l-209 -983h-41z" />
    <glyph glyph-name="v" unicode="v" horiz-adv-x="962" 
d="M399 0h-41l-190 983h39l180 -932l578 932h43z" />
    <glyph glyph-name="w" unicode="w" horiz-adv-x="1413" 
d="M801 983h20l101 -922l493 922h43l-526 -983h-41l-98 891l-476 -891h-41l-108 983h39l100 -922z" />
    <glyph glyph-name="x" unicode="x" horiz-adv-x="921" 
d="M-41 0l487 512l-247 471h47l225 -440l412 440h53l-449 -471l271 -512h-47l-248 481l-451 -481h-53z" />
    <glyph glyph-name="y" unicode="y" horiz-adv-x="962" 
d="M215 -225l143.001 225l-190 983h39l180 -932l578 932h43l-750 -1208c-84.667 -136.667 -177.334 -205 -278.001 -205c-15.333 0 -29.5 1.66699 -42.5 5s-22.167 7 -27.5 11l-6 4l6 41c18 -13.333 44 -20 78 -20c83.333 0 159 54.667 227 164z" />
    <glyph glyph-name="z" unicode="z" horiz-adv-x="870" 
d="M895 983l-8 -31l-858 -911h686l-8 -41h-748l6 31l858 911h-645l10 41h707z" />
    <glyph glyph-name="braceleft" unicode="{" horiz-adv-x="737" 
d="M156 492l8 39.998c114.667 0 184.334 54.667 209.001 164l106 502c36.667 170.667 146.667 256 330 256h41l-8 -41h-41c-157.333 0 -251 -71.667 -281 -215l-106 -502c-6.66699 -30 -17.667 -56.833 -33 -80.5s-31.166 -41.667 -47.499 -54s-32.333 -22.666 -48 -30.999
s-28.834 -13.166 -39.501 -14.499l-15 -4c4 0 8.83301 -1 14.5 -3s16.667 -6.83301 33 -14.5s28.333 -18 36 -31s15.5 -31 23.5 -54s7.33301 -50.167 -2 -81.5l-109 -502c-15.333 -72.667 -7.5 -126.667 23.5 -162s86.833 -53 167.5 -53h41l-8 -41h-41
c-91.333 0 -155.833 21.833 -193.5 65.5s-47.834 107.167 -30.501 190.5l109 502c10.667 52 4.16699 92.333 -19.5 121s-63.5 43 -119.5 43z" />
    <glyph glyph-name="bar" unicode="|" horiz-adv-x="655" 
d="M563 1454l-399 -1884h-41l399 1884h41z" />
    <glyph glyph-name="braceright" unicode="}" horiz-adv-x="737" 
d="M614 532l-8.00195 -39.998c-56 0 -102 -14.333 -138 -43s-59.667 -69 -71 -121l-108 -502c-36.667 -170.667 -146.667 -256 -330 -256h-41l8 41h41c158.667 0 252.334 71.667 281.001 215l108 502c6.66699 30 17.667 56.833 33 80.5s31.166 41.667 47.499 54
s32.333 22.666 48 30.999s28.834 13.166 39.501 14.499l15 4c-4 0 -8.83301 1 -14.5 3s-16.667 6.83301 -33 14.5s-28.333 18 -36 31s-15.5 31 -23.5 54s-7.33301 50.167 2 81.5l107 502c15.333 72.667 7.5 126.667 -23.5 162s-86.833 53 -167.5 53h-41l8 41h41
c91.333 0 155.833 -21.833 193.5 -65.5s47.834 -107.167 30.501 -190.5l-107 -502c-10.667 -52 -4.16699 -92.333 19.5 -121s63.5 -43 119.5 -43z" />
    <glyph glyph-name="asciitilde" unicode="~" horiz-adv-x="1044" 
d="M743 543c39.333 0 76.833 11.166 112.5 33.499s61.834 44.5 78.501 66.5l24 33l31 -21c-2.66699 -4 -6.33398 -9.33301 -11.001 -16s-14.834 -19 -30.501 -37s-32.5 -33.667 -50.5 -47s-41 -25.5 -69 -36.5s-56.333 -16.5 -85 -16.5c-62.667 0 -127 25.5 -193 76.5
s-125.667 76.5 -179 76.5c-39.333 0 -76.833 -10.833 -112.5 -32.5s-61.834 -43.5 -78.501 -65.5l-24 -35l-31 21c2.66699 4 6.33398 9.33301 11.001 16s15.334 19 32.001 37s33.834 33.833 51.501 47.5s40.5 25.834 68.5 36.501s56.333 16 85 16
c62.667 0 126.667 -25.5 192 -76.5s124.666 -76.5 177.999 -76.5z" />
    <glyph glyph-name="uni00A0" unicode="&#xa0;" horiz-adv-x="368" 
 />
    <glyph glyph-name="exclamdown" unicode="&#xa1;" horiz-adv-x="573" 
d="M319 686h41l-237 -1116h-41zM352 938c0 10.667 4.49902 20.833 13.499 30.5s19.5 14.5 31.5 14.5c24.667 0 37 -12.333 37 -37c0 -12 -4.66699 -22.5 -14 -31.5s-19.666 -13.5 -30.999 -13.5c-24.667 0 -37 12.333 -37 37z" />
    <glyph glyph-name="cent" unicode="&#xa2;" horiz-adv-x="1064" 
d="M655 963c-131.333 0 -247.333 -56 -348 -168s-151 -236.333 -151 -373c0 -117.333 35.5 -213.666 106.5 -288.999s159.5 -113 265.5 -113c58.667 0 116.667 15.5 174 46.5s100.333 62.167 129 93.5l41 45l27 -23c-4 -5.33301 -9.83301 -12.5 -17.5 -21.5
s-24.334 -25.333 -50.001 -49s-52.167 -44.334 -79.5 -62.001s-61.833 -33.667 -103.5 -48s-83.167 -21.5 -124.5 -21.5h-18l-43 -205h-41l45 209c-102.667 15.333 -187.334 63.833 -254.001 145.5s-100 179.167 -100 292.5c0 155.333 56.667 291.166 170 407.499
s237.333 174.5 372 174.5h29l43 204h41l-45 -209c30 -4 59 -10.667 87 -20s51.833 -20.166 71.5 -32.499s38.167 -25.666 55.5 -39.999s31 -28 41 -41s18.833 -24.667 26.5 -35s12.834 -18.166 15.501 -23.499l6 -10l-35 -17
c-2.66699 5.33301 -6.33398 12.166 -11.001 20.499s-16.167 22.666 -34.5 42.999s-39.166 38.833 -62.499 55.5s-55.166 31.5 -95.499 44.5s-84.5 19.5 -132.5 19.5z" />
    <glyph glyph-name="sterling" unicode="&#xa3;" horiz-adv-x="1107" 
d="M436 1044c26 122.667 79.6641 221.665 160.997 296.998s176 113 284 113c64 0 123 -13.667 177 -41s91.667 -54.666 113 -81.999l35 -41l-35 -28c-2.66699 4 -6.66699 9.33301 -12 16s-16.833 18.834 -34.5 36.501s-37.167 33 -58.5 46s-48.666 25 -81.999 36
s-68.333 16.5 -105 16.5c-98 0 -183.667 -33.5 -257 -100.5s-121.666 -156.5 -144.999 -268.5l-74 -348h431l-9 -41h-430l-92 -430c-9.33301 -42 -26.333 -78.333 -51 -109s-47.334 -51 -68.001 -61l-28 -14h784l-8 -41h-901l8 41c50.667 0 97.834 17.667 141.501 53
s70.834 79 81.501 131l92 430h-153l8 41h153z" />
    <glyph glyph-name="currency" unicode="&#xa4;" horiz-adv-x="1320" 
d="M143 635l11.001 41.001h184l160 758h460c109.333 0 199.166 -32.5 269.499 -97.5s105.5 -143.833 105.5 -236.5c0 -132.667 -48.5 -243.334 -145.5 -332.001s-216.5 -133 -358.5 -133h-460l-56 -266h564l-9 -41h-563l-69 -328h-41l69 328h-184l8 41h184l56 266h-185z
M956.001 1393h-426l-151 -717h452c131.333 0 241 40.333 329 121s132 181.667 132 303c0 83.333 -31 153 -93 209s-143 84 -243 84z" />
    <glyph glyph-name="yen" unicode="&#xa5;" horiz-adv-x="1228" 
d="M213 287l10 41h348l37 174l-20 51h-318l9 41h296l-303 840h50l313 -891l690 891h53l-659 -840h297l-8 -41h-318l-41 -51l-37 -174h349l-11 -41h-348l-59 -287h-41l59 287h-348z" />
    <glyph glyph-name="brokenbar" unicode="&#xa6;" horiz-adv-x="655" 
d="M289 348h41l-166 -778h-41zM399 676h-41l164 778h41z" />
    <glyph glyph-name="section" unicode="&#xa7;" horiz-adv-x="1075" 
d="M772 377c101.333 62.667 151.997 140.334 151.997 233.001c0 27.333 -6.5 53 -19.5 77s-28 44.167 -45 60.5s-41.667 33 -74 50s-59.666 30.333 -81.999 40s-53.666 22.667 -93.999 39s-70.166 28.5 -89.499 36.5l-80 -26
c-140.667 -66.667 -212.334 -158.334 -215.001 -275.001c0 -31.333 7.5 -60 22.5 -86s39.333 -49.5 73 -70.5s63.5 -37.667 89.5 -50s63.833 -28 113.5 -47s84.834 -33.5 105.501 -43.5c47.333 11.333 95 32 143 62zM409.997 -184c98 0 178 25.5078 240 76.5078
s93 114.833 93 191.5c0 80.667 -47 144.667 -141 192c-22 10.667 -56.833 26 -104.5 46s-86.5 37.167 -116.5 51.5s-61.667 33.166 -95 56.499s-58.666 50 -75.999 80s-26 63.333 -26 100c0 134 74.667 235 224 303c42 19.333 67.667 29 77 29
c-9.33301 5.33301 -20.5 13.166 -33.5 23.499s-30.667 32.166 -53 65.499s-33.5 69.333 -33.5 108c0 87.333 34.667 161.666 104 222.999s156 92 260 92c57.333 0 111.666 -12 162.999 -36s88.666 -47.333 111.999 -70l32 -37l-37 -27
c-6.66699 9.33301 -17.167 21.166 -31.5 35.499s-44.666 33.5 -90.999 57.5s-95.5 36 -147.5 36c-94 0 -171 -25.5 -231 -76.5s-90 -114.167 -90 -189.5c0 -39.333 12.167 -75.833 36.5 -109.5s56.5 -60.834 96.5 -81.501c24.667 -12 60.167 -27.5 106.5 -46.5
s85.166 -36.333 116.499 -52s64 -34.834 98 -57.501s60 -49.334 78 -80.001s27 -65.334 27 -104.001c0 -150 -101 -259.667 -303 -329c9.33301 -5.33301 20.5 -13.166 33.5 -23.499s30.667 -32.666 53 -66.999s33.5 -70.5 33.5 -108.5
c0 -87.333 -35.167 -161.333 -105.5 -222s-159.833 -91 -268.5 -91c-64 0 -122.667 13.667 -176 41s-91 54.666 -113 81.999l-33 41l35 26c2.66699 -4 6.33398 -9.33301 11.001 -16s16 -18.667 34 -36s37.167 -32.5 57.5 -45.5s47 -24.833 80 -35.5s67.833 -16 104.5 -16z
" />
    <glyph glyph-name="dieresis" unicode="&#xa8;" horiz-adv-x="532" 
d="M248 1307c0 10.667 4.33301 20.833 13 30.5s19.334 14.5 32.001 14.5c24.667 0 37 -12.333 37 -37c0 -12 -4.83301 -22.5 -14.5 -31.5s-19.834 -13.5 -30.501 -13.5c-24.667 0 -37 12.333 -37 37zM575 1307c0 10.667 4.49902 20.833 13.499 30.5s19.833 14.5 32.5 14.5
c24.667 0 36.667 -12.333 36 -37c0 -12 -4.66699 -22.5 -14 -31.5s-19.666 -13.5 -30.999 -13.5c-24.667 0 -37 12.333 -37 37z" />
    <glyph glyph-name="copyright" unicode="&#xa9;" horiz-adv-x="1740" 
d="M1671 801c0 -210 -82.166 -399.332 -246.499 -567.999s-356.5 -253 -576.5 -253c-190 0 -347.833 62.667 -473.5 188s-188.5 279 -188.5 461c0 147.333 39.667 284.833 119 412.5s182.166 228 308.499 301s258.5 109.5 396.5 109.5c190 0 347.667 -62.833 473 -188.5
s188 -279.834 188 -462.501zM858.001 20.001c202 0 381.166 78.668 537.499 236.001s234.5 338.333 234.5 543c0 173.333 -59.333 318.666 -178 435.999s-269 176 -451 176c-199.333 0 -378.166 -77.167 -536.499 -231.5s-237.5 -336.5 -237.5 -546.5
c0 -173.333 59.5 -318.833 178.5 -436.5s269.833 -176.5 452.5 -176.5zM999 1065c-105.333 0 -195.834 -41.665 -271.501 -124.998s-113.5 -180.333 -113.5 -291c0 -79.333 26 -145.833 78 -199.5s115 -80.5 189 -80.5c49.333 0 96 10.833 140 32.5s76.333 43.5 97 65.5
l31 33l25 -29c-8 -10.667 -20 -23.834 -36 -39.501s-49.5 -36.834 -100.5 -63.501s-103.833 -40 -158.5 -40c-84.667 0 -157.167 31 -217.5 93s-90.5 137.333 -90.5 226c0 130 43.833 239 131.5 327s187.167 132 298.5 132c54.667 0 105 -12 151 -36s78.333 -47.667 97 -71
l29 -36l-37 -27c-2.66699 4 -6 8.66699 -10 14s-13.167 15.666 -27.5 30.999s-30.166 28.333 -47.499 39s-40.333 20.834 -69 30.501s-58 14.5 -88 14.5z" />
    <glyph glyph-name="ordfeminine" unicode="&#xaa;" horiz-adv-x="647" 
d="M645 1167l-233 -40.999c-117.333 -20.667 -176 -74.334 -176 -161.001c0 -28.667 10.5 -51.667 31.5 -69s50.5 -26 88.5 -26c65.333 0 123 20.167 173 60.5s82.667 91.833 98 154.5zM578 850.001l21.999 112.999c-5.33301 -9.33301 -14.166 -21.666 -26.499 -36.999
s-40 -35.333 -83 -60s-90.5 -37 -142.5 -37c-48 0 -85.5 13 -112.5 39s-40.5 58.333 -40.5 97c0 106.667 75.667 174 227 202l231 41l9 41c4 16.667 6 31.667 6 45c0 38 -11.667 67.333 -35 88s-57 31 -101 31c-32.667 0 -65 -6.83301 -97 -20.5s-55.333 -27.167 -70 -40.5
l-23 -21l-27 21c6.66699 8 16.667 17.5 30 28.5s39.333 26 78 45s78 28.5 118 28.5c52 0 93 -13.667 123 -41s45 -65 45 -113c0 -15.333 -2.33301 -32.333 -7 -51l-84 -399h-40z" />
    <glyph glyph-name="guillemotleft" unicode="&#xab;" horiz-adv-x="819" 
d="M176 487l158 -303h-39l-160 308l291 307h43zM483 487l158 -303h-39l-160 308l291 307h43z" />
    <glyph glyph-name="logicalnot" unicode="&#xac;" horiz-adv-x="921" 
d="M885 748l-70 -328h-41l62 287h-676l8 41h717z" />
    <glyph glyph-name="uni00AD" unicode="&#xad;" horiz-adv-x="860" 
d="M797 625l-9 -41h-655l8 41h656z" />
    <glyph glyph-name="registered" unicode="&#xae;" horiz-adv-x="1740" 
d="M1014 676l123 -337.999h-47l-115 328h-240l-69 -328h-41l159 758h234c64 0 116.167 -17.833 156.5 -53.5s60.5 -78.834 60.5 -129.501c0 -112 -56.667 -187 -170 -225c-26 -8 -43 -12 -51 -12zM817 1055l-74 -348h205c74 0 133.5 18.333 178.5 55s67.5 85.667 67.5 147
c0 40.667 -16 75.167 -48 103.5s-76 42.5 -132 42.5h-197zM1671 801.001c0 -210 -82.166 -399.332 -246.499 -567.999s-356.5 -253 -576.5 -253c-190 0 -347.833 62.667 -473.5 188s-188.5 279 -188.5 461c0 147.333 39.667 284.833 119 412.5s182.166 228 308.499 301
s258.5 109.5 396.5 109.5c190 0 347.667 -62.833 473 -188.5s188 -279.834 188 -462.501zM858.001 20.002c202 0 381.166 78.668 537.499 236.001s234.5 338.333 234.5 543c0 173.333 -59.333 318.666 -178 435.999s-269 176 -451 176
c-199.333 0 -378.166 -77.167 -536.499 -231.5s-237.5 -336.5 -237.5 -546.5c0 -173.333 59.5 -318.833 178.5 -436.5s269.833 -176.5 452.5 -176.5z" />
    <glyph glyph-name="macron" unicode="&#xaf;" horiz-adv-x="634" 
d="M774 1382l-8 -41h-512l8 41h512z" />
    <glyph glyph-name="degree" unicode="&#xb0;" horiz-adv-x="696" 
d="M260 1184c0 69.333 28 131.667 84 187s121 83 195 83c64 0 117.5 -22.167 160.5 -66.5s64.5 -96.5 64.5 -156.5c0 -70.667 -29 -133 -87 -187s-122.667 -81 -194 -81c-62.667 0 -115.5 21.833 -158.5 65.5s-64.5 95.5 -64.5 155.5zM489 1004
c58.667 0 112.332 22.833 160.999 68.5s73 98.5 73 158.5c0 50.667 -17.833 93.334 -53.5 128.001s-80.5 52 -134.5 52c-60 0 -113.667 -22.5 -161 -67.5s-71 -98.167 -71 -159.5c0 -50.667 17.333 -93.334 52 -128.001s79.334 -52 134.001 -52z" />
    <glyph glyph-name="plusminus" unicode="&#xb1;" horiz-adv-x="1024" 
d="M39 143l10 41h819l-10 -41h-819zM512 338h-41l88 420h-389l8 41h389l86 399h41l-86 -399h389l-8 -41h-389z" />
    <glyph glyph-name="uni00B2" unicode="&#xb2;" horiz-adv-x="552" 
d="M594 922l-451 0.00195312c10.667 52 36.667 99 78 141s86.5 77.333 135.5 106s97.333 57 145 85s87.667 60.833 120 98.5s48.5 79.167 48.5 124.5c0 35.333 -14.333 66 -43 92s-65 39 -109 39c-42 0 -80.167 -11.333 -114.5 -34s-58.166 -45 -71.499 -67l-19 -32l-39 10
c1.33301 4 4.16602 9.66699 8.49902 17s14 20.666 29 39.999s31 36.166 48 50.499s40.167 27.333 69.5 39s60.333 17.5 93 17.5c52 0 96.5 -16.833 133.5 -50.5s55.5 -72.167 55.5 -115.5c0 -50.667 -14.667 -96.167 -44 -136.5s-67 -74.833 -113 -103.5
s-92.5 -56 -139.5 -82s-91.333 -56 -133 -90s-70.5 -70 -86.5 -108h407z" />
    <glyph glyph-name="uni00B3" unicode="&#xb3;" horiz-adv-x="573" 
d="M551 1300c2.66699 -1.33301 6.3291 -3.00098 10.9961 -5.00098s13.5 -7.66699 26.5 -17s24.333 -19.5 34 -30.5s18.167 -25.667 25.5 -44s11 -38.5 11 -60.5c0 -66.667 -23.833 -122 -71.5 -166s-109.167 -66 -184.5 -66c-30 0 -59 3.83301 -87 11.5s-50.5 17 -67.5 28
s-32.333 22.167 -46 33.5s-23.167 20.666 -28.5 27.999l-8 12l37 31c4 -8 10.833 -17.5 20.5 -28.5s31.834 -26.167 66.501 -45.5s73.334 -29 116.001 -29c62.667 0 113.667 17.833 153 53.5s59 80.834 59 135.501c0 39.333 -14.667 72.333 -44 99s-67 40 -113 40h-99l11 41
h84c57.333 0 105.833 15.667 145.5 47s59.5 71.666 59.5 120.999c0 32.667 -13.667 60.667 -41 84s-63 35 -107 35c-36.667 0 -71.167 -7.83301 -103.5 -23.5s-55.166 -31.167 -68.499 -46.5l-20 -22l-25 30c5.33301 8 13.5 17.5 24.5 28.5s35.667 26.167 74 45.5
s78.5 29 120.5 29c52 0 96 -16.167 132 -48.5s54 -69.5 54 -111.5c0 -20.667 -2.66699 -40.167 -8 -58.5s-12.5 -33.666 -21.5 -45.999s-19.167 -23.666 -30.5 -33.999s-22.166 -18.5 -32.499 -24.5s-20.333 -11 -30 -15s-17.167 -6.66699 -22.5 -8z" />
    <glyph glyph-name="acute" unicode="&#xb4;" horiz-adv-x="327" 
d="M217 1167l205 246h53l-215 -246h-43z" />
    <glyph glyph-name="mu" unicode="&#xb5;" 
d="M874 164l15.001 71.999c-2.66699 -6.66699 -7.5 -16 -14.5 -28s-22 -32.667 -45 -62s-48.167 -55.166 -75.5 -77.499s-64.333 -42.666 -111 -60.999s-95.667 -27.5 -147 -27.5c-48 0 -91.5 7.5 -130.5 22.5s-69.333 32.667 -91 53s-39.667 41.166 -54 62.499
s-23.5 39.333 -27.5 54l-9 23l-133 -625h-41l301 1413h41l-127 -594c-23.333 -110.667 -8.33301 -199.834 45 -267.501s130 -101.5 230 -101.5c98 0 187.667 37 269 111s133.666 167 156.999 279l123 573h41l-175 -819c-9.33301 -40.667 -5.16602 -73 12.501 -97
s45.167 -36 82.5 -36l63 10l-8 -41c-16.667 -6.66699 -38.667 -10 -66 -10c-46.667 0 -81.834 16.333 -105.501 49s-30.167 74.334 -19.5 125.001z" />
    <glyph glyph-name="paragraph" unicode="&#xb6;" horiz-adv-x="1024" 
d="M293 -205l219 1024c-69.333 0 -128.333 27.667 -177 83s-73 118.666 -73 189.999c0 92.667 36.5 172.834 109.5 240.501s156.833 101.5 251.5 101.5h366l-348 -1639h-41l340 1598h-266l-340 -1598h-41z" />
    <glyph glyph-name="periodcentered" unicode="&#xb7;" horiz-adv-x="368" 
d="M160 508c0 10.667 4.33301 20.833 13 30.5s19.334 14.5 32.001 14.5c24.667 0 37 -12.333 37 -37c0 -12 -4.83301 -22.5 -14.5 -31.5s-19.834 -13.5 -30.501 -13.5c-24.667 0 -37 12.333 -37 37z" />
    <glyph glyph-name="cedilla" unicode="&#xb8;" horiz-adv-x="440" 
d="M135 41h39.001l-117 -164c15.333 6.66699 36.666 10 63.999 10c34 0 61.167 -11.5 81.5 -34.5s30.5 -51.5 30.5 -85.5c0 -48 -19.333 -89.5 -58 -124.5s-86 -52.5 -142 -52.5c-24.667 0 -48.667 4.16699 -72 12.5s-40.333 16.5 -51 24.5l-16 15l24 30
c30 -27.333 68.833 -41 116.5 -41s86.334 13 116.001 39s44.5 59 44.5 99c0 26 -8.33301 47.167 -25 63.5s-39.334 24.5 -68.001 24.5c-12 0 -24.5 -1.83301 -37.5 -5.5s-22.833 -7.5 -29.5 -11.5l-10 -4l-17 27z" />
    <glyph glyph-name="uni00B9" unicode="&#xb9;" horiz-adv-x="378" 
d="M481 1638l31.001 0.000976562l-154 -716h-41l138 645c-4 -5.33301 -10.5 -12.833 -19.5 -22.5s-28.167 -23 -57.5 -40s-61 -26.833 -95 -29.5l8 41c34 2.66699 66.667 14.167 98 34.5s54.666 40.166 69.999 59.499z" />
    <glyph glyph-name="ordmasculine" unicode="&#xba;" horiz-adv-x="716" 
d="M811 1184c0 -91.333 -33.5 -175 -100.5 -251s-147.5 -114 -241.5 -114c-78 0 -142.167 25.667 -192.5 77s-75.5 116 -75.5 194c0 101.333 34.5 187.333 103.5 258s147.167 106 234.5 106c79.333 0 144.5 -25.5 195.5 -76.5s76.5 -115.5 76.5 -193.5zM473 860
c80.667 0 150.332 32.833 208.999 98.5s88 140.167 88 223.5c0 68 -21.833 123.833 -65.5 167.5s-99.5 65.5 -167.5 65.5c-78 0 -146.667 -31 -206 -93s-89 -139.333 -89 -232c0 -66.667 21.833 -121.667 65.5 -165s98.834 -65 165.501 -65z" />
    <glyph glyph-name="guillemotright" unicode="&#xbb;" horiz-adv-x="819" 
d="M668 496l-158 303h39l160 -307l-291 -308h-43zM360 496l-157 303h39l159 -307l-290 -308h-43z" />
    <glyph glyph-name="onequarter" unicode="&#xbc;" horiz-adv-x="1372" 
d="M72 0l1202 1434h43l-1202 -1434h-43zM459 1434l29.999 0.000976562l-153 -717h-41l137 645c-4 -5.33301 -10.5 -12.833 -19.5 -22.5s-28.167 -23 -57.5 -40s-61 -26.833 -95 -29.5l8 41c34 2.66699 66.833 14.167 98.5 34.5s54.834 40.166 69.501 59.499zM1126 236.001
h103l-10 -41h-103l-41 -195h-41l41 195h-368l10 41l452 481h60zM1085 236.001l93 440l-410 -440h317z" />
    <glyph glyph-name="onehalf" unicode="&#xbd;" horiz-adv-x="1413" 
d="M72 0l1202 1434h43l-1202 -1434h-43zM459 1434l29.999 0.000976562l-153 -717h-41l137 645c-4 -5.33301 -10.5 -12.833 -19.5 -22.5s-28.167 -23 -57.5 -40s-61 -26.833 -95 -29.5l8 41c34 2.66699 66.833 14.167 98.5 34.5s54.834 40.166 69.501 59.499z
M1223 0.000976562l-450.998 0.000976562c10.667 52 36.5 99.167 77.5 141.5s86.167 77.833 135.5 106.5s97.833 57 145.5 85s87.5 60.667 119.5 98s48 78.666 48 123.999c0 35.333 -14.333 66 -43 92s-64.667 39 -108 39c-42 0 -80.167 -11.333 -114.5 -34
s-57.5 -44.667 -69.5 -66l-21 -33l-39 10c1.33301 4 4.16602 9.83301 8.49902 17.5s14 21 29 40s31 35.667 48 50s40.167 27.333 69.5 39s60.333 17.5 93 17.5c52 0 96.333 -16.667 133 -50s55 -72 55 -116c0 -50.667 -14.667 -96 -44 -136s-66.833 -74.333 -112.5 -103
s-92 -56 -139 -82s-91.333 -56.167 -133 -90.5s-70.834 -70.5 -87.501 -108.5h408z" />
    <glyph glyph-name="threequarters" unicode="&#xbe;" horiz-adv-x="1495" 
d="M195 0l1202 1434h43l-1202 -1434h-43zM524 1096c2.66699 -1.33301 6.49805 -3.16895 11.498 -5.50195s14 -8.16602 27 -17.499s24.167 -19.5 33.5 -30.5s17.833 -25.667 25.5 -44s11.5 -38.5 11.5 -60.5c0 -66.667 -24 -121.834 -72 -165.501s-109.333 -65.5 -184 -65.5
c-30 0 -59 3.66699 -87 11s-50.5 16.5 -67.5 27.5s-32.333 22.333 -46 34s-23.5 20.834 -29.5 27.501l-8 12l37 31c4 -8 10.833 -17.5 20.5 -28.5s31.834 -26 66.501 -45s73.334 -28.5 116.001 -28.5c62.667 0 113.834 17.667 153.501 53s59.5 80.333 59.5 135
c0 39.333 -14.667 72.333 -44 99s-67.333 40 -114 40h-98l10 41h84c57.333 0 105.833 15.667 145.5 47s59.5 71.666 59.5 120.999c0 32.667 -13.667 60.667 -41 84s-63 35 -107 35c-36.667 0 -71 -7.83301 -103 -23.5s-55 -31.167 -69 -46.5l-20 -22l-25 30
c5.33301 8 13.5 17.5 24.5 28.5s35.667 26.167 74 45.5s78.5 29 120.5 29c52 0 96.167 -16 132.5 -48s54.5 -69.333 54.5 -112c0 -20.667 -2.83301 -40.167 -8.5 -58.5s-12.834 -33.666 -21.501 -45.999s-18.834 -23.666 -30.501 -33.999s-22.667 -18.5 -33 -24.5
s-20.166 -11 -29.499 -15s-16.333 -6.66699 -21 -8zM1249 235.997h103l-11 -41h-102l-41 -195h-41l41 195h-369l11 41l452 481h60zM1208 235.997l92 440l-409 -440h317z" />
    <glyph glyph-name="questiondown" unicode="&#xbf;" horiz-adv-x="911" 
d="M596 686l-21.0059 -92c-13.333 -64 -40.166 -120.667 -80.499 -170s-84.666 -90.333 -132.999 -123s-96.5 -65 -144.5 -97s-91.333 -71.333 -130 -118s-65 -100 -79 -160c-4 -20.667 -6 -41 -6 -61c0 -75.333 32.5 -140 97.5 -194s145.833 -81 242.5 -81
c58.667 0 113 9.66699 163 29s89 42.666 117 69.999s51.833 54.333 71.5 81s32.834 49.334 39.501 68.001l12 29l37 -10c-2.66699 -8 -6.66699 -19 -12 -33s-19.666 -38.667 -42.999 -74s-50 -66.666 -80 -93.999s-72.333 -52 -127 -74s-114.667 -33 -180 -33
c-106.667 0 -196.5 30.5 -269.5 91.5s-109.5 133.833 -109.5 218.5c0 23.333 2 45.666 6 66.999c13.333 64 40.333 121 81 171s85.167 91.667 133.5 125s96.333 66.5 144 99.5s91.334 72.333 131.001 118s65.834 97.167 78.501 154.5l20 92h41zM669.994 946
c0 -10.667 -4.49902 -20.833 -13.499 -30.5s-19.5 -14.5 -31.5 -14.5c-24.667 0 -37 12.333 -37 37c0 12 4.66699 22.5 14 31.5s19.666 13.5 30.999 13.5c24.667 0 37 -12.333 37 -37z" />
    <glyph glyph-name="Agrave" unicode="&#xc0;" horiz-adv-x="1351" 
d="M907 1434l291 -1434h-41l-90 451h-774l-279 -451h-45l897 1434h41zM1057 492l-178 890l-555 -890h733zM780 1905l103 -246h-39l-113 246h49z" />
    <glyph glyph-name="Aacute" unicode="&#xc1;" horiz-adv-x="1351" 
d="M907 1434l291 -1434h-41l-90 451h-774l-279 -451h-45l897 1434h41zM1057 492l-178 890l-555 -890h733zM903 1638l205 246h53l-215 -246h-43z" />
    <glyph glyph-name="Acircumflex" unicode="&#xc2;" horiz-adv-x="1351" 
d="M907 1434l291 -1434h-41l-90 451h-774l-279 -451h-45l897 1434h41zM1057 492l-178 890l-555 -890h733zM662 1638l266 246h41l164 -246h-50l-139 215l-229 -215h-53z" />
    <glyph glyph-name="Atilde" unicode="&#xc3;" horiz-adv-x="1351" 
d="M907 1434l291 -1434h-41l-90 451h-774l-279 -451h-45l897 1434h41zM1057 492l-178 890l-555 -890h733zM1065 1638c-27.333 0 -52.334 8.66699 -75.001 26s-40 36.166 -52 56.499s-27.667 39 -47 56s-40.666 25.5 -63.999 25.5c-57.333 0 -97.333 -54.667 -120 -164h-41
c28.667 136.667 83 205 163 205c27.333 0 52.333 -8.5 75 -25.5s40.167 -35.667 52.5 -56s28 -39.166 47 -56.499s40.167 -26 63.5 -26c58.667 0 99.667 54.667 123 164h41c-28.667 -136.667 -84 -205 -166 -205z" />
    <glyph glyph-name="Adieresis" unicode="&#xc4;" horiz-adv-x="1351" 
d="M907 1434l291 -1434h-41l-90 451h-774l-279 -451h-45l897 1434h41zM1057 492l-178 890l-555 -890h733zM721 1757c0 10.667 4.50098 20.833 13.501 30.5s19.5 14.5 31.5 14.5c24.667 0 37 -12.333 37 -37c0 -12 -4.83301 -22.5 -14.5 -31.5s-19.834 -13.5 -30.501 -13.5
c-24.667 0 -37 12.333 -37 37zM1049 1757c0 10.667 4.33105 20.833 12.998 30.5s19.334 14.5 32.001 14.5c24.667 0 36.667 -12.333 36 -37c0 -12 -4.66699 -22.5 -14 -31.5s-19.666 -13.5 -30.999 -13.5c-24 0 -36 12.333 -36 37z" />
    <glyph glyph-name="Aring" unicode="&#xc5;" horiz-adv-x="1351" 
d="M907 1434l291 -1434h-41l-90 451h-774l-279 -451h-45l897 1434h41zM1057 492l-178 890l-555 -890h733zM930 1616c40.667 0 77.5 16 110.5 48s49.5 70.667 49.5 116c0 35.333 -12.333 65 -37 89s-57 36 -97 36c-42 0 -79 -16.167 -111 -48.5s-48 -70.833 -48 -115.5
c0 -35.333 12.333 -65 37 -89s56.667 -36 96 -36zM756 1739c0 52 20.168 99.501 60.501 142.501s89.166 64.5 146.499 64.5c48 0 88.333 -16.167 121 -48.5s49 -70.833 49 -115.5c0 -54.667 -21.167 -102.5 -63.5 -143.5s-89.5 -61.5 -141.5 -61.5
c-49.333 0 -90.333 15.667 -123 47s-49 69.666 -49 114.999z" />
    <glyph glyph-name="AE" unicode="&#xc6;" horiz-adv-x="1904" 
d="M-133 0l1102 1434h1044l-8 -41h-778l-133 -625h614l-8 -41h-615l-145 -686h799l-8 -41h-840l98 471h-713l-364 -471h-45zM985 1393l-678 -881h692l187 881h-201z" />
    <glyph glyph-name="Ccedilla" unicode="&#xc7;" horiz-adv-x="1525" 
d="M164 633c0 135.333 35.833 265.996 107.5 391.996s170.334 229 296.001 309s260.834 120 405.501 120c48 0 93.833 -3.66699 137.5 -11s82.834 -17.166 117.501 -29.499s67.334 -26.333 98.001 -42s57.334 -32.5 80.001 -50.5s43.167 -35.833 61.5 -53.5
s34 -34.334 47 -50.001s23.667 -29.667 32 -42s14.5 -21.833 18.5 -28.5l6 -10l-35 -17l-8 15c-6.66699 10.667 -16.834 24.834 -30.501 42.501s-30.834 36.834 -51.501 57.501s-46.667 41.5 -78 62.5s-65.5 40 -102.5 57s-81.333 31 -133 42s-106.167 16.5 -163.5 16.5
c-196.667 0 -373.167 -77.167 -529.5 -231.5s-234.5 -337.166 -234.5 -548.499c0 -173.333 56.333 -319.166 169 -437.499s257 -177.5 433 -177.5c61.333 0 122.333 10 183 30s112.5 44.333 155.5 73s82 57.667 117 87s60.5 54.333 76.5 75l27 28l27 -24
c-6.66699 -8 -16.167 -19 -28.5 -33s-39.333 -38.667 -81 -74s-84.334 -66.666 -128.001 -93.999s-98.334 -51.833 -164.001 -73.5s-130.5 -32.5 -194.5 -32.5c-6.66699 0 -15.5 0.333008 -26.5 1s-19.5 1 -25.5 1l-73 -103l8 2
c5.33301 1.33301 13.166 2.66602 23.499 3.99902s20.833 2 31.5 2c34 0 61.333 -11.5 82 -34.5s31 -51.5 31 -85.5c0 -48 -19.5 -89.5 -58.5 -124.5s-86.5 -52.5 -142.5 -52.5c-24.667 0 -48.5 4.16699 -71.5 12.5s-40.167 16.5 -51.5 24.5l-16 15l24 30
c30 -27.333 69 -41 117 -41s86.667 13 116 39s44 59 44 99c0 26 -8.16699 47.167 -24.5 63.5s-38.833 24.5 -67.5 24.5c-12 0 -24.667 -1.83301 -38 -5.5s-23.333 -7.5 -30 -11.5l-10 -4l-16 27l86 123c-161.333 20.667 -292.5 91.667 -393.5 213s-151.5 266 -151.5 434z
" />
    <glyph glyph-name="Egrave" unicode="&#xc8;" horiz-adv-x="1280" 
d="M203 41h911l-8 -41h-952l303 1434h932l-9 -41h-891l-133 -625h727l-8 -41h-727zM858 1905l103 -246h-39l-113 246h49z" />
    <glyph glyph-name="Eacute" unicode="&#xc9;" horiz-adv-x="1280" 
d="M203 41h911l-8 -41h-952l303 1434h932l-9 -41h-891l-133 -625h727l-8 -41h-727zM913 1638l205 246h53l-215 -246h-43z" />
    <glyph glyph-name="Ecircumflex" unicode="&#xca;" horiz-adv-x="1280" 
d="M203 41h911l-8 -41h-952l303 1434h932l-9 -41h-891l-133 -625h727l-8 -41h-727zM725 1638l266 246h41l164 -246h-49l-139 215l-230 -215h-53z" />
    <glyph glyph-name="Edieresis" unicode="&#xcb;" horiz-adv-x="1280" 
d="M203 41h911l-8 -41h-952l303 1434h932l-9 -41h-891l-133 -625h727l-8 -41h-727zM770 1757c0 10.667 4.50098 20.833 13.501 30.5s19.5 14.5 31.5 14.5c24.667 0 37 -12.333 37 -37c0 -12 -4.83301 -22.5 -14.5 -31.5s-19.834 -13.5 -30.501 -13.5
c-24.667 0 -37 12.333 -37 37zM1098 1757c0 10.667 4.33301 20.833 13 30.5s19.334 14.5 32.001 14.5c24.667 0 37 -12.333 37 -37c0 -12 -4.83301 -22.5 -14.5 -31.5s-19.834 -13.5 -30.501 -13.5c-24.667 0 -37 12.333 -37 37z" />
    <glyph glyph-name="Igrave" unicode="&#xcc;" horiz-adv-x="532" 
d="M154 0l303 1434h41l-303 -1434h-41zM420 1905l102 -246h-39l-112 246h49z" />
    <glyph glyph-name="Iacute" unicode="&#xcd;" horiz-adv-x="532" 
d="M154 0l303 1434h41l-303 -1434h-41zM485 1638l205 246h53l-215 -246h-43z" />
    <glyph glyph-name="Icircumflex" unicode="&#xce;" horiz-adv-x="532" 
d="M154 0l303 1434h41l-303 -1434h-41zM270 1638l267 246h41l163 -246h-49l-139 215l-229 -215h-54z" />
    <glyph glyph-name="Idieresis" unicode="&#xcf;" horiz-adv-x="532" 
d="M154 0l303 1434h41l-303 -1434h-41zM328 1757c0 10.667 4.33301 20.833 13 30.5s19.334 14.5 32.001 14.5c24.667 0 37 -12.333 37 -37c0 -12 -4.83301 -22.5 -14.5 -31.5s-19.834 -13.5 -30.501 -13.5c-24.667 0 -37 12.333 -37 37zM655 1757
c0 10.667 4.49902 20.833 13.499 30.5s19.5 14.5 31.5 14.5c24.667 0 37 -12.333 37 -37c0 -12 -4.66699 -22.5 -14 -31.5s-19.666 -13.5 -30.999 -13.5c-24.667 0 -37 12.333 -37 37z" />
    <glyph glyph-name="Eth" unicode="&#xd0;" horiz-adv-x="1525" 
d="M487 1434h359.001c187.333 0 339.666 -58.5 456.999 -175.5s176 -260.833 176 -431.5c0 -236 -88.5 -432.833 -265.5 -590.5s-386.833 -236.5 -629.5 -236.5h-400l148 696h-215l8 41h215zM844.001 1393l-323.998 0.000976562l-139 -656h379l-8 -41h-379l-140 -655h353
c233.333 0 433.666 74.667 600.999 224s251 336.666 251 561.999c0 161.333 -54.333 296 -163 404s-252.334 162 -431.001 162z" />
    <glyph glyph-name="Ntilde" unicode="&#xd1;" horiz-adv-x="1587" 
d="M1511 1434h41l-303 -1434h-28l-740 1352l-286 -1352h-41l303 1434h28l740 -1352zM1137 1638c-27.333 0 -52.335 8.66699 -75.002 26s-40.167 36.166 -52.5 56.499s-28 39 -47 56s-40.167 25.5 -63.5 25.5c-57.333 0 -97.666 -54.667 -120.999 -164h-41
c28.667 136.667 83.334 205 164.001 205c27.333 0 52.333 -8.5 75 -25.5s40.167 -35.667 52.5 -56s28 -39.166 47 -56.499s40.167 -26 63.5 -26c58.667 0 99.667 54.667 123 164h41c-28.667 -136.667 -84 -205 -166 -205z" />
    <glyph glyph-name="Ograve" unicode="&#xd2;" horiz-adv-x="1679" 
d="M819 20c199.333 0 377.832 79.6689 535.499 239.002s236.5 340.666 236.5 543.999c0 172 -58.333 316.667 -175 434s-263 176 -439 176c-94 0 -187.833 -20.833 -281.5 -62.5s-176.667 -97 -249 -166s-130.666 -152.333 -174.999 -250s-66.5 -198.834 -66.5 -303.501
c0 -172 58.333 -316.833 175 -434.5s263 -176.5 439 -176.5zM1632 803.002c0 -135.333 -36.833 -266.169 -110.5 -392.502s-174.334 -229.666 -302.001 -309.999s-263.167 -120.5 -406.5 -120.5c-186 0 -340.667 62.667 -464 188s-185 279 -185 461
c0 146 39.833 283.167 119.5 411.5s182.334 229.333 308.001 303s256.167 110.5 391.5 110.5c186 0 340.667 -63.167 464 -189.5s185 -280.166 185 -461.499zM953.999 1905l103 -246h-39l-113 246h49z" />
    <glyph glyph-name="Oacute" unicode="&#xd3;" horiz-adv-x="1679" 
d="M819 20c199.333 0 377.832 79.6689 535.499 239.002s236.5 340.666 236.5 543.999c0 172 -58.333 316.667 -175 434s-263 176 -439 176c-94 0 -187.833 -20.833 -281.5 -62.5s-176.667 -97 -249 -166s-130.666 -152.333 -174.999 -250s-66.5 -198.834 -66.5 -303.501
c0 -172 58.333 -316.833 175 -434.5s263 -176.5 439 -176.5zM1632 803.002c0 -135.333 -36.833 -266.169 -110.5 -392.502s-174.334 -229.666 -302.001 -309.999s-263.167 -120.5 -406.5 -120.5c-186 0 -340.667 62.667 -464 188s-185 279 -185 461
c0 146 39.833 283.167 119.5 411.5s182.334 229.333 308.001 303s256.167 110.5 391.5 110.5c186 0 340.667 -63.167 464 -189.5s185 -280.166 185 -461.499zM1016 1638l205 246h53l-215 -246h-43z" />
    <glyph glyph-name="Ocircumflex" unicode="&#xd4;" horiz-adv-x="1679" 
d="M819 20c199.333 0 377.832 79.6689 535.499 239.002s236.5 340.666 236.5 543.999c0 172 -58.333 316.667 -175 434s-263 176 -439 176c-94 0 -187.833 -20.833 -281.5 -62.5s-176.667 -97 -249 -166s-130.666 -152.333 -174.999 -250s-66.5 -198.834 -66.5 -303.501
c0 -172 58.333 -316.833 175 -434.5s263 -176.5 439 -176.5zM1632 803.002c0 -135.333 -36.833 -266.169 -110.5 -392.502s-174.334 -229.666 -302.001 -309.999s-263.167 -120.5 -406.5 -120.5c-186 0 -340.667 62.667 -464 188s-185 279 -185 461
c0 146 39.833 283.167 119.5 411.5s182.334 229.333 308.001 303s256.167 110.5 391.5 110.5c186 0 340.667 -63.167 464 -189.5s185 -280.166 185 -461.499zM820.999 1638l266 246h41l164 -246h-49l-139 215l-230 -215h-53z" />
    <glyph glyph-name="Otilde" unicode="&#xd5;" horiz-adv-x="1679" 
d="M819 20c199.333 0 377.832 79.6689 535.499 239.002s236.5 340.666 236.5 543.999c0 172 -58.333 316.667 -175 434s-263 176 -439 176c-94 0 -187.833 -20.833 -281.5 -62.5s-176.667 -97 -249 -166s-130.666 -152.333 -174.999 -250s-66.5 -198.834 -66.5 -303.501
c0 -172 58.333 -316.833 175 -434.5s263 -176.5 439 -176.5zM1632 803.002c0 -135.333 -36.833 -266.169 -110.5 -392.502s-174.334 -229.666 -302.001 -309.999s-263.167 -120.5 -406.5 -120.5c-186 0 -340.667 62.667 -464 188s-185 279 -185 461
c0 146 39.833 283.167 119.5 411.5s182.334 229.333 308.001 303s256.167 110.5 391.5 110.5c186 0 340.667 -63.167 464 -189.5s185 -280.166 185 -461.499zM1176 1638c-27.333 0 -52.335 8.66699 -75.002 26s-40.167 36.166 -52.5 56.499s-28 39 -47 56
s-40.167 25.5 -63.5 25.5c-57.333 0 -97.666 -54.667 -120.999 -164h-41c28.667 136.667 83.334 205 164.001 205c27.333 0 52.333 -8.5 75 -25.5s40 -35.667 52 -56s27.667 -39.166 47 -56.499s40.666 -26 63.999 -26c58.667 0 99.334 54.667 122.001 164h41
c-28 -136.667 -83 -205 -165 -205z" />
    <glyph glyph-name="Odieresis" unicode="&#xd6;" horiz-adv-x="1679" 
d="M819 20c199.333 0 377.832 79.6689 535.499 239.002s236.5 340.666 236.5 543.999c0 172 -58.333 316.667 -175 434s-263 176 -439 176c-94 0 -187.833 -20.833 -281.5 -62.5s-176.667 -97 -249 -166s-130.666 -152.333 -174.999 -250s-66.5 -198.834 -66.5 -303.501
c0 -172 58.333 -316.833 175 -434.5s263 -176.5 439 -176.5zM1632 803.002c0 -135.333 -36.833 -266.169 -110.5 -392.502s-174.334 -229.666 -302.001 -309.999s-263.167 -120.5 -406.5 -120.5c-186 0 -340.667 62.667 -464 188s-185 279 -185 461
c0 146 39.833 283.167 119.5 411.5s182.334 229.333 308.001 303s256.167 110.5 391.5 110.5c186 0 340.667 -63.167 464 -189.5s185 -280.166 185 -461.499zM882.999 1757c0 10.667 4.33301 20.833 13 30.5s19.334 14.5 32.001 14.5c24.667 0 37 -12.333 37 -37
c0 -12 -4.83301 -22.5 -14.5 -31.5s-19.834 -13.5 -30.501 -13.5c-24.667 0 -37 12.333 -37 37zM1210 1757c0 10.667 4.49902 20.833 13.499 30.5s19.5 14.5 31.5 14.5c24.667 0 37 -12.333 37 -37c0 -12 -4.66699 -22.5 -14 -31.5s-19.666 -13.5 -30.999 -13.5
c-24.667 0 -37 12.333 -37 37z" />
    <glyph glyph-name="multiply" unicode="&#xd7;" horiz-adv-x="880" 
d="M862 932l-350 -297l225 -297l-35 -29l-223 295l-350 -299l-27 33l349 297l-224 297l33 29l225 -295l349 299z" />
    <glyph glyph-name="Oslash" unicode="&#xd8;" horiz-adv-x="1679" 
d="M1632 803c0 -135.333 -36.832 -266.168 -110.499 -392.501s-174.334 -229.666 -302.001 -309.999s-263.167 -120.5 -406.5 -120.5c-200.667 0 -364.334 72.333 -491.001 217l-256 -217l-23 30l254 217c-88.667 114.667 -133 248.667 -133 402
c0 146 39.833 283.167 119.5 411.5s182.334 229.333 308.001 303s256.167 110.5 391.5 110.5c199.333 0 363.333 -73 492 -219l256 219l24 -31l-256 -219c88.667 -117.333 133 -251 133 -401zM205.001 630.998c0 -142 41.666 -267.668 124.999 -377.001l1112 954
c-118.667 136.667 -273.667 205 -465 205c-94 0 -187.833 -20.833 -281.5 -62.5s-176.667 -97 -249 -166s-130.666 -152.167 -174.999 -249.5s-66.5 -198.666 -66.5 -303.999zM819 19.9971c199.333 0 377.833 79.668 535.5 239.001s236.5 340.666 236.5 543.999
c0 140.667 -41.667 265.667 -125 375l-1112 -953c118.667 -136.667 273.667 -205 465 -205z" />
    <glyph glyph-name="Ugrave" unicode="&#xd9;" horiz-adv-x="1536" 
d="M715 20c136.667 0 259.168 49.501 367.501 148.501s178.166 223.833 209.499 374.5l189 891h41l-189 -891c-34 -161.333 -109.333 -295.5 -226 -402.5s-248.667 -160.5 -396 -160.5c-132.667 0 -245 43 -337 129s-138 194.333 -138 325c0 35.333 4 71.666 12 108.999
l188 891h41l-188 -891c-8 -36.667 -12.333 -71.667 -13 -105c0 -120 42.5 -219.667 127.5 -299s188.833 -119 311.5 -119zM913.001 1905l103 -246h-39l-113 246h49z" />
    <glyph glyph-name="Uacute" unicode="&#xda;" horiz-adv-x="1536" 
d="M715 20c136.667 0 259.168 49.501 367.501 148.501s178.166 223.833 209.499 374.5l189 891h41l-189 -891c-34 -161.333 -109.333 -295.5 -226 -402.5s-248.667 -160.5 -396 -160.5c-132.667 0 -245 43 -337 129s-138 194.333 -138 325c0 35.333 4 71.666 12 108.999
l188 891h41l-188 -891c-8 -36.667 -12.333 -71.667 -13 -105c0 -120 42.5 -219.667 127.5 -299s188.833 -119 311.5 -119zM954.001 1638l205 246h53l-215 -246h-43z" />
    <glyph glyph-name="Ucircumflex" unicode="&#xdb;" horiz-adv-x="1536" 
d="M715 20c136.667 0 259.168 49.501 367.501 148.501s178.166 223.833 209.499 374.5l189 891h41l-189 -891c-34 -161.333 -109.333 -295.5 -226 -402.5s-248.667 -160.5 -396 -160.5c-132.667 0 -245 43 -337 129s-138 194.333 -138 325c0 35.333 4 71.666 12 108.999
l188 891h41l-188 -891c-8 -36.667 -12.333 -71.667 -13 -105c0 -120 42.5 -219.667 127.5 -299s188.833 -119 311.5 -119zM764.001 1638l266 246h41l164 -246h-49l-139 215l-230 -215h-53z" />
    <glyph glyph-name="Udieresis" unicode="&#xdc;" horiz-adv-x="1536" 
d="M715 20c136.667 0 259.168 49.501 367.501 148.501s178.166 223.833 209.499 374.5l189 891h41l-189 -891c-34 -161.333 -109.333 -295.5 -226 -402.5s-248.667 -160.5 -396 -160.5c-132.667 0 -245 43 -337 129s-138 194.333 -138 325c0 35.333 4 71.666 12 108.999
l188 891h41l-188 -891c-8 -36.667 -12.333 -71.667 -13 -105c0 -120 42.5 -219.667 127.5 -299s188.833 -119 311.5 -119zM819.001 1757c0 10.667 4.50098 20.833 13.501 30.5s19.5 14.5 31.5 14.5c24.667 0 37 -12.333 37 -37c0 -12 -4.83301 -22.5 -14.5 -31.5
s-19.834 -13.5 -30.501 -13.5c-24.667 0 -37 12.333 -37 37zM1147 1757c0 10.667 4.50098 20.833 13.501 30.5s19.5 14.5 31.5 14.5c24.667 0 37 -12.333 37 -37c0 -12 -4.83301 -22.5 -14.5 -31.5s-19.834 -13.5 -30.501 -13.5c-24.667 0 -37 12.333 -37 37z" />
    <glyph glyph-name="Yacute" unicode="&#xdd;" horiz-adv-x="1228" 
d="M322 1434l313 -891l690 891h53l-729 -932l-106 -502h-41l106 502l-336 932h50zM815 1638l205 246h53l-215 -246h-43z" />
    <glyph glyph-name="Thorn" unicode="&#xde;" horiz-adv-x="1300" 
d="M449 1198l-196.999 -922.001h385c161.333 0 297.166 50.667 407.499 152s165.5 227 165.5 377c0 106.667 -40.833 198.834 -122.5 276.501s-184.167 116.5 -307.5 116.5h-331zM457.001 1239h325c131.333 0 242.333 -43.667 333 -131s136 -188.333 136 -303
c0 -160 -59.667 -294.833 -179 -404.5s-265 -164.5 -437 -164.5h-391l-60 -277h-41l324 1516h41z" />
    <glyph glyph-name="germandbls" unicode="&#xdf;" horiz-adv-x="1167" 
d="M780 786l27.5 -11.002c11.667 -4.66699 32.167 -16.167 61.5 -34.5s55.333 -39.166 78 -62.499s43.167 -54.833 61.5 -94.5s27.5 -81.834 27.5 -126.501c0 -124 -51.833 -231.167 -155.5 -321.5s-223.167 -135.5 -358.5 -135.5h-61l8 41h55
c121.333 0 229.833 40.333 325.5 121s143.5 175.334 143.5 284.001c0 83.333 -30.667 156.166 -92 218.499s-137.666 93.5 -228.999 93.5h-51l8 41h10c101.333 0 193.166 36.5 275.499 109.5s123.5 155.167 123.5 246.5c0 70.667 -26.833 131.334 -80.5 182.001
s-120.834 76 -201.501 76c-90 0 -171.333 -30.333 -244 -91s-117.667 -132.667 -135 -216l-234 -1106h-41l234 1106c20.667 94 71.167 175.5 151.5 244.5s170.5 103.5 270.5 103.5c90 0 166 -29.667 228 -89s93 -129.333 93 -210c0 -30 -3.33301 -58.667 -10 -86
s-16.167 -51.5 -28.5 -72.5s-26.333 -41.167 -42 -60.5s-31.667 -35.833 -48 -49.5s-33.166 -26.334 -50.499 -38.001s-33.5 -21.167 -48.5 -28.5s-27.833 -13.666 -38.5 -18.999s-19.167 -9.16602 -25.5 -11.499s-8.83301 -3.5 -7.5 -3.5z" />
    <glyph glyph-name="agrave" unicode="&#xe0;" horiz-adv-x="1228" 
d="M1028 696l62 286.999h40l-208 -983h-41l59 287c-4 -8 -10.5 -19 -19.5 -33s-27.833 -38.667 -56.5 -74s-59.334 -66.666 -92.001 -93.999s-74.667 -51.833 -126 -73.5s-103.666 -32.5 -156.999 -32.5c-98 0 -185.167 40.5 -261.5 121.5s-114.5 178.167 -114.5 291.5
c0 164 57.333 306.833 172 428.5s238 182.5 370 182.5c53.333 0 102.833 -10.667 148.5 -32s81.5 -47 107.5 -77s48.667 -60 68 -90s32.333 -55.333 39 -76zM653 962.999c-120 0 -233.168 -56.666 -339.501 -169.999s-159.5 -246 -159.5 -398c0 -104 34 -192.5 102 -265.5
s147.333 -109.5 238 -109.5c118.667 0 231.834 58.167 339.501 174.5s161.5 250.166 161.5 401.499c0 104 -34.5 191.167 -103.5 261.5s-148.5 105.5 -238.5 105.5zM640.999 1413l102 -246h-38l-113 246h49z" />
    <glyph glyph-name="aacute" unicode="&#xe1;" horiz-adv-x="1228" 
d="M1028 696l62 286.999h40l-208 -983h-41l59 287c-4 -8 -10.5 -19 -19.5 -33s-27.833 -38.667 -56.5 -74s-59.334 -66.666 -92.001 -93.999s-74.667 -51.833 -126 -73.5s-103.666 -32.5 -156.999 -32.5c-98 0 -185.167 40.5 -261.5 121.5s-114.5 178.167 -114.5 291.5
c0 164 57.333 306.833 172 428.5s238 182.5 370 182.5c53.333 0 102.833 -10.667 148.5 -32s81.5 -47 107.5 -77s48.667 -60 68 -90s32.333 -55.333 39 -76zM653 962.999c-120 0 -233.168 -56.666 -339.501 -169.999s-159.5 -246 -159.5 -398c0 -104 34 -192.5 102 -265.5
s147.333 -109.5 238 -109.5c118.667 0 231.834 58.167 339.501 174.5s161.5 250.166 161.5 401.499c0 104 -34.5 191.167 -103.5 261.5s-148.5 105.5 -238.5 105.5zM714.999 1167l205 246h53l-215 -246h-43z" />
    <glyph glyph-name="acircumflex" unicode="&#xe2;" horiz-adv-x="1228" 
d="M1028 696l62 286.999h40l-208 -983h-41l59 287c-4 -8 -10.5 -19 -19.5 -33s-27.833 -38.667 -56.5 -74s-59.334 -66.666 -92.001 -93.999s-74.667 -51.833 -126 -73.5s-103.666 -32.5 -156.999 -32.5c-98 0 -185.167 40.5 -261.5 121.5s-114.5 178.167 -114.5 291.5
c0 164 57.333 306.833 172 428.5s238 182.5 370 182.5c53.333 0 102.833 -10.667 148.5 -32s81.5 -47 107.5 -77s48.667 -60 68 -90s32.333 -55.333 39 -76zM653 962.999c-120 0 -233.168 -56.666 -339.501 -169.999s-159.5 -246 -159.5 -398c0 -104 34 -192.5 102 -265.5
s147.333 -109.5 238 -109.5c118.667 0 231.834 58.167 339.501 174.5s161.5 250.166 161.5 401.499c0 104 -34.5 191.167 -103.5 261.5s-148.5 105.5 -238.5 105.5zM478.999 1167l266 246h41l164 -246h-49l-139 215l-230 -215h-53z" />
    <glyph glyph-name="atilde" unicode="&#xe3;" horiz-adv-x="1228" 
d="M1028 696l62 286.999h40l-208 -983h-41l59 287c-4 -8 -10.5 -19 -19.5 -33s-27.833 -38.667 -56.5 -74s-59.334 -66.666 -92.001 -93.999s-74.667 -51.833 -126 -73.5s-103.666 -32.5 -156.999 -32.5c-98 0 -185.167 40.5 -261.5 121.5s-114.5 178.167 -114.5 291.5
c0 164 57.333 306.833 172 428.5s238 182.5 370 182.5c53.333 0 102.833 -10.667 148.5 -32s81.5 -47 107.5 -77s48.667 -60 68 -90s32.333 -55.333 39 -76zM653 962.999c-120 0 -233.168 -56.666 -339.501 -169.999s-159.5 -246 -159.5 -398c0 -104 34 -192.5 102 -265.5
s147.333 -109.5 238 -109.5c118.667 0 231.834 58.167 339.501 174.5s161.5 250.166 161.5 401.499c0 104 -34.5 191.167 -103.5 261.5s-148.5 105.5 -238.5 105.5zM833.999 1167c-27.333 0 -52.335 8.66699 -75.002 26s-40.167 36.166 -52.5 56.499s-28 39 -47 56
s-40.167 25.5 -63.5 25.5c-57.333 0 -97.666 -54.667 -120.999 -164h-41c28.667 136.667 83.334 205 164.001 205c27.333 0 52.333 -8.5 75 -25.5s40 -35.667 52 -56s27.667 -39.166 47 -56.499s40.666 -26 63.999 -26c58.667 0 99.334 54.667 122.001 164h41
c-28 -136.667 -83 -205 -165 -205z" />
    <glyph glyph-name="adieresis" unicode="&#xe4;" horiz-adv-x="1228" 
d="M1028 696l62 286.999h40l-208 -983h-41l59 287c-4 -8 -10.5 -19 -19.5 -33s-27.833 -38.667 -56.5 -74s-59.334 -66.666 -92.001 -93.999s-74.667 -51.833 -126 -73.5s-103.666 -32.5 -156.999 -32.5c-98 0 -185.167 40.5 -261.5 121.5s-114.5 178.167 -114.5 291.5
c0 164 57.333 306.833 172 428.5s238 182.5 370 182.5c53.333 0 102.833 -10.667 148.5 -32s81.5 -47 107.5 -77s48.667 -60 68 -90s32.333 -55.333 39 -76zM653 962.999c-120 0 -233.168 -56.666 -339.501 -169.999s-159.5 -246 -159.5 -398c0 -104 34 -192.5 102 -265.5
s147.333 -109.5 238 -109.5c118.667 0 231.834 58.167 339.501 174.5s161.5 250.166 161.5 401.499c0 104 -34.5 191.167 -103.5 261.5s-148.5 105.5 -238.5 105.5zM534.999 1286c0 10.667 4.33105 20.833 12.998 30.5s19.334 14.5 32.001 14.5
c24.667 0 36.667 -12.333 36 -37c0 -12 -4.66699 -22.5 -14 -31.5s-19.666 -13.5 -30.999 -13.5c-24 0 -36 12.333 -36 37zM861.997 1286c0 10.667 4.50098 20.833 13.501 30.5s19.5 14.5 31.5 14.5c24.667 0 37 -12.333 37 -37c0 -12 -4.83301 -22.5 -14.5 -31.5
s-19.834 -13.5 -30.501 -13.5c-24.667 0 -37 12.333 -37 37z" />
    <glyph glyph-name="aring" unicode="&#xe5;" horiz-adv-x="1228" 
d="M1028 696l62 286.999h40l-208 -983h-41l59 287c-4 -8 -10.5 -19 -19.5 -33s-27.833 -38.667 -56.5 -74s-59.334 -66.666 -92.001 -93.999s-74.667 -51.833 -126 -73.5s-103.666 -32.5 -156.999 -32.5c-98 0 -185.167 40.5 -261.5 121.5s-114.5 178.167 -114.5 291.5
c0 164 57.333 306.833 172 428.5s238 182.5 370 182.5c53.333 0 102.833 -10.667 148.5 -32s81.5 -47 107.5 -77s48.667 -60 68 -90s32.333 -55.333 39 -76zM653 962.999c-120 0 -233.168 -56.666 -339.501 -169.999s-159.5 -246 -159.5 -398c0 -104 34 -192.5 102 -265.5
s147.333 -109.5 238 -109.5c118.667 0 231.834 58.167 339.501 174.5s161.5 250.166 161.5 401.499c0 104 -34.5 191.167 -103.5 261.5s-148.5 105.5 -238.5 105.5zM734.999 1165c40.667 0 77.5 16.167 110.5 48.5s49.5 70.833 49.5 115.5c0 35.333 -12.333 65 -37 89
s-56.667 36 -96 36c-42 0 -79.167 -16 -111.5 -48s-48.5 -70.667 -48.5 -116c0 -35.333 12.333 -65 37 -89s56.667 -36 96 -36zM560.999 1288c0 52 20.168 99.501 60.501 142.501s89.166 64.5 146.499 64.5c48 0 88.333 -16 121 -48s49 -70.667 49 -116
c0 -54.667 -21.167 -102.5 -63.5 -143.5s-89.5 -61.5 -141.5 -61.5c-49.333 0 -90.333 15.667 -123 47s-49 69.666 -49 114.999z" />
    <glyph glyph-name="ae" unicode="&#xe6;" horiz-adv-x="1730" 
d="M1630 492l-799.005 0.00292969c-6.66699 -34 -10 -73 -10 -117c0 -108 30.833 -194.167 92.5 -258.5s139.5 -96.5 233.5 -96.5c39.333 0 78.5 6.5 117.5 19.5s71.833 28.5 98.5 46.5s50.167 35.833 70.5 53.5s35.5 32.5 45.5 44.5l16 21l29 -21
c-4 -5.33301 -9.83301 -12.833 -17.5 -22.5s-24.167 -26 -49.5 -49s-51.666 -43.333 -78.999 -61s-62.5 -34 -105.5 -49s-86.167 -22.5 -129.5 -22.5c-58.667 0 -111.667 11.167 -159 33.5s-82.833 49.5 -106.5 81.5s-43.667 64.167 -60 96.5s-26.833 59.833 -31.5 82.5
l-6 33c-2.66699 -9.33301 -7.33398 -21.166 -14.001 -35.499s-23 -40.333 -49 -78s-54.667 -70.834 -86 -99.501s-73.666 -54.834 -126.999 -78.501s-110.666 -35.5 -171.999 -35.5c-83.333 0 -153.333 25.167 -210 75.5s-85 107.5 -85 171.5c0 87.333 37.167 160 111.5 218
s164.833 87 271.5 87h379l20 103c18 86 3.83301 162.167 -42.5 228.5s-116.166 99.5 -209.499 99.5c-57.333 0 -112.166 -13 -164.499 -39s-90.166 -51.333 -113.499 -76l-35 -39l-25 31c4 4 9.16699 9.66699 15.5 17s20.833 20.666 43.5 39.999s46.167 36.166 70.5 50.499
s56 27.333 95 39s78.167 17.5 117.5 17.5c58.667 0 109.167 -11.667 151.5 -35s73.166 -52.833 92.499 -88.5s32.666 -67.167 39.999 -94.5s11 -51.666 11 -72.999v-17c4 8 9.83301 19 17.5 33s24.834 38.667 51.501 74s55.334 66.666 86.001 93.999s71.334 52 122.001 74
s104 33 160 33c91.333 0 171.166 -36.333 239.499 -109s102.5 -162.667 102.5 -270c0 -45.333 -3.66699 -83 -11 -113zM335.995 20.0029c102.667 0 194.5 36.6689 275.5 110.002s134.5 166.666 160.5 279.999l19 82h-379c-94 0 -172.833 -25 -236.5 -75
s-95.5 -113.333 -95.5 -190c0 -54.667 24.167 -102.834 72.5 -144.501s109.5 -62.5 183.5 -62.5zM1298 963.005c-105.333 0 -201.833 -42.668 -289.5 -128.001s-143.834 -186.333 -168.501 -303h757c4 28.667 6.33301 57.334 7 86.001c0 100 -30.167 182.5 -90.5 247.5
s-132.166 97.5 -215.499 97.5z" />
    <glyph glyph-name="ccedilla" unicode="&#xe7;" horiz-adv-x="1064" 
d="M655 963c-131.333 0 -247.333 -55.9961 -348 -167.996s-151 -236.333 -151 -373c0 -117.333 35.5 -213.666 106.5 -288.999s159.5 -113 265.5 -113c58.667 0 116.667 15.5 174 46.5s100.333 62.167 129 93.5l41 45l27 -23c-4 -5.33301 -9.83301 -12.5 -17.5 -21.5
s-24.334 -25.333 -50.001 -49s-52.167 -44.334 -79.5 -62.001s-61.833 -33.667 -103.5 -48s-83.167 -21.5 -124.5 -21.5c-16.667 0 -29 0.666992 -37 2l-71 -103l8 2c5.33301 1.33301 13.166 2.66602 23.499 3.99902s20.833 2 31.5 2c34 0 61.333 -11.5 82 -34.5
s31 -51.5 31 -85.5c0 -48 -19.5 -89.5 -58.5 -124.5s-86.5 -52.5 -142.5 -52.5c-24.667 0 -48.5 4.16699 -71.5 12.5s-40.167 16.5 -51.5 24.5l-16 15l24 30c30 -27.333 69 -41 117 -41s86.667 13 116 39s44 59 44 99c0 26 -8.16699 47.167 -24.5 63.5
s-38.833 24.5 -67.5 24.5c-12 0 -24.667 -1.83301 -38 -5.5s-23.333 -7.5 -30 -11.5l-10 -4l-16 27l86 125c-98 16.667 -179.167 65.5 -243.5 146.5s-96.5 176.833 -96.5 287.5c0 155.333 56.667 291.166 170 407.499s237.333 174.5 372 174.5
c166.667 0 290.334 -69 371.001 -207l-35 -17c-2.66699 5.33301 -6.33398 12.166 -11.001 20.499s-16.167 22.666 -34.5 42.999s-39.166 38.833 -62.499 55.5s-55.166 31.5 -95.499 44.5s-84.5 19.5 -132.5 19.5z" />
    <glyph glyph-name="egrave" unicode="&#xe8;" horiz-adv-x="1126" 
d="M1020 471l-863.997 0.000976562c-2.66699 -30 -4 -51.667 -4 -65c0 -106.667 34.667 -197.667 104 -273s154 -113 254 -113c42 0 83.167 6.16699 123.5 18.5s74.166 27.5 101.499 45.5s52 36.167 74 54.5s37.667 33.5 47 45.5l16 19l27 -21
c-4 -5.33301 -9.83301 -12.5 -17.5 -21.5s-24 -25.333 -49 -49s-51.833 -44.334 -80.5 -62.001s-64.834 -33.667 -108.501 -48s-88.834 -21.5 -135.501 -21.5c-106.667 0 -199.167 41.167 -277.5 123.5s-117.5 180.833 -117.5 295.5c0 169.333 56.667 312.5 170 429.5
s238 175.5 374 175.5c104 0 193.5 -37 268.5 -111s112.5 -167.667 112.5 -281c0 -39.333 -4 -79.333 -12 -120zM653.003 963.001c-116 0 -220.333 -44.832 -313 -134.499s-152 -195.167 -178 -316.5h827c6.66699 38 10 71.333 10 100
c0 101.333 -33.833 185.166 -101.5 251.499s-149.167 99.5 -244.5 99.5zM575.003 1434l103 -246h-39l-113 246h49z" />
    <glyph glyph-name="eacute" unicode="&#xe9;" horiz-adv-x="1126" 
d="M1020 471l-863.997 0.000976562c-2.66699 -30 -4 -51.667 -4 -65c0 -106.667 34.667 -197.667 104 -273s154 -113 254 -113c42 0 83.167 6.16699 123.5 18.5s74.166 27.5 101.499 45.5s52 36.167 74 54.5s37.667 33.5 47 45.5l16 19l27 -21
c-4 -5.33301 -9.83301 -12.5 -17.5 -21.5s-24 -25.333 -49 -49s-51.833 -44.334 -80.5 -62.001s-64.834 -33.667 -108.501 -48s-88.834 -21.5 -135.501 -21.5c-106.667 0 -199.167 41.167 -277.5 123.5s-117.5 180.833 -117.5 295.5c0 169.333 56.667 312.5 170 429.5
s238 175.5 374 175.5c104 0 193.5 -37 268.5 -111s112.5 -167.667 112.5 -281c0 -39.333 -4 -79.333 -12 -120zM653.003 963.001c-116 0 -220.333 -44.832 -313 -134.499s-152 -195.167 -178 -316.5h827c6.66699 38 10 71.333 10 100
c0 101.333 -33.833 185.166 -101.5 251.499s-149.167 99.5 -244.5 99.5zM639.003 1167l205 246h53l-215 -246h-43z" />
    <glyph glyph-name="ecircumflex" unicode="&#xea;" horiz-adv-x="1126" 
d="M1020 471l-863.997 0.000976562c-2.66699 -30 -4 -51.667 -4 -65c0 -106.667 34.667 -197.667 104 -273s154 -113 254 -113c42 0 83.167 6.16699 123.5 18.5s74.166 27.5 101.499 45.5s52 36.167 74 54.5s37.667 33.5 47 45.5l16 19l27 -21
c-4 -5.33301 -9.83301 -12.5 -17.5 -21.5s-24 -25.333 -49 -49s-51.833 -44.334 -80.5 -62.001s-64.834 -33.667 -108.501 -48s-88.834 -21.5 -135.501 -21.5c-106.667 0 -199.167 41.167 -277.5 123.5s-117.5 180.833 -117.5 295.5c0 169.333 56.667 312.5 170 429.5
s238 175.5 374 175.5c104 0 193.5 -37 268.5 -111s112.5 -167.667 112.5 -281c0 -39.333 -4 -79.333 -12 -120zM653.003 963.001c-116 0 -220.333 -44.832 -313 -134.499s-152 -195.167 -178 -316.5h827c6.66699 38 10 71.333 10 100
c0 101.333 -33.833 185.166 -101.5 251.499s-149.167 99.5 -244.5 99.5zM438.003 1167l267 246h40l164 -246h-49l-139 215l-229 -215h-54z" />
    <glyph glyph-name="edieresis" unicode="&#xeb;" horiz-adv-x="1126" 
d="M1020 471l-863.997 0.000976562c-2.66699 -30 -4 -51.667 -4 -65c0 -106.667 34.667 -197.667 104 -273s154 -113 254 -113c42 0 83.167 6.16699 123.5 18.5s74.166 27.5 101.499 45.5s52 36.167 74 54.5s37.667 33.5 47 45.5l16 19l27 -21
c-4 -5.33301 -9.83301 -12.5 -17.5 -21.5s-24 -25.333 -49 -49s-51.833 -44.334 -80.5 -62.001s-64.834 -33.667 -108.501 -48s-88.834 -21.5 -135.501 -21.5c-106.667 0 -199.167 41.167 -277.5 123.5s-117.5 180.833 -117.5 295.5c0 169.333 56.667 312.5 170 429.5
s238 175.5 374 175.5c104 0 193.5 -37 268.5 -111s112.5 -167.667 112.5 -281c0 -39.333 -4 -79.333 -12 -120zM653.003 963.001c-116 0 -220.333 -44.832 -313 -134.499s-152 -195.167 -178 -316.5h827c6.66699 38 10 71.333 10 100
c0 101.333 -33.833 185.166 -101.5 251.499s-149.167 99.5 -244.5 99.5zM514.003 1286c0 10.667 4.50098 20.833 13.501 30.5s19.5 14.5 31.5 14.5c24.667 0 37 -12.333 37 -37c0 -12 -4.83301 -22.5 -14.5 -31.5s-19.834 -13.5 -30.501 -13.5c-24.667 0 -37 12.333 -37 37z
M842.004 1286c0 10.667 4.33301 20.833 13 30.5s19.334 14.5 32.001 14.5c24.667 0 37 -12.333 37 -37c0 -12 -4.83301 -22.5 -14.5 -31.5s-19.834 -13.5 -30.501 -13.5c-24.667 0 -37 12.333 -37 37z" />
    <glyph glyph-name="igrave" unicode="&#xec;" horiz-adv-x="450" 
d="M352 983l-209 -983h-41l209 983h41zM268 1434l103 -246h-39l-113 246h49z" />
    <glyph glyph-name="iacute" unicode="&#xed;" horiz-adv-x="450" 
d="M352 983l-209 -983h-41l209 983h41zM350 1167l205 246h53l-215 -246h-43z" />
    <glyph glyph-name="icircumflex" unicode="&#xee;" horiz-adv-x="450" 
d="M352 983l-209 -983h-41l209 983h41zM125 1167l266 246h41l164 -246h-49l-139 215l-230 -215h-53z" />
    <glyph glyph-name="idieresis" unicode="&#xef;" horiz-adv-x="450" 
d="M352 983l-209 -983h-41l209 983h41zM182 1286c0 10.667 4.49902 20.833 13.499 30.5s19.5 14.5 31.5 14.5c24.667 0 37 -12.333 37 -37c0 -12 -4.66699 -22.5 -14 -31.5s-19.666 -13.5 -30.999 -13.5c-24.667 0 -37 12.333 -37 37zM509.999 1286
c0 10.667 4.50098 20.833 13.501 30.5s19.5 14.5 31.5 14.5c24.667 0 37 -12.333 37 -37c0 -12 -4.83301 -22.5 -14.5 -31.5s-19.834 -13.5 -30.501 -13.5c-24.667 0 -37 12.333 -37 37z" />
    <glyph glyph-name="eth" unicode="&#xf0;" horiz-adv-x="1157" 
d="M1061 1565l-259.998 -164.002c6.66699 -5.33301 16.167 -13.166 28.5 -23.499s33.833 -33.666 64.5 -69.999s58 -75.333 82 -117s45.5 -97.167 64.5 -166.5s28.5 -141.666 28.5 -216.999c0 -128.667 -18 -246.5 -54 -353.5s-83.167 -194.333 -141.5 -262
s-121.833 -119.834 -190.5 -156.501s-138 -55 -208 -55c-98 0 -184 39.5 -258 118.5s-111 173.167 -111 282.5c0 148.667 55.667 279.334 167 392.001s230 169 356 169c62.667 0 118.5 -12 167.5 -36s86.167 -52.667 111.5 -86s45.833 -67 61.5 -101s25.5 -63.333 29.5 -88
l7 -35c15.333 78 22.666 145.667 21.999 203c0 74 -8.83301 144.333 -26.5 211s-39.167 121.5 -64.5 164.5s-51.333 80.833 -78 113.5s-48.5 56.167 -65.5 70.5s-26.167 21.5 -27.5 21.5l-272 -174l-17 33l260 164c-36.667 27.333 -75.5 52.166 -116.5 74.499
s-73.167 37.833 -96.5 46.5l-35 12l27 31c83.333 -27.333 168.666 -75.333 255.999 -144l272 174zM956.002 460.998c6.66699 36.667 10.333 68.668 11 96.001c0 98 -32.5 179.833 -97.5 245.5s-142.5 98.5 -232.5 98.5c-118.667 0 -230 -51.833 -334 -155.5
s-156 -225.167 -156 -364.5c0 -100 32.833 -185.167 98.5 -255.5s143.5 -105.5 233.5 -105.5c104 0 203 43.167 297 129.5s154 190.166 180 311.499z" />
    <glyph glyph-name="ntilde" unicode="&#xf1;" horiz-adv-x="1187" 
d="M352 983l-53.001 -243.998c2.66699 6.66699 7.5 16.167 14.5 28.5s22.333 33.666 46 63.999s49.834 57 78.501 80s67 44.167 115 63.5s98.667 29 152 29c94 0 172.333 -30.5 235 -91.5s94 -139.167 94 -234.5c0 -26 -3.33301 -57.333 -10 -94l-123 -584h-41l123 584
c5.33301 26 8 54 8 84c0 87.333 -28 158.333 -84 213s-127 82 -213 82c-102.667 0 -194.5 -38.333 -275.5 -115s-133.833 -174.334 -158.5 -293.001l-117 -555h-41l209 983h41zM851.999 1167c-27.333 0 -52.334 8.66699 -75.001 26s-40 36.166 -52 56.499s-27.667 39 -47 56
s-40.666 25.5 -63.999 25.5c-57.333 0 -97.333 -54.667 -120 -164h-41c28.667 136.667 83 205 163 205c27.333 0 52.333 -8.5 75 -25.5s40.167 -35.667 52.5 -56s28 -39.166 47 -56.499s40.167 -26 63.5 -26c58.667 0 99.667 54.667 123 164h41
c-28.667 -136.667 -84 -205 -166 -205z" />
    <glyph glyph-name="ograve" unicode="&#xf2;" horiz-adv-x="1187" 
d="M537 20c131.333 0 247.667 55 349 165s152 232.667 152 368c0 116 -36.833 213.333 -110.5 292s-163.834 118 -270.501 118c-124 0 -238.5 -53 -343.5 -159s-157.5 -231.333 -157.5 -376c0 -116 36.833 -213 110.5 -291s163.834 -117 270.501 -117zM1079 555
c0 -142 -55.167 -273.333 -165.5 -394s-239.5 -181 -387.5 -181c-116 0 -213.833 43 -293.5 129s-119.5 191 -119.5 315c0 157.333 58 293.333 174 408s242.333 172 379 172c116 0 213.833 -43.5 293.5 -130.5s119.5 -193.167 119.5 -318.5zM610.001 1434l103 -246h-39
l-113 246h49z" />
    <glyph glyph-name="oacute" unicode="&#xf3;" horiz-adv-x="1187" 
d="M537 20c131.333 0 247.667 55 349 165s152 232.667 152 368c0 116 -36.833 213.333 -110.5 292s-163.834 118 -270.501 118c-124 0 -238.5 -53 -343.5 -159s-157.5 -231.333 -157.5 -376c0 -116 36.833 -213 110.5 -291s163.834 -117 270.501 -117zM1079 555
c0 -142 -55.167 -273.333 -165.5 -394s-239.5 -181 -387.5 -181c-116 0 -213.833 43 -293.5 129s-119.5 191 -119.5 315c0 157.333 58 293.333 174 408s242.333 172 379 172c116 0 213.833 -43.5 293.5 -130.5s119.5 -193.167 119.5 -318.5zM702.001 1167l205 246h54
l-216 -246h-43z" />
    <glyph glyph-name="ocircumflex" unicode="&#xf4;" horiz-adv-x="1187" 
d="M537 20c131.333 0 247.667 55 349 165s152 232.667 152 368c0 116 -36.833 213.333 -110.5 292s-163.834 118 -270.501 118c-124 0 -238.5 -53 -343.5 -159s-157.5 -231.333 -157.5 -376c0 -116 36.833 -213 110.5 -291s163.834 -117 270.501 -117zM1079 555
c0 -142 -55.167 -273.333 -165.5 -394s-239.5 -181 -387.5 -181c-116 0 -213.833 43 -293.5 129s-119.5 191 -119.5 315c0 157.333 58 293.333 174 408s242.333 172 379 172c116 0 213.833 -43.5 293.5 -130.5s119.5 -193.167 119.5 -318.5zM473.001 1167l266 246h41
l164 -246h-49l-139 215l-230 -215h-53z" />
    <glyph glyph-name="otilde" unicode="&#xf5;" horiz-adv-x="1187" 
d="M537 20c131.333 0 247.667 55 349 165s152 232.667 152 368c0 116 -36.833 213.333 -110.5 292s-163.834 118 -270.501 118c-124 0 -238.5 -53 -343.5 -159s-157.5 -231.333 -157.5 -376c0 -116 36.833 -213 110.5 -291s163.834 -117 270.501 -117zM1079 555
c0 -142 -55.167 -273.333 -165.5 -394s-239.5 -181 -387.5 -181c-116 0 -213.833 43 -293.5 129s-119.5 191 -119.5 315c0 157.333 58 293.333 174 408s242.333 172 379 172c116 0 213.833 -43.5 293.5 -130.5s119.5 -193.167 119.5 -318.5zM852.001 1167
c-27.333 0 -52.334 8.66699 -75.001 26s-40 36.166 -52 56.499s-27.667 39 -47 56s-40.666 25.5 -63.999 25.5c-57.333 0 -97.333 -54.667 -120 -164h-41c28.667 136.667 83 205 163 205c27.333 0 52.333 -8.5 75 -25.5s40.167 -35.667 52.5 -56s28 -39.166 47 -56.499
s40.167 -26 63.5 -26c58.667 0 99.667 54.667 123 164h41c-28.667 -136.667 -84 -205 -166 -205z" />
    <glyph glyph-name="odieresis" unicode="&#xf6;" horiz-adv-x="1187" 
d="M537 20c131.333 0 247.667 55 349 165s152 232.667 152 368c0 116 -36.833 213.333 -110.5 292s-163.834 118 -270.501 118c-124 0 -238.5 -53 -343.5 -159s-157.5 -231.333 -157.5 -376c0 -116 36.833 -213 110.5 -291s163.834 -117 270.501 -117zM1079 555
c0 -142 -55.167 -273.333 -165.5 -394s-239.5 -181 -387.5 -181c-116 0 -213.833 43 -293.5 129s-119.5 191 -119.5 315c0 157.333 58 293.333 174 408s242.333 172 379 172c116 0 213.833 -43.5 293.5 -130.5s119.5 -193.167 119.5 -318.5zM535.001 1286
c0 10.667 4.33105 20.833 12.998 30.5s19.334 14.5 32.001 14.5c24.667 0 36.667 -12.333 36 -37c0 -12 -4.66699 -22.5 -14 -31.5s-19.666 -13.5 -30.999 -13.5c-24 0 -36 12.333 -36 37zM861.999 1286c0 10.667 4.50098 20.833 13.501 30.5s19.5 14.5 31.5 14.5
c24.667 0 37 -12.333 37 -37c0 -12 -4.83301 -22.5 -14.5 -31.5s-19.834 -13.5 -30.501 -13.5c-24.667 0 -37 12.333 -37 37z" />
    <glyph glyph-name="divide" unicode="&#xf7;" horiz-adv-x="1003" 
d="M932 584h-799l8 41h799zM416 221c0 10.667 4.33301 20.833 13 30.5s19.334 14.5 32.001 14.5c24.667 0 37 -12.333 37 -37c0 -12 -4.83301 -22.5 -14.5 -31.5s-19.834 -13.5 -30.501 -13.5c-24.667 0 -37 12.333 -37 37zM578 978.999
c0 10.667 4.33105 20.833 12.998 30.5s19.334 14.5 32.001 14.5c24.667 0 36.667 -12.333 36 -37c0 -12 -4.66699 -22.5 -14 -31.5s-19.666 -13.5 -30.999 -13.5c-24 0 -36 12.333 -36 37z" />
    <glyph glyph-name="oslash" unicode="&#xf8;" horiz-adv-x="1187" 
d="M1079 555c0 -142 -55.167 -273.332 -165.5 -393.999s-239.5 -181 -387.5 -181c-128.667 0 -234.334 52.333 -317.001 157l-197 -168l-22 31l196 168c-49.333 75.333 -73.666 160.666 -72.999 255.999c0 157.333 58 293.333 174 408s242.333 172 379 172
c126.667 0 231.667 -52.667 315 -158l197 168l24 -31l-198 -168c50 -79.333 75 -166 75 -260zM537 20.001c131.333 0 247.668 55 349.001 165s152 232.667 152 368c0 86 -21.667 163.667 -65 233l-731 -620c75.333 -97.333 173.666 -146 294.999 -146zM156.002 428.001
c0 -88.667 21 -165.667 63 -231l729 622c-75.333 95.333 -172.333 143.333 -291 144c-124 0 -238.5 -53 -343.5 -159s-157.5 -231.333 -157.5 -376z" />
    <glyph glyph-name="ugrave" unicode="&#xf9;" 
d="M858 0l51.001 243.999c-2.66699 -6.66699 -7.33398 -16.167 -14.001 -28.5s-22 -33.666 -46 -63.999s-50.333 -57 -79 -80s-66.834 -44 -114.501 -63s-98.167 -28.5 -151.5 -28.5c-94 0 -172.5 30.333 -235.5 91s-94.5 138.667 -94.5 234
c0 35.333 3.33301 66.666 10 93.999l125 584h41l-125 -584c-6.66699 -34 -10 -63.333 -10 -88c0 -87.333 27.333 -157.666 82 -210.999s124.334 -80 209.001 -80c102.667 0 195.167 37.333 277.5 112s136.5 170.667 162.5 288l121 563h41l-209 -983h-41zM647.001 1434
l103 -246h-39l-113 246h49z" />
    <glyph glyph-name="uacute" unicode="&#xfa;" 
d="M858 0l51.001 243.999c-2.66699 -6.66699 -7.33398 -16.167 -14.001 -28.5s-22 -33.666 -46 -63.999s-50.333 -57 -79 -80s-66.834 -44 -114.501 -63s-98.167 -28.5 -151.5 -28.5c-94 0 -172.5 30.333 -235.5 91s-94.5 138.667 -94.5 234
c0 35.333 3.33301 66.666 10 93.999l125 584h41l-125 -584c-6.66699 -34 -10 -63.333 -10 -88c0 -87.333 27.333 -157.666 82 -210.999s124.334 -80 209.001 -80c102.667 0 195.167 37.333 277.5 112s136.5 170.667 162.5 288l121 563h41l-209 -983h-41zM698.001 1167
l205 246h53l-215 -246h-43z" />
    <glyph glyph-name="ucircumflex" unicode="&#xfb;" 
d="M858 0l51.001 243.999c-2.66699 -6.66699 -7.33398 -16.167 -14.001 -28.5s-22 -33.666 -46 -63.999s-50.333 -57 -79 -80s-66.834 -44 -114.501 -63s-98.167 -28.5 -151.5 -28.5c-94 0 -172.5 30.333 -235.5 91s-94.5 138.667 -94.5 234
c0 35.333 3.33301 66.666 10 93.999l125 584h41l-125 -584c-6.66699 -34 -10 -63.333 -10 -88c0 -87.333 27.333 -157.666 82 -210.999s124.334 -80 209.001 -80c102.667 0 195.167 37.333 277.5 112s136.5 170.667 162.5 288l121 563h41l-209 -983h-41zM494.001 1167
l266 246h41l164 -246h-50l-139 215l-229 -215h-53z" />
    <glyph glyph-name="udieresis" unicode="&#xfc;" 
d="M858 0l51.001 243.999c-2.66699 -6.66699 -7.33398 -16.167 -14.001 -28.5s-22 -33.666 -46 -63.999s-50.333 -57 -79 -80s-66.834 -44 -114.501 -63s-98.167 -28.5 -151.5 -28.5c-94 0 -172.5 30.333 -235.5 91s-94.5 138.667 -94.5 234
c0 35.333 3.33301 66.666 10 93.999l125 584h41l-125 -584c-6.66699 -34 -10 -63.333 -10 -88c0 -87.333 27.333 -157.666 82 -210.999s124.334 -80 209.001 -80c102.667 0 195.167 37.333 277.5 112s136.5 170.667 162.5 288l121 563h41l-209 -983h-41zM524.001 1286
c0 10.667 4.49902 20.833 13.499 30.5s19.5 14.5 31.5 14.5c24.667 0 37 -12.333 37 -37c0 -12 -4.66699 -22.5 -14 -31.5s-19.666 -13.5 -30.999 -13.5c-24.667 0 -37 12.333 -37 37zM852 1286c0 10.667 4.50098 20.833 13.501 30.5s19.5 14.5 31.5 14.5
c24.667 0 37 -12.333 37 -37c0 -12 -4.83301 -22.5 -14.5 -31.5s-19.834 -13.5 -30.501 -13.5c-24.667 0 -37 12.333 -37 37z" />
    <glyph glyph-name="yacute" unicode="&#xfd;" horiz-adv-x="962" 
d="M215 -225l143.001 225l-190 983h39l180 -932l578 932h43l-750 -1208c-84.667 -136.667 -177.334 -205 -278.001 -205c-15.333 0 -29.5 1.66699 -42.5 5s-22.167 7 -27.5 11l-6 4l6 41c18 -13.333 44 -20 78 -20c83.333 0 159 54.667 227 164zM555.001 1167l205 246h53
l-215 -246h-43z" />
    <glyph glyph-name="thorn" unicode="&#xfe;" horiz-adv-x="1228" 
d="M446 1434l-155.001 -738c4 8 10.5 19 19.5 33s28.167 38.667 57.5 74s60.333 66.666 93 93.999s75 52 127 74s104.333 33 157 33c98 0 185 -41.667 261 -125s114 -182.333 114 -297c0 -82 -17 -161 -51 -237s-77.667 -140.167 -131 -192.5
s-112.666 -94.166 -177.999 -125.499s-129.666 -47 -192.999 -47c-53.333 0 -102.5 10.5 -147.5 31.5s-80.167 46.5 -105.5 76.5s-46.833 60 -64.5 90s-29.834 55.333 -36.501 76l-10 33l-152 -717h-41l396 1864h40zM740.999 963c-120 0 -234.166 -58.499 -342.499 -175.499
s-162.5 -251.167 -162.5 -402.5c0 -104 33 -190.833 99 -260.5s144 -104.5 234 -104.5c120 0 234.667 56 344 168s164 243.333 164 394c0 105.333 -33.833 195.166 -101.5 269.499s-145.834 111.5 -234.501 111.5z" />
    <glyph glyph-name="ydieresis" unicode="&#xff;" horiz-adv-x="962" 
d="M215 -225l143.001 225l-190 983h39l180 -932l578 932h43l-750 -1208c-84.667 -136.667 -177.334 -205 -278.001 -205c-15.333 0 -29.5 1.66699 -42.5 5s-22.167 7 -27.5 11l-6 4l6 41c18 -13.333 44 -20 78 -20c83.333 0 159 54.667 227 164zM412.001 1286
c0 10.667 4.33301 20.833 13 30.5s19.334 14.5 32.001 14.5c24.667 0 37 -12.333 37 -37c0 -12 -4.83301 -22.5 -14.5 -31.5s-19.834 -13.5 -30.501 -13.5c-24.667 0 -37 12.333 -37 37zM739.001 1286c0 10.667 4.49902 20.833 13.499 30.5s19.5 14.5 31.5 14.5
c24.667 0 37 -12.333 37 -37c0 -12 -4.66699 -22.5 -14 -31.5s-19.666 -13.5 -30.999 -13.5c-24.667 0 -37 12.333 -37 37z" />
    <glyph glyph-name="Amacron" unicode="&#x100;" horiz-adv-x="1351" 
d="M907 1434l291 -1434h-41l-90 451h-774l-279 -451h-45l897 1434h41zM1057 492l-178 890l-555 -890h733zM1186 1782l-8 -41h-512l8 41h512z" />
    <glyph glyph-name="amacron" unicode="&#x101;" horiz-adv-x="1228" 
d="M1028 696l62 286.999h40l-208 -983h-41l59 287c-4 -8 -10.5 -19 -19.5 -33s-27.833 -38.667 -56.5 -74s-59.334 -66.666 -92.001 -93.999s-74.667 -51.833 -126 -73.5s-103.666 -32.5 -156.999 -32.5c-98 0 -185.167 40.5 -261.5 121.5s-114.5 178.167 -114.5 291.5
c0 164 57.333 306.833 172 428.5s238 182.5 370 182.5c53.333 0 102.833 -10.667 148.5 -32s81.5 -47 107.5 -77s48.667 -60 68 -90s32.333 -55.333 39 -76zM653 962.999c-120 0 -233.168 -56.666 -339.501 -169.999s-159.5 -246 -159.5 -398c0 -104 34 -192.5 102 -265.5
s147.333 -109.5 238 -109.5c118.667 0 231.834 58.167 339.501 174.5s161.5 250.166 161.5 401.499c0 104 -34.5 191.167 -103.5 261.5s-148.5 105.5 -238.5 105.5zM1020 1331l-8 -41h-512l8 41h512z" />
    <glyph glyph-name="Abreve" unicode="&#x102;" horiz-adv-x="1351" 
d="M907 1434l291 -1434h-41l-90 451h-774l-279 -451h-45l897 1434h41zM1057 492l-178 890l-555 -890h733zM907 1679c61.333 0 113.501 18.833 156.501 56.5s71.5 87.167 85.5 148.5h41c-15.333 -72.667 -48.5 -131.834 -99.5 -177.501s-112.167 -68.5 -183.5 -68.5
c-72.667 0 -129.334 23.333 -170.001 70s-53.667 105.334 -39 176.001h41c-13.333 -61.333 -4 -110.833 28 -148.5s78.667 -56.5 140 -56.5z" />
    <glyph glyph-name="abreve" unicode="&#x103;" horiz-adv-x="1228" 
d="M1028 696l62 286.999h40l-208 -983h-41l59 287c-4 -8 -10.5 -19 -19.5 -33s-27.833 -38.667 -56.5 -74s-59.334 -66.666 -92.001 -93.999s-74.667 -51.833 -126 -73.5s-103.666 -32.5 -156.999 -32.5c-98 0 -185.167 40.5 -261.5 121.5s-114.5 178.167 -114.5 291.5
c0 164 57.333 306.833 172 428.5s238 182.5 370 182.5c53.333 0 102.833 -10.667 148.5 -32s81.5 -47 107.5 -77s48.667 -60 68 -90s32.333 -55.333 39 -76zM653 962.999c-120 0 -233.168 -56.666 -339.501 -169.999s-159.5 -246 -159.5 -398c0 -104 34 -192.5 102 -265.5
s147.333 -109.5 238 -109.5c118.667 0 231.834 58.167 339.501 174.5s161.5 250.166 161.5 401.499c0 104 -34.5 191.167 -103.5 261.5s-148.5 105.5 -238.5 105.5zM730.999 1208c61.333 0 113.501 18.833 156.501 56.5s71.5 87.167 85.5 148.5h41
c-15.333 -72.667 -48.5 -131.834 -99.5 -177.501s-112.167 -68.5 -183.5 -68.5c-72.667 0 -129.334 23.333 -170.001 70s-53.667 105.334 -39 176.001h41c-13.333 -61.333 -4 -110.833 28 -148.5s78.667 -56.5 140 -56.5z" />
    <glyph glyph-name="Aogonek" unicode="&#x104;" horiz-adv-x="1351" 
d="M1157 0l-90.001 451h-774l-279 -451h-45l897 1434h41l291 -1434c-5.33301 -4 -12.5 -9.5 -21.5 -16.5s-25 -21.333 -48 -43s-43.5 -43.167 -61.5 -64.5s-34.167 -46.333 -48.5 -75s-21.5 -55.334 -21.5 -80.001c0 -53.333 34.333 -79.666 103 -78.999
c22 0 43.5 2.33301 64.5 7s36.833 9.66699 47.5 15l17 8l-8 -41c-38 -20.667 -81 -30.667 -129 -30c-44 0 -77.667 10.167 -101 30.5s-35 48.833 -35 85.5c0 44 16.833 89.5 50.5 136.5s66.834 83.5 99.501 109.5zM1057 492l-178 890l-555 -890h733z" />
    <glyph glyph-name="aogonek" unicode="&#x105;" horiz-adv-x="1228" 
d="M1028 696l62.001 287h40l-208 -983c-5.33301 -4 -12.5 -9.5 -21.5 -16.5s-25.167 -21.333 -48.5 -43s-43.833 -43.167 -61.5 -64.5s-33.667 -46.333 -48 -75s-21.5 -55.334 -21.5 -80.001c0 -53.333 34 -79.666 102 -78.999c22 0 43.667 2.33301 65 7
s37.333 9.66699 48 15l16 8l-8 -41c-38 -20.667 -81 -30.667 -129 -30c-44 0 -77.5 10.167 -100.5 30.5s-34.5 48.833 -34.5 85.5c0 44 16.667 89.5 50 136.5s67 83.5 101 109.5l50 37l59 285c-6.66699 -10.667 -14.834 -24 -24.501 -40s-29.167 -41 -58.5 -75
s-60 -64 -92 -90s-73 -49.167 -123 -69.5s-101 -30.5 -153 -30.5c-98 0 -185.167 40.5 -261.5 121.5s-114.5 178.167 -114.5 291.5c0 164 57.333 306.833 172 428.5s238 182.5 370 182.5c53.333 0 102.833 -10.667 148.5 -32s81.5 -47 107.5 -77s48.667 -60 68 -90
s32.333 -55.333 39 -76zM653.001 963c-120 0 -233.168 -56.666 -339.501 -169.999s-159.5 -246 -159.5 -398c0 -104 34 -192.5 102 -265.5s147.333 -109.5 238 -109.5c118.667 0 231.834 58.167 339.501 174.5s161.5 250.166 161.5 401.499
c0 104 -34.5 191.167 -103.5 261.5s-148.5 105.5 -238.5 105.5z" />
    <glyph glyph-name="Cacute" unicode="&#x106;" horiz-adv-x="1525" 
d="M164 633c0 135.333 35.832 265.995 107.499 391.995s170.334 229 296.001 309s260.834 120 405.501 120c48 0 93.833 -3.66699 137.5 -11s82.834 -17.166 117.501 -29.499s67.334 -26.333 98.001 -42s57.334 -32.5 80.001 -50.5s43.167 -35.833 61.5 -53.5
s34 -34.334 47 -50.001s23.667 -29.667 32 -42s14.5 -21.833 18.5 -28.5l6 -10l-35 -17l-8 15c-6.66699 10.667 -16.834 24.834 -30.501 42.501s-30.834 36.834 -51.501 57.501s-46.667 41.5 -78 62.5s-65.5 40 -102.5 57s-81.333 31 -133 42s-106.167 16.5 -163.5 16.5
c-196.667 0 -373.167 -77.167 -529.5 -231.5s-234.5 -337.166 -234.5 -548.499c0 -173.333 56.333 -319.166 169 -437.499s257 -177.5 433 -177.5c61.333 0 122.333 10 183 30s112.5 44.333 155.5 73s82 57.667 117 87s60.5 54.333 76.5 75l27 28l27 -24
c-6.66699 -8 -16.167 -19 -28.5 -33s-39.333 -38.667 -81 -74s-84.334 -66.666 -128.001 -93.999s-98.334 -51.833 -164.001 -73.5s-130.5 -32.5 -194.5 -32.5c-184 0 -335.5 62.833 -454.5 188.5s-178.5 280.5 -178.5 464.5zM1016 1638l205 246h53l-215 -246h-43z" />
    <glyph glyph-name="cacute" unicode="&#x107;" horiz-adv-x="1064" 
d="M655 963c-131.333 0 -247.334 -55.9971 -348.001 -167.997s-151 -236.333 -151 -373c0 -117.333 35.5 -213.666 106.5 -288.999s159.5 -113 265.5 -113c58.667 0 116.667 15.5 174 46.5s100.333 62.167 129 93.5l41 45l27 -23c-4 -5.33301 -9.83301 -12.5 -17.5 -21.5
s-24.334 -25.333 -50.001 -49s-52.167 -44.334 -79.5 -62.001s-61.833 -33.667 -103.5 -48s-83.167 -21.5 -124.5 -21.5c-116 0 -213.5 42.667 -292.5 128s-118.5 190 -118.5 314c0 155.333 56.667 291.166 170 407.499s237.333 174.5 372 174.5
c166.667 0 290.334 -69 371.001 -207l-35 -17c-2.66699 5.33301 -6.33398 12.166 -11.001 20.499s-16.167 22.666 -34.5 42.999s-39.166 38.833 -62.499 55.5s-55.166 31.5 -95.499 44.5s-84.5 19.5 -132.5 19.5zM656.999 1167l205 246h53l-215 -246h-43z" />
    <glyph glyph-name="Ccircumflex" unicode="&#x108;" horiz-adv-x="1525" 
d="M164 633c0 135.333 35.832 265.995 107.499 391.995s170.334 229 296.001 309s260.834 120 405.501 120c48 0 93.833 -3.66699 137.5 -11s82.834 -17.166 117.501 -29.499s67.334 -26.333 98.001 -42s57.334 -32.5 80.001 -50.5s43.167 -35.833 61.5 -53.5
s34 -34.334 47 -50.001s23.667 -29.667 32 -42s14.5 -21.833 18.5 -28.5l6 -10l-35 -17l-8 15c-6.66699 10.667 -16.834 24.834 -30.501 42.501s-30.834 36.834 -51.501 57.501s-46.667 41.5 -78 62.5s-65.5 40 -102.5 57s-81.333 31 -133 42s-106.167 16.5 -163.5 16.5
c-196.667 0 -373.167 -77.167 -529.5 -231.5s-234.5 -337.166 -234.5 -548.499c0 -173.333 56.333 -319.166 169 -437.499s257 -177.5 433 -177.5c61.333 0 122.333 10 183 30s112.5 44.333 155.5 73s82 57.667 117 87s60.5 54.333 76.5 75l27 28l27 -24
c-6.66699 -8 -16.167 -19 -28.5 -33s-39.333 -38.667 -81 -74s-84.334 -66.666 -128.001 -93.999s-98.334 -51.833 -164.001 -73.5s-130.5 -32.5 -194.5 -32.5c-184 0 -335.5 62.833 -454.5 188.5s-178.5 280.5 -178.5 464.5zM790.999 1638l266 246h41l164 -246h-50
l-139 215l-229 -215h-53z" />
    <glyph glyph-name="ccircumflex" unicode="&#x109;" horiz-adv-x="1064" 
d="M655 963c-131.333 0 -247.334 -55.9971 -348.001 -167.997s-151 -236.333 -151 -373c0 -117.333 35.5 -213.666 106.5 -288.999s159.5 -113 265.5 -113c58.667 0 116.667 15.5 174 46.5s100.333 62.167 129 93.5l41 45l27 -23c-4 -5.33301 -9.83301 -12.5 -17.5 -21.5
s-24.334 -25.333 -50.001 -49s-52.167 -44.334 -79.5 -62.001s-61.833 -33.667 -103.5 -48s-83.167 -21.5 -124.5 -21.5c-116 0 -213.5 42.667 -292.5 128s-118.5 190 -118.5 314c0 155.333 56.667 291.166 170 407.499s237.333 174.5 372 174.5
c166.667 0 290.334 -69 371.001 -207l-35 -17c-2.66699 5.33301 -6.33398 12.166 -11.001 20.499s-16.167 22.666 -34.5 42.999s-39.166 38.833 -62.499 55.5s-55.166 31.5 -95.499 44.5s-84.5 19.5 -132.5 19.5zM464.999 1167l266 246h41l164 -246h-49l-139 215l-230 -215
h-53z" />
    <glyph glyph-name="Ccaron" unicode="&#x10c;" horiz-adv-x="1525" 
d="M164 633c0 135.333 35.832 265.995 107.499 391.995s170.334 229 296.001 309s260.834 120 405.501 120c48 0 93.833 -3.66699 137.5 -11s82.834 -17.166 117.501 -29.499s67.334 -26.333 98.001 -42s57.334 -32.5 80.001 -50.5s43.167 -35.833 61.5 -53.5
s34 -34.334 47 -50.001s23.667 -29.667 32 -42s14.5 -21.833 18.5 -28.5l6 -10l-35 -17l-8 15c-6.66699 10.667 -16.834 24.834 -30.501 42.501s-30.834 36.834 -51.501 57.501s-46.667 41.5 -78 62.5s-65.5 40 -102.5 57s-81.333 31 -133 42s-106.167 16.5 -163.5 16.5
c-196.667 0 -373.167 -77.167 -529.5 -231.5s-234.5 -337.166 -234.5 -548.499c0 -173.333 56.333 -319.166 169 -437.499s257 -177.5 433 -177.5c61.333 0 122.333 10 183 30s112.5 44.333 155.5 73s82 57.667 117 87s60.5 54.333 76.5 75l27 28l27 -24
c-6.66699 -8 -16.167 -19 -28.5 -33s-39.333 -38.667 -81 -74s-84.334 -66.666 -128.001 -93.999s-98.334 -51.833 -164.001 -73.5s-130.5 -32.5 -194.5 -32.5c-184 0 -335.5 62.833 -454.5 188.5s-178.5 280.5 -178.5 464.5zM1323 1884l-266 -246h-41l-164 246h49l139 -215
l230 215h53z" />
    <glyph glyph-name="ccaron" unicode="&#x10d;" horiz-adv-x="1064" 
d="M655 963c-131.333 0 -247.334 -55.9971 -348.001 -167.997s-151 -236.333 -151 -373c0 -117.333 35.5 -213.666 106.5 -288.999s159.5 -113 265.5 -113c58.667 0 116.667 15.5 174 46.5s100.333 62.167 129 93.5l41 45l27 -23c-4 -5.33301 -9.83301 -12.5 -17.5 -21.5
s-24.334 -25.333 -50.001 -49s-52.167 -44.334 -79.5 -62.001s-61.833 -33.667 -103.5 -48s-83.167 -21.5 -124.5 -21.5c-116 0 -213.5 42.667 -292.5 128s-118.5 190 -118.5 314c0 155.333 56.667 291.166 170 407.499s237.333 174.5 372 174.5
c166.667 0 290.334 -69 371.001 -207l-35 -17c-2.66699 5.33301 -6.33398 12.166 -11.001 20.499s-16.167 22.666 -34.5 42.999s-39.166 38.833 -62.499 55.5s-55.166 31.5 -95.499 44.5s-84.5 19.5 -132.5 19.5zM982.999 1413l-266 -246h-41l-164 246h49l139 -215l230 215
h53z" />
    <glyph glyph-name="Dcaron" unicode="&#x10e;" horiz-adv-x="1495" 
d="M457 1434h358.001c187.333 0 339.666 -58.5 456.999 -175.5s176 -260.833 176 -431.5c0 -236 -88.333 -432.833 -265 -590.5s-386.667 -236.5 -630 -236.5h-399zM813.001 1393l-323.998 0.000976562l-286 -1352h352c233.333 0 433.666 74.667 600.999 224
s251 336.666 251 561.999c0 161.333 -54.333 296 -163 404s-252.334 162 -431.001 162zM1159 1884l-266 -246h-41l-164 246h49l140 -215l229 215h53z" />
    <glyph glyph-name="dcaron" unicode="&#x10f;" horiz-adv-x="1269" 
d="M1028 696l156 737.999h41l-303 -1434h-41l59 287c-4 -8 -10.5 -19 -19.5 -33s-27.833 -38.667 -56.5 -74s-59.334 -66.666 -92.001 -93.999s-74.667 -51.833 -126 -73.5s-103.666 -32.5 -156.999 -32.5c-98 0 -185.167 40.5 -261.5 121.5s-114.5 178.167 -114.5 291.5
c0 164 57.333 306.833 172 428.5s238 182.5 370 182.5c53.333 0 102.833 -10.667 148.5 -32s81.5 -47 107.5 -77s48.667 -60 68 -90s32.333 -55.333 39 -76zM653 962.999c-120 0 -233.168 -56.666 -339.501 -169.999s-159.5 -246 -159.5 -398c0 -104 34 -192.5 102 -265.5
s147.333 -109.5 238 -109.5c118.667 0 231.834 58.167 339.501 174.5s161.5 250.166 161.5 401.499c0 104 -34.5 191.167 -103.5 261.5s-148.5 105.5 -238.5 105.5zM1333 1167l148 267h51l-168 -267h-31z" />
    <glyph glyph-name="Dcroat" unicode="&#x110;" horiz-adv-x="1525" 
d="M487 1434h359.001c187.333 0 339.666 -58.5 456.999 -175.5s176 -260.833 176 -431.5c0 -236 -88.5 -432.833 -265.5 -590.5s-386.833 -236.5 -629.5 -236.5h-400l148 696h-215l8 41h215zM844.001 1393l-323.998 0.000976562l-139 -656h379l-8 -41h-379l-140 -655h353
c233.333 0 433.666 74.667 600.999 224s251 336.666 251 561.999c0 161.333 -54.333 296 -163 404s-252.334 162 -431.001 162z" />
    <glyph glyph-name="dcroat" unicode="&#x111;" horiz-adv-x="1249" 
d="M819 1208l318.001 -0.00292969l47 226h41l-47 -226h163l-8 -41h-164l-247 -1167h-41l59 285l-10 -17c-6.66699 -10.667 -16.834 -25.167 -30.501 -43.5s-29.834 -38.166 -48.501 -59.499s-41 -42.833 -67 -64.5s-53.667 -41.5 -83 -59.5s-62.666 -32.667 -99.999 -44
s-76 -17 -116 -17c-100 0 -187.667 40.5 -263 121.5s-113 178.167 -113 291.5c0 152.667 57.667 285.834 173 399.501s239 170.5 371 170.5c53.333 0 102.5 -10.667 147.5 -32s80.5 -46.666 106.5 -75.999s47.833 -59 65.5 -89s30.167 -56 37.5 -78l10 -31l108 510h-317z
M651.001 921.997c-120 0 -233.499 -52.667 -340.499 -158s-160.5 -229 -160.5 -371c0 -105.333 33.667 -193.833 101 -265.5s146.666 -107.5 237.999 -107.5c118.667 0 231.667 56 339 168s161 237.667 161 377c0 98 -33.833 182 -101.5 252s-146.5 105 -236.5 105z" />
    <glyph glyph-name="Emacron" unicode="&#x112;" horiz-adv-x="1280" 
d="M203 41h911l-8 -41h-952l303 1434h932l-9 -41h-891l-133 -625h727l-8 -41h-727zM1247 1782l-8 -41h-512l8 41h512z" />
    <glyph glyph-name="emacron" unicode="&#x113;" horiz-adv-x="1126" 
d="M1020 471l-863.997 0.000976562c-2.66699 -30 -4 -51.667 -4 -65c0 -106.667 34.667 -197.667 104 -273s154 -113 254 -113c42 0 83.167 6.16699 123.5 18.5s74.166 27.5 101.499 45.5s52 36.167 74 54.5s37.667 33.5 47 45.5l16 19l27 -21
c-4 -5.33301 -9.83301 -12.5 -17.5 -21.5s-24 -25.333 -49 -49s-51.833 -44.334 -80.5 -62.001s-64.834 -33.667 -108.501 -48s-88.834 -21.5 -135.501 -21.5c-106.667 0 -199.167 41.167 -277.5 123.5s-117.5 180.833 -117.5 295.5c0 169.333 56.667 312.5 170 429.5
s238 175.5 374 175.5c104 0 193.5 -37 268.5 -111s112.5 -167.667 112.5 -281c0 -39.333 -4 -79.333 -12 -120zM653.003 963.001c-116 0 -220.333 -44.832 -313 -134.499s-152 -195.167 -178 -316.5h827c6.66699 38 10 71.333 10 100
c0 101.333 -33.833 185.166 -101.5 251.499s-149.167 99.5 -244.5 99.5zM969.003 1311l-8 -41h-512l8 41h512z" />
    <glyph glyph-name="Edotaccent" unicode="&#x116;" horiz-adv-x="1280" 
d="M203 41h911l-8 -41h-952l303 1434h932l-9 -41h-891l-133 -625h727l-8 -41h-727zM915 1757c0 10.667 4.49902 20.833 13.499 30.5s19.833 14.5 32.5 14.5c24.667 0 36.667 -12.333 36 -37c0 -12 -4.66699 -22.5 -14 -31.5s-19.666 -13.5 -30.999 -13.5
c-24.667 0 -37 12.333 -37 37z" />
    <glyph glyph-name="edotaccent" unicode="&#x117;" horiz-adv-x="1126" 
d="M1020 471l-863.997 0.000976562c-2.66699 -30 -4 -51.667 -4 -65c0 -106.667 34.667 -197.667 104 -273s154 -113 254 -113c42 0 83.167 6.16699 123.5 18.5s74.166 27.5 101.499 45.5s52 36.167 74 54.5s37.667 33.5 47 45.5l16 19l27 -21
c-4 -5.33301 -9.83301 -12.5 -17.5 -21.5s-24 -25.333 -49 -49s-51.833 -44.334 -80.5 -62.001s-64.834 -33.667 -108.501 -48s-88.834 -21.5 -135.501 -21.5c-106.667 0 -199.167 41.167 -277.5 123.5s-117.5 180.833 -117.5 295.5c0 169.333 56.667 312.5 170 429.5
s238 175.5 374 175.5c104 0 193.5 -37 268.5 -111s112.5 -167.667 112.5 -281c0 -39.333 -4 -79.333 -12 -120zM653.003 963.001c-116 0 -220.333 -44.832 -313 -134.499s-152 -195.167 -178 -316.5h827c6.66699 38 10 71.333 10 100
c0 101.333 -33.833 185.166 -101.5 251.499s-149.167 99.5 -244.5 99.5zM657.003 1286c0 10.667 4.49902 20.833 13.499 30.5s19.5 14.5 31.5 14.5c24.667 0 37 -12.333 37 -37c0 -12 -4.66699 -22.5 -14 -31.5s-19.666 -13.5 -30.999 -13.5c-24.667 0 -37 12.333 -37 37z
" />
    <glyph glyph-name="Eogonek" unicode="&#x118;" horiz-adv-x="1280" 
d="M1065 0h-911l303 1434h932l-9 -41h-891l-133 -625h727l-8 -41h-727l-145 -686h911l-8 -41c-5.33301 -4 -12.5 -9.5 -21.5 -16.5s-25.167 -21.333 -48.5 -43s-43.833 -43.167 -61.5 -64.5s-33.667 -46.333 -48 -75s-21.5 -55.334 -21.5 -80.001
c0 -53.333 34.333 -79.666 103 -78.999c22 0 43.5 2.33301 64.5 7s36.833 9.66699 47.5 15l17 8l-9 -41c-38 -20.667 -81 -30.667 -129 -30c-90 0 -135 38 -135 114c0 44 17.167 89.5 51.5 136.5s66.833 83.5 97.5 109.5s48 39 52 39z" />
    <glyph glyph-name="eogonek" unicode="&#x119;" horiz-adv-x="1126" 
d="M1020 471l-863.996 -0.000976562c-2.66699 -30 -4 -51.667 -4 -65c0 -106.667 34.667 -197.667 104 -273s154 -113 254 -113c42 0 83.167 6.16699 123.5 18.5s74.166 27.5 101.499 45.5s52 36.167 74 54.5s37.667 33.5 47 45.5l16 19l27 -21
c-4 -5.33301 -9.83301 -12.5 -17.5 -21.5s-24 -25.333 -49 -49s-51.833 -44.334 -80.5 -62.001s-64.834 -33.667 -108.501 -48s-88.834 -21.5 -135.501 -21.5h-2c-40.667 -31.333 -79.834 -70.666 -117.501 -117.999s-56.5 -94.333 -56.5 -141
c0 -53.333 34 -79.666 102 -78.999c22 0 43.5 2.33301 64.5 7s37.167 9.66699 48.5 15l16 8l-8 -41c-38 -20.667 -81 -30.667 -129 -30c-44 0 -77.5 10.167 -100.5 30.5s-34.5 48.833 -34.5 85.5c0 86 58.667 174.333 176 265c-98 10.667 -181.5 56 -250.5 136
s-103.5 173.667 -103.5 281c0 169.333 56.667 312.5 170 429.5s238 175.5 374 175.5c104 0 193.5 -37 268.5 -111s112.5 -167.667 112.5 -281c0 -39.333 -4 -79.333 -12 -120zM653.004 962.999c-116 0 -220.333 -44.832 -313 -134.499s-152 -195.167 -178 -316.5h827
c6.66699 38 10 71.333 10 100c0 101.333 -33.833 185.166 -101.5 251.499s-149.167 99.5 -244.5 99.5z" />
    <glyph glyph-name="Ecaron" unicode="&#x11a;" horiz-adv-x="1280" 
d="M203 41h911l-8 -41h-952l303 1434h932l-9 -41h-891l-133 -625h727l-8 -41h-727zM1217 1884l-267 -246h-41l-164 246h50l139 -215l229 215h54z" />
    <glyph glyph-name="ecaron" unicode="&#x11b;" horiz-adv-x="1126" 
d="M1020 471l-863.997 0.000976562c-2.66699 -30 -4 -51.667 -4 -65c0 -106.667 34.667 -197.667 104 -273s154 -113 254 -113c42 0 83.167 6.16699 123.5 18.5s74.166 27.5 101.499 45.5s52 36.167 74 54.5s37.667 33.5 47 45.5l16 19l27 -21
c-4 -5.33301 -9.83301 -12.5 -17.5 -21.5s-24 -25.333 -49 -49s-51.833 -44.334 -80.5 -62.001s-64.834 -33.667 -108.501 -48s-88.834 -21.5 -135.501 -21.5c-106.667 0 -199.167 41.167 -277.5 123.5s-117.5 180.833 -117.5 295.5c0 169.333 56.667 312.5 170 429.5
s238 175.5 374 175.5c104 0 193.5 -37 268.5 -111s112.5 -167.667 112.5 -281c0 -39.333 -4 -79.333 -12 -120zM653.003 963.001c-116 0 -220.333 -44.832 -313 -134.499s-152 -195.167 -178 -316.5h827c6.66699 38 10 71.333 10 100
c0 101.333 -33.833 185.166 -101.5 251.499s-149.167 99.5 -244.5 99.5zM961.003 1413l-267 -246h-41l-164 246h50l139 -215l229 215h54z" />
    <glyph glyph-name="Gbreve" unicode="&#x11e;" horiz-adv-x="1597" 
d="M1571 1137l-35.002 -20.999c-4 8 -10.5 18.5 -19.5 31.5s-29.167 36.667 -60.5 71s-65.5 64.833 -102.5 91.5s-86.5 50.5 -148.5 71.5s-127 31.5 -195 31.5c-136.667 0 -266.5 -35.167 -389.5 -105.5s-222.667 -168.666 -299 -294.999s-114.5 -263.166 -114.5 -410.499
c0 -158.667 55.333 -295.334 166 -410.001s245 -172 403 -172c68 0 135.167 10.333 201.5 31s121.666 45.334 165.999 74.001s84.333 57.667 120 87s61.5 54.333 77.5 75l25 30l74 338h-420l8 41h461l-84 -389c-6.66699 -9.33301 -16.167 -21.166 -28.5 -35.499
s-39.666 -40.333 -81.999 -78s-86.333 -70.834 -132 -99.501s-104 -54.834 -175 -78.501s-142.833 -35.5 -215.5 -35.5c-168 0 -311.333 61.333 -430 184s-178 268 -178 436c0 116 23.833 227.667 71.5 335s110.834 198.5 189.501 273.5s169.5 134.667 272.5 179
s208.5 66.5 316.5 66.5c72.667 0 141.334 -10.833 206.001 -32.5s117.5 -48.334 158.5 -80.001s76.833 -62.834 107.5 -93.501s52.667 -57 66 -79zM1034 1679c61.333 0 113.501 18.833 156.501 56.5s71.5 87.167 85.5 148.5h41
c-15.333 -72.667 -48.5 -131.834 -99.5 -177.501s-112.167 -68.5 -183.5 -68.5c-72.667 0 -129.334 23.333 -170.001 70s-53.667 105.334 -39 176.001h41c-13.333 -61.333 -4 -110.833 28 -148.5s78.667 -56.5 140 -56.5z" />
    <glyph glyph-name="gbreve" unicode="&#x11f;" 
d="M477 61c117.333 0 230.333 54.332 339 162.999s163 234.667 163 378c0 104 -31.833 190.167 -95.5 258.5s-141.167 102.5 -232.5 102.5c-118.667 0 -230.5 -53.333 -335.5 -160s-157.5 -233 -157.5 -379c0 -101.333 31 -187.166 93 -257.499s137.333 -105.5 226 -105.5z
M870 50.999l56 261.998c-4 -8 -10.5 -18.5 -19.5 -31.5s-27.833 -36.167 -56.5 -69.5s-59.334 -63 -92.001 -89s-74.667 -49.667 -126 -71s-103.666 -32 -156.999 -32c-96.667 0 -180.5 39.333 -251.5 118s-106.5 173.334 -106.5 284.001
c0 157.333 56.667 293.666 170 408.999s235.333 173 366 173c53.333 0 102.166 -10.333 146.499 -31s78.833 -45.667 103.5 -75s45.5 -58.666 62.5 -87.999s28.167 -54.333 33.5 -75l11 -30l59 278h41l-199 -932c-31.333 -143.333 -94 -259.333 -188 -348
s-202.667 -133 -326 -133c-46.667 0 -90.667 7.16699 -132 21.5s-75.666 31.333 -102.999 51s-51.333 39.5 -72 59.5s-35.667 37.333 -45 52l-12 21l35 20c2.66699 -5.33301 6.66699 -12.166 12 -20.499s18.333 -23 39 -44s42.5 -39.667 65.5 -56s53.667 -31 92 -44
s78.5 -19.5 120.5 -19.5c112 0 212 40.167 300 120.5s145.667 186.833 173 319.5zM702.5 1208c61.667 0 114 18.833 157 56.5s71.167 87.167 84.5 148.5h41c-15.333 -72.667 -48.5 -131.834 -99.5 -177.501s-112.167 -68.5 -183.5 -68.5
c-72.667 0 -129.334 23.333 -170.001 70s-53.334 105.334 -38.001 176.001h41c-13.333 -61.333 -4.16602 -110.833 27.501 -148.5s78.334 -56.5 140.001 -56.5z" />
    <glyph glyph-name="uni0122" unicode="&#x122;" horiz-adv-x="1597" 
d="M1571 1137l-35.002 -20.999c-4 8 -10.5 18.5 -19.5 31.5s-29.167 36.667 -60.5 71s-65.5 64.833 -102.5 91.5s-86.5 50.5 -148.5 71.5s-127 31.5 -195 31.5c-136.667 0 -266.5 -35.167 -389.5 -105.5s-222.667 -168.666 -299 -294.999s-114.5 -263.166 -114.5 -410.499
c0 -158.667 55.333 -295.334 166 -410.001s245 -172 403 -172c68 0 135.167 10.333 201.5 31s121.666 45.334 165.999 74.001s84.333 57.667 120 87s61.5 54.333 77.5 75l25 30l74 338h-420l8 41h461l-84 -389c-6.66699 -9.33301 -16.167 -21.166 -28.5 -35.499
s-39.666 -40.333 -81.999 -78s-86.333 -70.834 -132 -99.501s-104 -54.834 -175 -78.501s-142.833 -35.5 -215.5 -35.5c-168 0 -311.333 61.333 -430 184s-178 268 -178 436c0 116 23.833 227.667 71.5 335s110.834 198.5 189.501 273.5s169.5 134.667 272.5 179
s208.5 66.5 316.5 66.5c72.667 0 141.334 -10.833 206.001 -32.5s117.5 -48.334 158.5 -80.001s76.833 -62.834 107.5 -93.501s52.667 -57 66 -79zM574.998 -429.999l146 266h51l-168 -266h-29z" />
    <glyph glyph-name="uni0123" unicode="&#x123;" 
d="M862 1413l-147 -266h-51l167 266h31zM477 61c117.333 0 230.333 54.332 339 162.999s163 234.667 163 378c0 104 -31.833 190.167 -95.5 258.5s-141.167 102.5 -232.5 102.5c-118.667 0 -230.5 -53.333 -335.5 -160s-157.5 -233 -157.5 -379
c0 -101.333 31 -187.166 93 -257.499s137.333 -105.5 226 -105.5zM870 50.999l56 261.998c-4 -8 -10.5 -18.5 -19.5 -31.5s-27.833 -36.167 -56.5 -69.5s-59.334 -63 -92.001 -89s-74.667 -49.667 -126 -71s-103.666 -32 -156.999 -32c-96.667 0 -180.5 39.333 -251.5 118
s-106.5 173.334 -106.5 284.001c0 157.333 56.667 293.666 170 408.999s235.333 173 366 173c53.333 0 102.166 -10.333 146.499 -31s78.833 -45.667 103.5 -75s45.5 -58.666 62.5 -87.999s28.167 -54.333 33.5 -75l11 -30l59 278h41l-199 -932
c-31.333 -143.333 -94 -259.333 -188 -348s-202.667 -133 -326 -133c-46.667 0 -90.667 7.16699 -132 21.5s-75.666 31.333 -102.999 51s-51.333 39.5 -72 59.5s-35.667 37.333 -45 52l-12 21l35 20c2.66699 -5.33301 6.66699 -12.166 12 -20.499s18.333 -23 39 -44
s42.5 -39.667 65.5 -56s53.667 -31 92 -44s78.5 -19.5 120.5 -19.5c112 0 212 40.167 300 120.5s145.667 186.833 173 319.5z" />
    <glyph glyph-name="Imacron" unicode="&#x12a;" horiz-adv-x="532" 
d="M154 0l303 1434h41l-303 -1434h-41zM795 1782l-9 -41h-512l9 41h512z" />
    <glyph glyph-name="imacron" unicode="&#x12b;" horiz-adv-x="450" 
d="M352 983l-209 -983h-41l209 983h41zM668 1311l-9 -41h-512l9 41h512z" />
    <glyph glyph-name="Iogonek" unicode="&#x12e;" horiz-adv-x="532" 
d="M154 0l303 1434h41l-303 -1434c-5.33301 -4 -12.5 -9.5 -21.5 -16.5s-25.167 -21.333 -48.5 -43s-43.833 -43.167 -61.5 -64.5s-33.667 -46.333 -48 -75s-21.5 -55.334 -21.5 -80.001c0 -53.333 34 -79.666 102 -78.999c22 0 43.667 2.33301 65 7s37.333 9.66699 48 15
l16 8l-8 -41c-38 -20.667 -81 -30.667 -129 -30c-90 0 -135 38 -135 114c0 44 17 89.5 51 136.5s66.5 83.5 97.5 109.5s48.5 39 52.5 39z" />
    <glyph glyph-name="iogonek" unicode="&#x12f;" horiz-adv-x="450" 
d="M102 0l209 983h41l-209 -983c-5.33301 -4 -12.333 -9.5 -21 -16.5s-24.667 -21.333 -48 -43s-43.833 -43.167 -61.5 -64.5s-33.667 -46.333 -48 -75s-21.5 -55.334 -21.5 -80.001c0 -53.333 34 -79.666 102 -78.999c22 0 43.5 2.33301 64.5 7s37.167 9.66699 48.5 15
l16 8l-8 -41c-38 -20.667 -81 -30.667 -129 -30c-44 0 -77.5 10.167 -100.5 30.5s-34.5 48.833 -34.5 85.5c0 44 16.667 89.5 50 136.5s67 83.5 101 109.5zM369 1348c0 10.667 4.33301 20.833 13 30.5s19.334 14.5 32.001 14.5c24.667 0 37 -12.333 37 -37
c0 -12 -4.83301 -22.5 -14.5 -31.5s-19.834 -13.5 -30.501 -13.5c-24.667 0 -37 12.333 -37 37z" />
    <glyph glyph-name="Idotaccent" unicode="&#x130;" horiz-adv-x="532" 
d="M154 0l303 1434h41l-303 -1434h-41zM489 1757c0 10.667 4.49902 20.833 13.499 30.5s19.833 14.5 32.5 14.5c24.667 0 36.667 -12.333 36 -37c0 -12 -4.66699 -22.5 -14 -31.5s-19.666 -13.5 -30.999 -13.5c-24.667 0 -37 12.333 -37 37z" />
    <glyph glyph-name="dotlessi" unicode="&#x131;" horiz-adv-x="450" 
d="M352 983l-209 -983h-41l209 983h41z" />
    <glyph glyph-name="uni0136" unicode="&#x136;" horiz-adv-x="1310" 
d="M293 467l1083 967h54l-670 -605l418 -829h-50l-397 799h-10l-440 -389l-86 -410h-41l303 1434h41zM422 -430l145 266h51l-167 -266h-29z" />
    <glyph glyph-name="uni0137" unicode="&#x137;" horiz-adv-x="1013" 
d="M197 256l-54 -256h-41l304 1434h40l-239 -1125l760 674h51l-445 -399l293 -584h-45l-274 553h-10zM258 -430l145 266h52l-168 -266h-29z" />
    <glyph glyph-name="Lacute" unicode="&#x139;" horiz-adv-x="1126" 
d="M993 0h-839l303 1434h41l-295 -1393h798zM504 1638l205 246h53l-215 -246h-43z" />
    <glyph glyph-name="lacute" unicode="&#x13a;" horiz-adv-x="450" 
d="M446 1434l-303 -1434h-41l304 1434h40zM453 1638l204 246h54l-215 -246h-43z" />
    <glyph glyph-name="uni013B" unicode="&#x13b;" horiz-adv-x="1126" 
d="M993 0h-839l303 1434h41l-295 -1393h798zM381 -430l145 266h52l-168 -266h-29z" />
    <glyph glyph-name="uni013C" unicode="&#x13c;" horiz-adv-x="430" 
d="M416 1434l-303 -1434h-41l303 1434h41zM-106 -430l145 266h51l-168 -266h-28z" />
    <glyph glyph-name="Lcaron" unicode="&#x13d;" horiz-adv-x="1126" 
d="M993 0h-839l303 1434h41l-295 -1393h798zM719 1167l147 267h52l-168 -267h-31z" />
    <glyph glyph-name="lcaron" unicode="&#x13e;" horiz-adv-x="491" 
d="M446 1434l-303 -1434h-41l304 1434h40zM555 1167l147 267h52l-168 -267h-31z" />
    <glyph glyph-name="Lslash" unicode="&#x141;" horiz-adv-x="1187" 
d="M1055 0h-840l141 666l-278 -154l-15 33l302 164l153 725h41l-149 -705l393 215l14 -33l-416 -225l-137 -645h799z" />
    <glyph glyph-name="lslash" unicode="&#x142;" horiz-adv-x="655" 
d="M549 1434l-133 -623l301 164l14 -33l-323 -174l-162 -768h-41l157 748l-301 -164l-14 32l324 172l137 646h41z" />
    <glyph glyph-name="Nacute" unicode="&#x143;" horiz-adv-x="1587" 
d="M1511 1434h41l-303 -1434h-28l-740 1352l-286 -1352h-41l303 1434h28l740 -1352zM995 1638l205 246h53l-215 -246h-43z" />
    <glyph glyph-name="nacute" unicode="&#x144;" horiz-adv-x="1187" 
d="M352 983l-53.001 -243.998c2.66699 6.66699 7.5 16.167 14.5 28.5s22.333 33.666 46 63.999s49.834 57 78.501 80s67 44.167 115 63.5s98.667 29 152 29c94 0 172.333 -30.5 235 -91.5s94 -139.167 94 -234.5c0 -26 -3.33301 -57.333 -10 -94l-123 -584h-41l123 584
c5.33301 26 8 54 8 84c0 87.333 -28 158.333 -84 213s-127 82 -213 82c-102.667 0 -194.5 -38.333 -275.5 -115s-133.833 -174.334 -158.5 -293.001l-117 -555h-41l209 983h41zM718.999 1167l205 246h53l-215 -246h-43z" />
    <glyph glyph-name="uni0145" unicode="&#x145;" horiz-adv-x="1587" 
d="M1511 1434h41l-303 -1434h-28l-740 1352l-286 -1352h-41l303 1434h28l740 -1352zM514 -430l145 266h52l-168 -266h-29z" />
    <glyph glyph-name="uni0146" unicode="&#x146;" horiz-adv-x="1187" 
d="M352 983l-53.001 -243.998c2.66699 6.66699 7.5 16.167 14.5 28.5s22.333 33.666 46 63.999s49.834 57 78.501 80s67 44.167 115 63.5s98.667 29 152 29c94 0 172.333 -30.5 235 -91.5s94 -139.167 94 -234.5c0 -26 -3.33301 -57.333 -10 -94l-123 -584h-41l123 584
c5.33301 26 8 54 8 84c0 87.333 -28 158.333 -84 213s-127 82 -213 82c-102.667 0 -194.5 -38.333 -275.5 -115s-133.833 -174.334 -158.5 -293.001l-117 -555h-41l209 983h41zM329.999 -429.998l145 266h51l-168 -266h-28z" />
    <glyph glyph-name="Ncaron" unicode="&#x147;" horiz-adv-x="1587" 
d="M1511 1434h41l-303 -1434h-28l-740 1352l-286 -1352h-41l303 1434h28l740 -1352zM1317 1884l-266 -246h-41l-164 246h49l139 -215l230 215h53z" />
    <glyph glyph-name="ncaron" unicode="&#x148;" horiz-adv-x="1187" 
d="M352 983l-53.001 -243.998c2.66699 6.66699 7.5 16.167 14.5 28.5s22.333 33.666 46 63.999s49.834 57 78.501 80s67 44.167 115 63.5s98.667 29 152 29c94 0 172.333 -30.5 235 -91.5s94 -139.167 94 -234.5c0 -26 -3.33301 -57.333 -10 -94l-123 -584h-41l123 584
c5.33301 26 8 54 8 84c0 87.333 -28 158.333 -84 213s-127 82 -213 82c-102.667 0 -194.5 -38.333 -275.5 -115s-133.833 -174.334 -158.5 -293.001l-117 -555h-41l209 983h41zM1018 1413l-266 -246h-41l-164 246h49l139 -215l230 215h53z" />
    <glyph glyph-name="Omacron" unicode="&#x14c;" horiz-adv-x="1679" 
d="M819 20c199.333 0 377.832 79.6689 535.499 239.002s236.5 340.666 236.5 543.999c0 172 -58.333 316.667 -175 434s-263 176 -439 176c-94 0 -187.833 -20.833 -281.5 -62.5s-176.667 -97 -249 -166s-130.666 -152.333 -174.999 -250s-66.5 -198.834 -66.5 -303.501
c0 -172 58.333 -316.833 175 -434.5s263 -176.5 439 -176.5zM1632 803.002c0 -135.333 -36.833 -266.169 -110.5 -392.502s-174.334 -229.666 -302.001 -309.999s-263.167 -120.5 -406.5 -120.5c-186 0 -340.667 62.667 -464 188s-185 279 -185 461
c0 146 39.833 283.167 119.5 411.5s182.334 229.333 308.001 303s256.167 110.5 391.5 110.5c186 0 340.667 -63.167 464 -189.5s185 -280.166 185 -461.499zM1358 1782l-8 -41h-512l8 41h512z" />
    <glyph glyph-name="omacron" unicode="&#x14d;" horiz-adv-x="1187" 
d="M537 20c131.333 0 247.667 55 349 165s152 232.667 152 368c0 116 -36.833 213.333 -110.5 292s-163.834 118 -270.501 118c-124 0 -238.5 -53 -343.5 -159s-157.5 -231.333 -157.5 -376c0 -116 36.833 -213 110.5 -291s163.834 -117 270.501 -117zM1079 555
c0 -142 -55.167 -273.333 -165.5 -394s-239.5 -181 -387.5 -181c-116 0 -213.833 43 -293.5 129s-119.5 191 -119.5 315c0 157.333 58 293.333 174 408s242.333 172 379 172c116 0 213.833 -43.5 293.5 -130.5s119.5 -193.167 119.5 -318.5zM1008 1311l-9 -41h-512l9 41h512
z" />
    <glyph glyph-name="Ohungarumlaut" unicode="&#x150;" horiz-adv-x="1679" 
d="M819 20c199.333 0 377.832 79.6689 535.499 239.002s236.5 340.666 236.5 543.999c0 172 -58.333 316.667 -175 434s-263 176 -439 176c-94 0 -187.833 -20.833 -281.5 -62.5s-176.667 -97 -249 -166s-130.666 -152.333 -174.999 -250s-66.5 -198.834 -66.5 -303.501
c0 -172 58.333 -316.833 175 -434.5s263 -176.5 439 -176.5zM1632 803.002c0 -135.333 -36.833 -266.169 -110.5 -392.502s-174.334 -229.666 -302.001 -309.999s-263.167 -120.5 -406.5 -120.5c-186 0 -340.667 62.667 -464 188s-185 279 -185 461
c0 146 39.833 283.167 119.5 411.5s182.334 229.333 308.001 303s256.167 110.5 391.5 110.5c186 0 340.667 -63.167 464 -189.5s185 -280.166 185 -461.499zM892.999 1638l205 246h53l-215 -246h-43zM1159 1638l205 246h53l-215 -246h-43z" />
    <glyph glyph-name="ohungarumlaut" unicode="&#x151;" horiz-adv-x="1187" 
d="M537 20c131.333 0 247.667 55 349 165s152 232.667 152 368c0 116 -36.833 213.333 -110.5 292s-163.834 118 -270.501 118c-124 0 -238.5 -53 -343.5 -159s-157.5 -231.333 -157.5 -376c0 -116 36.833 -213 110.5 -291s163.834 -117 270.501 -117zM1079 555
c0 -142 -55.167 -273.333 -165.5 -394s-239.5 -181 -387.5 -181c-116 0 -213.833 43 -293.5 129s-119.5 191 -119.5 315c0 157.333 58 293.333 174 408s242.333 172 379 172c116 0 213.833 -43.5 293.5 -130.5s119.5 -193.167 119.5 -318.5zM575.001 1167l205 246h54
l-216 -246h-43zM842.001 1167l205 246h53l-215 -246h-43z" />
    <glyph glyph-name="OE" unicode="&#x152;" horiz-adv-x="1996" 
d="M1032 41h798.999l-8 -41h-1004c-188.667 0 -345 58 -469 174s-186 256.667 -186 422c0 241.333 84.333 441.333 253 600s376.334 238 623.001 238h1065l-8 -41h-778l-133 -625h614l-8 -41h-614zM820.999 41l170.001 -0.000976562l287 1352h-240
c-234.667 0 -431.834 -75.5 -591.501 -226.5s-239.5 -341.167 -239.5 -570.5c0 -157.333 57.667 -289.166 173 -395.499s262.333 -159.5 441 -159.5z" />
    <glyph glyph-name="oe" unicode="&#x153;" horiz-adv-x="1904" 
d="M1485 1004c90 0 167.834 -37.001 233.501 -111.001s98.5 -167.667 98.5 -281c0 -39.333 -4.33301 -79.333 -13 -120l-6 -21h-803c-4 -28.667 -6 -56 -6 -82c0 -105.333 32.167 -193.166 96.5 -263.499s140.833 -105.5 229.5 -105.5c64 0 125.333 15.5 184 46.5
s101.667 62.167 129 93.5l41 45l29 -21c-4 -5.33301 -9.83301 -12.833 -17.5 -22.5s-24.5 -26 -50.5 -49s-53 -43.333 -81 -61s-63.833 -34 -107.5 -49s-87.167 -22.5 -130.5 -22.5c-86 0 -163.5 32.333 -232.5 97s-111.167 144.667 -126.5 240
c-49.333 -101.333 -118.333 -182.833 -207 -244.5s-178.667 -92.5 -270 -92.5c-98 0 -183.167 39.5 -255.5 118.5s-108.5 175.167 -108.5 288.5c0 172 57 317.833 171 437.5s237.667 179.5 371 179.5c86 0 163.167 -32.167 231.5 -96.5s110.166 -144.166 125.499 -239.499
c49.333 101.333 118 182.666 206 243.999s177.667 92 269 92zM479.001 19.999c138 0 255.167 59.833 351.5 179.5s144.5 251.167 144.5 394.5c0 105.333 -32.167 193.166 -96.5 263.499s-140.833 105.5 -229.5 105.5c-138 0 -255 -59.833 -351 -179.5
s-144 -251.167 -144 -394.5c0 -105.333 32 -193.166 96 -263.499s140.333 -105.5 229 -105.5zM1481 962.999c-117.333 0 -220.167 -44.499 -308.5 -133.499s-145.5 -194.833 -171.5 -317.5h766c5.33301 28.667 8.33301 60 9 94c0 105.333 -28.333 191.166 -85 257.499
s-126.667 99.5 -210 99.5z" />
    <glyph glyph-name="Racute" unicode="&#x154;" horiz-adv-x="1341" 
d="M457 1434h491.001c109.333 0 199.166 -32.5 269.499 -97.5s105.5 -143.833 105.5 -236.5c0 -195.333 -93 -333.333 -279 -414c-31.333 -13.333 -81 -28.333 -149 -45l229 -641h-45l-223 635h-528l-133 -635h-41zM940.001 1393h-451l-151 -717h475
c131.333 0 242.333 39.5 333 118.5s136 178.833 136 299.5c0 83.333 -32 154 -96 212s-146 87 -246 87zM831.001 1638l205 246h54l-216 -246h-43z" />
    <glyph glyph-name="racute" unicode="&#x155;" horiz-adv-x="696" 
d="M756 963h-40.999c-104 0 -199.333 -37.667 -286 -113s-142.334 -171 -167.001 -287l-119 -563h-41l209 983h41l-53 -246c4 6.66699 9.83301 16.167 17.5 28.5s24.5 34 50.5 65s54 58 84 81s69.833 44.167 119.5 63.5s101.167 29 154.5 29h41zM555.001 1167l205 246h53
l-215 -246h-43z" />
    <glyph glyph-name="uni0156" unicode="&#x156;" horiz-adv-x="1341" 
d="M457 1434h491.001c109.333 0 199.166 -32.5 269.499 -97.5s105.5 -143.833 105.5 -236.5c0 -195.333 -93 -333.333 -279 -414c-31.333 -13.333 -81 -28.333 -149 -45l229 -641h-45l-223 635h-528l-133 -635h-41zM940.001 1393h-451l-151 -717h475
c131.333 0 242.333 39.5 333 118.5s136 178.833 136 299.5c0 83.333 -32 154 -96 212s-146 87 -246 87zM401.001 -430l146 266h51l-168 -266h-29z" />
    <glyph glyph-name="uni0157" unicode="&#x157;" horiz-adv-x="696" 
d="M756 963h-40.999c-104 0 -199.333 -37.667 -286 -113s-142.334 -171 -167.001 -287l-119 -563h-41l209 983h41l-53 -246c4 6.66699 9.83301 16.167 17.5 28.5s24.5 34 50.5 65s54 58 84 81s69.833 44.167 119.5 63.5s101.167 29 154.5 29h41zM-69.999 -430l146 266h51
l-168 -266h-29z" />
    <glyph glyph-name="Rcaron" unicode="&#x158;" horiz-adv-x="1341" 
d="M457 1434h491.001c109.333 0 199.166 -32.5 269.499 -97.5s105.5 -143.833 105.5 -236.5c0 -195.333 -93 -333.333 -279 -414c-31.333 -13.333 -81 -28.333 -149 -45l229 -641h-45l-223 635h-528l-133 -635h-41zM940.001 1393h-451l-151 -717h475
c131.333 0 242.333 39.5 333 118.5s136 178.833 136 299.5c0 83.333 -32 154 -96 212s-146 87 -246 87zM1139 1884l-267 -246h-41l-163 246h49l139 -215l229 215h54z" />
    <glyph glyph-name="rcaron" unicode="&#x159;" horiz-adv-x="696" 
d="M756 963h-40.999c-104 0 -199.333 -37.667 -286 -113s-142.334 -171 -167.001 -287l-119 -563h-41l209 983h41l-53 -246c4 6.66699 9.83301 16.167 17.5 28.5s24.5 34 50.5 65s54 58 84 81s69.833 44.167 119.5 63.5s101.167 29 154.5 29h41zM842.001 1413l-267 -246h-40
l-164 246h49l139 -215l229 215h54z" />
    <glyph glyph-name="Sacute" unicode="&#x15a;" horiz-adv-x="1116" 
d="M512 20c109.333 0 209.335 35.1699 300.002 105.503s136 160.166 136 269.499c0 62.667 -23.5 117.667 -70.5 165s-104 86.333 -171 117s-134.333 61.334 -202 92.001s-125 70.667 -172 120s-70.5 106.666 -70.5 171.999c0 105.333 44.667 197.166 134 275.499
s199.666 117.5 330.999 117.5c56 0 109 -6.16699 159 -18.5s90.333 -27 121 -44s57.167 -34 79.5 -51s38.5 -31.833 48.5 -44.5l14 -18l-35 -27c-2.66699 4 -7 9.83301 -13 17.5s-20.667 20.667 -44 39s-48.666 34.666 -75.999 48.999s-63.833 27.333 -109.5 39
s-94.5 17.5 -146.5 17.5c-117.333 0 -216.666 -34.167 -297.999 -102.5s-122 -148.833 -122 -241.5c0 -61.333 23.5 -114.5 70.5 -159.5s104 -82.5 171 -112.5s134 -60.833 201 -92.5s124 -72.667 171 -123s70.5 -109.833 70.5 -178.5
c0 -113.333 -46.333 -212.166 -139 -296.499s-207.334 -126.5 -344.001 -126.5c-210 0 -362.333 68.667 -457 206l39 27l6 -10c4 -6.66699 11.167 -15.834 21.5 -27.501s22.666 -24 36.999 -37s33.166 -26.667 56.499 -41s49 -27 77 -38s61.667 -20.333 101 -28
s81 -11.5 125 -11.5zM750.002 1638l204 246h54l-215 -246h-43z" />
    <glyph glyph-name="sacute" unicode="&#x15b;" horiz-adv-x="890" 
d="M827 860l-35.9971 -30.998c-6.66699 9.33301 -17.334 21.666 -32.001 36.999s-45.167 35.333 -91.5 60s-95.5 37 -147.5 37c-83.333 0 -151.5 -22 -204.5 -66s-79.5 -98 -79.5 -162c0 -39.333 16.667 -74.333 50 -105s74.166 -56.334 122.499 -77.001
s96.833 -42.167 145.5 -64.5s89.667 -51 123 -86s50 -75.5 50 -121.5c0 -87.333 -34.833 -159.333 -104.5 -216s-159.834 -85 -270.501 -85c-39.333 0 -77.833 5.33301 -115.5 16s-68.334 24.167 -92.001 40.5s-44.834 32.833 -63.501 49.5s-32 30.334 -40 41.001l-12 16
l39 31l11 -16.5c4.66699 -7 15.834 -19.333 33.501 -37s36.834 -33.334 57.501 -47.001s47.334 -26 80.001 -37s67.334 -16.5 104.001 -16.5c98 0 177.5 23.667 238.5 71s91.5 108.333 91.5 183c0 40.667 -16.667 76.834 -50 108.501s-74.333 58.167 -123 79.5
s-97.167 43.166 -145.5 65.499s-89.166 50.666 -122.499 84.999s-50 73.833 -50 118.5c0 76.667 30.667 141.334 92 194.001s139.666 79 234.999 79c57.333 0 111.666 -12 162.999 -36s88.666 -47.667 111.999 -71zM522.003 1167l205 246h53l-215 -246h-43z" />
    <glyph glyph-name="Scedilla" unicode="&#x15e;" horiz-adv-x="1116" 
d="M512 20c109.333 0 209.337 35.1729 300.004 105.506s136 160.166 136 269.499c0 62.667 -23.5 117.667 -70.5 165s-104 86.333 -171 117s-134.333 61.334 -202 92.001s-125 70.667 -172 120s-70.5 106.666 -70.5 171.999c0 105.333 44.667 197.166 134 275.499
s199.666 117.5 330.999 117.5c56 0 109 -6.16699 159 -18.5s90.333 -27 121 -44s57.167 -34 79.5 -51s38.5 -31.833 48.5 -44.5l14 -18l-35 -27c-2.66699 4 -7 9.83301 -13 17.5s-20.667 20.667 -44 39s-48.666 34.666 -75.999 48.999s-63.833 27.333 -109.5 39
s-94.5 17.5 -146.5 17.5c-117.333 0 -216.666 -34.167 -297.999 -102.5s-122 -148.833 -122 -241.5c0 -61.333 23.5 -114.5 70.5 -159.5s104 -82.5 171 -112.5s134 -60.833 201 -92.5s124 -72.667 171 -123s70.5 -109.833 70.5 -178.5
c0 -113.333 -46.333 -212.166 -139 -296.499s-207.334 -126.5 -344.001 -126.5c-18 0 -31 0.666992 -39 2l-74 -103l8 2c5.33301 1.33301 13.166 2.66602 23.499 3.99902s21.166 2 32.499 2c34 0 61.167 -11.5 81.5 -34.5s30.5 -51.5 30.5 -85.5
c0 -48 -19.333 -89.5 -58 -124.5s-86 -52.5 -142 -52.5c-24.667 0 -48.667 4.16699 -72 12.5s-40.333 16.5 -51 24.5l-17 15l25 30c30 -27.333 68.833 -41 116.5 -41s86.167 13 115.5 39s44 59 44 99c0 26 -8.16699 47.167 -24.5 63.5s-38.833 24.5 -67.5 24.5
c-12 0 -24.5 -1.83301 -37.5 -5.5s-22.833 -7.5 -29.5 -11.5l-11 -4l-16 27l86 121c-39.333 2.66699 -76.5 8.66699 -111.5 18s-65.167 20.166 -90.5 32.499s-48.5 25.666 -69.5 39.999s-38 28 -51 41s-24 25 -33 36s-15.5 19.167 -19.5 24.5l-6 10l39 27l6 -10
c4 -6.66699 11.167 -15.834 21.5 -27.501s22.666 -24 36.999 -37s33.166 -26.667 56.499 -41s49 -27 77 -38s61.667 -20.333 101 -28s81 -11.5 125 -11.5z" />
    <glyph glyph-name="scedilla" unicode="&#x15f;" horiz-adv-x="890" 
d="M827 860l-36 -30.9951c-6.66699 9.33301 -17.334 21.666 -32.001 36.999s-45.167 35.333 -91.5 60s-95.5 37 -147.5 37c-83.333 0 -151.5 -22 -204.5 -66s-79.5 -98 -79.5 -162c0 -39.333 16.667 -74.333 50 -105s74.166 -56.334 122.499 -77.001
s96.833 -42.167 145.5 -64.5s89.667 -51 123 -86s50 -75.5 50 -121.5c0 -87.333 -34.833 -159.333 -104.5 -216s-159.834 -85 -270.501 -85h-8l-74 -101l9 2c5.33301 1.33301 13 2.66602 23 3.99902s20.667 2 32 2c34 0 61.167 -11.5 81.5 -34.5s30.5 -51.5 30.5 -85.5
c0 -48 -19.333 -89.5 -58 -124.5s-86 -52.5 -142 -52.5c-24.667 0 -48.667 4.16699 -72 12.5s-40.333 16.5 -51 24.5l-17 15l25 30c30 -27.333 68.833 -41 116.5 -41s86.334 13 116.001 39s44.5 59 44.5 99c0 26 -8.33301 47.167 -25 63.5s-39.334 24.5 -68.001 24.5
c-12 0 -24.5 -1.83301 -37.5 -5.5s-22.833 -7.5 -29.5 -11.5l-10 -4l-17 27l86 119c-54.667 5.33301 -105.167 21.666 -151.5 48.999s-79.166 52.333 -98.499 75l-28 37l39 31l11 -16.5c4.66699 -7 15.834 -19.333 33.501 -37s36.834 -33.334 57.501 -47.001
s47.334 -26 80.001 -37s67.334 -16.5 104.001 -16.5c98 0 177.5 23.667 238.5 71s91.5 108.333 91.5 183c0 40.667 -16.667 76.834 -50 108.501s-74.333 58.167 -123 79.5s-97.167 43.166 -145.5 65.499s-89.166 50.666 -122.499 84.999s-50 73.833 -50 118.5
c0 76.667 30.667 141.334 92 194.001s139.666 79 234.999 79c57.333 0 111.666 -12 162.999 -36s88.666 -47.667 111.999 -71z" />
    <glyph glyph-name="Scaron" unicode="&#x160;" horiz-adv-x="1116" 
d="M512 20c109.333 0 209.335 35.1699 300.002 105.503s136 160.166 136 269.499c0 62.667 -23.5 117.667 -70.5 165s-104 86.333 -171 117s-134.333 61.334 -202 92.001s-125 70.667 -172 120s-70.5 106.666 -70.5 171.999c0 105.333 44.667 197.166 134 275.499
s199.666 117.5 330.999 117.5c56 0 109 -6.16699 159 -18.5s90.333 -27 121 -44s57.167 -34 79.5 -51s38.5 -31.833 48.5 -44.5l14 -18l-35 -27c-2.66699 4 -7 9.83301 -13 17.5s-20.667 20.667 -44 39s-48.666 34.666 -75.999 48.999s-63.833 27.333 -109.5 39
s-94.5 17.5 -146.5 17.5c-117.333 0 -216.666 -34.167 -297.999 -102.5s-122 -148.833 -122 -241.5c0 -61.333 23.5 -114.5 70.5 -159.5s104 -82.5 171 -112.5s134 -60.833 201 -92.5s124 -72.667 171 -123s70.5 -109.833 70.5 -178.5
c0 -113.333 -46.333 -212.166 -139 -296.499s-207.334 -126.5 -344.001 -126.5c-210 0 -362.333 68.667 -457 206l39 27l6 -10c4 -6.66699 11.167 -15.834 21.5 -27.501s22.666 -24 36.999 -37s33.166 -26.667 56.499 -41s49 -27 77 -38s61.667 -20.333 101 -28
s81 -11.5 125 -11.5zM1057 1884l-266 -246h-41l-164 246h49l139 -215l230 215h53z" />
    <glyph glyph-name="scaron" unicode="&#x161;" horiz-adv-x="890" 
d="M827 860l-35.9971 -30.998c-6.66699 9.33301 -17.334 21.666 -32.001 36.999s-45.167 35.333 -91.5 60s-95.5 37 -147.5 37c-83.333 0 -151.5 -22 -204.5 -66s-79.5 -98 -79.5 -162c0 -39.333 16.667 -74.333 50 -105s74.166 -56.334 122.499 -77.001
s96.833 -42.167 145.5 -64.5s89.667 -51 123 -86s50 -75.5 50 -121.5c0 -87.333 -34.833 -159.333 -104.5 -216s-159.834 -85 -270.501 -85c-39.333 0 -77.833 5.33301 -115.5 16s-68.334 24.167 -92.001 40.5s-44.834 32.833 -63.501 49.5s-32 30.334 -40 41.001l-12 16
l39 31l11 -16.5c4.66699 -7 15.834 -19.333 33.501 -37s36.834 -33.334 57.501 -47.001s47.334 -26 80.001 -37s67.334 -16.5 104.001 -16.5c98 0 177.5 23.667 238.5 71s91.5 108.333 91.5 183c0 40.667 -16.667 76.834 -50 108.501s-74.333 58.167 -123 79.5
s-97.167 43.166 -145.5 65.499s-89.166 50.666 -122.499 84.999s-50 73.833 -50 118.5c0 76.667 30.667 141.334 92 194.001s139.666 79 234.999 79c57.333 0 111.666 -12 162.999 -36s88.666 -47.667 111.999 -71zM825.003 1413l-266 -246h-41l-164 246h49l140 -215
l229 215h53z" />
    <glyph glyph-name="uni0162" unicode="&#x162;" horiz-adv-x="1105" 
d="M252 1434h1024l-8 -41h-492l-295 -1393h-41l295 1393h-491zM258 -430l145 266h52l-168 -266h-29z" />
    <glyph glyph-name="uni0163" unicode="&#x163;" horiz-adv-x="675" 
d="M385 1044l56.999 267h41l-69 -328h225l-10 -41h-226l-151 -717c-13.333 -65.333 -7.5 -115.833 17.5 -151.5s66.167 -53.5 123.5 -53.5c22 0 43.5 2.83301 64.5 8.5s37.167 11.167 48.5 16.5l16 6l-8 -41c-39.333 -20.667 -83 -30.667 -131 -30
c-66.667 0 -116.167 21.833 -148.5 65.5s-40.166 103.5 -23.499 179.5l151 717h-204l10 41h143c41.333 0 66 20.333 74 61zM124.999 -430l145 266h52l-168 -266h-29z" />
    <glyph glyph-name="Tcaron" unicode="&#x164;" horiz-adv-x="1105" 
d="M252 1434h1024l-8 -41h-492l-295 -1393h-41l295 1393h-491zM1079 1884l-266 -246h-41l-164 246h49l140 -215l229 215h53z" />
    <glyph glyph-name="tcaron" unicode="&#x165;" horiz-adv-x="696" 
d="M385 1044l56.999 267h41l-69 -328h225l-10 -41h-226l-151 -717c-13.333 -65.333 -7.5 -115.833 17.5 -151.5s66.167 -53.5 123.5 -53.5c22 0 43.5 2.83301 64.5 8.5s37.167 11.167 48.5 16.5l16 6l-8 -41c-39.333 -20.667 -83 -30.667 -131 -30
c-66.667 0 -116.167 21.833 -148.5 65.5s-40.166 103.5 -23.499 179.5l151 717h-204l10 41h143c41.333 0 66 20.333 74 61zM759.999 1167l147 267h51l-167 -267h-31z" />
    <glyph glyph-name="Umacron" unicode="&#x16a;" horiz-adv-x="1536" 
d="M715 20c136.667 0 259.168 49.501 367.501 148.501s178.166 223.833 209.499 374.5l189 891h41l-189 -891c-34 -161.333 -109.333 -295.5 -226 -402.5s-248.667 -160.5 -396 -160.5c-132.667 0 -245 43 -337 129s-138 194.333 -138 325c0 35.333 4 71.666 12 108.999
l188 891h41l-188 -891c-8 -36.667 -12.333 -71.667 -13 -105c0 -120 42.5 -219.667 127.5 -299s188.833 -119 311.5 -119zM1278 1782l-8 -41h-512l8 41h512z" />
    <glyph glyph-name="umacron" unicode="&#x16b;" 
d="M858 0l51.001 243.999c-2.66699 -6.66699 -7.33398 -16.167 -14.001 -28.5s-22 -33.666 -46 -63.999s-50.333 -57 -79 -80s-66.834 -44 -114.501 -63s-98.167 -28.5 -151.5 -28.5c-94 0 -172.5 30.333 -235.5 91s-94.5 138.667 -94.5 234
c0 35.333 3.33301 66.666 10 93.999l125 584h41l-125 -584c-6.66699 -34 -10 -63.333 -10 -88c0 -87.333 27.333 -157.666 82 -210.999s124.334 -80 209.001 -80c102.667 0 195.167 37.333 277.5 112s136.5 170.667 162.5 288l121 563h41l-209 -983h-41zM1018 1311l-8 -41
h-512l8 41h512z" />
    <glyph glyph-name="Uring" unicode="&#x16e;" horiz-adv-x="1536" 
d="M715 20c136.667 0 259.168 49.501 367.501 148.501s178.166 223.833 209.499 374.5l189 891h41l-189 -891c-34 -161.333 -109.333 -295.5 -226 -402.5s-248.667 -160.5 -396 -160.5c-132.667 0 -245 43 -337 129s-138 194.333 -138 325c0 35.333 4 71.666 12 108.999
l188 891h41l-188 -891c-8 -36.667 -12.333 -71.667 -13 -105c0 -120 42.5 -219.667 127.5 -299s188.833 -119 311.5 -119zM1016 1636c40.667 0 77.5 16.167 110.5 48.5s49.5 70.833 49.5 115.5c0 35.333 -12.333 65 -37 89s-57 36 -97 36c-42 0 -79 -16 -111 -48
s-48 -70.667 -48 -116c0 -35.333 12.333 -65 37 -89s56.667 -36 96 -36zM842.001 1759c0 52 20.168 99.501 60.501 142.501s89.166 64.5 146.499 64.5c48 0 88.333 -16 121 -48s49 -70.667 49 -116c0 -54.667 -21.167 -102.5 -63.5 -143.5s-89.5 -61.5 -141.5 -61.5
c-49.333 0 -90.333 15.667 -123 47s-49 69.666 -49 114.999z" />
    <glyph glyph-name="uring" unicode="&#x16f;" 
d="M858 0l51.001 243.999c-2.66699 -6.66699 -7.33398 -16.167 -14.001 -28.5s-22 -33.666 -46 -63.999s-50.333 -57 -79 -80s-66.834 -44 -114.501 -63s-98.167 -28.5 -151.5 -28.5c-94 0 -172.5 30.333 -235.5 91s-94.5 138.667 -94.5 234
c0 35.333 3.33301 66.666 10 93.999l125 584h41l-125 -584c-6.66699 -34 -10 -63.333 -10 -88c0 -87.333 27.333 -157.666 82 -210.999s124.334 -80 209.001 -80c102.667 0 195.167 37.333 277.5 112s136.5 170.667 162.5 288l121 563h41l-209 -983h-41zM735.001 1165
c40.667 0 77.5 16.167 110.5 48.5s49.5 70.833 49.5 115.5c0 35.333 -12.333 65 -37 89s-56.667 36 -96 36c-42 0 -79.167 -16 -111.5 -48s-48.5 -70.667 -48.5 -116c0 -35.333 12.333 -65 37 -89s56.667 -36 96 -36zM561.001 1288c0 52 20.168 99.501 60.501 142.501
s89.166 64.5 146.499 64.5c48 0 88.333 -16 121 -48s49 -70.667 49 -116c0 -54.667 -21.167 -102.5 -63.5 -143.5s-89.5 -61.5 -141.5 -61.5c-49.333 0 -90.333 15.667 -123 47s-49 69.666 -49 114.999z" />
    <glyph glyph-name="Uhungarumlaut" unicode="&#x170;" horiz-adv-x="1536" 
d="M715 20c136.667 0 259.168 49.501 367.501 148.501s178.166 223.833 209.499 374.5l189 891h41l-189 -891c-34 -161.333 -109.333 -295.5 -226 -402.5s-248.667 -160.5 -396 -160.5c-132.667 0 -245 43 -337 129s-138 194.333 -138 325c0 35.333 4 71.666 12 108.999
l188 891h41l-188 -891c-8 -36.667 -12.333 -71.667 -13 -105c0 -120 42.5 -219.667 127.5 -299s188.833 -119 311.5 -119zM825.001 1638l205 246h53l-215 -246h-43zM1092 1638l204 246h54l-215 -246h-43z" />
    <glyph glyph-name="uhungarumlaut" unicode="&#x171;" 
d="M858 0l51.001 243.999c-2.66699 -6.66699 -7.33398 -16.167 -14.001 -28.5s-22 -33.666 -46 -63.999s-50.333 -57 -79 -80s-66.834 -44 -114.501 -63s-98.167 -28.5 -151.5 -28.5c-94 0 -172.5 30.333 -235.5 91s-94.5 138.667 -94.5 234
c0 35.333 3.33301 66.666 10 93.999l125 584h41l-125 -584c-6.66699 -34 -10 -63.333 -10 -88c0 -87.333 27.333 -157.666 82 -210.999s124.334 -80 209.001 -80c102.667 0 195.167 37.333 277.5 112s136.5 170.667 162.5 288l121 563h41l-209 -983h-41zM547.001 1167
l205 246h53l-215 -246h-43zM813.001 1167l205 246h53l-215 -246h-43z" />
    <glyph glyph-name="Uogonek" unicode="&#x172;" horiz-adv-x="1536" 
d="M715 20c136.667 0 259.169 49.498 367.502 148.498s178.166 223.833 209.499 374.5l189 891h41l-189 -891c-34 -161.333 -109.333 -295.5 -226 -402.5s-248.667 -160.5 -396 -160.5c-40.667 -31.333 -79.834 -70.666 -117.501 -117.999s-56.5 -94.333 -56.5 -141
c0 -53.333 34 -79.666 102 -78.999c22 0 43.5 2.33301 64.5 7s37.167 9.66699 48.5 15l16 8l-8 -41c-38 -20.667 -81 -30.667 -129 -30c-44 0 -77.5 10.167 -100.5 30.5s-34.5 48.833 -34.5 85.5c0 86 58 174.333 174 265c-124 9.33301 -227.333 56.333 -310 141
s-124 188.334 -124 311.001c0 35.333 4 71.666 12 108.999l188 891h41l-188 -891c-8 -36.667 -12.333 -71.667 -13 -105c0 -120 42.5 -219.667 127.5 -299s188.833 -119 311.5 -119z" />
    <glyph glyph-name="uogonek" unicode="&#x173;" 
d="M860 0l51.001 243.999c-2.66699 -6.66699 -7.33398 -16.167 -14.001 -28.5s-22 -33.666 -46 -63.999s-50.333 -57 -79 -80s-66.834 -44 -114.501 -63s-98.167 -28.5 -151.5 -28.5c-94 0 -172.5 30.333 -235.5 91s-94.5 138.667 -94.5 234
c0 35.333 3.33301 66.666 10 93.999l125 584h41l-125 -584c-6.66699 -34 -10 -63.333 -10 -88c0 -87.333 27.333 -157.666 82 -210.999s124.334 -80 209.001 -80c102.667 0 195.167 37.333 277.5 112s136.5 170.667 162.5 288l121 563h41l-209 -983
c-5.33301 -4 -12.5 -9.5 -21.5 -16.5s-25 -21.333 -48 -43s-43.5 -43.167 -61.5 -64.5s-34.167 -46.333 -48.5 -75s-21.5 -55.334 -21.5 -80.001c0 -53.333 34.333 -79.666 103 -78.999c22 0 43.5 2.33301 64.5 7s36.833 9.66699 47.5 15l17 8l-8 -41
c-38 -20.667 -81 -30.667 -129 -30c-44 0 -77.667 10.167 -101 30.5s-35 48.833 -35 85.5c0 44 16.833 89.5 50.5 136.5s67.5 83.5 101.5 109.5z" />
    <glyph glyph-name="Ydieresis" unicode="&#x178;" horiz-adv-x="1228" 
d="M322 1434l313 -891l690 891h53l-729 -932l-106 -502h-41l106 502l-336 932h50zM657 1757c0 10.667 4.49902 20.833 13.499 30.5s19.5 14.5 31.5 14.5c24.667 0 37 -12.333 37 -37c0 -12 -4.66699 -22.5 -14 -31.5s-19.666 -13.5 -30.999 -13.5
c-24.667 0 -37 12.333 -37 37zM984.999 1757c0 10.667 4.50098 20.833 13.501 30.5s19.5 14.5 31.5 14.5c24.667 0 37 -12.333 37 -37c0 -12 -4.83301 -22.5 -14.5 -31.5s-19.834 -13.5 -30.501 -13.5c-24.667 0 -37 12.333 -37 37z" />
    <glyph glyph-name="Zacute" unicode="&#x179;" horiz-adv-x="1146" 
d="M1186 1393h-871l9 41h931l-6 -31l-1190 -1362h922l-8 -41h-983l6 31zM750 1638l204 246h54l-215 -246h-43z" />
    <glyph glyph-name="zacute" unicode="&#x17a;" horiz-adv-x="870" 
d="M895 983l-8 -31l-858 -911h686l-8 -41h-748l6 31l858 911h-645l10 41h707zM545 1167l205 246h53l-215 -246h-43z" />
    <glyph glyph-name="Zdotaccent" unicode="&#x17b;" horiz-adv-x="1146" 
d="M1186 1393h-871l9 41h931l-6 -31l-1190 -1362h922l-8 -41h-983l6 31zM784 1757c0 10.667 4.49902 20.833 13.499 30.5s19.5 14.5 31.5 14.5c24.667 0 37 -12.333 37 -37c0 -12 -4.66699 -22.5 -14 -31.5s-19.666 -13.5 -30.999 -13.5c-24.667 0 -37 12.333 -37 37z" />
    <glyph glyph-name="zdotaccent" unicode="&#x17c;" horiz-adv-x="870" 
d="M895 983l-8 -31l-858 -911h686l-8 -41h-748l6 31l858 911h-645l10 41h707zM526 1286c0 10.667 4.49902 20.833 13.499 30.5s19.5 14.5 31.5 14.5c24.667 0 37 -12.333 37 -37c0 -12 -4.66699 -22.5 -14 -31.5s-19.666 -13.5 -30.999 -13.5c-24.667 0 -37 12.333 -37 37z
" />
    <glyph glyph-name="Zcaron" unicode="&#x17d;" horiz-adv-x="1146" 
d="M1186 1393h-871l9 41h931l-6 -31l-1190 -1362h922l-8 -41h-983l6 31zM1087 1884l-266 -246h-41l-164 246h50l139 -215l229 215h53z" />
    <glyph glyph-name="zcaron" unicode="&#x17e;" horiz-adv-x="870" 
d="M895 983l-8 -31l-858 -911h686l-8 -41h-748l6 31l858 911h-645l10 41h707zM844 1413l-266 -246h-41l-164 246h49l139 -215l230 215h53z" />
    <glyph glyph-name="florin" unicode="&#x192;" horiz-adv-x="696" 
d="M440 727l-369.999 -922c-28.667 -74 -68.667 -131.667 -120 -173s-109 -62 -173 -62c-22 0 -42.5 2.66699 -61.5 8s-33.5 10.666 -43.5 15.999l-12 7l8 41c34 -20.667 71.667 -31 113 -31c116 0 198.667 64.667 248 194l370 922h-184l8 41h195l178 451
c28.667 74 68.667 131.667 120 173s109.666 62 174.999 62c22 0 42.5 -2.66699 61.5 -8s33.167 -10.666 42.5 -15.999l13 -7l-9 -41c-34 20.667 -71.333 31 -112 31c-114.667 0 -198 -64.667 -250 -194l-178 -451h256l-8 -41h-267z" />
    <glyph glyph-name="uni0218" unicode="&#x218;" horiz-adv-x="1116" 
d="M512 20c109.333 0 209.335 35.1699 300.002 105.503s136 160.166 136 269.499c0 62.667 -23.5 117.667 -70.5 165s-104 86.333 -171 117s-134.333 61.334 -202 92.001s-125 70.667 -172 120s-70.5 106.666 -70.5 171.999c0 105.333 44.667 197.166 134 275.499
s199.666 117.5 330.999 117.5c56 0 109 -6.16699 159 -18.5s90.333 -27 121 -44s57.167 -34 79.5 -51s38.5 -31.833 48.5 -44.5l14 -18l-35 -27c-2.66699 4 -7 9.83301 -13 17.5s-20.667 20.667 -44 39s-48.666 34.666 -75.999 48.999s-63.833 27.333 -109.5 39
s-94.5 17.5 -146.5 17.5c-117.333 0 -216.666 -34.167 -297.999 -102.5s-122 -148.833 -122 -241.5c0 -61.333 23.5 -114.5 70.5 -159.5s104 -82.5 171 -112.5s134 -60.833 201 -92.5s124 -72.667 171 -123s70.5 -109.833 70.5 -178.5
c0 -113.333 -46.333 -212.166 -139 -296.499s-207.334 -126.5 -344.001 -126.5c-210 0 -362.333 68.667 -457 206l39 27l6 -10c4 -6.66699 11.167 -15.834 21.5 -27.501s22.666 -24 36.999 -37s33.166 -26.667 56.499 -41s49 -27 77 -38s61.667 -20.333 101 -28
s81 -11.5 125 -11.5zM279.002 -429.997l145 266h51l-168 -266h-28z" />
    <glyph glyph-name="uni0219" unicode="&#x219;" horiz-adv-x="890" 
d="M827 860l-35.9971 -30.998c-6.66699 9.33301 -17.334 21.666 -32.001 36.999s-45.167 35.333 -91.5 60s-95.5 37 -147.5 37c-83.333 0 -151.5 -22 -204.5 -66s-79.5 -98 -79.5 -162c0 -39.333 16.667 -74.333 50 -105s74.166 -56.334 122.499 -77.001
s96.833 -42.167 145.5 -64.5s89.667 -51 123 -86s50 -75.5 50 -121.5c0 -87.333 -34.833 -159.333 -104.5 -216s-159.834 -85 -270.501 -85c-39.333 0 -77.833 5.33301 -115.5 16s-68.334 24.167 -92.001 40.5s-44.834 32.833 -63.501 49.5s-32 30.334 -40 41.001l-12 16
l39 31l11 -16.5c4.66699 -7 15.834 -19.333 33.501 -37s36.834 -33.334 57.501 -47.001s47.334 -26 80.001 -37s67.334 -16.5 104.001 -16.5c98 0 177.5 23.667 238.5 71s91.5 108.333 91.5 183c0 40.667 -16.667 76.834 -50 108.501s-74.333 58.167 -123 79.5
s-97.167 43.166 -145.5 65.499s-89.166 50.666 -122.499 84.999s-50 73.833 -50 118.5c0 76.667 30.667 141.334 92 194.001s139.666 79 234.999 79c57.333 0 111.666 -12 162.999 -36s88.666 -47.667 111.999 -71zM176.003 -429.998l146 266h51l-168 -266h-29z" />
    <glyph glyph-name="uni021A" unicode="&#x21a;" horiz-adv-x="1105" 
d="M252 1434h1024l-8 -41h-492l-295 -1393h-41l295 1393h-491zM258 -430l145 266h52l-168 -266h-29z" />
    <glyph glyph-name="uni021B" unicode="&#x21b;" horiz-adv-x="675" 
d="M385 1044l56.999 267h41l-69 -328h225l-10 -41h-226l-151 -717c-13.333 -65.333 -7.5 -115.833 17.5 -151.5s66.167 -53.5 123.5 -53.5c22 0 43.5 2.83301 64.5 8.5s37.167 11.167 48.5 16.5l16 6l-8 -41c-39.333 -20.667 -83 -30.667 -131 -30
c-66.667 0 -116.167 21.833 -148.5 65.5s-40.166 103.5 -23.499 179.5l151 717h-204l10 41h143c41.333 0 66 20.333 74 61zM124.999 -430l145 266h52l-168 -266h-29z" />
    <glyph glyph-name="uni02BC" unicode="&#x2bc;" horiz-adv-x="266" 
d="M217 1167l148 267h51l-168 -267h-31z" />
    <glyph glyph-name="circumflex" unicode="&#x2c6;" horiz-adv-x="593" 
d="M217 1167l266 246h41l164 -246h-49l-139 215l-230 -215h-53z" />
    <glyph glyph-name="caron" unicode="&#x2c7;" horiz-adv-x="593" 
d="M739 1413l-266 -246h-41l-164 246h49l140 -215l229 215h53z" />
    <glyph glyph-name="breve" unicode="&#x2d8;" horiz-adv-x="614" 
d="M477 1208c61.333 0 113.501 18.833 156.501 56.5s71.5 87.167 85.5 148.5h41c-15.333 -72.667 -48.5 -131.834 -99.5 -177.501s-112.167 -68.5 -183.5 -68.5c-72.667 0 -129.334 23.333 -170.001 70s-53.667 105.334 -39 176.001h41
c-13.333 -61.333 -4 -110.833 28 -148.5s78.667 -56.5 140 -56.5z" />
    <glyph glyph-name="dotaccent" unicode="&#x2d9;" horiz-adv-x="204" 
d="M248 1307c0 10.667 4.33301 20.833 13 30.5s19.334 14.5 32.001 14.5c24.667 0 37 -12.333 37 -37c0 -12 -4.83301 -22.5 -14.5 -31.5s-19.834 -13.5 -30.501 -13.5c-24.667 0 -37 12.333 -37 37z" />
    <glyph glyph-name="ring" unicode="&#x2da;" horiz-adv-x="491" 
d="M399 1083c40.667 0 77.5 16.167 110.5 48.5s49.5 70.833 49.5 115.5c0 35.333 -12.333 65 -37 89s-56.667 36 -96 36c-42 0 -79.167 -16 -111.5 -48s-48.5 -70.667 -48.5 -116c0 -35.333 12.333 -65 37 -89s56.667 -36 96 -36zM225 1206
c0 52 20.168 99.501 60.501 142.501s89.166 64.5 146.499 64.5c48 0 88.333 -16 121 -48s49 -70.667 49 -116c0 -54.667 -21.167 -102.5 -63.5 -143.5s-89.5 -61.5 -141.5 -61.5c-49.333 0 -90.333 15.667 -123 47s-49 69.666 -49 114.999z" />
    <glyph glyph-name="ogonek" unicode="&#x2db;" horiz-adv-x="409" 
d="M113 0h41c-5.33301 -4 -12.5 -9.5 -21.5 -16.5s-25.167 -21.333 -48.5 -43s-43.833 -43.167 -61.5 -64.5s-33.667 -46.333 -48 -75s-21.5 -55.334 -21.5 -80.001c0 -53.333 34 -79.666 102 -78.999c22 0 43.667 2.33301 65 7s37.333 9.66699 48 15l16 8l-8 -41
c-38 -20.667 -81 -30.667 -129 -30c-44 0 -77.5 10.167 -100.5 30.5s-34.5 48.833 -34.5 85.5c0 44 16.667 89.5 50 136.5s66.333 83.5 99 109.5z" />
    <glyph glyph-name="tilde" unicode="&#x2dc;" horiz-adv-x="645" 
d="M621 1188c-27.333 0 -52.335 8.5 -75.002 25.5s-40.167 35.667 -52.5 56s-28 39.166 -47 56.499s-40.167 26 -63.5 26c-57.333 0 -97.666 -54.667 -120.999 -164h-41c28.667 136.667 83.334 205 164.001 205c27.333 0 52.333 -8.66699 75 -26s40 -36.166 52 -56.499
s27.667 -39 47 -56s40.666 -25.5 63.999 -25.5c58.667 0 99.334 54.667 122.001 164h41c-28 -136.667 -83 -205 -165 -205z" />
    <glyph glyph-name="hungarumlaut" unicode="&#x2dd;" horiz-adv-x="593" 
d="M217 1167l205 246h53l-215 -246h-43zM483 1167l205 246h53l-215 -246h-43z" />
    <glyph glyph-name="uni0401" unicode="&#x401;" horiz-adv-x="1280" 
d="M203 41h911l-8 -41h-952l303 1434h932l-9 -41h-891l-133 -625h727l-8 -41h-727zM760 1757c0 10.667 4.33301 20.833 13 30.5s19.334 14.5 32.001 14.5c24.667 0 37 -12.333 37 -37c0 -12 -4.83301 -22.5 -14.5 -31.5s-19.834 -13.5 -30.501 -13.5
c-24.667 0 -37 12.333 -37 37zM1087 1757c0 10.667 4.49902 20.833 13.499 30.5s19.833 14.5 32.5 14.5c24.667 0 36.667 -12.333 36 -37c0 -12 -4.66699 -22.5 -14 -31.5s-19.666 -13.5 -30.999 -13.5c-24.667 0 -37 12.333 -37 37z" />
    <glyph glyph-name="uni0402" unicode="&#x402;" horiz-adv-x="1443" 
d="M1278 422c-30 -142 -91.1699 -251.166 -183.503 -327.499s-206.5 -114.5 -342.5 -114.5l10 40c124 0 227.333 34.167 310 102.5s137.667 168.166 165 299.499c28.667 131.333 13.334 233.833 -45.999 307.5s-151.333 110.5 -276 110.5
c-69.333 0 -139.166 -13 -209.499 -39s-123.166 -51.333 -158.499 -76l-53 -39l-146 -686h-41l295 1393h-399l8 41h840l-9 -41h-399l-139 -656c13.333 10.667 32.333 24 57 40s73.834 37.333 147.501 64s145.5 40 215.5 40c135.333 0 235.666 -41 300.999 -123
s83 -194 53 -336z" />
    <glyph glyph-name="uni0403" unicode="&#x403;" horiz-adv-x="1126" 
d="M154 0l303 1434h839l-8 -41h-799l-294 -1393h-41zM852 1638l205 246h53l-215 -246h-43z" />
    <glyph glyph-name="uni0404" unicode="&#x404;" horiz-adv-x="1525" 
d="M164 633c0 135.333 35.8311 265.997 107.498 391.997s170.334 229 296.001 309s260.834 120 405.501 120c48 0 93.833 -3.66699 137.5 -11s82.834 -17.166 117.501 -29.499s67.334 -26.333 98.001 -42s57.334 -32.5 80.001 -50.5s43.167 -35.833 61.5 -53.5
s34 -34.334 47 -50.001s23.667 -29.667 32 -42s14.5 -21.833 18.5 -28.5l6 -10l-35 -17l-8 15c-6.66699 10.667 -16.834 24.834 -30.501 42.501s-30.834 36.834 -51.501 57.501s-46.667 41.5 -78 62.5s-65.5 40 -102.5 57s-81.333 31 -133 42s-106.167 16.5 -163.5 16.5
c-177.333 0 -340.166 -64.5 -488.499 -193.5s-237.5 -286.167 -267.5 -471.5h836l-9 -41h-831c-2.66699 -32.667 -4 -57.334 -4 -74.001c0 -173.333 56.333 -319.166 169 -437.499s257 -177.5 433 -177.5c61.333 0 122.333 10 183 30s112.5 44.333 155.5 73
s82 57.667 117 87s60.5 54.333 76.5 75l27 28l27 -24c-6.66699 -8 -16.167 -19 -28.5 -33s-39.333 -38.667 -81 -74s-84.334 -66.666 -128.001 -93.999s-98.334 -51.833 -164.001 -73.5s-130.5 -32.5 -194.5 -32.5c-184 0 -335.5 62.833 -454.5 188.5
s-178.5 280.5 -178.5 464.5z" />
    <glyph glyph-name="uni0405" unicode="&#x405;" horiz-adv-x="1116" 
d="M512 20c109.333 0 209.335 35.1699 300.002 105.503s136 160.166 136 269.499c0 62.667 -23.5 117.667 -70.5 165s-104 86.333 -171 117s-134.333 61.334 -202 92.001s-125 70.667 -172 120s-70.5 106.666 -70.5 171.999c0 105.333 44.667 197.166 134 275.499
s199.666 117.5 330.999 117.5c56 0 109 -6.16699 159 -18.5s90.333 -27 121 -44s57.167 -34 79.5 -51s38.5 -31.833 48.5 -44.5l14 -18l-35 -27c-2.66699 4 -7 9.83301 -13 17.5s-20.667 20.667 -44 39s-48.666 34.666 -75.999 48.999s-63.833 27.333 -109.5 39
s-94.5 17.5 -146.5 17.5c-117.333 0 -216.666 -34.167 -297.999 -102.5s-122 -148.833 -122 -241.5c0 -61.333 23.5 -114.5 70.5 -159.5s104 -82.5 171 -112.5s134 -60.833 201 -92.5s124 -72.667 171 -123s70.5 -109.833 70.5 -178.5
c0 -113.333 -46.333 -212.166 -139 -296.499s-207.334 -126.5 -344.001 -126.5c-210 0 -362.333 68.667 -457 206l39 27l6 -10c4 -6.66699 11.167 -15.834 21.5 -27.501s22.666 -24 36.999 -37s33.166 -26.667 56.499 -41s49 -27 77 -38s61.667 -20.333 101 -28
s81 -11.5 125 -11.5z" />
    <glyph glyph-name="uni0406" unicode="&#x406;" horiz-adv-x="532" 
d="M154 0l303 1434h41l-303 -1434h-41z" />
    <glyph glyph-name="uni0407" unicode="&#x407;" horiz-adv-x="532" 
d="M154 0l303 1434h41l-303 -1434h-41zM328 1757c0 10.667 4.33301 20.833 13 30.5s19.334 14.5 32.001 14.5c24.667 0 37 -12.333 37 -37c0 -12 -4.83301 -22.5 -14.5 -31.5s-19.834 -13.5 -30.501 -13.5c-24.667 0 -37 12.333 -37 37zM655 1757
c0 10.667 4.49902 20.833 13.499 30.5s19.5 14.5 31.5 14.5c24.667 0 37 -12.333 37 -37c0 -12 -4.66699 -22.5 -14 -31.5s-19.666 -13.5 -30.999 -13.5c-24.667 0 -37 12.333 -37 37z" />
    <glyph glyph-name="uni0408" unicode="&#x408;" horiz-adv-x="983" 
d="M928 1434h41.002l-217 -1024c-26 -124 -82 -226.667 -168 -308s-185 -122 -297 -122c-64 0 -123.667 11.833 -179 35.5s-95.333 47.167 -120 70.5l-35 37l37 31c8 -9.33301 19.5 -21.666 34.5 -36.999s48.5 -35.333 100.5 -60s106.667 -37 164 -37
c101.333 0 191.166 36.667 269.499 110s129.166 166.666 152.499 279.999z" />
    <glyph glyph-name="uni0409" unicode="&#x409;" horiz-adv-x="2170" 
d="M1516 0l-450.999 0.000976562l295 1393h-707l-82 -389c-35.333 -166.667 -72.5 -312.167 -111.5 -436.5s-76.833 -223.333 -113.5 -297s-75.5 -132.667 -116.5 -177s-79 -74.333 -114 -90s-72.167 -23.5 -111.5 -23.5c-15.333 0 -31.166 1.66699 -47.499 5
s-28.5 7 -36.5 11l-12 4l8 41c31.333 -13.333 64 -20.333 98 -21c206 0 378 328 516 984l91 430h788l-121 -574h369c113.333 0 208.166 -35.5 284.499 -106.5s114.5 -156.167 114.5 -255.5c0 -136.667 -52.833 -253.834 -158.5 -351.501s-232.834 -146.5 -381.501 -146.5z
M1114 41.001h405.999c136.667 0 253 44 349 132s144 195 144 321c0 90 -34.167 166.667 -102.5 230s-154.166 95 -257.499 95h-373z" />
    <glyph glyph-name="uni040A" unicode="&#x40a;" horiz-adv-x="2150" 
d="M1505 0l-461 -0.000976562l168 799h-850l-167 -799h-41l303 1434h41l-125 -594h850l125 594h41l-125 -594h378c113.333 0 207 -34.167 281 -102.5s111 -151.166 111 -248.499c0 -138 -51 -254 -153 -348s-227.333 -141 -376 -141zM1094 40.999l413 -0.000976562
c136.667 0 251.5 42.667 344.5 128s139.5 191.333 139.5 318c0 88.667 -32.5 162.834 -97.5 222.501s-150.167 89.5 -255.5 89.5h-385z" />
    <glyph glyph-name="uni040B" unicode="&#x40b;" horiz-adv-x="1484" 
d="M1147 0l94.001 451c26 122.667 12.333 218.167 -41 286.5s-141.333 102.5 -264 102.5c-69.333 0 -141 -13 -215 -39s-130 -51.333 -168 -76l-59 -39l-146 -686h-41l295 1393h-399l8 41h840l-9 -41h-399l-139 -656c15.333 10.667 36.5 24 63.5 40s79.167 37.333 156.5 64
s150.666 40 219.999 40c134 0 231 -38.667 291 -116s75.667 -182 47 -314l-94 -451h-41z" />
    <glyph glyph-name="uni040C" unicode="&#x40c;" horiz-adv-x="1310" 
d="M293 467l1083 967h54l-670 -605l418 -829h-50l-397 799h-10l-440 -389l-86 -410h-41l303 1434h41zM852 1638l205 246h53l-215 -246h-43z" />
    <glyph glyph-name="uni040E" unicode="&#x40e;" horiz-adv-x="1218" 
d="M633 440l691.997 994h43l-811 -1168c-69.333 -100 -134.166 -172.667 -194.499 -218s-125.166 -68 -194.499 -68c-15.333 0 -31.166 1.66699 -47.499 5s-28.5 7 -36.5 11l-12 4l8 41c30 -13.333 62 -20.333 96 -21c113.333 0 226 82 338 246l92 133l-334 1035h39z
M837.497 1679c61.667 0 113.998 18.833 156.998 56.5s71.167 87.167 84.5 148.5h41c-15.333 -72.667 -48.5 -131.834 -99.5 -177.501s-111.833 -68.5 -182.5 -68.5c-72.667 0 -129.5 23.333 -170.5 70s-53.833 105.334 -38.5 176.001h41
c-13.333 -61.333 -4.16602 -110.833 27.501 -148.5s78.334 -56.5 140.001 -56.5z" />
    <glyph glyph-name="uni040F" unicode="&#x40f;" horiz-adv-x="1515" 
d="M1481 1434l-303 -1434h-492l-65 -307h-41l65 307h-491l303 1434h41l-295 -1393h942l295 1393h41z" />
    <glyph glyph-name="uni0410" unicode="&#x410;" horiz-adv-x="1351" 
d="M907 1434l291 -1434h-41l-90 451h-774l-279 -451h-45l897 1434h41zM1057 492l-178 890l-555 -890h733z" />
    <glyph glyph-name="uni0411" unicode="&#x411;" horiz-adv-x="1300" 
d="M489 1393l-119.999 -574h430c109.333 0 200.166 -34.167 272.499 -102.5s108.5 -149.5 108.5 -243.5c0 -131.333 -50.167 -243 -150.5 -335s-221.5 -138 -363.5 -138h-512l303 1434h819l-8 -41h-779zM203.001 41h465.001c131.333 0 242.666 42 333.999 126
s137 185.333 137 304c0 86 -32.167 158.667 -96.5 218s-146.833 89 -247.5 89h-437z" />
    <glyph glyph-name="uni0412" unicode="&#x412;" horiz-adv-x="1341" 
d="M961 766l-2.99902 -10.0039c6.66699 -1.33301 15.5 -4.16602 26.5 -8.49902s30.167 -14.666 57.5 -30.999s51.666 -34.666 72.999 -54.999s40.5 -49.666 57.5 -87.999s25.5 -79.833 25.5 -124.5c0 -134 -47.167 -242.333 -141.5 -325s-214.5 -124 -360.5 -124h-542
l303 1434h489c98 0 176.833 -29.5 236.5 -88.5s89.5 -129.833 89.5 -212.5c0 -166.667 -73 -280 -219 -340c-42 -18 -72.667 -27 -92 -27zM203.001 40.9961h495c132.667 0 242 36.5 328 109.5s129 170.167 129 291.5c0 83.333 -29 153.333 -87 210s-136 85 -234 85h-484z
M938.001 1393h-449.001l-131 -615h453c122.667 0 223.334 31.833 302.001 95.5s118 150.167 118 259.5c0 74 -26.667 135.833 -80 185.5s-124.333 74.5 -213 74.5z" />
    <glyph glyph-name="uni0413" unicode="&#x413;" horiz-adv-x="1126" 
d="M154 0l303 1434h839l-8 -41h-799l-294 -1393h-41z" />
    <glyph glyph-name="uni0414" unicode="&#x414;" horiz-adv-x="1423" 
d="M-84 41h81.998c8 5.33301 19.5 14.833 34.5 28.5s43.333 46.5 85 98.5s81.334 111 119.001 177s78.334 157.833 122.001 275.5s80.5 245.5 110.5 383.5l90 430h809l-295 -1393h184l-73 -348h-41l65 307h-1259l-64 -307h-41zM509.998 1004
c-28.667 -134 -64.167 -258.667 -106.5 -374s-83.333 -207.5 -123 -276.5s-77.167 -128.5 -112.5 -178.5s-64 -85 -86 -105l-33 -29h983l287 1352h-727z" />
    <glyph glyph-name="uni0415" unicode="&#x415;" horiz-adv-x="1280" 
d="M203 41h911l-8 -41h-952l303 1434h932l-9 -41h-891l-133 -625h727l-8 -41h-727z" />
    <glyph glyph-name="uni0416" unicode="&#x416;" horiz-adv-x="1863" 
d="M348 1434l594 -852l180 852h41l-180 -846l948 846h51l-669 -607l418 -827h-45l-400 799h-12l-301 -267l-113 -532h-41l113 532l-191 267h-4l-733 -799h-53l768 831l-416 603h45z" />
    <glyph glyph-name="uni0417" unicode="&#x417;" horiz-adv-x="1116" 
d="M713 756c6.66699 -2.66699 15.8311 -6.50293 27.498 -11.5029s32.5 -17 62.5 -36s56.167 -40.167 78.5 -63.5s42.833 -55.166 61.5 -95.499s28 -82.833 28 -127.5c0 -126.667 -47.5 -232 -142.5 -316s-219.5 -126 -373.5 -126c-56 0 -108.667 7.16699 -158 21.5
s-89.666 31.333 -120.999 51s-58.666 39.334 -81.999 59.001s-39.666 37.167 -48.999 52.5l-16 20l37 31c2.66699 -5.33301 7.33398 -12.5 14.001 -21.5s21.667 -24.333 45 -46s48.666 -41.167 75.999 -58.5s64.166 -33.166 110.499 -47.499s95.5 -21.5 147.5 -21.5
c140.667 0 254 37.333 340 112s129 168.667 129 282c0 86 -32.833 161.333 -98.5 226s-152.5 97 -260.5 97h-157l8 41h164c130 0 237.833 34.167 323.5 102.5s128.5 153.166 128.5 254.499c0 75.333 -32.333 140.5 -97 195.5s-147 82.5 -247 82.5
c-69.333 0 -135.5 -13.667 -198.5 -41s-108.833 -54.666 -137.5 -81.999l-41 -41l-24 31c4 4 9.66699 10.167 17 18.5s24.333 22.333 51 42s54.667 37.334 84 53.001s67 29.667 113 42s92.667 18.5 140 18.5c109.333 0 200.5 -32 273.5 -96s109.5 -138.333 109.5 -223
c0 -162.667 -82.667 -277.334 -248 -344.001c-22.667 -10 -62 -21.667 -118 -35z" />
    <glyph glyph-name="uni0418" unicode="&#x418;" horiz-adv-x="1587" 
d="M1249 0h-41l287 1352l-1309 -1352h-32l303 1434h41l-287 -1352l1309 1352h32z" />
    <glyph glyph-name="uni0419" unicode="&#x419;" horiz-adv-x="1587" 
d="M1249 0h-41l287 1352l-1309 -1352h-32l303 1434h41l-287 -1352l1309 1352h32zM1069 1679c61.333 0 113.501 18.833 156.501 56.5s71.5 87.167 85.5 148.5h41c-15.333 -72.667 -48.5 -131.834 -99.5 -177.501s-112.167 -68.5 -183.5 -68.5
c-72.667 0 -129.334 23.333 -170.001 70s-53.667 105.334 -39 176.001h41c-13.333 -61.333 -4 -110.833 28 -148.5s78.667 -56.5 140 -56.5z" />
    <glyph glyph-name="uni041A" unicode="&#x41a;" horiz-adv-x="1310" 
d="M293 467l1083 967h54l-670 -605l418 -829h-50l-397 799h-10l-440 -389l-86 -410h-41l303 1434h41z" />
    <glyph glyph-name="uni041B" unicode="&#x41b;" horiz-adv-x="1505" 
d="M1470 1434l-303.001 -1434h-41l295 1393h-768l-82 -389c-44 -206 -90.167 -379.5 -138.5 -520.5s-97 -246.667 -146 -317s-95.667 -119 -140 -146s-91.833 -40.5 -142.5 -40.5c-15.333 0 -31.166 1.66699 -47.499 5s-28.5 7 -36.5 11l-12 4l8 41
c31.333 -13.333 64 -20.333 98 -21c204.667 0 376.667 328 516 984l91 430h849z" />
    <glyph glyph-name="uni041C" unicode="&#x41c;" horiz-adv-x="1863" 
d="M485 1434l459 -916l852 916h33l-303 -1434h-41l287 1352l-838 -901l-453 901l-286 -1352h-41l303 1434h28z" />
    <glyph glyph-name="uni041D" unicode="&#x41d;" horiz-adv-x="1525" 
d="M154 0l303 1434h41l-146 -686h953l145 686h41l-303 -1434h-41l149 707h-952l-149 -707h-41z" />
    <glyph glyph-name="uni041E" unicode="&#x41e;" horiz-adv-x="1679" 
d="M819 20c199.333 0 377.832 79.6689 535.499 239.002s236.5 340.666 236.5 543.999c0 172 -58.333 316.667 -175 434s-263 176 -439 176c-94 0 -187.833 -20.833 -281.5 -62.5s-176.667 -97 -249 -166s-130.666 -152.333 -174.999 -250s-66.5 -198.834 -66.5 -303.501
c0 -172 58.333 -316.833 175 -434.5s263 -176.5 439 -176.5zM1632 803.002c0 -135.333 -36.833 -266.169 -110.5 -392.502s-174.334 -229.666 -302.001 -309.999s-263.167 -120.5 -406.5 -120.5c-186 0 -340.667 62.667 -464 188s-185 279 -185 461
c0 146 39.833 283.167 119.5 411.5s182.334 229.333 308.001 303s256.167 110.5 391.5 110.5c186 0 340.667 -63.167 464 -189.5s185 -280.166 185 -461.499z" />
    <glyph glyph-name="uni041F" unicode="&#x41f;" horiz-adv-x="1525" 
d="M1491 1434l-303 -1434h-41l295 1393h-953l-294 -1393h-41l303 1434h1034z" />
    <glyph glyph-name="uni0420" unicode="&#x420;" horiz-adv-x="1300" 
d="M457 1434h461c113.333 0 206.833 -33.5 280.5 -100.5s110.5 -149.833 110.5 -248.5c0 -138 -50.833 -254.333 -152.5 -349s-226.5 -142 -374.5 -142h-463l-124 -594h-41zM909 1393l-419.999 -0.000976562l-161 -758h463c135.333 0 248.666 42.333 339.999 127
s137 190.334 137 317.001c0 88.667 -33.5 163.167 -100.5 223.5s-153.167 90.5 -258.5 90.5z" />
    <glyph glyph-name="uni0421" unicode="&#x421;" horiz-adv-x="1525" 
d="M164 633c0 135.333 35.832 265.995 107.499 391.995s170.334 229 296.001 309s260.834 120 405.501 120c48 0 93.833 -3.66699 137.5 -11s82.834 -17.166 117.501 -29.499s67.334 -26.333 98.001 -42s57.334 -32.5 80.001 -50.5s43.167 -35.833 61.5 -53.5
s34 -34.334 47 -50.001s23.667 -29.667 32 -42s14.5 -21.833 18.5 -28.5l6 -10l-35 -17l-8 15c-6.66699 10.667 -16.834 24.834 -30.501 42.501s-30.834 36.834 -51.501 57.501s-46.667 41.5 -78 62.5s-65.5 40 -102.5 57s-81.333 31 -133 42s-106.167 16.5 -163.5 16.5
c-196.667 0 -373.167 -77.167 -529.5 -231.5s-234.5 -337.166 -234.5 -548.499c0 -173.333 56.333 -319.166 169 -437.499s257 -177.5 433 -177.5c61.333 0 122.333 10 183 30s112.5 44.333 155.5 73s82 57.667 117 87s60.5 54.333 76.5 75l27 28l27 -24
c-6.66699 -8 -16.167 -19 -28.5 -33s-39.333 -38.667 -81 -74s-84.334 -66.666 -128.001 -93.999s-98.334 -51.833 -164.001 -73.5s-130.5 -32.5 -194.5 -32.5c-184 0 -335.5 62.833 -454.5 188.5s-178.5 280.5 -178.5 464.5z" />
    <glyph glyph-name="uni0422" unicode="&#x422;" horiz-adv-x="1105" 
d="M252 1434h1024l-8 -41h-492l-295 -1393h-41l295 1393h-491z" />
    <glyph glyph-name="uni0423" unicode="&#x423;" horiz-adv-x="1218" 
d="M633 440l691.997 994h43l-811 -1168c-69.333 -100 -134.166 -172.667 -194.499 -218s-125.166 -68 -194.499 -68c-15.333 0 -31.166 1.66699 -47.499 5s-28.5 7 -36.5 11l-12 4l8 41c30 -13.333 62 -20.333 96 -21c113.333 0 226 82 338 246l92 133l-334 1035h39z" />
    <glyph glyph-name="uni0424" unicode="&#x424;" horiz-adv-x="1720" 
d="M778 -41h-41.001l45 205c-190 0 -338.833 48.833 -446.5 146.5s-161.5 215.5 -161.5 353.5c0 178.667 80.5 331.167 241.5 457.5s364.5 189.5 610.5 189.5l35 164h41l-35 -164c188.667 0 336.834 -48.833 444.501 -146.5s161.5 -215.5 161.5 -353.5
c0 -178.667 -80.167 -331.167 -240.5 -457.5s-363.5 -189.5 -609.5 -189.5zM1057 1270l-226 -1065c232 0 423.167 59 573.5 177s225.5 260.333 225.5 427c0 128.667 -50.5 237.667 -151.5 327s-241.5 134 -421.5 134zM790.999 205l224.999 1065
c-233.333 0 -425.166 -59.167 -575.499 -177.5s-225.5 -261.166 -225.5 -428.499c0 -126.667 51 -234.834 153 -324.501s243 -134.5 423 -134.5z" />
    <glyph glyph-name="uni0425" unicode="&#x425;" horiz-adv-x="1228" 
d="M352 1434l330 -666l612 666h54l-650 -697l377 -737h-49l-352 707l-651 -707h-54l688 737l-354 697h49z" />
    <glyph glyph-name="uni0426" unicode="&#x426;" horiz-adv-x="1525" 
d="M154 0l303 1434h41l-295 -1393h932l295 1393h40l-294 -1393h184l-74 -348h-41l66 307h-1157z" />
    <glyph glyph-name="uni0427" unicode="&#x427;" horiz-adv-x="1433" 
d="M477 1434l-90.001 -430c-8 -36.667 -12 -71 -12 -103c0 -101.333 34.833 -181.333 104.5 -240s162.5 -88 278.5 -88c49.333 0 98.833 6.16699 148.5 18.5s91.834 26.666 126.501 42.999s66 33.166 94 50.499s49.667 32 65 44l20 19l146 686h41l-303 -1434h-41l147 696
c-5.33301 -4 -12.5 -9.66699 -21.5 -17s-28.5 -20.666 -58.5 -39.999s-61 -36.166 -93 -50.499s-73 -27.333 -123 -39s-99.333 -17.5 -148 -17.5c-126.667 0 -229 32.833 -307 98.5s-117 154.5 -117 266.5c0 34 4 69.667 12 107l90 430h41z" />
    <glyph glyph-name="uni0428" unicode="&#x428;" horiz-adv-x="2048" 
d="M154 0l303 1434h41l-295 -1393h717l294 1393h41l-294 -1393h716l295 1393h41l-303 -1434h-1556z" />
    <glyph glyph-name="uni0429" unicode="&#x429;" horiz-adv-x="2068" 
d="M154 0l303 1434h41l-295 -1393h717l294 1393h41l-294 -1393h716l295 1393h41l-295 -1393h185l-74 -348h-41l65 307h-1699z" />
    <glyph glyph-name="uni042A" unicode="&#x42a;" horiz-adv-x="1402" 
d="M748 0h-471.998l295 1393h-368l8 41h410l-121 -574h389c113.333 0 208.166 -35.5 284.499 -106.5s114.5 -155.5 114.5 -253.5c0 -136.667 -52.833 -254.167 -158.5 -352.5s-232.834 -147.5 -381.501 -147.5zM326.002 41h423.999c136.667 0 253.334 44.667 350.001 134
s145 197 145 323c0 90 -33.5 166 -100.5 228s-152.833 93 -257.5 93h-395z" />
    <glyph glyph-name="uni042B" unicode="&#x42b;" horiz-adv-x="1751" 
d="M1413 0h-41l303 1434h41zM625 0h-470.998l303 1434h41l-121 -574h389c113.333 0 208.166 -35.5 284.499 -106.5s114.5 -155.5 114.5 -253.5c0 -136.667 -52.833 -254.167 -158.5 -352.5s-232.834 -147.5 -381.501 -147.5zM203.002 41h423.999
c136.667 0 253.334 44.667 350.001 134s145 197 145 323c0 90 -33.333 166 -100 228s-152.667 93 -258 93h-395z" />
    <glyph glyph-name="uni042C" unicode="&#x42c;" horiz-adv-x="1300" 
d="M645 0h-491l303 1434h41l-121 -574h409c113.333 0 208.333 -35.5 285 -106.5s115 -155.5 115 -253.5c0 -136.667 -53 -254.167 -159 -352.5s-233.333 -147.5 -382 -147.5zM203 41h444c136.667 0 253.5 44.667 350.5 134s145.5 197 145.5 323c0 90 -33.5 166 -100.5 228
s-153.167 93 -258.5 93h-415z" />
    <glyph glyph-name="uni042D" unicode="&#x42d;" horiz-adv-x="1525" 
d="M72 297l33.999 19.998c4 -8 10.5 -18.5 19.5 -31.5s29.167 -36.5 60.5 -70.5s65.5 -64.333 102.5 -91s86.5 -50.667 148.5 -72s127.333 -32 196 -32c200.667 0 381 80 541 240c125.333 128.667 206.333 277.667 243 447h-817l8 41h819c6.66699 44 10.334 82 11.001 114
c0 157.333 -55.333 288.5 -166 393.5s-248.667 157.5 -414 157.5c-68 0 -134.833 -10.167 -200.5 -30.5s-120.334 -44.833 -164.001 -73.5s-82.5 -57.667 -116.5 -87s-59.333 -54.333 -76 -75l-25 -31l-26 21c5.33301 8 13.833 19.167 25.5 33.5s37.334 40 77.001 77
s81.334 69 125.001 96s100.334 52.167 170.001 75.5s140.5 35 212.5 35c173.333 0 319.5 -57 438.5 -171s178.5 -256.333 178.5 -427c0 -49.333 -5 -95.666 -15 -138.999c-40.667 -184 -128.667 -345.333 -264 -484c-166.667 -169.333 -356.334 -253.666 -569.001 -252.999
c-72.667 0 -141.334 10.833 -206.001 32.5s-117.5 48.167 -158.5 79.5s-76.833 62.333 -107.5 93s-53 57 -67 79z" />
    <glyph glyph-name="uni042E" unicode="&#x42e;" horiz-adv-x="2109" 
d="M1489 1454c155.333 0 289.999 -59.667 403.999 -179s171 -262.333 171 -429c0 -120 -23.833 -234.667 -71.5 -344s-109.667 -201.5 -186 -276.5s-163.666 -134.667 -261.999 -179s-196.833 -66.5 -295.5 -66.5c-155.333 0 -289.666 59.667 -402.999 179
s-170 262.333 -170 429c0 45.333 2.66699 85 8 119h-340l-149 -707h-41l303 1434h41l-146 -686h338c36.667 202 133.667 370.167 291 504.5s326.666 201.5 507.999 201.5zM1487 1413c-92.667 0 -185.167 -20.8311 -277.5 -62.498s-174.666 -98.334 -246.999 -170.001
s-131 -159.334 -176 -263.001s-67.5 -213.5 -67.5 -329.5c0 -157.333 52.5 -291.333 157.5 -402s230.5 -166 376.5 -166c92.667 0 185.167 20.833 277.5 62.5s174.666 98.334 246.999 170.001s131 159.5 176 263.5s67.5 214 67.5 330
c0 157.333 -52.5 291.166 -157.5 401.499s-230.5 165.5 -376.5 165.5z" />
    <glyph glyph-name="uni042F" unicode="&#x42f;" horiz-adv-x="1341" 
d="M1257 1393h-487.001c-131.333 0 -240.333 -39 -327 -117s-130 -177.667 -130 -299c0 -86 28.333 -157.667 85 -215s134.334 -86 233.001 -86h475zM773.999 1434h533l-303 -1434h-41l133 635h-525l-489 -635h-51l504 645c-6.66699 1.33301 -16.334 4 -29.001 8
s-34 14.667 -64 32s-56.5 36.833 -79.5 58.5s-44.167 52.667 -63.5 93s-29 84.5 -29 132.5c0 134 47.833 245 143.5 333s215.834 132 360.501 132z" />
    <glyph glyph-name="uni0430" unicode="&#x430;" horiz-adv-x="1228" 
d="M1028 696l62 286.999h40l-208 -983h-41l59 287c-4 -8 -10.5 -19 -19.5 -33s-27.833 -38.667 -56.5 -74s-59.334 -66.666 -92.001 -93.999s-74.667 -51.833 -126 -73.5s-103.666 -32.5 -156.999 -32.5c-98 0 -185.167 40.5 -261.5 121.5s-114.5 178.167 -114.5 291.5
c0 164 57.333 306.833 172 428.5s238 182.5 370 182.5c53.333 0 102.833 -10.667 148.5 -32s81.5 -47 107.5 -77s48.667 -60 68 -90s32.333 -55.333 39 -76zM653 962.999c-120 0 -233.168 -56.666 -339.501 -169.999s-159.5 -246 -159.5 -398c0 -104 34 -192.5 102 -265.5
s147.333 -109.5 238 -109.5c118.667 0 231.834 58.167 339.501 174.5s161.5 250.166 161.5 401.499c0 104 -34.5 191.167 -103.5 261.5s-148.5 105.5 -238.5 105.5z" />
    <glyph glyph-name="uni0431" unicode="&#x431;" horiz-adv-x="1157" 
d="M1038 535c0 -138 -51.499 -265.002 -154.499 -381.002s-226.167 -174 -369.5 -174c-106.667 0 -196.834 37.167 -270.501 111.5s-110.5 176.833 -110.5 307.5c0 54.667 7.66699 119.667 23 195c98 465.333 314.333 728 649 788c72.667 12 138.334 27.667 197.001 47
s98.667 35.333 120 48l35 18l12 -31c-86 -53.333 -206.667 -94.333 -362 -123c-151.333 -27.333 -278 -98.333 -380 -213s-178.667 -292.667 -230 -534c4 9.33301 9.33301 21.833 16 37.5s23.667 43.334 51 83.001s57.333 74.834 90 105.501s77 58.667 133 84
s115.667 38 179 38c105.333 0 193.666 -38.5 264.999 -115.5s107 -174.167 107 -291.5zM188.001 460.998c-6.66699 -36.667 -9.99902 -68 -9.99902 -94c0 -98 33.833 -180.333 101.5 -247s147.167 -100 238.5 -100c118.667 0 228.167 51 328.5 153s150.5 222.667 150.5 362
c0 108 -32.333 196 -97 264s-147 102 -247 102c-102.667 0 -199.334 -42.667 -290.001 -128s-149 -189.333 -175 -312z" />
    <glyph glyph-name="uni0432" unicode="&#x432;" horiz-adv-x="1044" 
d="M311 983l388.997 -0.000976562c74 0 134.167 -20.5 180.5 -61.5s69.5 -90.167 69.5 -147.5c0 -121.333 -56 -204 -168 -248c-26 -9.33301 -42.333 -14 -49 -14c4 -1.33301 9.83301 -3.33301 17.5 -6s20.334 -9.5 38.001 -20.5s33.334 -23.667 47.001 -38
s26.334 -34.166 38.001 -59.499s17.5 -53 17.5 -83c0 -91.333 -31 -165 -93 -221s-143.667 -84 -245 -84h-451zM634.997 491.999h-387l-96 -451h409c90 0 160.667 23.167 212 69.5s77 109.833 77 190.5c0 53.333 -19.167 98.5 -57.5 135.5s-90.833 55.5 -157.5 55.5z
M624.997 531.999c78 0 144.833 20.167 200.5 60.5s83.5 98.833 83.5 175.5c0 48 -20.5 89 -61.5 123s-93.5 51 -157.5 51h-348l-86 -410h369z" />
    <glyph glyph-name="uni0433" unicode="&#x433;" horiz-adv-x="890" 
d="M268 829l-24 30.998c9.33301 10.667 22.5 24 39.5 40s53.5 37.333 109.5 64s112.667 40 170 40c75.333 0 138.166 -22 188.499 -66s75.5 -95.333 75.5 -154c0 -70.667 -23.833 -127.167 -71.5 -169.5s-105.667 -72.333 -174 -90s-136.666 -34.667 -204.999 -51
s-126.333 -43.666 -174 -81.999s-71.5 -90.166 -71.5 -155.499c0 -58.667 24.167 -109.334 72.5 -152.001s111.5 -64 189.5 -64c57.333 0 112.666 13 165.999 39s92.333 51.333 117 76l37 39l22 -31c-4 -4 -9 -9.66699 -15 -17s-20.333 -20.666 -43 -39.999
s-46.667 -36.166 -72 -50.499s-57.333 -27.166 -96 -38.499s-78 -17 -118 -17c-87.333 0 -159.333 24.5 -216 73.5s-85 106.833 -85 173.5c0 75.333 23.833 135.166 71.5 179.499s105.667 75.666 174 93.999s136.666 35.833 204.999 52.5s126.333 43 174 79
s71.5 84.667 71.5 146c0 50.667 -21.167 94.167 -63.5 130.5s-96.166 54.5 -161.499 54.5c-52 0 -102.167 -11 -150.5 -33s-84.166 -44 -107.499 -66z" />
    <glyph glyph-name="uni0434" unicode="&#x434;" horiz-adv-x="1183" 
d="M522 1567c44 -15.333 87.167 -34.166 129.5 -56.499s90 -55 143 -98s99.333 -91.167 139 -144.5s73.167 -120.333 100.5 -201s41 -167.334 41 -260.001c0 -128.667 -18 -246.5 -54 -353.5s-83 -194.333 -141 -262s-121.5 -119.834 -190.5 -156.501s-138.5 -55 -208.5 -55
c-98 0 -183.833 39.5 -257.5 118.5s-110.5 173.167 -110.5 282.5c0 148.667 55.5 279.334 166.5 392.001s229.5 169 355.5 169c62.667 0 118.667 -12 168 -36s86.5 -52.667 111.5 -86s45.333 -67 61 -101s25.834 -63.333 30.501 -88l6 -35
c15.333 78 22.666 145.667 21.999 203c0 182.667 -49.167 337.167 -147.5 463.5s-228.5 217.5 -390.5 273.5zM963 461c6.66699 36.667 10.001 68.668 10.001 96.001c0 98 -32.5 179.833 -97.5 245.5s-142.5 98.5 -232.5 98.5c-118.667 0 -229.834 -51.833 -333.501 -155.5
s-155.5 -225.167 -155.5 -364.5c0 -100 32.667 -185.167 98 -255.5s143 -105.5 233 -105.5c104 0 203.167 43.167 297.5 129.5s154.5 190.166 180.5 311.499z" />
    <glyph glyph-name="uni0435" unicode="&#x435;" horiz-adv-x="1126" 
d="M1020 471l-863.997 0.000976562c-2.66699 -30 -4 -51.667 -4 -65c0 -106.667 34.667 -197.667 104 -273s154 -113 254 -113c42 0 83.167 6.16699 123.5 18.5s74.166 27.5 101.499 45.5s52 36.167 74 54.5s37.667 33.5 47 45.5l16 19l27 -21
c-4 -5.33301 -9.83301 -12.5 -17.5 -21.5s-24 -25.333 -49 -49s-51.833 -44.334 -80.5 -62.001s-64.834 -33.667 -108.501 -48s-88.834 -21.5 -135.501 -21.5c-106.667 0 -199.167 41.167 -277.5 123.5s-117.5 180.833 -117.5 295.5c0 169.333 56.667 312.5 170 429.5
s238 175.5 374 175.5c104 0 193.5 -37 268.5 -111s112.5 -167.667 112.5 -281c0 -39.333 -4 -79.333 -12 -120zM653.003 963.001c-116 0 -220.333 -44.832 -313 -134.499s-152 -195.167 -178 -316.5h827c6.66699 38 10 71.333 10 100
c0 101.333 -33.833 185.166 -101.5 251.499s-149.167 99.5 -244.5 99.5z" />
    <glyph glyph-name="uni0436" unicode="&#x436;" horiz-adv-x="1429" 
d="M254 983l420 -596l127 596h41l-127 -594l665 594h54l-445 -399l297 -584h-47l-274 553h-13l-247 -215l-72 -338h-41l72 338l-156 215h-6l-512 -553h-51l546 586l-276 397h45z" />
    <glyph glyph-name="uni0437" unicode="&#x437;" horiz-adv-x="860" 
d="M766 772c0 -65.333 -23.499 -120.168 -70.499 -164.501s-106.167 -76.833 -177.5 -97.5c5.33301 -1.33301 12.166 -3.66602 20.499 -6.99902s23 -10.833 44 -22.5s39.833 -25.334 56.5 -41.001s31.834 -36.834 45.501 -63.501s20.5 -55.667 20.5 -87
c0 -83.333 -36 -155.666 -108 -216.999s-163.667 -92 -275 -92c-39.333 0 -77.5 5.33301 -114.5 16s-66.833 24.167 -89.5 40.5s-42.834 32.833 -60.501 49.5s-30.167 30.334 -37.5 41.001l-12 16l37 29l11 -16.5c4.66699 -7 15.334 -19.333 32.001 -37
s34.834 -33 54.501 -46s45.834 -25 78.501 -36s67.667 -16.5 105 -16.5c100 0 181 26 243 78s93 114.333 93 187c0 56 -23 104.5 -69 145.5s-107 61.5 -183 61.5h-101l8 40h97c84.667 0 157.667 24 219 72s92 104 92 168c0 50.667 -21.833 95.167 -65.5 133.5
s-98.167 57.5 -163.5 57.5c-52 0 -102 -11 -150 -33s-82.667 -44 -104 -66l-35 -35l-25 31c9.33301 10.667 22.666 24 39.999 40s53.666 37.333 108.999 64s111.666 40 168.999 40c74 0 136.833 -23.667 188.5 -71s77.5 -101 77.5 -161z" />
    <glyph glyph-name="uni0438" unicode="&#x438;" 
d="M858 0l51.001 243.999c-2.66699 -6.66699 -7.33398 -16.167 -14.001 -28.5s-22 -33.666 -46 -63.999s-50.333 -57 -79 -80s-66.834 -44 -114.501 -63s-98.167 -28.5 -151.5 -28.5c-94 0 -172.5 30.333 -235.5 91s-94.5 138.667 -94.5 234
c0 35.333 3.33301 66.666 10 93.999l125 584h41l-125 -584c-6.66699 -34 -10 -63.333 -10 -88c0 -87.333 27.333 -157.666 82 -210.999s124.334 -80 209.001 -80c102.667 0 195.167 37.333 277.5 112s136.5 170.667 162.5 288l121 563h41l-209 -983h-41z" />
    <glyph glyph-name="uni0439" unicode="&#x439;" 
d="M858 0l51.001 243.999c-2.66699 -6.66699 -7.33398 -16.167 -14.001 -28.5s-22 -33.666 -46 -63.999s-50.333 -57 -79 -80s-66.834 -44 -114.501 -63s-98.167 -28.5 -151.5 -28.5c-94 0 -172.5 30.333 -235.5 91s-94.5 138.667 -94.5 234
c0 35.333 3.33301 66.666 10 93.999l125 584h41l-125 -584c-6.66699 -34 -10 -63.333 -10 -88c0 -87.333 27.333 -157.666 82 -210.999s124.334 -80 209.001 -80c102.667 0 195.167 37.333 277.5 112s136.5 170.667 162.5 288l121 563h41l-209 -983h-41zM733.001 1208
c61.333 0 113.501 18.833 156.501 56.5s71.5 87.167 85.5 148.5h41c-15.333 -72.667 -48.5 -131.834 -99.5 -177.501s-112.167 -68.5 -183.5 -68.5c-72.667 0 -129.334 23.333 -170.001 70s-53.667 105.334 -39 176.001h41c-13.333 -61.333 -4 -110.833 28 -148.5
s78.667 -56.5 140 -56.5z" />
    <glyph glyph-name="uni043A" unicode="&#x43a;" horiz-adv-x="1013" 
d="M197 256l-54 -256h-41l209 983h41l-145 -674l760 674h51l-445 -399l293 -584h-45l-274 553h-10z" />
    <glyph glyph-name="uni043B" unicode="&#x43b;" horiz-adv-x="1157" 
d="M403 983l656.002 0.000976562l-209 -983h-41l199 942h-574l-51 -246c-40.667 -191.333 -85 -341.833 -133 -451.5s-92.833 -181.167 -134.5 -214.5s-89.167 -50 -142.5 -50c-12 0 -24.167 1.66699 -36.5 5s-21.833 7 -28.5 11l-10 4l10 41
c23.333 -13.333 48.666 -20.333 75.999 -21c30 0 58.333 8.66699 85 26s55.667 48.166 87 92.499s62.666 113.5 93.999 207.5s62 210.667 92 350z" />
    <glyph glyph-name="uni043C" unicode="&#x43c;" horiz-adv-x="1351" 
d="M647 369l572 614h34l-209 -983h-40l190 901l-559 -604l-301 604l-191 -901h-41l209 983h27z" />
    <glyph glyph-name="uni043D" unicode="&#x43d;" horiz-adv-x="1198" 
d="M850 0l100 481h-706l-101 -481h-41l209 983h41l-98 -461h707l98 461h41l-209 -983h-41z" />
    <glyph glyph-name="uni043E" unicode="&#x43e;" horiz-adv-x="1187" 
d="M537 20c131.333 0 247.667 55 349 165s152 232.667 152 368c0 116 -36.833 213.333 -110.5 292s-163.834 118 -270.501 118c-124 0 -238.5 -53 -343.5 -159s-157.5 -231.333 -157.5 -376c0 -116 36.833 -213 110.5 -291s163.834 -117 270.501 -117zM1079 555
c0 -142 -55.167 -273.333 -165.5 -394s-239.5 -181 -387.5 -181c-116 0 -213.833 43 -293.5 129s-119.5 191 -119.5 315c0 157.333 58 293.333 174 408s242.333 172 379 172c116 0 213.833 -43.5 293.5 -130.5s119.5 -193.167 119.5 -318.5z" />
    <glyph glyph-name="uni043F" unicode="&#x43f;" horiz-adv-x="1187" 
d="M352 983l-53.001 -243.998c2.66699 6.66699 7.5 16.167 14.5 28.5s22.333 33.666 46 63.999s49.834 57 78.501 80s67 44.167 115 63.5s98.667 29 152 29c94 0 172.333 -30.5 235 -91.5s94 -139.167 94 -234.5c0 -26 -3.33301 -57.333 -10 -94l-123 -584h-41l123 584
c5.33301 26 8 54 8 84c0 87.333 -28 158.333 -84 213s-127 82 -213 82c-102.667 0 -194.5 -38.333 -275.5 -115s-133.833 -174.334 -158.5 -293.001l-117 -555h-41l209 983h41z" />
    <glyph glyph-name="uni0440" unicode="&#x440;" horiz-adv-x="1228" 
d="M352 983l-61.001 -287c4 8 10.5 19 19.5 33s28.167 38.667 57.5 74s60.333 66.666 93 93.999s75 52 127 74s104.333 33 157 33c98 0 185 -41.667 261 -125s114 -182.333 114 -297c0 -82 -17 -161 -51 -237s-77.667 -140.167 -131 -192.5
s-112.666 -94.166 -177.999 -125.499s-129.666 -47 -192.999 -47c-53.333 0 -102.5 10.5 -147.5 31.5s-80.167 46.5 -105.5 76.5s-46.833 60 -64.5 90s-29.834 55.333 -36.501 76l-10 33l-152 -717h-41l301 1413h41zM740.999 963c-120 0 -234.166 -58.499 -342.499 -175.499
s-162.5 -251.167 -162.5 -402.5c0 -104 33 -190.833 99 -260.5s144 -104.5 234 -104.5c120 0 234.667 56 344 168s164 243.333 164 394c0 105.333 -33.833 195.166 -101.5 269.499s-145.834 111.5 -234.501 111.5z" />
    <glyph glyph-name="uni0441" unicode="&#x441;" horiz-adv-x="1064" 
d="M655 963c-131.333 0 -247.334 -55.9971 -348.001 -167.997s-151 -236.333 -151 -373c0 -117.333 35.5 -213.666 106.5 -288.999s159.5 -113 265.5 -113c58.667 0 116.667 15.5 174 46.5s100.333 62.167 129 93.5l41 45l27 -23c-4 -5.33301 -9.83301 -12.5 -17.5 -21.5
s-24.334 -25.333 -50.001 -49s-52.167 -44.334 -79.5 -62.001s-61.833 -33.667 -103.5 -48s-83.167 -21.5 -124.5 -21.5c-116 0 -213.5 42.667 -292.5 128s-118.5 190 -118.5 314c0 155.333 56.667 291.166 170 407.499s237.333 174.5 372 174.5
c166.667 0 290.334 -69 371.001 -207l-35 -17c-2.66699 5.33301 -6.33398 12.166 -11.001 20.499s-16.167 22.666 -34.5 42.999s-39.166 38.833 -62.499 55.5s-55.166 31.5 -95.499 44.5s-84.5 19.5 -132.5 19.5z" />
    <glyph glyph-name="uni0442" unicode="&#x442;" horiz-adv-x="1781" 
d="M1454 0l122.999 584c24.667 113.333 10.667 204.833 -42 274.5s-124.667 104.5 -216 104.5c-88.667 0 -167.167 -34.167 -235.5 -102.5s-115.5 -160.5 -141.5 -276.5l-123 -584h-41l123 584c24.667 113.333 10.667 204.833 -42 274.5s-124.667 104.5 -216 104.5
c-88.667 0 -168.167 -36.667 -238.5 -110s-118.5 -172.666 -144.5 -297.999l-117 -555h-41l209 983h41l-49 -223c2.66699 6.66699 6.83398 15.5 12.501 26.5s19 30.5 40 58.5s43.833 52.5 68.5 73.5s57.5 40.5 98.5 58.5s84.5 27 130.5 27c52 0 97.5 -10 136.5 -30
s68 -44 87 -72s34.667 -56 47 -84s19.833 -52.333 22.5 -73l2 -28c2.66699 8 7.16699 18.5 13.5 31.5s20.333 35.833 42 68.5s45.834 61.667 72.501 87s62.5 48.333 107.5 69s93.5 31 145.5 31c101.333 0 181.666 -39.333 240.999 -118s75.333 -179.334 48 -302.001
l-123 -584h-41z" />
    </font>
</defs>
</svg>
